  0
SECTION
  2
HEADER
  9
$ACADVER
  1
AC1009
  9
$INSBASE
 10
0
 20
0
  9
$EXTMIN
 10
0.45
 20
2.890000000000001
  9
$EXTMAX
 10
8.265172533781811
 20
11.6119973733889
  9
$LIMMIN
 10
0.45
 20
2.890000000000001
  9
$LIMMAX
 10
8.265172533781811
 20
11.6119973733889
  9
$VIEWCTR
 10
10
 20
10
  9
$VIEWSIZE
 40
10
  9
$SNAPMODE
 70
0
  9
$SNAPUNIT
 10
1
 20
1
  9
$SNAPBASE
 10
0
 20
0
  9
$SNAPANG
 50
0
  9
$SNAPSTYLE
 70
0
  9
$SNAPISOPAIR
 70
0
  9
$GRIDMODE
 70
0
  9
$GRIDUNIT
 10
0
 20
0
  9
$ORTHOMODE
 70
0
  9
$REGENMODE
 70
1
  9
$FILLMODE
 70
1
  9
$QTEXTMODE
 70
0
  9
$DRAGMODE
 70
2
  9
$LTSCALE
 40
1
  9
$OSMODE
 70
0
  9
$ATTMODE
 70
1
  9
$TEXTSIZE
 40
3.5
  9
$TRACEWID
 40
0.5
  9
$TEXTSTYLE
  7
STANDARD
  9
$CLAYER
  8
0
  9
$CELTYPE
  6
BYLAYER
  9
$CECOLOR
 62
256
  9
$DIMSCALE
 40
1
  9
$DIMASZ
 40
0.18
  9
$DIMEXO
 40
0.0625
  9
$DIMDLI
 40
0.38
  9
$DIMRND
 40
0
  9
$DIMDLE
 40
0
  9
$DIMEXE
 40
0.18
  9
$DIMTP
 40
0
  9
$DIMTM
 40
0
  9
$DIMTXT
 40
0.18
  9
$DIMCEN
 40
0.09
  9
$DIMTSZ
 40
0
  9
$DIMTOL
 70
0
  9
$DIMLIM
 70
0
  9
$DIMTIH
 70
1
  9
$DIMTOH
 70
1
  9
$DIMSE1
 70
0
  9
$DIMSE2
 70
0
  9
$DIMTAD
 70
0
  9
$DIMZIN
 70
0
  9
$DIMBLK
  1

  9
$DIMASO
 70
1
  9
$DIMSHO
 70
1
  9
$DIMPOST
  1

  9
$DIMAPOST
  1

  9
$DIMALT
 70
0
  9
$DIMALTD
 70
2
  9
$DIMALTF
 40
25.4
  9
$DIMLFAC
 40
1
  9
$DIMTOFL
 70
0
  9
$DIMTVP
 40
0
  9
$DIMTIX
 70
0
  9
$DIMSOXD
 70
0
  9
$DIMSAH
 70
0
  9
$DIMBLK1
  1

  9
$DIMBLK2
  1

  9
$DIMSTYLE
  2
*UNNAMED
  9
$DIMCLRD
 70
0
  9
$DIMCLRE
 70
0
  9
$DIMCLRT
 70
0
  9
$DIMTFAC
 40
1
  9
$DIMGAP
 40
0.09
  9
$LUNITS
 70
2
  9
$LUPREC
 70
4
  9
$AXISMODE
 70
0
  9
$AXISUNIT
 10
0
 20
0
  9
$SKETCHINC
 40
0.1
  9
$FILLETRAD
 40
2
  9
$AUNITS
 70
0
  9
$AUPREC
 70
0
  9
$MENU
  1
ACAD
  9
$ELEVATION
 40
0
  9
$THICKNESS
 40
0
  9
$VIEWDIR
 10
0
 20
0
 30
1
  9
$LIMCHECK
 70
0
  9
$BLIPMODE
 70
1
  9
$CHAMFERA
 40
0
  9
$CHAMFERB
 40
0
  9
$FASTZOOM
 70
1
  9
$SKPOLY
 70
0
  9
$ANGBASE
 50
0
  9
$ANGDIR
 70
0
  9
$PDMODE
 70
0
  9
$PDSIZE
 40
0
  9
$PLINEWID
 40
0
  9
$COORDS
 70
2
  0
ENDSEC
  0
SECTION
  2
TABLES
  0
TABLE
  2
DIMSTYLE
 70
2
  0
DIMSTYLE
  2
DMST_1
 70
0
  3

  4

  5

  6

  7

 40
1
 41
0.1
 42
0
 43
0.7
 44
0.2
 45
0
 46
0
 47
0
 48
0
140
0.1
141
0
142
0.1
143
25.4
144
1
145
0
146
1
147
0.2
 71
0
 72
0
 73
0
 74
0
 75
0
 76
0
 77
0
 78
9
170
0
171
2
172
0
173
0
174
0
175
0
176
7
177
7
178
7
  0
DIMSTYLE
  2
DMST_2
 70
0
  3

  4

  5

  6

  7

 40
1
 41
0.1
 42
0
 43
0.7
 44
0.2
 45
0
 46
0
 47
0
 48
0
140
0.1
141
0
142
0.1
143
25.4
144
1
145
0
146
1
147
0.25
 71
0
 72
0
 73
0
 74
0
 75
0
 76
0
 77
0
 78
9
170
0
171
2
172
0
173
0
174
0
175
0
176
7
177
7
178
7
  0
ENDTAB
  0
TABLE
  2
LTYPE
 70
9
  0
LTYPE
  2
CONTINUOUS
 70
64
  3
Solid line
 72
65
 73
0
 40
0
  0
LTYPE
  2
BORDER
 70
64
  3
__ __ . __ __ .
 72
65
 73
6
 40
0.4016709316692257
 49
0.1147631233340645
 49
-0.05738156166703224
 49
0.1147631233340645
 49
-0.05738156166703224
 49
0
 49
-0.05738156166703224
  0
LTYPE
  2
CENTER
 70
64
  3
____ _ ____ _
 72
65
 73
4
 40
0.4590524933362579
 49
0.2869078083351612
 49
-0.05738156166703224
 49
0.05738156166703224
 49
-0.05738156166703224
  0
LTYPE
  2
DASHDOT
 70
64
  3
__ . __ . __ .
 72
65
 73
4
 40
0.229526246668129
 49
0.1147631233340645
 49
-0.05738156166703224
 49
0
 49
-0.05738156166703224
  0
LTYPE
  2
DASHED
 70
64
  3
__ __ __ __ __
 72
65
 73
2
 40
0.1721446850010967
 49
0.1147631233340645
 49
-0.05738156166703224
  0
LTYPE
  2
DIVIDE
 70
64
  3
__ . . __ . . 
 72
65
 73
6
 40
0.2869078083351612
 49
0.1147631233340645
 49
-0.05738156166703224
 49
0
 49
-0.05738156166703224
 49
0
 49
-0.05738156166703224
  0
LTYPE
  2
DOT
 70
64
  3
..............
 72
65
 73
4
 40
0.1147631233340645
 49
0
 49
-0.05738156166703224
 49
0
 49
-0.05738156166703224
  0
LTYPE
  2
HIDDEN
 70
64
  3
_ _ _ _ _ _ _
 72
65
 73
2
 40
0.08607234250054836
 49
0.05738156166703224
 49
-0.02869078083351612
  0
LTYPE
  2
PHANTOM
 70
64
  3
_____ _ _ _____ _ _ 
 72
65
 73
6
 40
0.5738156166703224
 49
0.2869078083351612
 49
-0.05738156166703224
 49
0.05738156166703224
 49
-0.05738156166703224
 49
0.05738156166703224
 49
-0.05738156166703224
  0
ENDTAB
  0
TABLE
  2
LAYER
 70
2
  0
LAYER
  2
0
 70
0
 62
7
  6
CONTINUOUS
  0
ENDTAB
  0
TABLE
  2
STYLE
 70
4
  0
STYLE
  2
STANDARD
 70
0
 40
0
 41
1
 50
0
 71
0
 42
3.5
  3
txt
  4

  0
STYLE
  2
SIMPLEX
 70
0
 40
0
 41
1
 50
0
 71
0
 42
3.5
  3
simplex
  4

  0
STYLE
  2
COMPLEX
 70
0
 40
0
 41
1
 50
0
 71
0
 42
3.5
  3
complex
  4

  0
STYLE
  2
ITALIC
 70
0
 40
0
 41
1
 50
0
 71
0
 42
3.5
  3
italic
  4

  0
ENDTAB
  0
TABLE
  2
VIEW
 70
0
  0
ENDTAB
  0
ENDSEC
  0
SECTION
  2
BLOCKS
  0
BLOCK
  8
0
  2
*X0
 70
1
 10
0
 20
0
 30
0
  0
LINE
  8
0
 62
7
 10
7.424999999999999
 20
7.955330085889909
 30
0
 11
7.569669914110088
 21
8.099999999999998
 31
0
  0
LINE
  8
0
 62
7
 10
7.425
 20
8.061396103067892
 30
0
 11
7.463603896932105
 21
8.099999999999998
 31
0
  0
LINE
  8
0
 62
7
 10
7.525735931288069
 20
7.949999999999995
 30
0
 11
7.599999999999999
 21
8.024264068711926
 31
0
  0
ENDBLK
  8
0
  0
BLOCK
  8
0
  2
*X1
 70
1
 10
0
 20
0
 30
0
  0
LINE
  8
0
 62
7
 10
7.424999999999999
 20
10.71304653251744
 30
0
 11
7.561953467482555
 21
10.85
 31
0
  0
LINE
  8
0
 62
7
 10
7.424999999999999
 20
10.50091449816147
 30
0
 11
7.6
 21
10.67591449816148
 31
0
  0
LINE
  8
0
 62
7
 10
7.424999999999999
 20
10.28878246380551
 30
0
 11
7.6
 21
10.46378246380551
 31
0
  0
LINE
  8
0
 62
7
 10
7.424999999999999
 20
10.07665042944955
 30
0
 11
7.6
 21
10.25165042944955
 31
0
  0
LINE
  8
0
 62
7
 10
7.424999999999999
 20
9.864518395093583
 30
0
 11
7.6
 21
10.03951839509358
 31
0
  0
LINE
  8
0
 62
7
 10
7.424999999999999
 20
9.652386360737619
 30
0
 11
7.6
 21
9.82738636073762
 31
0
  0
LINE
  8
0
 62
7
 10
7.424999999999999
 20
9.440254326381655
 30
0
 11
7.6
 21
9.615254326381656
 31
0
  0
LINE
  8
0
 62
7
 10
7.424999999999999
 20
9.228122292025692
 30
0
 11
7.6
 21
9.403122292025692
 31
0
  0
LINE
  8
0
 62
7
 10
7.424999999999999
 20
9.015990257669728
 30
0
 11
7.6
 21
9.190990257669728
 31
0
  0
LINE
  8
0
 62
7
 10
7.424999999999999
 20
8.803858223313764
 30
0
 11
7.6
 21
8.978858223313765
 31
0
  0
LINE
  8
0
 62
7
 10
7.424999999999999
 20
8.5917261889578
 30
0
 11
7.6
 21
8.766726188957801
 31
0
  0
LINE
  8
0
 62
7
 10
7.424999999999999
 20
8.379594154601836
 30
0
 11
7.6
 21
8.554594154601837
 31
0
  0
LINE
  8
0
 62
7
 10
7.557537879754123
 20
8.299999999999995
 30
0
 11
7.6
 21
8.342462120245873
 31
0
  0
LINE
  8
0
 62
7
 10
7.425
 20
10.81911254969542
 30
0
 11
7.455887450304571
 21
10.85
 31
0
  0
LINE
  8
0
 62
7
 10
7.425
 20
10.60698051533946
 30
0
 11
7.600000000000001
 21
10.78198051533946
 31
0
  0
LINE
  8
0
 62
7
 10
7.425
 20
10.39484848098349
 30
0
 11
7.600000000000001
 21
10.56984848098349
 31
0
  0
LINE
  8
0
 62
7
 10
7.425
 20
10.18271644662753
 30
0
 11
7.600000000000001
 21
10.35771644662753
 31
0
  0
LINE
  8
0
 62
7
 10
7.425
 20
9.970584412271567
 30
0
 11
7.600000000000001
 21
10.14558441227157
 31
0
  0
LINE
  8
0
 62
7
 10
7.425
 20
9.758452377915603
 30
0
 11
7.600000000000001
 21
9.933452377915602
 31
0
  0
LINE
  8
0
 62
7
 10
7.425
 20
9.546320343559639
 30
0
 11
7.600000000000001
 21
9.721320343559638
 31
0
  0
LINE
  8
0
 62
7
 10
7.425
 20
9.334188309203675
 30
0
 11
7.600000000000001
 21
9.509188309203674
 31
0
  0
LINE
  8
0
 62
7
 10
7.425
 20
9.122056274847711
 30
0
 11
7.600000000000001
 21
9.29705627484771
 31
0
  0
LINE
  8
0
 62
7
 10
7.425
 20
8.909924240491748
 30
0
 11
7.600000000000001
 21
9.084924240491747
 31
0
  0
LINE
  8
0
 62
7
 10
7.425
 20
8.697792206135784
 30
0
 11
7.600000000000001
 21
8.872792206135783
 31
0
  0
LINE
  8
0
 62
7
 10
7.425
 20
8.48566017177982
 30
0
 11
7.600000000000001
 21
8.660660171779819
 31
0
  0
LINE
  8
0
 62
7
 10
7.451471862576141
 20
8.299999999999997
 30
0
 11
7.600000000000001
 21
8.448528137423855
 31
0
  0
ENDBLK
  8
0
  0
BLOCK
  8
0
  2
*X2
 70
1
 10
0
 20
0
 30
0
  0
LINE
  8
0
 62
7
 10
7.424999999999998
 20
11.13731060122937
 30
0
 11
7.487689398770626
 21
11.2
 31
0
  0
LINE
  8
0
 62
7
 10
7.549821433126593
 20
11.05
 30
0
 11
7.599999999999997
 21
11.10017856687341
 31
0
  0
LINE
  8
0
 62
7
 10
7.44375541594861
 20
11.05
 30
0
 11
7.593755415948609
 21
11.2
 31
0
  0
ENDBLK
  8
0
  0
BLOCK
  8
0
  2
*X3
 70
1
 10
0
 20
0
 30
0
  0
LINE
  8
0
 62
7
 10
4.874085501838516
 20
7.949999999999996
 30
0
 11
5.024085501838519
 21
8.1
 31
0
  0
LINE
  8
0
 62
7
 10
4.864999999999998
 20
8.04698051533946
 30
0
 11
4.918019484660535
 21
8.099999999999998
 31
0
  0
LINE
  8
0
 62
7
 10
4.980151519016497
 20
7.949999999999995
 30
0
 11
5.039999999999999
 21
8.009848480983498
 31
0
  0
ENDBLK
  8
0
  0
BLOCK
  8
0
  2
*X4
 70
1
 10
0
 20
0
 30
0
  0
LINE
  8
0
 62
7
 10
4.864999999999998
 20
10.69863094478901
 30
0
 11
5.016369055210983
 21
10.85
 31
0
  0
LINE
  8
0
 62
7
 10
4.864999999999998
 20
10.48649891043305
 30
0
 11
5.039999999999999
 21
10.66149891043305
 31
0
  0
LINE
  8
0
 62
7
 10
4.864999999999998
 20
10.27436687607708
 30
0
 11
5.039999999999999
 21
10.44936687607708
 31
0
  0
LINE
  8
0
 62
7
 10
4.864999999999998
 20
10.06223484172112
 30
0
 11
5.039999999999999
 21
10.23723484172112
 31
0
  0
LINE
  8
0
 62
7
 10
4.864999999999998
 20
9.850102807365154
 30
0
 11
5.039999999999999
 21
10.02510280736515
 31
0
  0
LINE
  8
0
 62
7
 10
4.864999999999998
 20
9.63797077300919
 30
0
 11
5.039999999999999
 21
9.812970773009191
 31
0
  0
LINE
  8
0
 62
7
 10
4.864999999999998
 20
9.425838738653226
 30
0
 11
5.039999999999999
 21
9.600838738653227
 31
0
  0
LINE
  8
0
 62
7
 10
4.864999999999998
 20
9.213706704297262
 30
0
 11
5.039999999999999
 21
9.388706704297263
 31
0
  0
LINE
  8
0
 62
7
 10
4.864999999999998
 20
9.001574669941299
 30
0
 11
5.039999999999999
 21
9.176574669941299
 31
0
  0
LINE
  8
0
 62
7
 10
4.864999999999998
 20
8.789442635585335
 30
0
 11
5.039999999999999
 21
8.964442635585335
 31
0
  0
LINE
  8
0
 62
7
 10
4.864999999999998
 20
8.577310601229371
 30
0
 11
5.039999999999999
 21
8.752310601229372
 31
0
  0
LINE
  8
0
 62
7
 10
4.864999999999998
 20
8.365178566873407
 30
0
 11
5.039999999999999
 21
8.540178566873408
 31
0
  0
LINE
  8
0
 62
7
 10
5.011953467482551
 20
8.299999999999995
 30
0
 11
5.039999999999999
 21
8.328046532517444
 31
0
  0
LINE
  8
0
 62
7
 10
4.864999999999999
 20
10.80469696196699
 30
0
 11
4.910303038033002
 21
10.85
 31
0
  0
LINE
  8
0
 62
7
 10
4.864999999999999
 20
10.59256492761103
 30
0
 11
5.040000000000001
 21
10.76756492761103
 31
0
  0
LINE
  8
0
 62
7
 10
4.864999999999999
 20
10.38043289325507
 30
0
 11
5.040000000000001
 21
10.55543289325506
 31
0
  0
LINE
  8
0
 62
7
 10
4.864999999999999
 20
10.1683008588991
 30
0
 11
5.040000000000001
 21
10.3433008588991
 31
0
  0
LINE
  8
0
 62
7
 10
4.864999999999999
 20
9.956168824543138
 30
0
 11
5.040000000000001
 21
10.13116882454314
 31
0
  0
LINE
  8
0
 62
7
 10
4.864999999999999
 20
9.744036790187174
 30
0
 11
5.040000000000001
 21
9.919036790187173
 31
0
  0
LINE
  8
0
 62
7
 10
4.864999999999999
 20
9.53190475583121
 30
0
 11
5.040000000000001
 21
9.706904755831209
 31
0
  0
LINE
  8
0
 62
7
 10
4.864999999999999
 20
9.319772721475246
 30
0
 11
5.040000000000001
 21
9.494772721475245
 31
0
  0
LINE
  8
0
 62
7
 10
4.864999999999999
 20
9.107640687119282
 30
0
 11
5.040000000000001
 21
9.282640687119281
 31
0
  0
LINE
  8
0
 62
7
 10
4.864999999999999
 20
8.895508652763318
 30
0
 11
5.040000000000001
 21
9.070508652763317
 31
0
  0
LINE
  8
0
 62
7
 10
4.864999999999999
 20
8.683376618407355
 30
0
 11
5.040000000000001
 21
8.858376618407354
 31
0
  0
LINE
  8
0
 62
7
 10
4.864999999999999
 20
8.471244584051391
 30
0
 11
5.040000000000001
 21
8.64624458405139
 31
0
  0
LINE
  8
0
 62
7
 10
4.90588745030457
 20
8.299999999999997
 30
0
 11
5.040000000000001
 21
8.434112549695426
 31
0
  0
ENDBLK
  8
0
  0
BLOCK
  8
0
  2
*X5
 70
1
 10
0
 20
0
 30
0
  0
LINE
  8
0
 62
7
 10
4.865
 20
11.12289501350094
 30
0
 11
4.942104986499055
 21
11.2
 31
0
  0
LINE
  8
0
 62
7
 10
5.004237020855022
 20
11.05
 30
0
 11
5.04
 21
11.08576297914498
 31
0
  0
LINE
  8
0
 62
7
 10
4.898171003677041
 20
11.05
 30
0
 11
5.039999999999999
 21
11.19182899632296
 31
0
  0
ENDBLK
  8
0
  0
BLOCK
  8
0
  2
*X6
 70
1
 10
0
 20
0
 30
0
  0
LINE
  8
0
 62
7
  6
DASHED
 10
4.714999999999999
 20
8.215178566873409
 30
0
 11
4.799821433126593
 21
8.299999999999995
 31
0
  0
LINE
  8
0
 62
7
  6
DASHED
 10
4.811953467482557
 20
8.099999999999996
 30
0
 11
5.011953467482557
 21
8.299999999999995
 31
0
  0
LINE
  8
0
 62
7
  6
DASHED
 10
5.02408550183852
 20
8.099999999999996
 30
0
 11
5.224085501838521
 21
8.299999999999995
 31
0
  0
LINE
  8
0
 62
7
  6
DASHED
 10
5.236217536194484
 20
8.099999999999996
 30
0
 11
5.436217536194484
 21
8.299999999999995
 31
0
  0
LINE
  8
0
 62
7
  6
DASHED
 10
5.448349570550448
 20
8.099999999999996
 30
0
 11
5.648349570550448
 21
8.299999999999995
 31
0
  0
LINE
  8
0
 62
7
  6
DASHED
 10
5.660481604906412
 20
8.099999999999996
 30
0
 11
5.860481604906412
 21
8.299999999999995
 31
0
  0
LINE
  8
0
 62
7
  6
DASHED
 10
5.872613639262376
 20
8.099999999999996
 30
0
 11
6.072613639262376
 21
8.299999999999995
 31
0
  0
LINE
  8
0
 62
7
  6
DASHED
 10
6.08474567361834
 20
8.099999999999996
 30
0
 11
6.28474567361834
 21
8.299999999999995
 31
0
  0
LINE
  8
0
 62
7
  6
DASHED
 10
6.296877707974303
 20
8.099999999999996
 30
0
 11
6.496877707974304
 21
8.299999999999995
 31
0
  0
LINE
  8
0
 62
7
  6
DASHED
 10
6.509009742330267
 20
8.099999999999996
 30
0
 11
6.709009742330267
 21
8.299999999999995
 31
0
  0
LINE
  8
0
 62
7
  6
DASHED
 10
6.721141776686231
 20
8.099999999999996
 30
0
 11
6.921141776686231
 21
8.299999999999995
 31
0
  0
LINE
  8
0
 62
7
  6
DASHED
 10
6.933273811042195
 20
8.099999999999996
 30
0
 11
7.133273811042195
 21
8.299999999999995
 31
0
  0
LINE
  8
0
 62
7
  6
DASHED
 10
7.145405845398159
 20
8.099999999999996
 30
0
 11
7.345405845398159
 21
8.299999999999995
 31
0
  0
LINE
  8
0
 62
7
  6
DASHED
 10
7.357537879754123
 20
8.099999999999996
 30
0
 11
7.557537879754123
 21
8.299999999999995
 31
0
  0
LINE
  8
0
 62
7
  6
DASHED
 10
7.569669914110086
 20
8.099999999999996
 30
0
 11
7.749999999999998
 21
8.280330085889908
 31
0
  0
LINE
  8
0
 62
7
 10
4.714999999999998
 20
8.109112549695425
 30
0
 11
4.905887450304574
 21
8.299999999999995
 31
0
  0
LINE
  8
0
 62
7
 10
4.918019484660539
 20
8.099999999999996
 30
0
 11
5.118019484660538
 21
8.299999999999995
 31
0
  0
LINE
  8
0
 62
7
 10
5.130151519016502
 20
8.099999999999996
 30
0
 11
5.330151519016502
 21
8.299999999999995
 31
0
  0
LINE
  8
0
 62
7
 10
5.342283553372466
 20
8.099999999999996
 30
0
 11
5.542283553372465
 21
8.299999999999995
 31
0
  0
LINE
  8
0
 62
7
 10
5.55441558772843
 20
8.099999999999996
 30
0
 11
5.754415587728429
 21
8.299999999999995
 31
0
  0
LINE
  8
0
 62
7
 10
5.766547622084394
 20
8.099999999999996
 30
0
 11
5.966547622084393
 21
8.299999999999995
 31
0
  0
LINE
  8
0
 62
7
 10
5.978679656440358
 20
8.099999999999996
 30
0
 11
6.178679656440357
 21
8.299999999999995
 31
0
  0
LINE
  8
0
 62
7
 10
6.190811690796322
 20
8.099999999999996
 30
0
 11
6.390811690796321
 21
8.299999999999995
 31
0
  0
LINE
  8
0
 62
7
 10
6.402943725152285
 20
8.099999999999996
 30
0
 11
6.602943725152285
 21
8.299999999999995
 31
0
  0
LINE
  8
0
 62
7
 10
6.615075759508249
 20
8.099999999999996
 30
0
 11
6.815075759508249
 21
8.299999999999995
 31
0
  0
LINE
  8
0
 62
7
 10
6.827207793864213
 20
8.099999999999996
 30
0
 11
7.027207793864212
 21
8.299999999999995
 31
0
  0
LINE
  8
0
 62
7
 10
7.039339828220177
 20
8.099999999999996
 30
0
 11
7.239339828220176
 21
8.299999999999995
 31
0
  0
LINE
  8
0
 62
7
 10
7.251471862576141
 20
8.099999999999996
 30
0
 11
7.45147186257614
 21
8.299999999999995
 31
0
  0
LINE
  8
0
 62
7
 10
7.463603896932105
 20
8.099999999999996
 30
0
 11
7.663603896932104
 21
8.299999999999995
 31
0
  0
LINE
  8
0
 62
7
 10
7.675735931288068
 20
8.099999999999996
 30
0
 11
7.749999999999999
 21
8.174264068711926
 31
0
  0
ENDBLK
  8
0
  0
BLOCK
  8
0
  2
*X7
 70
1
 10
0
 20
0
 30
0
  0
LINE
  8
0
 62
7
  6
DASHED
 10
4.714999999999998
 20
10.97289501350094
 30
0
 11
4.792104986499063
 21
11.05
 31
0
  0
LINE
  8
0
 62
7
  6
DASHED
 10
4.804237020855025
 20
10.85
 30
0
 11
5.004237020855027
 21
11.05
 31
0
  0
LINE
  8
0
 62
7
  6
DASHED
 10
5.016369055210989
 20
10.85
 30
0
 11
5.216369055210991
 21
11.05
 31
0
  0
LINE
  8
0
 62
7
  6
DASHED
 10
5.228501089566953
 20
10.85
 30
0
 11
5.428501089566955
 21
11.05
 31
0
  0
LINE
  8
0
 62
7
  6
DASHED
 10
5.440633123922916
 20
10.85
 30
0
 11
5.640633123922918
 21
11.05
 31
0
  0
LINE
  8
0
 62
7
  6
DASHED
 10
5.65276515827888
 20
10.85
 30
0
 11
5.852765158278882
 21
11.05
 31
0
  0
LINE
  8
0
 62
7
  6
DASHED
 10
5.864897192634844
 20
10.85
 30
0
 11
6.064897192634846
 21
11.05
 31
0
  0
LINE
  8
0
 62
7
  6
DASHED
 10
6.077029226990808
 20
10.85
 30
0
 11
6.27702922699081
 21
11.05
 31
0
  0
LINE
  8
0
 62
7
  6
DASHED
 10
6.289161261346772
 20
10.85
 30
0
 11
6.489161261346774
 21
11.05
 31
0
  0
LINE
  8
0
 62
7
  6
DASHED
 10
6.501293295702736
 20
10.85
 30
0
 11
6.701293295702738
 21
11.05
 31
0
  0
LINE
  8
0
 62
7
  6
DASHED
 10
6.713425330058699
 20
10.85
 30
0
 11
6.913425330058701
 21
11.05
 31
0
  0
LINE
  8
0
 62
7
  6
DASHED
 10
6.925557364414663
 20
10.85
 30
0
 11
7.125557364414665
 21
11.05
 31
0
  0
LINE
  8
0
 62
7
  6
DASHED
 10
7.137689398770627
 20
10.85
 30
0
 11
7.337689398770629
 21
11.05
 31
0
  0
LINE
  8
0
 62
7
  6
DASHED
 10
7.349821433126591
 20
10.85
 30
0
 11
7.549821433126593
 21
11.05
 31
0
  0
LINE
  8
0
 62
7
  6
DASHED
 10
7.561953467482555
 20
10.85
 30
0
 11
7.75
 21
11.03804653251744
 31
0
  0
LINE
  8
0
 62
7
 10
4.714999999999998
 20
10.86682899632296
 30
0
 11
4.898171003677042
 21
11.05
 31
0
  0
LINE
  8
0
 62
7
 10
4.910303038033008
 20
10.85
 30
0
 11
5.110303038033006
 21
11.05
 31
0
  0
LINE
  8
0
 62
7
 10
5.122435072388972
 20
10.85
 30
0
 11
5.32243507238897
 21
11.05
 31
0
  0
LINE
  8
0
 62
7
 10
5.334567106744935
 20
10.85
 30
0
 11
5.534567106744934
 21
11.05
 31
0
  0
LINE
  8
0
 62
7
 10
5.546699141100899
 20
10.85
 30
0
 11
5.746699141100898
 21
11.05
 31
0
  0
LINE
  8
0
 62
7
 10
5.758831175456863
 20
10.85
 30
0
 11
5.958831175456861
 21
11.05
 31
0
  0
LINE
  8
0
 62
7
 10
5.970963209812827
 20
10.85
 30
0
 11
6.170963209812825
 21
11.05
 31
0
  0
LINE
  8
0
 62
7
 10
6.183095244168791
 20
10.85
 30
0
 11
6.383095244168789
 21
11.05
 31
0
  0
LINE
  8
0
 62
7
 10
6.395227278524755
 20
10.85
 30
0
 11
6.595227278524753
 21
11.05
 31
0
  0
LINE
  8
0
 62
7
 10
6.607359312880718
 20
10.85
 30
0
 11
6.807359312880717
 21
11.05
 31
0
  0
LINE
  8
0
 62
7
 10
6.819491347236682
 20
10.85
 30
0
 11
7.019491347236681
 21
11.05
 31
0
  0
LINE
  8
0
 62
7
 10
7.031623381592646
 20
10.85
 30
0
 11
7.231623381592645
 21
11.05
 31
0
  0
LINE
  8
0
 62
7
 10
7.24375541594861
 20
10.85
 30
0
 11
7.443755415948608
 21
11.05
 31
0
  0
LINE
  8
0
 62
7
 10
7.455887450304574
 20
10.85
 30
0
 11
7.655887450304572
 21
11.05
 31
0
  0
LINE
  8
0
 62
7
 10
7.668019484660538
 20
10.85
 30
0
 11
7.749999999999999
 21
10.93198051533946
 31
0
  0
ENDBLK
  8
0
  0
BLOCK
  8
0
  2
*X8
 70
1
 10
0
 20
0
 30
0
  0
LINE
  8
0
 62
7
 10
0.5
 20
8.03068721963673
 30
0
 11
0.5693127803632674
 21
8.099999999999998
 31
0
  0
LINE
  8
0
 62
7
 10
0.6314448147192295
 20
7.949999999999995
 30
0
 11
0.7399999999999998
 21
8.058555185280765
 31
0
  0
LINE
  8
0
 62
7
 10
0.5253787975412476
 20
7.949999999999996
 30
0
 11
0.6753787975412497
 21
8.099999999999998
 31
0
  0
LINE
  8
0
 62
7
 10
0.7375108318972119
 20
7.949999999999996
 30
0
 11
0.7400000000000002
 21
7.952489168102783
 31
0
  0
ENDBLK
  8
0
  0
BLOCK
  8
0
  2
*X9
 70
1
 10
0
 20
0
 30
0
  0
LINE
  8
0
 62
7
 10
0.5000000000000004
 20
10.78840366626426
 30
0
 11
0.5615963337357339
 21
10.85
 31
0
  0
LINE
  8
0
 62
7
 10
0.5000000000000004
 20
10.5762716319083
 30
0
 11
0.7400000000000002
 21
10.8162716319083
 31
0
  0
LINE
  8
0
 62
7
 10
0.5000000000000004
 20
10.36413959755233
 30
0
 11
0.7400000000000002
 21
10.60413959755233
 31
0
  0
LINE
  8
0
 62
7
 10
0.5000000000000004
 20
10.15200756319637
 30
0
 11
0.7400000000000002
 21
10.39200756319637
 31
0
  0
LINE
  8
0
 62
7
 10
0.5000000000000004
 20
9.939875528840407
 30
0
 11
0.7400000000000002
 21
10.17987552884041
 31
0
  0
LINE
  8
0
 62
7
 10
0.5000000000000004
 20
9.727743494484443
 30
0
 11
0.7400000000000002
 21
9.967743494484441
 31
0
  0
LINE
  8
0
 62
7
 10
0.5000000000000004
 20
9.515611460128479
 30
0
 11
0.7400000000000002
 21
9.755611460128478
 31
0
  0
LINE
  8
0
 62
7
 10
0.5000000000000004
 20
9.303479425772515
 30
0
 11
0.7400000000000002
 21
9.543479425772514
 31
0
  0
LINE
  8
0
 62
7
 10
0.5000000000000004
 20
9.091347391416551
 30
0
 11
0.7400000000000002
 21
9.33134739141655
 31
0
  0
LINE
  8
0
 62
7
 10
0.5000000000000004
 20
8.879215357060588
 30
0
 11
0.7400000000000002
 21
9.119215357060586
 31
0
  0
LINE
  8
0
 62
7
 10
0.5000000000000004
 20
8.667083322704624
 30
0
 11
0.7400000000000002
 21
8.907083322704622
 31
0
  0
LINE
  8
0
 62
7
 10
0.5000000000000004
 20
8.45495128834866
 30
0
 11
0.7400000000000002
 21
8.694951288348658
 31
0
  0
LINE
  8
0
 62
7
 10
0.5571807460073028
 20
8.299999999999997
 30
0
 11
0.7400000000000002
 21
8.482819253992695
 31
0
  0
LINE
  8
0
 62
7
 10
0.5
 20
10.68233764908628
 30
0
 11
0.6676623509137176
 21
10.85
 31
0
  0
LINE
  8
0
 62
7
 10
0.5
 20
10.47020561473031
 30
0
 11
0.7400000000000007
 21
10.71020561473031
 31
0
  0
LINE
  8
0
 62
7
 10
0.5
 20
10.25807358037435
 30
0
 11
0.7400000000000007
 21
10.49807358037435
 31
0
  0
LINE
  8
0
 62
7
 10
0.5
 20
10.04594154601839
 30
0
 11
0.7400000000000007
 21
10.28594154601839
 31
0
  0
LINE
  8
0
 62
7
 10
0.5
 20
9.833809511662423
 30
0
 11
0.7400000000000007
 21
10.07380951166242
 31
0
  0
LINE
  8
0
 62
7
 10
0.5
 20
9.621677477306459
 30
0
 11
0.7400000000000007
 21
9.861677477306458
 31
0
  0
LINE
  8
0
 62
7
 10
0.5
 20
9.409545442950495
 30
0
 11
0.7400000000000007
 21
9.649545442950494
 31
0
  0
LINE
  8
0
 62
7
 10
0.5
 20
9.197413408594532
 30
0
 11
0.7400000000000007
 21
9.43741340859453
 31
0
  0
LINE
  8
0
 62
7
 10
0.5
 20
8.985281374238568
 30
0
 11
0.7400000000000007
 21
9.225281374238566
 31
0
  0
LINE
  8
0
 62
7
 10
0.5
 20
8.773149339882604
 30
0
 11
0.7400000000000007
 21
9.013149339882602
 31
0
  0
LINE
  8
0
 62
7
 10
0.5
 20
8.56101730552664
 30
0
 11
0.7400000000000007
 21
8.801017305526639
 31
0
  0
LINE
  8
0
 62
7
 10
0.5
 20
8.348885271170676
 30
0
 11
0.7400000000000007
 21
8.588885271170675
 31
0
  0
LINE
  8
0
 62
7
 10
0.6632467631852861
 20
8.299999999999997
 30
0
 11
0.7400000000000007
 21
8.376753236814711
 31
0
  0
ENDBLK
  8
0
  0
BLOCK
  8
0
  2
*X10
 70
1
 10
0
 20
0
 30
0
  0
LINE
  8
0
 62
7
 10
0.549464299379772
 20
11.05
 30
0
 11
0.6994642993797706
 21
11.2
 31
0
  0
LINE
  8
0
 62
7
 10
0.5
 20
11.10660171779821
 30
0
 11
0.5933982822017896
 21
11.2
 31
0
  0
LINE
  8
0
 62
7
 10
0.655530316557754
 20
11.05
 30
0
 11
0.7400000000000002
 21
11.13446968344225
 31
0
  0
ENDBLK
  8
0
  0
BLOCK
  8
0
  2
*X11
 70
1
 10
0
 20
0
 30
0
  0
LINE
  8
0
 62
7
  6
DASHED
 10
2.189999999999998
 20
8.235762979144978
 30
0
 11
2.254237020855017
 21
8.299999999999997
 31
0
  0
LINE
  8
0
 62
7
  6
DASHED
 10
2.266369055210981
 20
8.099999999999996
 30
0
 11
2.466369055210981
 21
8.299999999999997
 31
0
  0
LINE
  8
0
 62
7
  6
DASHED
 10
2.478501089566945
 20
8.099999999999996
 30
0
 11
2.489999999999998
 21
8.111498910433049
 31
0
  0
LINE
  8
0
 62
7
 10
2.189999999999998
 20
8.129696961966996
 30
0
 11
2.360303038033
 21
8.299999999999997
 31
0
  0
LINE
  8
0
 62
7
 10
2.372435072388963
 20
8.099999999999996
 30
0
 11
2.489999999999998
 21
8.217564927611031
 31
0
  0
ENDBLK
  8
0
  0
BLOCK
  8
0
  2
*X12
 70
1
 10
0
 20
0
 30
0
  0
LINE
  8
0
 62
7
  6
DASHED
 10
2.189999999999997
 20
10.99347942577251
 30
0
 11
2.246520574227486
 21
11.05
 31
0
  0
LINE
  8
0
 62
7
  6
DASHED
 10
2.258652608583449
 20
10.85
 30
0
 11
2.45865260858345
 21
11.05
 31
0
  0
LINE
  8
0
 62
7
  6
DASHED
 10
2.470784642939413
 20
10.85
 30
0
 11
2.489999999999998
 21
10.86921535706058
 31
0
  0
LINE
  8
0
 62
7
 10
2.189999999999999
 20
10.88741340859453
 30
0
 11
2.352586591405468
 21
11.05
 31
0
  0
LINE
  8
0
 62
7
 10
2.36471862576143
 20
10.85
 30
0
 11
2.489999999999996
 21
10.97528137423856
 31
0
  0
ENDBLK
  8
0
  0
BLOCK
  8
0
  2
*X13
 70
1
 10
0
 20
0
 30
0
  0
LINE
  8
0
 62
7
  6
DASHED
 10
0.4999999999999991
 20
11.00053570062023
 30
0
 11
0.5494642993797729
 21
11.05
 31
0
  0
LINE
  8
0
 62
7
  6
DASHED
 10
0.5615963337357357
 20
10.85
 30
0
 11
0.7399999999999993
 21
11.02840366626426
 31
0
  0
LINE
  8
0
 62
7
 10
0.5000000000000009
 20
10.89446968344225
 30
0
 11
0.655530316557754
 21
11.05
 31
0
  0
LINE
  8
0
 62
7
 10
0.6676623509137176
 20
10.85
 30
0
 11
0.7400000000000002
 21
10.92233764908628
 31
0
  0
ENDBLK
  8
0
  0
BLOCK
  8
0
  2
*X14
 70
1
 10
0
 20
0
 30
0
  0
LINE
  8
0
 62
7
  6
DASHED
 10
0.5
 20
8.242819253992694
 30
0
 11
0.5571807460073028
 21
8.299999999999997
 31
0
  0
LINE
  8
0
 62
7
  6
DASHED
 10
0.5693127803632687
 20
8.099999999999998
 30
0
 11
0.7399999999999998
 21
8.270687219636729
 31
0
  0
LINE
  8
0
 62
7
 10
0.5
 20
8.136753236814712
 30
0
 11
0.6632467631852856
 21
8.299999999999997
 31
0
  0
LINE
  8
0
 62
7
 10
0.6753787975412497
 20
8.099999999999998
 30
0
 11
0.7400000000000007
 21
8.164621202458747
 31
0
  0
ENDBLK
  8
0
  0
BLOCK
  8
0
  2
*X15
 70
1
 10
0
 20
0
 30
0
  0
LINE
  8
0
 62
7
 10
4.864999999999998
 20
5.395330085889909
 30
0
 11
4.939669914110088
 21
5.469999999999999
 31
0
  0
LINE
  8
0
 62
7
 10
4.714999999999999
 20
5.245330085889909
 30
0
 11
4.789669914110089
 21
5.319999999999999
 31
0
  0
LINE
  8
0
 62
7
 10
4.761801948466061
 20
5.080000000000001
 30
0
 11
5.039999999999999
 21
5.358198051533946
 31
0
  0
LINE
  8
0
 62
7
 10
4.973933982822025
 20
5.080000000000001
 30
0
 11
5.213933982822022
 21
5.319999999999999
 31
0
  0
LINE
  8
0
 62
7
 10
5.186066017177989
 20
5.080000000000001
 30
0
 11
5.426066017177986
 21
5.319999999999999
 31
0
  0
LINE
  8
0
 62
7
 10
5.398198051533953
 20
5.080000000000001
 30
0
 11
5.63819805153395
 21
5.319999999999999
 31
0
  0
LINE
  8
0
 62
7
 10
5.610330085889917
 20
5.080000000000001
 30
0
 11
5.850330085889913
 21
5.319999999999999
 31
0
  0
LINE
  8
0
 62
7
 10
5.822462120245881
 20
5.080000000000001
 30
0
 11
6.062462120245877
 21
5.319999999999999
 31
0
  0
LINE
  8
0
 62
7
 10
6.034594154601844
 20
5.080000000000001
 30
0
 11
6.274594154601841
 21
5.319999999999999
 31
0
  0
LINE
  8
0
 62
7
 10
6.246726188957808
 20
5.080000000000001
 30
0
 11
6.486726188957805
 21
5.319999999999999
 31
0
  0
LINE
  8
0
 62
7
 10
6.458858223313772
 20
5.080000000000001
 30
0
 11
6.698858223313769
 21
5.319999999999999
 31
0
  0
LINE
  8
0
 62
7
 10
6.670990257669736
 20
5.080000000000001
 30
0
 11
6.910990257669733
 21
5.319999999999999
 31
0
  0
LINE
  8
0
 62
7
 10
6.8831222920257
 20
5.080000000000001
 30
0
 11
7.123122292025696
 21
5.319999999999999
 31
0
  0
LINE
  8
0
 62
7
 10
7.424999999999999
 20
5.409745673618338
 30
0
 11
7.48525432638166
 21
5.469999999999999
 31
0
  0
LINE
  8
0
 62
7
 10
7.095254326381664
 20
5.080000000000001
 30
0
 11
7.33525432638166
 21
5.319999999999999
 31
0
  0
LINE
  8
0
 62
7
 10
7.307386360737627
 20
5.080000000000001
 30
0
 11
7.6
 21
5.372613639262375
 31
0
  0
LINE
  8
0
 62
7
 10
7.519518395093591
 20
5.080000000000001
 30
0
 11
7.759518395093589
 21
5.32
 31
0
  0
LINE
  8
0
 62
7
 10
7.731650429449555
 20
5.080000000000001
 30
0
 11
7.765000000000001
 21
5.113349570550446
 31
0
  0
LINE
  8
0
 62
7
 10
4.715
 20
5.139264068711928
 30
0
 11
5.039999999999999
 21
5.464264068711928
 31
0
  0
LINE
  8
0
 62
7
 10
4.867867965644043
 20
5.080000000000002
 30
0
 11
5.10786796564404
 21
5.319999999999999
 31
0
  0
LINE
  8
0
 62
7
 10
5.080000000000007
 20
5.080000000000002
 30
0
 11
5.320000000000004
 21
5.319999999999999
 31
0
  0
LINE
  8
0
 62
7
 10
5.292132034355971
 20
5.080000000000002
 30
0
 11
5.532132034355968
 21
5.319999999999999
 31
0
  0
LINE
  8
0
 62
7
 10
5.504264068711935
 20
5.080000000000002
 30
0
 11
5.744264068711932
 21
5.319999999999999
 31
0
  0
LINE
  8
0
 62
7
 10
5.716396103067899
 20
5.080000000000002
 30
0
 11
5.956396103067895
 21
5.319999999999999
 31
0
  0
LINE
  8
0
 62
7
 10
5.928528137423863
 20
5.080000000000002
 30
0
 11
6.168528137423859
 21
5.319999999999999
 31
0
  0
LINE
  8
0
 62
7
 10
6.140660171779826
 20
5.080000000000002
 30
0
 11
6.380660171779823
 21
5.319999999999999
 31
0
  0
LINE
  8
0
 62
7
 10
6.35279220613579
 20
5.080000000000002
 30
0
 11
6.592792206135787
 21
5.319999999999999
 31
0
  0
LINE
  8
0
 62
7
 10
6.564924240491754
 20
5.080000000000002
 30
0
 11
6.804924240491751
 21
5.319999999999999
 31
0
  0
LINE
  8
0
 62
7
 10
6.777056274847718
 20
5.080000000000002
 30
0
 11
7.017056274847715
 21
5.319999999999999
 31
0
  0
LINE
  8
0
 62
7
 10
6.989188309203682
 20
5.080000000000002
 30
0
 11
7.229188309203678
 21
5.319999999999999
 31
0
  0
LINE
  8
0
 62
7
 10
7.201320343559646
 20
5.080000000000002
 30
0
 11
7.591320343559643
 21
5.47
 31
0
  0
LINE
  8
0
 62
7
 10
7.413452377915609
 20
5.080000000000002
 30
0
 11
7.653452377915607
 21
5.32
 31
0
  0
LINE
  8
0
 62
7
 10
7.625584412271573
 20
5.080000000000002
 30
0
 11
7.764999999999999
 21
5.219415587728427
 31
0
  0
ENDBLK
  8
0
  0
BLOCK
  8
0
  2
*X16
 70
1
 10
0
 20
0
 30
0
  0
LINE
  8
0
 62
7
 10
4.714999999999998
 20
5.033198051533944
 30
0
 11
4.72180194846606
 21
5.04
 31
0
  0
LINE
  8
0
 62
7
 10
4.714999999999998
 20
4.82106601717798
 30
0
 11
4.933933982822024
 21
5.04
 31
0
  0
LINE
  8
0
 62
7
 10
4.864999999999998
 20
4.758933982822015
 30
0
 11
5.146066017177988
 21
5.04
 31
0
  0
LINE
  8
0
 62
7
 10
5.118198051533952
 20
4.800000000000001
 30
0
 11
5.358198051533952
 21
5.04
 31
0
  0
LINE
  8
0
 62
7
 10
4.864999999999998
 20
4.546801948466051
 30
0
 11
5.039999999999999
 21
4.721801948466052
 31
0
  0
LINE
  8
0
 62
7
 10
5.330330085889916
 20
4.800000000000001
 30
0
 11
5.570330085889916
 21
5.04
 31
0
  0
LINE
  8
0
 62
7
 10
4.864999999999998
 20
4.334669914110087
 30
0
 11
5.039999999999999
 21
4.509669914110088
 31
0
  0
LINE
  8
0
 62
7
 10
5.542462120245879
 20
4.800000000000001
 30
0
 11
5.78246212024588
 21
5.04
 31
0
  0
LINE
  8
0
 62
7
 10
4.864999999999998
 20
4.122537879754123
 30
0
 11
5.039999999999999
 21
4.297537879754124
 31
0
  0
LINE
  8
0
 62
7
 10
5.754594154601843
 20
4.800000000000001
 30
0
 11
5.994594154601844
 21
5.04
 31
0
  0
LINE
  8
0
 62
7
 10
4.864999999999998
 20
3.910405845398159
 30
0
 11
5.039999999999999
 21
4.08540584539816
 31
0
  0
LINE
  8
0
 62
7
 10
5.966726188957807
 20
4.800000000000001
 30
0
 11
6.206726188957807
 21
5.04
 31
0
  0
LINE
  8
0
 62
7
 10
4.864999999999998
 20
3.698273811042195
 30
0
 11
5.039999999999999
 21
3.873273811042196
 31
0
  0
LINE
  8
0
 62
7
 10
6.178858223313771
 20
4.800000000000001
 30
0
 11
6.418858223313771
 21
5.04
 31
0
  0
LINE
  8
0
 62
7
 10
4.864999999999998
 20
3.486141776686231
 30
0
 11
5.039999999999999
 21
3.661141776686232
 31
0
  0
LINE
  8
0
 62
7
 10
6.390990257669735
 20
4.800000000000001
 30
0
 11
6.630990257669735
 21
5.04
 31
0
  0
LINE
  8
0
 62
7
 10
4.864999999999998
 20
3.274009742330267
 30
0
 11
5.039999999999999
 21
3.449009742330267
 31
0
  0
LINE
  8
0
 62
7
 10
6.603122292025699
 20
4.800000000000001
 30
0
 11
6.843122292025699
 21
5.04
 31
0
  0
LINE
  8
0
 62
7
 10
6.815254326381663
 20
4.800000000000001
 30
0
 11
7.055254326381663
 21
5.04
 31
0
  0
LINE
  8
0
 62
7
 10
7.027386360737626
 20
4.800000000000001
 30
0
 11
7.267386360737627
 21
5.04
 31
0
  0
LINE
  8
0
 62
7
 10
7.23951839509359
 20
4.800000000000001
 30
0
 11
7.47951839509359
 21
5.04
 31
0
  0
LINE
  8
0
 62
7
 10
7.424999999999998
 20
4.773349570550443
 30
0
 11
7.691650429449554
 21
5.04
 31
0
  0
LINE
  8
0
 62
7
 10
7.663782463805519
 20
4.800000000000001
 30
0
 11
7.764999999999999
 21
4.901217536194481
 31
0
  0
LINE
  8
0
 62
7
 10
7.424999999999998
 20
4.561217536194479
 30
0
 11
7.599999999999998
 21
4.736217536194479
 31
0
  0
LINE
  8
0
 62
7
 10
7.424999999999998
 20
4.349085501838515
 30
0
 11
7.599999999999998
 21
4.524085501838515
 31
0
  0
LINE
  8
0
 62
7
 10
7.424999999999998
 20
4.136953467482551
 30
0
 11
7.599999999999998
 21
4.311953467482551
 31
0
  0
LINE
  8
0
 62
7
 10
7.424999999999998
 20
3.924821433126588
 30
0
 11
7.599999999999998
 21
4.099821433126587
 31
0
  0
LINE
  8
0
 62
7
 10
7.424999999999998
 20
3.712689398770623
 30
0
 11
7.599999999999998
 21
3.887689398770623
 31
0
  0
LINE
  8
0
 62
7
 10
7.424999999999998
 20
3.500557364414659
 30
0
 11
7.599999999999998
 21
3.675557364414659
 31
0
  0
LINE
  8
0
 62
7
 10
7.486574669941304
 20
3.350000000000001
 30
0
 11
7.599999999999998
 21
3.463425330058695
 31
0
  0
LINE
  8
0
 62
7
 10
4.714999999999999
 20
4.927132034355962
 30
0
 11
4.827867965644042
 21
5.040000000000001
 31
0
  0
LINE
  8
0
 62
7
 10
4.800000000000002
 20
4.800000000000001
 30
0
 11
5.040000000000006
 21
5.040000000000001
 31
0
  0
LINE
  8
0
 62
7
 10
4.864999999999998
 20
4.652867965644032
 30
0
 11
5.25213203435597
 21
5.040000000000001
 31
0
  0
LINE
  8
0
 62
7
 10
5.224264068711935
 20
4.800000000000001
 30
0
 11
5.464264068711934
 21
5.040000000000001
 31
0
  0
LINE
  8
0
 62
7
 10
4.864999999999998
 20
4.440735931288068
 30
0
 11
5.039999999999999
 21
4.61573593128807
 31
0
  0
LINE
  8
0
 62
7
 10
5.436396103067898
 20
4.800000000000001
 30
0
 11
5.676396103067898
 21
5.040000000000001
 31
0
  0
LINE
  8
0
 62
7
 10
4.864999999999998
 20
4.228603896932104
 30
0
 11
5.039999999999999
 21
4.403603896932106
 31
0
  0
LINE
  8
0
 62
7
 10
5.648528137423862
 20
4.800000000000001
 30
0
 11
5.888528137423862
 21
5.040000000000001
 31
0
  0
LINE
  8
0
 62
7
 10
4.864999999999998
 20
4.01647186257614
 30
0
 11
5.039999999999999
 21
4.191471862576142
 31
0
  0
LINE
  8
0
 62
7
 10
5.860660171779826
 20
4.800000000000001
 30
0
 11
6.100660171779825
 21
5.040000000000001
 31
0
  0
LINE
  8
0
 62
7
 10
4.864999999999998
 20
3.804339828220177
 30
0
 11
5.039999999999999
 21
3.979339828220178
 31
0
  0
LINE
  8
0
 62
7
 10
6.07279220613579
 20
4.800000000000001
 30
0
 11
6.312792206135789
 21
5.040000000000001
 31
0
  0
LINE
  8
0
 62
7
 10
4.864999999999998
 20
3.592207793864212
 30
0
 11
5.039999999999999
 21
3.767207793864214
 31
0
  0
LINE
  8
0
 62
7
 10
6.284924240491754
 20
4.800000000000001
 30
0
 11
6.524924240491753
 21
5.040000000000001
 31
0
  0
LINE
  8
0
 62
7
 10
4.864999999999998
 20
3.380075759508248
 30
0
 11
5.039999999999999
 21
3.55507575950825
 31
0
  0
LINE
  8
0
 62
7
 10
6.497056274847718
 20
4.800000000000001
 30
0
 11
6.737056274847717
 21
5.040000000000001
 31
0
  0
LINE
  8
0
 62
7
 10
4.947056274847715
 20
3.25
 30
0
 11
5.039999999999999
 21
3.342943725152285
 31
0
  0
LINE
  8
0
 62
7
 10
6.709188309203681
 20
4.800000000000001
 30
0
 11
6.949188309203681
 21
5.040000000000001
 31
0
  0
LINE
  8
0
 62
7
 10
6.921320343559645
 20
4.800000000000001
 30
0
 11
7.161320343559645
 21
5.040000000000001
 31
0
  0
LINE
  8
0
 62
7
 10
7.133452377915609
 20
4.800000000000001
 30
0
 11
7.373452377915608
 21
5.040000000000001
 31
0
  0
LINE
  8
0
 62
7
 10
7.345584412271573
 20
4.800000000000001
 30
0
 11
7.585584412271572
 21
5.040000000000001
 31
0
  0
LINE
  8
0
 62
7
 10
7.424999999999999
 20
4.667283553372462
 30
0
 11
7.765
 21
5.007283553372464
 31
0
  0
LINE
  8
0
 62
7
 10
7.424999999999999
 20
4.455151519016498
 30
0
 11
7.599999999999998
 21
4.630151519016497
 31
0
  0
LINE
  8
0
 62
7
 10
7.424999999999999
 20
4.243019484660534
 30
0
 11
7.599999999999998
 21
4.418019484660533
 31
0
  0
LINE
  8
0
 62
7
 10
7.424999999999999
 20
4.03088745030457
 30
0
 11
7.599999999999998
 21
4.205887450304569
 31
0
  0
LINE
  8
0
 62
7
 10
7.424999999999999
 20
3.818755415948606
 30
0
 11
7.599999999999998
 21
3.993755415948606
 31
0
  0
LINE
  8
0
 62
7
 10
7.424999999999999
 20
3.606623381592642
 30
0
 11
7.599999999999998
 21
3.781623381592641
 31
0
  0
LINE
  8
0
 62
7
 10
7.424999999999999
 20
3.394491347236678
 30
0
 11
7.599999999999998
 21
3.569491347236677
 31
0
  0
LINE
  8
0
 62
7
 10
7.592640687119287
 20
3.350000000000001
 30
0
 11
7.599999999999998
 21
3.357359312880713
 31
0
  0
ENDBLK
  8
0
  0
BLOCK
  8
0
  2
*D0
 70
1
 10
0
 20
0
 30
0
  0
LINE
  8
0
 62
7
 10
8.135172533781811
 20
10.22858782362454
 30
0
 11
8.135172533781811
 21
11.05
 31
0
  0
LINE
  8
0
 62
7
 10
8.135172533781811
 20
8.299999999999997
 30
0
 11
8.135172533781811
 21
9.148587823624538
 31
0
  0
LINE
  8
0
 62
7
 10
7.749999999999998
 20
11.05
 30
0
 11
8.185172533781811
 21
11.05
 31
0
  0
LINE
  8
0
 62
7
 10
7.749999999999998
 20
8.299999999999997
 30
0
 11
8.185172533781811
 21
8.299999999999997
 31
0
  0
LINE
  8
0
 62
7
 10
8.099817194722483
 20
8.335355339059324
 30
0
 11
8.170527872841138
 21
8.26464466094067
 31
0
  0
LINE
  8
0
 62
7
 10
8.170527872841138
 20
11.01464466094067
 30
0
 11
8.099817194722483
 21
11.08535533905933
 31
0
  0
TEXT
  8
0
 62
7
 10
8.105172533781811
 20
9.55108782362454
 30
0
 40
0.1
  1
2,75
 50
90
 41
0.9
  0
TEXT
  8
0
 62
7
 10
8.265172533781811
 20
9.348587823624539
 30
0
 40
0.1
  1
(260-280)
 50
90
 41
0.9
  0
ENDBLK
  8
0
  0
BLOCK
  8
0
  2
*D1
 70
1
 10
0
 20
0
 30
0
  0
LINE
  8
0
 62
7
 10
6.604262984017451
 20
11.5569973733889
 30
0
 11
7.425
 21
11.5569973733889
 31
0
  0
LINE
  8
0
 62
7
 10
5.039999999999999
 20
11.5569973733889
 30
0
 11
5.92926298401745
 21
11.5569973733889
 31
0
  0
LINE
  8
0
 62
7
 10
7.425
 20
11.2
 30
0
 11
7.425
 21
11.6069973733889
 31
0
  0
LINE
  8
0
 62
7
 10
5.039999999999999
 20
11.2
 30
0
 11
5.039999999999999
 21
11.6069973733889
 31
0
  0
LINE
  8
0
 62
7
 10
7.389644660940673
 20
11.52164203432957
 30
0
 11
7.460355339059327
 21
11.59235271244823
 31
0
  0
LINE
  8
0
 62
7
 10
5.075355339059326
 20
11.59235271244823
 30
0
 11
5.004644660940672
 21
11.52164203432957
 31
0
  0
TEXT
  8
0
 62
7
 10
6.12926298401745
 20
11.5119973733889
 30
0
 40
0.1
  1
2,39
 41
0.9
  0
ENDBLK
  8
0
  0
BLOCK
  8
0
  2
*D2
 70
1
 10
0
 20
0
 30
0
  0
LINE
  8
0
 62
7
 10
4.52199818386985
 20
4.373429341253611
 30
0
 11
4.52199818386985
 21
4.800000000000001
 31
0
  0
LINE
  8
0
 62
7
 10
4.52199818386985
 20
3.250000000000001
 30
0
 11
4.52199818386985
 21
3.62842934125361
 31
0
  0
LINE
  8
0
 62
7
 10
4.864999999999998
 20
4.800000000000001
 30
0
 11
4.47199818386985
 21
4.800000000000001
 31
0
  0
LINE
  8
0
 62
7
 10
4.864999999999998
 20
3.250000000000001
 30
0
 11
4.47199818386985
 21
3.250000000000001
 31
0
  0
LINE
  8
0
 62
7
 10
4.486642844810523
 20
3.285355339059328
 30
0
 11
4.557353522929177
 21
3.214644660940674
 31
0
  0
LINE
  8
0
 62
7
 10
4.557353522929177
 20
4.764644660940673
 30
0
 11
4.486642844810523
 21
4.835355339059328
 31
0
  0
TEXT
  8
0
 62
7
 10
4.56699818386985
 20
3.87842934125361
 30
0
 40
0.1
  1
1,55
 50
90
 41
0.9
  0
ENDBLK
  8
0
  0
BLOCK
  8
0
  2
*D3
 70
1
 10
0
 20
0
 30
0
  0
LINE
  8
0
 62
7
 10
6.64052467850448
 20
5.70447922486229
 30
0
 11
7.424999999999999
 21
5.70447922486229
 31
0
  0
LINE
  8
0
 62
7
 10
5.039999999999999
 20
5.70447922486229
 30
0
 11
5.865524678504481
 21
5.70447922486229
 31
0
  0
LINE
  8
0
 62
7
 10
7.424999999999999
 20
5.319999999999999
 30
0
 11
7.424999999999999
 21
5.75447922486229
 31
0
  0
LINE
  8
0
 62
7
 10
5.039999999999999
 20
5.319999999999999
 30
0
 11
5.039999999999999
 21
5.75447922486229
 31
0
  0
LINE
  8
0
 62
7
 10
5.075355339059326
 20
5.739834563921617
 30
0
 11
5.004644660940672
 21
5.669123885802962
 31
0
  0
LINE
  8
0
 62
7
 10
7.389644660940672
 20
5.669123885802962
 30
0
 11
7.460355339059326
 21
5.739834563921617
 31
0
  0
TEXT
  8
0
 62
7
 10
6.115524678504481
 20
5.65947922486229
 30
0
 40
0.1
  1
2,39
 41
0.9
  0
ENDBLK
  8
0
  0
BLOCK
  8
0
  2
*D4
 70
1
 10
0
 20
0
 30
0
  0
LINE
  8
0
 62
7
 10
8.011527784165052
 20
4.469597479844421
 30
0
 11
8.011527784165052
 21
4.800000000000001
 31
0
  0
LINE
  8
0
 62
7
 10
8.011527784165052
 20
3.350000000000001
 30
0
 11
8.011527784165052
 21
3.724597479844421
 31
0
  0
LINE
  8
0
 62
7
 10
7.6
 20
4.800000000000001
 30
0
 11
8.061527784165053
 21
4.800000000000001
 31
0
  0
LINE
  8
0
 62
7
 10
7.6
 20
3.350000000000001
 30
0
 11
8.061527784165053
 21
3.350000000000001
 31
0
  0
LINE
  8
0
 62
7
 10
8.046883123224379
 20
4.764644660940673
 30
0
 11
7.976172445105725
 21
4.835355339059328
 31
0
  0
LINE
  8
0
 62
7
 10
7.976172445105725
 20
3.385355339059329
 30
0
 11
8.046883123224379
 21
3.314644660940674
 31
0
  0
TEXT
  8
0
 62
7
 10
8.056527784165052
 20
3.974597479844421
 30
0
 40
0.1
  1
1,45
 50
90
 41
0.9
  0
ENDBLK
  8
0
  0
ENDSEC
  0
SECTION
  2
ENTITIES
  0
INSERT
  8
0
  2
*X0
 10
0
 20
0
 30
0
  0
INSERT
  8
0
  2
*X1
 10
0
 20
0
 30
0
  0
INSERT
  8
0
  2
*X2
 10
0
 20
0
 30
0
  0
INSERT
  8
0
  2
*X3
 10
0
 20
0
 30
0
  0
INSERT
  8
0
  2
*X4
 10
0
 20
0
 30
0
  0
INSERT
  8
0
  2
*X5
 10
0
 20
0
 30
0
  0
INSERT
  8
0
  2
*X6
 10
0
 20
0
 30
0
  0
INSERT
  8
0
  2
*X7
 10
0
 20
0
 30
0
  0
INSERT
  8
0
  2
*X8
 10
0
 20
0
 30
0
  0
INSERT
  8
0
  2
*X9
 10
0
 20
0
 30
0
  0
INSERT
  8
0
  2
*X10
 10
0
 20
0
 30
0
  0
INSERT
  8
0
  2
*X11
 10
0
 20
0
 30
0
  0
INSERT
  8
0
  2
*X12
 10
0
 20
0
 30
0
  0
INSERT
  8
0
  2
*X13
 10
0
 20
0
 30
0
  0
INSERT
  8
0
  2
*X14
 10
0
 20
0
 30
0
  0
INSERT
  8
0
  2
*X15
 10
0
 20
0
 30
0
  0
INSERT
  8
0
  2
*X16
 10
0
 20
0
 30
0
  0
LINE
  8
0
 62
7
 10
6.46
 20
3.791954440397882
 30
0
 11
6.46
 21
3.59480914402558
 31
0
  0
LINE
  8
0
 62
7
 10
6.403927494728819
 20
3.835
 30
0
 11
6.46
 21
3.791954440397882
 31
0
  0
LINE
  8
0
 62
7
 10
6.25029310201097
 20
3.835
 30
0
 11
6.340391145275371
 21
3.835
 31
0
  0
LINE
  8
0
 62
7
 10
6.25029310201097
 20
3.835
 30
0
 11
6.403927494728819
 21
3.835
 31
0
  0
LINE
  8
0
 62
7
 10
6.063458397481448
 20
3.835
 30
0
 11
6.229482122823739
 21
3.835
 31
0
  0
LINE
  8
0
 62
7
 10
6.004999999999999
 20
3.795481758766045
 30
0
 11
6.063458397481448
 21
3.835
 31
0
  0
LINE
  8
0
 62
7
 10
6.004999999999999
 20
3.616281611356249
 30
0
 11
6.004999999999999
 21
3.623673367835009
 31
0
  0
LINE
  8
0
 62
7
 10
6.004999999999999
 20
3.616281611356249
 30
0
 11
6.004999999999999
 21
3.725174447662431
 31
0
  0
LINE
  8
0
 62
7
 10
6.004999999999999
 20
3.616281611356249
 30
0
 11
6.004999999999999
 21
3.616281611356249
 31
0
  0
LINE
  8
0
 62
7
 10
6.004999999999999
 20
3.616281611356249
 30
0
 11
6.004999999999999
 21
3.795481758766045
 31
0
  0
LINE
  8
0
 62
7
 10
5.094999999999999
 20
3.61085443248441
 30
0
 11
5.094999999999999
 21
3.250000000000001
 31
0
  0
LINE
  8
0
 62
7
 10
6.004999999999999
 20
3.250000000000001
 30
0
 11
6.004999999999999
 21
3.52400069780987
 31
0
  0
LINE
  8
0
 62
7
 10
5.094999999999999
 20
3.250000000000001
 30
0
 11
6.004999999999999
 21
3.250000000000001
 31
0
  0
LINE
  8
0
 62
7
 10
5.094999999999999
 20
3.9651386792265
 30
0
 11
5.094999999999999
 21
3.520445434624571
 31
0
  0
LINE
  8
0
 62
7
 10
6.004999999999999
 20
3.433591699950039
 30
0
 11
6.004999999999999
 21
3.616281611356249
 31
0
  0
LINE
  8
0
 62
7
 10
5.094999999999999
 20
3.520445434624571
 30
0
 11
6.004999999999999
 21
3.433591699950039
 31
0
  0
LINE
  8
0
 62
7
 10
5.094999999999999
 20
4.34498224327734
 30
0
 11
5.094999999999999
 21
3.86901115801406
 31
0
  0
LINE
  8
0
 62
7
 10
6.004999999999999
 20
3.52754584662256
 30
0
 11
6.004999999999999
 21
3.616281611356249
 31
0
  0
LINE
  8
0
 62
7
 10
5.094999999999999
 20
3.86901115801406
 30
0
 11
6.004999999999999
 21
3.52754584662256
 31
0
  0
LINE
  8
0
 62
7
 10
5.094999999999999
 20
4.745
 30
0
 11
5.094999999999999
 21
4.236089406971159
 31
0
  0
LINE
  8
0
 62
7
 10
5.270670914607528
 20
4.745
 30
0
 11
5.094999999999999
 21
4.745
 31
0
  0
LINE
  8
0
 62
7
 10
5.094999999999999
 20
4.236089406971159
 30
0
 11
6.004999999999999
 21
3.616281611356249
 31
0
  0
LINE
  8
0
 62
7
 10
5.701053458624629
 20
4.745
 30
0
 11
5.155733638855029
 21
4.745
 31
0
  0
LINE
  8
0
 62
7
 10
5.943157018841678
 20
3.753675517860851
 30
0
 11
6.004999999999999
 21
3.795481758766045
 31
0
  0
LINE
  8
0
 62
7
 10
5.155733638855029
 20
4.745
 30
0
 11
5.943157018841678
 21
3.753675517860851
 31
0
  0
LINE
  8
0
 62
7
 10
6.052076863009948
 20
4.745
 30
0
 11
5.601835938153698
 21
4.745
 31
0
  0
LINE
  8
0
 62
7
 10
6.024102421896899
 20
3.835
 30
0
 11
6.063458397481448
 21
3.835
 31
0
  0
LINE
  8
0
 62
7
 10
5.601835938153698
 20
4.745
 30
0
 11
6.024102421896899
 21
3.835
 31
0
  0
LINE
  8
0
 62
7
 10
6.382878751311257
 20
4.745
 30
0
 11
5.960382549079268
 21
4.745
 31
0
  0
LINE
  8
0
 62
7
 10
6.137787808893047
 20
3.835
 30
0
 11
6.25029310201097
 21
3.835
 31
0
  0
LINE
  8
0
 62
7
 10
5.960382549079268
 20
4.745
 30
0
 11
6.137787808893047
 21
3.835
 31
0
  0
LINE
  8
0
 62
7
 10
6.722668194554008
 20
4.745
 30
0
 11
6.292780708046869
 21
4.745
 31
0
  0
LINE
  8
0
 62
7
 10
6.292780708046869
 20
4.745
 30
0
 11
6.25029310201097
 21
3.835
 31
0
  0
LINE
  8
0
 62
7
 10
7.119235424486329
 20
4.745
 30
0
 11
6.628819609334359
 21
4.745
 31
0
  0
LINE
  8
0
 62
7
 10
6.368013241858139
 20
3.862570537557289
 30
0
 11
6.403927494728819
 21
3.835
 31
0
  0
LINE
  8
0
 62
7
 10
6.628819609334359
 20
4.745
 30
0
 11
6.368013241858139
 21
3.862570537557289
 31
0
  0
LINE
  8
0
 62
7
 10
7.369999999999999
 20
4.745
 30
0
 11
7.014806407634278
 21
4.745
 31
0
  0
LINE
  8
0
 62
7
 10
7.369999999999999
 20
4.38645387350689
 30
0
 11
7.369999999999999
 21
4.745
 31
0
  0
LINE
  8
0
 62
7
 10
6.46
 20
3.802274906533972
 30
0
 11
6.46
 21
3.791954440397882
 31
0
  0
LINE
  8
0
 62
7
 10
7.014806407634278
 20
4.745
 30
0
 11
6.46
 21
3.802274906533972
 31
0
  0
LINE
  8
0
 62
7
 10
7.369999999999999
 20
3.97124331410404
 30
0
 11
7.369999999999999
 21
4.505743579705481
 31
0
  0
LINE
  8
0
 62
7
 10
6.46
 20
3.71409885022417
 30
0
 11
6.46
 21
3.51507962823308
 31
0
  0
LINE
  8
0
 62
7
 10
7.369999999999999
 20
4.505743579705481
 30
0
 11
6.46
 21
3.71409885022417
 31
0
  0
LINE
  8
0
 62
7
 10
7.369999999999999
 20
3.63538011594944
 30
0
 11
7.369999999999999
 21
4.07191789544756
 31
0
  0
LINE
  8
0
 62
7
 10
6.46
 20
3.615754209576601
 30
0
 11
6.46
 21
3.42367668290699
 31
0
  0
LINE
  8
0
 62
7
 10
7.369999999999999
 20
4.07191789544756
 30
0
 11
6.46
 21
3.615754209576601
 31
0
  0
LINE
  8
0
 62
7
 10
7.369999999999999
 20
3.390000000000001
 30
0
 11
7.369999999999999
 21
3.72778351075785
 31
0
  0
LINE
  8
0
 62
7
 10
6.46
 20
3.5160800777154
 30
0
 11
6.46
 21
3.390000000000001
 31
0
  0
LINE
  8
0
 62
7
 10
7.369999999999999
 20
3.72778351075785
 30
0
 11
6.46
 21
3.5160800777154
 31
0
  0
LINE
  8
0
 62
7
 10
6.946237617803319
 20
3.83499999999076
 30
0
 11
6.946237617803319
 21
3.400000000000001
 31
0
  0
LINE
  8
0
 62
7
 10
7.05189271706502
 20
3.461
 30
0
 11
6.946237617803319
 21
3.400000000000001
 31
0
  0
LINE
  8
0
 62
7
 10
6.84058251854162
 20
3.461
 30
0
 11
7.05189271706502
 21
3.461
 31
0
  0
LINE
  8
0
 62
7
 10
6.946237617803319
 20
3.400000000000001
 30
0
 11
6.84058251854162
 21
3.461
 31
0
  0
LINE
  8
0
 62
7
 10
6.005000000009249
 20
4.32123761780332
 30
0
 11
6.459999999980248
 21
4.32123761780332
 31
0
  0
LINE
  8
0
 62
7
 10
5.518762382196678
 20
3.250000000000001
 30
0
 11
5.518762382196678
 21
3.83500000002809
 31
0
  0
LINE
  8
0
 62
7
 10
5.094999349999998
 20
8.596800069999992
 30
0
 11
6.00499962
 21
8.596800069999992
 31
0
  0
LINE
  8
0
 62
7
 10
5.094999349999998
 20
8.531800069999994
 30
0
 11
5.094999349999998
 21
8.596800069999992
 31
0
  0
LINE
  8
0
 62
7
 10
6.00499962
 20
8.596800069999992
 30
0
 11
6.00499962
 21
8.531800069999994
 31
0
  0
LINE
  8
0
 62
7
 10
6.00499962
 20
8.531800069999994
 30
0
 11
5.094999349999998
 21
8.531800069999994
 31
0
  0
LINE
  8
0
 62
7
 10
5.094999279999998
 20
8.793200059999995
 30
0
 11
6.004999779999999
 21
8.793200059999995
 31
0
  0
LINE
  8
0
 62
7
 10
5.094999279999998
 20
8.728200059999997
 30
0
 11
5.094999279999998
 21
8.793200059999995
 31
0
  0
LINE
  8
0
 62
7
 10
6.004999779999999
 20
8.793200059999995
 30
0
 11
6.004999779999999
 21
8.728200059999997
 31
0
  0
LINE
  8
0
 62
7
 10
6.004999779999999
 20
8.728200059999997
 30
0
 11
5.094999279999998
 21
8.728200059999997
 31
0
  0
LINE
  8
0
 62
7
 10
5.094999469999999
 20
8.989600059999994
 30
0
 11
6.004999929999999
 21
8.989600059999994
 31
0
  0
LINE
  8
0
 62
7
 10
5.094999469999999
 20
8.924600059999994
 30
0
 11
5.094999469999999
 21
8.989600059999994
 31
0
  0
LINE
  8
0
 62
7
 10
6.004999929999999
 20
8.989600059999994
 30
0
 11
6.004999929999999
 21
8.924600059999994
 31
0
  0
LINE
  8
0
 62
7
 10
6.004999929999999
 20
8.924600059999994
 30
0
 11
5.094999469999999
 21
8.924600059999994
 31
0
  0
LINE
  8
0
 62
7
 10
5.094999709999996
 20
9.186000049999995
 30
0
 11
6.004999850000001
 21
9.186000049999995
 31
0
  0
LINE
  8
0
 62
7
 10
6.004999850000001
 20
9.121000049999994
 30
0
 11
5.094999709999996
 21
9.121000049999994
 31
0
  0
LINE
  8
0
 62
7
 10
5.094999709999996
 20
9.121000049999994
 30
0
 11
5.094999709999996
 21
9.186000049999995
 31
0
  0
LINE
  8
0
 62
7
 10
6.004999850000001
 20
9.186000049999995
 30
0
 11
6.004999850000001
 21
9.121000049999994
 31
0
  0
LINE
  8
0
 62
7
 10
6.109027029999998
 20
9.317400049999994
 30
0
 11
5.155733279999997
 21
9.317400049999994
 31
0
  0
LINE
  8
0
 62
7
 10
5.155733279999997
 20
9.382400049999996
 30
0
 11
6.109027029999998
 21
9.382400049999996
 31
0
  0
LINE
  8
0
 62
7
 10
5.155733279999997
 20
9.317400049999994
 30
0
 11
5.155733279999997
 21
9.382400049999996
 31
0
  0
LINE
  8
0
 62
7
 10
6.109027029999998
 20
9.382400049999996
 30
0
 11
6.109027029999998
 21
9.317400049999994
 31
0
  0
LINE
  8
0
 62
7
 10
6.2294822
 20
9.513800039999992
 30
0
 11
5.601835639999999
 21
9.513800039999992
 31
0
  0
LINE
  8
0
 62
7
 10
5.601835639999999
 20
9.578800039999996
 30
0
 11
6.2294822
 21
9.578800039999996
 31
0
  0
LINE
  8
0
 62
7
 10
5.601835639999999
 20
9.513800039999992
 30
0
 11
5.601835639999999
 21
9.578800039999996
 31
0
  0
LINE
  8
0
 62
7
 10
6.2294822
 20
9.578800039999996
 30
0
 11
6.2294822
 21
9.513800039999992
 31
0
  0
LINE
  8
0
 62
7
 10
6.382879339999999
 20
9.710200029999996
 30
0
 11
5.960383080000001
 21
9.710200029999996
 31
0
  0
LINE
  8
0
 62
7
 10
5.960383080000001
 20
9.775200029999995
 30
0
 11
6.382879339999999
 21
9.775200029999995
 31
0
  0
LINE
  8
0
 62
7
 10
5.960383080000001
 20
9.710200029999996
 30
0
 11
5.960383080000001
 21
9.775200029999995
 31
0
  0
LINE
  8
0
 62
7
 10
6.382879339999999
 20
9.775200029999995
 30
0
 11
6.382879339999999
 21
9.710200029999996
 31
0
  0
LINE
  8
0
 62
7
 10
6.72266831
 20
9.906600029999993
 30
0
 11
6.250293889999998
 21
9.906600029999993
 31
0
  0
LINE
  8
0
 62
7
 10
6.250293889999998
 20
9.971600029999992
 30
0
 11
6.72266831
 21
9.971600029999992
 31
0
  0
LINE
  8
0
 62
7
 10
6.250293889999998
 20
9.906600029999993
 30
0
 11
6.250293889999998
 21
9.971600029999992
 31
0
  0
LINE
  8
0
 62
7
 10
6.72266831
 20
9.971600029999992
 30
0
 11
6.72266831
 21
9.906600029999993
 31
0
  0
LINE
  8
0
 62
7
 10
7.119235539999998
 20
10.10300001999999
 30
0
 11
6.368013769999998
 21
10.10300001999999
 31
0
  0
LINE
  8
0
 62
7
 10
6.368013769999998
 20
10.16800001999999
 30
0
 11
7.119235539999998
 21
10.16800001999999
 31
0
  0
LINE
  8
0
 62
7
 10
6.368013769999998
 20
10.10300001999999
 30
0
 11
6.368013769999998
 21
10.16800001999999
 31
0
  0
LINE
  8
0
 62
7
 10
7.119235539999998
 20
10.16800001999999
 30
0
 11
7.119235539999998
 21
10.10300001999999
 31
0
  0
LINE
  8
0
 62
7
 10
6.459999699999999
 20
10.36440001999999
 30
0
 11
7.369999699999998
 21
10.36440001999999
 31
0
  0
LINE
  8
0
 62
7
 10
7.369999699999998
 20
10.29940001999999
 30
0
 11
6.459999699999999
 21
10.29940001999999
 31
0
  0
LINE
  8
0
 62
7
 10
6.459999699999999
 20
10.29940001999999
 30
0
 11
6.459999699999999
 21
10.36440001999999
 31
0
  0
LINE
  8
0
 62
7
 10
7.369999699999998
 20
10.36440001999999
 30
0
 11
7.369999699999998
 21
10.29940001999999
 31
0
  0
LINE
  8
0
 62
7
 10
6.459999699999999
 20
10.56080000999999
 30
0
 11
7.369999699999998
 21
10.56080000999999
 31
0
  0
LINE
  8
0
 62
7
 10
6.459999699999999
 20
10.49580000999999
 30
0
 11
6.459999699999999
 21
10.56080000999999
 31
0
  0
LINE
  8
0
 62
7
 10
7.369999699999998
 20
10.56080000999999
 30
0
 11
7.369999699999998
 21
10.49580000999999
 31
0
  0
LINE
  8
0
 62
7
 10
7.369999699999998
 20
10.49580000999999
 30
0
 11
6.459999699999999
 21
10.49580000999999
 31
0
  0
LINE
  8
0
 62
7
 10
6.459999549999998
 20
10.75719999999999
 30
0
 11
7.369999999999999
 21
10.75719999999999
 31
0
  0
LINE
  8
0
 62
7
 10
6.459999549999998
 20
10.6922
 30
0
 11
6.459999549999998
 21
10.75719999999999
 31
0
  0
LINE
  8
0
 62
7
 10
7.369999999999999
 20
10.75719999999999
 30
0
 11
7.369999999999999
 21
10.6922
 31
0
  0
LINE
  8
0
 62
7
 10
7.369999999999999
 20
10.6922
 30
0
 11
6.459999549999998
 21
10.6922
 31
0
  0
LINE
  8
0
 62
7
  6
DASHED
 10
6.459999549999998
 20
10.95359999999999
 30
0
 11
7.369999999999999
 21
10.95359999999999
 31
0
  0
LINE
  8
0
 62
7
  6
DASHED
 10
6.459999549999998
 20
10.88859999999999
 30
0
 11
6.459999549999998
 21
10.95359999999999
 31
0
  0
LINE
  8
0
 62
7
  6
DASHED
 10
7.369999999999999
 20
10.95359999999999
 30
0
 11
7.369999999999999
 21
10.88859999999999
 31
0
  0
LINE
  8
0
 62
7
  6
DASHED
 10
7.369999999999999
 20
10.88859999999999
 30
0
 11
6.459999549999998
 21
10.88859999999999
 31
0
  0
LINE
  8
0
 62
7
 10
1.92914589
 20
8.596800069999993
 30
0
 11
2.290000260000001
 21
8.596800069999993
 31
0
  0
LINE
  8
0
 62
7
 10
2.290000260000001
 20
8.531800069999994
 30
0
 11
1.92914589
 21
8.531800069999994
 31
0
  0
LINE
  8
0
 62
7
 10
2.290000260000001
 20
8.596800069999993
 30
0
 11
2.290000260000001
 21
8.531800069999994
 31
0
  0
LINE
  8
0
 62
7
 10
1.92914589
 20
8.531800069999994
 30
0
 11
1.92914589
 21
8.596800069999993
 31
0
  0
LINE
  8
0
 62
7
 10
2.106408500000001
 20
8.728200059999997
 30
0
 11
1.574861520000002
 21
8.728200059999997
 31
0
  0
LINE
  8
0
 62
7
 10
1.574861520000002
 20
8.793200059999995
 30
0
 11
2.106408500000001
 21
8.793200059999995
 31
0
  0
LINE
  8
0
 62
7
 10
2.106408500000001
 20
8.793200059999995
 30
0
 11
2.106408500000001
 21
8.728200059999997
 31
0
  0
LINE
  8
0
 62
7
 10
1.574861520000002
 20
8.728200059999997
 30
0
 11
1.574861520000002
 21
8.793200059999995
 31
0
  0
LINE
  8
0
 62
7
 10
2.012454410000002
 20
8.924600059999994
 30
0
 11
1.195017849999999
 21
8.924600059999994
 31
0
  0
LINE
  8
0
 62
7
 10
1.195017849999999
 20
8.989600059999994
 30
0
 11
2.012454410000002
 21
8.989600059999994
 31
0
  0
LINE
  8
0
 62
7
 10
2.012454410000002
 20
8.989600059999994
 30
0
 11
2.012454410000002
 21
8.924600059999994
 31
0
  0
LINE
  8
0
 62
7
 10
1.195017849999999
 20
8.924600059999994
 30
0
 11
1.195017849999999
 21
8.989600059999994
 31
0
  0
LINE
  8
0
 62
7
 10
1.923718680000002
 20
9.121000049999994
 30
0
 11
0.7950001500000008
 21
9.121000049999994
 31
0
  0
LINE
  8
0
 62
7
 10
0.7950001500000008
 20
9.186000049999995
 30
0
 11
1.923718680000002
 21
9.186000049999995
 31
0
  0
LINE
  8
0
 62
7
 10
1.923718680000002
 20
9.186000049999995
 30
0
 11
1.923718680000002
 21
9.121000049999994
 31
0
  0
LINE
  8
0
 62
7
 10
0.7950001500000008
 20
9.121000049999994
 30
0
 11
0.7950001500000008
 21
9.186000049999995
 31
0
  0
LINE
  8
0
 62
7
 10
0.7950001500000008
 20
9.382400049999996
 30
0
 11
1.78632446
 21
9.382400049999996
 31
0
  0
LINE
  8
0
 62
7
 10
1.78632446
 20
9.317400049999994
 30
0
 11
0.7950001500000008
 21
9.317400049999994
 31
0
  0
LINE
  8
0
 62
7
 10
1.78632446
 20
9.382400049999996
 30
0
 11
1.78632446
 21
9.317400049999994
 31
0
  0
LINE
  8
0
 62
7
 10
0.7950001500000008
 20
9.317400049999994
 30
0
 11
0.7950001500000008
 21
9.382400049999996
 31
0
  0
LINE
  8
0
 62
7
 10
0.795
 20
9.578800039999997
 30
0
 11
1.7050003
 21
9.578800039999997
 31
0
  0
LINE
  8
0
 62
7
 10
1.7050003
 20
9.578800039999997
 30
0
 11
1.7050003
 21
9.513800039999998
 31
0
  0
LINE
  8
0
 62
7
 10
0.795
 20
9.513800039999998
 30
0
 11
0.795
 21
9.578800039999997
 31
0
  0
LINE
  8
0
 62
7
 10
1.7050003
 20
9.513800039999998
 30
0
 11
0.795
 21
9.513800039999998
 31
0
  0
LINE
  8
0
 62
7
 10
0.795
 20
9.775200029999995
 30
0
 11
1.7050003
 21
9.775200029999995
 31
0
  0
LINE
  8
0
 62
7
 10
1.7050003
 20
9.775200029999995
 30
0
 11
1.7050003
 21
9.710200029999996
 31
0
  0
LINE
  8
0
 62
7
 10
0.795
 20
9.710200029999996
 30
0
 11
0.795
 21
9.775200029999995
 31
0
  0
LINE
  8
0
 62
7
 10
1.7050003
 20
9.710200029999996
 30
0
 11
0.795
 21
9.710200029999996
 31
0
  0
LINE
  8
0
 62
7
 10
0.7949998500000004
 20
9.971600029999996
 30
0
 11
1.7050003
 21
9.971600029999996
 31
0
  0
LINE
  8
0
 62
7
 10
1.7050003
 20
9.971600029999996
 30
0
 11
1.7050003
 21
9.906600029999995
 31
0
  0
LINE
  8
0
 62
7
 10
0.7949998500000004
 20
9.906600029999995
 30
0
 11
0.7949998500000004
 21
9.971600029999996
 31
0
  0
LINE
  8
0
 62
7
 10
1.7050003
 20
9.906600029999995
 30
0
 11
0.7949998500000004
 21
9.906600029999995
 31
0
  0
LINE
  8
0
 62
7
 10
0.7950001500000008
 20
10.16800001999999
 30
0
 11
1.80005417
 21
10.16800001999999
 31
0
  0
LINE
  8
0
 62
7
 10
1.80005417
 20
10.10300001999999
 30
0
 11
0.7950001500000008
 21
10.10300001999999
 31
0
  0
LINE
  8
0
 62
7
 10
1.80005417
 20
10.16800001999999
 30
0
 11
1.80005417
 21
10.10300001999999
 31
0
  0
LINE
  8
0
 62
7
 10
0.7950001500000008
 20
10.10300001999999
 30
0
 11
0.7950001500000008
 21
10.16800001999999
 31
0
  0
LINE
  8
0
 62
7
 10
1.945191190000002
 20
10.29940002
 30
0
 11
0.7950001500000008
 21
10.29940002
 31
0
  0
LINE
  8
0
 62
7
 10
0.7950001500000008
 20
10.36440002
 30
0
 11
1.945191190000002
 21
10.36440002
 31
0
  0
LINE
  8
0
 62
7
 10
1.945191190000002
 20
10.36440002
 30
0
 11
1.945191190000002
 21
10.29940002
 31
0
  0
LINE
  8
0
 62
7
 10
0.7950001500000008
 20
10.29940002
 30
0
 11
0.7950001500000008
 21
10.36440002
 31
0
  0
LINE
  8
0
 62
7
 10
2.024920420000002
 20
10.49580001
 30
0
 11
1.034256440000001
 21
10.49580001
 31
0
  0
LINE
  8
0
 62
7
 10
1.034256440000001
 20
10.56080001
 30
0
 11
2.024920420000002
 21
10.56080001
 31
0
  0
LINE
  8
0
 62
7
 10
2.024920420000002
 20
10.56080001
 30
0
 11
2.024920420000002
 21
10.49580001
 31
0
  0
LINE
  8
0
 62
7
 10
1.034256440000001
 20
10.49580001
 30
0
 11
1.034256440000001
 21
10.56080001
 31
0
  0
LINE
  8
0
 62
7
 10
2.116323510000002
 20
10.6922
 30
0
 11
1.468082270000003
 21
10.6922
 31
0
  0
LINE
  8
0
 62
7
 10
1.468082270000003
 20
10.7572
 30
0
 11
2.116323510000002
 21
10.7572
 31
0
  0
LINE
  8
0
 62
7
 10
2.116323510000002
 20
10.7572
 30
0
 11
2.116323510000002
 21
10.6922
 31
0
  0
LINE
  8
0
 62
7
 10
1.468082270000003
 20
10.6922
 30
0
 11
1.468082270000003
 21
10.7572
 31
0
  0
LINE
  8
0
 62
7
 10
1.812216490000003
 20
10.95359999999999
 30
0
 11
2.150000070000002
 21
10.95359999999999
 31
0
  0
LINE
  8
0
 62
7
 10
2.150000070000002
 20
10.88859999999999
 30
0
 11
1.812216490000003
 21
10.88859999999999
 31
0
  0
LINE
  8
0
 62
7
 10
2.150000070000002
 20
10.95359999999999
 30
0
 11
2.150000070000002
 21
10.88859999999999
 31
0
  0
LINE
  8
0
 62
7
 10
1.812216490000003
 20
10.88859999999999
 30
0
 11
1.812216490000003
 21
10.95359999999999
 31
0
  0
LINE
  8
0
 62
7
 10
7.599999999999999
 20
8.099999999999998
 30
0
 11
7.749999999999999
 21
8.099999999999996
 31
0
  0
LINE
  8
0
 62
7
 10
7.599999999999999
 20
8.299999999999997
 30
0
 11
7.749999999999999
 21
8.299999999999997
 31
0
  0
LINE
  8
0
 62
7
 10
7.599999999999999
 20
10.85
 30
0
 11
7.749999999999999
 21
10.85
 31
0
  0
LINE
  8
0
 62
7
 10
7.599999999999999
 20
11.05
 30
0
 11
7.749999999999999
 21
11.05
 31
0
  0
LINE
  8
0
 62
7
 10
7.599999999999999
 20
8.099999999999998
 30
0
 11
7.599999999999999
 21
7.949999999999996
 31
0
  0
LINE
  8
0
 62
7
 10
7.424999999999999
 20
8.099999999999998
 30
0
 11
7.599999999999999
 21
8.099999999999998
 31
0
  0
LINE
  8
0
 62
7
 10
7.599999999999999
 20
8.399999999999997
 30
0
 11
7.599999999999999
 21
8.299999999999997
 31
0
  0
LINE
  8
0
 62
7
 10
7.424999999999999
 20
8.299999999999997
 30
0
 11
7.599999999999999
 21
8.299999999999997
 31
0
  0
LINE
  8
0
 62
7
 10
7.424999999999999
 20
10.85
 30
0
 11
7.599999999999999
 21
10.85
 31
0
  0
LINE
  8
0
 62
7
 10
7.599999999999999
 20
11.15
 30
0
 11
7.599999999999999
 21
11.05
 31
0
  0
LINE
  8
0
 62
7
 10
7.424999999999999
 20
11.05
 30
0
 11
7.599999999999999
 21
11.05
 31
0
  0
LINE
  8
0
 62
7
 10
7.424999999999999
 20
8.099999999999998
 30
0
 11
7.424999999999999
 21
7.949999999999996
 31
0
  0
LINE
  8
0
 62
7
 10
5.039999999999999
 20
8.099999999999998
 30
0
 11
7.424999999999999
 21
8.099999999999998
 31
0
  0
LINE
  8
0
 62
7
 10
7.424999999999999
 20
8.399999999999997
 30
0
 11
7.424999999999999
 21
8.299999999999997
 31
0
  0
LINE
  8
0
 62
7
 10
5.039999999999999
 20
8.299999999999997
 30
0
 11
7.424999999999999
 21
8.299999999999997
 31
0
  0
LINE
  8
0
 62
7
 10
5.039999999999999
 20
10.85
 30
0
 11
7.424999999999999
 21
10.85
 31
0
  0
LINE
  8
0
 62
7
 10
7.424999999999999
 20
11.15
 30
0
 11
7.424999999999999
 21
11.05
 31
0
  0
LINE
  8
0
 62
7
 10
5.039999999999999
 20
11.05
 30
0
 11
7.424999999999999
 21
11.05
 31
0
  0
LINE
  8
0
 62
7
 10
5.039999999999999
 20
8.099999999999998
 30
0
 11
5.039999999999999
 21
7.949999999999996
 31
0
  0
LINE
  8
0
 62
7
 10
4.864999999999998
 20
8.099999999999998
 30
0
 11
5.039999999999999
 21
8.099999999999998
 31
0
  0
LINE
  8
0
 62
7
 10
5.039999999999999
 20
8.399999999999997
 30
0
 11
5.039999999999999
 21
8.299999999999997
 31
0
  0
LINE
  8
0
 62
7
 10
4.864999999999998
 20
8.299999999999997
 30
0
 11
5.039999999999999
 21
8.299999999999997
 31
0
  0
LINE
  8
0
 62
7
 10
4.864999999999998
 20
10.85
 30
0
 11
5.039999999999999
 21
10.85
 31
0
  0
LINE
  8
0
 62
7
 10
5.039999999999999
 20
11.15
 30
0
 11
5.039999999999999
 21
11.05
 31
0
  0
LINE
  8
0
 62
7
 10
4.864999999999998
 20
11.05
 30
0
 11
5.039999999999999
 21
11.05
 31
0
  0
LINE
  8
0
 62
7
 10
4.864999999999998
 20
8.099999999999998
 30
0
 11
4.864999999999998
 21
7.949999999999996
 31
0
  0
LINE
  8
0
 62
7
 10
4.714999999999999
 20
8.099999999999996
 30
0
 11
4.864999999999998
 21
8.099999999999998
 31
0
  0
LINE
  8
0
 62
7
 10
4.864999999999998
 20
8.399999999999997
 30
0
 11
4.864999999999998
 21
8.299999999999997
 31
0
  0
LINE
  8
0
 62
7
 10
4.714999999999999
 20
8.299999999999997
 30
0
 11
4.864999999999998
 21
8.299999999999997
 31
0
  0
LINE
  8
0
 62
7
 10
4.714999999999999
 20
10.85
 30
0
 11
4.864999999999998
 21
10.85
 31
0
  0
LINE
  8
0
 62
7
 10
4.864999999999998
 20
11.15
 30
0
 11
4.864999999999998
 21
11.05
 31
0
  0
LINE
  8
0
 62
7
 10
4.714999999999999
 20
11.05
 30
0
 11
4.864999999999998
 21
11.05
 31
0
  0
LINE
  8
0
 62
7
  6
DASHDOT
 10
7.749999999999999
 20
8.099999999999996
 30
0
 11
7.749999999999999
 21
8.049999999999995
 31
0
  0
LINE
  8
0
 62
7
  6
DASHDOT
 10
7.749999999999999
 20
10.85
 30
0
 11
7.749999999999999
 21
10.8
 31
0
  0
LINE
  8
0
 62
7
  6
DASHDOT
 10
4.714999999999999
 20
8.099999999999996
 30
0
 11
4.714999999999999
 21
8.049999999999995
 31
0
  0
LINE
  8
0
 62
7
  6
DASHDOT
 10
4.714999999999999
 20
10.85
 30
0
 11
4.714999999999999
 21
10.8
 31
0
  0
LINE
  8
0
 62
7
  6
DASHDOT
 10
7.599999999999999
 20
11.2
 30
0
 11
7.649999999999999
 21
11.2
 31
0
  0
LINE
  8
0
 62
7
  6
DASHDOT
 10
7.599999999999999
 20
7.949999999999996
 30
0
 11
7.649999999999999
 21
7.949999999999996
 31
0
  0
LINE
  8
0
 62
7
  6
DASHDOT
 10
5.039999999999999
 20
11.2
 30
0
 11
5.089999999999999
 21
11.2
 31
0
  0
LINE
  8
0
 62
7
  6
DASHDOT
 10
5.039999999999999
 20
7.949999999999996
 30
0
 11
5.089999999999999
 21
7.949999999999996
 31
0
  0
LINE
  8
0
 62
7
 10
7.599999999999999
 20
8.399999999999997
 30
0
 11
7.749999999999999
 21
8.399999999999997
 31
0
  0
LINE
  8
0
 62
7
 10
7.599999999999999
 20
10.85
 30
0
 11
7.599999999999999
 21
8.399999999999997
 31
0
  0
LINE
  8
0
 62
7
  6
DASHDOT
 10
7.749999999999999
 20
8.449999999999998
 30
0
 11
7.749999999999999
 21
8.399999999999997
 31
0
  0
LINE
  8
0
 62
7
 10
5.039999999999999
 20
8.399999999999997
 30
0
 11
7.424999999999999
 21
8.399999999999997
 31
0
  0
LINE
  8
0
 62
7
 10
7.424999999999999
 20
10.85
 30
0
 11
7.424999999999999
 21
8.399999999999997
 31
0
  0
LINE
  8
0
 62
7
 10
5.039999999999999
 20
10.85
 30
0
 11
5.039999999999999
 21
8.399999999999997
 31
0
  0
LINE
  8
0
 62
7
 10
4.714999999999999
 20
8.399999999999997
 30
0
 11
4.864999999999998
 21
8.399999999999997
 31
0
  0
LINE
  8
0
 62
7
 10
4.864999999999998
 20
10.85
 30
0
 11
4.864999999999998
 21
8.399999999999997
 31
0
  0
LINE
  8
0
 62
7
  6
DASHDOT
 10
4.714999999999999
 20
8.449999999999998
 30
0
 11
4.714999999999999
 21
8.399999999999997
 31
0
  0
LINE
  8
0
 62
7
 10
7.599999999999999
 20
11.15
 30
0
 11
7.749999999999999
 21
11.15
 31
0
  0
LINE
  8
0
 62
7
 10
7.599999999999999
 20
11.2
 30
0
 11
7.599999999999999
 21
11.15
 31
0
  0
LINE
  8
0
 62
7
  6
DASHDOT
 10
7.749999999999999
 20
11.2
 30
0
 11
7.749999999999999
 21
11.15
 31
0
  0
LINE
  8
0
 62
7
 10
5.039999999999999
 20
11.15
 30
0
 11
7.424999999999999
 21
11.15
 31
0
  0
LINE
  8
0
 62
7
 10
7.424999999999999
 20
11.2
 30
0
 11
7.424999999999999
 21
11.15
 31
0
  0
LINE
  8
0
 62
7
 10
5.039999999999999
 20
11.2
 30
0
 11
5.039999999999999
 21
11.15
 31
0
  0
LINE
  8
0
 62
7
 10
4.714999999999999
 20
11.15
 30
0
 11
4.864999999999998
 21
11.15
 31
0
  0
LINE
  8
0
 62
7
 10
4.864999999999998
 20
11.2
 30
0
 11
4.864999999999998
 21
11.15
 31
0
  0
LINE
  8
0
 62
7
  6
DASHDOT
 10
4.714999999999999
 20
11.2
 30
0
 11
4.714999999999999
 21
11.15
 31
0
  0
LINE
  8
0
 62
7
  6
DASHDOT
 10
4.714999999999999
 20
8.299999999999997
 30
0
 11
4.714999999999999
 21
8.099999999999996
 31
0
  0
LINE
  8
0
 62
7
  6
DASHDOT
 10
4.714999999999999
 20
8.399999999999997
 30
0
 11
4.714999999999999
 21
8.299999999999997
 31
0
  0
LINE
  8
0
 62
7
  6
DASHDOT
 10
4.864999999999998
 20
7.949999999999996
 30
0
 11
5.039999999999999
 21
7.949999999999996
 31
0
  0
LINE
  8
0
 62
7
  6
DASHDOT
 10
4.814999999999999
 20
7.949999999999996
 30
0
 11
4.864999999999998
 21
7.949999999999996
 31
0
  0
LINE
  8
0
 62
7
  6
DASHDOT
 10
7.749999999999999
 20
8.299999999999997
 30
0
 11
7.749999999999999
 21
8.099999999999996
 31
0
  0
LINE
  8
0
 62
7
  6
DASHDOT
 10
7.749999999999999
 20
8.399999999999997
 30
0
 11
7.749999999999999
 21
8.299999999999997
 31
0
  0
LINE
  8
0
 62
7
  6
DASHDOT
 10
7.424999999999999
 20
7.949999999999996
 30
0
 11
7.599999999999999
 21
7.949999999999996
 31
0
  0
LINE
  8
0
 62
7
  6
DASHDOT
 10
7.374999999999999
 20
7.949999999999996
 30
0
 11
7.424999999999999
 21
7.949999999999996
 31
0
  0
LINE
  8
0
 62
7
  6
DASHDOT
 10
7.749999999999999
 20
11.05
 30
0
 11
7.749999999999999
 21
10.85
 31
0
  0
LINE
  8
0
 62
7
  6
DASHDOT
 10
7.749999999999999
 20
11.15
 30
0
 11
7.749999999999999
 21
11.05
 31
0
  0
LINE
  8
0
 62
7
  6
DASHDOT
 10
7.424999999999999
 20
11.2
 30
0
 11
7.599999999999999
 21
11.2
 31
0
  0
LINE
  8
0
 62
7
  6
DASHDOT
 10
7.374999999999999
 20
11.2
 30
0
 11
7.424999999999999
 21
11.2
 31
0
  0
LINE
  8
0
 62
7
  6
DASHDOT
 10
4.714999999999999
 20
11.05
 30
0
 11
4.714999999999999
 21
10.85
 31
0
  0
LINE
  8
0
 62
7
  6
DASHDOT
 10
4.714999999999999
 20
11.15
 30
0
 11
4.714999999999999
 21
11.05
 31
0
  0
LINE
  8
0
 62
7
  6
DASHDOT
 10
4.864999999999998
 20
11.2
 30
0
 11
5.039999999999999
 21
11.2
 31
0
  0
LINE
  8
0
 62
7
  6
DASHDOT
 10
4.814999999999999
 20
11.2
 30
0
 11
4.864999999999998
 21
11.2
 31
0
  0
LINE
  8
0
 62
7
 10
0.5
 20
7.949999999999996
 30
0
 11
0.5
 21
8.099999999999998
 31
0
  0
LINE
  8
0
 62
7
 10
0.7400000000000001
 20
11.2
 30
0
 11
0.7400000000000001
 21
11.05
 31
0
  0
LINE
  8
0
 62
7
 10
0.5
 20
11.05
 30
0
 11
0.7400000000000001
 21
11.05
 31
0
  0
LINE
  8
0
 62
7
 10
0.5
 20
11.05
 30
0
 11
0.5
 21
11.2
 31
0
  0
LINE
  8
0
 62
7
 10
0.7400000000000001
 20
11.05
 30
0
 11
0.7400000000000001
 21
10.85
 31
0
  0
LINE
  8
0
 62
7
 10
0.5
 20
10.85
 30
0
 11
0.7400000000000001
 21
10.85
 31
0
  0
LINE
  8
0
 62
7
 10
0.5
 20
10.85
 30
0
 11
0.5
 21
11.05
 31
0
  0
LINE
  8
0
 62
7
 10
0.7400000000000001
 20
10.85
 30
0
 11
0.7400000000000001
 21
8.299999999999997
 31
0
  0
LINE
  8
0
 62
7
 10
0.5
 20
8.299999999999997
 30
0
 11
0.7400000000000001
 21
8.299999999999997
 31
0
  0
LINE
  8
0
 62
7
 10
0.5
 20
8.299999999999997
 30
0
 11
0.5
 21
10.85
 31
0
  0
LINE
  8
0
 62
7
 10
0.7400000000000001
 20
8.299999999999997
 30
0
 11
0.7400000000000001
 21
8.099999999999998
 31
0
  0
LINE
  8
0
 62
7
 10
0.5
 20
8.099999999999998
 30
0
 11
0.7400000000000001
 21
8.099999999999998
 31
0
  0
LINE
  8
0
 62
7
 10
0.5
 20
8.099999999999998
 30
0
 11
0.5
 21
8.299999999999997
 31
0
  0
LINE
  8
0
 62
7
 10
0.7400000000000001
 20
8.099999999999998
 30
0
 11
0.7400000000000001
 21
7.949999999999996
 31
0
  0
LINE
  8
0
 62
7
 10
2.189999999999998
 20
11.05
 30
0
 11
2.189999999999998
 21
10.85
 31
0
  0
LINE
  8
0
 62
7
 10
2.189999999999998
 20
10.85
 30
0
 11
2.489999999999998
 21
10.85
 31
0
  0
LINE
  8
0
 62
7
 10
2.189999999999998
 20
11.05
 30
0
 11
2.489999999999998
 21
11.05
 31
0
  0
LINE
  8
0
 62
7
 10
2.189999999999998
 20
8.299999999999997
 30
0
 11
2.489999999999998
 21
8.299999999999997
 31
0
  0
LINE
  8
0
 62
7
 10
2.189999999999998
 20
8.299999999999997
 30
0
 11
2.189999999999998
 21
8.099999999999996
 31
0
  0
LINE
  8
0
 62
7
 10
2.189999999999998
 20
8.099999999999996
 30
0
 11
2.489999999999998
 21
8.099999999999996
 31
0
  0
LINE
  8
0
 62
7
  6
DASHDOT
 10
0.45
 20
11.2
 30
0
 11
0.5
 21
11.2
 31
0
  0
LINE
  8
0
 62
7
  6
DASHDOT
 10
2.489999999999998
 20
11.2
 30
0
 11
2.489999999999998
 21
11.15
 31
0
  0
LINE
  8
0
 62
7
  6
DASHDOT
 10
2.489999999999998
 20
8.049999999999995
 30
0
 11
2.489999999999998
 21
8.099999999999996
 31
0
  0
LINE
  8
0
 62
7
  6
DASHDOT
 10
0.45
 20
7.949999999999996
 30
0
 11
0.5
 21
7.949999999999996
 31
0
  0
LINE
  8
0
 62
7
 10
2.189999999999998
 20
8.399999999999997
 30
0
 11
2.489999999999998
 21
8.399999999999997
 31
0
  0
LINE
  8
0
 62
7
  6
DASHDOT
 10
2.489999999999998
 20
8.399999999999997
 30
0
 11
2.489999999999998
 21
8.449999999999998
 31
0
  0
LINE
  8
0
 62
7
 10
2.189999999999998
 20
11.15
 30
0
 11
2.489999999999998
 21
11.15
 31
0
  0
LINE
  8
0
 62
7
  6
DASHDOT
 10
2.489999999999998
 20
11.15
 30
0
 11
2.489999999999998
 21
11.05
 31
0
  0
LINE
  8
0
 62
7
  6
DASHDOT
 10
2.489999999999998
 20
8.299999999999997
 30
0
 11
2.489999999999998
 21
8.399999999999997
 31
0
  0
LINE
  8
0
 62
7
  6
DASHDOT
 10
2.489999999999998
 20
8.099999999999996
 30
0
 11
2.489999999999998
 21
8.299999999999997
 31
0
  0
LINE
  8
0
 62
7
  6
DASHDOT
 10
0.5
 20
7.949999999999996
 30
0
 11
0.7400000000000001
 21
7.949999999999996
 31
0
  0
LINE
  8
0
 62
7
  6
DASHDOT
 10
0.7400000000000001
 20
7.949999999999996
 30
0
 11
0.79
 21
7.949999999999996
 31
0
  0
LINE
  8
0
 62
7
  6
DASHDOT
 10
0.7400000000000001
 20
11.2
 30
0
 11
0.79
 21
11.2
 31
0
  0
LINE
  8
0
 62
7
  6
DASHDOT
 10
0.5
 20
11.2
 30
0
 11
0.7400000000000001
 21
11.2
 31
0
  0
LINE
  8
0
 62
7
  6
DASHDOT
 10
2.489999999999998
 20
10.85
 30
0
 11
2.489999999999998
 21
10.8
 31
0
  0
LINE
  8
0
 62
7
  6
DASHDOT
 10
2.489999999999998
 20
11.05
 30
0
 11
2.489999999999998
 21
10.85
 31
0
  0
LINE
  8
0
 62
7
  6
DASHED
 10
0.7400000000000001
 20
11.05
 30
0
 11
2.189999999999998
 21
11.05
 31
0
  0
LINE
  8
0
 62
7
  6
DASHED
 10
0.7400000000000001
 20
10.85
 30
0
 11
2.189999999999998
 21
10.85
 31
0
  0
LINE
  8
0
 62
7
  6
DASHED
 10
0.7400000000000001
 20
8.299999999999997
 30
0
 11
2.189999999999998
 21
8.299999999999997
 31
0
  0
LINE
  8
0
 62
7
  6
DASHED
 10
0.7400000000000001
 20
8.099999999999998
 30
0
 11
2.189999999999998
 21
8.099999999999996
 31
0
  0
LINE
  8
0
 62
7
 10
4.714999999999999
 20
5.319999999999999
 30
0
 11
4.864999999999998
 21
5.319999999999999
 31
0
  0
LINE
  8
0
 62
7
 10
4.864999999999998
 20
5.319999999999999
 30
0
 11
4.864999999999998
 21
5.469999999999999
 31
0
  0
LINE
  8
0
 62
7
 10
5.039999999999999
 20
5.469999999999999
 30
0
 11
5.039999999999999
 21
5.319999999999999
 31
0
  0
LINE
  8
0
 62
7
 10
5.039999999999999
 20
5.319999999999999
 30
0
 11
7.424999999999999
 21
5.319999999999999
 31
0
  0
LINE
  8
0
 62
7
 10
7.424999999999999
 20
5.319999999999999
 30
0
 11
7.424999999999999
 21
5.469999999999999
 31
0
  0
LINE
  8
0
 62
7
 10
7.599999999999999
 20
5.469999999999999
 30
0
 11
7.599999999999999
 21
5.319999999999999
 31
0
  0
LINE
  8
0
 62
7
 10
7.599999999999999
 20
5.319999999999999
 30
0
 11
7.765
 21
5.319999999999999
 31
0
  0
LINE
  8
0
 62
7
 10
4.714999999999999
 20
5.080000000000001
 30
0
 11
7.765
 21
5.080000000000001
 31
0
  0
LINE
  8
0
 62
7
 10
4.714999999999999
 20
5.04
 30
0
 11
7.765
 21
5.04
 31
0
  0
LINE
  8
0
 62
7
 10
4.714999999999999
 20
4.800000000000001
 30
0
 11
4.864999999999998
 21
4.800000000000001
 31
0
  0
LINE
  8
0
 62
7
 10
5.039999999999999
 20
3.250000000000001
 30
0
 11
5.039999999999999
 21
3.350000000000001
 31
0
  0
LINE
  8
0
 62
7
 10
4.864999999999998
 20
3.250000000000001
 30
0
 11
5.039999999999999
 21
3.250000000000001
 31
0
  0
LINE
  8
0
 62
7
 10
4.864999999999998
 20
4.800000000000001
 30
0
 11
4.864999999999998
 21
3.250000000000001
 31
0
  0
LINE
  8
0
 62
7
 10
5.039999999999999
 20
4.800000000000001
 30
0
 11
7.424999999999999
 21
4.800000000000001
 31
0
  0
LINE
  8
0
 62
7
 10
7.424999999999999
 20
4.800000000000001
 30
0
 11
7.424999999999999
 21
3.400000000000001
 31
0
  0
LINE
  8
0
 62
7
 10
7.599999999999999
 20
3.350000000000001
 30
0
 11
7.599999999999999
 21
4.800000000000001
 31
0
  0
LINE
  8
0
 62
7
 10
7.599999999999999
 20
4.800000000000001
 30
0
 11
7.765
 21
4.800000000000001
 31
0
  0
LINE
  8
0
 62
7
 10
7.424999999999999
 20
3.350000000000001
 30
0
 11
7.599999999999999
 21
3.350000000000001
 31
0
  0
LINE
  8
0
 62
7
 10
7.424999999999999
 20
3.400000000000001
 30
0
 11
5.039999999999999
 21
3.400000000000002
 31
0
  0
LINE
  8
0
 62
7
 10
5.039999999999999
 20
3.400000000000002
 30
0
 11
5.039999999999999
 21
4.800000000000001
 31
0
  0
LINE
  8
0
 62
7
 10
7.424999999999999
 20
3.400000000000001
 30
0
 11
7.424999999999999
 21
3.350000000000001
 31
0
  0
LINE
  8
0
 62
7
  6
DASHDOT
 10
7.424999999999999
 20
3.350000000000001
 30
0
 11
5.039999999999999
 21
3.350000000000001
 31
0
  0
LINE
  8
0
 62
7
 10
5.039999999999999
 20
3.350000000000001
 30
0
 11
5.039999999999999
 21
3.400000000000002
 31
0
  0
LINE
  8
0
 62
7
  6
DASHDOT
 10
4.814999999999999
 20
5.469999999999999
 30
0
 11
4.864999999999998
 21
5.469999999999999
 31
0
  0
LINE
  8
0
 62
7
  6
DASHDOT
 10
7.374999999999999
 20
5.469999999999999
 30
0
 11
7.424999999999999
 21
5.469999999999999
 31
0
  0
LINE
  8
0
 62
7
  6
DASHDOT
 10
4.714999999999999
 20
5.369999999999998
 30
0
 11
4.714999999999999
 21
5.319999999999999
 31
0
  0
LINE
  8
0
 62
7
  6
DASHDOT
 10
7.765
 20
5.369999999999998
 30
0
 11
7.765
 21
5.319999999999999
 31
0
  0
LINE
  8
0
 62
7
  6
DASHDOT
 10
7.765
 20
5.319999999999999
 30
0
 11
7.765
 21
5.080000000000001
 31
0
  0
LINE
  8
0
 62
7
  6
DASHDOT
 10
7.765
 20
4.800000000000001
 30
0
 11
7.765
 21
4.75
 31
0
  0
LINE
  8
0
 62
7
  6
DASHDOT
 10
4.864999999999998
 20
5.469999999999999
 30
0
 11
5.039999999999999
 21
5.469999999999999
 31
0
  0
LINE
  8
0
 62
7
  6
DASHDOT
 10
5.039999999999999
 20
5.469999999999999
 30
0
 11
5.089999999999999
 21
5.469999999999999
 31
0
  0
LINE
  8
0
 62
7
  6
DASHDOT
 10
4.714999999999999
 20
5.319999999999999
 30
0
 11
4.714999999999999
 21
5.080000000000001
 31
0
  0
LINE
  8
0
 62
7
  6
DASHDOT
 10
4.714999999999999
 20
4.800000000000001
 30
0
 11
4.714999999999999
 21
4.75
 31
0
  0
LINE
  8
0
 62
7
  6
DASHDOT
 10
7.765
 20
5.080000000000001
 30
0
 11
7.765
 21
5.04
 31
0
  0
LINE
  8
0
 62
7
  6
DASHDOT
 10
4.714999999999999
 20
5.080000000000001
 30
0
 11
4.714999999999999
 21
5.04
 31
0
  0
LINE
  8
0
 62
7
  6
DASHDOT
 10
7.765
 20
5.04
 30
0
 11
7.765
 21
4.800000000000001
 31
0
  0
LINE
  8
0
 62
7
  6
DASHDOT
 10
4.714999999999999
 20
5.04
 30
0
 11
4.714999999999999
 21
4.800000000000001
 31
0
  0
LINE
  8
0
 62
7
  6
DASHDOT
 10
7.599999999999999
 20
5.469999999999999
 30
0
 11
7.649999999999999
 21
5.469999999999999
 31
0
  0
LINE
  8
0
 62
7
  6
DASHDOT
 10
7.424999999999999
 20
5.469999999999999
 30
0
 11
7.599999999999999
 21
5.469999999999999
 31
0
  0
LINE
  8
0
 62
7
 10
5.381720342502703
 20
4.50480422869472
 30
0
 11
5.381720342502703
 21
4.62480422869472
 31
0
  0
LINE
  8
0
 62
7
 10
5.457320342502703
 20
4.62480422869472
 30
0
 11
5.403320342502703
 21
4.564804228694721
 31
0
  0
LINE
  8
0
 62
7
 10
5.403320342502703
 20
4.564804228694721
 30
0
 11
5.457320342502703
 21
4.50480422869472
 31
0
  0
LINE
  8
0
 62
7
 10
5.403320342502703
 20
4.564804228694721
 30
0
 11
5.381720342502703
 21
4.540804228694721
 31
0
  0
LINE
  8
0
 62
7
 10
5.565320342502702
 20
4.62480422869472
 30
0
 11
5.489720342502703
 21
4.62480422869472
 31
0
  0
LINE
  8
0
 62
7
 10
5.489720342502703
 20
4.62480422869472
 30
0
 11
5.489720342502703
 21
4.564804228694721
 31
0
  0
LINE
  8
0
 62
7
 10
5.489720342502703
 20
4.50480422869472
 30
0
 11
5.565320342502702
 21
4.50480422869472
 31
0
  0
LINE
  8
0
 62
7
 10
5.554520342502702
 20
4.564804228694721
 30
0
 11
5.489720342502703
 21
4.564804228694721
 31
0
  0
LINE
  8
0
 62
7
 10
5.489720342502703
 20
4.564804228694721
 30
0
 11
5.489720342502703
 21
4.50480422869472
 31
0
  0
LINE
  8
0
 62
7
 10
5.597720342502702
 20
4.50480422869472
 30
0
 11
5.597720342502702
 21
4.62480422869472
 31
0
  0
LINE
  8
0
 62
7
 10
5.597720342502702
 20
4.62480422869472
 30
0
 11
5.673320342502702
 21
4.50480422869472
 31
0
  0
LINE
  8
0
 62
7
 10
5.673320342502702
 20
4.50480422869472
 30
0
 11
5.673320342502702
 21
4.62480422869472
 31
0
  0
LINE
  8
0
 62
7
 10
5.705720342502702
 20
4.50480422869472
 30
0
 11
5.705720342502702
 21
4.62480422869472
 31
0
  0
LINE
  8
0
 62
7
 10
5.705720342502702
 20
4.62480422869472
 30
0
 11
5.781320342502704
 21
4.50480422869472
 31
0
  0
LINE
  8
0
 62
7
 10
5.781320342502704
 20
4.50480422869472
 30
0
 11
5.781320342502704
 21
4.62480422869472
 31
0
  0
LINE
  8
0
 62
7
 10
5.889320342502703
 20
4.588804228694721
 30
0
 11
5.886620342502702
 21
4.60080422869472
 31
0
  0
LINE
  8
0
 62
7
 10
5.886620342502702
 20
4.60080422869472
 30
0
 11
5.881220342502703
 21
4.609804228694721
 31
0
  0
LINE
  8
0
 62
7
 10
5.881220342502703
 20
4.609804228694721
 30
0
 11
5.875820342502703
 21
4.61580422869472
 31
0
  0
LINE
  8
0
 62
7
 10
5.875820342502703
 20
4.61580422869472
 30
0
 11
5.867720342502702
 21
4.621804228694721
 31
0
  0
LINE
  8
0
 62
7
 10
5.867720342502702
 20
4.621804228694721
 30
0
 11
5.859620342502703
 21
4.62480422869472
 31
0
  0
LINE
  8
0
 62
7
 10
5.859620342502703
 20
4.62480422869472
 30
0
 11
5.843420342502704
 21
4.62480422869472
 31
0
  0
LINE
  8
0
 62
7
 10
5.843420342502704
 20
4.62480422869472
 30
0
 11
5.835320342502703
 21
4.621804228694721
 31
0
  0
LINE
  8
0
 62
7
 10
5.835320342502703
 20
4.621804228694721
 30
0
 11
5.827220342502702
 21
4.61580422869472
 31
0
  0
LINE
  8
0
 62
7
 10
5.827220342502702
 20
4.61580422869472
 30
0
 11
5.821820342502702
 21
4.609804228694721
 31
0
  0
LINE
  8
0
 62
7
 10
5.821820342502702
 20
4.609804228694721
 30
0
 11
5.816420342502703
 21
4.60080422869472
 31
0
  0
LINE
  8
0
 62
7
 10
5.816420342502703
 20
4.60080422869472
 30
0
 11
5.813720342502702
 21
4.588804228694721
 31
0
  0
LINE
  8
0
 62
7
 10
5.813720342502702
 20
4.588804228694721
 30
0
 11
5.813720342502702
 21
4.540804228694721
 31
0
  0
LINE
  8
0
 62
7
 10
5.813720342502702
 20
4.540804228694721
 30
0
 11
5.816420342502703
 21
4.528804228694721
 31
0
  0
LINE
  8
0
 62
7
 10
5.816420342502703
 20
4.528804228694721
 30
0
 11
5.821820342502702
 21
4.519804228694721
 31
0
  0
LINE
  8
0
 62
7
 10
5.821820342502702
 20
4.519804228694721
 30
0
 11
5.827220342502702
 21
4.513804228694721
 31
0
  0
LINE
  8
0
 62
7
 10
5.827220342502702
 20
4.513804228694721
 30
0
 11
5.835320342502703
 21
4.50780422869472
 31
0
  0
LINE
  8
0
 62
7
 10
5.835320342502703
 20
4.50780422869472
 30
0
 11
5.843420342502704
 21
4.50480422869472
 31
0
  0
LINE
  8
0
 62
7
 10
5.843420342502704
 20
4.50480422869472
 30
0
 11
5.859620342502703
 21
4.50480422869472
 31
0
  0
LINE
  8
0
 62
7
 10
5.859620342502703
 20
4.50480422869472
 30
0
 11
5.867720342502702
 21
4.50780422869472
 31
0
  0
LINE
  8
0
 62
7
 10
5.867720342502702
 20
4.50780422869472
 30
0
 11
5.875820342502703
 21
4.513804228694721
 31
0
  0
LINE
  8
0
 62
7
 10
5.875820342502703
 20
4.513804228694721
 30
0
 11
5.881220342502703
 21
4.519804228694721
 31
0
  0
LINE
  8
0
 62
7
 10
5.881220342502703
 20
4.519804228694721
 30
0
 11
5.886620342502702
 21
4.528804228694721
 31
0
  0
LINE
  8
0
 62
7
 10
5.886620342502702
 20
4.528804228694721
 30
0
 11
5.889320342502703
 21
4.540804228694721
 31
0
  0
LINE
  8
0
 62
7
 10
5.889320342502703
 20
4.540804228694721
 30
0
 11
5.889320342502703
 21
4.564804228694721
 31
0
  0
LINE
  8
0
 62
7
 10
5.889320342502703
 20
4.564804228694721
 30
0
 11
5.856920342502703
 21
4.564804228694721
 31
0
  0
LINE
  8
0
 62
7
 10
5.967620342502702
 20
4.62480422869472
 30
0
 11
5.951420342502702
 21
4.62480422869472
 31
0
  0
LINE
  8
0
 62
7
 10
5.951420342502702
 20
4.62480422869472
 30
0
 11
5.943320342502703
 21
4.621804228694721
 31
0
  0
LINE
  8
0
 62
7
 10
5.943320342502703
 20
4.621804228694721
 30
0
 11
5.935220342502703
 21
4.61580422869472
 31
0
  0
LINE
  8
0
 62
7
 10
5.935220342502703
 20
4.61580422869472
 30
0
 11
5.929820342502703
 21
4.609804228694721
 31
0
  0
LINE
  8
0
 62
7
 10
5.929820342502703
 20
4.609804228694721
 30
0
 11
5.924420342502703
 21
4.60080422869472
 31
0
  0
LINE
  8
0
 62
7
 10
5.924420342502703
 20
4.60080422869472
 30
0
 11
5.921720342502703
 21
4.588804228694721
 31
0
  0
LINE
  8
0
 62
7
 10
5.921720342502703
 20
4.588804228694721
 30
0
 11
5.921720342502703
 21
4.540804228694721
 31
0
  0
LINE
  8
0
 62
7
 10
5.921720342502703
 20
4.540804228694721
 30
0
 11
5.924420342502703
 21
4.528804228694721
 31
0
  0
LINE
  8
0
 62
7
 10
5.924420342502703
 20
4.528804228694721
 30
0
 11
5.929820342502703
 21
4.519804228694721
 31
0
  0
LINE
  8
0
 62
7
 10
5.929820342502703
 20
4.519804228694721
 30
0
 11
5.935220342502703
 21
4.513804228694721
 31
0
  0
LINE
  8
0
 62
7
 10
5.935220342502703
 20
4.513804228694721
 30
0
 11
5.943320342502703
 21
4.50780422869472
 31
0
  0
LINE
  8
0
 62
7
 10
5.943320342502703
 20
4.50780422869472
 30
0
 11
5.951420342502702
 21
4.50480422869472
 31
0
  0
LINE
  8
0
 62
7
 10
5.951420342502702
 20
4.50480422869472
 30
0
 11
5.967620342502702
 21
4.50480422869472
 31
0
  0
LINE
  8
0
 62
7
 10
5.967620342502702
 20
4.50480422869472
 30
0
 11
5.975720342502703
 21
4.50780422869472
 31
0
  0
LINE
  8
0
 62
7
 10
5.975720342502703
 20
4.50780422869472
 30
0
 11
5.983820342502703
 21
4.513804228694721
 31
0
  0
LINE
  8
0
 62
7
 10
5.983820342502703
 20
4.513804228694721
 30
0
 11
5.989220342502703
 21
4.519804228694721
 31
0
  0
LINE
  8
0
 62
7
 10
5.989220342502703
 20
4.519804228694721
 30
0
 11
5.994620342502703
 21
4.528804228694721
 31
0
  0
LINE
  8
0
 62
7
 10
5.994620342502703
 20
4.528804228694721
 30
0
 11
5.997320342502703
 21
4.540804228694721
 31
0
  0
LINE
  8
0
 62
7
 10
5.997320342502703
 20
4.540804228694721
 30
0
 11
5.997320342502703
 21
4.588804228694721
 31
0
  0
LINE
  8
0
 62
7
 10
5.997320342502703
 20
4.588804228694721
 30
0
 11
5.994620342502703
 21
4.60080422869472
 31
0
  0
LINE
  8
0
 62
7
 10
5.994620342502703
 20
4.60080422869472
 30
0
 11
5.989220342502703
 21
4.609804228694721
 31
0
  0
LINE
  8
0
 62
7
 10
5.989220342502703
 20
4.609804228694721
 30
0
 11
5.983820342502703
 21
4.61580422869472
 31
0
  0
LINE
  8
0
 62
7
 10
5.983820342502703
 20
4.61580422869472
 30
0
 11
5.975720342502703
 21
4.621804228694721
 31
0
  0
LINE
  8
0
 62
7
 10
5.975720342502703
 20
4.621804228694721
 30
0
 11
5.967620342502702
 21
4.62480422869472
 31
0
  0
LINE
  8
0
 62
7
 10
6.018920342502702
 20
4.62480422869472
 30
0
 11
6.056720342502704
 21
4.62480422869472
 31
0
  0
LINE
  8
0
 62
7
 10
6.056720342502704
 20
4.62480422869472
 30
0
 11
6.056720342502704
 21
4.50480422869472
 31
0
  0
LINE
  8
0
 62
7
 10
6.056720342502704
 20
4.62480422869472
 30
0
 11
6.094520342502703
 21
4.62480422869472
 31
0
  0
LINE
  8
0
 62
7
 10
6.126920342502704
 20
4.62480422869472
 30
0
 11
6.164720342502703
 21
4.62480422869472
 31
0
  0
LINE
  8
0
 62
7
 10
6.164720342502703
 20
4.62480422869472
 30
0
 11
6.164720342502703
 21
4.50480422869472
 31
0
  0
LINE
  8
0
 62
7
 10
6.164720342502703
 20
4.62480422869472
 30
0
 11
6.202520342502703
 21
4.62480422869472
 31
0
  0
LINE
  8
0
 62
7
 10
6.321320342502703
 20
4.546804228694721
 30
0
 11
6.375320342502702
 21
4.546804228694721
 31
0
  0
LINE
  8
0
 62
7
 10
6.483320342502703
 20
4.62480422869472
 30
0
 11
6.521120342502702
 21
4.62480422869472
 31
0
  0
LINE
  8
0
 62
7
 10
6.521120342502702
 20
4.62480422869472
 30
0
 11
6.521120342502702
 21
4.50480422869472
 31
0
  0
LINE
  8
0
 62
7
 10
6.521120342502702
 20
4.62480422869472
 30
0
 11
6.558920342502702
 21
4.62480422869472
 31
0
  0
LINE
  8
0
 62
7
 10
6.591320342502702
 20
4.50480422869472
 30
0
 11
6.591320342502702
 21
4.62480422869472
 31
0
  0
LINE
  8
0
 62
7
 10
6.591320342502702
 20
4.62480422869472
 30
0
 11
6.642620342502702
 21
4.62480422869472
 31
0
  0
LINE
  8
0
 62
7
 10
6.642620342502702
 20
4.62480422869472
 30
0
 11
6.653420342502703
 21
4.621804228694721
 31
0
  0
LINE
  8
0
 62
7
 10
6.653420342502703
 20
4.621804228694721
 30
0
 11
6.661520342502702
 21
4.61580422869472
 31
0
  0
LINE
  8
0
 62
7
 10
6.661520342502702
 20
4.61580422869472
 30
0
 11
6.664220342502702
 21
4.609804228694721
 31
0
  0
LINE
  8
0
 62
7
 10
6.664220342502702
 20
4.609804228694721
 30
0
 11
6.666920342502703
 21
4.60080422869472
 31
0
  0
LINE
  8
0
 62
7
 10
6.666920342502703
 20
4.60080422869472
 30
0
 11
6.666920342502703
 21
4.588804228694721
 31
0
  0
LINE
  8
0
 62
7
 10
6.666920342502703
 20
4.588804228694721
 30
0
 11
6.664220342502702
 21
4.57980422869472
 31
0
  0
LINE
  8
0
 62
7
 10
6.664220342502702
 20
4.57980422869472
 30
0
 11
6.661520342502702
 21
4.573804228694722
 31
0
  0
LINE
  8
0
 62
7
 10
6.661520342502702
 20
4.573804228694722
 30
0
 11
6.653420342502703
 21
4.567804228694721
 31
0
  0
LINE
  8
0
 62
7
 10
6.653420342502703
 20
4.567804228694721
 30
0
 11
6.642620342502702
 21
4.564804228694721
 31
0
  0
LINE
  8
0
 62
7
 10
6.642620342502702
 20
4.564804228694721
 30
0
 11
6.634520342502701
 21
4.564804228694721
 31
0
  0
LINE
  8
0
 62
7
 10
6.634520342502701
 20
4.564804228694721
 30
0
 11
6.666920342502703
 21
4.50480422869472
 31
0
  0
LINE
  8
0
 62
7
 10
6.634520342502701
 20
4.564804228694721
 30
0
 11
6.591320342502702
 21
4.564804228694721
 31
0
  0
LINE
  8
0
 62
7
 10
6.764120342502702
 20
4.62480422869472
 30
0
 11
6.688520342502702
 21
4.62480422869472
 31
0
  0
LINE
  8
0
 62
7
 10
6.688520342502702
 20
4.62480422869472
 30
0
 11
6.688520342502702
 21
4.564804228694721
 31
0
  0
LINE
  8
0
 62
7
 10
6.688520342502702
 20
4.50480422869472
 30
0
 11
6.764120342502702
 21
4.50480422869472
 31
0
  0
LINE
  8
0
 62
7
 10
6.753320342502703
 20
4.564804228694721
 30
0
 11
6.688520342502702
 21
4.564804228694721
 31
0
  0
LINE
  8
0
 62
7
 10
6.688520342502702
 20
4.564804228694721
 30
0
 11
6.688520342502702
 21
4.50480422869472
 31
0
  0
LINE
  8
0
 62
7
 10
6.796520342502702
 20
4.50480422869472
 30
0
 11
6.796520342502702
 21
4.564804228694721
 31
0
  0
LINE
  8
0
 62
7
 10
6.796520342502702
 20
4.62480422869472
 30
0
 11
6.847820342502702
 21
4.62480422869472
 31
0
  0
LINE
  8
0
 62
7
 10
6.847820342502702
 20
4.62480422869472
 30
0
 11
6.858620342502703
 21
4.621804228694721
 31
0
  0
LINE
  8
0
 62
7
 10
6.858620342502703
 20
4.621804228694721
 30
0
 11
6.866720342502703
 21
4.61580422869472
 31
0
  0
LINE
  8
0
 62
7
 10
6.866720342502703
 20
4.61580422869472
 30
0
 11
6.869420342502702
 21
4.609804228694721
 31
0
  0
LINE
  8
0
 62
7
 10
6.869420342502702
 20
4.609804228694721
 30
0
 11
6.872120342502703
 21
4.60080422869472
 31
0
  0
LINE
  8
0
 62
7
 10
6.872120342502703
 20
4.60080422869472
 30
0
 11
6.872120342502703
 21
4.588804228694721
 31
0
  0
LINE
  8
0
 62
7
 10
6.872120342502703
 20
4.588804228694721
 30
0
 11
6.869420342502702
 21
4.57980422869472
 31
0
  0
LINE
  8
0
 62
7
 10
6.869420342502702
 20
4.57980422869472
 30
0
 11
6.866720342502703
 21
4.573804228694722
 31
0
  0
LINE
  8
0
 62
7
 10
6.866720342502703
 20
4.573804228694722
 30
0
 11
6.858620342502703
 21
4.567804228694721
 31
0
  0
LINE
  8
0
 62
7
 10
6.858620342502703
 20
4.567804228694721
 30
0
 11
6.847820342502702
 21
4.564804228694721
 31
0
  0
LINE
  8
0
 62
7
 10
6.847820342502702
 20
4.564804228694721
 30
0
 11
6.796520342502702
 21
4.564804228694721
 31
0
  0
LINE
  8
0
 62
7
 10
6.796520342502702
 20
4.564804228694721
 30
0
 11
6.796520342502702
 21
4.62480422869472
 31
0
  0
LINE
  8
0
 62
7
 10
6.893720342502703
 20
4.50480422869472
 30
0
 11
6.893720342502703
 21
4.564804228694721
 31
0
  0
LINE
  8
0
 62
7
 10
6.893720342502703
 20
4.62480422869472
 30
0
 11
6.945020342502703
 21
4.62480422869472
 31
0
  0
LINE
  8
0
 62
7
 10
6.945020342502703
 20
4.62480422869472
 30
0
 11
6.955820342502704
 21
4.621804228694721
 31
0
  0
LINE
  8
0
 62
7
 10
6.955820342502704
 20
4.621804228694721
 30
0
 11
6.963920342502703
 21
4.61580422869472
 31
0
  0
LINE
  8
0
 62
7
 10
6.963920342502703
 20
4.61580422869472
 30
0
 11
6.966620342502702
 21
4.609804228694721
 31
0
  0
LINE
  8
0
 62
7
 10
6.966620342502702
 20
4.609804228694721
 30
0
 11
6.969320342502702
 21
4.60080422869472
 31
0
  0
LINE
  8
0
 62
7
 10
6.969320342502702
 20
4.60080422869472
 30
0
 11
6.969320342502702
 21
4.588804228694721
 31
0
  0
LINE
  8
0
 62
7
 10
6.969320342502702
 20
4.588804228694721
 30
0
 11
6.966620342502702
 21
4.57980422869472
 31
0
  0
LINE
  8
0
 62
7
 10
6.966620342502702
 20
4.57980422869472
 30
0
 11
6.963920342502703
 21
4.573804228694722
 31
0
  0
LINE
  8
0
 62
7
 10
6.963920342502703
 20
4.573804228694722
 30
0
 11
6.955820342502704
 21
4.567804228694721
 31
0
  0
LINE
  8
0
 62
7
 10
6.955820342502704
 20
4.567804228694721
 30
0
 11
6.945020342502703
 21
4.564804228694721
 31
0
  0
LINE
  8
0
 62
7
 10
6.945020342502703
 20
4.564804228694721
 30
0
 11
6.893720342502703
 21
4.564804228694721
 31
0
  0
LINE
  8
0
 62
7
 10
6.893720342502703
 20
4.564804228694721
 30
0
 11
6.893720342502703
 21
4.62480422869472
 31
0
  0
LINE
  8
0
 62
7
 10
7.066520342502703
 20
4.62480422869472
 30
0
 11
6.990920342502704
 21
4.62480422869472
 31
0
  0
LINE
  8
0
 62
7
 10
6.990920342502704
 20
4.62480422869472
 30
0
 11
6.990920342502704
 21
4.564804228694721
 31
0
  0
LINE
  8
0
 62
7
 10
6.990920342502704
 20
4.50480422869472
 30
0
 11
7.066520342502703
 21
4.50480422869472
 31
0
  0
LINE
  8
0
 62
7
 10
7.055720342502703
 20
4.564804228694721
 30
0
 11
6.990920342502704
 21
4.564804228694721
 31
0
  0
LINE
  8
0
 62
7
 10
6.990920342502704
 20
4.564804228694721
 30
0
 11
6.990920342502704
 21
4.50480422869472
 31
0
  0
LINE
  8
0
 62
7
 10
4.374999999999999
 20
2.890000000000001
 30
0
 11
4.374999999999999
 21
3.010000000000001
 31
0
  0
LINE
  8
0
 62
7
 10
4.450599999999999
 20
3.010000000000001
 30
0
 11
4.3966
 21
2.950000000000001
 31
0
  0
LINE
  8
0
 62
7
 10
4.3966
 20
2.950000000000001
 30
0
 11
4.450599999999999
 21
2.890000000000001
 31
0
  0
LINE
  8
0
 62
7
 10
4.3966
 20
2.950000000000001
 30
0
 11
4.374999999999999
 21
2.926000000000001
 31
0
  0
LINE
  8
0
 62
7
 10
4.483
 20
2.992
 30
0
 11
4.4884
 21
3.001000000000001
 31
0
  0
LINE
  8
0
 62
7
 10
4.4884
 20
3.001000000000001
 30
0
 11
4.496499999999999
 21
3.007
 31
0
  0
LINE
  8
0
 62
7
 10
4.496499999999999
 20
3.007
 30
0
 11
4.5073
 21
3.010000000000001
 31
0
  0
LINE
  8
0
 62
7
 10
4.5073
 20
3.010000000000001
 30
0
 11
4.523499999999999
 21
3.010000000000001
 31
0
  0
LINE
  8
0
 62
7
 10
4.523499999999999
 20
3.010000000000001
 30
0
 11
4.5343
 21
3.007
 31
0
  0
LINE
  8
0
 62
7
 10
4.5343
 20
3.007
 30
0
 11
4.542399999999999
 21
3.001000000000001
 31
0
  0
LINE
  8
0
 62
7
 10
4.542399999999999
 20
3.001000000000001
 30
0
 11
4.5478
 21
2.992
 31
0
  0
LINE
  8
0
 62
7
 10
4.5478
 20
2.992
 30
0
 11
4.5478
 21
2.980000000000001
 31
0
  0
LINE
  8
0
 62
7
 10
4.5478
 20
2.980000000000001
 30
0
 11
4.542399999999999
 21
2.968000000000002
 31
0
  0
LINE
  8
0
 62
7
 10
4.542399999999999
 20
2.968000000000002
 30
0
 11
4.483
 21
2.890000000000001
 31
0
  0
LINE
  8
0
 62
7
 10
4.483
 20
2.890000000000001
 30
0
 11
4.5478
 21
2.890000000000001
 31
0
  0
LINE
  8
0
 62
7
 10
4.5802
 20
3.010000000000001
 30
0
 11
4.618
 21
2.890000000000001
 31
0
  0
LINE
  8
0
 62
7
 10
4.618
 20
2.890000000000001
 30
0
 11
4.655799999999999
 21
3.010000000000001
 31
0
  0
LINE
  8
0
 62
7
 10
4.688199999999999
 20
2.992
 30
0
 11
4.693599999999999
 21
3.001000000000001
 31
0
  0
LINE
  8
0
 62
7
 10
4.693599999999999
 20
3.001000000000001
 30
0
 11
4.701699999999999
 21
3.007
 31
0
  0
LINE
  8
0
 62
7
 10
4.701699999999999
 20
3.007
 30
0
 11
4.712499999999999
 21
3.010000000000001
 31
0
  0
LINE
  8
0
 62
7
 10
4.712499999999999
 20
3.010000000000001
 30
0
 11
4.728699999999999
 21
3.010000000000001
 31
0
  0
LINE
  8
0
 62
7
 10
4.728699999999999
 20
3.010000000000001
 30
0
 11
4.739499999999999
 21
3.007
 31
0
  0
LINE
  8
0
 62
7
 10
4.739499999999999
 20
3.007
 30
0
 11
4.747599999999998
 21
3.001000000000001
 31
0
  0
LINE
  8
0
 62
7
 10
4.747599999999998
 20
3.001000000000001
 30
0
 11
4.753
 21
2.992
 31
0
  0
LINE
  8
0
 62
7
 10
4.753
 20
2.992
 30
0
 11
4.753
 21
2.980000000000001
 31
0
  0
LINE
  8
0
 62
7
 10
4.753
 20
2.980000000000001
 30
0
 11
4.747599999999998
 21
2.968000000000002
 31
0
  0
LINE
  8
0
 62
7
 10
4.747599999999998
 20
2.968000000000002
 30
0
 11
4.688199999999999
 21
2.890000000000001
 31
0
  0
LINE
  8
0
 62
7
 10
4.688199999999999
 20
2.890000000000001
 30
0
 11
4.753
 21
2.890000000000001
 31
0
  0
LINE
  8
0
 62
7
 10
4.785399999999998
 20
2.992
 30
0
 11
4.7908
 21
3.001000000000001
 31
0
  0
LINE
  8
0
 62
7
 10
4.7908
 20
3.001000000000001
 30
0
 11
4.798899999999999
 21
3.007
 31
0
  0
LINE
  8
0
 62
7
 10
4.798899999999999
 20
3.007
 30
0
 11
4.809699999999999
 21
3.010000000000001
 31
0
  0
LINE
  8
0
 62
7
 10
4.809699999999999
 20
3.010000000000001
 30
0
 11
4.825900000000001
 21
3.010000000000001
 31
0
  0
LINE
  8
0
 62
7
 10
4.825900000000001
 20
3.010000000000001
 30
0
 11
4.834
 21
3.007
 31
0
  0
LINE
  8
0
 62
7
 10
4.834
 20
3.007
 30
0
 11
4.842099999999999
 21
3.001000000000001
 31
0
  0
LINE
  8
0
 62
7
 10
4.842099999999999
 20
3.001000000000001
 30
0
 11
4.8475
 21
2.992
 31
0
  0
LINE
  8
0
 62
7
 10
4.8475
 20
2.992
 30
0
 11
4.850199999999999
 21
2.980000000000001
 31
0
  0
LINE
  8
0
 62
7
 10
4.850199999999999
 20
2.980000000000001
 30
0
 11
4.850199999999999
 21
2.971000000000001
 31
0
  0
LINE
  8
0
 62
7
 10
4.850199999999999
 20
2.971000000000001
 30
0
 11
4.8475
 21
2.962
 31
0
  0
LINE
  8
0
 62
7
 10
4.8475
 20
2.962
 30
0
 11
4.842099999999999
 21
2.956000000000001
 31
0
  0
LINE
  8
0
 62
7
 10
4.842099999999999
 20
2.956000000000001
 30
0
 11
4.828599999999999
 21
2.950000000000001
 31
0
  0
LINE
  8
0
 62
7
 10
4.809699999999999
 20
2.950000000000001
 30
0
 11
4.828599999999999
 21
2.950000000000001
 31
0
  0
LINE
  8
0
 62
7
 10
4.828599999999999
 20
2.950000000000001
 30
0
 11
4.842099999999999
 21
2.944
 31
0
  0
LINE
  8
0
 62
7
 10
4.842099999999999
 20
2.944
 30
0
 11
4.8475
 21
2.938000000000001
 31
0
  0
LINE
  8
0
 62
7
 10
4.8475
 20
2.938000000000001
 30
0
 11
4.850199999999999
 21
2.929
 31
0
  0
LINE
  8
0
 62
7
 10
4.850199999999999
 20
2.929
 30
0
 11
4.850199999999999
 21
2.920000000000001
 31
0
  0
LINE
  8
0
 62
7
 10
4.850199999999999
 20
2.920000000000001
 30
0
 11
4.8475
 21
2.908000000000001
 31
0
  0
LINE
  8
0
 62
7
 10
4.8475
 20
2.908000000000001
 30
0
 11
4.842099999999999
 21
2.899
 31
0
  0
LINE
  8
0
 62
7
 10
4.842099999999999
 20
2.899
 30
0
 11
4.834
 21
2.893000000000002
 31
0
  0
LINE
  8
0
 62
7
 10
4.834
 20
2.893000000000002
 30
0
 11
4.825900000000001
 21
2.890000000000001
 31
0
  0
LINE
  8
0
 62
7
 10
4.825900000000001
 20
2.890000000000001
 30
0
 11
4.809699999999999
 21
2.890000000000001
 31
0
  0
LINE
  8
0
 62
7
 10
4.809699999999999
 20
2.890000000000001
 30
0
 11
4.798899999999999
 21
2.893000000000002
 31
0
  0
LINE
  8
0
 62
7
 10
4.798899999999999
 20
2.893000000000002
 30
0
 11
4.7908
 21
2.899
 31
0
  0
LINE
  8
0
 62
7
 10
4.7908
 20
2.899
 30
0
 11
4.785399999999998
 21
2.908000000000001
 31
0
  0
LINE
  8
0
 62
7
 10
4.9096
 20
3.010000000000001
 30
0
 11
4.920400000000001
 21
3.010000000000001
 31
0
  0
LINE
  8
0
 62
7
 10
4.920400000000001
 20
3.010000000000001
 30
0
 11
4.9285
 21
3.007
 31
0
  0
LINE
  8
0
 62
7
 10
4.9285
 20
3.007
 30
0
 11
4.9339
 21
3.001000000000001
 31
0
  0
LINE
  8
0
 62
7
 10
4.9339
 20
3.001000000000001
 30
0
 11
4.939299999999999
 21
2.992
 31
0
  0
LINE
  8
0
 62
7
 10
4.939299999999999
 20
2.992
 30
0
 11
4.939299999999999
 21
2.980000000000001
 31
0
  0
LINE
  8
0
 62
7
 10
4.939299999999999
 20
2.980000000000001
 30
0
 11
4.936600000000001
 21
2.974
 31
0
  0
LINE
  8
0
 62
7
 10
4.936600000000001
 20
2.974
 30
0
 11
4.9285
 21
2.965000000000001
 31
0
  0
LINE
  8
0
 62
7
 10
4.9285
 20
2.965000000000001
 30
0
 11
4.920400000000001
 21
2.962
 31
0
  0
LINE
  8
0
 62
7
 10
4.920400000000001
 20
2.962
 30
0
 11
4.9096
 21
2.962
 31
0
  0
LINE
  8
0
 62
7
 10
4.9096
 20
2.962
 30
0
 11
4.9015
 21
2.965000000000001
 31
0
  0
LINE
  8
0
 62
7
 10
4.9015
 20
2.965000000000001
 30
0
 11
4.8934
 21
2.974
 31
0
  0
LINE
  8
0
 62
7
 10
4.8934
 20
2.974
 30
0
 11
4.8907
 21
2.980000000000001
 31
0
  0
LINE
  8
0
 62
7
 10
4.8907
 20
2.980000000000001
 30
0
 11
4.8907
 21
2.992
 31
0
  0
LINE
  8
0
 62
7
 10
4.8907
 20
2.992
 30
0
 11
4.896100000000001
 21
3.001000000000001
 31
0
  0
LINE
  8
0
 62
7
 10
4.896100000000001
 20
3.001000000000001
 30
0
 11
4.9015
 21
3.007
 31
0
  0
LINE
  8
0
 62
7
 10
4.9015
 20
3.007
 30
0
 11
4.9096
 21
3.010000000000001
 31
0
  0
LINE
  8
0
 62
7
 10
4.9096
 20
2.962
 30
0
 11
4.896100000000001
 21
2.956000000000001
 31
0
  0
LINE
  8
0
 62
7
 10
4.896100000000001
 20
2.956000000000001
 30
0
 11
4.888000000000001
 21
2.947
 31
0
  0
LINE
  8
0
 62
7
 10
4.888000000000001
 20
2.947
 30
0
 11
4.882600000000001
 21
2.935000000000001
 31
0
  0
LINE
  8
0
 62
7
 10
4.882600000000001
 20
2.935000000000001
 30
0
 11
4.882600000000001
 21
2.917
 31
0
  0
LINE
  8
0
 62
7
 10
4.882600000000001
 20
2.917
 30
0
 11
4.888000000000001
 21
2.905000000000001
 31
0
  0
LINE
  8
0
 62
7
 10
4.888000000000001
 20
2.905000000000001
 30
0
 11
4.896100000000001
 21
2.896000000000001
 31
0
  0
LINE
  8
0
 62
7
 10
4.896100000000001
 20
2.896000000000001
 30
0
 11
4.9069
 21
2.890000000000001
 31
0
  0
LINE
  8
0
 62
7
 10
4.9069
 20
2.890000000000001
 30
0
 11
4.923099999999999
 21
2.890000000000001
 31
0
  0
LINE
  8
0
 62
7
 10
4.923099999999999
 20
2.890000000000001
 30
0
 11
4.9339
 21
2.896000000000001
 31
0
  0
LINE
  8
0
 62
7
 10
4.9339
 20
2.896000000000001
 30
0
 11
4.942
 21
2.905000000000001
 31
0
  0
LINE
  8
0
 62
7
 10
4.942
 20
2.905000000000001
 30
0
 11
4.9474
 21
2.917
 31
0
  0
LINE
  8
0
 62
7
 10
4.9474
 20
2.917
 30
0
 11
4.9474
 21
2.935000000000001
 31
0
  0
LINE
  8
0
 62
7
 10
4.9474
 20
2.935000000000001
 30
0
 11
4.942
 21
2.947
 31
0
  0
LINE
  8
0
 62
7
 10
4.942
 20
2.947
 30
0
 11
4.9339
 21
2.956000000000001
 31
0
  0
LINE
  8
0
 62
7
 10
4.9339
 20
2.956000000000001
 30
0
 11
4.920400000000001
 21
2.962
 31
0
  0
LINE
  8
0
 62
7
 10
4.990599999999999
 20
2.890000000000001
 30
0
 11
4.990599999999999
 21
3.010000000000001
 31
0
  0
LINE
  8
0
 62
7
 10
4.990599999999999
 20
3.010000000000001
 30
0
 11
5.041899999999999
 21
3.010000000000001
 31
0
  0
LINE
  8
0
 62
7
 10
5.041899999999999
 20
3.010000000000001
 30
0
 11
5.052699999999999
 21
3.007
 31
0
  0
LINE
  8
0
 62
7
 10
5.052699999999999
 20
3.007
 30
0
 11
5.0608
 21
3.001000000000001
 31
0
  0
LINE
  8
0
 62
7
 10
5.0608
 20
3.001000000000001
 30
0
 11
5.063499999999999
 21
2.995000000000001
 31
0
  0
LINE
  8
0
 62
7
 10
5.063499999999999
 20
2.995000000000001
 30
0
 11
5.066199999999999
 21
2.986000000000001
 31
0
  0
LINE
  8
0
 62
7
 10
5.066199999999999
 20
2.986000000000001
 30
0
 11
5.066199999999999
 21
2.974
 31
0
  0
LINE
  8
0
 62
7
 10
5.066199999999999
 20
2.974
 30
0
 11
5.063499999999999
 21
2.965000000000001
 31
0
  0
LINE
  8
0
 62
7
 10
5.063499999999999
 20
2.965000000000001
 30
0
 11
5.0608
 21
2.959
 31
0
  0
LINE
  8
0
 62
7
 10
5.0608
 20
2.959
 30
0
 11
5.052699999999999
 21
2.953000000000002
 31
0
  0
LINE
  8
0
 62
7
 10
5.052699999999999
 20
2.953000000000002
 30
0
 11
5.041899999999999
 21
2.950000000000001
 31
0
  0
LINE
  8
0
 62
7
 10
5.041899999999999
 20
2.950000000000001
 30
0
 11
5.033799999999999
 21
2.950000000000001
 31
0
  0
LINE
  8
0
 62
7
 10
5.033799999999999
 20
2.950000000000001
 30
0
 11
5.066199999999999
 21
2.890000000000001
 31
0
  0
LINE
  8
0
 62
7
 10
5.033799999999999
 20
2.950000000000001
 30
0
 11
4.990599999999999
 21
2.950000000000001
 31
0
  0
LINE
  8
0
 62
7
 10
5.0878
 20
2.992
 30
0
 11
5.0932
 21
3.001000000000001
 31
0
  0
LINE
  8
0
 62
7
 10
5.0932
 20
3.001000000000001
 30
0
 11
5.101299999999999
 21
3.007
 31
0
  0
LINE
  8
0
 62
7
 10
5.101299999999999
 20
3.007
 30
0
 11
5.1121
 21
3.010000000000001
 31
0
  0
LINE
  8
0
 62
7
 10
5.1121
 20
3.010000000000001
 30
0
 11
5.128299999999999
 21
3.010000000000001
 31
0
  0
LINE
  8
0
 62
7
 10
5.128299999999999
 20
3.010000000000001
 30
0
 11
5.1364
 21
3.007
 31
0
  0
LINE
  8
0
 62
7
 10
5.1364
 20
3.007
 30
0
 11
5.1445
 21
3.001000000000001
 31
0
  0
LINE
  8
0
 62
7
 10
5.1445
 20
3.001000000000001
 30
0
 11
5.1499
 21
2.992
 31
0
  0
LINE
  8
0
 62
7
 10
5.1499
 20
2.992
 30
0
 11
5.152600000000001
 21
2.980000000000001
 31
0
  0
LINE
  8
0
 62
7
 10
5.152600000000001
 20
2.980000000000001
 30
0
 11
5.152600000000001
 21
2.971000000000001
 31
0
  0
LINE
  8
0
 62
7
 10
5.152600000000001
 20
2.971000000000001
 30
0
 11
5.1499
 21
2.962
 31
0
  0
LINE
  8
0
 62
7
 10
5.1499
 20
2.962
 30
0
 11
5.1445
 21
2.956000000000001
 31
0
  0
LINE
  8
0
 62
7
 10
5.1445
 20
2.956000000000001
 30
0
 11
5.131
 21
2.950000000000001
 31
0
  0
LINE
  8
0
 62
7
 10
5.1121
 20
2.950000000000001
 30
0
 11
5.131
 21
2.950000000000001
 31
0
  0
LINE
  8
0
 62
7
 10
5.131
 20
2.950000000000001
 30
0
 11
5.1445
 21
2.944
 31
0
  0
LINE
  8
0
 62
7
 10
5.1445
 20
2.944
 30
0
 11
5.1499
 21
2.938000000000001
 31
0
  0
LINE
  8
0
 62
7
 10
5.1499
 20
2.938000000000001
 30
0
 11
5.152600000000001
 21
2.929
 31
0
  0
LINE
  8
0
 62
7
 10
5.152600000000001
 20
2.929
 30
0
 11
5.152600000000001
 21
2.920000000000001
 31
0
  0
LINE
  8
0
 62
7
 10
5.152600000000001
 20
2.920000000000001
 30
0
 11
5.1499
 21
2.908000000000001
 31
0
  0
LINE
  8
0
 62
7
 10
5.1499
 20
2.908000000000001
 30
0
 11
5.1445
 21
2.899
 31
0
  0
LINE
  8
0
 62
7
 10
5.1445
 20
2.899
 30
0
 11
5.1364
 21
2.893000000000002
 31
0
  0
LINE
  8
0
 62
7
 10
5.1364
 20
2.893000000000002
 30
0
 11
5.128299999999999
 21
2.890000000000001
 31
0
  0
LINE
  8
0
 62
7
 10
5.128299999999999
 20
2.890000000000001
 30
0
 11
5.1121
 21
2.890000000000001
 31
0
  0
LINE
  8
0
 62
7
 10
5.1121
 20
2.890000000000001
 30
0
 11
5.101299999999999
 21
2.893000000000002
 31
0
  0
LINE
  8
0
 62
7
 10
5.101299999999999
 20
2.893000000000002
 30
0
 11
5.0932
 21
2.899
 31
0
  0
LINE
  8
0
 62
7
 10
5.0932
 20
2.899
 30
0
 11
5.0878
 21
2.908000000000001
 31
0
  0
LINE
  8
0
 62
7
 10
6.875
 20
2.890000000000001
 30
0
 11
6.875
 21
2.990000000000001
 31
0
  0
LINE
  8
0
 62
7
 10
6.875
 20
2.990000000000001
 30
0
 11
6.938
 21
2.890000000000001
 31
0
  0
LINE
  8
0
 62
7
 10
6.938
 20
2.890000000000001
 30
0
 11
6.938
 21
2.990000000000001
 31
0
  0
LINE
  8
0
 62
7
 10
7.019
 20
2.890000000000001
 30
0
 11
6.965000000000001
 21
2.890000000000001
 31
0
  0
LINE
  8
0
 62
7
 10
6.965000000000001
 20
2.890000000000001
 30
0
 11
6.965000000000001
 21
2.990000000000001
 31
0
  0
LINE
  8
0
 62
7
 10
7.045999999999999
 20
2.940000000000001
 30
0
 11
7.082
 21
2.940000000000001
 31
0
  0
LINE
  8
0
 62
7
 10
7.082
 20
2.940000000000001
 30
0
 11
7.0865
 21
2.940000000000001
 31
0
  0
LINE
  8
0
 62
7
 10
7.0865
 20
2.940000000000001
 30
0
 11
7.0955
 21
2.935000000000001
 31
0
  0
LINE
  8
0
 62
7
 10
7.0955
 20
2.935000000000001
 30
0
 11
7.100000000000001
 21
2.930000000000001
 31
0
  0
LINE
  8
0
 62
7
 10
7.100000000000001
 20
2.930000000000001
 30
0
 11
7.104499999999999
 21
2.920000000000001
 31
0
  0
LINE
  8
0
 62
7
 10
7.104499999999999
 20
2.920000000000001
 30
0
 11
7.104499999999999
 21
2.910000000000001
 31
0
  0
LINE
  8
0
 62
7
 10
7.104499999999999
 20
2.910000000000001
 30
0
 11
7.100000000000001
 21
2.900000000000001
 31
0
  0
LINE
  8
0
 62
7
 10
7.100000000000001
 20
2.900000000000001
 30
0
 11
7.0955
 21
2.895000000000001
 31
0
  0
LINE
  8
0
 62
7
 10
7.0955
 20
2.895000000000001
 30
0
 11
7.0865
 21
2.890000000000001
 31
0
  0
LINE
  8
0
 62
7
 10
7.0865
 20
2.890000000000001
 30
0
 11
7.045999999999999
 21
2.890000000000001
 31
0
  0
LINE
  8
0
 62
7
 10
7.045999999999999
 20
2.890000000000001
 30
0
 11
7.045999999999999
 21
2.940000000000001
 31
0
  0
LINE
  8
0
 62
7
 10
7.045999999999999
 20
2.990000000000001
 30
0
 11
7.079750000000001
 21
2.990000000000001
 31
0
  0
LINE
  8
0
 62
7
 10
7.079750000000001
 20
2.990000000000001
 30
0
 11
7.091
 21
2.987500000000001
 31
0
  0
LINE
  8
0
 62
7
 10
7.091
 20
2.987500000000001
 30
0
 11
7.097750000000001
 21
2.980000000000001
 31
0
  0
LINE
  8
0
 62
7
 10
7.097750000000001
 20
2.980000000000001
 30
0
 11
7.100000000000001
 21
2.970000000000001
 31
0
  0
LINE
  8
0
 62
7
 10
7.100000000000001
 20
2.970000000000001
 30
0
 11
7.100000000000001
 21
2.960000000000001
 31
0
  0
LINE
  8
0
 62
7
 10
7.100000000000001
 20
2.960000000000001
 30
0
 11
7.0955
 21
2.950000000000001
 31
0
  0
LINE
  8
0
 62
7
 10
7.0955
 20
2.950000000000001
 30
0
 11
7.088750000000001
 21
2.942500000000001
 31
0
  0
LINE
  8
0
 62
7
 10
7.088750000000001
 20
2.942500000000001
 30
0
 11
7.082
 21
2.940000000000001
 31
0
  0
LINE
  8
0
 62
7
 10
7.045999999999999
 20
2.940000000000001
 30
0
 11
7.045999999999999
 21
2.990000000000001
 31
0
  0
LINE
  8
0
 62
7
 10
7.246250000000001
 20
2.942500000000001
 30
0
 11
7.2395
 21
2.952500000000001
 31
0
  0
LINE
  8
0
 62
7
 10
7.2395
 20
2.952500000000001
 30
0
 11
7.23275
 21
2.957500000000001
 31
0
  0
LINE
  8
0
 62
7
 10
7.23275
 20
2.957500000000001
 30
0
 11
7.225999999999999
 21
2.960000000000001
 31
0
  0
LINE
  8
0
 62
7
 10
7.225999999999999
 20
2.960000000000001
 30
0
 11
7.216999999999999
 21
2.960000000000001
 31
0
  0
LINE
  8
0
 62
7
 10
7.216999999999999
 20
2.960000000000001
 30
0
 11
7.210250000000001
 21
2.957500000000001
 31
0
  0
LINE
  8
0
 62
7
 10
7.210250000000001
 20
2.957500000000001
 30
0
 11
7.2035
 21
2.952500000000001
 31
0
  0
LINE
  8
0
 62
7
 10
7.2035
 20
2.952500000000001
 30
0
 11
7.196750000000001
 21
2.942500000000001
 31
0
  0
LINE
  8
0
 62
7
 10
7.196750000000001
 20
2.942500000000001
 30
0
 11
7.1945
 21
2.935000000000001
 31
0
  0
LINE
  8
0
 62
7
 10
7.1945
 20
2.935000000000001
 30
0
 11
7.1945
 21
2.915000000000001
 31
0
  0
LINE
  8
0
 62
7
 10
7.1945
 20
2.915000000000001
 30
0
 11
7.196750000000001
 21
2.907500000000001
 31
0
  0
LINE
  8
0
 62
7
 10
7.196750000000001
 20
2.907500000000001
 30
0
 11
7.2035
 21
2.897500000000001
 31
0
  0
LINE
  8
0
 62
7
 10
7.2035
 20
2.897500000000001
 30
0
 11
7.210250000000001
 21
2.892500000000001
 31
0
  0
LINE
  8
0
 62
7
 10
7.210250000000001
 20
2.892500000000001
 30
0
 11
7.216999999999999
 21
2.890000000000001
 31
0
  0
LINE
  8
0
 62
7
 10
7.216999999999999
 20
2.890000000000001
 30
0
 11
7.225999999999999
 21
2.890000000000001
 31
0
  0
LINE
  8
0
 62
7
 10
7.225999999999999
 20
2.890000000000001
 30
0
 11
7.23275
 21
2.892500000000001
 31
0
  0
LINE
  8
0
 62
7
 10
7.23275
 20
2.892500000000001
 30
0
 11
7.2395
 21
2.897500000000001
 31
0
  0
LINE
  8
0
 62
7
 10
7.2395
 20
2.897500000000001
 30
0
 11
7.246250000000001
 21
2.907500000000001
 31
0
  0
LINE
  8
0
 62
7
 10
7.318249999999999
 20
2.935000000000001
 30
0
 11
7.316
 21
2.942500000000001
 31
0
  0
LINE
  8
0
 62
7
 10
7.316
 20
2.942500000000001
 30
0
 11
7.30925
 21
2.952500000000001
 31
0
  0
LINE
  8
0
 62
7
 10
7.30925
 20
2.952500000000001
 30
0
 11
7.302500000000001
 21
2.957500000000001
 31
0
  0
LINE
  8
0
 62
7
 10
7.302500000000001
 20
2.957500000000001
 30
0
 11
7.29575
 21
2.960000000000001
 31
0
  0
LINE
  8
0
 62
7
 10
7.29575
 20
2.960000000000001
 30
0
 11
7.286750000000001
 21
2.960000000000001
 31
0
  0
LINE
  8
0
 62
7
 10
7.286750000000001
 20
2.960000000000001
 30
0
 11
7.28
 21
2.957500000000001
 31
0
  0
LINE
  8
0
 62
7
 10
7.28
 20
2.957500000000001
 30
0
 11
7.273249999999999
 21
2.952500000000001
 31
0
  0
LINE
  8
0
 62
7
 10
7.273249999999999
 20
2.952500000000001
 30
0
 11
7.266500000000001
 21
2.942500000000001
 31
0
  0
LINE
  8
0
 62
7
 10
7.266500000000001
 20
2.942500000000001
 30
0
 11
7.264250000000001
 21
2.935000000000001
 31
0
  0
LINE
  8
0
 62
7
 10
7.264250000000001
 20
2.935000000000001
 30
0
 11
7.264250000000001
 21
2.915000000000001
 31
0
  0
LINE
  8
0
 62
7
 10
7.264250000000001
 20
2.915000000000001
 30
0
 11
7.266500000000001
 21
2.907500000000001
 31
0
  0
LINE
  8
0
 62
7
 10
7.266500000000001
 20
2.907500000000001
 30
0
 11
7.273249999999999
 21
2.897500000000001
 31
0
  0
LINE
  8
0
 62
7
 10
7.273249999999999
 20
2.897500000000001
 30
0
 11
7.28
 21
2.892500000000001
 31
0
  0
LINE
  8
0
 62
7
 10
7.28
 20
2.892500000000001
 30
0
 11
7.286750000000001
 21
2.890000000000001
 31
0
  0
LINE
  8
0
 62
7
 10
7.286750000000001
 20
2.890000000000001
 30
0
 11
7.29575
 21
2.890000000000001
 31
0
  0
LINE
  8
0
 62
7
 10
7.29575
 20
2.890000000000001
 30
0
 11
7.302500000000001
 21
2.892500000000001
 31
0
  0
LINE
  8
0
 62
7
 10
7.302500000000001
 20
2.892500000000001
 30
0
 11
7.30925
 21
2.897500000000001
 31
0
  0
LINE
  8
0
 62
7
 10
7.30925
 20
2.897500000000001
 30
0
 11
7.316
 21
2.907500000000001
 31
0
  0
LINE
  8
0
 62
7
 10
7.316
 20
2.907500000000001
 30
0
 11
7.318249999999999
 21
2.915000000000001
 31
0
  0
LINE
  8
0
 62
7
 10
7.318249999999999
 20
2.960000000000001
 30
0
 11
7.318249999999999
 21
2.935000000000001
 31
0
  0
LINE
  8
0
 62
7
 10
7.318249999999999
 20
2.892500000000001
 30
0
 11
7.3205
 21
2.890000000000001
 31
0
  0
LINE
  8
0
 62
7
 10
7.3205
 20
2.890000000000001
 30
0
 11
7.322750000000001
 21
2.890000000000001
 31
0
  0
LINE
  8
0
 62
7
 10
7.318249999999999
 20
2.915000000000001
 30
0
 11
7.318249999999999
 21
2.892500000000001
 31
0
  0
LINE
  8
0
 62
7
 10
7.318249999999999
 20
2.935000000000001
 30
0
 11
7.318249999999999
 21
2.915000000000001
 31
0
  0
LINE
  8
0
 62
7
 10
7.34075
 20
2.890000000000001
 30
0
 11
7.34075
 21
2.892500000000001
 31
0
  0
LINE
  8
0
 62
7
 10
7.34075
 20
2.892500000000001
 30
0
 11
7.343000000000001
 21
2.892500000000001
 31
0
  0
LINE
  8
0
 62
7
 10
7.343000000000001
 20
2.892500000000001
 30
0
 11
7.343000000000001
 21
2.890000000000001
 31
0
  0
LINE
  8
0
 62
7
 10
7.343000000000001
 20
2.890000000000001
 30
0
 11
7.34075
 21
2.890000000000001
 31
0
  0
LINE
  8
0
 62
7
 10
7.466750000000001
 20
2.990000000000001
 30
0
 11
7.47575
 21
2.990000000000001
 31
0
  0
LINE
  8
0
 62
7
 10
7.47575
 20
2.990000000000001
 30
0
 11
7.482500000000001
 21
2.987500000000001
 31
0
  0
LINE
  8
0
 62
7
 10
7.482500000000001
 20
2.987500000000001
 30
0
 11
7.486999999999999
 21
2.982500000000001
 31
0
  0
LINE
  8
0
 62
7
 10
7.486999999999999
 20
2.982500000000001
 30
0
 11
7.491500000000001
 21
2.975000000000001
 31
0
  0
LINE
  8
0
 62
7
 10
7.491500000000001
 20
2.975000000000001
 30
0
 11
7.491500000000001
 21
2.965000000000001
 31
0
  0
LINE
  8
0
 62
7
 10
7.491500000000001
 20
2.965000000000001
 30
0
 11
7.48925
 21
2.960000000000001
 31
0
  0
LINE
  8
0
 62
7
 10
7.48925
 20
2.960000000000001
 30
0
 11
7.482500000000001
 21
2.952500000000001
 31
0
  0
LINE
  8
0
 62
7
 10
7.482500000000001
 20
2.952500000000001
 30
0
 11
7.47575
 21
2.950000000000001
 31
0
  0
LINE
  8
0
 62
7
 10
7.47575
 20
2.950000000000001
 30
0
 11
7.466750000000001
 21
2.950000000000001
 31
0
  0
LINE
  8
0
 62
7
 10
7.466750000000001
 20
2.950000000000001
 30
0
 11
7.460000000000001
 21
2.952500000000001
 31
0
  0
LINE
  8
0
 62
7
 10
7.460000000000001
 20
2.952500000000001
 30
0
 11
7.453250000000001
 21
2.960000000000001
 31
0
  0
LINE
  8
0
 62
7
 10
7.453250000000001
 20
2.960000000000001
 30
0
 11
7.451
 21
2.965000000000001
 31
0
  0
LINE
  8
0
 62
7
 10
7.451
 20
2.965000000000001
 30
0
 11
7.451
 21
2.975000000000001
 31
0
  0
LINE
  8
0
 62
7
 10
7.451
 20
2.975000000000001
 30
0
 11
7.455500000000001
 21
2.982500000000001
 31
0
  0
LINE
  8
0
 62
7
 10
7.455500000000001
 20
2.982500000000001
 30
0
 11
7.460000000000001
 21
2.987500000000001
 31
0
  0
LINE
  8
0
 62
7
 10
7.460000000000001
 20
2.987500000000001
 30
0
 11
7.466750000000001
 21
2.990000000000001
 31
0
  0
LINE
  8
0
 62
7
 10
7.466750000000001
 20
2.950000000000001
 30
0
 11
7.455500000000001
 21
2.945000000000001
 31
0
  0
LINE
  8
0
 62
7
 10
7.455500000000001
 20
2.945000000000001
 30
0
 11
7.44875
 21
2.937500000000001
 31
0
  0
LINE
  8
0
 62
7
 10
7.44875
 20
2.937500000000001
 30
0
 11
7.44425
 21
2.927500000000001
 31
0
  0
LINE
  8
0
 62
7
 10
7.44425
 20
2.927500000000001
 30
0
 11
7.44425
 21
2.912500000000001
 31
0
  0
LINE
  8
0
 62
7
 10
7.44425
 20
2.912500000000001
 30
0
 11
7.44875
 21
2.902500000000001
 31
0
  0
LINE
  8
0
 62
7
 10
7.44875
 20
2.902500000000001
 30
0
 11
7.455500000000001
 21
2.895000000000001
 31
0
  0
LINE
  8
0
 62
7
 10
7.455500000000001
 20
2.895000000000001
 30
0
 11
7.4645
 21
2.890000000000001
 31
0
  0
LINE
  8
0
 62
7
 10
7.4645
 20
2.890000000000001
 30
0
 11
7.478000000000001
 21
2.890000000000001
 31
0
  0
LINE
  8
0
 62
7
 10
7.478000000000001
 20
2.890000000000001
 30
0
 11
7.486999999999999
 21
2.895000000000001
 31
0
  0
LINE
  8
0
 62
7
 10
7.486999999999999
 20
2.895000000000001
 30
0
 11
7.49375
 21
2.902500000000001
 31
0
  0
LINE
  8
0
 62
7
 10
7.49375
 20
2.902500000000001
 30
0
 11
7.498249999999999
 21
2.912500000000001
 31
0
  0
LINE
  8
0
 62
7
 10
7.498249999999999
 20
2.912500000000001
 30
0
 11
7.498249999999999
 21
2.927500000000001
 31
0
  0
LINE
  8
0
 62
7
 10
7.498249999999999
 20
2.927500000000001
 30
0
 11
7.49375
 21
2.937500000000001
 31
0
  0
LINE
  8
0
 62
7
 10
7.49375
 20
2.937500000000001
 30
0
 11
7.486999999999999
 21
2.945000000000001
 31
0
  0
LINE
  8
0
 62
7
 10
7.486999999999999
 20
2.945000000000001
 30
0
 11
7.47575
 21
2.950000000000001
 31
0
  0
LINE
  8
0
 62
7
 10
7.583750000000001
 20
2.990000000000001
 30
0
 11
7.53425
 21
2.990000000000001
 31
0
  0
LINE
  8
0
 62
7
 10
7.53425
 20
2.990000000000001
 30
0
 11
7.53425
 21
2.940000000000001
 31
0
  0
LINE
  8
0
 62
7
 10
7.53425
 20
2.940000000000001
 30
0
 11
7.53875
 21
2.947500000000001
 31
0
  0
LINE
  8
0
 62
7
 10
7.53875
 20
2.947500000000001
 30
0
 11
7.545500000000001
 21
2.952500000000001
 31
0
  0
LINE
  8
0
 62
7
 10
7.545500000000001
 20
2.952500000000001
 30
0
 11
7.554499999999999
 21
2.955000000000001
 31
0
  0
LINE
  8
0
 62
7
 10
7.554499999999999
 20
2.955000000000001
 30
0
 11
7.568000000000001
 21
2.955000000000001
 31
0
  0
LINE
  8
0
 62
7
 10
7.568000000000001
 20
2.955000000000001
 30
0
 11
7.574749999999999
 21
2.952500000000001
 31
0
  0
LINE
  8
0
 62
7
 10
7.574749999999999
 20
2.952500000000001
 30
0
 11
7.5815
 21
2.947500000000001
 31
0
  0
LINE
  8
0
 62
7
 10
7.5815
 20
2.947500000000001
 30
0
 11
7.586
 21
2.940000000000001
 31
0
  0
LINE
  8
0
 62
7
 10
7.586
 20
2.940000000000001
 30
0
 11
7.588249999999999
 21
2.930000000000001
 31
0
  0
LINE
  8
0
 62
7
 10
7.588249999999999
 20
2.930000000000001
 30
0
 11
7.588249999999999
 21
2.915000000000001
 31
0
  0
LINE
  8
0
 62
7
 10
7.588249999999999
 20
2.915000000000001
 30
0
 11
7.586
 21
2.905000000000001
 31
0
  0
LINE
  8
0
 62
7
 10
7.586
 20
2.905000000000001
 30
0
 11
7.5815
 21
2.897500000000001
 31
0
  0
LINE
  8
0
 62
7
 10
7.5815
 20
2.897500000000001
 30
0
 11
7.574749999999999
 21
2.892500000000001
 31
0
  0
LINE
  8
0
 62
7
 10
7.574749999999999
 20
2.892500000000001
 30
0
 11
7.568000000000001
 21
2.890000000000001
 31
0
  0
LINE
  8
0
 62
7
 10
7.568000000000001
 20
2.890000000000001
 30
0
 11
7.554499999999999
 21
2.890000000000001
 31
0
  0
LINE
  8
0
 62
7
 10
7.554499999999999
 20
2.890000000000001
 30
0
 11
7.545500000000001
 21
2.892500000000001
 31
0
  0
LINE
  8
0
 62
7
 10
7.545500000000001
 20
2.892500000000001
 30
0
 11
7.53875
 21
2.897500000000001
 31
0
  0
LINE
  8
0
 62
7
 10
7.53875
 20
2.897500000000001
 30
0
 11
7.53425
 21
2.905000000000001
 31
0
  0
LINE
  8
0
 62
7
 10
7.739000000000001
 20
2.942500000000001
 30
0
 11
7.73225
 21
2.952500000000001
 31
0
  0
LINE
  8
0
 62
7
 10
7.73225
 20
2.952500000000001
 30
0
 11
7.7255
 21
2.957500000000001
 31
0
  0
LINE
  8
0
 62
7
 10
7.7255
 20
2.957500000000001
 30
0
 11
7.71875
 21
2.960000000000001
 31
0
  0
LINE
  8
0
 62
7
 10
7.71875
 20
2.960000000000001
 30
0
 11
7.70975
 21
2.960000000000001
 31
0
  0
LINE
  8
0
 62
7
 10
7.70975
 20
2.960000000000001
 30
0
 11
7.703
 21
2.957500000000001
 31
0
  0
LINE
  8
0
 62
7
 10
7.703
 20
2.957500000000001
 30
0
 11
7.696250000000001
 21
2.952500000000001
 31
0
  0
LINE
  8
0
 62
7
 10
7.696250000000001
 20
2.952500000000001
 30
0
 11
7.6895
 21
2.942500000000001
 31
0
  0
LINE
  8
0
 62
7
 10
7.6895
 20
2.942500000000001
 30
0
 11
7.687249999999999
 21
2.935000000000001
 31
0
  0
LINE
  8
0
 62
7
 10
7.687249999999999
 20
2.935000000000001
 30
0
 11
7.687249999999999
 21
2.915000000000001
 31
0
  0
LINE
  8
0
 62
7
 10
7.687249999999999
 20
2.915000000000001
 30
0
 11
7.6895
 21
2.907500000000001
 31
0
  0
LINE
  8
0
 62
7
 10
7.6895
 20
2.907500000000001
 30
0
 11
7.696250000000001
 21
2.897500000000001
 31
0
  0
LINE
  8
0
 62
7
 10
7.696250000000001
 20
2.897500000000001
 30
0
 11
7.703
 21
2.892500000000001
 31
0
  0
LINE
  8
0
 62
7
 10
7.703
 20
2.892500000000001
 30
0
 11
7.70975
 21
2.890000000000001
 31
0
  0
LINE
  8
0
 62
7
 10
7.70975
 20
2.890000000000001
 30
0
 11
7.71875
 21
2.890000000000001
 31
0
  0
LINE
  8
0
 62
7
 10
7.71875
 20
2.890000000000001
 30
0
 11
7.7255
 21
2.892500000000001
 31
0
  0
LINE
  8
0
 62
7
 10
7.7255
 20
2.892500000000001
 30
0
 11
7.73225
 21
2.897500000000001
 31
0
  0
LINE
  8
0
 62
7
 10
7.73225
 20
2.897500000000001
 30
0
 11
7.739000000000001
 21
2.907500000000001
 31
0
  0
LINE
  8
0
 62
7
 10
7.797500000000001
 20
2.935000000000001
 30
0
 11
7.797500000000001
 21
2.890000000000001
 31
0
  0
LINE
  8
0
 62
7
 10
7.757
 20
2.960000000000001
 30
0
 11
7.757
 21
2.935000000000001
 31
0
  0
LINE
  8
0
 62
7
 10
7.757
 20
2.890000000000001
 30
0
 11
7.757
 21
2.935000000000001
 31
0
  0
LINE
  8
0
 62
7
 10
7.757
 20
2.935000000000001
 30
0
 11
7.759250000000001
 21
2.947500000000001
 31
0
  0
LINE
  8
0
 62
7
 10
7.759250000000001
 20
2.947500000000001
 30
0
 11
7.7615
 21
2.952500000000001
 31
0
  0
LINE
  8
0
 62
7
 10
7.7615
 20
2.952500000000001
 30
0
 11
7.766
 21
2.957500000000001
 31
0
  0
LINE
  8
0
 62
7
 10
7.766
 20
2.957500000000001
 30
0
 11
7.772750000000001
 21
2.960000000000001
 31
0
  0
LINE
  8
0
 62
7
 10
7.772750000000001
 20
2.960000000000001
 30
0
 11
7.78175
 21
2.960000000000001
 31
0
  0
LINE
  8
0
 62
7
 10
7.78175
 20
2.960000000000001
 30
0
 11
7.788499999999999
 21
2.957500000000001
 31
0
  0
LINE
  8
0
 62
7
 10
7.788499999999999
 20
2.957500000000001
 30
0
 11
7.793000000000001
 21
2.952500000000001
 31
0
  0
LINE
  8
0
 62
7
 10
7.793000000000001
 20
2.952500000000001
 30
0
 11
7.79525
 21
2.947500000000001
 31
0
  0
LINE
  8
0
 62
7
 10
7.79525
 20
2.947500000000001
 30
0
 11
7.797500000000001
 21
2.935000000000001
 31
0
  0
LINE
  8
0
 62
7
 10
7.797500000000001
 20
2.935000000000001
 30
0
 11
7.79975
 21
2.947500000000001
 31
0
  0
LINE
  8
0
 62
7
 10
7.79975
 20
2.947500000000001
 30
0
 11
7.802
 21
2.952500000000001
 31
0
  0
LINE
  8
0
 62
7
 10
7.802
 20
2.952500000000001
 30
0
 11
7.8065
 21
2.957500000000001
 31
0
  0
LINE
  8
0
 62
7
 10
7.8065
 20
2.957500000000001
 30
0
 11
7.81325
 21
2.960000000000001
 31
0
  0
LINE
  8
0
 62
7
 10
7.81325
 20
2.960000000000001
 30
0
 11
7.82225
 21
2.960000000000001
 31
0
  0
LINE
  8
0
 62
7
 10
7.82225
 20
2.960000000000001
 30
0
 11
7.829000000000001
 21
2.957500000000001
 31
0
  0
LINE
  8
0
 62
7
 10
7.8335
 20
2.952500000000001
 30
0
 11
7.829000000000001
 21
2.957500000000001
 31
0
  0
LINE
  8
0
 62
7
 10
7.829000000000001
 20
2.957500000000001
 30
0
 11
7.8335
 21
2.952500000000001
 31
0
  0
LINE
  8
0
 62
7
 10
7.8335
 20
2.952500000000001
 30
0
 11
7.835749999999999
 21
2.947500000000001
 31
0
  0
LINE
  8
0
 62
7
 10
7.835749999999999
 20
2.947500000000001
 30
0
 11
7.838
 21
2.935000000000001
 31
0
  0
LINE
  8
0
 62
7
 10
7.838
 20
2.935000000000001
 30
0
 11
7.838
 21
2.890000000000001
 31
0
  0
ARC
  8
0
 62
7
 10
6.46023767592045
 20
3.83523767592046
 30
0
 40
0.4859999999999997
 50
359.9719797773529
 51
90.02802022388516
  0
ARC
  8
0
 62
7
 10
6.004762324079568
 20
3.83523767592045
 30
0
 40
0.4860000000000002
 50
89.97197977735512
 51
180.028020218245
  0
CIRCLE
  8
0
 62
7
 10
5.518762382196678
 20
3.250000000000001
 30
0
 40
0.05999999999999961
  0
DIMENSION
  8
0
  6
CONTINUOUS
 62
7
  2
*D1
  3
DMST_1
 10
7.425
 20
11.5569973733889
 30
0
 11
6.266762984017451
 21
11.5569973733889
 31
0
 12
0
 22
0
 32
0
 70
0
 13
5.039999999999999
 23
11.2
 33
0
 14
7.424999999999999
 24
11.2
 34
0
 53
0
  0
DIMENSION
  8
0
  6
CONTINUOUS
 62
7
  2
*D2
  3
DMST_2
 10
4.52199818386985
 20
3.250000000000001
 30
0
 11
4.52199818386985
 21
4.00092934125361
 31
0
 12
0
 22
0
 32
0
 70
0
 13
4.864999999999998
 23
4.800000000000001
 33
0
 14
4.864999999999998
 24
3.250000000000001
 34
0
 50
90
 53
0
  0
DIMENSION
  8
0
  6
CONTINUOUS
 62
7
  2
*D3
  3
DMST_2
 10
7.424999999999999
 20
5.70447922486229
 30
0
 11
6.253024678504481
 21
5.70447922486229
 31
0
 12
0
 22
0
 32
0
 70
0
 13
5.039999999999999
 23
5.319999999999999
 33
0
 14
7.424999999999999
 24
5.319999999999999
 34
0
 53
0
  0
DIMENSION
  8
0
  6
CONTINUOUS
 62
7
  2
*D4
  3
DMST_2
 10
8.011527784165052
 20
4.800000000000001
 30
0
 11
8.011527784165052
 21
4.097097479844421
 31
0
 12
0
 22
0
 32
0
 70
0
 13
7.599999999999999
 23
3.350000000000001
 33
0
 14
7.599999999999999
 24
4.800000000000001
 34
0
 50
90
 53
0
  0
INSERT
  8
0
  2
*D0
 10
0
 20
0
 30
0
  0
ENDSEC
  0
EOF
