  0
SECTION
  2
HEADER
  9
$ACADVER
  1
AC1009
  9
$INSBASE
 10
0
 20
0
  9
$EXTMIN
 10
0.557513061375146
 20
2.890000000000003
  9
$EXTMAX
 10
8.249999999999998
 20
11.5543192301141
  9
$LIMMIN
 10
0.557513061375146
 20
2.890000000000003
  9
$LIMMAX
 10
8.249999999999998
 20
11.5543192301141
  9
$VIEWCTR
 10
10
 20
10
  9
$VIEWSIZE
 40
10
  9
$SNAPMODE
 70
0
  9
$SNAPUNIT
 10
1
 20
1
  9
$SNAPBASE
 10
0
 20
0
  9
$SNAPANG
 50
0
  9
$SNAPSTYLE
 70
0
  9
$SNAPISOPAIR
 70
0
  9
$GRIDMODE
 70
0
  9
$GRIDUNIT
 10
0
 20
0
  9
$ORTHOMODE
 70
0
  9
$REGENMODE
 70
1
  9
$FILLMODE
 70
1
  9
$QTEXTMODE
 70
0
  9
$DRAGMODE
 70
2
  9
$LTSCALE
 40
1
  9
$OSMODE
 70
0
  9
$ATTMODE
 70
1
  9
$TEXTSIZE
 40
3.5
  9
$TRACEWID
 40
0.5
  9
$TEXTSTYLE
  7
STANDARD
  9
$CLAYER
  8
0
  9
$CELTYPE
  6
BYLAYER
  9
$CECOLOR
 62
256
  9
$DIMSCALE
 40
1
  9
$DIMASZ
 40
0.18
  9
$DIMEXO
 40
0.0625
  9
$DIMDLI
 40
0.38
  9
$DIMRND
 40
0
  9
$DIMDLE
 40
0
  9
$DIMEXE
 40
0.18
  9
$DIMTP
 40
0
  9
$DIMTM
 40
0
  9
$DIMTXT
 40
0.18
  9
$DIMCEN
 40
0.09
  9
$DIMTSZ
 40
0
  9
$DIMTOL
 70
0
  9
$DIMLIM
 70
0
  9
$DIMTIH
 70
1
  9
$DIMTOH
 70
1
  9
$DIMSE1
 70
0
  9
$DIMSE2
 70
0
  9
$DIMTAD
 70
0
  9
$DIMZIN
 70
0
  9
$DIMBLK
  1

  9
$DIMASO
 70
1
  9
$DIMSHO
 70
1
  9
$DIMPOST
  1

  9
$DIMAPOST
  1

  9
$DIMALT
 70
0
  9
$DIMALTD
 70
2
  9
$DIMALTF
 40
25.4
  9
$DIMLFAC
 40
1
  9
$DIMTOFL
 70
0
  9
$DIMTVP
 40
0
  9
$DIMTIX
 70
0
  9
$DIMSOXD
 70
0
  9
$DIMSAH
 70
0
  9
$DIMBLK1
  1

  9
$DIMBLK2
  1

  9
$DIMSTYLE
  2
*UNNAMED
  9
$DIMCLRD
 70
0
  9
$DIMCLRE
 70
0
  9
$DIMCLRT
 70
0
  9
$DIMTFAC
 40
1
  9
$DIMGAP
 40
0.09
  9
$LUNITS
 70
2
  9
$LUPREC
 70
4
  9
$AXISMODE
 70
0
  9
$AXISUNIT
 10
0
 20
0
  9
$SKETCHINC
 40
0.1
  9
$FILLETRAD
 40
2
  9
$AUNITS
 70
0
  9
$AUPREC
 70
0
  9
$MENU
  1
ACAD
  9
$ELEVATION
 40
0
  9
$THICKNESS
 40
0
  9
$VIEWDIR
 10
0
 20
0
 30
1
  9
$LIMCHECK
 70
0
  9
$BLIPMODE
 70
1
  9
$CHAMFERA
 40
0
  9
$CHAMFERB
 40
0
  9
$FASTZOOM
 70
1
  9
$SKPOLY
 70
0
  9
$ANGBASE
 50
0
  9
$ANGDIR
 70
0
  9
$PDMODE
 70
0
  9
$PDSIZE
 40
0
  9
$PLINEWID
 40
0
  9
$COORDS
 70
2
  0
ENDSEC
  0
SECTION
  2
TABLES
  0
TABLE
  2
DIMSTYLE
 70
2
  0
DIMSTYLE
  2
DMST_1
 70
0
  3

  4

  5

  6

  7

 40
1
 41
0.1
 42
0
 43
0.7
 44
0.2
 45
0
 46
0
 47
0
 48
0
140
0.1
141
0
142
0.1
143
25.4
144
1
145
0
146
1
147
0.2
 71
0
 72
0
 73
0
 74
0
 75
0
 76
0
 77
0
 78
9
170
0
171
2
172
0
173
0
174
0
175
0
176
7
177
7
178
7
  0
DIMSTYLE
  2
DMST_2
 70
0
  3

  4

  5

  6

  7

 40
1
 41
0.1
 42
0
 43
0.7
 44
0.2
 45
0
 46
0
 47
0
 48
0
140
0.1
141
0
142
0.1
143
25.4
144
1
145
0
146
1
147
0.25
 71
0
 72
0
 73
0
 74
0
 75
0
 76
0
 77
0
 78
9
170
0
171
2
172
0
173
0
174
0
175
0
176
7
177
7
178
7
  0
ENDTAB
  0
TABLE
  2
LTYPE
 70
9
  0
LTYPE
  2
CONTINUOUS
 70
64
  3
Solid line
 72
65
 73
0
 40
0
  0
LTYPE
  2
BORDER
 70
64
  3
__ __ . __ __ .
 72
65
 73
6
 40
0.3990147013868334
 49
0.1140042003962381
 49
-0.05700210019811906
 49
0.1140042003962381
 49
-0.05700210019811906
 49
0
 49
-0.05700210019811906
  0
LTYPE
  2
CENTER
 70
64
  3
____ _ ____ _
 72
65
 73
4
 40
0.4560168015849525
 49
0.2850105009905953
 49
-0.05700210019811906
 49
0.05700210019811906
 49
-0.05700210019811906
  0
LTYPE
  2
DASHDOT
 70
64
  3
__ . __ . __ .
 72
65
 73
4
 40
0.2280084007924763
 49
0.1140042003962381
 49
-0.05700210019811906
 49
0
 49
-0.05700210019811906
  0
LTYPE
  2
DASHED
 70
64
  3
__ __ __ __ __
 72
65
 73
2
 40
0.1710063005943572
 49
0.1140042003962381
 49
-0.05700210019811906
  0
LTYPE
  2
DIVIDE
 70
64
  3
__ . . __ . . 
 72
65
 73
6
 40
0.2850105009905953
 49
0.1140042003962381
 49
-0.05700210019811906
 49
0
 49
-0.05700210019811906
 49
0
 49
-0.05700210019811906
  0
LTYPE
  2
DOT
 70
64
  3
..............
 72
65
 73
4
 40
0.1140042003962381
 49
0
 49
-0.05700210019811906
 49
0
 49
-0.05700210019811906
  0
LTYPE
  2
HIDDEN
 70
64
  3
_ _ _ _ _ _ _
 72
65
 73
2
 40
0.08550315029717859
 49
0.05700210019811906
 49
-0.02850105009905953
  0
LTYPE
  2
PHANTOM
 70
64
  3
_____ _ _ _____ _ _ 
 72
65
 73
6
 40
0.5700210019811907
 49
0.2850105009905953
 49
-0.05700210019811906
 49
0.05700210019811906
 49
-0.05700210019811906
 49
0.05700210019811906
 49
-0.05700210019811906
  0
ENDTAB
  0
TABLE
  2
LAYER
 70
2
  0
LAYER
  2
0
 70
0
 62
7
  6
CONTINUOUS
  0
ENDTAB
  0
TABLE
  2
STYLE
 70
4
  0
STYLE
  2
STANDARD
 70
0
 40
0
 41
1
 50
0
 71
0
 42
3.5
  3
txt
  4

  0
STYLE
  2
SIMPLEX
 70
0
 40
0
 41
1
 50
0
 71
0
 42
3.5
  3
simplex
  4

  0
STYLE
  2
COMPLEX
 70
0
 40
0
 41
1
 50
0
 71
0
 42
3.5
  3
complex
  4

  0
STYLE
  2
ITALIC
 70
0
 40
0
 41
1
 50
0
 71
0
 42
3.5
  3
italic
  4

  0
ENDTAB
  0
TABLE
  2
VIEW
 70
0
  0
ENDTAB
  0
ENDSEC
  0
SECTION
  2
BLOCKS
  0
BLOCK
  8
0
  2
*X0
 70
1
 10
0
 20
0
 30
0
  0
LINE
  8
0
 62
7
 10
1.099999999999998
 20
7.994291116568836
 30
0
 11
1.205708883431158
 21
8.099999999999996
 31
0
  0
LINE
  8
0
 62
7
 10
1.267840917787122
 20
7.949999999999996
 30
0
 11
1.274999999999998
 21
7.95715908221287
 31
0
  0
LINE
  8
0
 62
7
 10
1.16177490060914
 20
7.949999999999996
 30
0
 11
1.274999999999998
 21
8.063225099390852
 31
0
  0
ENDBLK
  8
0
  0
BLOCK
  8
0
  2
*X1
 70
1
 10
0
 20
0
 30
0
  0
LINE
  8
0
 62
7
 10
1.099999999999998
 20
10.75200756319636
 30
0
 11
1.197992436803626
 21
10.85
 31
0
  0
LINE
  8
0
 62
7
 10
1.099999999999998
 20
10.5398755288404
 30
0
 11
1.274999999999999
 21
10.7148755288404
 31
0
  0
LINE
  8
0
 62
7
 10
1.099999999999998
 20
10.32774349448444
 30
0
 11
1.274999999999999
 21
10.50274349448444
 31
0
  0
LINE
  8
0
 62
7
 10
1.099999999999998
 20
10.11561146012847
 30
0
 11
1.274999999999999
 21
10.29061146012847
 31
0
  0
LINE
  8
0
 62
7
 10
1.099999999999998
 20
9.90347942577251
 30
0
 11
1.274999999999999
 21
10.07847942577251
 31
0
  0
LINE
  8
0
 62
7
 10
1.099999999999998
 20
9.691347391416546
 30
0
 11
1.274999999999999
 21
9.866347391416546
 31
0
  0
LINE
  8
0
 62
7
 10
1.099999999999998
 20
9.479215357060582
 30
0
 11
1.274999999999999
 21
9.654215357060583
 31
0
  0
LINE
  8
0
 62
7
 10
1.099999999999998
 20
9.267083322704618
 30
0
 11
1.274999999999999
 21
9.442083322704619
 31
0
  0
LINE
  8
0
 62
7
 10
1.099999999999998
 20
9.054951288348654
 30
0
 11
1.274999999999999
 21
9.229951288348655
 31
0
  0
LINE
  8
0
 62
7
 10
1.099999999999998
 20
8.84281925399269
 30
0
 11
1.274999999999999
 21
9.017819253992691
 31
0
  0
LINE
  8
0
 62
7
 10
1.099999999999998
 20
8.630687219636727
 30
0
 11
1.274999999999999
 21
8.805687219636727
 31
0
  0
LINE
  8
0
 62
7
 10
1.099999999999998
 20
8.418555185280763
 30
0
 11
1.274999999999999
 21
8.593555185280763
 31
0
  0
LINE
  8
0
 62
7
 10
1.193576849075197
 20
8.299999999999997
 30
0
 11
1.274999999999999
 21
8.3814231509248
 31
0
  0
LINE
  8
0
 62
7
 10
1.099999999999998
 20
10.64594154601838
 30
0
 11
1.274999999999998
 21
10.82094154601838
 31
0
  0
LINE
  8
0
 62
7
 10
1.099999999999998
 20
10.43380951166242
 30
0
 11
1.274999999999998
 21
10.60880951166242
 31
0
  0
LINE
  8
0
 62
7
 10
1.099999999999998
 20
10.22167747730646
 30
0
 11
1.274999999999998
 21
10.39667747730645
 31
0
  0
LINE
  8
0
 62
7
 10
1.099999999999998
 20
10.00954544295049
 30
0
 11
1.274999999999998
 21
10.18454544295049
 31
0
  0
LINE
  8
0
 62
7
 10
1.099999999999998
 20
9.797413408594528
 30
0
 11
1.274999999999998
 21
9.972413408594527
 31
0
  0
LINE
  8
0
 62
7
 10
1.099999999999998
 20
9.585281374238564
 30
0
 11
1.274999999999998
 21
9.760281374238563
 31
0
  0
LINE
  8
0
 62
7
 10
1.099999999999998
 20
9.3731493398826
 30
0
 11
1.274999999999998
 21
9.548149339882599
 31
0
  0
LINE
  8
0
 62
7
 10
1.099999999999998
 20
9.161017305526636
 30
0
 11
1.274999999999998
 21
9.336017305526635
 31
0
  0
LINE
  8
0
 62
7
 10
1.099999999999998
 20
8.948885271170672
 30
0
 11
1.274999999999998
 21
9.123885271170671
 31
0
  0
LINE
  8
0
 62
7
 10
1.099999999999998
 20
8.736753236814709
 30
0
 11
1.274999999999998
 21
8.911753236814707
 31
0
  0
LINE
  8
0
 62
7
 10
1.099999999999998
 20
8.524621202458745
 30
0
 11
1.274999999999998
 21
8.699621202458744
 31
0
  0
LINE
  8
0
 62
7
 10
1.099999999999998
 20
8.312489168102781
 30
0
 11
1.274999999999998
 21
8.48748916810278
 31
0
  0
ENDBLK
  8
0
  0
BLOCK
  8
0
  2
*X2
 70
1
 10
0
 20
0
 30
0
  0
LINE
  8
0
 62
7
 10
1.099999999999998
 20
11.1762716319083
 30
0
 11
1.123728368091698
 21
11.2
 31
0
  0
LINE
  8
0
 62
7
 10
1.185860402447664
 20
11.05
 30
0
 11
1.274999999999999
 21
11.13913959755233
 31
0
  0
LINE
  8
0
 62
7
 10
1.099999999999999
 20
11.07020561473032
 30
0
 11
1.229794385269681
 21
11.2
 31
0
  0
ENDBLK
  8
0
  0
BLOCK
  8
0
  2
*X3
 70
1
 10
0
 20
0
 30
0
  0
LINE
  8
0
 62
7
 10
3.813425330058695
 20
7.949999999999996
 30
0
 11
3.959999999999998
 21
8.096574669941299
 31
0
  0
LINE
  8
0
 62
7
 10
3.784999999999998
 20
8.027640687119282
 30
0
 11
3.857359312880712
 21
8.099999999999996
 31
0
  0
LINE
  8
0
 62
7
 10
3.919491347236677
 20
7.949999999999996
 30
0
 11
3.959999999999997
 21
7.990508652763317
 31
0
  0
ENDBLK
  8
0
  0
BLOCK
  8
0
  2
*X4
 70
1
 10
0
 20
0
 30
0
  0
LINE
  8
0
 62
7
 10
3.784999999999998
 20
10.67929111656883
 30
0
 11
3.955708883431164
 21
10.85
 31
0
  0
LINE
  8
0
 62
7
 10
3.784999999999998
 20
10.46715908221287
 30
0
 11
3.959999999999999
 21
10.64215908221287
 31
0
  0
LINE
  8
0
 62
7
 10
3.784999999999998
 20
10.2550270478569
 30
0
 11
3.959999999999999
 21
10.4300270478569
 31
0
  0
LINE
  8
0
 62
7
 10
3.784999999999998
 20
10.04289501350094
 30
0
 11
3.959999999999999
 21
10.21789501350094
 31
0
  0
LINE
  8
0
 62
7
 10
3.784999999999998
 20
9.830762979144975
 30
0
 11
3.959999999999999
 21
10.00576297914498
 31
0
  0
LINE
  8
0
 62
7
 10
3.784999999999998
 20
9.618630944789011
 30
0
 11
3.959999999999999
 21
9.793630944789012
 31
0
  0
LINE
  8
0
 62
7
 10
3.784999999999998
 20
9.406498910433047
 30
0
 11
3.959999999999999
 21
9.581498910433048
 31
0
  0
LINE
  8
0
 62
7
 10
3.784999999999998
 20
9.194366876077083
 30
0
 11
3.959999999999999
 21
9.369366876077084
 31
0
  0
LINE
  8
0
 62
7
 10
3.784999999999998
 20
8.98223484172112
 30
0
 11
3.959999999999999
 21
9.15723484172112
 31
0
  0
LINE
  8
0
 62
7
 10
3.784999999999998
 20
8.770102807365156
 30
0
 11
3.959999999999999
 21
8.945102807365156
 31
0
  0
LINE
  8
0
 62
7
 10
3.784999999999998
 20
8.557970773009192
 30
0
 11
3.959999999999999
 21
8.732970773009193
 31
0
  0
LINE
  8
0
 62
7
 10
3.784999999999998
 20
8.345838738653228
 30
0
 11
3.959999999999999
 21
8.520838738653229
 31
0
  0
LINE
  8
0
 62
7
 10
3.951293295702732
 20
8.299999999999997
 30
0
 11
3.959999999999999
 21
8.308706704297265
 31
0
  0
LINE
  8
0
 62
7
 10
3.784999999999997
 20
10.78535713374681
 30
0
 11
3.849642866253181
 21
10.85
 31
0
  0
LINE
  8
0
 62
7
 10
3.784999999999997
 20
10.57322509939085
 30
0
 11
3.96
 21
10.74822509939085
 31
0
  0
LINE
  8
0
 62
7
 10
3.784999999999997
 20
10.36109306503488
 30
0
 11
3.96
 21
10.53609306503489
 31
0
  0
LINE
  8
0
 62
7
 10
3.784999999999997
 20
10.14896103067892
 30
0
 11
3.96
 21
10.32396103067892
 31
0
  0
LINE
  8
0
 62
7
 10
3.784999999999997
 20
9.936828996322957
 30
0
 11
3.96
 21
10.11182899632296
 31
0
  0
LINE
  8
0
 62
7
 10
3.784999999999997
 20
9.724696961966993
 30
0
 11
3.96
 21
9.899696961966994
 31
0
  0
LINE
  8
0
 62
7
 10
3.784999999999997
 20
9.512564927611029
 30
0
 11
3.96
 21
9.68756492761103
 31
0
  0
LINE
  8
0
 62
7
 10
3.784999999999997
 20
9.300432893255065
 30
0
 11
3.96
 21
9.475432893255066
 31
0
  0
LINE
  8
0
 62
7
 10
3.784999999999997
 20
9.088300858899101
 30
0
 11
3.96
 21
9.263300858899102
 31
0
  0
LINE
  8
0
 62
7
 10
3.784999999999997
 20
8.876168824543138
 30
0
 11
3.96
 21
9.051168824543138
 31
0
  0
LINE
  8
0
 62
7
 10
3.784999999999997
 20
8.664036790187174
 30
0
 11
3.96
 21
8.839036790187174
 31
0
  0
LINE
  8
0
 62
7
 10
3.784999999999997
 20
8.45190475583121
 30
0
 11
3.96
 21
8.626904755831211
 31
0
  0
LINE
  8
0
 62
7
 10
3.84522727852475
 20
8.299999999999997
 30
0
 11
3.96
 21
8.414772721475247
 31
0
  0
ENDBLK
  8
0
  0
BLOCK
  8
0
  2
*X5
 70
1
 10
0
 20
0
 30
0
  0
LINE
  8
0
 62
7
 10
3.784999999999998
 20
11.10355518528076
 30
0
 11
3.881444814719234
 21
11.2
 31
0
  0
LINE
  8
0
 62
7
 10
3.943576849075201
 20
11.05
 30
0
 11
3.959999999999998
 21
11.0664231509248
 31
0
  0
LINE
  8
0
 62
7
 10
3.837510831897218
 20
11.05
 30
0
 11
3.959999999999998
 21
11.17248916810278
 31
0
  0
ENDBLK
  8
0
  0
BLOCK
  8
0
  2
*X6
 70
1
 10
0
 20
0
 30
0
  0
LINE
  8
0
 62
7
  6
DASHED
 10
0.949999999999998
 20
8.268555185280764
 30
0
 11
0.9814448147192318
 21
8.299999999999997
 31
0
  0
LINE
  8
0
 62
7
  6
DASHED
 10
0.9935768490751951
 20
8.099999999999996
 30
0
 11
1.193576849075196
 21
8.299999999999997
 31
0
  0
LINE
  8
0
 62
7
  6
DASHED
 10
1.205708883431159
 20
8.099999999999996
 30
0
 11
1.40570888343116
 21
8.299999999999997
 31
0
  0
LINE
  8
0
 62
7
  6
DASHED
 10
1.417840917787124
 20
8.099999999999996
 30
0
 11
1.617840917787125
 21
8.299999999999997
 31
0
  0
LINE
  8
0
 62
7
  6
DASHED
 10
1.629972952143088
 20
8.099999999999996
 30
0
 11
1.829972952143089
 21
8.299999999999997
 31
0
  0
LINE
  8
0
 62
7
  6
DASHED
 10
1.842104986499052
 20
8.099999999999996
 30
0
 11
2.042104986499053
 21
8.299999999999997
 31
0
  0
LINE
  8
0
 62
7
  6
DASHED
 10
2.054237020855016
 20
8.099999999999996
 30
0
 11
2.254237020855018
 21
8.299999999999997
 31
0
  0
LINE
  8
0
 62
7
  6
DASHED
 10
2.266369055210981
 20
8.099999999999996
 30
0
 11
2.466369055210982
 21
8.299999999999997
 31
0
  0
LINE
  8
0
 62
7
  6
DASHED
 10
2.478501089566945
 20
8.099999999999996
 30
0
 11
2.678501089566946
 21
8.299999999999997
 31
0
  0
LINE
  8
0
 62
7
  6
DASHED
 10
2.690633123922909
 20
8.099999999999996
 30
0
 11
2.89063312392291
 21
8.299999999999997
 31
0
  0
LINE
  8
0
 62
7
  6
DASHED
 10
2.902765158278874
 20
8.099999999999996
 30
0
 11
3.102765158278875
 21
8.299999999999997
 31
0
  0
LINE
  8
0
 62
7
  6
DASHED
 10
3.114897192634838
 20
8.099999999999996
 30
0
 11
3.314897192634839
 21
8.299999999999997
 31
0
  0
LINE
  8
0
 62
7
  6
DASHED
 10
3.327029226990802
 20
8.099999999999996
 30
0
 11
3.527029226990803
 21
8.299999999999997
 31
0
  0
LINE
  8
0
 62
7
  6
DASHED
 10
3.539161261346766
 20
8.099999999999996
 30
0
 11
3.739161261346768
 21
8.299999999999997
 31
0
  0
LINE
  8
0
 62
7
  6
DASHED
 10
3.751293295702731
 20
8.099999999999996
 30
0
 11
3.951293295702732
 21
8.299999999999997
 31
0
  0
LINE
  8
0
 62
7
  6
DASHED
 10
3.963425330058695
 20
8.099999999999996
 30
0
 11
4.109999999999999
 21
8.246574669941301
 31
0
  0
LINE
  8
0
 62
7
 10
0.949999999999998
 20
8.16248916810278
 30
0
 11
1.087510831897213
 21
8.299999999999997
 31
0
  0
LINE
  8
0
 62
7
 10
1.099642866253177
 20
8.099999999999996
 30
0
 11
1.299642866253178
 21
8.299999999999997
 31
0
  0
LINE
  8
0
 62
7
 10
1.311774900609141
 20
8.099999999999996
 30
0
 11
1.511774900609142
 21
8.299999999999997
 31
0
  0
LINE
  8
0
 62
7
 10
1.523906934965106
 20
8.099999999999996
 30
0
 11
1.723906934965106
 21
8.299999999999997
 31
0
  0
LINE
  8
0
 62
7
 10
1.73603896932107
 20
8.099999999999996
 30
0
 11
1.93603896932107
 21
8.299999999999997
 31
0
  0
LINE
  8
0
 62
7
 10
1.948171003677034
 20
8.099999999999996
 30
0
 11
2.148171003677035
 21
8.299999999999997
 31
0
  0
LINE
  8
0
 62
7
 10
2.160303038032998
 20
8.099999999999996
 30
0
 11
2.360303038032999
 21
8.299999999999997
 31
0
  0
LINE
  8
0
 62
7
 10
2.372435072388963
 20
8.099999999999996
 30
0
 11
2.572435072388963
 21
8.299999999999997
 31
0
  0
LINE
  8
0
 62
7
 10
2.584567106744927
 20
8.099999999999996
 30
0
 11
2.784567106744928
 21
8.299999999999997
 31
0
  0
LINE
  8
0
 62
7
 10
2.796699141100891
 20
8.099999999999996
 30
0
 11
2.996699141100892
 21
8.299999999999997
 31
0
  0
LINE
  8
0
 62
7
 10
3.008831175456856
 20
8.099999999999996
 30
0
 11
3.208831175456856
 21
8.299999999999997
 31
0
  0
LINE
  8
0
 62
7
 10
3.22096320981282
 20
8.099999999999996
 30
0
 11
3.42096320981282
 21
8.299999999999997
 31
0
  0
LINE
  8
0
 62
7
 10
3.433095244168784
 20
8.099999999999996
 30
0
 11
3.633095244168785
 21
8.299999999999997
 31
0
  0
LINE
  8
0
 62
7
 10
3.645227278524748
 20
8.099999999999996
 30
0
 11
3.845227278524749
 21
8.299999999999997
 31
0
  0
LINE
  8
0
 62
7
 10
3.857359312880713
 20
8.099999999999996
 30
0
 11
4.057359312880713
 21
8.299999999999997
 31
0
  0
LINE
  8
0
 62
7
 10
4.069491347236677
 20
8.099999999999996
 30
0
 11
4.109999999999999
 21
8.140508652763318
 31
0
  0
ENDBLK
  8
0
  0
BLOCK
  8
0
  2
*X7
 70
1
 10
0
 20
0
 30
0
  0
LINE
  8
0
 62
7
  6
DASHED
 10
0.9499999999999975
 20
11.0262716319083
 30
0
 11
0.9737283680917002
 21
11.05
 31
0
  0
LINE
  8
0
 62
7
  6
DASHED
 10
0.9858604024476643
 20
10.85
 30
0
 11
1.185860402447664
 21
11.05
 31
0
  0
LINE
  8
0
 62
7
  6
DASHED
 10
1.197992436803629
 20
10.85
 30
0
 11
1.397992436803629
 21
11.05
 31
0
  0
LINE
  8
0
 62
7
  6
DASHED
 10
1.410124471159593
 20
10.85
 30
0
 11
1.610124471159593
 21
11.05
 31
0
  0
LINE
  8
0
 62
7
  6
DASHED
 10
1.622256505515557
 20
10.85
 30
0
 11
1.822256505515557
 21
11.05
 31
0
  0
LINE
  8
0
 62
7
  6
DASHED
 10
1.834388539871521
 20
10.85
 30
0
 11
2.034388539871522
 21
11.05
 31
0
  0
LINE
  8
0
 62
7
  6
DASHED
 10
2.046520574227486
 20
10.85
 30
0
 11
2.246520574227486
 21
11.05
 31
0
  0
LINE
  8
0
 62
7
  6
DASHED
 10
2.25865260858345
 20
10.85
 30
0
 11
2.45865260858345
 21
11.05
 31
0
  0
LINE
  8
0
 62
7
  6
DASHED
 10
2.470784642939414
 20
10.85
 30
0
 11
2.670784642939414
 21
11.05
 31
0
  0
LINE
  8
0
 62
7
  6
DASHED
 10
2.682916677295379
 20
10.85
 30
0
 11
2.882916677295379
 21
11.05
 31
0
  0
LINE
  8
0
 62
7
  6
DASHED
 10
2.895048711651343
 20
10.85
 30
0
 11
3.095048711651343
 21
11.05
 31
0
  0
LINE
  8
0
 62
7
  6
DASHED
 10
3.107180746007307
 20
10.85
 30
0
 11
3.307180746007307
 21
11.05
 31
0
  0
LINE
  8
0
 62
7
  6
DASHED
 10
3.319312780363271
 20
10.85
 30
0
 11
3.519312780363272
 21
11.05
 31
0
  0
LINE
  8
0
 62
7
  6
DASHED
 10
3.531444814719236
 20
10.85
 30
0
 11
3.731444814719236
 21
11.05
 31
0
  0
LINE
  8
0
 62
7
  6
DASHED
 10
3.7435768490752
 20
10.85
 30
0
 11
3.9435768490752
 21
11.05
 31
0
  0
LINE
  8
0
 62
7
  6
DASHED
 10
3.955708883431164
 20
10.85
 30
0
 11
4.109999999999999
 21
11.00429111656883
 31
0
  0
LINE
  8
0
 62
7
 10
0.9499999999999975
 20
10.92020561473032
 30
0
 11
1.079794385269683
 21
11.05
 31
0
  0
LINE
  8
0
 62
7
 10
1.091926419625645
 20
10.85
 30
0
 11
1.291926419625648
 21
11.05
 31
0
  0
LINE
  8
0
 62
7
 10
1.30405845398161
 20
10.85
 30
0
 11
1.504058453981612
 21
11.05
 31
0
  0
LINE
  8
0
 62
7
 10
1.516190488337574
 20
10.85
 30
0
 11
1.716190488337576
 21
11.05
 31
0
  0
LINE
  8
0
 62
7
 10
1.728322522693538
 20
10.85
 30
0
 11
1.928322522693541
 21
11.05
 31
0
  0
LINE
  8
0
 62
7
 10
1.940454557049502
 20
10.85
 30
0
 11
2.140454557049505
 21
11.05
 31
0
  0
LINE
  8
0
 62
7
 10
2.152586591405467
 20
10.85
 30
0
 11
2.352586591405469
 21
11.05
 31
0
  0
LINE
  8
0
 62
7
 10
2.364718625761431
 20
10.85
 30
0
 11
2.564718625761433
 21
11.05
 31
0
  0
LINE
  8
0
 62
7
 10
2.576850660117395
 20
10.85
 30
0
 11
2.776850660117398
 21
11.05
 31
0
  0
LINE
  8
0
 62
7
 10
2.78898269447336
 20
10.85
 30
0
 11
2.988982694473362
 21
11.05
 31
0
  0
LINE
  8
0
 62
7
 10
3.001114728829324
 20
10.85
 30
0
 11
3.201114728829326
 21
11.05
 31
0
  0
LINE
  8
0
 62
7
 10
3.213246763185288
 20
10.85
 30
0
 11
3.413246763185291
 21
11.05
 31
0
  0
LINE
  8
0
 62
7
 10
3.425378797541252
 20
10.85
 30
0
 11
3.625378797541255
 21
11.05
 31
0
  0
LINE
  8
0
 62
7
 10
3.637510831897217
 20
10.85
 30
0
 11
3.837510831897219
 21
11.05
 31
0
  0
LINE
  8
0
 62
7
 10
3.849642866253181
 20
10.85
 30
0
 11
4.049642866253183
 21
11.05
 31
0
  0
LINE
  8
0
 62
7
 10
4.061774900609145
 20
10.85
 30
0
 11
4.109999999999999
 21
10.89822509939085
 31
0
  0
ENDBLK
  8
0
  0
BLOCK
  8
0
  2
*X8
 70
1
 10
0
 20
0
 30
0
  0
LINE
  8
0
 62
7
 10
7.959999999999998
 20
8.066066017177979
 30
0
 11
7.993933982822015
 21
8.099999999999996
 31
0
  0
LINE
  8
0
 62
7
 10
8.056066017177979
 20
7.949999999999997
 30
0
 11
8.199999999999998
 21
8.093933982822012
 31
0
  0
LINE
  8
0
 62
7
 10
7.959999999999997
 20
7.959999999999996
 30
0
 11
8.099999999999998
 21
8.099999999999996
 31
0
  0
LINE
  8
0
 62
7
 10
8.162132034355961
 20
7.949999999999996
 30
0
 11
8.199999999999998
 21
7.987867965644032
 31
0
  0
ENDBLK
  8
0
  0
BLOCK
  8
0
  2
*X9
 70
1
 10
0
 20
0
 30
0
  0
LINE
  8
0
 62
7
 10
7.959999999999997
 20
10.82378246380551
 30
0
 11
7.986217536194484
 21
10.85
 31
0
  0
LINE
  8
0
 62
7
 10
7.959999999999997
 20
10.61165042944955
 30
0
 11
8.198349570550448
 21
10.85
 31
0
  0
LINE
  8
0
 62
7
 10
7.959999999999997
 20
10.39951839509358
 30
0
 11
8.199999999999998
 21
10.63951839509358
 31
0
  0
LINE
  8
0
 62
7
 10
7.959999999999997
 20
10.18738636073762
 30
0
 11
8.199999999999998
 21
10.42738636073762
 31
0
  0
LINE
  8
0
 62
7
 10
7.959999999999997
 20
9.975254326381656
 30
0
 11
8.199999999999998
 21
10.21525432638166
 31
0
  0
LINE
  8
0
 62
7
 10
7.959999999999997
 20
9.763122292025692
 30
0
 11
8.199999999999998
 21
10.00312229202569
 31
0
  0
LINE
  8
0
 62
7
 10
7.959999999999997
 20
9.550990257669728
 30
0
 11
8.199999999999998
 21
9.790990257669728
 31
0
  0
LINE
  8
0
 62
7
 10
7.959999999999997
 20
9.338858223313764
 30
0
 11
8.199999999999998
 21
9.578858223313764
 31
0
  0
LINE
  8
0
 62
7
 10
7.959999999999997
 20
9.1267261889578
 30
0
 11
8.199999999999998
 21
9.3667261889578
 31
0
  0
LINE
  8
0
 62
7
 10
7.959999999999997
 20
8.914594154601836
 30
0
 11
8.199999999999998
 21
9.154594154601837
 31
0
  0
LINE
  8
0
 62
7
 10
7.959999999999997
 20
8.702462120245873
 30
0
 11
8.199999999999998
 21
8.942462120245873
 31
0
  0
LINE
  8
0
 62
7
 10
7.959999999999997
 20
8.490330085889909
 30
0
 11
8.199999999999998
 21
8.730330085889909
 31
0
  0
LINE
  8
0
 62
7
 10
7.98180194846605
 20
8.299999999999997
 30
0
 11
8.199999999999998
 21
8.518198051533945
 31
0
  0
LINE
  8
0
 62
7
 10
8.193933982822013
 20
8.299999999999997
 30
0
 11
8.199999999999998
 21
8.306066017177981
 31
0
  0
LINE
  8
0
 62
7
 10
7.959999999999997
 20
10.71771644662753
 30
0
 11
8.092283553372464
 21
10.85
 31
0
  0
LINE
  8
0
 62
7
 10
7.959999999999997
 20
10.50558441227156
 30
0
 11
8.199999999999998
 21
10.74558441227156
 31
0
  0
LINE
  8
0
 62
7
 10
7.959999999999997
 20
10.2934523779156
 30
0
 11
8.199999999999998
 21
10.5334523779156
 31
0
  0
LINE
  8
0
 62
7
 10
7.959999999999997
 20
10.08132034355964
 30
0
 11
8.199999999999998
 21
10.32132034355963
 31
0
  0
LINE
  8
0
 62
7
 10
7.959999999999997
 20
9.869188309203672
 30
0
 11
8.199999999999998
 21
10.10918830920367
 31
0
  0
LINE
  8
0
 62
7
 10
7.959999999999997
 20
9.657056274847708
 30
0
 11
8.199999999999998
 21
9.897056274847706
 31
0
  0
LINE
  8
0
 62
7
 10
7.959999999999997
 20
9.444924240491744
 30
0
 11
8.199999999999998
 21
9.684924240491743
 31
0
  0
LINE
  8
0
 62
7
 10
7.959999999999997
 20
9.23279220613578
 30
0
 11
8.199999999999998
 21
9.472792206135779
 31
0
  0
LINE
  8
0
 62
7
 10
7.959999999999997
 20
9.020660171779816
 30
0
 11
8.199999999999998
 21
9.260660171779815
 31
0
  0
LINE
  8
0
 62
7
 10
7.959999999999997
 20
8.808528137423853
 30
0
 11
8.199999999999998
 21
9.048528137423851
 31
0
  0
LINE
  8
0
 62
7
 10
7.959999999999997
 20
8.596396103067889
 30
0
 11
8.199999999999998
 21
8.836396103067887
 31
0
  0
LINE
  8
0
 62
7
 10
7.959999999999997
 20
8.384264068711925
 30
0
 11
8.199999999999998
 21
8.624264068711923
 31
0
  0
LINE
  8
0
 62
7
 10
8.087867965644033
 20
8.299999999999995
 30
0
 11
8.199999999999998
 21
8.41213203435596
 31
0
  0
ENDBLK
  8
0
  0
BLOCK
  8
0
  2
*X10
 70
1
 10
0
 20
0
 30
0
  0
LINE
  8
0
 62
7
 10
7.97408550183852
 20
11.05
 30
0
 11
8.12408550183852
 21
11.2
 31
0
  0
LINE
  8
0
 62
7
 10
8.186217536194484
 20
11.05
 30
0
 11
8.199999999999998
 21
11.06378246380551
 31
0
  0
LINE
  8
0
 62
7
 10
7.959999999999998
 20
11.14198051533946
 30
0
 11
8.018019484660535
 21
11.2
 31
0
  0
LINE
  8
0
 62
7
 10
8.0801515190165
 20
11.05
 30
0
 11
8.199999999999996
 21
11.16984848098349
 31
0
  0
ENDBLK
  8
0
  0
BLOCK
  8
0
  2
*X11
 70
1
 10
0
 20
0
 30
0
  0
LINE
  8
0
 62
7
  6
DASHED
 10
6.31
 20
8.113122292025693
 30
0
 11
6.496877707974303
 21
8.299999999999997
 31
0
  0
LINE
  8
0
 62
7
  6
DASHED
 10
6.509009742330265
 20
8.099999999999996
 30
0
 11
6.609999999999999
 21
8.200990257669728
 31
0
  0
LINE
  8
0
 62
7
 10
6.309999999999999
 20
8.219188309203677
 30
0
 11
6.390811690796321
 21
8.299999999999997
 31
0
  0
LINE
  8
0
 62
7
 10
6.402943725152282
 20
8.099999999999994
 30
0
 11
6.602943725152285
 21
8.299999999999997
 31
0
  0
ENDBLK
  8
0
  0
BLOCK
  8
0
  2
*X12
 70
1
 10
0
 20
0
 30
0
  0
LINE
  8
0
 62
7
  6
DASHED
 10
6.309999999999999
 20
10.87083873865323
 30
0
 11
6.489161261346771
 21
11.05
 31
0
  0
LINE
  8
0
 62
7
  6
DASHED
 10
6.501293295702734
 20
10.85
 30
0
 11
6.609999999999999
 21
10.95870670429727
 31
0
  0
LINE
  8
0
 62
7
 10
6.309999999999999
 20
10.97690475583121
 30
0
 11
6.383095244168789
 21
11.05
 31
0
  0
LINE
  8
0
 62
7
 10
6.395227278524754
 20
10.85
 30
0
 11
6.595227278524753
 21
11.05
 31
0
  0
LINE
  8
0
 62
7
 10
6.607359312880718
 20
10.85
 30
0
 11
6.609999999999998
 21
10.85264068711928
 31
0
  0
ENDBLK
  8
0
  0
BLOCK
  8
0
  2
*X13
 70
1
 10
0
 20
0
 30
0
  0
LINE
  8
0
 62
7
  6
DASHED
 10
7.959999999999997
 20
11.03591449816148
 30
0
 11
7.97408550183852
 21
11.05
 31
0
  0
LINE
  8
0
 62
7
  6
DASHED
 10
7.986217536194484
 20
10.85
 30
0
 11
8.186217536194484
 21
11.05
 31
0
  0
LINE
  8
0
 62
7
  6
DASHED
 10
8.198349570550448
 20
10.85
 30
0
 11
8.199999999999996
 21
10.85165042944955
 31
0
  0
LINE
  8
0
 62
7
 10
7.959999999999996
 20
10.9298484809835
 30
0
 11
8.0801515190165
 21
11.05
 31
0
  0
LINE
  8
0
 62
7
 10
8.092283553372464
 20
10.85
 30
0
 11
8.199999999999996
 21
10.95771644662753
 31
0
  0
ENDBLK
  8
0
  0
BLOCK
  8
0
  2
*X14
 70
1
 10
0
 20
0
 30
0
  0
LINE
  8
0
 62
7
  6
DASHED
 10
7.959999999999998
 20
8.278198051533943
 30
0
 11
7.98180194846605
 21
8.299999999999997
 31
0
  0
LINE
  8
0
 62
7
  6
DASHED
 10
7.993933982822015
 20
8.099999999999996
 30
0
 11
8.193933982822013
 21
8.299999999999997
 31
0
  0
LINE
  8
0
 62
7
 10
7.959999999999996
 20
8.172132034355959
 30
0
 11
8.087867965644033
 21
8.299999999999995
 31
0
  0
LINE
  8
0
 62
7
 10
8.099999999999998
 20
8.099999999999996
 30
0
 11
8.199999999999998
 21
8.199999999999996
 31
0
  0
ENDBLK
  8
0
  0
BLOCK
  8
0
  2
*X15
 70
1
 10
0
 20
0
 30
0
  0
LINE
  8
0
 62
7
 10
1.099999999999998
 20
5.2365746699413
 30
0
 11
1.233425330058694
 21
5.369999999999996
 31
0
  0
LINE
  8
0
 62
7
 10
0.9349999999999987
 20
5.071574669941301
 30
0
 11
1.083425330058693
 21
5.219999999999995
 31
0
  0
LINE
  8
0
 62
7
 10
1.055557364414664
 20
4.980000000000002
 30
0
 11
1.295557364414657
 21
5.219999999999995
 31
0
  0
LINE
  8
0
 62
7
 10
1.267689398770628
 20
4.980000000000002
 30
0
 11
1.507689398770621
 21
5.219999999999995
 31
0
  0
LINE
  8
0
 62
7
 10
1.479821433126593
 20
4.980000000000002
 30
0
 11
1.719821433126586
 21
5.219999999999995
 31
0
  0
LINE
  8
0
 62
7
 10
1.691953467482557
 20
4.980000000000002
 30
0
 11
1.93195346748255
 21
5.219999999999995
 31
0
  0
LINE
  8
0
 62
7
 10
1.904085501838521
 20
4.980000000000002
 30
0
 11
2.144085501838514
 21
5.219999999999995
 31
0
  0
LINE
  8
0
 62
7
 10
2.116217536194485
 20
4.980000000000002
 30
0
 11
2.356217536194479
 21
5.219999999999995
 31
0
  0
LINE
  8
0
 62
7
 10
2.32834957055045
 20
4.980000000000002
 30
0
 11
2.568349570550443
 21
5.219999999999995
 31
0
  0
LINE
  8
0
 62
7
 10
2.540481604906414
 20
4.980000000000002
 30
0
 11
2.780481604906407
 21
5.219999999999995
 31
0
  0
LINE
  8
0
 62
7
 10
2.752613639262378
 20
4.980000000000002
 30
0
 11
2.992613639262371
 21
5.219999999999995
 31
0
  0
LINE
  8
0
 62
7
 10
2.964745673618343
 20
4.980000000000002
 30
0
 11
3.204745673618336
 21
5.219999999999995
 31
0
  0
LINE
  8
0
 62
7
 10
3.176877707974307
 20
4.980000000000002
 30
0
 11
3.4168777079743
 21
5.219999999999995
 31
0
  0
LINE
  8
0
 62
7
 10
3.389009742330271
 20
4.980000000000002
 30
0
 11
3.629009742330264
 21
5.219999999999995
 31
0
  0
LINE
  8
0
 62
7
 10
3.601141776686235
 20
4.980000000000002
 30
0
 11
3.959999999999997
 21
5.338858223313764
 31
0
  0
LINE
  8
0
 62
7
 10
3.8132738110422
 20
4.980000000000002
 30
0
 11
4.053273811042192
 21
5.219999999999994
 31
0
  0
LINE
  8
0
 62
7
 10
4.025405845398164
 20
4.980000000000002
 30
0
 11
4.11
 21
5.064594154601838
 31
0
  0
LINE
  8
0
 62
7
 10
1.099999999999998
 20
5.342640687119283
 30
0
 11
1.127359312880711
 21
5.369999999999996
 31
0
  0
LINE
  8
0
 62
7
 10
0.9349999999999983
 20
5.177640687119283
 30
0
 11
0.9773593128807105
 21
5.219999999999995
 31
0
  0
LINE
  8
0
 62
7
 10
0.9494913472366822
 20
4.980000000000002
 30
0
 11
1.274999999999998
 21
5.305508652763319
 31
0
  0
LINE
  8
0
 62
7
 10
1.161623381592646
 20
4.980000000000002
 30
0
 11
1.401623381592639
 21
5.219999999999995
 31
0
  0
LINE
  8
0
 62
7
 10
1.373755415948611
 20
4.980000000000002
 30
0
 11
1.613755415948603
 21
5.219999999999995
 31
0
  0
LINE
  8
0
 62
7
 10
1.585887450304575
 20
4.980000000000002
 30
0
 11
1.825887450304568
 21
5.219999999999995
 31
0
  0
LINE
  8
0
 62
7
 10
1.798019484660539
 20
4.980000000000002
 30
0
 11
2.038019484660532
 21
5.219999999999995
 31
0
  0
LINE
  8
0
 62
7
 10
2.010151519016504
 20
4.980000000000002
 30
0
 11
2.250151519016496
 21
5.219999999999995
 31
0
  0
LINE
  8
0
 62
7
 10
2.222283553372468
 20
4.980000000000002
 30
0
 11
2.462283553372461
 21
5.219999999999995
 31
0
  0
LINE
  8
0
 62
7
 10
2.434415587728432
 20
4.980000000000002
 30
0
 11
2.674415587728425
 21
5.219999999999995
 31
0
  0
LINE
  8
0
 62
7
 10
2.646547622084396
 20
4.980000000000002
 30
0
 11
2.886547622084389
 21
5.219999999999995
 31
0
  0
LINE
  8
0
 62
7
 10
2.858679656440361
 20
4.980000000000002
 30
0
 11
3.098679656440353
 21
5.219999999999995
 31
0
  0
LINE
  8
0
 62
7
 10
3.070811690796325
 20
4.980000000000002
 30
0
 11
3.310811690796318
 21
5.219999999999995
 31
0
  0
LINE
  8
0
 62
7
 10
3.282943725152289
 20
4.980000000000002
 30
0
 11
3.522943725152282
 21
5.219999999999995
 31
0
  0
LINE
  8
0
 62
7
 10
3.784999999999998
 20
5.269924240491747
 30
0
 11
3.885075759508247
 21
5.369999999999996
 31
0
  0
LINE
  8
0
 62
7
 10
3.495075759508254
 20
4.980000000000002
 30
0
 11
3.735075759508246
 21
5.219999999999995
 31
0
  0
LINE
  8
0
 62
7
 10
3.707207793864218
 20
4.980000000000002
 30
0
 11
3.959999999999998
 21
5.232792206135782
 31
0
  0
LINE
  8
0
 62
7
 10
3.919339828220182
 20
4.980000000000002
 30
0
 11
4.109999999999999
 21
5.17066017177982
 31
0
  0
ENDBLK
  8
0
  0
BLOCK
  8
0
  2
*X16
 70
1
 10
0
 20
0
 30
0
  0
LINE
  8
0
 62
7
 10
0.9349999999999974
 20
4.859442635585335
 30
0
 11
1.015557364414664
 21
4.940000000000002
 31
0
  0
LINE
  8
0
 62
7
 10
0.9876893987706277
 20
4.700000000000001
 30
0
 11
1.227689398770628
 21
4.940000000000002
 31
0
  0
LINE
  8
0
 62
7
 10
1.099999999999998
 20
4.600178566873407
 30
0
 11
1.439821433126593
 21
4.940000000000002
 31
0
  0
LINE
  8
0
 62
7
 10
1.411953467482557
 20
4.700000000000002
 30
0
 11
1.651953467482557
 21
4.940000000000002
 31
0
  0
LINE
  8
0
 62
7
 10
1.099999999999998
 20
4.388046532517443
 30
0
 11
1.274999999999998
 21
4.563046532517443
 31
0
  0
LINE
  8
0
 62
7
 10
1.624085501838521
 20
4.700000000000002
 30
0
 11
1.864085501838521
 21
4.940000000000002
 31
0
  0
LINE
  8
0
 62
7
 10
1.099999999999998
 20
4.175914498161479
 30
0
 11
1.274999999999998
 21
4.350914498161479
 31
0
  0
LINE
  8
0
 62
7
 10
1.836217536194485
 20
4.700000000000002
 30
0
 11
2.076217536194485
 21
4.940000000000002
 31
0
  0
LINE
  8
0
 62
7
 10
1.099999999999998
 20
3.963782463805515
 30
0
 11
1.274999999999998
 21
4.138782463805515
 31
0
  0
LINE
  8
0
 62
7
 10
2.04834957055045
 20
4.700000000000002
 30
0
 11
2.28834957055045
 21
4.940000000000002
 31
0
  0
LINE
  8
0
 62
7
 10
1.099999999999998
 20
3.751650429449551
 30
0
 11
1.274999999999998
 21
3.926650429449551
 31
0
  0
LINE
  8
0
 62
7
 10
2.260481604906414
 20
4.700000000000002
 30
0
 11
2.500481604906414
 21
4.940000000000002
 31
0
  0
LINE
  8
0
 62
7
 10
1.099999999999998
 20
3.539518395093586
 30
0
 11
1.274999999999998
 21
3.714518395093587
 31
0
  0
LINE
  8
0
 62
7
 10
2.472613639262378
 20
4.700000000000002
 30
0
 11
2.712613639262378
 21
4.940000000000002
 31
0
  0
LINE
  8
0
 62
7
 10
1.122613639262378
 20
3.350000000000002
 30
0
 11
1.274999999999998
 21
3.502386360737622
 31
0
  0
LINE
  8
0
 62
7
 10
2.684745673618342
 20
4.700000000000002
 30
0
 11
2.924745673618343
 21
4.940000000000002
 31
0
  0
LINE
  8
0
 62
7
 10
2.896877707974307
 20
4.700000000000002
 30
0
 11
3.136877707974307
 21
4.940000000000002
 31
0
  0
LINE
  8
0
 62
7
 10
3.109009742330271
 20
4.700000000000002
 30
0
 11
3.349009742330271
 21
4.940000000000002
 31
0
  0
LINE
  8
0
 62
7
 10
3.321141776686235
 20
4.700000000000002
 30
0
 11
3.561141776686235
 21
4.940000000000002
 31
0
  0
LINE
  8
0
 62
7
 10
3.5332738110422
 20
4.700000000000002
 30
0
 11
3.7732738110422
 21
4.940000000000002
 31
0
  0
LINE
  8
0
 62
7
 10
3.745405845398164
 20
4.700000000000002
 30
0
 11
3.985405845398164
 21
4.940000000000002
 31
0
  0
LINE
  8
0
 62
7
 10
3.784999999999998
 20
4.527462120245871
 30
0
 11
4.109999999999999
 21
4.852462120245874
 31
0
  0
LINE
  8
0
 62
7
 10
3.784999999999998
 20
4.315330085889907
 30
0
 11
3.959999999999998
 21
4.490330085889907
 31
0
  0
LINE
  8
0
 62
7
 10
3.784999999999998
 20
4.103198051533943
 30
0
 11
3.959999999999998
 21
4.278198051533943
 31
0
  0
LINE
  8
0
 62
7
 10
3.784999999999998
 20
3.891066017177979
 30
0
 11
3.959999999999998
 21
4.066066017177979
 31
0
  0
LINE
  8
0
 62
7
 10
3.784999999999998
 20
3.678933982822015
 30
0
 11
3.959999999999998
 21
3.853933982822015
 31
0
  0
LINE
  8
0
 62
7
 10
3.784999999999998
 20
3.466801948466051
 30
0
 11
3.959999999999998
 21
3.641801948466051
 31
0
  0
LINE
  8
0
 62
7
 10
3.784999999999998
 20
3.254669914110087
 30
0
 11
3.959999999999998
 21
3.429669914110087
 31
0
  0
LINE
  8
0
 62
7
 10
0.9349999999999978
 20
4.753376618407354
 30
0
 11
1.121623381592646
 21
4.940000000000002
 31
0
  0
LINE
  8
0
 62
7
 10
1.09375541594861
 20
4.700000000000002
 30
0
 11
1.33375541594861
 21
4.940000000000002
 31
0
  0
LINE
  8
0
 62
7
 10
1.305887450304575
 20
4.700000000000002
 30
0
 11
1.545887450304575
 21
4.940000000000002
 31
0
  0
LINE
  8
0
 62
7
 10
1.099999999999998
 20
4.494112549695425
 30
0
 11
1.274999999999998
 21
4.669112549695424
 31
0
  0
LINE
  8
0
 62
7
 10
1.518019484660539
 20
4.700000000000002
 30
0
 11
1.758019484660539
 21
4.940000000000002
 31
0
  0
LINE
  8
0
 62
7
 10
1.099999999999998
 20
4.281980515339461
 30
0
 11
1.274999999999998
 21
4.456980515339461
 31
0
  0
LINE
  8
0
 62
7
 10
1.730151519016503
 20
4.700000000000002
 30
0
 11
1.970151519016503
 21
4.940000000000002
 31
0
  0
LINE
  8
0
 62
7
 10
1.099999999999998
 20
4.069848480983497
 30
0
 11
1.274999999999998
 21
4.244848480983497
 31
0
  0
LINE
  8
0
 62
7
 10
1.942283553372468
 20
4.700000000000002
 30
0
 11
2.182283553372467
 21
4.940000000000002
 31
0
  0
LINE
  8
0
 62
7
 10
1.099999999999998
 20
3.857716446627533
 30
0
 11
1.274999999999998
 21
4.032716446627533
 31
0
  0
LINE
  8
0
 62
7
 10
2.154415587728432
 20
4.700000000000002
 30
0
 11
2.394415587728432
 21
4.940000000000002
 31
0
  0
LINE
  8
0
 62
7
 10
1.099999999999998
 20
3.645584412271569
 30
0
 11
1.274999999999998
 21
3.820584412271569
 31
0
  0
LINE
  8
0
 62
7
 10
2.366547622084396
 20
4.700000000000002
 30
0
 11
2.606547622084396
 21
4.940000000000002
 31
0
  0
LINE
  8
0
 62
7
 10
1.099999999999998
 20
3.433452377915605
 30
0
 11
1.274999999999998
 21
3.608452377915604
 31
0
  0
LINE
  8
0
 62
7
 10
2.57867965644036
 20
4.700000000000002
 30
0
 11
2.81867965644036
 21
4.940000000000002
 31
0
  0
LINE
  8
0
 62
7
 10
1.228679656440359
 20
3.350000000000002
 30
0
 11
1.274999999999998
 21
3.39632034355964
 31
0
  0
LINE
  8
0
 62
7
 10
2.790811690796325
 20
4.700000000000002
 30
0
 11
3.030811690796325
 21
4.940000000000002
 31
0
  0
LINE
  8
0
 62
7
 10
3.002943725152289
 20
4.700000000000002
 30
0
 11
3.242943725152289
 21
4.940000000000002
 31
0
  0
LINE
  8
0
 62
7
 10
3.215075759508253
 20
4.700000000000002
 30
0
 11
3.455075759508253
 21
4.940000000000002
 31
0
  0
LINE
  8
0
 62
7
 10
3.427207793864218
 20
4.700000000000002
 30
0
 11
3.667207793864217
 21
4.940000000000002
 31
0
  0
LINE
  8
0
 62
7
 10
3.639339828220182
 20
4.700000000000002
 30
0
 11
3.879339828220182
 21
4.940000000000002
 31
0
  0
LINE
  8
0
 62
7
 10
3.784999999999998
 20
4.633528137423854
 30
0
 11
4.091471862576146
 21
4.940000000000002
 31
0
  0
LINE
  8
0
 62
7
 10
4.06360389693211
 20
4.700000000000002
 30
0
 11
4.109999999999999
 21
4.746396103067892
 31
0
  0
LINE
  8
0
 62
7
 10
3.784999999999998
 20
4.42139610306789
 30
0
 11
3.959999999999998
 21
4.59639610306789
 31
0
  0
LINE
  8
0
 62
7
 10
3.784999999999998
 20
4.209264068711926
 30
0
 11
3.959999999999998
 21
4.384264068711926
 31
0
  0
LINE
  8
0
 62
7
 10
3.784999999999998
 20
3.997132034355962
 30
0
 11
3.959999999999998
 21
4.172132034355962
 31
0
  0
LINE
  8
0
 62
7
 10
3.784999999999998
 20
3.784999999999997
 30
0
 11
3.959999999999998
 21
3.959999999999998
 31
0
  0
LINE
  8
0
 62
7
 10
3.784999999999998
 20
3.572867965644033
 30
0
 11
3.959999999999998
 21
3.747867965644034
 31
0
  0
LINE
  8
0
 62
7
 10
3.784999999999998
 20
3.360735931288068
 30
0
 11
3.959999999999998
 21
3.53573593128807
 31
0
  0
LINE
  8
0
 62
7
 10
3.886396103067896
 20
3.250000000000002
 30
0
 11
3.959999999999998
 21
3.323603896932105
 31
0
  0
ENDBLK
  8
0
  0
BLOCK
  8
0
  2
*D0
 70
1
 10
0
 20
0
 30
0
  0
LINE
  8
0
 62
7
 10
0.687513061375146
 20
10.17302714131606
 30
0
 11
0.687513061375146
 21
11.05
 31
0
  0
LINE
  8
0
 62
7
 10
0.687513061375146
 20
8.299999999999999
 30
0
 11
0.687513061375146
 21
9.09302714131606
 31
0
  0
LINE
  8
0
 62
7
 10
0.9499999999999982
 20
11.05
 30
0
 11
0.637513061375146
 21
11.05
 31
0
  0
LINE
  8
0
 62
7
 10
0.9499999999999982
 20
8.299999999999999
 30
0
 11
0.637513061375146
 21
8.299999999999999
 31
0
  0
LINE
  8
0
 62
7
 10
0.6521577223158186
 20
8.335355339059326
 30
0
 11
0.7228684004344734
 21
8.264644660940672
 31
0
  0
LINE
  8
0
 62
7
 10
0.7228684004344734
 20
11.01464466094067
 30
0
 11
0.6521577223158186
 21
11.08535533905933
 31
0
  0
TEXT
  8
0
 62
7
 10
0.657513061375146
 20
9.495527141316062
 30
0
 40
0.1
  1
2,75
 50
90
 41
0.9
  0
TEXT
  8
0
 62
7
 10
0.817513061375146
 20
9.293027141316061
 30
0
 40
0.1
  1
(260-280)
 50
90
 41
0.9
  0
ENDBLK
  8
0
  0
BLOCK
  8
0
  2
*D1
 70
1
 10
0
 20
0
 30
0
  0
LINE
  8
0
 62
7
 10
2.84086922443652
 20
11.4993192301141
 30
0
 11
3.784999999999998
 21
11.4993192301141
 31
0
  0
LINE
  8
0
 62
7
 10
1.274999999999998
 20
11.4993192301141
 30
0
 11
2.19586922443652
 21
11.4993192301141
 31
0
  0
LINE
  8
0
 62
7
 10
3.784999999999998
 20
11.2
 30
0
 11
3.784999999999998
 21
11.5493192301141
 31
0
  0
LINE
  8
0
 62
7
 10
1.274999999999998
 20
11.2
 30
0
 11
1.274999999999998
 21
11.5493192301141
 31
0
  0
LINE
  8
0
 62
7
 10
1.310355339059325
 20
11.53467456917343
 30
0
 11
1.239644660940671
 21
11.46396389105477
 31
0
  0
LINE
  8
0
 62
7
 10
3.749644660940671
 20
11.46396389105477
 30
0
 11
3.820355339059325
 21
11.53467456917343
 31
0
  0
TEXT
  8
0
 62
7
 10
2.39586922443652
 20
11.4543192301141
 30
0
 40
0.1
  1
2,51
 41
0.9
  0
ENDBLK
  8
0
  0
BLOCK
  8
0
  2
*D2
 70
1
 10
0
 20
0
 30
0
  0
LINE
  8
0
 62
7
 10
4.31378946176121
 20
4.383026924430821
 30
0
 11
4.31378946176121
 21
4.700000000000002
 31
0
  0
LINE
  8
0
 62
7
 10
4.31378946176121
 20
3.250000000000002
 30
0
 11
4.31378946176121
 21
3.63802692443082
 31
0
  0
LINE
  8
0
 62
7
 10
3.959999999999998
 20
4.700000000000002
 30
0
 11
4.363789461761209
 21
4.700000000000002
 31
0
  0
LINE
  8
0
 62
7
 10
3.959999999999998
 20
3.250000000000002
 30
0
 11
4.363789461761209
 21
3.250000000000002
 31
0
  0
LINE
  8
0
 62
7
 10
4.278434122701882
 20
3.28535533905933
 30
0
 11
4.349144800820537
 21
3.214644660940675
 31
0
  0
LINE
  8
0
 62
7
 10
4.349144800820537
 20
4.664644660940675
 30
0
 11
4.278434122701882
 21
4.735355339059329
 31
0
  0
TEXT
  8
0
 62
7
 10
4.35878946176121
 20
3.88802692443082
 30
0
 40
0.1
  1
1,45
 50
90
 41
0.9
  0
ENDBLK
  8
0
  0
BLOCK
  8
0
  2
*D3
 70
1
 10
0
 20
0
 30
0
  0
LINE
  8
0
 62
7
 10
2.89086922443652
 20
5.59333160733549
 30
0
 11
3.784999999999998
 21
5.59333160733549
 31
0
  0
LINE
  8
0
 62
7
 10
1.274999999999998
 20
5.59333160733549
 30
0
 11
2.14586922443652
 21
5.59333160733549
 31
0
  0
LINE
  8
0
 62
7
 10
3.784999999999998
 20
5.219999999999995
 30
0
 11
3.784999999999998
 21
5.64333160733549
 31
0
  0
LINE
  8
0
 62
7
 10
1.274999999999998
 20
5.219999999999995
 30
0
 11
1.274999999999998
 21
5.64333160733549
 31
0
  0
LINE
  8
0
 62
7
 10
3.749644660940671
 20
5.557976268276163
 30
0
 11
3.820355339059325
 21
5.628686946394818
 31
0
  0
LINE
  8
0
 62
7
 10
1.310355339059325
 20
5.628686946394818
 30
0
 11
1.239644660940671
 21
5.557976268276163
 31
0
  0
TEXT
  8
0
 62
7
 10
2.39586922443652
 20
5.54833160733549
 30
0
 40
0.1
  1
2,51
 41
0.9
  0
ENDBLK
  8
0
  0
BLOCK
  8
0
  2
*D4
 70
1
 10
0
 20
0
 30
0
  0
LINE
  8
0
 62
7
 10
0.734760962357375
 20
4.45389877590416
 30
0
 11
0.734760962357375
 21
4.700000000000003
 31
0
  0
LINE
  8
0
 62
7
 10
0.734760962357375
 20
3.350000000000002
 30
0
 11
0.734760962357375
 21
3.70889877590416
 31
0
  0
LINE
  8
0
 62
7
 10
1.099999999999998
 20
4.700000000000003
 30
0
 11
0.6847609623573749
 21
4.700000000000003
 31
0
  0
LINE
  8
0
 62
7
 10
1.099999999999998
 20
3.350000000000002
 30
0
 11
0.6847609623573749
 21
3.350000000000002
 31
0
  0
LINE
  8
0
 62
7
 10
0.7701163014167024
 20
4.664644660940676
 30
0
 11
0.6994056232980476
 21
4.73535533905933
 31
0
  0
LINE
  8
0
 62
7
 10
0.6994056232980476
 20
3.38535533905933
 30
0
 11
0.7701163014167024
 21
3.314644660940675
 31
0
  0
TEXT
  8
0
 62
7
 10
0.779760962357375
 20
3.95889877590416
 30
0
 40
0.1
  1
1,35
 50
90
 41
0.9
  0
ENDBLK
  8
0
  0
ENDSEC
  0
SECTION
  2
ENTITIES
  0
INSERT
  8
0
  2
*X0
 10
0
 20
0
 30
0
  0
INSERT
  8
0
  2
*X1
 10
0
 20
0
 30
0
  0
INSERT
  8
0
  2
*X2
 10
0
 20
0
 30
0
  0
INSERT
  8
0
  2
*X3
 10
0
 20
0
 30
0
  0
INSERT
  8
0
  2
*X4
 10
0
 20
0
 30
0
  0
INSERT
  8
0
  2
*X5
 10
0
 20
0
 30
0
  0
INSERT
  8
0
  2
*X6
 10
0
 20
0
 30
0
  0
INSERT
  8
0
  2
*X7
 10
0
 20
0
 30
0
  0
INSERT
  8
0
  2
*X8
 10
0
 20
0
 30
0
  0
INSERT
  8
0
  2
*X9
 10
0
 20
0
 30
0
  0
INSERT
  8
0
  2
*X10
 10
0
 20
0
 30
0
  0
INSERT
  8
0
  2
*X11
 10
0
 20
0
 30
0
  0
INSERT
  8
0
  2
*X12
 10
0
 20
0
 30
0
  0
INSERT
  8
0
  2
*X13
 10
0
 20
0
 30
0
  0
INSERT
  8
0
  2
*X14
 10
0
 20
0
 30
0
  0
INSERT
  8
0
  2
*X15
 10
0
 20
0
 30
0
  0
INSERT
  8
0
  2
*X16
 10
0
 20
0
 30
0
  0
LINE
  8
0
 62
7
 10
2.239999999999998
 20
3.514533929624433
 30
0
 11
2.24
 21
3.68672179383774
 31
0
  0
LINE
  8
0
 62
7
 10
2.24
 20
3.68672179383774
 30
0
 11
2.277051250385026
 21
3.735000000000003
 31
0
  0
LINE
  8
0
 62
7
 10
2.330744946688708
 20
3.735000000000003
 30
0
 11
2.425344472546147
 21
3.735000000000003
 31
0
  0
LINE
  8
0
 62
7
 10
2.277051250385026
 20
3.735000000000003
 30
0
 11
2.425344472546147
 21
3.735000000000003
 31
0
  0
LINE
  8
0
 62
7
 10
2.611724147388978
 20
3.735000000000003
 30
0
 11
2.777372709311212
 21
3.735000000000003
 31
0
  0
LINE
  8
0
 62
7
 10
2.777372709311212
 20
3.735000000000003
 30
0
 11
2.820000000000003
 21
3.690774185910387
 31
0
  0
LINE
  8
0
 62
7
 10
2.819999999999998
 20
3.626071583650482
 30
0
 11
2.819999999999998
 21
3.530676443783972
 31
0
  0
LINE
  8
0
 62
7
 10
2.820000000000003
 20
3.690774185910387
 30
0
 11
2.819999999999998
 21
3.530676443783972
 31
0
  0
LINE
  8
0
 62
7
 10
3.729999999999998
 20
3.250000000000003
 30
0
 11
3.729999999999998
 21
3.606432960110173
 31
0
  0
LINE
  8
0
 62
7
 10
2.819999999999998
 20
3.524317401047383
 30
0
 11
2.819999999999998
 21
3.250000000000003
 31
0
  0
LINE
  8
0
 62
7
 10
2.819999999999998
 20
3.250000000000003
 30
0
 11
3.729999999999998
 21
3.250000000000003
 31
0
  0
LINE
  8
0
 62
7
 10
3.729999999999998
 20
3.516067281765143
 30
0
 11
3.729999999999998
 21
3.945850192883242
 31
0
  0
LINE
  8
0
 62
7
 10
2.819999999999998
 20
3.530676443783972
 30
0
 11
2.819999999999998
 21
3.433951722702353
 31
0
  0
LINE
  8
0
 62
7
 10
2.819999999999998
 20
3.433951722702353
 30
0
 11
3.729999999999998
 21
3.516067281765143
 31
0
  0
LINE
  8
0
 62
7
 10
3.729999999999998
 20
3.850455053016744
 30
0
 11
3.729999999999998
 21
4.343604806128372
 31
0
  0
LINE
  8
0
 62
7
 10
2.819999999999998
 20
3.530676443783972
 30
0
 11
3.729999999999998
 21
3.850455053016744
 31
0
  0
LINE
  8
0
 62
7
 10
3.729999999999998
 20
4.234908204451714
 30
0
 11
3.729999999999998
 21
4.645000000000002
 31
0
  0
LINE
  8
0
 62
7
 10
3.729999999999998
 20
4.645000000000002
 30
0
 11
3.500307693828736
 21
4.645000000000002
 31
0
  0
LINE
  8
0
 62
7
 10
2.820000000000003
 20
3.690774185910387
 30
0
 11
2.862072154144757
 21
3.647124325985202
 31
0
  0
LINE
  8
0
 62
7
 10
2.862072154144757
 20
3.647124325985202
 30
0
 11
3.729999999999998
 21
4.234908204451714
 31
0
  0
LINE
  8
0
 62
7
 10
3.621047309880616
 20
4.645000000000002
 30
0
 11
3.050250648274628
 21
4.645000000000002
 31
0
  0
LINE
  8
0
 62
7
 10
2.777372709311212
 20
3.735000000000003
 30
0
 11
2.807240734617016
 21
3.735000000000003
 31
0
  0
LINE
  8
0
 62
7
 10
2.807240734617016
 20
3.735000000000003
 30
0
 11
3.621047309880616
 21
4.645000000000002
 31
0
  0
LINE
  8
0
 62
7
 10
3.150155714219557
 20
4.645000000000002
 30
0
 11
2.711789060356086
 21
4.645000000000002
 31
0
  0
LINE
  8
0
 62
7
 10
2.521428807831365
 20
3.735000000000003
 30
0
 11
2.711629213333906
 21
3.735000000000003
 31
0
  0
LINE
  8
0
 62
7
 10
2.711629213333906
 20
3.735000000000003
 30
0
 11
3.150155714219557
 21
4.645000000000002
 31
0
  0
LINE
  8
0
 62
7
 10
2.803737142637175
 20
4.645000000000002
 30
0
 11
2.378508950226548
 21
4.645000000000002
 31
0
  0
LINE
  8
0
 62
7
 10
2.427429287901386
 20
3.735000000000003
 30
0
 11
2.613376890112457
 21
3.735000000000003
 31
0
  0
LINE
  8
0
 62
7
 10
2.613376890112457
 20
3.735000000000003
 30
0
 11
2.803737142637175
 21
4.645000000000002
 31
0
  0
LINE
  8
0
 62
7
 10
2.468638905882097
 20
4.645000000000002
 30
0
 11
2.036119193458146
 21
4.645000000000002
 31
0
  0
LINE
  8
0
 62
7
 10
2.425344472546147
 20
3.735000000000003
 30
0
 11
2.517559243556936
 21
3.735000000000003
 31
0
  0
LINE
  8
0
 62
7
 10
2.517559243556936
 20
3.735000000000003
 30
0
 11
2.468638905882097
 21
4.645000000000002
 31
0
  0
LINE
  8
0
 62
7
 10
2.130718719315588
 20
4.645000000000002
 30
0
 11
1.634926416332008
 21
4.645000000000002
 31
0
  0
LINE
  8
0
 62
7
 10
2.425344472546147
 20
3.735000000000003
 30
0
 11
2.130718719315588
 21
4.645000000000002
 31
0
  0
LINE
  8
0
 62
7
 10
1.742673373973246
 20
4.645000000000002
 30
0
 11
1.329999999999998
 21
4.645000000000002
 31
0
  0
LINE
  8
0
 62
7
 10
1.329999999999998
 20
4.645000000000002
 30
0
 11
1.329999999999998
 21
4.414696536451793
 31
0
  0
LINE
  8
0
 62
7
 10
2.277051250385026
 20
3.735000000000003
 30
0
 11
2.311829591302838
 21
3.780316578937654
 31
0
  0
LINE
  8
0
 62
7
 10
2.311829591302838
 20
3.780316578937654
 30
0
 11
1.742673373973246
 21
4.645000000000002
 31
0
  0
LINE
  8
0
 62
7
 10
1.329999999999998
 20
4.536219672865953
 30
0
 11
1.329999999999998
 21
3.964708833529702
 31
0
  0
LINE
  8
0
 62
7
 10
2.24
 20
3.68672179383774
 30
0
 11
2.239999999999998
 21
3.710576237318602
 31
0
  0
LINE
  8
0
 62
7
 10
2.239999999999998
 20
3.710576237318602
 30
0
 11
1.329999999999998
 21
4.536219672865953
 31
0
  0
LINE
  8
0
 62
7
 10
1.329999999999998
 20
4.065119386108934
 30
0
 11
1.329999999999998
 21
3.627094202189553
 31
0
  0
LINE
  8
0
 62
7
 10
2.239999999999998
 20
3.424420755510383
 30
0
 11
2.239999999999998
 21
3.614944482203664
 31
0
  0
LINE
  8
0
 62
7
 10
2.239999999999998
 20
3.614944482203664
 30
0
 11
1.329999999999998
 21
4.065119386108934
 31
0
  0
LINE
  8
0
 62
7
 10
1.329999999999998
 20
3.719299337921342
 30
0
 11
1.329999999999998
 21
3.390000000000003
 31
0
  0
LINE
  8
0
 62
7
 10
2.239999999999998
 20
3.390000000000003
 30
0
 11
2.239999999999998
 21
3.516625891242173
 31
0
  0
LINE
  8
0
 62
7
 10
2.239999999999998
 20
3.516625891242173
 30
0
 11
1.329999999999998
 21
3.719299337921342
 31
0
  0
LINE
  8
0
 62
7
 10
1.729695584866957
 20
3.400000000000003
 30
0
 11
1.729695584866957
 21
3.734999999990294
 31
0
  0
LINE
  8
0
 62
7
 10
1.729695584866957
 20
3.400000000000003
 30
0
 11
1.624040485605246
 21
3.461000000000002
 31
0
  0
LINE
  8
0
 62
7
 10
1.624040485605246
 20
3.461000000000002
 30
0
 11
1.835350684128658
 21
3.461000000000002
 31
0
  0
LINE
  8
0
 62
7
 10
1.835350684128658
 20
3.461000000000002
 30
0
 11
1.729695584866957
 21
3.400000000000003
 31
0
  0
LINE
  8
0
 62
7
 10
2.240000000019467
 20
4.245304415133052
 30
0
 11
2.819999999990286
 21
4.245304415133052
 31
0
  0
LINE
  8
0
 62
7
 10
3.330304415133047
 20
3.734999999983632
 30
0
 11
3.330304415133047
 21
3.250000000000003
 31
0
  0
LINE
  8
0
 62
7
 10
2.819999849999999
 20
8.596800069999997
 30
0
 11
3.729999979999999
 21
8.596800069999997
 31
0
  0
LINE
  8
0
 62
7
 10
3.729999979999999
 20
8.596800069999997
 30
0
 11
3.729999979999999
 21
8.531800069999996
 31
0
  0
LINE
  8
0
 62
7
 10
2.819999849999999
 20
8.531800069999996
 30
0
 11
2.819999849999999
 21
8.596800069999997
 31
0
  0
LINE
  8
0
 62
7
 10
3.729999979999999
 20
8.531800069999996
 30
0
 11
2.819999849999999
 21
8.531800069999996
 31
0
  0
LINE
  8
0
 62
7
 10
2.819999849999999
 20
8.793200059999995
 30
0
 11
3.729999899999999
 21
8.793200059999995
 31
0
  0
LINE
  8
0
 62
7
 10
3.729999899999999
 20
8.793200059999995
 30
0
 11
3.729999899999999
 21
8.728200059999997
 31
0
  0
LINE
  8
0
 62
7
 10
2.819999849999999
 20
8.728200059999997
 30
0
 11
2.819999849999999
 21
8.793200059999995
 31
0
  0
LINE
  8
0
 62
7
 10
3.729999899999999
 20
8.728200059999997
 30
0
 11
2.819999849999999
 21
8.728200059999997
 31
0
  0
LINE
  8
0
 62
7
 10
2.81999969
 20
8.989600059999995
 30
0
 11
3.730000089999998
 21
8.989600059999995
 31
0
  0
LINE
  8
0
 62
7
 10
3.730000089999998
 20
8.989600059999995
 30
0
 11
3.730000089999998
 21
8.924600059999996
 31
0
  0
LINE
  8
0
 62
7
 10
2.81999969
 20
8.924600059999996
 30
0
 11
2.81999969
 21
8.989600059999995
 31
0
  0
LINE
  8
0
 62
7
 10
3.730000089999998
 20
8.924600059999996
 30
0
 11
2.81999969
 21
8.924600059999996
 31
0
  0
LINE
  8
0
 62
7
 10
3.729999910000001
 20
9.121000049999996
 30
0
 11
2.730236589999998
 21
9.121000049999996
 31
0
  0
LINE
  8
0
 62
7
 10
2.730236589999998
 20
9.186000049999995
 30
0
 11
3.729999910000001
 21
9.186000049999995
 31
0
  0
LINE
  8
0
 62
7
 10
3.729999910000001
 20
9.186000049999995
 30
0
 11
3.729999910000001
 21
9.121000049999996
 31
0
  0
LINE
  8
0
 62
7
 10
2.730236589999998
 20
9.121000049999996
 30
0
 11
2.730236589999998
 21
9.186000049999995
 31
0
  0
LINE
  8
0
 62
7
 10
3.62104721
 20
9.317400049999994
 30
0
 11
2.611724619999997
 21
9.317400049999994
 31
0
  0
LINE
  8
0
 62
7
 10
2.611724619999997
 20
9.382400049999996
 30
0
 11
3.62104721
 21
9.382400049999996
 31
0
  0
LINE
  8
0
 62
7
 10
3.62104721
 20
9.382400049999996
 30
0
 11
3.62104721
 21
9.317400049999994
 31
0
  0
LINE
  8
0
 62
7
 10
2.611724619999997
 20
9.317400049999994
 30
0
 11
2.611724619999997
 21
9.382400049999996
 31
0
  0
LINE
  8
0
 62
7
 10
2.711629409999997
 20
9.513800039999996
 30
0
 11
2.521429289999999
 21
9.513800039999996
 31
0
  0
LINE
  8
0
 62
7
 10
2.711789319999998
 20
9.578800039999996
 30
0
 11
3.150156169999998
 21
9.578800039999996
 31
0
  0
LINE
  8
0
 62
7
 10
3.150156169999998
 20
9.578800039999996
 30
0
 11
3.150156169999998
 21
9.513800039999996
 31
0
  0
LINE
  8
0
 62
7
 10
2.521429289999999
 20
9.578800039999996
 30
0
 11
2.711629409999997
 21
9.578800039999996
 31
0
  0
LINE
  8
0
 62
7
 10
2.521429289999999
 20
9.513800039999996
 30
0
 11
2.521429289999999
 21
9.578800039999996
 31
0
  0
LINE
  8
0
 62
7
 10
3.150156169999998
 20
9.513800039999996
 30
0
 11
2.711789319999998
 21
9.513800039999996
 31
0
  0
LINE
  8
0
 62
7
 10
2.803737559999998
 20
9.710200029999996
 30
0
 11
2.378509369999998
 21
9.710200029999996
 31
0
  0
LINE
  8
0
 62
7
 10
2.378509369999998
 20
9.775200029999997
 30
0
 11
2.803737559999998
 21
9.775200029999997
 31
0
  0
LINE
  8
0
 62
7
 10
2.803737559999998
 20
9.775200029999997
 30
0
 11
2.803737559999998
 21
9.710200029999996
 31
0
  0
LINE
  8
0
 62
7
 10
2.378509369999998
 20
9.710200029999996
 30
0
 11
2.378509369999998
 21
9.775200029999997
 31
0
  0
LINE
  8
0
 62
7
 10
2.517559509999998
 20
9.906600029999996
 30
0
 11
2.036119229999998
 21
9.906600029999996
 31
0
  0
LINE
  8
0
 62
7
 10
2.036119229999998
 20
9.971600029999998
 30
0
 11
2.517559509999998
 21
9.971600029999998
 31
0
  0
LINE
  8
0
 62
7
 10
2.517559509999998
 20
9.971600029999998
 30
0
 11
2.517559509999998
 21
9.906600029999996
 31
0
  0
LINE
  8
0
 62
7
 10
2.036119229999998
 20
9.906600029999996
 30
0
 11
2.036119229999998
 21
9.971600029999998
 31
0
  0
LINE
  8
0
 62
7
 10
2.425345309999999
 20
10.10300002
 30
0
 11
1.634926599999999
 21
10.10300002
 31
0
  0
LINE
  8
0
 62
7
 10
1.634926599999999
 20
10.16800002
 30
0
 11
2.425345309999999
 21
10.16800002
 31
0
  0
LINE
  8
0
 62
7
 10
2.425345309999999
 20
10.16800002
 30
0
 11
2.425345309999999
 21
10.10300002
 31
0
  0
LINE
  8
0
 62
7
 10
1.634926599999999
 20
10.10300002
 30
0
 11
1.634926599999999
 21
10.16800002
 31
0
  0
LINE
  8
0
 62
7
 10
2.311829529999999
 20
10.29940002
 30
0
 11
1.329999849999998
 21
10.29940002
 31
0
  0
LINE
  8
0
 62
7
 10
1.329999849999998
 20
10.36440002
 30
0
 11
2.311829529999999
 21
10.36440002
 31
0
  0
LINE
  8
0
 62
7
 10
2.311829529999999
 20
10.36440002
 30
0
 11
2.311829529999999
 21
10.29940002
 31
0
  0
LINE
  8
0
 62
7
 10
1.329999849999998
 20
10.29940002
 30
0
 11
1.329999849999998
 21
10.36440002
 31
0
  0
LINE
  8
0
 62
7
 10
1.329999849999998
 20
10.56080001
 30
0
 11
2.239999849999998
 21
10.56080001
 31
0
  0
LINE
  8
0
 62
7
 10
2.239999849999998
 20
10.56080001
 30
0
 11
2.239999849999998
 21
10.49580001
 31
0
  0
LINE
  8
0
 62
7
 10
1.329999849999998
 20
10.49580001
 30
0
 11
1.329999849999998
 21
10.56080001
 31
0
  0
LINE
  8
0
 62
7
 10
2.239999849999998
 20
10.49580001
 30
0
 11
1.329999849999998
 21
10.49580001
 31
0
  0
LINE
  8
0
 62
7
 10
1.329999849999998
 20
10.7572
 30
0
 11
2.239999689999999
 21
10.7572
 31
0
  0
LINE
  8
0
 62
7
 10
2.239999689999999
 20
10.7572
 30
0
 11
2.239999689999999
 21
10.6922
 31
0
  0
LINE
  8
0
 62
7
 10
1.329999849999998
 20
10.6922
 30
0
 11
1.329999849999998
 21
10.7572
 31
0
  0
LINE
  8
0
 62
7
 10
2.239999689999999
 20
10.6922
 30
0
 11
1.329999849999998
 21
10.6922
 31
0
  0
LINE
  8
0
 62
7
  6
DASHED
 10
1.329999999999998
 20
10.95359999999999
 30
0
 11
2.239999999999998
 21
10.95359999999999
 31
0
  0
LINE
  8
0
 62
7
  6
DASHED
 10
2.239999999999998
 20
10.95359999999999
 30
0
 11
2.239999999999998
 21
10.88859999999999
 31
0
  0
LINE
  8
0
 62
7
  6
DASHED
 10
1.329999999999998
 20
10.88859999999999
 30
0
 11
1.329999999999998
 21
10.95359999999999
 31
0
  0
LINE
  8
0
 62
7
  6
DASHED
 10
2.239999999999998
 20
10.88859999999999
 30
0
 11
1.329999999999998
 21
10.88859999999999
 31
0
  0
LINE
  8
0
 62
7
 10
6.509999889999996
 20
8.596800069999997
 30
0
 11
6.866432959999997
 21
8.596800069999997
 31
0
  0
LINE
  8
0
 62
7
 10
6.866432959999997
 20
8.531800069999996
 30
0
 11
6.509999889999996
 21
8.531800069999996
 31
0
  0
LINE
  8
0
 62
7
 10
6.509999889999996
 20
8.531800069999996
 30
0
 11
6.509999889999996
 21
8.596800069999997
 31
0
  0
LINE
  8
0
 62
7
 10
6.866432959999997
 20
8.596800069999997
 30
0
 11
6.866432959999997
 21
8.531800069999996
 31
0
  0
LINE
  8
0
 62
7
 10
7.205850069999997
 20
8.728200059999997
 30
0
 11
6.693951689999999
 21
8.728200059999997
 31
0
  0
LINE
  8
0
 62
7
 10
6.693951689999999
 20
8.793200059999995
 30
0
 11
7.205850069999997
 21
8.793200059999995
 31
0
  0
LINE
  8
0
 62
7
 10
6.693951689999999
 20
8.728200059999997
 30
0
 11
6.693951689999999
 21
8.793200059999995
 31
0
  0
LINE
  8
0
 62
7
 10
7.205850069999997
 20
8.793200059999995
 30
0
 11
7.205850069999997
 21
8.728200059999997
 31
0
  0
LINE
  8
0
 62
7
 10
7.603604739999998
 20
8.924600059999996
 30
0
 11
6.790676309999999
 21
8.924600059999996
 31
0
  0
LINE
  8
0
 62
7
 10
6.790676309999999
 20
8.989600059999995
 30
0
 11
7.603604739999998
 21
8.989600059999995
 31
0
  0
LINE
  8
0
 62
7
 10
6.790676309999999
 20
8.924600059999996
 30
0
 11
6.790676309999999
 21
8.989600059999995
 31
0
  0
LINE
  8
0
 62
7
 10
7.603604739999998
 20
8.989600059999995
 30
0
 11
7.603604739999998
 21
8.924600059999996
 31
0
  0
LINE
  8
0
 62
7
 10
7.904999999999998
 20
9.121000049999996
 30
0
 11
6.907124179999997
 21
9.121000049999996
 31
0
  0
LINE
  8
0
 62
7
 10
6.907124179999997
 20
9.186000049999995
 30
0
 11
7.904999999999998
 21
9.186000049999995
 31
0
  0
LINE
  8
0
 62
7
 10
6.907124179999997
 20
9.121000049999996
 30
0
 11
6.907124179999997
 21
9.186000049999995
 31
0
  0
LINE
  8
0
 62
7
 10
7.904999999999998
 20
9.186000049999995
 30
0
 11
7.904999999999998
 21
9.121000049999996
 31
0
  0
LINE
  8
0
 62
7
 10
6.99499978
 20
9.382400049999998
 30
0
 11
7.904999999999998
 21
9.382400049999998
 31
0
  0
LINE
  8
0
 62
7
 10
6.99499978
 20
9.317400049999996
 30
0
 11
6.99499978
 21
9.382400049999998
 31
0
  0
LINE
  8
0
 62
7
 10
7.904999999999998
 20
9.382400049999998
 30
0
 11
7.904999999999998
 21
9.317400049999996
 31
0
  0
LINE
  8
0
 62
7
 10
7.904999999999998
 20
9.317400049999996
 30
0
 11
6.99499978
 21
9.317400049999996
 31
0
  0
LINE
  8
0
 62
7
 10
6.99499978
 20
9.578800039999997
 30
0
 11
7.905000159999997
 21
9.578800039999997
 31
0
  0
LINE
  8
0
 62
7
 10
6.99499978
 20
9.513800039999998
 30
0
 11
6.99499978
 21
9.578800039999997
 31
0
  0
LINE
  8
0
 62
7
 10
7.905000159999997
 20
9.578800039999997
 30
0
 11
7.905000159999997
 21
9.513800039999998
 31
0
  0
LINE
  8
0
 62
7
 10
7.905000159999997
 20
9.513800039999998
 30
0
 11
6.99499978
 21
9.513800039999998
 31
0
  0
LINE
  8
0
 62
7
 10
6.994999699999998
 20
9.775200029999997
 30
0
 11
7.904999999999998
 21
9.775200029999997
 31
0
  0
LINE
  8
0
 62
7
 10
6.994999699999998
 20
9.710200029999998
 30
0
 11
6.994999699999998
 21
9.775200029999997
 31
0
  0
LINE
  8
0
 62
7
 10
7.904999999999998
 20
9.775200029999997
 30
0
 11
7.904999999999998
 21
9.710200029999998
 31
0
  0
LINE
  8
0
 62
7
 10
7.904999999999998
 20
9.710200029999998
 30
0
 11
6.994999699999998
 21
9.710200029999998
 31
0
  0
LINE
  8
0
 62
7
 10
6.994999849999998
 20
9.971600029999998
 30
0
 11
7.905000309999996
 21
9.971600029999998
 31
0
  0
LINE
  8
0
 62
7
 10
6.994999849999998
 20
9.906600029999996
 30
0
 11
6.994999849999998
 21
9.971600029999998
 31
0
  0
LINE
  8
0
 62
7
 10
7.905000309999996
 20
9.971600029999998
 30
0
 11
7.905000309999996
 21
9.906600029999996
 31
0
  0
LINE
  8
0
 62
7
 10
7.905000309999996
 20
9.906600029999996
 30
0
 11
6.994999849999998
 21
9.906600029999996
 31
0
  0
LINE
  8
0
 62
7
 10
6.994999549999999
 20
10.16800002
 30
0
 11
7.904999849999998
 21
10.16800002
 31
0
  0
LINE
  8
0
 62
7
 10
6.994999549999999
 20
10.10300002
 30
0
 11
6.994999549999999
 21
10.16800002
 31
0
  0
LINE
  8
0
 62
7
 10
7.904999849999998
 20
10.16800002
 30
0
 11
7.904999849999998
 21
10.10300002
 31
0
  0
LINE
  8
0
 62
7
 10
7.904999849999998
 20
10.10300002
 30
0
 11
6.994999549999999
 21
10.10300002
 31
0
  0
LINE
  8
0
 62
7
 10
7.904999849999998
 20
10.29940002
 30
0
 11
6.889144409999997
 21
10.29940002
 31
0
  0
LINE
  8
0
 62
7
 10
6.889144409999997
 20
10.36440002
 30
0
 11
7.904999849999998
 21
10.36440002
 31
0
  0
LINE
  8
0
 62
7
 10
6.889144409999997
 20
10.29940002
 30
0
 11
6.889144409999997
 21
10.36440002
 31
0
  0
LINE
  8
0
 62
7
 10
7.904999849999998
 20
10.36440002
 30
0
 11
7.904999849999998
 21
10.29940002
 31
0
  0
LINE
  8
0
 62
7
 10
7.796219329999997
 20
10.49580001
 30
0
 11
6.774533619999997
 21
10.49580001
 31
0
  0
LINE
  8
0
 62
7
 10
6.774533619999997
 20
10.56080001
 30
0
 11
7.796219329999997
 21
10.56080001
 31
0
  0
LINE
  8
0
 62
7
 10
6.774533619999997
 20
10.49580001
 30
0
 11
6.774533619999997
 21
10.56080001
 31
0
  0
LINE
  8
0
 62
7
 10
7.796219329999997
 20
10.56080001
 30
0
 11
7.796219329999997
 21
10.49580001
 31
0
  0
LINE
  8
0
 62
7
 10
7.325118949999997
 20
10.6922
 30
0
 11
6.684420669999996
 21
10.6922
 31
0
  0
LINE
  8
0
 62
7
 10
6.684420669999996
 20
10.7572
 30
0
 11
7.325118949999997
 21
10.7572
 31
0
  0
LINE
  8
0
 62
7
 10
6.684420669999996
 20
10.6922
 30
0
 11
6.684420669999996
 21
10.7572
 31
0
  0
LINE
  8
0
 62
7
 10
7.325118949999997
 20
10.7572
 30
0
 11
7.325118949999997
 21
10.6922
 31
0
  0
LINE
  8
0
 62
7
 10
6.649999199999998
 20
10.9536
 30
0
 11
6.979298789999998
 21
10.9536
 31
0
  0
LINE
  8
0
 62
7
 10
6.979298789999998
 20
10.8886
 30
0
 11
6.649999199999998
 21
10.8886
 31
0
  0
LINE
  8
0
 62
7
 10
6.649999199999998
 20
10.8886
 30
0
 11
6.649999199999998
 21
10.9536
 31
0
  0
LINE
  8
0
 62
7
 10
6.979298789999998
 20
10.9536
 30
0
 11
6.979298789999998
 21
10.8886
 31
0
  0
LINE
  8
0
 62
7
 10
0.9499999999999981
 20
8.099999999999996
 30
0
 11
1.099999999999998
 21
8.099999999999996
 31
0
  0
LINE
  8
0
 62
7
 10
0.9499999999999981
 20
8.299999999999997
 30
0
 11
1.099999999999998
 21
8.299999999999997
 31
0
  0
LINE
  8
0
 62
7
 10
0.9499999999999981
 20
10.85
 30
0
 11
1.099999999999998
 21
10.85
 31
0
  0
LINE
  8
0
 62
7
 10
0.9499999999999981
 20
11.05
 30
0
 11
1.099999999999998
 21
11.05
 31
0
  0
LINE
  8
0
 62
7
 10
1.099999999999998
 20
7.949999999999996
 30
0
 11
1.099999999999998
 21
8.099999999999996
 31
0
  0
LINE
  8
0
 62
7
 10
1.099999999999998
 20
8.099999999999996
 30
0
 11
1.274999999999998
 21
8.099999999999996
 31
0
  0
LINE
  8
0
 62
7
 10
1.099999999999998
 20
8.299999999999997
 30
0
 11
1.099999999999998
 21
8.399999999999997
 31
0
  0
LINE
  8
0
 62
7
 10
1.099999999999998
 20
8.299999999999997
 30
0
 11
1.274999999999998
 21
8.299999999999997
 31
0
  0
LINE
  8
0
 62
7
 10
1.099999999999998
 20
10.85
 30
0
 11
1.274999999999998
 21
10.85
 31
0
  0
LINE
  8
0
 62
7
 10
1.099999999999998
 20
11.05
 30
0
 11
1.099999999999998
 21
11.15
 31
0
  0
LINE
  8
0
 62
7
 10
1.099999999999998
 20
11.05
 30
0
 11
1.274999999999998
 21
11.05
 31
0
  0
LINE
  8
0
 62
7
 10
1.274999999999998
 20
7.949999999999996
 30
0
 11
1.274999999999998
 21
8.099999999999996
 31
0
  0
LINE
  8
0
 62
7
 10
1.274999999999998
 20
8.099999999999996
 30
0
 11
3.784999999999998
 21
8.099999999999996
 31
0
  0
LINE
  8
0
 62
7
 10
1.274999999999998
 20
8.299999999999997
 30
0
 11
1.274999999999998
 21
8.399999999999997
 31
0
  0
LINE
  8
0
 62
7
 10
1.274999999999998
 20
8.299999999999997
 30
0
 11
3.784999999999998
 21
8.299999999999997
 31
0
  0
LINE
  8
0
 62
7
 10
1.274999999999998
 20
10.85
 30
0
 11
3.784999999999998
 21
10.85
 31
0
  0
LINE
  8
0
 62
7
 10
1.274999999999998
 20
11.05
 30
0
 11
1.274999999999998
 21
11.15
 31
0
  0
LINE
  8
0
 62
7
 10
1.274999999999998
 20
11.05
 30
0
 11
3.784999999999998
 21
11.05
 31
0
  0
LINE
  8
0
 62
7
 10
3.784999999999998
 20
7.949999999999996
 30
0
 11
3.784999999999998
 21
8.099999999999996
 31
0
  0
LINE
  8
0
 62
7
 10
3.784999999999998
 20
8.099999999999996
 30
0
 11
3.959999999999998
 21
8.099999999999996
 31
0
  0
LINE
  8
0
 62
7
 10
3.784999999999998
 20
8.299999999999997
 30
0
 11
3.784999999999998
 21
8.399999999999997
 31
0
  0
LINE
  8
0
 62
7
 10
3.784999999999998
 20
8.299999999999997
 30
0
 11
3.959999999999998
 21
8.299999999999997
 31
0
  0
LINE
  8
0
 62
7
 10
3.784999999999998
 20
10.85
 30
0
 11
3.959999999999998
 21
10.85
 31
0
  0
LINE
  8
0
 62
7
 10
3.784999999999998
 20
11.05
 30
0
 11
3.784999999999998
 21
11.15
 31
0
  0
LINE
  8
0
 62
7
 10
3.784999999999998
 20
11.05
 30
0
 11
3.959999999999998
 21
11.05
 31
0
  0
LINE
  8
0
 62
7
 10
3.959999999999998
 20
7.949999999999996
 30
0
 11
3.959999999999998
 21
8.099999999999996
 31
0
  0
LINE
  8
0
 62
7
 10
3.959999999999998
 20
8.099999999999996
 30
0
 11
4.109999999999999
 21
8.099999999999996
 31
0
  0
LINE
  8
0
 62
7
 10
3.959999999999998
 20
8.299999999999997
 30
0
 11
3.959999999999998
 21
8.399999999999997
 31
0
  0
LINE
  8
0
 62
7
 10
3.959999999999998
 20
8.299999999999997
 30
0
 11
4.109999999999999
 21
8.299999999999997
 31
0
  0
LINE
  8
0
 62
7
 10
3.959999999999998
 20
10.85
 30
0
 11
4.109999999999999
 21
10.85
 31
0
  0
LINE
  8
0
 62
7
 10
3.959999999999998
 20
11.05
 30
0
 11
3.959999999999998
 21
11.15
 31
0
  0
LINE
  8
0
 62
7
 10
3.959999999999998
 20
11.05
 30
0
 11
4.109999999999999
 21
11.05
 31
0
  0
LINE
  8
0
 62
7
  6
DASHDOT
 10
0.9499999999999981
 20
8.049999999999995
 30
0
 11
0.9499999999999981
 21
8.099999999999996
 31
0
  0
LINE
  8
0
 62
7
  6
DASHDOT
 10
0.9499999999999981
 20
10.8
 30
0
 11
0.9499999999999981
 21
10.85
 31
0
  0
LINE
  8
0
 62
7
  6
DASHDOT
 10
4.109999999999999
 20
8.049999999999995
 30
0
 11
4.109999999999999
 21
8.099999999999996
 31
0
  0
LINE
  8
0
 62
7
  6
DASHDOT
 10
4.109999999999999
 20
10.8
 30
0
 11
4.109999999999999
 21
10.85
 31
0
  0
LINE
  8
0
 62
7
  6
DASHDOT
 10
1.049999999999998
 20
11.2
 30
0
 11
1.099999999999998
 21
11.2
 31
0
  0
LINE
  8
0
 62
7
  6
DASHDOT
 10
1.049999999999998
 20
7.949999999999996
 30
0
 11
1.099999999999998
 21
7.949999999999996
 31
0
  0
LINE
  8
0
 62
7
  6
DASHDOT
 10
3.734999999999998
 20
11.2
 30
0
 11
3.784999999999998
 21
11.2
 31
0
  0
LINE
  8
0
 62
7
  6
DASHDOT
 10
3.734999999999998
 20
7.949999999999996
 30
0
 11
3.784999999999998
 21
7.949999999999996
 31
0
  0
LINE
  8
0
 62
7
 10
0.9499999999999981
 20
8.399999999999997
 30
0
 11
1.099999999999998
 21
8.399999999999997
 31
0
  0
LINE
  8
0
 62
7
 10
1.099999999999998
 20
8.399999999999997
 30
0
 11
1.099999999999998
 21
10.85
 31
0
  0
LINE
  8
0
 62
7
  6
DASHDOT
 10
0.9499999999999981
 20
8.399999999999997
 30
0
 11
0.9499999999999981
 21
8.449999999999998
 31
0
  0
LINE
  8
0
 62
7
 10
1.274999999999998
 20
8.399999999999997
 30
0
 11
3.784999999999998
 21
8.399999999999997
 31
0
  0
LINE
  8
0
 62
7
 10
1.274999999999998
 20
8.399999999999997
 30
0
 11
1.274999999999998
 21
10.85
 31
0
  0
LINE
  8
0
 62
7
 10
3.784999999999998
 20
8.399999999999997
 30
0
 11
3.784999999999998
 21
10.85
 31
0
  0
LINE
  8
0
 62
7
 10
3.959999999999998
 20
8.399999999999997
 30
0
 11
4.109999999999999
 21
8.399999999999997
 31
0
  0
LINE
  8
0
 62
7
 10
3.959999999999998
 20
8.399999999999997
 30
0
 11
3.959999999999998
 21
10.85
 31
0
  0
LINE
  8
0
 62
7
  6
DASHDOT
 10
4.109999999999999
 20
8.399999999999997
 30
0
 11
4.109999999999999
 21
8.449999999999998
 31
0
  0
LINE
  8
0
 62
7
 10
0.9499999999999981
 20
11.15
 30
0
 11
1.099999999999998
 21
11.15
 31
0
  0
LINE
  8
0
 62
7
 10
1.099999999999998
 20
11.15
 30
0
 11
1.099999999999998
 21
11.2
 31
0
  0
LINE
  8
0
 62
7
  6
DASHDOT
 10
0.9499999999999981
 20
11.15
 30
0
 11
0.9499999999999981
 21
11.2
 31
0
  0
LINE
  8
0
 62
7
 10
1.274999999999998
 20
11.15
 30
0
 11
3.784999999999998
 21
11.15
 31
0
  0
LINE
  8
0
 62
7
 10
1.274999999999998
 20
11.15
 30
0
 11
1.274999999999998
 21
11.2
 31
0
  0
LINE
  8
0
 62
7
 10
3.784999999999998
 20
11.15
 30
0
 11
3.784999999999998
 21
11.2
 31
0
  0
LINE
  8
0
 62
7
 10
3.959999999999998
 20
11.15
 30
0
 11
4.109999999999999
 21
11.15
 31
0
  0
LINE
  8
0
 62
7
 10
3.959999999999998
 20
11.15
 30
0
 11
3.959999999999998
 21
11.2
 31
0
  0
LINE
  8
0
 62
7
  6
DASHDOT
 10
4.109999999999999
 20
11.15
 30
0
 11
4.109999999999999
 21
11.2
 31
0
  0
LINE
  8
0
 62
7
  6
DASHDOT
 10
4.109999999999999
 20
8.099999999999996
 30
0
 11
4.109999999999999
 21
8.299999999999997
 31
0
  0
LINE
  8
0
 62
7
  6
DASHDOT
 10
4.109999999999999
 20
8.299999999999997
 30
0
 11
4.109999999999999
 21
8.399999999999997
 31
0
  0
LINE
  8
0
 62
7
  6
DASHDOT
 10
3.784999999999998
 20
7.949999999999996
 30
0
 11
3.959999999999998
 21
7.949999999999996
 31
0
  0
LINE
  8
0
 62
7
  6
DASHDOT
 10
3.959999999999998
 20
7.949999999999996
 30
0
 11
4.009999999999998
 21
7.949999999999996
 31
0
  0
LINE
  8
0
 62
7
  6
DASHDOT
 10
0.9499999999999981
 20
8.099999999999996
 30
0
 11
0.9499999999999981
 21
8.299999999999997
 31
0
  0
LINE
  8
0
 62
7
  6
DASHDOT
 10
0.9499999999999981
 20
8.299999999999997
 30
0
 11
0.9499999999999981
 21
8.399999999999997
 31
0
  0
LINE
  8
0
 62
7
  6
DASHDOT
 10
1.099999999999998
 20
7.949999999999996
 30
0
 11
1.274999999999998
 21
7.949999999999996
 31
0
  0
LINE
  8
0
 62
7
  6
DASHDOT
 10
1.274999999999998
 20
7.949999999999996
 30
0
 11
1.324999999999998
 21
7.949999999999996
 31
0
  0
LINE
  8
0
 62
7
  6
DASHDOT
 10
0.9499999999999981
 20
10.85
 30
0
 11
0.9499999999999981
 21
11.05
 31
0
  0
LINE
  8
0
 62
7
  6
DASHDOT
 10
0.9499999999999981
 20
11.05
 30
0
 11
0.9499999999999981
 21
11.15
 31
0
  0
LINE
  8
0
 62
7
  6
DASHDOT
 10
1.099999999999998
 20
11.2
 30
0
 11
1.274999999999998
 21
11.2
 31
0
  0
LINE
  8
0
 62
7
  6
DASHDOT
 10
1.274999999999998
 20
11.2
 30
0
 11
1.324999999999998
 21
11.2
 31
0
  0
LINE
  8
0
 62
7
  6
DASHDOT
 10
4.109999999999999
 20
10.85
 30
0
 11
4.109999999999999
 21
11.05
 31
0
  0
LINE
  8
0
 62
7
  6
DASHDOT
 10
4.109999999999999
 20
11.05
 30
0
 11
4.109999999999999
 21
11.15
 31
0
  0
LINE
  8
0
 62
7
  6
DASHDOT
 10
3.784999999999998
 20
11.2
 30
0
 11
3.959999999999998
 21
11.2
 31
0
  0
LINE
  8
0
 62
7
  6
DASHDOT
 10
3.959999999999998
 20
11.2
 30
0
 11
4.009999999999998
 21
11.2
 31
0
  0
LINE
  8
0
 62
7
 10
8.199999999999998
 20
8.099999999999996
 30
0
 11
8.199999999999998
 21
7.949999999999996
 31
0
  0
LINE
  8
0
 62
7
 10
7.959999999999997
 20
11.05
 30
0
 11
7.959999999999997
 21
11.2
 31
0
  0
LINE
  8
0
 62
7
 10
7.959999999999997
 20
11.05
 30
0
 11
8.199999999999998
 21
11.05
 31
0
  0
LINE
  8
0
 62
7
 10
8.199999999999998
 20
11.2
 30
0
 11
8.199999999999998
 21
11.05
 31
0
  0
LINE
  8
0
 62
7
 10
7.959999999999997
 20
10.85
 30
0
 11
7.959999999999997
 21
11.05
 31
0
  0
LINE
  8
0
 62
7
 10
7.959999999999997
 20
10.85
 30
0
 11
8.199999999999998
 21
10.85
 31
0
  0
LINE
  8
0
 62
7
 10
8.199999999999998
 20
11.05
 30
0
 11
8.199999999999998
 21
10.85
 31
0
  0
LINE
  8
0
 62
7
 10
7.959999999999997
 20
8.299999999999997
 30
0
 11
7.959999999999997
 21
10.85
 31
0
  0
LINE
  8
0
 62
7
 10
7.959999999999997
 20
8.299999999999997
 30
0
 11
8.199999999999998
 21
8.299999999999997
 31
0
  0
LINE
  8
0
 62
7
 10
8.199999999999998
 20
10.85
 30
0
 11
8.199999999999998
 21
8.299999999999997
 31
0
  0
LINE
  8
0
 62
7
 10
7.959999999999997
 20
8.099999999999996
 30
0
 11
7.959999999999997
 21
8.299999999999997
 31
0
  0
LINE
  8
0
 62
7
 10
7.959999999999997
 20
8.099999999999996
 30
0
 11
8.199999999999998
 21
8.099999999999996
 31
0
  0
LINE
  8
0
 62
7
 10
8.199999999999998
 20
8.299999999999997
 30
0
 11
8.199999999999998
 21
8.099999999999996
 31
0
  0
LINE
  8
0
 62
7
 10
7.959999999999997
 20
7.949999999999996
 30
0
 11
7.959999999999997
 21
8.099999999999996
 31
0
  0
LINE
  8
0
 62
7
 10
6.609999999999999
 20
10.85
 30
0
 11
6.609999999999999
 21
11.05
 31
0
  0
LINE
  8
0
 62
7
 10
6.31
 20
10.85
 30
0
 11
6.609999999999999
 21
10.85
 31
0
  0
LINE
  8
0
 62
7
 10
6.31
 20
11.05
 30
0
 11
6.609999999999999
 21
11.05
 31
0
  0
LINE
  8
0
 62
7
 10
6.31
 20
8.299999999999997
 30
0
 11
6.609999999999999
 21
8.299999999999997
 31
0
  0
LINE
  8
0
 62
7
 10
6.609999999999999
 20
8.099999999999996
 30
0
 11
6.609999999999999
 21
8.299999999999997
 31
0
  0
LINE
  8
0
 62
7
 10
6.31
 20
8.099999999999996
 30
0
 11
6.609999999999999
 21
8.099999999999996
 31
0
  0
LINE
  8
0
 62
7
  6
DASHDOT
 10
8.199999999999998
 20
11.2
 30
0
 11
8.249999999999998
 21
11.2
 31
0
  0
LINE
  8
0
 62
7
  6
DASHDOT
 10
6.31
 20
11.15
 30
0
 11
6.31
 21
11.2
 31
0
  0
LINE
  8
0
 62
7
  6
DASHDOT
 10
6.31
 20
8.099999999999996
 30
0
 11
6.31
 21
8.049999999999995
 31
0
  0
LINE
  8
0
 62
7
  6
DASHDOT
 10
8.199999999999998
 20
7.949999999999996
 30
0
 11
8.249999999999998
 21
7.949999999999996
 31
0
  0
LINE
  8
0
 62
7
 10
6.31
 20
8.399999999999997
 30
0
 11
6.609999999999999
 21
8.399999999999997
 31
0
  0
LINE
  8
0
 62
7
  6
DASHDOT
 10
6.31
 20
8.449999999999998
 30
0
 11
6.31
 21
8.399999999999997
 31
0
  0
LINE
  8
0
 62
7
 10
6.31
 20
11.15
 30
0
 11
6.609999999999999
 21
11.15
 31
0
  0
LINE
  8
0
 62
7
  6
DASHDOT
 10
6.31
 20
11.05
 30
0
 11
6.31
 21
11.15
 31
0
  0
LINE
  8
0
 62
7
  6
DASHDOT
 10
6.31
 20
8.399999999999997
 30
0
 11
6.31
 21
8.299999999999997
 31
0
  0
LINE
  8
0
 62
7
  6
DASHDOT
 10
6.31
 20
8.299999999999997
 30
0
 11
6.31
 21
8.099999999999996
 31
0
  0
LINE
  8
0
 62
7
  6
DASHDOT
 10
7.959999999999997
 20
7.949999999999996
 30
0
 11
8.199999999999998
 21
7.949999999999996
 31
0
  0
LINE
  8
0
 62
7
  6
DASHDOT
 10
7.909999999999997
 20
7.949999999999996
 30
0
 11
7.959999999999997
 21
7.949999999999996
 31
0
  0
LINE
  8
0
 62
7
  6
DASHDOT
 10
7.909999999999997
 20
11.2
 30
0
 11
7.959999999999997
 21
11.2
 31
0
  0
LINE
  8
0
 62
7
  6
DASHDOT
 10
7.959999999999997
 20
11.2
 30
0
 11
8.199999999999998
 21
11.2
 31
0
  0
LINE
  8
0
 62
7
  6
DASHDOT
 10
6.31
 20
10.8
 30
0
 11
6.31
 21
10.85
 31
0
  0
LINE
  8
0
 62
7
  6
DASHDOT
 10
6.31
 20
10.85
 30
0
 11
6.31
 21
11.05
 31
0
  0
LINE
  8
0
 62
7
  6
DASHED
 10
6.609999999999999
 20
11.05
 30
0
 11
7.959999999999997
 21
11.05
 31
0
  0
LINE
  8
0
 62
7
  6
DASHED
 10
6.609999999999999
 20
10.85
 30
0
 11
7.959999999999997
 21
10.85
 31
0
  0
LINE
  8
0
 62
7
  6
DASHED
 10
6.609999999999999
 20
8.299999999999997
 30
0
 11
7.959999999999997
 21
8.299999999999997
 31
0
  0
LINE
  8
0
 62
7
  6
DASHED
 10
6.609999999999999
 20
8.099999999999996
 30
0
 11
7.959999999999997
 21
8.099999999999996
 31
0
  0
LINE
  8
0
 62
7
 10
3.959999999999998
 20
5.219999999999995
 30
0
 11
4.109999999999999
 21
5.219999999999995
 31
0
  0
LINE
  8
0
 62
7
 10
3.959999999999998
 20
5.369999999999996
 30
0
 11
3.959999999999998
 21
5.219999999999995
 31
0
  0
LINE
  8
0
 62
7
 10
3.784999999999998
 20
5.219999999999995
 30
0
 11
3.784999999999998
 21
5.369999999999996
 31
0
  0
LINE
  8
0
 62
7
 10
1.274999999999998
 20
5.219999999999995
 30
0
 11
3.784999999999998
 21
5.219999999999995
 31
0
  0
LINE
  8
0
 62
7
 10
1.274999999999998
 20
5.369999999999996
 30
0
 11
1.274999999999998
 21
5.219999999999995
 31
0
  0
LINE
  8
0
 62
7
 10
1.099999999999998
 20
5.219999999999995
 30
0
 11
1.099999999999998
 21
5.369999999999996
 31
0
  0
LINE
  8
0
 62
7
 10
0.9349999999999981
 20
5.219999999999995
 30
0
 11
1.099999999999998
 21
5.219999999999995
 31
0
  0
LINE
  8
0
 62
7
 10
0.9349999999999981
 20
4.980000000000002
 30
0
 11
4.109999999999999
 21
4.980000000000002
 31
0
  0
LINE
  8
0
 62
7
 10
0.9349999999999981
 20
4.940000000000002
 30
0
 11
4.109999999999999
 21
4.940000000000002
 31
0
  0
LINE
  8
0
 62
7
 10
3.959999999999998
 20
4.700000000000002
 30
0
 11
4.109999999999999
 21
4.700000000000002
 31
0
  0
LINE
  8
0
 62
7
 10
3.784999999999998
 20
3.350000000000002
 30
0
 11
3.784999999999998
 21
3.250000000000002
 31
0
  0
LINE
  8
0
 62
7
 10
3.784999999999998
 20
3.250000000000002
 30
0
 11
3.959999999999998
 21
3.250000000000002
 31
0
  0
LINE
  8
0
 62
7
 10
3.959999999999998
 20
3.250000000000002
 30
0
 11
3.959999999999998
 21
4.700000000000002
 31
0
  0
LINE
  8
0
 62
7
 10
1.274999999999998
 20
4.700000000000002
 30
0
 11
3.784999999999998
 21
4.700000000000002
 31
0
  0
LINE
  8
0
 62
7
 10
1.274999999999998
 20
3.400000000000002
 30
0
 11
1.274999999999998
 21
4.700000000000002
 31
0
  0
LINE
  8
0
 62
7
 10
1.099999999999998
 20
4.700000000000002
 30
0
 11
1.099999999999998
 21
3.350000000000002
 31
0
  0
LINE
  8
0
 62
7
 10
0.9349999999999981
 20
4.700000000000002
 30
0
 11
1.099999999999998
 21
4.700000000000002
 31
0
  0
LINE
  8
0
 62
7
 10
1.099999999999998
 20
3.350000000000002
 30
0
 11
1.274999999999998
 21
3.350000000000002
 31
0
  0
LINE
  8
0
 62
7
 10
3.784999999999998
 20
3.400000000000002
 30
0
 11
1.274999999999998
 21
3.400000000000002
 31
0
  0
LINE
  8
0
 62
7
 10
3.784999999999998
 20
4.700000000000002
 30
0
 11
3.784999999999998
 21
3.400000000000002
 31
0
  0
LINE
  8
0
 62
7
 10
1.274999999999998
 20
3.350000000000002
 30
0
 11
1.274999999999998
 21
3.400000000000002
 31
0
  0
LINE
  8
0
 62
7
  6
DASHDOT
 10
3.784999999999998
 20
3.350000000000002
 30
0
 11
1.274999999999998
 21
3.350000000000002
 31
0
  0
LINE
  8
0
 62
7
 10
3.784999999999998
 20
3.400000000000002
 30
0
 11
3.784999999999998
 21
3.350000000000002
 31
0
  0
LINE
  8
0
 62
7
  6
DASHDOT
 10
3.959999999999998
 20
5.369999999999996
 30
0
 11
4.009999999999998
 21
5.369999999999996
 31
0
  0
LINE
  8
0
 62
7
  6
DASHDOT
 10
1.274999999999998
 20
5.369999999999996
 30
0
 11
1.324999999999998
 21
5.369999999999996
 31
0
  0
LINE
  8
0
 62
7
  6
DASHDOT
 10
4.109999999999999
 20
5.219999999999995
 30
0
 11
4.109999999999999
 21
5.269999999999996
 31
0
  0
LINE
  8
0
 62
7
  6
DASHDOT
 10
0.9349999999999981
 20
5.219999999999995
 30
0
 11
0.9349999999999981
 21
5.269999999999996
 31
0
  0
LINE
  8
0
 62
7
  6
DASHDOT
 10
0.9349999999999981
 20
4.980000000000002
 30
0
 11
0.9349999999999981
 21
5.219999999999995
 31
0
  0
LINE
  8
0
 62
7
  6
DASHDOT
 10
0.9349999999999981
 20
4.650000000000002
 30
0
 11
0.9349999999999981
 21
4.700000000000002
 31
0
  0
LINE
  8
0
 62
7
  6
DASHDOT
 10
3.784999999999998
 20
5.369999999999996
 30
0
 11
3.959999999999998
 21
5.369999999999996
 31
0
  0
LINE
  8
0
 62
7
  6
DASHDOT
 10
3.734999999999998
 20
5.369999999999996
 30
0
 11
3.784999999999998
 21
5.369999999999996
 31
0
  0
LINE
  8
0
 62
7
  6
DASHDOT
 10
4.109999999999999
 20
4.980000000000002
 30
0
 11
4.109999999999999
 21
5.219999999999995
 31
0
  0
LINE
  8
0
 62
7
  6
DASHDOT
 10
4.109999999999999
 20
4.650000000000002
 30
0
 11
4.109999999999999
 21
4.700000000000002
 31
0
  0
LINE
  8
0
 62
7
  6
DASHDOT
 10
0.9349999999999981
 20
4.940000000000002
 30
0
 11
0.9349999999999981
 21
4.980000000000002
 31
0
  0
LINE
  8
0
 62
7
  6
DASHDOT
 10
4.109999999999999
 20
4.940000000000002
 30
0
 11
4.109999999999999
 21
4.980000000000002
 31
0
  0
LINE
  8
0
 62
7
  6
DASHDOT
 10
0.9349999999999981
 20
4.700000000000002
 30
0
 11
0.9349999999999981
 21
4.940000000000002
 31
0
  0
LINE
  8
0
 62
7
  6
DASHDOT
 10
4.109999999999999
 20
4.700000000000002
 30
0
 11
4.109999999999999
 21
4.940000000000002
 31
0
  0
LINE
  8
0
 62
7
  6
DASHDOT
 10
1.049999999999998
 20
5.369999999999996
 30
0
 11
1.099999999999998
 21
5.369999999999996
 31
0
  0
LINE
  8
0
 62
7
  6
DASHDOT
 10
1.099999999999998
 20
5.369999999999996
 30
0
 11
1.274999999999998
 21
5.369999999999996
 31
0
  0
LINE
  8
0
 62
7
 10
1.72035396170442
 20
4.404750895361381
 30
0
 11
1.72035396170442
 21
4.52475089536138
 31
0
  0
LINE
  8
0
 62
7
 10
1.79595396170442
 20
4.52475089536138
 30
0
 11
1.74195396170442
 21
4.464750895361379
 31
0
  0
LINE
  8
0
 62
7
 10
1.74195396170442
 20
4.464750895361379
 30
0
 11
1.79595396170442
 21
4.404750895361381
 31
0
  0
LINE
  8
0
 62
7
 10
1.74195396170442
 20
4.464750895361379
 30
0
 11
1.72035396170442
 21
4.440750895361381
 31
0
  0
LINE
  8
0
 62
7
 10
1.90395396170442
 20
4.52475089536138
 30
0
 11
1.82835396170442
 21
4.52475089536138
 31
0
  0
LINE
  8
0
 62
7
 10
1.82835396170442
 20
4.52475089536138
 30
0
 11
1.82835396170442
 21
4.464750895361379
 31
0
  0
LINE
  8
0
 62
7
 10
1.82835396170442
 20
4.404750895361381
 30
0
 11
1.90395396170442
 21
4.404750895361381
 31
0
  0
LINE
  8
0
 62
7
 10
1.89315396170442
 20
4.464750895361379
 30
0
 11
1.82835396170442
 21
4.464750895361379
 31
0
  0
LINE
  8
0
 62
7
 10
1.82835396170442
 20
4.464750895361379
 30
0
 11
1.82835396170442
 21
4.404750895361381
 31
0
  0
LINE
  8
0
 62
7
 10
1.93635396170442
 20
4.404750895361381
 30
0
 11
1.93635396170442
 21
4.52475089536138
 31
0
  0
LINE
  8
0
 62
7
 10
1.93635396170442
 20
4.52475089536138
 30
0
 11
2.01195396170442
 21
4.404750895361381
 31
0
  0
LINE
  8
0
 62
7
 10
2.01195396170442
 20
4.404750895361381
 30
0
 11
2.01195396170442
 21
4.52475089536138
 31
0
  0
LINE
  8
0
 62
7
 10
2.04435396170442
 20
4.404750895361381
 30
0
 11
2.04435396170442
 21
4.52475089536138
 31
0
  0
LINE
  8
0
 62
7
 10
2.04435396170442
 20
4.52475089536138
 30
0
 11
2.11995396170442
 21
4.404750895361381
 31
0
  0
LINE
  8
0
 62
7
 10
2.11995396170442
 20
4.404750895361381
 30
0
 11
2.11995396170442
 21
4.52475089536138
 31
0
  0
LINE
  8
0
 62
7
 10
2.22795396170442
 20
4.48875089536138
 30
0
 11
2.22525396170442
 21
4.500750895361381
 31
0
  0
LINE
  8
0
 62
7
 10
2.22525396170442
 20
4.500750895361381
 30
0
 11
2.21985396170442
 21
4.50975089536138
 31
0
  0
LINE
  8
0
 62
7
 10
2.21985396170442
 20
4.50975089536138
 30
0
 11
2.21445396170442
 21
4.515750895361381
 31
0
  0
LINE
  8
0
 62
7
 10
2.21445396170442
 20
4.515750895361381
 30
0
 11
2.20635396170442
 21
4.52175089536138
 31
0
  0
LINE
  8
0
 62
7
 10
2.20635396170442
 20
4.52175089536138
 30
0
 11
2.19825396170442
 21
4.52475089536138
 31
0
  0
LINE
  8
0
 62
7
 10
2.19825396170442
 20
4.52475089536138
 30
0
 11
2.18205396170442
 21
4.52475089536138
 31
0
  0
LINE
  8
0
 62
7
 10
2.18205396170442
 20
4.52475089536138
 30
0
 11
2.17395396170442
 21
4.52175089536138
 31
0
  0
LINE
  8
0
 62
7
 10
2.17395396170442
 20
4.52175089536138
 30
0
 11
2.16585396170442
 21
4.515750895361381
 31
0
  0
LINE
  8
0
 62
7
 10
2.16585396170442
 20
4.515750895361381
 30
0
 11
2.16045396170442
 21
4.50975089536138
 31
0
  0
LINE
  8
0
 62
7
 10
2.16045396170442
 20
4.50975089536138
 30
0
 11
2.15505396170442
 21
4.500750895361381
 31
0
  0
LINE
  8
0
 62
7
 10
2.15505396170442
 20
4.500750895361381
 30
0
 11
2.15235396170442
 21
4.48875089536138
 31
0
  0
LINE
  8
0
 62
7
 10
2.15235396170442
 20
4.48875089536138
 30
0
 11
2.15235396170442
 21
4.440750895361381
 31
0
  0
LINE
  8
0
 62
7
 10
2.15235396170442
 20
4.440750895361381
 30
0
 11
2.15505396170442
 21
4.42875089536138
 31
0
  0
LINE
  8
0
 62
7
 10
2.15505396170442
 20
4.42875089536138
 30
0
 11
2.16045396170442
 21
4.41975089536138
 31
0
  0
LINE
  8
0
 62
7
 10
2.16045396170442
 20
4.41975089536138
 30
0
 11
2.16585396170442
 21
4.41375089536138
 31
0
  0
LINE
  8
0
 62
7
 10
2.16585396170442
 20
4.41375089536138
 30
0
 11
2.17395396170442
 21
4.40775089536138
 31
0
  0
LINE
  8
0
 62
7
 10
2.17395396170442
 20
4.40775089536138
 30
0
 11
2.18205396170442
 21
4.404750895361381
 31
0
  0
LINE
  8
0
 62
7
 10
2.18205396170442
 20
4.404750895361381
 30
0
 11
2.19825396170442
 21
4.404750895361381
 31
0
  0
LINE
  8
0
 62
7
 10
2.19825396170442
 20
4.404750895361381
 30
0
 11
2.20635396170442
 21
4.40775089536138
 31
0
  0
LINE
  8
0
 62
7
 10
2.20635396170442
 20
4.40775089536138
 30
0
 11
2.21445396170442
 21
4.41375089536138
 31
0
  0
LINE
  8
0
 62
7
 10
2.21445396170442
 20
4.41375089536138
 30
0
 11
2.21985396170442
 21
4.41975089536138
 31
0
  0
LINE
  8
0
 62
7
 10
2.21985396170442
 20
4.41975089536138
 30
0
 11
2.22525396170442
 21
4.42875089536138
 31
0
  0
LINE
  8
0
 62
7
 10
2.22525396170442
 20
4.42875089536138
 30
0
 11
2.22795396170442
 21
4.440750895361381
 31
0
  0
LINE
  8
0
 62
7
 10
2.22795396170442
 20
4.440750895361381
 30
0
 11
2.22795396170442
 21
4.464750895361379
 31
0
  0
LINE
  8
0
 62
7
 10
2.22795396170442
 20
4.464750895361379
 30
0
 11
2.19555396170442
 21
4.464750895361379
 31
0
  0
LINE
  8
0
 62
7
 10
2.30625396170442
 20
4.52475089536138
 30
0
 11
2.29005396170442
 21
4.52475089536138
 31
0
  0
LINE
  8
0
 62
7
 10
2.29005396170442
 20
4.52475089536138
 30
0
 11
2.28195396170442
 21
4.52175089536138
 31
0
  0
LINE
  8
0
 62
7
 10
2.28195396170442
 20
4.52175089536138
 30
0
 11
2.27385396170442
 21
4.515750895361381
 31
0
  0
LINE
  8
0
 62
7
 10
2.27385396170442
 20
4.515750895361381
 30
0
 11
2.26845396170442
 21
4.50975089536138
 31
0
  0
LINE
  8
0
 62
7
 10
2.26845396170442
 20
4.50975089536138
 30
0
 11
2.26305396170442
 21
4.500750895361381
 31
0
  0
LINE
  8
0
 62
7
 10
2.26305396170442
 20
4.500750895361381
 30
0
 11
2.26035396170442
 21
4.48875089536138
 31
0
  0
LINE
  8
0
 62
7
 10
2.26035396170442
 20
4.48875089536138
 30
0
 11
2.26035396170442
 21
4.440750895361381
 31
0
  0
LINE
  8
0
 62
7
 10
2.26035396170442
 20
4.440750895361381
 30
0
 11
2.26305396170442
 21
4.42875089536138
 31
0
  0
LINE
  8
0
 62
7
 10
2.26305396170442
 20
4.42875089536138
 30
0
 11
2.26845396170442
 21
4.41975089536138
 31
0
  0
LINE
  8
0
 62
7
 10
2.26845396170442
 20
4.41975089536138
 30
0
 11
2.27385396170442
 21
4.41375089536138
 31
0
  0
LINE
  8
0
 62
7
 10
2.27385396170442
 20
4.41375089536138
 30
0
 11
2.28195396170442
 21
4.40775089536138
 31
0
  0
LINE
  8
0
 62
7
 10
2.28195396170442
 20
4.40775089536138
 30
0
 11
2.29005396170442
 21
4.404750895361381
 31
0
  0
LINE
  8
0
 62
7
 10
2.29005396170442
 20
4.404750895361381
 30
0
 11
2.30625396170442
 21
4.404750895361381
 31
0
  0
LINE
  8
0
 62
7
 10
2.30625396170442
 20
4.404750895361381
 30
0
 11
2.31435396170442
 21
4.40775089536138
 31
0
  0
LINE
  8
0
 62
7
 10
2.31435396170442
 20
4.40775089536138
 30
0
 11
2.32245396170442
 21
4.41375089536138
 31
0
  0
LINE
  8
0
 62
7
 10
2.32245396170442
 20
4.41375089536138
 30
0
 11
2.32785396170442
 21
4.41975089536138
 31
0
  0
LINE
  8
0
 62
7
 10
2.32785396170442
 20
4.41975089536138
 30
0
 11
2.33325396170442
 21
4.42875089536138
 31
0
  0
LINE
  8
0
 62
7
 10
2.33325396170442
 20
4.42875089536138
 30
0
 11
2.33595396170442
 21
4.440750895361381
 31
0
  0
LINE
  8
0
 62
7
 10
2.33595396170442
 20
4.440750895361381
 30
0
 11
2.33595396170442
 21
4.48875089536138
 31
0
  0
LINE
  8
0
 62
7
 10
2.33595396170442
 20
4.48875089536138
 30
0
 11
2.33325396170442
 21
4.500750895361381
 31
0
  0
LINE
  8
0
 62
7
 10
2.33325396170442
 20
4.500750895361381
 30
0
 11
2.32785396170442
 21
4.50975089536138
 31
0
  0
LINE
  8
0
 62
7
 10
2.32785396170442
 20
4.50975089536138
 30
0
 11
2.32245396170442
 21
4.515750895361381
 31
0
  0
LINE
  8
0
 62
7
 10
2.32245396170442
 20
4.515750895361381
 30
0
 11
2.31435396170442
 21
4.52175089536138
 31
0
  0
LINE
  8
0
 62
7
 10
2.31435396170442
 20
4.52175089536138
 30
0
 11
2.30625396170442
 21
4.52475089536138
 31
0
  0
LINE
  8
0
 62
7
 10
2.35755396170442
 20
4.52475089536138
 30
0
 11
2.39535396170442
 21
4.52475089536138
 31
0
  0
LINE
  8
0
 62
7
 10
2.39535396170442
 20
4.52475089536138
 30
0
 11
2.39535396170442
 21
4.404750895361381
 31
0
  0
LINE
  8
0
 62
7
 10
2.39535396170442
 20
4.52475089536138
 30
0
 11
2.43315396170442
 21
4.52475089536138
 31
0
  0
LINE
  8
0
 62
7
 10
2.46555396170442
 20
4.52475089536138
 30
0
 11
2.50335396170442
 21
4.52475089536138
 31
0
  0
LINE
  8
0
 62
7
 10
2.50335396170442
 20
4.52475089536138
 30
0
 11
2.50335396170442
 21
4.404750895361381
 31
0
  0
LINE
  8
0
 62
7
 10
2.50335396170442
 20
4.52475089536138
 30
0
 11
2.541153961704421
 21
4.52475089536138
 31
0
  0
LINE
  8
0
 62
7
 10
2.65995396170442
 20
4.446750895361379
 30
0
 11
2.71395396170442
 21
4.446750895361379
 31
0
  0
LINE
  8
0
 62
7
 10
2.821953961704422
 20
4.52475089536138
 30
0
 11
2.859753961704421
 21
4.52475089536138
 31
0
  0
LINE
  8
0
 62
7
 10
2.859753961704421
 20
4.52475089536138
 30
0
 11
2.859753961704421
 21
4.404750895361381
 31
0
  0
LINE
  8
0
 62
7
 10
2.859753961704421
 20
4.52475089536138
 30
0
 11
2.89755396170442
 21
4.52475089536138
 31
0
  0
LINE
  8
0
 62
7
 10
2.92995396170442
 20
4.404750895361381
 30
0
 11
2.92995396170442
 21
4.52475089536138
 31
0
  0
LINE
  8
0
 62
7
 10
2.92995396170442
 20
4.52475089536138
 30
0
 11
2.981253961704422
 21
4.52475089536138
 31
0
  0
LINE
  8
0
 62
7
 10
2.981253961704422
 20
4.52475089536138
 30
0
 11
2.99205396170442
 21
4.52175089536138
 31
0
  0
LINE
  8
0
 62
7
 10
2.99205396170442
 20
4.52175089536138
 30
0
 11
3.00015396170442
 21
4.515750895361381
 31
0
  0
LINE
  8
0
 62
7
 10
3.00015396170442
 20
4.515750895361381
 30
0
 11
3.002853961704421
 21
4.50975089536138
 31
0
  0
LINE
  8
0
 62
7
 10
3.002853961704421
 20
4.50975089536138
 30
0
 11
3.00555396170442
 21
4.500750895361381
 31
0
  0
LINE
  8
0
 62
7
 10
3.00555396170442
 20
4.500750895361381
 30
0
 11
3.00555396170442
 21
4.48875089536138
 31
0
  0
LINE
  8
0
 62
7
 10
3.00555396170442
 20
4.48875089536138
 30
0
 11
3.002853961704421
 21
4.47975089536138
 31
0
  0
LINE
  8
0
 62
7
 10
3.002853961704421
 20
4.47975089536138
 30
0
 11
3.00015396170442
 21
4.47375089536138
 31
0
  0
LINE
  8
0
 62
7
 10
3.00015396170442
 20
4.47375089536138
 30
0
 11
2.99205396170442
 21
4.467750895361379
 31
0
  0
LINE
  8
0
 62
7
 10
2.99205396170442
 20
4.467750895361379
 30
0
 11
2.981253961704422
 21
4.464750895361379
 31
0
  0
LINE
  8
0
 62
7
 10
2.981253961704422
 20
4.464750895361379
 30
0
 11
2.97315396170442
 21
4.464750895361379
 31
0
  0
LINE
  8
0
 62
7
 10
2.97315396170442
 20
4.464750895361379
 30
0
 11
3.00555396170442
 21
4.404750895361381
 31
0
  0
LINE
  8
0
 62
7
 10
2.97315396170442
 20
4.464750895361379
 30
0
 11
2.92995396170442
 21
4.464750895361379
 31
0
  0
LINE
  8
0
 62
7
 10
3.10275396170442
 20
4.52475089536138
 30
0
 11
3.02715396170442
 21
4.52475089536138
 31
0
  0
LINE
  8
0
 62
7
 10
3.02715396170442
 20
4.52475089536138
 30
0
 11
3.02715396170442
 21
4.464750895361379
 31
0
  0
LINE
  8
0
 62
7
 10
3.02715396170442
 20
4.404750895361381
 30
0
 11
3.10275396170442
 21
4.404750895361381
 31
0
  0
LINE
  8
0
 62
7
 10
3.091953961704421
 20
4.464750895361379
 30
0
 11
3.02715396170442
 21
4.464750895361379
 31
0
  0
LINE
  8
0
 62
7
 10
3.02715396170442
 20
4.464750895361379
 30
0
 11
3.02715396170442
 21
4.404750895361381
 31
0
  0
LINE
  8
0
 62
7
 10
3.13515396170442
 20
4.404750895361381
 30
0
 11
3.13515396170442
 21
4.464750895361379
 31
0
  0
LINE
  8
0
 62
7
 10
3.13515396170442
 20
4.52475089536138
 30
0
 11
3.18645396170442
 21
4.52475089536138
 31
0
  0
LINE
  8
0
 62
7
 10
3.18645396170442
 20
4.52475089536138
 30
0
 11
3.197253961704421
 21
4.52175089536138
 31
0
  0
LINE
  8
0
 62
7
 10
3.197253961704421
 20
4.52175089536138
 30
0
 11
3.20535396170442
 21
4.515750895361381
 31
0
  0
LINE
  8
0
 62
7
 10
3.20535396170442
 20
4.515750895361381
 30
0
 11
3.208053961704421
 21
4.50975089536138
 31
0
  0
LINE
  8
0
 62
7
 10
3.208053961704421
 20
4.50975089536138
 30
0
 11
3.21075396170442
 21
4.500750895361381
 31
0
  0
LINE
  8
0
 62
7
 10
3.21075396170442
 20
4.500750895361381
 30
0
 11
3.21075396170442
 21
4.48875089536138
 31
0
  0
LINE
  8
0
 62
7
 10
3.21075396170442
 20
4.48875089536138
 30
0
 11
3.208053961704421
 21
4.47975089536138
 31
0
  0
LINE
  8
0
 62
7
 10
3.208053961704421
 20
4.47975089536138
 30
0
 11
3.20535396170442
 21
4.47375089536138
 31
0
  0
LINE
  8
0
 62
7
 10
3.20535396170442
 20
4.47375089536138
 30
0
 11
3.197253961704421
 21
4.467750895361379
 31
0
  0
LINE
  8
0
 62
7
 10
3.197253961704421
 20
4.467750895361379
 30
0
 11
3.18645396170442
 21
4.464750895361379
 31
0
  0
LINE
  8
0
 62
7
 10
3.18645396170442
 20
4.464750895361379
 30
0
 11
3.13515396170442
 21
4.464750895361379
 31
0
  0
LINE
  8
0
 62
7
 10
3.13515396170442
 20
4.464750895361379
 30
0
 11
3.13515396170442
 21
4.52475089536138
 31
0
  0
LINE
  8
0
 62
7
 10
3.232353961704421
 20
4.404750895361381
 30
0
 11
3.232353961704421
 21
4.464750895361379
 31
0
  0
LINE
  8
0
 62
7
 10
3.232353961704421
 20
4.52475089536138
 30
0
 11
3.28365396170442
 21
4.52475089536138
 31
0
  0
LINE
  8
0
 62
7
 10
3.28365396170442
 20
4.52475089536138
 30
0
 11
3.29445396170442
 21
4.52175089536138
 31
0
  0
LINE
  8
0
 62
7
 10
3.29445396170442
 20
4.52175089536138
 30
0
 11
3.302553961704421
 21
4.515750895361381
 31
0
  0
LINE
  8
0
 62
7
 10
3.302553961704421
 20
4.515750895361381
 30
0
 11
3.30525396170442
 21
4.50975089536138
 31
0
  0
LINE
  8
0
 62
7
 10
3.30525396170442
 20
4.50975089536138
 30
0
 11
3.30795396170442
 21
4.500750895361381
 31
0
  0
LINE
  8
0
 62
7
 10
3.30795396170442
 20
4.500750895361381
 30
0
 11
3.30795396170442
 21
4.48875089536138
 31
0
  0
LINE
  8
0
 62
7
 10
3.30795396170442
 20
4.48875089536138
 30
0
 11
3.30525396170442
 21
4.47975089536138
 31
0
  0
LINE
  8
0
 62
7
 10
3.30525396170442
 20
4.47975089536138
 30
0
 11
3.302553961704421
 21
4.47375089536138
 31
0
  0
LINE
  8
0
 62
7
 10
3.302553961704421
 20
4.47375089536138
 30
0
 11
3.29445396170442
 21
4.467750895361379
 31
0
  0
LINE
  8
0
 62
7
 10
3.29445396170442
 20
4.467750895361379
 30
0
 11
3.28365396170442
 21
4.464750895361379
 31
0
  0
LINE
  8
0
 62
7
 10
3.28365396170442
 20
4.464750895361379
 30
0
 11
3.232353961704421
 21
4.464750895361379
 31
0
  0
LINE
  8
0
 62
7
 10
3.232353961704421
 20
4.464750895361379
 30
0
 11
3.232353961704421
 21
4.52475089536138
 31
0
  0
LINE
  8
0
 62
7
 10
3.40515396170442
 20
4.52475089536138
 30
0
 11
3.32955396170442
 21
4.52475089536138
 31
0
  0
LINE
  8
0
 62
7
 10
3.32955396170442
 20
4.52475089536138
 30
0
 11
3.32955396170442
 21
4.464750895361379
 31
0
  0
LINE
  8
0
 62
7
 10
3.32955396170442
 20
4.404750895361381
 30
0
 11
3.40515396170442
 21
4.404750895361381
 31
0
  0
LINE
  8
0
 62
7
 10
3.394353961704421
 20
4.464750895361379
 30
0
 11
3.32955396170442
 21
4.464750895361379
 31
0
  0
LINE
  8
0
 62
7
 10
3.32955396170442
 20
4.464750895361379
 30
0
 11
3.32955396170442
 21
4.404750895361381
 31
0
  0
LINE
  8
0
 62
7
 10
0.624999999999998
 20
2.890000000000003
 30
0
 11
0.624999999999998
 21
3.010000000000003
 31
0
  0
LINE
  8
0
 62
7
 10
0.7005999999999981
 20
3.010000000000003
 30
0
 11
0.6465999999999981
 21
2.950000000000003
 31
0
  0
LINE
  8
0
 62
7
 10
0.6465999999999981
 20
2.950000000000003
 30
0
 11
0.7005999999999981
 21
2.890000000000003
 31
0
  0
LINE
  8
0
 62
7
 10
0.6465999999999981
 20
2.950000000000003
 30
0
 11
0.624999999999998
 21
2.926000000000004
 31
0
  0
LINE
  8
0
 62
7
 10
0.732999999999998
 20
2.992000000000003
 30
0
 11
0.7383999999999979
 21
3.001000000000003
 31
0
  0
LINE
  8
0
 62
7
 10
0.7383999999999979
 20
3.001000000000003
 30
0
 11
0.7464999999999979
 21
3.007000000000003
 31
0
  0
LINE
  8
0
 62
7
 10
0.7464999999999979
 20
3.007000000000003
 30
0
 11
0.757299999999998
 21
3.010000000000003
 31
0
  0
LINE
  8
0
 62
7
 10
0.757299999999998
 20
3.010000000000003
 30
0
 11
0.7734999999999981
 21
3.010000000000003
 31
0
  0
LINE
  8
0
 62
7
 10
0.7734999999999981
 20
3.010000000000003
 30
0
 11
0.784299999999998
 21
3.007000000000003
 31
0
  0
LINE
  8
0
 62
7
 10
0.784299999999998
 20
3.007000000000003
 30
0
 11
0.792399999999998
 21
3.001000000000003
 31
0
  0
LINE
  8
0
 62
7
 10
0.792399999999998
 20
3.001000000000003
 30
0
 11
0.7977999999999981
 21
2.992000000000003
 31
0
  0
LINE
  8
0
 62
7
 10
0.7977999999999981
 20
2.992000000000003
 30
0
 11
0.7977999999999981
 21
2.980000000000003
 31
0
  0
LINE
  8
0
 62
7
 10
0.7977999999999981
 20
2.980000000000003
 30
0
 11
0.792399999999998
 21
2.968000000000003
 31
0
  0
LINE
  8
0
 62
7
 10
0.792399999999998
 20
2.968000000000003
 30
0
 11
0.732999999999998
 21
2.890000000000003
 31
0
  0
LINE
  8
0
 62
7
 10
0.732999999999998
 20
2.890000000000003
 30
0
 11
0.7977999999999981
 21
2.890000000000003
 31
0
  0
LINE
  8
0
 62
7
 10
0.8301999999999983
 20
3.010000000000003
 30
0
 11
0.8679999999999981
 21
2.890000000000003
 31
0
  0
LINE
  8
0
 62
7
 10
0.8679999999999981
 20
2.890000000000003
 30
0
 11
0.9057999999999983
 21
3.010000000000003
 31
0
  0
LINE
  8
0
 62
7
 10
0.9381999999999983
 20
2.992000000000003
 30
0
 11
0.9435999999999981
 21
3.001000000000003
 31
0
  0
LINE
  8
0
 62
7
 10
0.9435999999999981
 20
3.001000000000003
 30
0
 11
0.951699999999998
 21
3.007000000000003
 31
0
  0
LINE
  8
0
 62
7
 10
0.951699999999998
 20
3.007000000000003
 30
0
 11
0.9624999999999981
 21
3.010000000000003
 31
0
  0
LINE
  8
0
 62
7
 10
0.9624999999999981
 20
3.010000000000003
 30
0
 11
0.978699999999998
 21
3.010000000000003
 31
0
  0
LINE
  8
0
 62
7
 10
0.978699999999998
 20
3.010000000000003
 30
0
 11
0.989499999999998
 21
3.007000000000003
 31
0
  0
LINE
  8
0
 62
7
 10
0.989499999999998
 20
3.007000000000003
 30
0
 11
0.9975999999999982
 21
3.001000000000003
 31
0
  0
LINE
  8
0
 62
7
 10
0.9975999999999982
 20
3.001000000000003
 30
0
 11
1.002999999999998
 21
2.992000000000003
 31
0
  0
LINE
  8
0
 62
7
 10
1.002999999999998
 20
2.992000000000003
 30
0
 11
1.002999999999998
 21
2.980000000000003
 31
0
  0
LINE
  8
0
 62
7
 10
1.002999999999998
 20
2.980000000000003
 30
0
 11
0.9975999999999982
 21
2.968000000000003
 31
0
  0
LINE
  8
0
 62
7
 10
0.9975999999999982
 20
2.968000000000003
 30
0
 11
0.9381999999999983
 21
2.890000000000003
 31
0
  0
LINE
  8
0
 62
7
 10
0.9381999999999983
 20
2.890000000000003
 30
0
 11
1.002999999999998
 21
2.890000000000003
 31
0
  0
LINE
  8
0
 62
7
 10
1.094799999999998
 20
3.010000000000003
 30
0
 11
1.035399999999998
 21
3.010000000000003
 31
0
  0
LINE
  8
0
 62
7
 10
1.035399999999998
 20
3.010000000000003
 30
0
 11
1.035399999999998
 21
2.950000000000003
 31
0
  0
LINE
  8
0
 62
7
 10
1.035399999999998
 20
2.950000000000003
 30
0
 11
1.040799999999998
 21
2.959000000000003
 31
0
  0
LINE
  8
0
 62
7
 10
1.040799999999998
 20
2.959000000000003
 30
0
 11
1.048899999999998
 21
2.965000000000003
 31
0
  0
LINE
  8
0
 62
7
 10
1.048899999999998
 20
2.965000000000003
 30
0
 11
1.059699999999998
 21
2.968000000000003
 31
0
  0
LINE
  8
0
 62
7
 10
1.059699999999998
 20
2.968000000000003
 30
0
 11
1.075899999999998
 21
2.968000000000003
 31
0
  0
LINE
  8
0
 62
7
 10
1.075899999999998
 20
2.968000000000003
 30
0
 11
1.083999999999998
 21
2.965000000000003
 31
0
  0
LINE
  8
0
 62
7
 10
1.083999999999998
 20
2.965000000000003
 30
0
 11
1.092099999999998
 21
2.959000000000003
 31
0
  0
LINE
  8
0
 62
7
 10
1.092099999999998
 20
2.959000000000003
 30
0
 11
1.097499999999998
 21
2.950000000000003
 31
0
  0
LINE
  8
0
 62
7
 10
1.097499999999998
 20
2.950000000000003
 30
0
 11
1.100199999999998
 21
2.938000000000003
 31
0
  0
LINE
  8
0
 62
7
 10
1.100199999999998
 20
2.938000000000003
 30
0
 11
1.100199999999998
 21
2.920000000000003
 31
0
  0
LINE
  8
0
 62
7
 10
1.100199999999998
 20
2.920000000000003
 30
0
 11
1.097499999999998
 21
2.908000000000003
 31
0
  0
LINE
  8
0
 62
7
 10
1.097499999999998
 20
2.908000000000003
 30
0
 11
1.092099999999998
 21
2.899000000000004
 31
0
  0
LINE
  8
0
 62
7
 10
1.092099999999998
 20
2.899000000000004
 30
0
 11
1.083999999999998
 21
2.893000000000003
 31
0
  0
LINE
  8
0
 62
7
 10
1.083999999999998
 20
2.893000000000003
 30
0
 11
1.075899999999998
 21
2.890000000000003
 31
0
  0
LINE
  8
0
 62
7
 10
1.075899999999998
 20
2.890000000000003
 30
0
 11
1.059699999999998
 21
2.890000000000003
 31
0
  0
LINE
  8
0
 62
7
 10
1.059699999999998
 20
2.890000000000003
 30
0
 11
1.048899999999998
 21
2.893000000000003
 31
0
  0
LINE
  8
0
 62
7
 10
1.048899999999998
 20
2.893000000000003
 30
0
 11
1.040799999999998
 21
2.899000000000004
 31
0
  0
LINE
  8
0
 62
7
 10
1.040799999999998
 20
2.899000000000004
 30
0
 11
1.035399999999998
 21
2.908000000000003
 31
0
  0
LINE
  8
0
 62
7
 10
1.132599999999998
 20
2.974000000000004
 30
0
 11
1.164999999999998
 21
3.010000000000003
 31
0
  0
LINE
  8
0
 62
7
 10
1.164999999999998
 20
3.010000000000003
 30
0
 11
1.164999999999998
 21
2.890000000000003
 31
0
  0
LINE
  8
0
 62
7
 10
1.262199999999998
 20
2.890000000000003
 30
0
 11
1.197399999999998
 21
2.890000000000003
 31
0
  0
LINE
  8
0
 62
7
 10
1.197399999999998
 20
2.890000000000003
 30
0
 11
1.197399999999998
 21
3.010000000000003
 31
0
  0
LINE
  8
0
 62
7
 10
1.294599999999998
 20
2.992000000000003
 30
0
 11
1.299999999999998
 21
3.001000000000003
 31
0
  0
LINE
  8
0
 62
7
 10
1.299999999999998
 20
3.001000000000003
 30
0
 11
1.308099999999998
 21
3.007000000000003
 31
0
  0
LINE
  8
0
 62
7
 10
1.308099999999998
 20
3.007000000000003
 30
0
 11
1.318899999999998
 21
3.010000000000003
 31
0
  0
LINE
  8
0
 62
7
 10
1.318899999999998
 20
3.010000000000003
 30
0
 11
1.335099999999998
 21
3.010000000000003
 31
0
  0
LINE
  8
0
 62
7
 10
1.335099999999998
 20
3.010000000000003
 30
0
 11
1.343199999999998
 21
3.007000000000003
 31
0
  0
LINE
  8
0
 62
7
 10
1.343199999999998
 20
3.007000000000003
 30
0
 11
1.351299999999998
 21
3.001000000000003
 31
0
  0
LINE
  8
0
 62
7
 10
1.351299999999998
 20
3.001000000000003
 30
0
 11
1.356699999999998
 21
2.992000000000003
 31
0
  0
LINE
  8
0
 62
7
 10
1.356699999999998
 20
2.992000000000003
 30
0
 11
1.359399999999998
 21
2.980000000000003
 31
0
  0
LINE
  8
0
 62
7
 10
1.359399999999998
 20
2.980000000000003
 30
0
 11
1.359399999999998
 21
2.971000000000004
 31
0
  0
LINE
  8
0
 62
7
 10
1.359399999999998
 20
2.971000000000004
 30
0
 11
1.356699999999998
 21
2.962000000000003
 31
0
  0
LINE
  8
0
 62
7
 10
1.356699999999998
 20
2.962000000000003
 30
0
 11
1.351299999999998
 21
2.956000000000003
 31
0
  0
LINE
  8
0
 62
7
 10
1.351299999999998
 20
2.956000000000003
 30
0
 11
1.337799999999998
 21
2.950000000000003
 31
0
  0
LINE
  8
0
 62
7
 10
1.318899999999998
 20
2.950000000000003
 30
0
 11
1.337799999999998
 21
2.950000000000003
 31
0
  0
LINE
  8
0
 62
7
 10
1.337799999999998
 20
2.950000000000003
 30
0
 11
1.351299999999998
 21
2.944000000000004
 31
0
  0
LINE
  8
0
 62
7
 10
1.351299999999998
 20
2.944000000000004
 30
0
 11
1.356699999999998
 21
2.938000000000003
 31
0
  0
LINE
  8
0
 62
7
 10
1.356699999999998
 20
2.938000000000003
 30
0
 11
1.359399999999998
 21
2.929000000000003
 31
0
  0
LINE
  8
0
 62
7
 10
1.359399999999998
 20
2.929000000000003
 30
0
 11
1.359399999999998
 21
2.920000000000003
 31
0
  0
LINE
  8
0
 62
7
 10
1.359399999999998
 20
2.920000000000003
 30
0
 11
1.356699999999998
 21
2.908000000000003
 31
0
  0
LINE
  8
0
 62
7
 10
1.356699999999998
 20
2.908000000000003
 30
0
 11
1.351299999999998
 21
2.899000000000004
 31
0
  0
LINE
  8
0
 62
7
 10
1.351299999999998
 20
2.899000000000004
 30
0
 11
1.343199999999998
 21
2.893000000000003
 31
0
  0
LINE
  8
0
 62
7
 10
1.343199999999998
 20
2.893000000000003
 30
0
 11
1.335099999999998
 21
2.890000000000003
 31
0
  0
LINE
  8
0
 62
7
 10
1.335099999999998
 20
2.890000000000003
 30
0
 11
1.318899999999998
 21
2.890000000000003
 31
0
  0
LINE
  8
0
 62
7
 10
1.318899999999998
 20
2.890000000000003
 30
0
 11
1.308099999999998
 21
2.893000000000003
 31
0
  0
LINE
  8
0
 62
7
 10
1.308099999999998
 20
2.893000000000003
 30
0
 11
1.299999999999998
 21
2.899000000000004
 31
0
  0
LINE
  8
0
 62
7
 10
1.299999999999998
 20
2.899000000000004
 30
0
 11
1.294599999999998
 21
2.908000000000003
 31
0
  0
LINE
  8
0
 62
7
 10
3.124999999999998
 20
2.890000000000003
 30
0
 11
3.124999999999998
 21
2.990000000000003
 31
0
  0
LINE
  8
0
 62
7
 10
3.124999999999998
 20
2.990000000000003
 30
0
 11
3.187999999999998
 21
2.890000000000003
 31
0
  0
LINE
  8
0
 62
7
 10
3.187999999999998
 20
2.890000000000003
 30
0
 11
3.187999999999998
 21
2.990000000000003
 31
0
  0
LINE
  8
0
 62
7
 10
3.268999999999998
 20
2.890000000000003
 30
0
 11
3.214999999999998
 21
2.890000000000003
 31
0
  0
LINE
  8
0
 62
7
 10
3.214999999999998
 20
2.890000000000003
 30
0
 11
3.214999999999998
 21
2.990000000000003
 31
0
  0
LINE
  8
0
 62
7
 10
3.295999999999998
 20
2.940000000000003
 30
0
 11
3.331999999999998
 21
2.940000000000003
 31
0
  0
LINE
  8
0
 62
7
 10
3.331999999999998
 20
2.940000000000003
 30
0
 11
3.336499999999998
 21
2.940000000000003
 31
0
  0
LINE
  8
0
 62
7
 10
3.336499999999998
 20
2.940000000000003
 30
0
 11
3.345499999999998
 21
2.935000000000003
 31
0
  0
LINE
  8
0
 62
7
 10
3.345499999999998
 20
2.935000000000003
 30
0
 11
3.349999999999998
 21
2.930000000000003
 31
0
  0
LINE
  8
0
 62
7
 10
3.349999999999998
 20
2.930000000000003
 30
0
 11
3.354499999999998
 21
2.920000000000003
 31
0
  0
LINE
  8
0
 62
7
 10
3.354499999999998
 20
2.920000000000003
 30
0
 11
3.354499999999998
 21
2.910000000000003
 31
0
  0
LINE
  8
0
 62
7
 10
3.354499999999998
 20
2.910000000000003
 30
0
 11
3.349999999999998
 21
2.900000000000003
 31
0
  0
LINE
  8
0
 62
7
 10
3.349999999999998
 20
2.900000000000003
 30
0
 11
3.345499999999998
 21
2.895000000000003
 31
0
  0
LINE
  8
0
 62
7
 10
3.345499999999998
 20
2.895000000000003
 30
0
 11
3.336499999999998
 21
2.890000000000003
 31
0
  0
LINE
  8
0
 62
7
 10
3.336499999999998
 20
2.890000000000003
 30
0
 11
3.295999999999998
 21
2.890000000000003
 31
0
  0
LINE
  8
0
 62
7
 10
3.295999999999998
 20
2.890000000000003
 30
0
 11
3.295999999999998
 21
2.940000000000003
 31
0
  0
LINE
  8
0
 62
7
 10
3.295999999999998
 20
2.990000000000003
 30
0
 11
3.329749999999999
 21
2.990000000000003
 31
0
  0
LINE
  8
0
 62
7
 10
3.329749999999999
 20
2.990000000000003
 30
0
 11
3.340999999999998
 21
2.987500000000003
 31
0
  0
LINE
  8
0
 62
7
 10
3.340999999999998
 20
2.987500000000003
 30
0
 11
3.347749999999999
 21
2.980000000000003
 31
0
  0
LINE
  8
0
 62
7
 10
3.347749999999999
 20
2.980000000000003
 30
0
 11
3.349999999999998
 21
2.970000000000003
 31
0
  0
LINE
  8
0
 62
7
 10
3.349999999999998
 20
2.970000000000003
 30
0
 11
3.349999999999998
 21
2.960000000000003
 31
0
  0
LINE
  8
0
 62
7
 10
3.349999999999998
 20
2.960000000000003
 30
0
 11
3.345499999999998
 21
2.950000000000003
 31
0
  0
LINE
  8
0
 62
7
 10
3.345499999999998
 20
2.950000000000003
 30
0
 11
3.338749999999997
 21
2.942500000000003
 31
0
  0
LINE
  8
0
 62
7
 10
3.338749999999997
 20
2.942500000000003
 30
0
 11
3.331999999999998
 21
2.940000000000003
 31
0
  0
LINE
  8
0
 62
7
 10
3.295999999999998
 20
2.940000000000003
 30
0
 11
3.295999999999998
 21
2.990000000000003
 31
0
  0
LINE
  8
0
 62
7
 10
3.496249999999998
 20
2.942500000000003
 30
0
 11
3.489499999999998
 21
2.952500000000003
 31
0
  0
LINE
  8
0
 62
7
 10
3.489499999999998
 20
2.952500000000003
 30
0
 11
3.482749999999998
 21
2.957500000000003
 31
0
  0
LINE
  8
0
 62
7
 10
3.482749999999998
 20
2.957500000000003
 30
0
 11
3.475999999999999
 21
2.960000000000003
 31
0
  0
LINE
  8
0
 62
7
 10
3.475999999999999
 20
2.960000000000003
 30
0
 11
3.466999999999998
 21
2.960000000000003
 31
0
  0
LINE
  8
0
 62
7
 10
3.466999999999998
 20
2.960000000000003
 30
0
 11
3.460249999999998
 21
2.957500000000003
 31
0
  0
LINE
  8
0
 62
7
 10
3.460249999999998
 20
2.957500000000003
 30
0
 11
3.453499999999998
 21
2.952500000000003
 31
0
  0
LINE
  8
0
 62
7
 10
3.453499999999998
 20
2.952500000000003
 30
0
 11
3.446749999999998
 21
2.942500000000003
 31
0
  0
LINE
  8
0
 62
7
 10
3.446749999999998
 20
2.942500000000003
 30
0
 11
3.444499999999999
 21
2.935000000000003
 31
0
  0
LINE
  8
0
 62
7
 10
3.444499999999999
 20
2.935000000000003
 30
0
 11
3.444499999999999
 21
2.915000000000003
 31
0
  0
LINE
  8
0
 62
7
 10
3.444499999999999
 20
2.915000000000003
 30
0
 11
3.446749999999998
 21
2.907500000000003
 31
0
  0
LINE
  8
0
 62
7
 10
3.446749999999998
 20
2.907500000000003
 30
0
 11
3.453499999999998
 21
2.897500000000003
 31
0
  0
LINE
  8
0
 62
7
 10
3.453499999999998
 20
2.897500000000003
 30
0
 11
3.460249999999998
 21
2.892500000000003
 31
0
  0
LINE
  8
0
 62
7
 10
3.460249999999998
 20
2.892500000000003
 30
0
 11
3.466999999999998
 21
2.890000000000003
 31
0
  0
LINE
  8
0
 62
7
 10
3.466999999999998
 20
2.890000000000003
 30
0
 11
3.475999999999999
 21
2.890000000000003
 31
0
  0
LINE
  8
0
 62
7
 10
3.475999999999999
 20
2.890000000000003
 30
0
 11
3.482749999999998
 21
2.892500000000003
 31
0
  0
LINE
  8
0
 62
7
 10
3.482749999999998
 20
2.892500000000003
 30
0
 11
3.489499999999998
 21
2.897500000000003
 31
0
  0
LINE
  8
0
 62
7
 10
3.489499999999998
 20
2.897500000000003
 30
0
 11
3.496249999999998
 21
2.907500000000003
 31
0
  0
LINE
  8
0
 62
7
 10
3.568249999999999
 20
2.935000000000003
 30
0
 11
3.565999999999999
 21
2.942500000000003
 31
0
  0
LINE
  8
0
 62
7
 10
3.565999999999999
 20
2.942500000000003
 30
0
 11
3.559249999999998
 21
2.952500000000003
 31
0
  0
LINE
  8
0
 62
7
 10
3.559249999999998
 20
2.952500000000003
 30
0
 11
3.552499999999998
 21
2.957500000000003
 31
0
  0
LINE
  8
0
 62
7
 10
3.552499999999998
 20
2.957500000000003
 30
0
 11
3.545749999999998
 21
2.960000000000003
 31
0
  0
LINE
  8
0
 62
7
 10
3.545749999999998
 20
2.960000000000003
 30
0
 11
3.536749999999998
 21
2.960000000000003
 31
0
  0
LINE
  8
0
 62
7
 10
3.536749999999998
 20
2.960000000000003
 30
0
 11
3.529999999999998
 21
2.957500000000003
 31
0
  0
LINE
  8
0
 62
7
 10
3.529999999999998
 20
2.957500000000003
 30
0
 11
3.523249999999998
 21
2.952500000000003
 31
0
  0
LINE
  8
0
 62
7
 10
3.523249999999998
 20
2.952500000000003
 30
0
 11
3.516499999999999
 21
2.942500000000003
 31
0
  0
LINE
  8
0
 62
7
 10
3.516499999999999
 20
2.942500000000003
 30
0
 11
3.514249999999998
 21
2.935000000000003
 31
0
  0
LINE
  8
0
 62
7
 10
3.514249999999998
 20
2.935000000000003
 30
0
 11
3.514249999999998
 21
2.915000000000003
 31
0
  0
LINE
  8
0
 62
7
 10
3.514249999999998
 20
2.915000000000003
 30
0
 11
3.516499999999999
 21
2.907500000000003
 31
0
  0
LINE
  8
0
 62
7
 10
3.516499999999999
 20
2.907500000000003
 30
0
 11
3.523249999999998
 21
2.897500000000003
 31
0
  0
LINE
  8
0
 62
7
 10
3.523249999999998
 20
2.897500000000003
 30
0
 11
3.529999999999998
 21
2.892500000000003
 31
0
  0
LINE
  8
0
 62
7
 10
3.529999999999998
 20
2.892500000000003
 30
0
 11
3.536749999999998
 21
2.890000000000003
 31
0
  0
LINE
  8
0
 62
7
 10
3.536749999999998
 20
2.890000000000003
 30
0
 11
3.545749999999998
 21
2.890000000000003
 31
0
  0
LINE
  8
0
 62
7
 10
3.545749999999998
 20
2.890000000000003
 30
0
 11
3.552499999999998
 21
2.892500000000003
 31
0
  0
LINE
  8
0
 62
7
 10
3.552499999999998
 20
2.892500000000003
 30
0
 11
3.559249999999998
 21
2.897500000000003
 31
0
  0
LINE
  8
0
 62
7
 10
3.559249999999998
 20
2.897500000000003
 30
0
 11
3.565999999999999
 21
2.907500000000003
 31
0
  0
LINE
  8
0
 62
7
 10
3.565999999999999
 20
2.907500000000003
 30
0
 11
3.568249999999999
 21
2.915000000000003
 31
0
  0
LINE
  8
0
 62
7
 10
3.568249999999999
 20
2.960000000000003
 30
0
 11
3.568249999999999
 21
2.935000000000003
 31
0
  0
LINE
  8
0
 62
7
 10
3.568249999999999
 20
2.892500000000003
 30
0
 11
3.570499999999998
 21
2.890000000000003
 31
0
  0
LINE
  8
0
 62
7
 10
3.570499999999998
 20
2.890000000000003
 30
0
 11
3.572749999999999
 21
2.890000000000003
 31
0
  0
LINE
  8
0
 62
7
 10
3.568249999999999
 20
2.915000000000003
 30
0
 11
3.568249999999999
 21
2.892500000000003
 31
0
  0
LINE
  8
0
 62
7
 10
3.568249999999999
 20
2.935000000000003
 30
0
 11
3.568249999999999
 21
2.915000000000003
 31
0
  0
LINE
  8
0
 62
7
 10
3.590749999999999
 20
2.890000000000003
 30
0
 11
3.590749999999999
 21
2.892500000000003
 31
0
  0
LINE
  8
0
 62
7
 10
3.590749999999999
 20
2.892500000000003
 30
0
 11
3.592999999999998
 21
2.892500000000003
 31
0
  0
LINE
  8
0
 62
7
 10
3.592999999999998
 20
2.892500000000003
 30
0
 11
3.592999999999998
 21
2.890000000000003
 31
0
  0
LINE
  8
0
 62
7
 10
3.592999999999998
 20
2.890000000000003
 30
0
 11
3.590749999999999
 21
2.890000000000003
 31
0
  0
LINE
  8
0
 62
7
 10
3.716749999999998
 20
2.990000000000003
 30
0
 11
3.725749999999999
 21
2.990000000000003
 31
0
  0
LINE
  8
0
 62
7
 10
3.725749999999999
 20
2.990000000000003
 30
0
 11
3.732499999999998
 21
2.987500000000003
 31
0
  0
LINE
  8
0
 62
7
 10
3.732499999999998
 20
2.987500000000003
 30
0
 11
3.736999999999998
 21
2.982500000000003
 31
0
  0
LINE
  8
0
 62
7
 10
3.736999999999998
 20
2.982500000000003
 30
0
 11
3.741499999999998
 21
2.975000000000003
 31
0
  0
LINE
  8
0
 62
7
 10
3.741499999999998
 20
2.975000000000003
 30
0
 11
3.741499999999998
 21
2.965000000000003
 31
0
  0
LINE
  8
0
 62
7
 10
3.741499999999998
 20
2.965000000000003
 30
0
 11
3.739249999999998
 21
2.960000000000003
 31
0
  0
LINE
  8
0
 62
7
 10
3.739249999999998
 20
2.960000000000003
 30
0
 11
3.732499999999998
 21
2.952500000000003
 31
0
  0
LINE
  8
0
 62
7
 10
3.732499999999998
 20
2.952500000000003
 30
0
 11
3.725749999999999
 21
2.950000000000003
 31
0
  0
LINE
  8
0
 62
7
 10
3.725749999999999
 20
2.950000000000003
 30
0
 11
3.716749999999998
 21
2.950000000000003
 31
0
  0
LINE
  8
0
 62
7
 10
3.716749999999998
 20
2.950000000000003
 30
0
 11
3.709999999999998
 21
2.952500000000003
 31
0
  0
LINE
  8
0
 62
7
 10
3.709999999999998
 20
2.952500000000003
 30
0
 11
3.703249999999999
 21
2.960000000000003
 31
0
  0
LINE
  8
0
 62
7
 10
3.703249999999999
 20
2.960000000000003
 30
0
 11
3.700999999999999
 21
2.965000000000003
 31
0
  0
LINE
  8
0
 62
7
 10
3.700999999999999
 20
2.965000000000003
 30
0
 11
3.700999999999999
 21
2.975000000000003
 31
0
  0
LINE
  8
0
 62
7
 10
3.700999999999999
 20
2.975000000000003
 30
0
 11
3.705499999999998
 21
2.982500000000003
 31
0
  0
LINE
  8
0
 62
7
 10
3.705499999999998
 20
2.982500000000003
 30
0
 11
3.709999999999998
 21
2.987500000000003
 31
0
  0
LINE
  8
0
 62
7
 10
3.709999999999998
 20
2.987500000000003
 30
0
 11
3.716749999999998
 21
2.990000000000003
 31
0
  0
LINE
  8
0
 62
7
 10
3.716749999999998
 20
2.950000000000003
 30
0
 11
3.705499999999998
 21
2.945000000000003
 31
0
  0
LINE
  8
0
 62
7
 10
3.705499999999998
 20
2.945000000000003
 30
0
 11
3.698749999999998
 21
2.937500000000003
 31
0
  0
LINE
  8
0
 62
7
 10
3.698749999999998
 20
2.937500000000003
 30
0
 11
3.694249999999998
 21
2.927500000000003
 31
0
  0
LINE
  8
0
 62
7
 10
3.694249999999998
 20
2.927500000000003
 30
0
 11
3.694249999999998
 21
2.912500000000003
 31
0
  0
LINE
  8
0
 62
7
 10
3.694249999999998
 20
2.912500000000003
 30
0
 11
3.698749999999998
 21
2.902500000000003
 31
0
  0
LINE
  8
0
 62
7
 10
3.698749999999998
 20
2.902500000000003
 30
0
 11
3.705499999999998
 21
2.895000000000003
 31
0
  0
LINE
  8
0
 62
7
 10
3.705499999999998
 20
2.895000000000003
 30
0
 11
3.714499999999998
 21
2.890000000000003
 31
0
  0
LINE
  8
0
 62
7
 10
3.714499999999998
 20
2.890000000000003
 30
0
 11
3.727999999999998
 21
2.890000000000003
 31
0
  0
LINE
  8
0
 62
7
 10
3.727999999999998
 20
2.890000000000003
 30
0
 11
3.736999999999998
 21
2.895000000000003
 31
0
  0
LINE
  8
0
 62
7
 10
3.736999999999998
 20
2.895000000000003
 30
0
 11
3.743749999999998
 21
2.902500000000003
 31
0
  0
LINE
  8
0
 62
7
 10
3.743749999999998
 20
2.902500000000003
 30
0
 11
3.748249999999998
 21
2.912500000000003
 31
0
  0
LINE
  8
0
 62
7
 10
3.748249999999998
 20
2.912500000000003
 30
0
 11
3.748249999999998
 21
2.927500000000003
 31
0
  0
LINE
  8
0
 62
7
 10
3.748249999999998
 20
2.927500000000003
 30
0
 11
3.743749999999998
 21
2.937500000000003
 31
0
  0
LINE
  8
0
 62
7
 10
3.743749999999998
 20
2.937500000000003
 30
0
 11
3.736999999999998
 21
2.945000000000003
 31
0
  0
LINE
  8
0
 62
7
 10
3.736999999999998
 20
2.945000000000003
 30
0
 11
3.725749999999999
 21
2.950000000000003
 31
0
  0
LINE
  8
0
 62
7
 10
3.833749999999998
 20
2.990000000000003
 30
0
 11
3.784249999999998
 21
2.990000000000003
 31
0
  0
LINE
  8
0
 62
7
 10
3.784249999999998
 20
2.990000000000003
 30
0
 11
3.784249999999998
 21
2.940000000000003
 31
0
  0
LINE
  8
0
 62
7
 10
3.784249999999998
 20
2.940000000000003
 30
0
 11
3.788749999999999
 21
2.947500000000003
 31
0
  0
LINE
  8
0
 62
7
 10
3.788749999999999
 20
2.947500000000003
 30
0
 11
3.795499999999998
 21
2.952500000000003
 31
0
  0
LINE
  8
0
 62
7
 10
3.795499999999998
 20
2.952500000000003
 30
0
 11
3.804499999999998
 21
2.955000000000003
 31
0
  0
LINE
  8
0
 62
7
 10
3.804499999999998
 20
2.955000000000003
 30
0
 11
3.817999999999998
 21
2.955000000000003
 31
0
  0
LINE
  8
0
 62
7
 10
3.817999999999998
 20
2.955000000000003
 30
0
 11
3.824749999999998
 21
2.952500000000003
 31
0
  0
LINE
  8
0
 62
7
 10
3.824749999999998
 20
2.952500000000003
 30
0
 11
3.831499999999998
 21
2.947500000000003
 31
0
  0
LINE
  8
0
 62
7
 10
3.831499999999998
 20
2.947500000000003
 30
0
 11
3.835999999999999
 21
2.940000000000003
 31
0
  0
LINE
  8
0
 62
7
 10
3.835999999999999
 20
2.940000000000003
 30
0
 11
3.838249999999999
 21
2.930000000000003
 31
0
  0
LINE
  8
0
 62
7
 10
3.838249999999999
 20
2.930000000000003
 30
0
 11
3.838249999999999
 21
2.915000000000003
 31
0
  0
LINE
  8
0
 62
7
 10
3.838249999999999
 20
2.915000000000003
 30
0
 11
3.835999999999999
 21
2.905000000000003
 31
0
  0
LINE
  8
0
 62
7
 10
3.835999999999999
 20
2.905000000000003
 30
0
 11
3.831499999999998
 21
2.897500000000003
 31
0
  0
LINE
  8
0
 62
7
 10
3.831499999999998
 20
2.897500000000003
 30
0
 11
3.824749999999998
 21
2.892500000000003
 31
0
  0
LINE
  8
0
 62
7
 10
3.824749999999998
 20
2.892500000000003
 30
0
 11
3.817999999999998
 21
2.890000000000003
 31
0
  0
LINE
  8
0
 62
7
 10
3.817999999999998
 20
2.890000000000003
 30
0
 11
3.804499999999998
 21
2.890000000000003
 31
0
  0
LINE
  8
0
 62
7
 10
3.804499999999998
 20
2.890000000000003
 30
0
 11
3.795499999999998
 21
2.892500000000003
 31
0
  0
LINE
  8
0
 62
7
 10
3.795499999999998
 20
2.892500000000003
 30
0
 11
3.788749999999999
 21
2.897500000000003
 31
0
  0
LINE
  8
0
 62
7
 10
3.788749999999999
 20
2.897500000000003
 30
0
 11
3.784249999999998
 21
2.905000000000003
 31
0
  0
LINE
  8
0
 62
7
 10
3.988999999999998
 20
2.942500000000003
 30
0
 11
3.982249999999999
 21
2.952500000000003
 31
0
  0
LINE
  8
0
 62
7
 10
3.982249999999999
 20
2.952500000000003
 30
0
 11
3.975499999999998
 21
2.957500000000003
 31
0
  0
LINE
  8
0
 62
7
 10
3.975499999999998
 20
2.957500000000003
 30
0
 11
3.968749999999998
 21
2.960000000000003
 31
0
  0
LINE
  8
0
 62
7
 10
3.968749999999998
 20
2.960000000000003
 30
0
 11
3.959749999999998
 21
2.960000000000003
 31
0
  0
LINE
  8
0
 62
7
 10
3.959749999999998
 20
2.960000000000003
 30
0
 11
3.952999999999998
 21
2.957500000000003
 31
0
  0
LINE
  8
0
 62
7
 10
3.952999999999998
 20
2.957500000000003
 30
0
 11
3.946249999999998
 21
2.952500000000003
 31
0
  0
LINE
  8
0
 62
7
 10
3.946249999999998
 20
2.952500000000003
 30
0
 11
3.939499999999998
 21
2.942500000000003
 31
0
  0
LINE
  8
0
 62
7
 10
3.939499999999998
 20
2.942500000000003
 30
0
 11
3.937249999999998
 21
2.935000000000003
 31
0
  0
LINE
  8
0
 62
7
 10
3.937249999999998
 20
2.935000000000003
 30
0
 11
3.937249999999998
 21
2.915000000000003
 31
0
  0
LINE
  8
0
 62
7
 10
3.937249999999998
 20
2.915000000000003
 30
0
 11
3.939499999999998
 21
2.907500000000003
 31
0
  0
LINE
  8
0
 62
7
 10
3.939499999999998
 20
2.907500000000003
 30
0
 11
3.946249999999998
 21
2.897500000000003
 31
0
  0
LINE
  8
0
 62
7
 10
3.946249999999998
 20
2.897500000000003
 30
0
 11
3.952999999999998
 21
2.892500000000003
 31
0
  0
LINE
  8
0
 62
7
 10
3.952999999999998
 20
2.892500000000003
 30
0
 11
3.959749999999998
 21
2.890000000000003
 31
0
  0
LINE
  8
0
 62
7
 10
3.959749999999998
 20
2.890000000000003
 30
0
 11
3.968749999999998
 21
2.890000000000003
 31
0
  0
LINE
  8
0
 62
7
 10
3.968749999999998
 20
2.890000000000003
 30
0
 11
3.975499999999998
 21
2.892500000000003
 31
0
  0
LINE
  8
0
 62
7
 10
3.975499999999998
 20
2.892500000000003
 30
0
 11
3.982249999999999
 21
2.897500000000003
 31
0
  0
LINE
  8
0
 62
7
 10
3.982249999999999
 20
2.897500000000003
 30
0
 11
3.988999999999998
 21
2.907500000000003
 31
0
  0
LINE
  8
0
 62
7
 10
4.047499999999999
 20
2.935000000000003
 30
0
 11
4.047499999999999
 21
2.890000000000003
 31
0
  0
LINE
  8
0
 62
7
 10
4.006999999999999
 20
2.960000000000003
 30
0
 11
4.006999999999999
 21
2.935000000000003
 31
0
  0
LINE
  8
0
 62
7
 10
4.006999999999999
 20
2.890000000000003
 30
0
 11
4.006999999999999
 21
2.935000000000003
 31
0
  0
LINE
  8
0
 62
7
 10
4.006999999999999
 20
2.935000000000003
 30
0
 11
4.009249999999998
 21
2.947500000000003
 31
0
  0
LINE
  8
0
 62
7
 10
4.009249999999998
 20
2.947500000000003
 30
0
 11
4.011499999999998
 21
2.952500000000003
 31
0
  0
LINE
  8
0
 62
7
 10
4.011499999999998
 20
2.952500000000003
 30
0
 11
4.015999999999998
 21
2.957500000000003
 31
0
  0
LINE
  8
0
 62
7
 10
4.015999999999998
 20
2.957500000000003
 30
0
 11
4.022749999999998
 21
2.960000000000003
 31
0
  0
LINE
  8
0
 62
7
 10
4.022749999999998
 20
2.960000000000003
 30
0
 11
4.031749999999998
 21
2.960000000000003
 31
0
  0
LINE
  8
0
 62
7
 10
4.031749999999998
 20
2.960000000000003
 30
0
 11
4.038499999999998
 21
2.957500000000003
 31
0
  0
LINE
  8
0
 62
7
 10
4.038499999999998
 20
2.957500000000003
 30
0
 11
4.042999999999998
 21
2.952500000000003
 31
0
  0
LINE
  8
0
 62
7
 10
4.042999999999998
 20
2.952500000000003
 30
0
 11
4.045249999999998
 21
2.947500000000003
 31
0
  0
LINE
  8
0
 62
7
 10
4.045249999999998
 20
2.947500000000003
 30
0
 11
4.047499999999999
 21
2.935000000000003
 31
0
  0
LINE
  8
0
 62
7
 10
4.047499999999999
 20
2.935000000000003
 30
0
 11
4.049749999999999
 21
2.947500000000003
 31
0
  0
LINE
  8
0
 62
7
 10
4.049749999999999
 20
2.947500000000003
 30
0
 11
4.051999999999999
 21
2.952500000000003
 31
0
  0
LINE
  8
0
 62
7
 10
4.051999999999999
 20
2.952500000000003
 30
0
 11
4.056499999999999
 21
2.957500000000003
 31
0
  0
LINE
  8
0
 62
7
 10
4.056499999999999
 20
2.957500000000003
 30
0
 11
4.063249999999999
 21
2.960000000000003
 31
0
  0
LINE
  8
0
 62
7
 10
4.063249999999999
 20
2.960000000000003
 30
0
 11
4.072249999999999
 21
2.960000000000003
 31
0
  0
LINE
  8
0
 62
7
 10
4.072249999999999
 20
2.960000000000003
 30
0
 11
4.078999999999999
 21
2.957500000000003
 31
0
  0
LINE
  8
0
 62
7
 10
4.083499999999998
 20
2.952500000000003
 30
0
 11
4.078999999999999
 21
2.957500000000003
 31
0
  0
LINE
  8
0
 62
7
 10
4.078999999999999
 20
2.957500000000003
 30
0
 11
4.083499999999998
 21
2.952500000000003
 31
0
  0
LINE
  8
0
 62
7
 10
4.083499999999998
 20
2.952500000000003
 30
0
 11
4.085749999999998
 21
2.947500000000003
 31
0
  0
LINE
  8
0
 62
7
 10
4.085749999999998
 20
2.947500000000003
 30
0
 11
4.087999999999998
 21
2.935000000000003
 31
0
  0
LINE
  8
0
 62
7
 10
4.087999999999998
 20
2.935000000000003
 30
0
 11
4.087999999999998
 21
2.890000000000003
 31
0
  0
ARC
  8
0
 62
7
 10
2.239695493961126
 20
3.735304506038883
 30
0
 40
0.5100000000000006
 50
89.96579036663586
 51
180.0342096322686
  0
ARC
  8
0
 62
7
 10
2.820304506038876
 20
3.735304506038875
 30
0
 40
0.5100000000000006
 50
359.9657903669839
 51
90.03420963226868
  0
CIRCLE
  8
0
 62
7
 10
3.330304415133047
 20
3.250000000000003
 30
0
 40
0.06000000000000005
  0
DIMENSION
  8
0
  6
CONTINUOUS
 62
7
  2
*D1
  3
DMST_1
 10
1.274999999999998
 20
11.4993192301141
 30
0
 11
2.51836922443652
 21
11.4993192301141
 31
0
 12
0
 22
0
 32
0
 70
0
 13
3.784999999999998
 23
11.2
 33
0
 14
1.274999999999998
 24
11.2
 34
0
 53
0
  0
DIMENSION
  8
0
  6
CONTINUOUS
 62
7
  2
*D2
  3
DMST_2
 10
4.31378946176121
 20
4.700000000000002
 30
0
 11
4.31378946176121
 21
4.01052692443082
 31
0
 12
0
 22
0
 32
0
 70
0
 13
3.959999999999998
 23
3.250000000000002
 33
0
 14
3.959999999999998
 24
4.700000000000002
 34
0
 50
90
 53
0
  0
DIMENSION
  8
0
  6
CONTINUOUS
 62
7
  2
*D3
  3
DMST_2
 10
1.274999999999998
 20
5.59333160733549
 30
0
 11
2.51836922443652
 21
5.59333160733549
 31
0
 12
0
 22
0
 32
0
 70
0
 13
3.784999999999998
 23
5.219999999999995
 33
0
 14
1.274999999999998
 24
5.219999999999995
 34
0
 53
0
  0
DIMENSION
  8
0
  6
CONTINUOUS
 62
7
  2
*D4
  3
DMST_2
 10
0.734760962357375
 20
4.700000000000003
 30
0
 11
0.734760962357375
 21
4.08139877590416
 31
0
 12
0
 22
0
 32
0
 70
0
 13
1.099999999999998
 23
3.350000000000002
 33
0
 14
1.099999999999998
 24
4.700000000000002
 34
0
 50
90
 53
0
  0
INSERT
  8
0
  2
*D0
 10
0
 20
0
 30
0
  0
ENDSEC
  0
EOF
