  0
SECTION
  2
HEADER
  9
$ACADVER
  1
AC1009
  9
$INSBASE
 10
0
 20
0
  9
$EXTMIN
 10
0.45
 20
2.890000000000003
  9
$EXTMAX
 10
8.257053227729491
 20
11.577645599841
  9
$LIMMIN
 10
0.45
 20
2.890000000000003
  9
$LIMMAX
 10
8.257053227729491
 20
11.577645599841
  9
$VIEWCTR
 10
10
 20
10
  9
$VIEWSIZE
 40
10
  9
$SNAPMODE
 70
0
  9
$SNAPUNIT
 10
1
 20
1
  9
$SNAPBASE
 10
0
 20
0
  9
$SNAPANG
 50
0
  9
$SNAPSTYLE
 70
0
  9
$SNAPISOPAIR
 70
0
  9
$GRIDMODE
 70
0
  9
$GRIDUNIT
 10
0
 20
0
  9
$ORTHOMODE
 70
0
  9
$REGENMODE
 70
1
  9
$FILLMODE
 70
1
  9
$QTEXTMODE
 70
0
  9
$DRAGMODE
 70
2
  9
$LTSCALE
 40
1
  9
$OSMODE
 70
0
  9
$ATTMODE
 70
1
  9
$TEXTSIZE
 40
3.5
  9
$TRACEWID
 40
0.5
  9
$TEXTSTYLE
  7
STANDARD
  9
$CLAYER
  8
0
  9
$CELTYPE
  6
BYLAYER
  9
$CECOLOR
 62
256
  9
$DIMSCALE
 40
1
  9
$DIMASZ
 40
0.18
  9
$DIMEXO
 40
0.0625
  9
$DIMDLI
 40
0.38
  9
$DIMRND
 40
0
  9
$DIMDLE
 40
0
  9
$DIMEXE
 40
0.18
  9
$DIMTP
 40
0
  9
$DIMTM
 40
0
  9
$DIMTXT
 40
0.18
  9
$DIMCEN
 40
0.09
  9
$DIMTSZ
 40
0
  9
$DIMTOL
 70
0
  9
$DIMLIM
 70
0
  9
$DIMTIH
 70
1
  9
$DIMTOH
 70
1
  9
$DIMSE1
 70
0
  9
$DIMSE2
 70
0
  9
$DIMTAD
 70
0
  9
$DIMZIN
 70
0
  9
$DIMBLK
  1

  9
$DIMASO
 70
1
  9
$DIMSHO
 70
1
  9
$DIMPOST
  1

  9
$DIMAPOST
  1

  9
$DIMALT
 70
0
  9
$DIMALTD
 70
2
  9
$DIMALTF
 40
25.4
  9
$DIMLFAC
 40
1
  9
$DIMTOFL
 70
0
  9
$DIMTVP
 40
0
  9
$DIMTIX
 70
0
  9
$DIMSOXD
 70
0
  9
$DIMSAH
 70
0
  9
$DIMBLK1
  1

  9
$DIMBLK2
  1

  9
$DIMSTYLE
  2
*UNNAMED
  9
$DIMCLRD
 70
0
  9
$DIMCLRE
 70
0
  9
$DIMCLRT
 70
0
  9
$DIMTFAC
 40
1
  9
$DIMGAP
 40
0.09
  9
$LUNITS
 70
2
  9
$LUPREC
 70
4
  9
$AXISMODE
 70
0
  9
$AXISUNIT
 10
0
 20
0
  9
$SKETCHINC
 40
0.1
  9
$FILLETRAD
 40
2
  9
$AUNITS
 70
0
  9
$AUPREC
 70
0
  9
$MENU
  1
ACAD
  9
$ELEVATION
 40
0
  9
$THICKNESS
 40
0
  9
$VIEWDIR
 10
0
 20
0
 30
1
  9
$LIMCHECK
 70
0
  9
$BLIPMODE
 70
1
  9
$CHAMFERA
 40
0
  9
$CHAMFERB
 40
0
  9
$FASTZOOM
 70
1
  9
$SKPOLY
 70
0
  9
$ANGBASE
 50
0
  9
$ANGDIR
 70
0
  9
$PDMODE
 70
0
  9
$PDSIZE
 40
0
  9
$PLINEWID
 40
0
  9
$COORDS
 70
2
  0
ENDSEC
  0
SECTION
  2
TABLES
  0
TABLE
  2
DIMSTYLE
 70
2
  0
DIMSTYLE
  2
DMST_1
 70
0
  3

  4

  5

  6

  7

 40
1
 41
0.1
 42
0
 43
0.7
 44
0.2
 45
0
 46
0
 47
0
 48
0
140
0.1
141
0
142
0.1
143
25.4
144
1
145
0
146
1
147
0.2
 71
0
 72
0
 73
0
 74
0
 75
0
 76
0
 77
0
 78
9
170
0
171
2
172
0
173
0
174
0
175
0
176
7
177
7
178
7
  0
DIMSTYLE
  2
DMST_2
 70
0
  3

  4

  5

  6

  7

 40
1
 41
0.1
 42
0
 43
0.7
 44
0.2
 45
0
 46
0
 47
0
 48
0
140
0.1
141
0
142
0.1
143
25.4
144
1
145
0
146
1
147
0.25
 71
0
 72
0
 73
0
 74
0
 75
0
 76
0
 77
0
 78
9
170
0
171
2
172
0
173
0
174
0
175
0
176
7
177
7
178
7
  0
ENDTAB
  0
TABLE
  2
LTYPE
 70
9
  0
LTYPE
  2
CONTINUOUS
 70
64
  3
Solid line
 72
65
 73
0
 40
0
  0
LTYPE
  2
BORDER
 70
64
  3
__ __ . __ __ .
 72
65
 73
6
 40
0.4000889420979407
 49
0.1143111263136973
 49
-0.05715556315684867
 49
0.1143111263136973
 49
-0.05715556315684867
 49
0
 49
-0.05715556315684867
  0
LTYPE
  2
CENTER
 70
64
  3
____ _ ____ _
 72
65
 73
4
 40
0.4572445052547894
 49
0.2857778157842434
 49
-0.05715556315684867
 49
0.05715556315684867
 49
-0.05715556315684867
  0
LTYPE
  2
DASHDOT
 70
64
  3
__ . __ . __ .
 72
65
 73
4
 40
0.2286222526273947
 49
0.1143111263136973
 49
-0.05715556315684867
 49
0
 49
-0.05715556315684867
  0
LTYPE
  2
DASHED
 70
64
  3
__ __ __ __ __
 72
65
 73
2
 40
0.171466689470546
 49
0.1143111263136973
 49
-0.05715556315684867
  0
LTYPE
  2
DIVIDE
 70
64
  3
__ . . __ . . 
 72
65
 73
6
 40
0.2857778157842434
 49
0.1143111263136973
 49
-0.05715556315684867
 49
0
 49
-0.05715556315684867
 49
0
 49
-0.05715556315684867
  0
LTYPE
  2
DOT
 70
64
  3
..............
 72
65
 73
4
 40
0.1143111263136973
 49
0
 49
-0.05715556315684867
 49
0
 49
-0.05715556315684867
  0
LTYPE
  2
HIDDEN
 70
64
  3
_ _ _ _ _ _ _
 72
65
 73
2
 40
0.08573334473527301
 49
0.05715556315684867
 49
-0.02857778157842434
  0
LTYPE
  2
PHANTOM
 70
64
  3
_____ _ _ _____ _ _ 
 72
65
 73
6
 40
0.5715556315684868
 49
0.2857778157842434
 49
-0.05715556315684867
 49
0.05715556315684867
 49
-0.05715556315684867
 49
0.05715556315684867
 49
-0.05715556315684867
  0
ENDTAB
  0
TABLE
  2
LAYER
 70
2
  0
LAYER
  2
0
 70
0
 62
7
  6
CONTINUOUS
  0
ENDTAB
  0
TABLE
  2
STYLE
 70
4
  0
STYLE
  2
STANDARD
 70
0
 40
0
 41
1
 50
0
 71
0
 42
3.5
  3
txt
  4

  0
STYLE
  2
SIMPLEX
 70
0
 40
0
 41
1
 50
0
 71
0
 42
3.5
  3
simplex
  4

  0
STYLE
  2
COMPLEX
 70
0
 40
0
 41
1
 50
0
 71
0
 42
3.5
  3
complex
  4

  0
STYLE
  2
ITALIC
 70
0
 40
0
 41
1
 50
0
 71
0
 42
3.5
  3
italic
  4

  0
ENDTAB
  0
TABLE
  2
VIEW
 70
0
  0
ENDTAB
  0
ENDSEC
  0
SECTION
  2
BLOCKS
  0
BLOCK
  8
0
  2
*X0
 70
1
 10
0
 20
0
 30
0
  0
LINE
  8
0
 62
7
 10
7.424999999999999
 20
7.955330085889909
 30
0
 11
7.569669914110086
 21
8.099999999999996
 31
0
  0
LINE
  8
0
 62
7
 10
7.424999999999999
 20
8.06139610306789
 30
0
 11
7.463603896932104
 21
8.099999999999994
 31
0
  0
LINE
  8
0
 62
7
 10
7.525735931288069
 20
7.949999999999995
 30
0
 11
7.599999999999999
 21
8.024264068711926
 31
0
  0
ENDBLK
  8
0
  0
BLOCK
  8
0
  2
*X1
 70
1
 10
0
 20
0
 30
0
  0
LINE
  8
0
 62
7
 10
7.424999999999999
 20
10.71304653251744
 30
0
 11
7.561953467482555
 21
10.85
 31
0
  0
LINE
  8
0
 62
7
 10
7.424999999999999
 20
10.50091449816147
 30
0
 11
7.6
 21
10.67591449816148
 31
0
  0
LINE
  8
0
 62
7
 10
7.424999999999999
 20
10.28878246380551
 30
0
 11
7.6
 21
10.46378246380551
 31
0
  0
LINE
  8
0
 62
7
 10
7.424999999999999
 20
10.07665042944955
 30
0
 11
7.6
 21
10.25165042944955
 31
0
  0
LINE
  8
0
 62
7
 10
7.424999999999999
 20
9.864518395093583
 30
0
 11
7.6
 21
10.03951839509358
 31
0
  0
LINE
  8
0
 62
7
 10
7.424999999999999
 20
9.652386360737619
 30
0
 11
7.6
 21
9.82738636073762
 31
0
  0
LINE
  8
0
 62
7
 10
7.424999999999999
 20
9.440254326381655
 30
0
 11
7.6
 21
9.615254326381656
 31
0
  0
LINE
  8
0
 62
7
 10
7.424999999999999
 20
9.228122292025692
 30
0
 11
7.6
 21
9.403122292025692
 31
0
  0
LINE
  8
0
 62
7
 10
7.424999999999999
 20
9.015990257669728
 30
0
 11
7.6
 21
9.190990257669728
 31
0
  0
LINE
  8
0
 62
7
 10
7.424999999999999
 20
8.803858223313764
 30
0
 11
7.6
 21
8.978858223313765
 31
0
  0
LINE
  8
0
 62
7
 10
7.424999999999999
 20
8.5917261889578
 30
0
 11
7.6
 21
8.766726188957801
 31
0
  0
LINE
  8
0
 62
7
 10
7.424999999999999
 20
8.379594154601836
 30
0
 11
7.6
 21
8.554594154601837
 31
0
  0
LINE
  8
0
 62
7
 10
7.557537879754123
 20
8.299999999999995
 30
0
 11
7.6
 21
8.342462120245873
 31
0
  0
LINE
  8
0
 62
7
 10
7.425
 20
10.81911254969542
 30
0
 11
7.455887450304571
 21
10.85
 31
0
  0
LINE
  8
0
 62
7
 10
7.425
 20
10.60698051533946
 30
0
 11
7.600000000000001
 21
10.78198051533946
 31
0
  0
LINE
  8
0
 62
7
 10
7.425
 20
10.39484848098349
 30
0
 11
7.600000000000001
 21
10.56984848098349
 31
0
  0
LINE
  8
0
 62
7
 10
7.425
 20
10.18271644662753
 30
0
 11
7.600000000000001
 21
10.35771644662753
 31
0
  0
LINE
  8
0
 62
7
 10
7.425
 20
9.970584412271567
 30
0
 11
7.600000000000001
 21
10.14558441227157
 31
0
  0
LINE
  8
0
 62
7
 10
7.425
 20
9.758452377915603
 30
0
 11
7.600000000000001
 21
9.933452377915602
 31
0
  0
LINE
  8
0
 62
7
 10
7.425
 20
9.546320343559639
 30
0
 11
7.600000000000001
 21
9.721320343559638
 31
0
  0
LINE
  8
0
 62
7
 10
7.425
 20
9.334188309203675
 30
0
 11
7.600000000000001
 21
9.509188309203674
 31
0
  0
LINE
  8
0
 62
7
 10
7.425
 20
9.122056274847711
 30
0
 11
7.600000000000001
 21
9.29705627484771
 31
0
  0
LINE
  8
0
 62
7
 10
7.425
 20
8.909924240491748
 30
0
 11
7.600000000000001
 21
9.084924240491747
 31
0
  0
LINE
  8
0
 62
7
 10
7.425
 20
8.697792206135784
 30
0
 11
7.600000000000001
 21
8.872792206135783
 31
0
  0
LINE
  8
0
 62
7
 10
7.425
 20
8.48566017177982
 30
0
 11
7.600000000000001
 21
8.660660171779819
 31
0
  0
LINE
  8
0
 62
7
 10
7.451471862576141
 20
8.299999999999997
 30
0
 11
7.600000000000001
 21
8.448528137423855
 31
0
  0
ENDBLK
  8
0
  0
BLOCK
  8
0
  2
*X2
 70
1
 10
0
 20
0
 30
0
  0
LINE
  8
0
 62
7
 10
7.424999999999998
 20
11.13731060122937
 30
0
 11
7.487689398770626
 21
11.2
 31
0
  0
LINE
  8
0
 62
7
 10
7.549821433126593
 20
11.05
 30
0
 11
7.599999999999997
 21
11.10017856687341
 31
0
  0
LINE
  8
0
 62
7
 10
7.44375541594861
 20
11.05
 30
0
 11
7.593755415948609
 21
11.2
 31
0
  0
ENDBLK
  8
0
  0
BLOCK
  8
0
  2
*X3
 70
1
 10
0
 20
0
 30
0
  0
LINE
  8
0
 62
7
 10
4.739999999999997
 20
8.028046532517441
 30
0
 11
4.811953467482551
 21
8.099999999999996
 31
0
  0
LINE
  8
0
 62
7
 10
4.874085501838516
 20
7.949999999999996
 30
0
 11
4.914999999999999
 21
7.99091449816148
 31
0
  0
LINE
  8
0
 62
7
 10
4.768019484660533
 20
7.949999999999996
 30
0
 11
4.914999999999999
 21
8.096980515339462
 31
0
  0
ENDBLK
  8
0
  0
BLOCK
  8
0
  2
*X4
 70
1
 10
0
 20
0
 30
0
  0
LINE
  8
0
 62
7
 10
4.739999999999999
 20
10.78576297914497
 30
0
 11
4.80423702085502
 21
10.85
 31
0
  0
LINE
  8
0
 62
7
 10
4.739999999999999
 20
10.57363094478901
 30
0
 11
4.914999999999999
 21
10.74863094478901
 31
0
  0
LINE
  8
0
 62
7
 10
4.739999999999999
 20
10.36149891043305
 30
0
 11
4.914999999999999
 21
10.53649891043305
 31
0
  0
LINE
  8
0
 62
7
 10
4.739999999999999
 20
10.14936687607708
 30
0
 11
4.914999999999999
 21
10.32436687607708
 31
0
  0
LINE
  8
0
 62
7
 10
4.739999999999999
 20
9.93723484172112
 30
0
 11
4.914999999999999
 21
10.11223484172112
 31
0
  0
LINE
  8
0
 62
7
 10
4.739999999999999
 20
9.725102807365156
 30
0
 11
4.914999999999999
 21
9.900102807365155
 31
0
  0
LINE
  8
0
 62
7
 10
4.739999999999999
 20
9.512970773009192
 30
0
 11
4.914999999999999
 21
9.687970773009191
 31
0
  0
LINE
  8
0
 62
7
 10
4.739999999999999
 20
9.300838738653228
 30
0
 11
4.914999999999999
 21
9.475838738653227
 31
0
  0
LINE
  8
0
 62
7
 10
4.739999999999999
 20
9.088706704297264
 30
0
 11
4.914999999999999
 21
9.263706704297263
 31
0
  0
LINE
  8
0
 62
7
 10
4.739999999999999
 20
8.8765746699413
 30
0
 11
4.914999999999999
 21
9.051574669941299
 31
0
  0
LINE
  8
0
 62
7
 10
4.739999999999999
 20
8.664442635585337
 30
0
 11
4.914999999999999
 21
8.839442635585335
 31
0
  0
LINE
  8
0
 62
7
 10
4.739999999999999
 20
8.452310601229373
 30
0
 11
4.914999999999999
 21
8.627310601229372
 31
0
  0
LINE
  8
0
 62
7
 10
4.799821433126587
 20
8.299999999999997
 30
0
 11
4.914999999999999
 21
8.415178566873408
 31
0
  0
LINE
  8
0
 62
7
 10
4.739999999999998
 20
10.67969696196699
 30
0
 11
4.910303038033002
 21
10.85
 31
0
  0
LINE
  8
0
 62
7
 10
4.739999999999998
 20
10.46756492761103
 30
0
 11
4.914999999999999
 21
10.64256492761103
 31
0
  0
LINE
  8
0
 62
7
 10
4.739999999999998
 20
10.25543289325507
 30
0
 11
4.914999999999999
 21
10.43043289325506
 31
0
  0
LINE
  8
0
 62
7
 10
4.739999999999998
 20
10.0433008588991
 30
0
 11
4.914999999999999
 21
10.2183008588991
 31
0
  0
LINE
  8
0
 62
7
 10
4.739999999999998
 20
9.831168824543138
 30
0
 11
4.914999999999999
 21
10.00616882454314
 31
0
  0
LINE
  8
0
 62
7
 10
4.739999999999998
 20
9.619036790187174
 30
0
 11
4.914999999999999
 21
9.794036790187173
 31
0
  0
LINE
  8
0
 62
7
 10
4.739999999999998
 20
9.40690475583121
 30
0
 11
4.914999999999999
 21
9.581904755831209
 31
0
  0
LINE
  8
0
 62
7
 10
4.739999999999998
 20
9.194772721475246
 30
0
 11
4.914999999999999
 21
9.369772721475245
 31
0
  0
LINE
  8
0
 62
7
 10
4.739999999999998
 20
8.982640687119282
 30
0
 11
4.914999999999999
 21
9.157640687119281
 31
0
  0
LINE
  8
0
 62
7
 10
4.739999999999998
 20
8.770508652763318
 30
0
 11
4.914999999999999
 21
8.945508652763317
 31
0
  0
LINE
  8
0
 62
7
 10
4.739999999999998
 20
8.558376618407355
 30
0
 11
4.914999999999999
 21
8.733376618407354
 31
0
  0
LINE
  8
0
 62
7
 10
4.739999999999998
 20
8.346244584051391
 30
0
 11
4.914999999999999
 21
8.52124458405139
 31
0
  0
LINE
  8
0
 62
7
 10
4.90588745030457
 20
8.299999999999997
 30
0
 11
4.914999999999999
 21
8.309112549695426
 31
0
  0
ENDBLK
  8
0
  0
BLOCK
  8
0
  2
*X5
 70
1
 10
0
 20
0
 30
0
  0
LINE
  8
0
 62
7
 10
4.792104986499057
 20
11.05
 30
0
 11
4.914999999999999
 21
11.17289501350094
 31
0
  0
LINE
  8
0
 62
7
 10
4.739999999999997
 20
11.10396103067892
 30
0
 11
4.836038969321073
 21
11.2
 31
0
  0
LINE
  8
0
 62
7
 10
4.898171003677041
 20
11.05
 30
0
 11
4.914999999999999
 21
11.06682899632296
 31
0
  0
ENDBLK
  8
0
  0
BLOCK
  8
0
  2
*X6
 70
1
 10
0
 20
0
 30
0
  0
LINE
  8
0
 62
7
  6
DASHED
 10
4.599821433126593
 20
8.099999999999996
 30
0
 11
4.799821433126593
 21
8.299999999999995
 31
0
  0
LINE
  8
0
 62
7
  6
DASHED
 10
4.811953467482557
 20
8.099999999999996
 30
0
 11
5.011953467482557
 21
8.299999999999995
 31
0
  0
LINE
  8
0
 62
7
  6
DASHED
 10
5.02408550183852
 20
8.099999999999996
 30
0
 11
5.224085501838521
 21
8.299999999999995
 31
0
  0
LINE
  8
0
 62
7
  6
DASHED
 10
5.236217536194484
 20
8.099999999999996
 30
0
 11
5.436217536194484
 21
8.299999999999995
 31
0
  0
LINE
  8
0
 62
7
  6
DASHED
 10
5.448349570550448
 20
8.099999999999996
 30
0
 11
5.648349570550448
 21
8.299999999999995
 31
0
  0
LINE
  8
0
 62
7
  6
DASHED
 10
5.660481604906412
 20
8.099999999999996
 30
0
 11
5.860481604906412
 21
8.299999999999995
 31
0
  0
LINE
  8
0
 62
7
  6
DASHED
 10
5.872613639262376
 20
8.099999999999996
 30
0
 11
6.072613639262376
 21
8.299999999999995
 31
0
  0
LINE
  8
0
 62
7
  6
DASHED
 10
6.08474567361834
 20
8.099999999999996
 30
0
 11
6.28474567361834
 21
8.299999999999995
 31
0
  0
LINE
  8
0
 62
7
  6
DASHED
 10
6.296877707974303
 20
8.099999999999996
 30
0
 11
6.496877707974304
 21
8.299999999999995
 31
0
  0
LINE
  8
0
 62
7
  6
DASHED
 10
6.509009742330267
 20
8.099999999999996
 30
0
 11
6.709009742330267
 21
8.299999999999995
 31
0
  0
LINE
  8
0
 62
7
  6
DASHED
 10
6.721141776686231
 20
8.099999999999996
 30
0
 11
6.921141776686231
 21
8.299999999999995
 31
0
  0
LINE
  8
0
 62
7
  6
DASHED
 10
6.933273811042195
 20
8.099999999999996
 30
0
 11
7.133273811042195
 21
8.299999999999995
 31
0
  0
LINE
  8
0
 62
7
  6
DASHED
 10
7.145405845398159
 20
8.099999999999996
 30
0
 11
7.345405845398159
 21
8.299999999999995
 31
0
  0
LINE
  8
0
 62
7
  6
DASHED
 10
7.357537879754123
 20
8.099999999999996
 30
0
 11
7.557537879754123
 21
8.299999999999995
 31
0
  0
LINE
  8
0
 62
7
  6
DASHED
 10
7.569669914110086
 20
8.099999999999996
 30
0
 11
7.749999999999998
 21
8.280330085889908
 31
0
  0
LINE
  8
0
 62
7
 10
4.589999999999998
 20
8.196244584051389
 30
0
 11
4.693755415948612
 21
8.299999999999997
 31
0
  0
LINE
  8
0
 62
7
 10
4.705887450304576
 20
8.099999999999996
 30
0
 11
4.905887450304576
 21
8.299999999999997
 31
0
  0
LINE
  8
0
 62
7
 10
4.91801948466054
 20
8.099999999999996
 30
0
 11
5.11801948466054
 21
8.299999999999997
 31
0
  0
LINE
  8
0
 62
7
 10
5.130151519016504
 20
8.099999999999996
 30
0
 11
5.330151519016503
 21
8.299999999999997
 31
0
  0
LINE
  8
0
 62
7
 10
5.342283553372468
 20
8.099999999999996
 30
0
 11
5.542283553372467
 21
8.299999999999997
 31
0
  0
LINE
  8
0
 62
7
 10
5.554415587728432
 20
8.099999999999996
 30
0
 11
5.754415587728431
 21
8.299999999999997
 31
0
  0
LINE
  8
0
 62
7
 10
5.766547622084396
 20
8.099999999999996
 30
0
 11
5.966547622084395
 21
8.299999999999997
 31
0
  0
LINE
  8
0
 62
7
 10
5.978679656440359
 20
8.099999999999996
 30
0
 11
6.178679656440359
 21
8.299999999999997
 31
0
  0
LINE
  8
0
 62
7
 10
6.190811690796323
 20
8.099999999999996
 30
0
 11
6.390811690796323
 21
8.299999999999997
 31
0
  0
LINE
  8
0
 62
7
 10
6.402943725152287
 20
8.099999999999996
 30
0
 11
6.602943725152286
 21
8.299999999999997
 31
0
  0
LINE
  8
0
 62
7
 10
6.615075759508251
 20
8.099999999999996
 30
0
 11
6.81507575950825
 21
8.299999999999997
 31
0
  0
LINE
  8
0
 62
7
 10
6.827207793864215
 20
8.099999999999996
 30
0
 11
7.027207793864214
 21
8.299999999999997
 31
0
  0
LINE
  8
0
 62
7
 10
7.039339828220179
 20
8.099999999999996
 30
0
 11
7.239339828220178
 21
8.299999999999997
 31
0
  0
LINE
  8
0
 62
7
 10
7.251471862576143
 20
8.099999999999996
 30
0
 11
7.451471862576142
 21
8.299999999999997
 31
0
  0
LINE
  8
0
 62
7
 10
7.463603896932106
 20
8.099999999999996
 30
0
 11
7.663603896932106
 21
8.299999999999997
 31
0
  0
LINE
  8
0
 62
7
 10
7.67573593128807
 20
8.099999999999996
 30
0
 11
7.749999999999999
 21
8.174264068711926
 31
0
  0
ENDBLK
  8
0
  0
BLOCK
  8
0
  2
*X7
 70
1
 10
0
 20
0
 30
0
  0
LINE
  8
0
 62
7
  6
DASHED
 10
4.592104986499063
 20
10.85
 30
0
 11
4.792104986499063
 21
11.05
 31
0
  0
LINE
  8
0
 62
7
  6
DASHED
 10
4.804237020855027
 20
10.85
 30
0
 11
5.004237020855027
 21
11.05
 31
0
  0
LINE
  8
0
 62
7
  6
DASHED
 10
5.016369055210991
 20
10.85
 30
0
 11
5.216369055210991
 21
11.05
 31
0
  0
LINE
  8
0
 62
7
  6
DASHED
 10
5.228501089566954
 20
10.85
 30
0
 11
5.428501089566955
 21
11.05
 31
0
  0
LINE
  8
0
 62
7
  6
DASHED
 10
5.440633123922918
 20
10.85
 30
0
 11
5.640633123922918
 21
11.05
 31
0
  0
LINE
  8
0
 62
7
  6
DASHED
 10
5.652765158278882
 20
10.85
 30
0
 11
5.852765158278882
 21
11.05
 31
0
  0
LINE
  8
0
 62
7
  6
DASHED
 10
5.864897192634846
 20
10.85
 30
0
 11
6.064897192634846
 21
11.05
 31
0
  0
LINE
  8
0
 62
7
  6
DASHED
 10
6.07702922699081
 20
10.85
 30
0
 11
6.27702922699081
 21
11.05
 31
0
  0
LINE
  8
0
 62
7
  6
DASHED
 10
6.289161261346774
 20
10.85
 30
0
 11
6.489161261346774
 21
11.05
 31
0
  0
LINE
  8
0
 62
7
  6
DASHED
 10
6.501293295702737
 20
10.85
 30
0
 11
6.701293295702738
 21
11.05
 31
0
  0
LINE
  8
0
 62
7
  6
DASHED
 10
6.713425330058701
 20
10.85
 30
0
 11
6.913425330058701
 21
11.05
 31
0
  0
LINE
  8
0
 62
7
  6
DASHED
 10
6.925557364414665
 20
10.85
 30
0
 11
7.125557364414665
 21
11.05
 31
0
  0
LINE
  8
0
 62
7
  6
DASHED
 10
7.137689398770629
 20
10.85
 30
0
 11
7.337689398770629
 21
11.05
 31
0
  0
LINE
  8
0
 62
7
  6
DASHED
 10
7.349821433126593
 20
10.85
 30
0
 11
7.549821433126593
 21
11.05
 31
0
  0
LINE
  8
0
 62
7
  6
DASHED
 10
7.561953467482557
 20
10.85
 30
0
 11
7.75
 21
11.03804653251744
 31
0
  0
LINE
  8
0
 62
7
 10
4.589999999999998
 20
10.95396103067893
 30
0
 11
4.68603896932108
 21
11.05
 31
0
  0
LINE
  8
0
 62
7
 10
4.698171003677044
 20
10.85
 30
0
 11
4.898171003677044
 21
11.05
 31
0
  0
LINE
  8
0
 62
7
 10
4.910303038033008
 20
10.85
 30
0
 11
5.110303038033008
 21
11.05
 31
0
  0
LINE
  8
0
 62
7
 10
5.122435072388972
 20
10.85
 30
0
 11
5.322435072388972
 21
11.05
 31
0
  0
LINE
  8
0
 62
7
 10
5.334567106744935
 20
10.85
 30
0
 11
5.534567106744936
 21
11.05
 31
0
  0
LINE
  8
0
 62
7
 10
5.546699141100899
 20
10.85
 30
0
 11
5.746699141100899
 21
11.05
 31
0
  0
LINE
  8
0
 62
7
 10
5.758831175456863
 20
10.85
 30
0
 11
5.958831175456863
 21
11.05
 31
0
  0
LINE
  8
0
 62
7
 10
5.970963209812827
 20
10.85
 30
0
 11
6.170963209812827
 21
11.05
 31
0
  0
LINE
  8
0
 62
7
 10
6.183095244168791
 20
10.85
 30
0
 11
6.383095244168791
 21
11.05
 31
0
  0
LINE
  8
0
 62
7
 10
6.395227278524755
 20
10.85
 30
0
 11
6.595227278524755
 21
11.05
 31
0
  0
LINE
  8
0
 62
7
 10
6.607359312880718
 20
10.85
 30
0
 11
6.807359312880719
 21
11.05
 31
0
  0
LINE
  8
0
 62
7
 10
6.819491347236682
 20
10.85
 30
0
 11
7.019491347236682
 21
11.05
 31
0
  0
LINE
  8
0
 62
7
 10
7.031623381592646
 20
10.85
 30
0
 11
7.231623381592646
 21
11.05
 31
0
  0
LINE
  8
0
 62
7
 10
7.24375541594861
 20
10.85
 30
0
 11
7.44375541594861
 21
11.05
 31
0
  0
LINE
  8
0
 62
7
 10
7.455887450304574
 20
10.85
 30
0
 11
7.655887450304574
 21
11.05
 31
0
  0
LINE
  8
0
 62
7
 10
7.668019484660538
 20
10.85
 30
0
 11
7.749999999999999
 21
10.93198051533946
 31
0
  0
ENDBLK
  8
0
  0
BLOCK
  8
0
  2
*X8
 70
1
 10
0
 20
0
 30
0
  0
LINE
  8
0
 62
7
 10
0.5
 20
8.03068721963673
 30
0
 11
0.5693127803632656
 21
8.099999999999996
 31
0
  0
LINE
  8
0
 62
7
 10
0.6314448147192295
 20
7.949999999999995
 30
0
 11
0.7399999999999998
 21
8.058555185280767
 31
0
  0
LINE
  8
0
 62
7
 10
0.5253787975412476
 20
7.949999999999996
 30
0
 11
0.6753787975412489
 21
8.099999999999998
 31
0
  0
LINE
  8
0
 62
7
 10
0.7375108318972119
 20
7.949999999999996
 30
0
 11
0.7400000000000002
 21
7.952489168102783
 31
0
  0
ENDBLK
  8
0
  0
BLOCK
  8
0
  2
*X9
 70
1
 10
0
 20
0
 30
0
  0
LINE
  8
0
 62
7
 10
0.5000000000000004
 20
10.78840366626426
 30
0
 11
0.5615963337357339
 21
10.85
 31
0
  0
LINE
  8
0
 62
7
 10
0.5000000000000004
 20
10.5762716319083
 30
0
 11
0.7400000000000002
 21
10.8162716319083
 31
0
  0
LINE
  8
0
 62
7
 10
0.5000000000000004
 20
10.36413959755233
 30
0
 11
0.7400000000000002
 21
10.60413959755233
 31
0
  0
LINE
  8
0
 62
7
 10
0.5000000000000004
 20
10.15200756319637
 30
0
 11
0.7400000000000002
 21
10.39200756319637
 31
0
  0
LINE
  8
0
 62
7
 10
0.5000000000000004
 20
9.939875528840407
 30
0
 11
0.7400000000000002
 21
10.17987552884041
 31
0
  0
LINE
  8
0
 62
7
 10
0.5000000000000004
 20
9.727743494484443
 30
0
 11
0.7400000000000002
 21
9.967743494484441
 31
0
  0
LINE
  8
0
 62
7
 10
0.5000000000000004
 20
9.515611460128479
 30
0
 11
0.7400000000000002
 21
9.755611460128478
 31
0
  0
LINE
  8
0
 62
7
 10
0.5000000000000004
 20
9.303479425772515
 30
0
 11
0.7400000000000002
 21
9.543479425772514
 31
0
  0
LINE
  8
0
 62
7
 10
0.5000000000000004
 20
9.091347391416551
 30
0
 11
0.7400000000000002
 21
9.33134739141655
 31
0
  0
LINE
  8
0
 62
7
 10
0.5000000000000004
 20
8.879215357060588
 30
0
 11
0.7400000000000002
 21
9.119215357060586
 31
0
  0
LINE
  8
0
 62
7
 10
0.5000000000000004
 20
8.667083322704624
 30
0
 11
0.7400000000000002
 21
8.907083322704622
 31
0
  0
LINE
  8
0
 62
7
 10
0.5000000000000004
 20
8.45495128834866
 30
0
 11
0.7400000000000002
 21
8.694951288348658
 31
0
  0
LINE
  8
0
 62
7
 10
0.5571807460073028
 20
8.299999999999997
 30
0
 11
0.7400000000000002
 21
8.482819253992695
 31
0
  0
LINE
  8
0
 62
7
 10
0.5
 20
10.68233764908628
 30
0
 11
0.6676623509137176
 21
10.85
 31
0
  0
LINE
  8
0
 62
7
 10
0.5
 20
10.47020561473031
 30
0
 11
0.7400000000000007
 21
10.71020561473031
 31
0
  0
LINE
  8
0
 62
7
 10
0.5
 20
10.25807358037435
 30
0
 11
0.7400000000000007
 21
10.49807358037435
 31
0
  0
LINE
  8
0
 62
7
 10
0.5
 20
10.04594154601839
 30
0
 11
0.7400000000000007
 21
10.28594154601839
 31
0
  0
LINE
  8
0
 62
7
 10
0.5
 20
9.833809511662423
 30
0
 11
0.7400000000000007
 21
10.07380951166242
 31
0
  0
LINE
  8
0
 62
7
 10
0.5
 20
9.621677477306459
 30
0
 11
0.7400000000000007
 21
9.861677477306458
 31
0
  0
LINE
  8
0
 62
7
 10
0.5
 20
9.409545442950495
 30
0
 11
0.7400000000000007
 21
9.649545442950494
 31
0
  0
LINE
  8
0
 62
7
 10
0.5
 20
9.197413408594532
 30
0
 11
0.7400000000000007
 21
9.43741340859453
 31
0
  0
LINE
  8
0
 62
7
 10
0.5
 20
8.985281374238568
 30
0
 11
0.7400000000000007
 21
9.225281374238566
 31
0
  0
LINE
  8
0
 62
7
 10
0.5
 20
8.773149339882604
 30
0
 11
0.7400000000000007
 21
9.013149339882602
 31
0
  0
LINE
  8
0
 62
7
 10
0.5
 20
8.56101730552664
 30
0
 11
0.7400000000000007
 21
8.801017305526639
 31
0
  0
LINE
  8
0
 62
7
 10
0.5
 20
8.348885271170676
 30
0
 11
0.7400000000000007
 21
8.588885271170675
 31
0
  0
LINE
  8
0
 62
7
 10
0.6632467631852861
 20
8.299999999999997
 30
0
 11
0.7400000000000007
 21
8.376753236814711
 31
0
  0
ENDBLK
  8
0
  0
BLOCK
  8
0
  2
*X10
 70
1
 10
0
 20
0
 30
0
  0
LINE
  8
0
 62
7
 10
0.549464299379772
 20
11.05
 30
0
 11
0.6994642993797706
 21
11.2
 31
0
  0
LINE
  8
0
 62
7
 10
0.5
 20
11.10660171779821
 30
0
 11
0.5933982822017896
 21
11.2
 31
0
  0
LINE
  8
0
 62
7
 10
0.655530316557754
 20
11.05
 30
0
 11
0.7400000000000002
 21
11.13446968344225
 31
0
  0
ENDBLK
  8
0
  0
BLOCK
  8
0
  2
*X11
 70
1
 10
0
 20
0
 30
0
  0
LINE
  8
0
 62
7
  6
DASHED
 10
2.089999999999999
 20
8.135762979144978
 30
0
 11
2.254237020855017
 21
8.299999999999997
 31
0
  0
LINE
  8
0
 62
7
  6
DASHED
 10
2.26636905521098
 20
8.099999999999996
 30
0
 11
2.389999999999997
 21
8.223630944789013
 31
0
  0
LINE
  8
0
 62
7
 10
2.089999999999997
 20
8.24182899632296
 30
0
 11
2.148171003677036
 21
8.299999999999997
 31
0
  0
LINE
  8
0
 62
7
 10
2.160303038032999
 20
8.099999999999996
 30
0
 11
2.360303038033
 21
8.299999999999997
 31
0
  0
LINE
  8
0
 62
7
 10
2.372435072388963
 20
8.099999999999996
 30
0
 11
2.389999999999997
 21
8.11756492761103
 31
0
  0
ENDBLK
  8
0
  0
BLOCK
  8
0
  2
*X12
 70
1
 10
0
 20
0
 30
0
  0
LINE
  8
0
 62
7
  6
DASHED
 10
2.089999999999998
 20
10.89347942577251
 30
0
 11
2.246520574227487
 21
11.05
 31
0
  0
LINE
  8
0
 62
7
  6
DASHED
 10
2.258652608583449
 20
10.85
 30
0
 11
2.389999999999997
 21
10.98134739141655
 31
0
  0
LINE
  8
0
 62
7
 10
2.089999999999998
 20
10.9995454429505
 30
0
 11
2.140454557049504
 21
11.05
 31
0
  0
LINE
  8
0
 62
7
 10
2.152586591405466
 20
10.85
 30
0
 11
2.352586591405468
 21
11.05
 31
0
  0
LINE
  8
0
 62
7
 10
2.36471862576143
 20
10.85
 30
0
 11
2.389999999999998
 21
10.87528137423857
 31
0
  0
ENDBLK
  8
0
  0
BLOCK
  8
0
  2
*X13
 70
1
 10
0
 20
0
 30
0
  0
LINE
  8
0
 62
7
  6
DASHED
 10
0.4999999999999991
 20
11.00053570062023
 30
0
 11
0.5494642993797729
 21
11.05
 31
0
  0
LINE
  8
0
 62
7
  6
DASHED
 10
0.5615963337357357
 20
10.85
 30
0
 11
0.7399999999999993
 21
11.02840366626426
 31
0
  0
LINE
  8
0
 62
7
 10
0.5000000000000009
 20
10.89446968344225
 30
0
 11
0.655530316557754
 21
11.05
 31
0
  0
LINE
  8
0
 62
7
 10
0.6676623509137176
 20
10.85
 30
0
 11
0.7400000000000002
 21
10.92233764908628
 31
0
  0
ENDBLK
  8
0
  0
BLOCK
  8
0
  2
*X14
 70
1
 10
0
 20
0
 30
0
  0
LINE
  8
0
 62
7
  6
DASHED
 10
0.4999999999999991
 20
8.242819253992693
 30
0
 11
0.5571807460073028
 21
8.299999999999997
 31
0
  0
LINE
  8
0
 62
7
  6
DASHED
 10
0.5693127803632669
 20
8.099999999999996
 30
0
 11
0.7399999999999989
 21
8.270687219636727
 31
0
  0
LINE
  8
0
 62
7
 10
0.4999999999999991
 20
8.136753236814712
 30
0
 11
0.6632467631852856
 21
8.299999999999997
 31
0
  0
LINE
  8
0
 62
7
 10
0.6753787975412489
 20
8.099999999999998
 30
0
 11
0.7399999999999998
 21
8.164621202458747
 31
0
  0
ENDBLK
  8
0
  0
BLOCK
  8
0
  2
*X15
 70
1
 10
0
 20
0
 30
0
  0
LINE
  8
0
 62
7
 10
4.739999999999998
 20
5.270330085889908
 30
0
 11
4.839669914110085
 21
5.369999999999996
 31
0
  0
LINE
  8
0
 62
7
 10
4.589999999999999
 20
5.12033008588991
 30
0
 11
4.689669914110085
 21
5.219999999999995
 31
0
  0
LINE
  8
0
 62
7
 10
4.661801948466064
 20
4.980000000000002
 30
0
 11
4.914999999999999
 21
5.233198051533946
 31
0
  0
LINE
  8
0
 62
7
 10
4.873933982822027
 20
4.980000000000002
 30
0
 11
5.113933982822018
 21
5.219999999999995
 31
0
  0
LINE
  8
0
 62
7
 10
5.086066017177991
 20
4.980000000000002
 30
0
 11
5.326066017177982
 21
5.219999999999995
 31
0
  0
LINE
  8
0
 62
7
 10
5.298198051533955
 20
4.980000000000002
 30
0
 11
5.538198051533946
 21
5.219999999999995
 31
0
  0
LINE
  8
0
 62
7
 10
5.510330085889919
 20
4.980000000000002
 30
0
 11
5.750330085889909
 21
5.219999999999995
 31
0
  0
LINE
  8
0
 62
7
 10
5.722462120245883
 20
4.980000000000002
 30
0
 11
5.962462120245873
 21
5.219999999999995
 31
0
  0
LINE
  8
0
 62
7
 10
5.934594154601847
 20
4.980000000000002
 30
0
 11
6.174594154601837
 21
5.219999999999995
 31
0
  0
LINE
  8
0
 62
7
 10
6.14672618895781
 20
4.980000000000002
 30
0
 11
6.386726188957801
 21
5.219999999999995
 31
0
  0
LINE
  8
0
 62
7
 10
6.358858223313774
 20
4.980000000000002
 30
0
 11
6.598858223313765
 21
5.219999999999995
 31
0
  0
LINE
  8
0
 62
7
 10
6.570990257669738
 20
4.980000000000002
 30
0
 11
6.810990257669729
 21
5.219999999999995
 31
0
  0
LINE
  8
0
 62
7
 10
6.783122292025702
 20
4.980000000000002
 30
0
 11
7.023122292025692
 21
5.219999999999995
 31
0
  0
LINE
  8
0
 62
7
 10
6.995254326381666
 20
4.980000000000002
 30
0
 11
7.235254326381656
 21
5.219999999999995
 31
0
  0
LINE
  8
0
 62
7
 10
7.20738636073763
 20
4.980000000000002
 30
0
 11
7.59738636073762
 21
5.369999999999996
 31
0
  0
LINE
  8
0
 62
7
 10
7.419518395093593
 20
4.980000000000002
 30
0
 11
7.659518395093586
 21
5.219999999999995
 31
0
  0
LINE
  8
0
 62
7
 10
7.631650429449557
 20
4.980000000000002
 30
0
 11
7.765000000000001
 21
5.113349570550446
 31
0
  0
LINE
  8
0
 62
7
 10
4.59
 20
5.014264068711928
 30
0
 11
4.914999999999999
 21
5.339264068711927
 31
0
  0
LINE
  8
0
 62
7
 10
4.767867965644045
 20
4.980000000000002
 30
0
 11
5.007867965644036
 21
5.219999999999995
 31
0
  0
LINE
  8
0
 62
7
 10
4.980000000000008
 20
4.980000000000002
 30
0
 11
5.22
 21
5.219999999999995
 31
0
  0
LINE
  8
0
 62
7
 10
5.192132034355972
 20
4.980000000000002
 30
0
 11
5.432132034355964
 21
5.219999999999995
 31
0
  0
LINE
  8
0
 62
7
 10
5.404264068711936
 20
4.980000000000002
 30
0
 11
5.644264068711927
 21
5.219999999999995
 31
0
  0
LINE
  8
0
 62
7
 10
5.6163961030679
 20
4.980000000000002
 30
0
 11
5.856396103067891
 21
5.219999999999995
 31
0
  0
LINE
  8
0
 62
7
 10
5.828528137423864
 20
4.980000000000002
 30
0
 11
6.068528137423855
 21
5.219999999999995
 31
0
  0
LINE
  8
0
 62
7
 10
6.040660171779828
 20
4.980000000000002
 30
0
 11
6.280660171779819
 21
5.219999999999995
 31
0
  0
LINE
  8
0
 62
7
 10
6.252792206135791
 20
4.980000000000002
 30
0
 11
6.492792206135783
 21
5.219999999999995
 31
0
  0
LINE
  8
0
 62
7
 10
6.464924240491755
 20
4.980000000000002
 30
0
 11
6.704924240491747
 21
5.219999999999995
 31
0
  0
LINE
  8
0
 62
7
 10
6.677056274847719
 20
4.980000000000002
 30
0
 11
6.91705627484771
 21
5.219999999999995
 31
0
  0
LINE
  8
0
 62
7
 10
6.889188309203683
 20
4.980000000000002
 30
0
 11
7.129188309203674
 21
5.219999999999995
 31
0
  0
LINE
  8
0
 62
7
 10
7.424999999999998
 20
5.303679656440355
 30
0
 11
7.491320343559638
 21
5.369999999999995
 31
0
  0
LINE
  8
0
 62
7
 10
7.101320343559647
 20
4.980000000000002
 30
0
 11
7.341320343559638
 21
5.219999999999995
 31
0
  0
LINE
  8
0
 62
7
 10
7.313452377915611
 20
4.980000000000002
 30
0
 11
7.6
 21
5.266547622084392
 31
0
  0
LINE
  8
0
 62
7
 10
7.525584412271574
 20
4.980000000000002
 30
0
 11
7.765
 21
5.219415587728427
 31
0
  0
LINE
  8
0
 62
7
 10
7.737716446627538
 20
4.980000000000002
 30
0
 11
7.765
 21
5.007283553372464
 31
0
  0
ENDBLK
  8
0
  0
BLOCK
  8
0
  2
*X16
 70
1
 10
0
 20
0
 30
0
  0
LINE
  8
0
 62
7
 10
4.589999999999998
 20
4.908198051533944
 30
0
 11
4.621801948466061
 21
4.940000000000001
 31
0
  0
LINE
  8
0
 62
7
 10
4.593933982822021
 20
4.700000000000002
 30
0
 11
4.833933982822025
 21
4.940000000000001
 31
0
  0
LINE
  8
0
 62
7
 10
4.739999999999998
 20
4.633933982822016
 30
0
 11
5.046066017177989
 21
4.940000000000001
 31
0
  0
LINE
  8
0
 62
7
 10
5.018198051533954
 20
4.700000000000003
 30
0
 11
5.258198051533952
 21
4.940000000000001
 31
0
  0
LINE
  8
0
 62
7
 10
4.739999999999998
 20
4.421801948466052
 30
0
 11
4.914999999999999
 21
4.596801948466053
 31
0
  0
LINE
  8
0
 62
7
 10
5.230330085889918
 20
4.700000000000003
 30
0
 11
5.470330085889916
 21
4.940000000000001
 31
0
  0
LINE
  8
0
 62
7
 10
4.739999999999998
 20
4.209669914110088
 30
0
 11
4.914999999999999
 21
4.384669914110089
 31
0
  0
LINE
  8
0
 62
7
 10
5.442462120245882
 20
4.700000000000003
 30
0
 11
5.68246212024588
 21
4.940000000000001
 31
0
  0
LINE
  8
0
 62
7
 10
4.739999999999998
 20
3.997537879754124
 30
0
 11
4.914999999999999
 21
4.172537879754125
 31
0
  0
LINE
  8
0
 62
7
 10
5.654594154601845
 20
4.700000000000003
 30
0
 11
5.894594154601844
 21
4.940000000000001
 31
0
  0
LINE
  8
0
 62
7
 10
4.739999999999998
 20
3.785405845398159
 30
0
 11
4.914999999999999
 21
3.960405845398161
 31
0
  0
LINE
  8
0
 62
7
 10
5.866726188957809
 20
4.700000000000003
 30
0
 11
6.106726188957808
 21
4.940000000000001
 31
0
  0
LINE
  8
0
 62
7
 10
4.739999999999998
 20
3.573273811042195
 30
0
 11
4.914999999999999
 21
3.748273811042197
 31
0
  0
LINE
  8
0
 62
7
 10
6.078858223313773
 20
4.700000000000003
 30
0
 11
6.318858223313772
 21
4.940000000000001
 31
0
  0
LINE
  8
0
 62
7
 10
4.739999999999998
 20
3.361141776686231
 30
0
 11
4.914999999999999
 21
3.536141776686232
 31
0
  0
LINE
  8
0
 62
7
 10
6.290990257669737
 20
4.700000000000003
 30
0
 11
6.530990257669735
 21
4.940000000000001
 31
0
  0
LINE
  8
0
 62
7
 10
4.840990257669734
 20
3.250000000000002
 30
0
 11
4.914999999999999
 21
3.324009742330268
 31
0
  0
LINE
  8
0
 62
7
 10
6.503122292025701
 20
4.700000000000003
 30
0
 11
6.743122292025699
 21
4.940000000000001
 31
0
  0
LINE
  8
0
 62
7
 10
6.715254326381665
 20
4.700000000000003
 30
0
 11
6.955254326381663
 21
4.940000000000001
 31
0
  0
LINE
  8
0
 62
7
 10
6.927386360737628
 20
4.700000000000003
 30
0
 11
7.167386360737627
 21
4.940000000000001
 31
0
  0
LINE
  8
0
 62
7
 10
7.139518395093592
 20
4.700000000000003
 30
0
 11
7.379518395093591
 21
4.940000000000001
 31
0
  0
LINE
  8
0
 62
7
 10
7.351650429449556
 20
4.700000000000003
 30
0
 11
7.591650429449555
 21
4.940000000000001
 31
0
  0
LINE
  8
0
 62
7
 10
7.424999999999998
 20
4.561217536194479
 30
0
 11
7.765
 21
4.901217536194482
 31
0
  0
LINE
  8
0
 62
7
 10
7.424999999999998
 20
4.349085501838515
 30
0
 11
7.599999999999999
 21
4.524085501838516
 31
0
  0
LINE
  8
0
 62
7
 10
7.424999999999998
 20
4.136953467482551
 30
0
 11
7.599999999999999
 21
4.311953467482552
 31
0
  0
LINE
  8
0
 62
7
 10
7.424999999999998
 20
3.924821433126588
 30
0
 11
7.599999999999999
 21
4.099821433126588
 31
0
  0
LINE
  8
0
 62
7
 10
7.424999999999998
 20
3.712689398770623
 30
0
 11
7.599999999999999
 21
3.887689398770624
 31
0
  0
LINE
  8
0
 62
7
 10
7.424999999999998
 20
3.500557364414659
 30
0
 11
7.599999999999999
 21
3.67555736441466
 31
0
  0
LINE
  8
0
 62
7
 10
7.486574669941305
 20
3.350000000000002
 30
0
 11
7.599999999999999
 21
3.463425330058695
 31
0
  0
LINE
  8
0
 62
7
 10
4.589999999999998
 20
4.802132034355962
 30
0
 11
4.727867965644044
 21
4.94
 31
0
  0
LINE
  8
0
 62
7
 10
4.700000000000002
 20
4.700000000000002
 30
0
 11
4.940000000000007
 21
4.94
 31
0
  0
LINE
  8
0
 62
7
 10
4.739999999999998
 20
4.527867965644033
 30
0
 11
5.152132034355971
 21
4.94
 31
0
  0
LINE
  8
0
 62
7
 10
5.124264068711936
 20
4.700000000000003
 30
0
 11
5.364264068711935
 21
4.94
 31
0
  0
LINE
  8
0
 62
7
 10
4.739999999999998
 20
4.315735931288069
 30
0
 11
4.914999999999999
 21
4.49073593128807
 31
0
  0
LINE
  8
0
 62
7
 10
5.3363961030679
 20
4.700000000000003
 30
0
 11
5.576396103067899
 21
4.94
 31
0
  0
LINE
  8
0
 62
7
 10
4.739999999999998
 20
4.103603896932105
 30
0
 11
4.914999999999999
 21
4.278603896932106
 31
0
  0
LINE
  8
0
 62
7
 10
5.548528137423864
 20
4.700000000000003
 30
0
 11
5.788528137423863
 21
4.94
 31
0
  0
LINE
  8
0
 62
7
 10
4.739999999999998
 20
3.891471862576141
 30
0
 11
4.914999999999999
 21
4.066471862576142
 31
0
  0
LINE
  8
0
 62
7
 10
5.760660171779827
 20
4.700000000000003
 30
0
 11
6.000660171779827
 21
4.94
 31
0
  0
LINE
  8
0
 62
7
 10
4.739999999999998
 20
3.679339828220177
 30
0
 11
4.914999999999999
 21
3.854339828220178
 31
0
  0
LINE
  8
0
 62
7
 10
5.972792206135791
 20
4.700000000000003
 30
0
 11
6.212792206135791
 21
4.94
 31
0
  0
LINE
  8
0
 62
7
 10
4.739999999999998
 20
3.467207793864212
 30
0
 11
4.914999999999999
 21
3.642207793864214
 31
0
  0
LINE
  8
0
 62
7
 10
6.184924240491755
 20
4.700000000000003
 30
0
 11
6.424924240491754
 21
4.94
 31
0
  0
LINE
  8
0
 62
7
 10
4.739999999999998
 20
3.255075759508248
 30
0
 11
4.914999999999999
 21
3.43007575950825
 31
0
  0
LINE
  8
0
 62
7
 10
6.397056274847719
 20
4.700000000000003
 30
0
 11
6.637056274847718
 21
4.94
 31
0
  0
LINE
  8
0
 62
7
 10
6.609188309203683
 20
4.700000000000003
 30
0
 11
6.849188309203682
 21
4.94
 31
0
  0
LINE
  8
0
 62
7
 10
6.821320343559647
 20
4.700000000000003
 30
0
 11
7.061320343559646
 21
4.94
 31
0
  0
LINE
  8
0
 62
7
 10
7.03345237791561
 20
4.700000000000003
 30
0
 11
7.27345237791561
 21
4.94
 31
0
  0
LINE
  8
0
 62
7
 10
7.245584412271574
 20
4.700000000000003
 30
0
 11
7.485584412271574
 21
4.94
 31
0
  0
LINE
  8
0
 62
7
 10
7.424999999999999
 20
4.667283553372462
 30
0
 11
7.697716446627537
 21
4.94
 31
0
  0
LINE
  8
0
 62
7
 10
7.669848480983503
 20
4.700000000000003
 30
0
 11
7.764999999999999
 21
4.795151519016499
 31
0
  0
LINE
  8
0
 62
7
 10
7.424999999999999
 20
4.455151519016498
 30
0
 11
7.599999999999998
 21
4.630151519016497
 31
0
  0
LINE
  8
0
 62
7
 10
7.424999999999999
 20
4.243019484660534
 30
0
 11
7.599999999999998
 21
4.418019484660533
 31
0
  0
LINE
  8
0
 62
7
 10
7.424999999999999
 20
4.03088745030457
 30
0
 11
7.599999999999998
 21
4.205887450304569
 31
0
  0
LINE
  8
0
 62
7
 10
7.424999999999999
 20
3.818755415948606
 30
0
 11
7.599999999999998
 21
3.993755415948606
 31
0
  0
LINE
  8
0
 62
7
 10
7.424999999999999
 20
3.606623381592642
 30
0
 11
7.599999999999998
 21
3.781623381592641
 31
0
  0
LINE
  8
0
 62
7
 10
7.424999999999999
 20
3.394491347236678
 30
0
 11
7.599999999999998
 21
3.569491347236677
 31
0
  0
LINE
  8
0
 62
7
 10
7.592640687119287
 20
3.350000000000002
 30
0
 11
7.599999999999998
 21
3.357359312880713
 31
0
  0
ENDBLK
  8
0
  0
BLOCK
  8
0
  2
*D0
 70
1
 10
0
 20
0
 30
0
  0
LINE
  8
0
 62
7
 10
8.12705322772949
 20
10.2971035059331
 30
0
 11
8.12705322772949
 21
11.05
 31
0
  0
LINE
  8
0
 62
7
 10
8.12705322772949
 20
8.299999999999999
 30
0
 11
8.12705322772949
 21
9.217103505933101
 31
0
  0
LINE
  8
0
 62
7
 10
7.749999999999998
 20
11.05
 30
0
 11
8.177053227729491
 21
11.05
 31
0
  0
LINE
  8
0
 62
7
 10
7.749999999999998
 20
8.299999999999999
 30
0
 11
8.177053227729491
 21
8.299999999999999
 31
0
  0
LINE
  8
0
 62
7
 10
8.091697888670163
 20
8.335355339059326
 30
0
 11
8.162408566788818
 21
8.264644660940672
 31
0
  0
LINE
  8
0
 62
7
 10
8.162408566788818
 20
11.01464466094067
 30
0
 11
8.091697888670163
 21
11.08535533905933
 31
0
  0
TEXT
  8
0
 62
7
 10
8.097053227729491
 20
9.619603505933103
 30
0
 40
0.1
  1
2,75
 50
90
 41
0.9
  0
TEXT
  8
0
 62
7
 10
8.257053227729491
 20
9.417103505933103
 30
0
 40
0.1
  1
(260-280)
 50
90
 41
0.9
  0
ENDBLK
  8
0
  0
BLOCK
  8
0
  2
*D1
 70
1
 10
0
 20
0
 30
0
  0
LINE
  8
0
 62
7
 10
6.51647794242887
 20
11.522645599841
 30
0
 11
7.424999999999999
 21
11.522645599841
 31
0
  0
LINE
  8
0
 62
7
 10
4.914999999999998
 20
11.522645599841
 30
0
 11
5.871477942428871
 21
11.522645599841
 31
0
  0
LINE
  8
0
 62
7
 10
7.424999999999999
 20
11.2
 30
0
 11
7.424999999999999
 21
11.572645599841
 31
0
  0
LINE
  8
0
 62
7
 10
4.914999999999998
 20
11.2
 30
0
 11
4.914999999999998
 21
11.572645599841
 31
0
  0
LINE
  8
0
 62
7
 10
7.389644660940672
 20
11.48729026078167
 30
0
 11
7.460355339059326
 21
11.55800093890033
 31
0
  0
LINE
  8
0
 62
7
 10
4.950355339059326
 20
11.55800093890033
 30
0
 11
4.879644660940671
 21
11.48729026078167
 31
0
  0
TEXT
  8
0
 62
7
 10
6.071477942428871
 20
11.477645599841
 30
0
 40
0.1
  1
2,51
 41
0.9
  0
ENDBLK
  8
0
  0
BLOCK
  8
0
  2
*D2
 70
1
 10
0
 20
0
 30
0
  0
LINE
  8
0
 62
7
 10
4.454210185658311
 20
4.36903915573724
 30
0
 11
4.454210185658311
 21
4.700000000000002
 31
0
  0
LINE
  8
0
 62
7
 10
4.454210185658311
 20
3.250000000000002
 30
0
 11
4.454210185658311
 21
3.62403915573724
 31
0
  0
LINE
  8
0
 62
7
 10
4.739999999999999
 20
4.700000000000002
 30
0
 11
4.404210185658311
 21
4.700000000000002
 31
0
  0
LINE
  8
0
 62
7
 10
4.739999999999999
 20
3.250000000000002
 30
0
 11
4.404210185658311
 21
3.250000000000002
 31
0
  0
LINE
  8
0
 62
7
 10
4.418854846598983
 20
3.285355339059329
 30
0
 11
4.489565524717638
 21
3.214644660940674
 31
0
  0
LINE
  8
0
 62
7
 10
4.489565524717638
 20
4.664644660940675
 30
0
 11
4.418854846598983
 21
4.735355339059329
 31
0
  0
TEXT
  8
0
 62
7
 10
4.499210185658311
 20
3.87403915573724
 30
0
 40
0.1
  1
1,45
 50
90
 41
0.9
  0
ENDBLK
  8
0
  0
BLOCK
  8
0
  2
*D3
 70
1
 10
0
 20
0
 30
0
  0
LINE
  8
0
 62
7
 10
6.56647794242887
 20
5.58166088968375
 30
0
 11
7.424999999999999
 21
5.58166088968375
 31
0
  0
LINE
  8
0
 62
7
 10
4.914999999999998
 20
5.58166088968375
 30
0
 11
5.82147794242887
 21
5.58166088968375
 31
0
  0
LINE
  8
0
 62
7
 10
7.424999999999999
 20
5.219999999999995
 30
0
 11
7.424999999999999
 21
5.63166088968375
 31
0
  0
LINE
  8
0
 62
7
 10
4.914999999999998
 20
5.219999999999995
 30
0
 11
4.914999999999998
 21
5.63166088968375
 31
0
  0
LINE
  8
0
 62
7
 10
4.950355339059326
 20
5.617016228743077
 30
0
 11
4.879644660940671
 21
5.546305550624423
 31
0
  0
LINE
  8
0
 62
7
 10
7.389644660940672
 20
5.546305550624423
 30
0
 11
7.460355339059326
 21
5.617016228743077
 31
0
  0
TEXT
  8
0
 62
7
 10
6.071477942428871
 20
5.53666088968375
 30
0
 40
0.1
  1
2,51
 41
0.9
  0
ENDBLK
  8
0
  0
BLOCK
  8
0
  2
*D4
 70
1
 10
0
 20
0
 30
0
  0
LINE
  8
0
 62
7
 10
7.946632867768101
 20
4.43347499858059
 30
0
 11
7.946632867768101
 21
4.700000000000002
 31
0
  0
LINE
  8
0
 62
7
 10
7.946632867768101
 20
3.350000000000002
 30
0
 11
7.946632867768101
 21
3.68847499858059
 31
0
  0
LINE
  8
0
 62
7
 10
7.599999999999999
 20
4.700000000000002
 30
0
 11
7.996632867768101
 21
4.700000000000002
 31
0
  0
LINE
  8
0
 62
7
 10
7.599999999999999
 20
3.350000000000002
 30
0
 11
7.996632867768101
 21
3.350000000000002
 31
0
  0
LINE
  8
0
 62
7
 10
7.981988206827428
 20
4.664644660940675
 30
0
 11
7.911277528708774
 21
4.735355339059329
 31
0
  0
LINE
  8
0
 62
7
 10
7.911277528708774
 20
3.385355339059329
 30
0
 11
7.981988206827428
 21
3.314644660940675
 31
0
  0
TEXT
  8
0
 62
7
 10
7.991632867768101
 20
3.93847499858059
 30
0
 40
0.1
  1
1,35
 50
90
 41
0.9
  0
ENDBLK
  8
0
  0
ENDSEC
  0
SECTION
  2
ENTITIES
  0
INSERT
  8
0
  2
*X0
 10
0
 20
0
 30
0
  0
INSERT
  8
0
  2
*X1
 10
0
 20
0
 30
0
  0
INSERT
  8
0
  2
*X2
 10
0
 20
0
 30
0
  0
INSERT
  8
0
  2
*X3
 10
0
 20
0
 30
0
  0
INSERT
  8
0
  2
*X4
 10
0
 20
0
 30
0
  0
INSERT
  8
0
  2
*X5
 10
0
 20
0
 30
0
  0
INSERT
  8
0
  2
*X6
 10
0
 20
0
 30
0
  0
INSERT
  8
0
  2
*X7
 10
0
 20
0
 30
0
  0
INSERT
  8
0
  2
*X8
 10
0
 20
0
 30
0
  0
INSERT
  8
0
  2
*X9
 10
0
 20
0
 30
0
  0
INSERT
  8
0
  2
*X10
 10
0
 20
0
 30
0
  0
INSERT
  8
0
  2
*X11
 10
0
 20
0
 30
0
  0
INSERT
  8
0
  2
*X12
 10
0
 20
0
 30
0
  0
INSERT
  8
0
  2
*X13
 10
0
 20
0
 30
0
  0
INSERT
  8
0
  2
*X14
 10
0
 20
0
 30
0
  0
INSERT
  8
0
  2
*X15
 10
0
 20
0
 30
0
  0
INSERT
  8
0
  2
*X16
 10
0
 20
0
 30
0
  0
LINE
  8
0
 62
7
 10
6.459999999999997
 20
3.68672179383774
 30
0
 11
6.46
 21
3.514533929624433
 31
0
  0
LINE
  8
0
 62
7
 10
6.422948749614972
 20
3.735000000000003
 30
0
 11
6.459999999999997
 21
3.68672179383774
 31
0
  0
LINE
  8
0
 62
7
 10
6.274655527453851
 20
3.735000000000003
 30
0
 11
6.369255053311289
 21
3.735000000000003
 31
0
  0
LINE
  8
0
 62
7
 10
6.274655527453851
 20
3.735000000000003
 30
0
 11
6.422948749614972
 21
3.735000000000003
 31
0
  0
LINE
  8
0
 62
7
 10
5.922627290688784
 20
3.735000000000003
 30
0
 11
6.088275852611019
 21
3.735000000000003
 31
0
  0
LINE
  8
0
 62
7
 10
5.879999999999995
 20
3.690774185910387
 30
0
 11
5.922627290688784
 21
3.735000000000003
 31
0
  0
LINE
  8
0
 62
7
 10
5.879999999999999
 20
3.530676443783972
 30
0
 11
5.879999999999999
 21
3.626071583650482
 31
0
  0
LINE
  8
0
 62
7
 10
5.879999999999999
 20
3.530676443783972
 30
0
 11
5.879999999999995
 21
3.690774185910387
 31
0
  0
LINE
  8
0
 62
7
 10
4.969999999999999
 20
3.606432960110173
 30
0
 11
4.969999999999999
 21
3.250000000000003
 31
0
  0
LINE
  8
0
 62
7
 10
5.879999999999999
 20
3.250000000000003
 30
0
 11
5.879999999999999
 21
3.524317401047383
 31
0
  0
LINE
  8
0
 62
7
 10
4.969999999999999
 20
3.250000000000003
 30
0
 11
5.879999999999999
 21
3.250000000000003
 31
0
  0
LINE
  8
0
 62
7
 10
4.969999999999999
 20
3.945850192883242
 30
0
 11
4.969999999999999
 21
3.516067281765143
 31
0
  0
LINE
  8
0
 62
7
 10
5.879999999999999
 20
3.433951722702353
 30
0
 11
5.879999999999999
 21
3.530676443783972
 31
0
  0
LINE
  8
0
 62
7
 10
4.969999999999999
 20
3.516067281765143
 30
0
 11
5.879999999999999
 21
3.433951722702353
 31
0
  0
LINE
  8
0
 62
7
 10
4.969999999999999
 20
4.343604806128372
 30
0
 11
4.969999999999999
 21
3.850455053016744
 31
0
  0
LINE
  8
0
 62
7
 10
4.969999999999999
 20
3.850455053016744
 30
0
 11
5.879999999999999
 21
3.530676443783972
 31
0
  0
LINE
  8
0
 62
7
 10
4.969999999999999
 20
4.645000000000002
 30
0
 11
4.969999999999999
 21
4.234908204451714
 31
0
  0
LINE
  8
0
 62
7
 10
5.199692306171262
 20
4.645000000000002
 30
0
 11
4.969999999999999
 21
4.645000000000002
 31
0
  0
LINE
  8
0
 62
7
 10
5.837927845855241
 20
3.647124325985202
 30
0
 11
5.879999999999995
 21
3.690774185910387
 31
0
  0
LINE
  8
0
 62
7
 10
4.969999999999999
 20
4.234908204451714
 30
0
 11
5.837927845855241
 21
3.647124325985202
 31
0
  0
LINE
  8
0
 62
7
 10
5.649749351725369
 20
4.645000000000002
 30
0
 11
5.078952690119382
 21
4.645000000000002
 31
0
  0
LINE
  8
0
 62
7
 10
5.89275926538298
 20
3.735000000000003
 30
0
 11
5.922627290688784
 21
3.735000000000003
 31
0
  0
LINE
  8
0
 62
7
 10
5.078952690119382
 20
4.645000000000002
 30
0
 11
5.89275926538298
 21
3.735000000000003
 31
0
  0
LINE
  8
0
 62
7
 10
5.98821093964391
 20
4.645000000000002
 30
0
 11
5.549844285780441
 21
4.645000000000002
 31
0
  0
LINE
  8
0
 62
7
 10
5.988370786666091
 20
3.735000000000003
 30
0
 11
6.178571192168631
 21
3.735000000000003
 31
0
  0
LINE
  8
0
 62
7
 10
5.549844285780441
 20
4.645000000000002
 30
0
 11
5.988370786666091
 21
3.735000000000003
 31
0
  0
LINE
  8
0
 62
7
 10
6.32149104977345
 20
4.645000000000002
 30
0
 11
5.896262857362821
 21
4.645000000000002
 31
0
  0
LINE
  8
0
 62
7
 10
6.08662310988754
 20
3.735000000000003
 30
0
 11
6.27257071209861
 21
3.735000000000003
 31
0
  0
LINE
  8
0
 62
7
 10
5.896262857362821
 20
4.645000000000002
 30
0
 11
6.08662310988754
 21
3.735000000000003
 31
0
  0
LINE
  8
0
 62
7
 10
6.663880806541852
 20
4.645000000000002
 30
0
 11
6.231361094117901
 21
4.645000000000002
 31
0
  0
LINE
  8
0
 62
7
 10
6.182440756443062
 20
3.735000000000003
 30
0
 11
6.274655527453851
 21
3.735000000000003
 31
0
  0
LINE
  8
0
 62
7
 10
6.231361094117901
 20
4.645000000000002
 30
0
 11
6.182440756443062
 21
3.735000000000003
 31
0
  0
LINE
  8
0
 62
7
 10
7.06507358366799
 20
4.645000000000002
 30
0
 11
6.569281280684411
 21
4.645000000000002
 31
0
  0
LINE
  8
0
 62
7
 10
6.569281280684411
 20
4.645000000000002
 30
0
 11
6.274655527453851
 21
3.735000000000003
 31
0
  0
LINE
  8
0
 62
7
 10
7.369999999999999
 20
4.645000000000002
 30
0
 11
6.957326626026752
 21
4.645000000000002
 31
0
  0
LINE
  8
0
 62
7
 10
7.369999999999999
 20
4.414696536451793
 30
0
 11
7.369999999999999
 21
4.645000000000002
 31
0
  0
LINE
  8
0
 62
7
 10
6.38817040869716
 20
3.780316578937654
 30
0
 11
6.422948749614972
 21
3.735000000000003
 31
0
  0
LINE
  8
0
 62
7
 10
6.957326626026752
 20
4.645000000000002
 30
0
 11
6.38817040869716
 21
3.780316578937654
 31
0
  0
LINE
  8
0
 62
7
 10
7.369999999999999
 20
3.964708833529702
 30
0
 11
7.369999999999999
 21
4.536219672865953
 31
0
  0
LINE
  8
0
 62
7
 10
6.46
 20
3.710576237318602
 30
0
 11
6.459999999999997
 21
3.68672179383774
 31
0
  0
LINE
  8
0
 62
7
 10
7.369999999999999
 20
4.536219672865953
 30
0
 11
6.46
 21
3.710576237318602
 31
0
  0
LINE
  8
0
 62
7
 10
7.369999999999999
 20
3.627094202189553
 30
0
 11
7.369999999999999
 21
4.065119386108934
 31
0
  0
LINE
  8
0
 62
7
 10
6.46
 20
3.614944482203664
 30
0
 11
6.46
 21
3.424420755510383
 31
0
  0
LINE
  8
0
 62
7
 10
7.369999999999999
 20
4.065119386108934
 30
0
 11
6.46
 21
3.614944482203664
 31
0
  0
LINE
  8
0
 62
7
 10
7.369999999999999
 20
3.390000000000003
 30
0
 11
7.369999999999999
 21
3.719299337921342
 31
0
  0
LINE
  8
0
 62
7
 10
6.46
 20
3.516625891242173
 30
0
 11
6.46
 21
3.390000000000003
 31
0
  0
LINE
  8
0
 62
7
 10
7.369999999999999
 20
3.719299337921342
 30
0
 11
6.46
 21
3.516625891242173
 31
0
  0
LINE
  8
0
 62
7
 10
6.97030441513304
 20
3.734999999990294
 30
0
 11
6.97030441513304
 21
3.400000000000003
 31
0
  0
LINE
  8
0
 62
7
 10
7.075959514394753
 20
3.461000000000002
 30
0
 11
6.97030441513304
 21
3.400000000000003
 31
0
  0
LINE
  8
0
 62
7
 10
6.86464931587134
 20
3.461000000000002
 30
0
 11
7.075959514394753
 21
3.461000000000002
 31
0
  0
LINE
  8
0
 62
7
 10
6.97030441513304
 20
3.400000000000003
 30
0
 11
6.86464931587134
 21
3.461000000000002
 31
0
  0
LINE
  8
0
 62
7
 10
5.88000000000971
 20
4.245304415133052
 30
0
 11
6.459999999980529
 21
4.245304415133052
 31
0
  0
LINE
  8
0
 62
7
 10
5.36969558486695
 20
3.250000000000003
 30
0
 11
5.36969558486695
 21
3.734999999983632
 31
0
  0
LINE
  8
0
 62
7
 10
4.970000019999999
 20
8.596800069999997
 30
0
 11
5.880000149999998
 21
8.596800069999997
 31
0
  0
LINE
  8
0
 62
7
 10
4.970000019999999
 20
8.531800069999996
 30
0
 11
4.970000019999999
 21
8.596800069999997
 31
0
  0
LINE
  8
0
 62
7
 10
5.880000149999998
 20
8.596800069999997
 30
0
 11
5.880000149999998
 21
8.531800069999996
 31
0
  0
LINE
  8
0
 62
7
 10
5.880000149999998
 20
8.531800069999996
 30
0
 11
4.970000019999999
 21
8.531800069999996
 31
0
  0
LINE
  8
0
 62
7
 10
4.970000099999996
 20
8.793200059999995
 30
0
 11
5.880000149999998
 21
8.793200059999995
 31
0
  0
LINE
  8
0
 62
7
 10
4.970000099999996
 20
8.728200059999997
 30
0
 11
4.970000099999996
 21
8.793200059999995
 31
0
  0
LINE
  8
0
 62
7
 10
5.880000149999998
 20
8.793200059999995
 30
0
 11
5.880000149999998
 21
8.728200059999997
 31
0
  0
LINE
  8
0
 62
7
 10
5.880000149999998
 20
8.728200059999997
 30
0
 11
4.970000099999996
 21
8.728200059999997
 31
0
  0
LINE
  8
0
 62
7
 10
4.969999909999999
 20
8.989600059999995
 30
0
 11
5.880000309999998
 21
8.989600059999995
 31
0
  0
LINE
  8
0
 62
7
 10
4.969999909999999
 20
8.924600059999996
 30
0
 11
4.969999909999999
 21
8.989600059999995
 31
0
  0
LINE
  8
0
 62
7
 10
5.880000309999998
 20
8.989600059999995
 30
0
 11
5.880000309999998
 21
8.924600059999996
 31
0
  0
LINE
  8
0
 62
7
 10
5.880000309999998
 20
8.924600059999996
 30
0
 11
4.969999909999999
 21
8.924600059999996
 31
0
  0
LINE
  8
0
 62
7
 10
5.969763409999999
 20
9.121000049999996
 30
0
 11
4.970000089999998
 21
9.121000049999996
 31
0
  0
LINE
  8
0
 62
7
 10
4.970000089999998
 20
9.186000049999995
 30
0
 11
5.969763409999999
 21
9.186000049999995
 31
0
  0
LINE
  8
0
 62
7
 10
4.970000089999998
 20
9.121000049999996
 30
0
 11
4.970000089999998
 21
9.186000049999995
 31
0
  0
LINE
  8
0
 62
7
 10
5.969763409999999
 20
9.186000049999995
 30
0
 11
5.969763409999999
 21
9.121000049999996
 31
0
  0
LINE
  8
0
 62
7
 10
6.088275379999999
 20
9.317400049999994
 30
0
 11
5.078952789999998
 21
9.317400049999994
 31
0
  0
LINE
  8
0
 62
7
 10
5.078952789999998
 20
9.382400049999996
 30
0
 11
6.088275379999999
 21
9.382400049999996
 31
0
  0
LINE
  8
0
 62
7
 10
5.078952789999998
 20
9.317400049999994
 30
0
 11
5.078952789999998
 21
9.382400049999996
 31
0
  0
LINE
  8
0
 62
7
 10
6.088275379999999
 20
9.382400049999996
 30
0
 11
6.088275379999999
 21
9.317400049999994
 31
0
  0
LINE
  8
0
 62
7
 10
6.178570709999999
 20
9.513800039999996
 30
0
 11
5.988370589999999
 21
9.513800039999996
 31
0
  0
LINE
  8
0
 62
7
 10
5.549843829999999
 20
9.578800039999996
 30
0
 11
5.988210679999998
 21
9.578800039999996
 31
0
  0
LINE
  8
0
 62
7
 10
5.549843829999999
 20
9.513800039999996
 30
0
 11
5.549843829999999
 21
9.578800039999996
 31
0
  0
LINE
  8
0
 62
7
 10
5.988370589999999
 20
9.578800039999996
 30
0
 11
6.178570709999999
 21
9.578800039999996
 31
0
  0
LINE
  8
0
 62
7
 10
6.178570709999999
 20
9.578800039999996
 30
0
 11
6.178570709999999
 21
9.513800039999996
 31
0
  0
LINE
  8
0
 62
7
 10
5.988210679999998
 20
9.513800039999996
 30
0
 11
5.549843829999999
 21
9.513800039999996
 31
0
  0
LINE
  8
0
 62
7
 10
6.32149063
 20
9.710200029999996
 30
0
 11
5.89626244
 21
9.710200029999996
 31
0
  0
LINE
  8
0
 62
7
 10
5.89626244
 20
9.775200029999997
 30
0
 11
6.32149063
 21
9.775200029999997
 31
0
  0
LINE
  8
0
 62
7
 10
5.89626244
 20
9.710200029999996
 30
0
 11
5.89626244
 21
9.775200029999997
 31
0
  0
LINE
  8
0
 62
7
 10
6.32149063
 20
9.775200029999997
 30
0
 11
6.32149063
 21
9.710200029999996
 31
0
  0
LINE
  8
0
 62
7
 10
6.663880769999999
 20
9.906600029999996
 30
0
 11
6.18244049
 21
9.906600029999996
 31
0
  0
LINE
  8
0
 62
7
 10
6.18244049
 20
9.971600029999998
 30
0
 11
6.663880769999999
 21
9.971600029999998
 31
0
  0
LINE
  8
0
 62
7
 10
6.18244049
 20
9.906600029999996
 30
0
 11
6.18244049
 21
9.971600029999998
 31
0
  0
LINE
  8
0
 62
7
 10
6.663880769999999
 20
9.971600029999998
 30
0
 11
6.663880769999999
 21
9.906600029999996
 31
0
  0
LINE
  8
0
 62
7
 10
7.0650734
 20
10.10300002
 30
0
 11
6.274654689999998
 21
10.10300002
 31
0
  0
LINE
  8
0
 62
7
 10
6.274654689999998
 20
10.16800002
 30
0
 11
7.0650734
 21
10.16800002
 31
0
  0
LINE
  8
0
 62
7
 10
6.274654689999998
 20
10.10300002
 30
0
 11
6.274654689999998
 21
10.16800002
 31
0
  0
LINE
  8
0
 62
7
 10
7.0650734
 20
10.16800002
 30
0
 11
7.0650734
 21
10.10300002
 31
0
  0
LINE
  8
0
 62
7
 10
7.370000149999999
 20
10.29940002
 30
0
 11
6.388170469999998
 21
10.29940002
 31
0
  0
LINE
  8
0
 62
7
 10
6.388170469999998
 20
10.36440002
 30
0
 11
7.370000149999999
 21
10.36440002
 31
0
  0
LINE
  8
0
 62
7
 10
6.388170469999998
 20
10.29940002
 30
0
 11
6.388170469999998
 21
10.36440002
 31
0
  0
LINE
  8
0
 62
7
 10
7.370000149999999
 20
10.36440002
 30
0
 11
7.370000149999999
 21
10.29940002
 31
0
  0
LINE
  8
0
 62
7
 10
6.460000149999998
 20
10.56080001
 30
0
 11
7.370000149999999
 21
10.56080001
 31
0
  0
LINE
  8
0
 62
7
 10
6.460000149999998
 20
10.49580001
 30
0
 11
6.460000149999998
 21
10.56080001
 31
0
  0
LINE
  8
0
 62
7
 10
7.370000149999999
 20
10.56080001
 30
0
 11
7.370000149999999
 21
10.49580001
 31
0
  0
LINE
  8
0
 62
7
 10
7.370000149999999
 20
10.49580001
 30
0
 11
6.460000149999998
 21
10.49580001
 31
0
  0
LINE
  8
0
 62
7
 10
6.460000309999998
 20
10.7572
 30
0
 11
7.370000149999999
 21
10.7572
 31
0
  0
LINE
  8
0
 62
7
 10
6.460000309999998
 20
10.6922
 30
0
 11
6.460000309999998
 21
10.7572
 31
0
  0
LINE
  8
0
 62
7
 10
7.370000149999999
 20
10.7572
 30
0
 11
7.370000149999999
 21
10.6922
 31
0
  0
LINE
  8
0
 62
7
 10
7.370000149999999
 20
10.6922
 30
0
 11
6.460000309999998
 21
10.6922
 31
0
  0
LINE
  8
0
 62
7
  6
DASHED
 10
6.46
 20
10.95359999999999
 30
0
 11
7.369999999999999
 21
10.95359999999999
 31
0
  0
LINE
  8
0
 62
7
  6
DASHED
 10
6.46
 20
10.88859999999999
 30
0
 11
6.46
 21
10.95359999999999
 31
0
  0
LINE
  8
0
 62
7
  6
DASHED
 10
7.369999999999999
 20
10.95359999999999
 30
0
 11
7.369999999999999
 21
10.88859999999999
 31
0
  0
LINE
  8
0
 62
7
  6
DASHED
 10
7.369999999999999
 20
10.88859999999999
 30
0
 11
6.46
 21
10.88859999999999
 31
0
  0
LINE
  8
0
 62
7
 10
1.83356704
 20
8.596800069999997
 30
0
 11
2.190000110000001
 21
8.596800069999997
 31
0
  0
LINE
  8
0
 62
7
 10
2.190000110000001
 20
8.531800069999996
 30
0
 11
1.83356704
 21
8.531800069999996
 31
0
  0
LINE
  8
0
 62
7
 10
2.190000110000001
 20
8.596800069999997
 30
0
 11
2.190000110000001
 21
8.531800069999996
 31
0
  0
LINE
  8
0
 62
7
 10
1.83356704
 20
8.531800069999996
 30
0
 11
1.83356704
 21
8.596800069999997
 31
0
  0
LINE
  8
0
 62
7
 10
2.006048310000001
 20
8.728200059999997
 30
0
 11
1.49414993
 21
8.728200059999997
 31
0
  0
LINE
  8
0
 62
7
 10
1.49414993
 20
8.793200059999995
 30
0
 11
2.006048310000001
 21
8.793200059999995
 31
0
  0
LINE
  8
0
 62
7
 10
2.006048310000001
 20
8.793200059999995
 30
0
 11
2.006048310000001
 21
8.728200059999997
 31
0
  0
LINE
  8
0
 62
7
 10
1.49414993
 20
8.728200059999997
 30
0
 11
1.49414993
 21
8.793200059999995
 31
0
  0
LINE
  8
0
 62
7
 10
1.909323689999999
 20
8.924600059999996
 30
0
 11
1.09639526
 21
8.924600059999996
 31
0
  0
LINE
  8
0
 62
7
 10
1.09639526
 20
8.989600059999995
 30
0
 11
1.909323689999999
 21
8.989600059999995
 31
0
  0
LINE
  8
0
 62
7
 10
1.909323689999999
 20
8.989600059999995
 30
0
 11
1.909323689999999
 21
8.924600059999996
 31
0
  0
LINE
  8
0
 62
7
 10
1.09639526
 20
8.924600059999996
 30
0
 11
1.09639526
 21
8.989600059999995
 31
0
  0
LINE
  8
0
 62
7
 10
1.792875819999999
 20
9.121000049999996
 30
0
 11
0.795
 21
9.121000049999996
 31
0
  0
LINE
  8
0
 62
7
 10
0.795
 20
9.186000049999995
 30
0
 11
1.792875819999999
 21
9.186000049999995
 31
0
  0
LINE
  8
0
 62
7
 10
1.792875819999999
 20
9.186000049999995
 30
0
 11
1.792875819999999
 21
9.121000049999996
 31
0
  0
LINE
  8
0
 62
7
 10
0.795
 20
9.121000049999996
 30
0
 11
0.795
 21
9.186000049999995
 31
0
  0
LINE
  8
0
 62
7
 10
0.795
 20
9.382400049999998
 30
0
 11
1.705000220000001
 21
9.382400049999998
 31
0
  0
LINE
  8
0
 62
7
 10
1.705000220000001
 20
9.382400049999998
 30
0
 11
1.705000220000001
 21
9.317400049999996
 31
0
  0
LINE
  8
0
 62
7
 10
0.795
 20
9.317400049999996
 30
0
 11
0.795
 21
9.382400049999998
 31
0
  0
LINE
  8
0
 62
7
 10
1.705000220000001
 20
9.317400049999996
 30
0
 11
0.795
 21
9.317400049999996
 31
0
  0
LINE
  8
0
 62
7
 10
0.7949998400000006
 20
9.578800039999997
 30
0
 11
1.705000220000001
 21
9.578800039999997
 31
0
  0
LINE
  8
0
 62
7
 10
1.705000220000001
 20
9.578800039999997
 30
0
 11
1.705000220000001
 21
9.513800039999998
 31
0
  0
LINE
  8
0
 62
7
 10
0.7949998400000006
 20
9.513800039999998
 30
0
 11
0.7949998400000006
 21
9.578800039999997
 31
0
  0
LINE
  8
0
 62
7
 10
1.705000220000001
 20
9.513800039999998
 30
0
 11
0.7949998400000006
 21
9.513800039999998
 31
0
  0
LINE
  8
0
 62
7
 10
0.795
 20
9.775200029999997
 30
0
 11
1.7050003
 21
9.775200029999997
 31
0
  0
LINE
  8
0
 62
7
 10
1.7050003
 20
9.775200029999997
 30
0
 11
1.7050003
 21
9.710200029999998
 31
0
  0
LINE
  8
0
 62
7
 10
0.795
 20
9.710200029999998
 30
0
 11
0.795
 21
9.775200029999997
 31
0
  0
LINE
  8
0
 62
7
 10
1.7050003
 20
9.710200029999998
 30
0
 11
0.795
 21
9.710200029999998
 31
0
  0
LINE
  8
0
 62
7
 10
0.7949996900000007
 20
9.971600029999998
 30
0
 11
1.70500015
 21
9.971600029999998
 31
0
  0
LINE
  8
0
 62
7
 10
1.70500015
 20
9.971600029999998
 30
0
 11
1.70500015
 21
9.906600029999996
 31
0
  0
LINE
  8
0
 62
7
 10
0.7949996900000007
 20
9.906600029999996
 30
0
 11
0.7949996900000007
 21
9.971600029999998
 31
0
  0
LINE
  8
0
 62
7
 10
1.70500015
 20
9.906600029999996
 30
0
 11
0.7949996900000007
 21
9.906600029999996
 31
0
  0
LINE
  8
0
 62
7
 10
0.7950001499999999
 20
10.16800002
 30
0
 11
1.705000449999999
 21
10.16800002
 31
0
  0
LINE
  8
0
 62
7
 10
1.705000449999999
 20
10.16800002
 30
0
 11
1.705000449999999
 21
10.10300002
 31
0
  0
LINE
  8
0
 62
7
 10
0.7950001499999999
 20
10.10300002
 30
0
 11
0.7950001499999999
 21
10.16800002
 31
0
  0
LINE
  8
0
 62
7
 10
1.705000449999999
 20
10.10300002
 30
0
 11
0.7950001499999999
 21
10.10300002
 31
0
  0
LINE
  8
0
 62
7
 10
1.810855590000001
 20
10.29940002
 30
0
 11
0.7950001499999999
 21
10.29940002
 31
0
  0
LINE
  8
0
 62
7
 10
0.7950001499999999
 20
10.36440002
 30
0
 11
1.810855590000001
 21
10.36440002
 31
0
  0
LINE
  8
0
 62
7
 10
1.810855590000001
 20
10.36440002
 30
0
 11
1.810855590000001
 21
10.29940002
 31
0
  0
LINE
  8
0
 62
7
 10
0.7950001499999999
 20
10.29940002
 30
0
 11
0.7950001499999999
 21
10.36440002
 31
0
  0
LINE
  8
0
 62
7
 10
1.92546638
 20
10.49580001
 30
0
 11
0.9037806700000003
 21
10.49580001
 31
0
  0
LINE
  8
0
 62
7
 10
0.9037806700000003
 20
10.56080001
 30
0
 11
1.92546638
 21
10.56080001
 31
0
  0
LINE
  8
0
 62
7
 10
1.92546638
 20
10.56080001
 30
0
 11
1.92546638
 21
10.49580001
 31
0
  0
LINE
  8
0
 62
7
 10
0.9037806700000003
 20
10.49580001
 30
0
 11
0.9037806700000003
 21
10.56080001
 31
0
  0
LINE
  8
0
 62
7
 10
2.01557933
 20
10.6922
 30
0
 11
1.37488105
 21
10.6922
 31
0
  0
LINE
  8
0
 62
7
 10
1.37488105
 20
10.7572
 30
0
 11
2.01557933
 21
10.7572
 31
0
  0
LINE
  8
0
 62
7
 10
2.01557933
 20
10.7572
 30
0
 11
2.01557933
 21
10.6922
 31
0
  0
LINE
  8
0
 62
7
 10
1.37488105
 20
10.6922
 30
0
 11
1.37488105
 21
10.7572
 31
0
  0
LINE
  8
0
 62
7
 10
1.720701210000001
 20
10.9536
 30
0
 11
2.0500008
 21
10.9536
 31
0
  0
LINE
  8
0
 62
7
 10
2.0500008
 20
10.8886
 30
0
 11
1.720701210000001
 21
10.8886
 31
0
  0
LINE
  8
0
 62
7
 10
2.0500008
 20
10.9536
 30
0
 11
2.0500008
 21
10.8886
 31
0
  0
LINE
  8
0
 62
7
 10
1.720701210000001
 20
10.8886
 30
0
 11
1.720701210000001
 21
10.9536
 31
0
  0
LINE
  8
0
 62
7
 10
7.599999999999999
 20
8.099999999999996
 30
0
 11
7.749999999999999
 21
8.099999999999996
 31
0
  0
LINE
  8
0
 62
7
 10
7.599999999999999
 20
8.299999999999997
 30
0
 11
7.749999999999999
 21
8.299999999999997
 31
0
  0
LINE
  8
0
 62
7
 10
7.599999999999999
 20
10.85
 30
0
 11
7.749999999999999
 21
10.85
 31
0
  0
LINE
  8
0
 62
7
 10
7.599999999999999
 20
11.05
 30
0
 11
7.749999999999999
 21
11.05
 31
0
  0
LINE
  8
0
 62
7
 10
7.599999999999999
 20
8.099999999999996
 30
0
 11
7.599999999999999
 21
7.949999999999996
 31
0
  0
LINE
  8
0
 62
7
 10
7.424999999999999
 20
8.099999999999996
 30
0
 11
7.599999999999999
 21
8.099999999999996
 31
0
  0
LINE
  8
0
 62
7
 10
7.599999999999999
 20
8.399999999999997
 30
0
 11
7.599999999999999
 21
8.299999999999997
 31
0
  0
LINE
  8
0
 62
7
 10
7.424999999999999
 20
8.299999999999997
 30
0
 11
7.599999999999999
 21
8.299999999999997
 31
0
  0
LINE
  8
0
 62
7
 10
7.424999999999999
 20
10.85
 30
0
 11
7.599999999999999
 21
10.85
 31
0
  0
LINE
  8
0
 62
7
 10
7.599999999999999
 20
11.15
 30
0
 11
7.599999999999999
 21
11.05
 31
0
  0
LINE
  8
0
 62
7
 10
7.424999999999999
 20
11.05
 30
0
 11
7.599999999999999
 21
11.05
 31
0
  0
LINE
  8
0
 62
7
 10
7.424999999999999
 20
8.099999999999996
 30
0
 11
7.424999999999999
 21
7.949999999999996
 31
0
  0
LINE
  8
0
 62
7
 10
4.914999999999999
 20
8.099999999999996
 30
0
 11
7.424999999999999
 21
8.099999999999996
 31
0
  0
LINE
  8
0
 62
7
 10
7.424999999999999
 20
8.399999999999997
 30
0
 11
7.424999999999999
 21
8.299999999999997
 31
0
  0
LINE
  8
0
 62
7
 10
4.914999999999999
 20
8.299999999999997
 30
0
 11
7.424999999999999
 21
8.299999999999997
 31
0
  0
LINE
  8
0
 62
7
 10
4.914999999999999
 20
10.85
 30
0
 11
7.424999999999999
 21
10.85
 31
0
  0
LINE
  8
0
 62
7
 10
7.424999999999999
 20
11.15
 30
0
 11
7.424999999999999
 21
11.05
 31
0
  0
LINE
  8
0
 62
7
 10
4.914999999999999
 20
11.05
 30
0
 11
7.424999999999999
 21
11.05
 31
0
  0
LINE
  8
0
 62
7
 10
4.914999999999999
 20
8.099999999999996
 30
0
 11
4.914999999999999
 21
7.949999999999996
 31
0
  0
LINE
  8
0
 62
7
 10
4.739999999999998
 20
8.099999999999996
 30
0
 11
4.914999999999999
 21
8.099999999999996
 31
0
  0
LINE
  8
0
 62
7
 10
4.914999999999999
 20
8.399999999999997
 30
0
 11
4.914999999999999
 21
8.299999999999997
 31
0
  0
LINE
  8
0
 62
7
 10
4.739999999999998
 20
8.299999999999997
 30
0
 11
4.914999999999999
 21
8.299999999999997
 31
0
  0
LINE
  8
0
 62
7
 10
4.739999999999998
 20
10.85
 30
0
 11
4.914999999999999
 21
10.85
 31
0
  0
LINE
  8
0
 62
7
 10
4.914999999999999
 20
11.15
 30
0
 11
4.914999999999999
 21
11.05
 31
0
  0
LINE
  8
0
 62
7
 10
4.739999999999998
 20
11.05
 30
0
 11
4.914999999999999
 21
11.05
 31
0
  0
LINE
  8
0
 62
7
 10
4.739999999999998
 20
8.099999999999996
 30
0
 11
4.739999999999998
 21
7.949999999999996
 31
0
  0
LINE
  8
0
 62
7
 10
4.589999999999999
 20
8.099999999999996
 30
0
 11
4.739999999999998
 21
8.099999999999996
 31
0
  0
LINE
  8
0
 62
7
 10
4.739999999999998
 20
8.399999999999997
 30
0
 11
4.739999999999998
 21
8.299999999999997
 31
0
  0
LINE
  8
0
 62
7
 10
4.589999999999999
 20
8.299999999999997
 30
0
 11
4.739999999999998
 21
8.299999999999997
 31
0
  0
LINE
  8
0
 62
7
 10
4.589999999999999
 20
10.85
 30
0
 11
4.739999999999998
 21
10.85
 31
0
  0
LINE
  8
0
 62
7
 10
4.739999999999998
 20
11.15
 30
0
 11
4.739999999999998
 21
11.05
 31
0
  0
LINE
  8
0
 62
7
 10
4.589999999999999
 20
11.05
 30
0
 11
4.739999999999998
 21
11.05
 31
0
  0
LINE
  8
0
 62
7
  6
DASHDOT
 10
7.749999999999999
 20
8.099999999999996
 30
0
 11
7.749999999999999
 21
8.049999999999995
 31
0
  0
LINE
  8
0
 62
7
  6
DASHDOT
 10
7.749999999999999
 20
10.85
 30
0
 11
7.749999999999999
 21
10.8
 31
0
  0
LINE
  8
0
 62
7
  6
DASHDOT
 10
4.589999999999999
 20
8.099999999999996
 30
0
 11
4.589999999999999
 21
8.049999999999995
 31
0
  0
LINE
  8
0
 62
7
  6
DASHDOT
 10
4.589999999999999
 20
10.85
 30
0
 11
4.589999999999999
 21
10.8
 31
0
  0
LINE
  8
0
 62
7
  6
DASHDOT
 10
7.599999999999999
 20
11.2
 30
0
 11
7.649999999999999
 21
11.2
 31
0
  0
LINE
  8
0
 62
7
  6
DASHDOT
 10
7.599999999999999
 20
7.949999999999996
 30
0
 11
7.649999999999999
 21
7.949999999999996
 31
0
  0
LINE
  8
0
 62
7
  6
DASHDOT
 10
4.914999999999999
 20
11.2
 30
0
 11
4.964999999999999
 21
11.2
 31
0
  0
LINE
  8
0
 62
7
  6
DASHDOT
 10
4.914999999999999
 20
7.949999999999996
 30
0
 11
4.964999999999999
 21
7.949999999999996
 31
0
  0
LINE
  8
0
 62
7
 10
7.599999999999999
 20
8.399999999999997
 30
0
 11
7.749999999999999
 21
8.399999999999997
 31
0
  0
LINE
  8
0
 62
7
 10
7.599999999999999
 20
10.85
 30
0
 11
7.599999999999999
 21
8.399999999999997
 31
0
  0
LINE
  8
0
 62
7
  6
DASHDOT
 10
7.749999999999999
 20
8.449999999999998
 30
0
 11
7.749999999999999
 21
8.399999999999997
 31
0
  0
LINE
  8
0
 62
7
 10
4.914999999999999
 20
8.399999999999997
 30
0
 11
7.424999999999999
 21
8.399999999999997
 31
0
  0
LINE
  8
0
 62
7
 10
7.424999999999999
 20
10.85
 30
0
 11
7.424999999999999
 21
8.399999999999997
 31
0
  0
LINE
  8
0
 62
7
 10
4.914999999999999
 20
10.85
 30
0
 11
4.914999999999999
 21
8.399999999999997
 31
0
  0
LINE
  8
0
 62
7
 10
4.589999999999999
 20
8.399999999999997
 30
0
 11
4.739999999999998
 21
8.399999999999997
 31
0
  0
LINE
  8
0
 62
7
 10
4.739999999999998
 20
10.85
 30
0
 11
4.739999999999998
 21
8.399999999999997
 31
0
  0
LINE
  8
0
 62
7
  6
DASHDOT
 10
4.589999999999999
 20
8.449999999999998
 30
0
 11
4.589999999999999
 21
8.399999999999997
 31
0
  0
LINE
  8
0
 62
7
 10
7.599999999999999
 20
11.15
 30
0
 11
7.749999999999999
 21
11.15
 31
0
  0
LINE
  8
0
 62
7
 10
7.599999999999999
 20
11.2
 30
0
 11
7.599999999999999
 21
11.15
 31
0
  0
LINE
  8
0
 62
7
  6
DASHDOT
 10
7.749999999999999
 20
11.2
 30
0
 11
7.749999999999999
 21
11.15
 31
0
  0
LINE
  8
0
 62
7
 10
4.914999999999999
 20
11.15
 30
0
 11
7.424999999999999
 21
11.15
 31
0
  0
LINE
  8
0
 62
7
 10
7.424999999999999
 20
11.2
 30
0
 11
7.424999999999999
 21
11.15
 31
0
  0
LINE
  8
0
 62
7
 10
4.914999999999999
 20
11.2
 30
0
 11
4.914999999999999
 21
11.15
 31
0
  0
LINE
  8
0
 62
7
 10
4.589999999999999
 20
11.15
 30
0
 11
4.739999999999998
 21
11.15
 31
0
  0
LINE
  8
0
 62
7
 10
4.739999999999998
 20
11.2
 30
0
 11
4.739999999999998
 21
11.15
 31
0
  0
LINE
  8
0
 62
7
  6
DASHDOT
 10
4.589999999999999
 20
11.2
 30
0
 11
4.589999999999999
 21
11.15
 31
0
  0
LINE
  8
0
 62
7
  6
DASHDOT
 10
4.589999999999999
 20
8.299999999999997
 30
0
 11
4.589999999999999
 21
8.099999999999996
 31
0
  0
LINE
  8
0
 62
7
  6
DASHDOT
 10
4.589999999999999
 20
8.399999999999997
 30
0
 11
4.589999999999999
 21
8.299999999999997
 31
0
  0
LINE
  8
0
 62
7
  6
DASHDOT
 10
4.739999999999998
 20
7.949999999999996
 30
0
 11
4.914999999999999
 21
7.949999999999996
 31
0
  0
LINE
  8
0
 62
7
  6
DASHDOT
 10
4.689999999999999
 20
7.949999999999996
 30
0
 11
4.739999999999998
 21
7.949999999999996
 31
0
  0
LINE
  8
0
 62
7
  6
DASHDOT
 10
7.749999999999999
 20
8.299999999999997
 30
0
 11
7.749999999999999
 21
8.099999999999996
 31
0
  0
LINE
  8
0
 62
7
  6
DASHDOT
 10
7.749999999999999
 20
8.399999999999997
 30
0
 11
7.749999999999999
 21
8.299999999999997
 31
0
  0
LINE
  8
0
 62
7
  6
DASHDOT
 10
7.424999999999999
 20
7.949999999999996
 30
0
 11
7.599999999999999
 21
7.949999999999996
 31
0
  0
LINE
  8
0
 62
7
  6
DASHDOT
 10
7.374999999999999
 20
7.949999999999996
 30
0
 11
7.424999999999999
 21
7.949999999999996
 31
0
  0
LINE
  8
0
 62
7
  6
DASHDOT
 10
7.749999999999999
 20
11.05
 30
0
 11
7.749999999999999
 21
10.85
 31
0
  0
LINE
  8
0
 62
7
  6
DASHDOT
 10
7.749999999999999
 20
11.15
 30
0
 11
7.749999999999999
 21
11.05
 31
0
  0
LINE
  8
0
 62
7
  6
DASHDOT
 10
7.424999999999999
 20
11.2
 30
0
 11
7.599999999999999
 21
11.2
 31
0
  0
LINE
  8
0
 62
7
  6
DASHDOT
 10
7.374999999999999
 20
11.2
 30
0
 11
7.424999999999999
 21
11.2
 31
0
  0
LINE
  8
0
 62
7
  6
DASHDOT
 10
4.589999999999999
 20
11.05
 30
0
 11
4.589999999999999
 21
10.85
 31
0
  0
LINE
  8
0
 62
7
  6
DASHDOT
 10
4.589999999999999
 20
11.15
 30
0
 11
4.589999999999999
 21
11.05
 31
0
  0
LINE
  8
0
 62
7
  6
DASHDOT
 10
4.739999999999998
 20
11.2
 30
0
 11
4.914999999999999
 21
11.2
 31
0
  0
LINE
  8
0
 62
7
  6
DASHDOT
 10
4.689999999999999
 20
11.2
 30
0
 11
4.739999999999998
 21
11.2
 31
0
  0
LINE
  8
0
 62
7
 10
0.5
 20
7.949999999999996
 30
0
 11
0.5000000000000001
 21
8.099999999999996
 31
0
  0
LINE
  8
0
 62
7
 10
0.7400000000000001
 20
11.2
 30
0
 11
0.7400000000000001
 21
11.05
 31
0
  0
LINE
  8
0
 62
7
 10
0.5
 20
11.05
 30
0
 11
0.7400000000000001
 21
11.05
 31
0
  0
LINE
  8
0
 62
7
 10
0.5
 20
11.05
 30
0
 11
0.5
 21
11.2
 31
0
  0
LINE
  8
0
 62
7
 10
0.7400000000000001
 20
11.05
 30
0
 11
0.7400000000000001
 21
10.85
 31
0
  0
LINE
  8
0
 62
7
 10
0.5
 20
10.85
 30
0
 11
0.7400000000000001
 21
10.85
 31
0
  0
LINE
  8
0
 62
7
 10
0.5
 20
10.85
 30
0
 11
0.5
 21
11.05
 31
0
  0
LINE
  8
0
 62
7
 10
0.7400000000000001
 20
10.85
 30
0
 11
0.7400000000000001
 21
8.299999999999997
 31
0
  0
LINE
  8
0
 62
7
 10
0.5
 20
8.299999999999997
 30
0
 11
0.7400000000000001
 21
8.299999999999997
 31
0
  0
LINE
  8
0
 62
7
 10
0.5
 20
8.299999999999997
 30
0
 11
0.5
 21
10.85
 31
0
  0
LINE
  8
0
 62
7
 10
0.7400000000000001
 20
8.299999999999997
 30
0
 11
0.7400000000000002
 21
8.099999999999996
 31
0
  0
LINE
  8
0
 62
7
 10
0.5000000000000001
 20
8.099999999999996
 30
0
 11
0.7400000000000002
 21
8.099999999999996
 31
0
  0
LINE
  8
0
 62
7
 10
0.5000000000000001
 20
8.099999999999996
 30
0
 11
0.5
 21
8.299999999999997
 31
0
  0
LINE
  8
0
 62
7
 10
0.7400000000000002
 20
8.099999999999996
 30
0
 11
0.7400000000000001
 21
7.949999999999996
 31
0
  0
LINE
  8
0
 62
7
 10
2.089999999999998
 20
11.05
 30
0
 11
2.089999999999998
 21
10.85
 31
0
  0
LINE
  8
0
 62
7
 10
2.089999999999998
 20
10.85
 30
0
 11
2.389999999999998
 21
10.85
 31
0
  0
LINE
  8
0
 62
7
 10
2.089999999999998
 20
11.05
 30
0
 11
2.389999999999998
 21
11.05
 31
0
  0
LINE
  8
0
 62
7
 10
2.089999999999998
 20
8.299999999999997
 30
0
 11
2.389999999999998
 21
8.299999999999997
 31
0
  0
LINE
  8
0
 62
7
 10
2.089999999999998
 20
8.299999999999997
 30
0
 11
2.089999999999998
 21
8.099999999999996
 31
0
  0
LINE
  8
0
 62
7
 10
2.089999999999998
 20
8.099999999999996
 30
0
 11
2.389999999999998
 21
8.099999999999996
 31
0
  0
LINE
  8
0
 62
7
  6
DASHDOT
 10
0.45
 20
11.2
 30
0
 11
0.5
 21
11.2
 31
0
  0
LINE
  8
0
 62
7
  6
DASHDOT
 10
2.389999999999998
 20
11.2
 30
0
 11
2.389999999999998
 21
11.15
 31
0
  0
LINE
  8
0
 62
7
  6
DASHDOT
 10
2.389999999999998
 20
8.049999999999995
 30
0
 11
2.389999999999998
 21
8.099999999999996
 31
0
  0
LINE
  8
0
 62
7
  6
DASHDOT
 10
0.45
 20
7.949999999999996
 30
0
 11
0.5
 21
7.949999999999996
 31
0
  0
LINE
  8
0
 62
7
 10
2.089999999999998
 20
8.399999999999997
 30
0
 11
2.389999999999998
 21
8.399999999999997
 31
0
  0
LINE
  8
0
 62
7
  6
DASHDOT
 10
2.389999999999998
 20
8.399999999999997
 30
0
 11
2.389999999999998
 21
8.449999999999998
 31
0
  0
LINE
  8
0
 62
7
 10
2.089999999999998
 20
11.15
 30
0
 11
2.389999999999998
 21
11.15
 31
0
  0
LINE
  8
0
 62
7
  6
DASHDOT
 10
2.389999999999998
 20
11.15
 30
0
 11
2.389999999999998
 21
11.05
 31
0
  0
LINE
  8
0
 62
7
  6
DASHDOT
 10
2.389999999999998
 20
8.299999999999997
 30
0
 11
2.389999999999998
 21
8.399999999999997
 31
0
  0
LINE
  8
0
 62
7
  6
DASHDOT
 10
2.389999999999998
 20
8.099999999999996
 30
0
 11
2.389999999999998
 21
8.299999999999997
 31
0
  0
LINE
  8
0
 62
7
  6
DASHDOT
 10
0.5
 20
7.949999999999996
 30
0
 11
0.7400000000000001
 21
7.949999999999996
 31
0
  0
LINE
  8
0
 62
7
  6
DASHDOT
 10
0.7400000000000001
 20
7.949999999999996
 30
0
 11
0.79
 21
7.949999999999996
 31
0
  0
LINE
  8
0
 62
7
  6
DASHDOT
 10
0.7400000000000001
 20
11.2
 30
0
 11
0.79
 21
11.2
 31
0
  0
LINE
  8
0
 62
7
  6
DASHDOT
 10
0.5
 20
11.2
 30
0
 11
0.7400000000000001
 21
11.2
 31
0
  0
LINE
  8
0
 62
7
  6
DASHDOT
 10
2.389999999999998
 20
10.85
 30
0
 11
2.389999999999998
 21
10.8
 31
0
  0
LINE
  8
0
 62
7
  6
DASHDOT
 10
2.389999999999998
 20
11.05
 30
0
 11
2.389999999999998
 21
10.85
 31
0
  0
LINE
  8
0
 62
7
  6
DASHED
 10
0.7400000000000001
 20
11.05
 30
0
 11
2.089999999999998
 21
11.05
 31
0
  0
LINE
  8
0
 62
7
  6
DASHED
 10
0.7400000000000001
 20
10.85
 30
0
 11
2.089999999999998
 21
10.85
 31
0
  0
LINE
  8
0
 62
7
  6
DASHED
 10
0.7400000000000001
 20
8.299999999999997
 30
0
 11
2.089999999999998
 21
8.299999999999997
 31
0
  0
LINE
  8
0
 62
7
  6
DASHED
 10
0.7400000000000002
 20
8.099999999999996
 30
0
 11
2.089999999999998
 21
8.099999999999996
 31
0
  0
LINE
  8
0
 62
7
 10
4.589999999999999
 20
5.219999999999995
 30
0
 11
4.739999999999998
 21
5.219999999999995
 31
0
  0
LINE
  8
0
 62
7
 10
4.739999999999998
 20
5.219999999999995
 30
0
 11
4.739999999999998
 21
5.369999999999996
 31
0
  0
LINE
  8
0
 62
7
 10
4.914999999999999
 20
5.369999999999996
 30
0
 11
4.914999999999999
 21
5.219999999999995
 31
0
  0
LINE
  8
0
 62
7
 10
4.914999999999999
 20
5.219999999999995
 30
0
 11
7.424999999999999
 21
5.219999999999995
 31
0
  0
LINE
  8
0
 62
7
 10
7.424999999999999
 20
5.219999999999995
 30
0
 11
7.424999999999999
 21
5.369999999999996
 31
0
  0
LINE
  8
0
 62
7
 10
7.599999999999999
 20
5.369999999999996
 30
0
 11
7.599999999999999
 21
5.219999999999995
 31
0
  0
LINE
  8
0
 62
7
 10
7.599999999999999
 20
5.219999999999995
 30
0
 11
7.765
 21
5.219999999999995
 31
0
  0
LINE
  8
0
 62
7
 10
4.589999999999999
 20
4.980000000000002
 30
0
 11
7.765
 21
4.980000000000002
 31
0
  0
LINE
  8
0
 62
7
 10
4.589999999999999
 20
4.940000000000002
 30
0
 11
7.765
 21
4.940000000000002
 31
0
  0
LINE
  8
0
 62
7
 10
4.589999999999999
 20
4.700000000000002
 30
0
 11
4.739999999999998
 21
4.700000000000002
 31
0
  0
LINE
  8
0
 62
7
 10
4.914999999999999
 20
3.250000000000002
 30
0
 11
4.914999999999999
 21
3.350000000000002
 31
0
  0
LINE
  8
0
 62
7
 10
4.739999999999998
 20
3.250000000000002
 30
0
 11
4.914999999999999
 21
3.250000000000002
 31
0
  0
LINE
  8
0
 62
7
 10
4.739999999999998
 20
4.700000000000002
 30
0
 11
4.739999999999998
 21
3.250000000000002
 31
0
  0
LINE
  8
0
 62
7
 10
4.914999999999999
 20
4.700000000000002
 30
0
 11
7.424999999999999
 21
4.700000000000002
 31
0
  0
LINE
  8
0
 62
7
 10
7.424999999999999
 20
4.700000000000002
 30
0
 11
7.424999999999999
 21
3.400000000000002
 31
0
  0
LINE
  8
0
 62
7
 10
7.599999999999999
 20
3.350000000000002
 30
0
 11
7.599999999999999
 21
4.700000000000002
 31
0
  0
LINE
  8
0
 62
7
 10
7.599999999999999
 20
4.700000000000002
 30
0
 11
7.765
 21
4.700000000000002
 31
0
  0
LINE
  8
0
 62
7
 10
7.424999999999999
 20
3.350000000000002
 30
0
 11
7.599999999999999
 21
3.350000000000002
 31
0
  0
LINE
  8
0
 62
7
 10
7.424999999999999
 20
3.400000000000002
 30
0
 11
4.914999999999999
 21
3.400000000000002
 31
0
  0
LINE
  8
0
 62
7
 10
4.914999999999999
 20
3.400000000000002
 30
0
 11
4.914999999999999
 21
4.700000000000002
 31
0
  0
LINE
  8
0
 62
7
 10
7.424999999999999
 20
3.400000000000002
 30
0
 11
7.424999999999999
 21
3.350000000000002
 31
0
  0
LINE
  8
0
 62
7
  6
DASHDOT
 10
7.424999999999999
 20
3.350000000000002
 30
0
 11
4.914999999999999
 21
3.350000000000002
 31
0
  0
LINE
  8
0
 62
7
 10
4.914999999999999
 20
3.350000000000002
 30
0
 11
4.914999999999999
 21
3.400000000000002
 31
0
  0
LINE
  8
0
 62
7
  6
DASHDOT
 10
4.689999999999999
 20
5.369999999999996
 30
0
 11
4.739999999999998
 21
5.369999999999996
 31
0
  0
LINE
  8
0
 62
7
  6
DASHDOT
 10
7.374999999999999
 20
5.369999999999996
 30
0
 11
7.424999999999999
 21
5.369999999999996
 31
0
  0
LINE
  8
0
 62
7
  6
DASHDOT
 10
4.589999999999999
 20
5.269999999999996
 30
0
 11
4.589999999999999
 21
5.219999999999995
 31
0
  0
LINE
  8
0
 62
7
  6
DASHDOT
 10
7.765
 20
5.269999999999996
 30
0
 11
7.765
 21
5.219999999999995
 31
0
  0
LINE
  8
0
 62
7
  6
DASHDOT
 10
7.765
 20
5.219999999999995
 30
0
 11
7.765
 21
4.980000000000002
 31
0
  0
LINE
  8
0
 62
7
  6
DASHDOT
 10
7.765
 20
4.700000000000002
 30
0
 11
7.765
 21
4.650000000000002
 31
0
  0
LINE
  8
0
 62
7
  6
DASHDOT
 10
4.739999999999998
 20
5.369999999999996
 30
0
 11
4.914999999999999
 21
5.369999999999996
 31
0
  0
LINE
  8
0
 62
7
  6
DASHDOT
 10
4.914999999999999
 20
5.369999999999996
 30
0
 11
4.964999999999999
 21
5.369999999999996
 31
0
  0
LINE
  8
0
 62
7
  6
DASHDOT
 10
4.589999999999999
 20
5.219999999999995
 30
0
 11
4.589999999999999
 21
4.980000000000002
 31
0
  0
LINE
  8
0
 62
7
  6
DASHDOT
 10
4.589999999999999
 20
4.700000000000002
 30
0
 11
4.589999999999999
 21
4.650000000000002
 31
0
  0
LINE
  8
0
 62
7
  6
DASHDOT
 10
7.765
 20
4.980000000000002
 30
0
 11
7.765
 21
4.940000000000002
 31
0
  0
LINE
  8
0
 62
7
  6
DASHDOT
 10
4.589999999999999
 20
4.980000000000002
 30
0
 11
4.589999999999999
 21
4.940000000000002
 31
0
  0
LINE
  8
0
 62
7
  6
DASHDOT
 10
7.765
 20
4.940000000000002
 30
0
 11
7.765
 21
4.700000000000002
 31
0
  0
LINE
  8
0
 62
7
  6
DASHDOT
 10
4.589999999999999
 20
4.940000000000002
 30
0
 11
4.589999999999999
 21
4.700000000000002
 31
0
  0
LINE
  8
0
 62
7
  6
DASHDOT
 10
7.599999999999999
 20
5.369999999999996
 30
0
 11
7.649999999999999
 21
5.369999999999996
 31
0
  0
LINE
  8
0
 62
7
  6
DASHDOT
 10
7.424999999999999
 20
5.369999999999996
 30
0
 11
7.599999999999999
 21
5.369999999999996
 31
0
  0
LINE
  8
0
 62
7
 10
5.336852683387272
 20
4.39592621359223
 30
0
 11
5.336852683387272
 21
4.51592621359223
 31
0
  0
LINE
  8
0
 62
7
 10
5.412452683387272
 20
4.51592621359223
 30
0
 11
5.358452683387272
 21
4.455926213592231
 31
0
  0
LINE
  8
0
 62
7
 10
5.358452683387272
 20
4.455926213592231
 30
0
 11
5.412452683387272
 21
4.39592621359223
 31
0
  0
LINE
  8
0
 62
7
 10
5.358452683387272
 20
4.455926213592231
 30
0
 11
5.336852683387272
 21
4.43192621359223
 31
0
  0
LINE
  8
0
 62
7
 10
5.520452683387272
 20
4.51592621359223
 30
0
 11
5.444852683387271
 21
4.51592621359223
 31
0
  0
LINE
  8
0
 62
7
 10
5.444852683387271
 20
4.51592621359223
 30
0
 11
5.444852683387271
 21
4.455926213592231
 31
0
  0
LINE
  8
0
 62
7
 10
5.444852683387271
 20
4.39592621359223
 30
0
 11
5.520452683387272
 21
4.39592621359223
 31
0
  0
LINE
  8
0
 62
7
 10
5.509652683387272
 20
4.455926213592231
 30
0
 11
5.444852683387271
 21
4.455926213592231
 31
0
  0
LINE
  8
0
 62
7
 10
5.444852683387271
 20
4.455926213592231
 30
0
 11
5.444852683387271
 21
4.39592621359223
 31
0
  0
LINE
  8
0
 62
7
 10
5.552852683387272
 20
4.39592621359223
 30
0
 11
5.552852683387272
 21
4.51592621359223
 31
0
  0
LINE
  8
0
 62
7
 10
5.552852683387272
 20
4.51592621359223
 30
0
 11
5.628452683387272
 21
4.39592621359223
 31
0
  0
LINE
  8
0
 62
7
 10
5.628452683387272
 20
4.39592621359223
 30
0
 11
5.628452683387272
 21
4.51592621359223
 31
0
  0
LINE
  8
0
 62
7
 10
5.660852683387271
 20
4.39592621359223
 30
0
 11
5.660852683387271
 21
4.51592621359223
 31
0
  0
LINE
  8
0
 62
7
 10
5.660852683387271
 20
4.51592621359223
 30
0
 11
5.736452683387272
 21
4.39592621359223
 31
0
  0
LINE
  8
0
 62
7
 10
5.736452683387272
 20
4.39592621359223
 30
0
 11
5.736452683387272
 21
4.51592621359223
 31
0
  0
LINE
  8
0
 62
7
 10
5.844452683387272
 20
4.47992621359223
 30
0
 11
5.841752683387271
 21
4.49192621359223
 31
0
  0
LINE
  8
0
 62
7
 10
5.841752683387271
 20
4.49192621359223
 30
0
 11
5.836352683387272
 21
4.50092621359223
 31
0
  0
LINE
  8
0
 62
7
 10
5.836352683387272
 20
4.50092621359223
 30
0
 11
5.830952683387272
 21
4.50692621359223
 31
0
  0
LINE
  8
0
 62
7
 10
5.830952683387272
 20
4.50692621359223
 30
0
 11
5.822852683387272
 21
4.51292621359223
 31
0
  0
LINE
  8
0
 62
7
 10
5.822852683387272
 20
4.51292621359223
 30
0
 11
5.814752683387272
 21
4.51592621359223
 31
0
  0
LINE
  8
0
 62
7
 10
5.814752683387272
 20
4.51592621359223
 30
0
 11
5.798552683387271
 21
4.51592621359223
 31
0
  0
LINE
  8
0
 62
7
 10
5.798552683387271
 20
4.51592621359223
 30
0
 11
5.790452683387272
 21
4.51292621359223
 31
0
  0
LINE
  8
0
 62
7
 10
5.790452683387272
 20
4.51292621359223
 30
0
 11
5.782352683387272
 21
4.50692621359223
 31
0
  0
LINE
  8
0
 62
7
 10
5.782352683387272
 20
4.50692621359223
 30
0
 11
5.776952683387272
 21
4.50092621359223
 31
0
  0
LINE
  8
0
 62
7
 10
5.776952683387272
 20
4.50092621359223
 30
0
 11
5.771552683387271
 21
4.49192621359223
 31
0
  0
LINE
  8
0
 62
7
 10
5.771552683387271
 20
4.49192621359223
 30
0
 11
5.768852683387272
 21
4.47992621359223
 31
0
  0
LINE
  8
0
 62
7
 10
5.768852683387272
 20
4.47992621359223
 30
0
 11
5.768852683387272
 21
4.43192621359223
 31
0
  0
LINE
  8
0
 62
7
 10
5.768852683387272
 20
4.43192621359223
 30
0
 11
5.771552683387271
 21
4.41992621359223
 31
0
  0
LINE
  8
0
 62
7
 10
5.771552683387271
 20
4.41992621359223
 30
0
 11
5.776952683387272
 21
4.41092621359223
 31
0
  0
LINE
  8
0
 62
7
 10
5.776952683387272
 20
4.41092621359223
 30
0
 11
5.782352683387272
 21
4.40492621359223
 31
0
  0
LINE
  8
0
 62
7
 10
5.782352683387272
 20
4.40492621359223
 30
0
 11
5.790452683387272
 21
4.39892621359223
 31
0
  0
LINE
  8
0
 62
7
 10
5.790452683387272
 20
4.39892621359223
 30
0
 11
5.798552683387271
 21
4.39592621359223
 31
0
  0
LINE
  8
0
 62
7
 10
5.798552683387271
 20
4.39592621359223
 30
0
 11
5.814752683387272
 21
4.39592621359223
 31
0
  0
LINE
  8
0
 62
7
 10
5.814752683387272
 20
4.39592621359223
 30
0
 11
5.822852683387272
 21
4.39892621359223
 31
0
  0
LINE
  8
0
 62
7
 10
5.822852683387272
 20
4.39892621359223
 30
0
 11
5.830952683387272
 21
4.40492621359223
 31
0
  0
LINE
  8
0
 62
7
 10
5.830952683387272
 20
4.40492621359223
 30
0
 11
5.836352683387272
 21
4.41092621359223
 31
0
  0
LINE
  8
0
 62
7
 10
5.836352683387272
 20
4.41092621359223
 30
0
 11
5.841752683387271
 21
4.41992621359223
 31
0
  0
LINE
  8
0
 62
7
 10
5.841752683387271
 20
4.41992621359223
 30
0
 11
5.844452683387272
 21
4.43192621359223
 31
0
  0
LINE
  8
0
 62
7
 10
5.844452683387272
 20
4.43192621359223
 30
0
 11
5.844452683387272
 21
4.455926213592231
 31
0
  0
LINE
  8
0
 62
7
 10
5.844452683387272
 20
4.455926213592231
 30
0
 11
5.812052683387272
 21
4.455926213592231
 31
0
  0
LINE
  8
0
 62
7
 10
5.922752683387271
 20
4.51592621359223
 30
0
 11
5.906552683387272
 21
4.51592621359223
 31
0
  0
LINE
  8
0
 62
7
 10
5.906552683387272
 20
4.51592621359223
 30
0
 11
5.898452683387272
 21
4.51292621359223
 31
0
  0
LINE
  8
0
 62
7
 10
5.898452683387272
 20
4.51292621359223
 30
0
 11
5.890352683387272
 21
4.50692621359223
 31
0
  0
LINE
  8
0
 62
7
 10
5.890352683387272
 20
4.50692621359223
 30
0
 11
5.884952683387272
 21
4.50092621359223
 31
0
  0
LINE
  8
0
 62
7
 10
5.884952683387272
 20
4.50092621359223
 30
0
 11
5.879552683387272
 21
4.49192621359223
 31
0
  0
LINE
  8
0
 62
7
 10
5.879552683387272
 20
4.49192621359223
 30
0
 11
5.876852683387272
 21
4.47992621359223
 31
0
  0
LINE
  8
0
 62
7
 10
5.876852683387272
 20
4.47992621359223
 30
0
 11
5.876852683387272
 21
4.43192621359223
 31
0
  0
LINE
  8
0
 62
7
 10
5.876852683387272
 20
4.43192621359223
 30
0
 11
5.879552683387272
 21
4.41992621359223
 31
0
  0
LINE
  8
0
 62
7
 10
5.879552683387272
 20
4.41992621359223
 30
0
 11
5.884952683387272
 21
4.41092621359223
 31
0
  0
LINE
  8
0
 62
7
 10
5.884952683387272
 20
4.41092621359223
 30
0
 11
5.890352683387272
 21
4.40492621359223
 31
0
  0
LINE
  8
0
 62
7
 10
5.890352683387272
 20
4.40492621359223
 30
0
 11
5.898452683387272
 21
4.39892621359223
 31
0
  0
LINE
  8
0
 62
7
 10
5.898452683387272
 20
4.39892621359223
 30
0
 11
5.906552683387272
 21
4.39592621359223
 31
0
  0
LINE
  8
0
 62
7
 10
5.906552683387272
 20
4.39592621359223
 30
0
 11
5.922752683387271
 21
4.39592621359223
 31
0
  0
LINE
  8
0
 62
7
 10
5.922752683387271
 20
4.39592621359223
 30
0
 11
5.930852683387272
 21
4.39892621359223
 31
0
  0
LINE
  8
0
 62
7
 10
5.930852683387272
 20
4.39892621359223
 30
0
 11
5.938952683387272
 21
4.40492621359223
 31
0
  0
LINE
  8
0
 62
7
 10
5.938952683387272
 20
4.40492621359223
 30
0
 11
5.944352683387272
 21
4.41092621359223
 31
0
  0
LINE
  8
0
 62
7
 10
5.944352683387272
 20
4.41092621359223
 30
0
 11
5.949752683387271
 21
4.41992621359223
 31
0
  0
LINE
  8
0
 62
7
 10
5.949752683387271
 20
4.41992621359223
 30
0
 11
5.952452683387273
 21
4.43192621359223
 31
0
  0
LINE
  8
0
 62
7
 10
5.952452683387273
 20
4.43192621359223
 30
0
 11
5.952452683387273
 21
4.47992621359223
 31
0
  0
LINE
  8
0
 62
7
 10
5.952452683387273
 20
4.47992621359223
 30
0
 11
5.949752683387271
 21
4.49192621359223
 31
0
  0
LINE
  8
0
 62
7
 10
5.949752683387271
 20
4.49192621359223
 30
0
 11
5.944352683387272
 21
4.50092621359223
 31
0
  0
LINE
  8
0
 62
7
 10
5.944352683387272
 20
4.50092621359223
 30
0
 11
5.938952683387272
 21
4.50692621359223
 31
0
  0
LINE
  8
0
 62
7
 10
5.938952683387272
 20
4.50692621359223
 30
0
 11
5.930852683387272
 21
4.51292621359223
 31
0
  0
LINE
  8
0
 62
7
 10
5.930852683387272
 20
4.51292621359223
 30
0
 11
5.922752683387271
 21
4.51592621359223
 31
0
  0
LINE
  8
0
 62
7
 10
5.974052683387272
 20
4.51592621359223
 30
0
 11
6.011852683387273
 21
4.51592621359223
 31
0
  0
LINE
  8
0
 62
7
 10
6.011852683387273
 20
4.51592621359223
 30
0
 11
6.011852683387273
 21
4.39592621359223
 31
0
  0
LINE
  8
0
 62
7
 10
6.011852683387273
 20
4.51592621359223
 30
0
 11
6.049652683387272
 21
4.51592621359223
 31
0
  0
LINE
  8
0
 62
7
 10
6.082052683387273
 20
4.51592621359223
 30
0
 11
6.119852683387272
 21
4.51592621359223
 31
0
  0
LINE
  8
0
 62
7
 10
6.119852683387272
 20
4.51592621359223
 30
0
 11
6.119852683387272
 21
4.39592621359223
 31
0
  0
LINE
  8
0
 62
7
 10
6.119852683387272
 20
4.51592621359223
 30
0
 11
6.157652683387274
 21
4.51592621359223
 31
0
  0
LINE
  8
0
 62
7
 10
6.276452683387272
 20
4.43792621359223
 30
0
 11
6.330452683387271
 21
4.43792621359223
 31
0
  0
LINE
  8
0
 62
7
 10
6.438452683387273
 20
4.51592621359223
 30
0
 11
6.476252683387273
 21
4.51592621359223
 31
0
  0
LINE
  8
0
 62
7
 10
6.476252683387273
 20
4.51592621359223
 30
0
 11
6.476252683387273
 21
4.39592621359223
 31
0
  0
LINE
  8
0
 62
7
 10
6.476252683387273
 20
4.51592621359223
 30
0
 11
6.514052683387272
 21
4.51592621359223
 31
0
  0
LINE
  8
0
 62
7
 10
6.546452683387272
 20
4.39592621359223
 30
0
 11
6.546452683387272
 21
4.51592621359223
 31
0
  0
LINE
  8
0
 62
7
 10
6.546452683387272
 20
4.51592621359223
 30
0
 11
6.597752683387272
 21
4.51592621359223
 31
0
  0
LINE
  8
0
 62
7
 10
6.597752683387272
 20
4.51592621359223
 30
0
 11
6.608552683387273
 21
4.51292621359223
 31
0
  0
LINE
  8
0
 62
7
 10
6.608552683387273
 20
4.51292621359223
 30
0
 11
6.616652683387272
 21
4.50692621359223
 31
0
  0
LINE
  8
0
 62
7
 10
6.616652683387272
 20
4.50692621359223
 30
0
 11
6.619352683387271
 21
4.50092621359223
 31
0
  0
LINE
  8
0
 62
7
 10
6.619352683387271
 20
4.50092621359223
 30
0
 11
6.622052683387273
 21
4.49192621359223
 31
0
  0
LINE
  8
0
 62
7
 10
6.622052683387273
 20
4.49192621359223
 30
0
 11
6.622052683387273
 21
4.47992621359223
 31
0
  0
LINE
  8
0
 62
7
 10
6.622052683387273
 20
4.47992621359223
 30
0
 11
6.619352683387271
 21
4.470926213592231
 31
0
  0
LINE
  8
0
 62
7
 10
6.619352683387271
 20
4.470926213592231
 30
0
 11
6.616652683387272
 21
4.46492621359223
 31
0
  0
LINE
  8
0
 62
7
 10
6.616652683387272
 20
4.46492621359223
 30
0
 11
6.608552683387273
 21
4.45892621359223
 31
0
  0
LINE
  8
0
 62
7
 10
6.608552683387273
 20
4.45892621359223
 30
0
 11
6.597752683387272
 21
4.455926213592231
 31
0
  0
LINE
  8
0
 62
7
 10
6.597752683387272
 20
4.455926213592231
 30
0
 11
6.589652683387271
 21
4.455926213592231
 31
0
  0
LINE
  8
0
 62
7
 10
6.589652683387271
 20
4.455926213592231
 30
0
 11
6.622052683387273
 21
4.39592621359223
 31
0
  0
LINE
  8
0
 62
7
 10
6.589652683387271
 20
4.455926213592231
 30
0
 11
6.546452683387272
 21
4.455926213592231
 31
0
  0
LINE
  8
0
 62
7
 10
6.719252683387274
 20
4.51592621359223
 30
0
 11
6.643652683387272
 21
4.51592621359223
 31
0
  0
LINE
  8
0
 62
7
 10
6.643652683387272
 20
4.51592621359223
 30
0
 11
6.643652683387272
 21
4.455926213592231
 31
0
  0
LINE
  8
0
 62
7
 10
6.643652683387272
 20
4.39592621359223
 30
0
 11
6.719252683387274
 21
4.39592621359223
 31
0
  0
LINE
  8
0
 62
7
 10
6.708452683387273
 20
4.455926213592231
 30
0
 11
6.643652683387272
 21
4.455926213592231
 31
0
  0
LINE
  8
0
 62
7
 10
6.643652683387272
 20
4.455926213592231
 30
0
 11
6.643652683387272
 21
4.39592621359223
 31
0
  0
LINE
  8
0
 62
7
 10
6.751652683387274
 20
4.39592621359223
 30
0
 11
6.751652683387274
 21
4.455926213592231
 31
0
  0
LINE
  8
0
 62
7
 10
6.751652683387274
 20
4.51592621359223
 30
0
 11
6.802952683387274
 21
4.51592621359223
 31
0
  0
LINE
  8
0
 62
7
 10
6.802952683387274
 20
4.51592621359223
 30
0
 11
6.813752683387275
 21
4.51292621359223
 31
0
  0
LINE
  8
0
 62
7
 10
6.813752683387275
 20
4.51292621359223
 30
0
 11
6.821852683387274
 21
4.50692621359223
 31
0
  0
LINE
  8
0
 62
7
 10
6.821852683387274
 20
4.50692621359223
 30
0
 11
6.824552683387274
 21
4.50092621359223
 31
0
  0
LINE
  8
0
 62
7
 10
6.824552683387274
 20
4.50092621359223
 30
0
 11
6.827252683387274
 21
4.49192621359223
 31
0
  0
LINE
  8
0
 62
7
 10
6.827252683387274
 20
4.49192621359223
 30
0
 11
6.827252683387274
 21
4.47992621359223
 31
0
  0
LINE
  8
0
 62
7
 10
6.827252683387274
 20
4.47992621359223
 30
0
 11
6.824552683387274
 21
4.470926213592231
 31
0
  0
LINE
  8
0
 62
7
 10
6.824552683387274
 20
4.470926213592231
 30
0
 11
6.821852683387274
 21
4.46492621359223
 31
0
  0
LINE
  8
0
 62
7
 10
6.821852683387274
 20
4.46492621359223
 30
0
 11
6.813752683387275
 21
4.45892621359223
 31
0
  0
LINE
  8
0
 62
7
 10
6.813752683387275
 20
4.45892621359223
 30
0
 11
6.802952683387274
 21
4.455926213592231
 31
0
  0
LINE
  8
0
 62
7
 10
6.802952683387274
 20
4.455926213592231
 30
0
 11
6.751652683387274
 21
4.455926213592231
 31
0
  0
LINE
  8
0
 62
7
 10
6.751652683387274
 20
4.455926213592231
 30
0
 11
6.751652683387274
 21
4.51592621359223
 31
0
  0
LINE
  8
0
 62
7
 10
6.848852683387273
 20
4.39592621359223
 30
0
 11
6.848852683387273
 21
4.455926213592231
 31
0
  0
LINE
  8
0
 62
7
 10
6.848852683387273
 20
4.51592621359223
 30
0
 11
6.900152683387273
 21
4.51592621359223
 31
0
  0
LINE
  8
0
 62
7
 10
6.900152683387273
 20
4.51592621359223
 30
0
 11
6.910952683387272
 21
4.51292621359223
 31
0
  0
LINE
  8
0
 62
7
 10
6.910952683387272
 20
4.51292621359223
 30
0
 11
6.919052683387273
 21
4.50692621359223
 31
0
  0
LINE
  8
0
 62
7
 10
6.919052683387273
 20
4.50692621359223
 30
0
 11
6.921752683387273
 21
4.50092621359223
 31
0
  0
LINE
  8
0
 62
7
 10
6.921752683387273
 20
4.50092621359223
 30
0
 11
6.924452683387273
 21
4.49192621359223
 31
0
  0
LINE
  8
0
 62
7
 10
6.924452683387273
 20
4.49192621359223
 30
0
 11
6.924452683387273
 21
4.47992621359223
 31
0
  0
LINE
  8
0
 62
7
 10
6.924452683387273
 20
4.47992621359223
 30
0
 11
6.921752683387273
 21
4.470926213592231
 31
0
  0
LINE
  8
0
 62
7
 10
6.921752683387273
 20
4.470926213592231
 30
0
 11
6.919052683387273
 21
4.46492621359223
 31
0
  0
LINE
  8
0
 62
7
 10
6.919052683387273
 20
4.46492621359223
 30
0
 11
6.910952683387272
 21
4.45892621359223
 31
0
  0
LINE
  8
0
 62
7
 10
6.910952683387272
 20
4.45892621359223
 30
0
 11
6.900152683387273
 21
4.455926213592231
 31
0
  0
LINE
  8
0
 62
7
 10
6.900152683387273
 20
4.455926213592231
 30
0
 11
6.848852683387273
 21
4.455926213592231
 31
0
  0
LINE
  8
0
 62
7
 10
6.848852683387273
 20
4.455926213592231
 30
0
 11
6.848852683387273
 21
4.51592621359223
 31
0
  0
LINE
  8
0
 62
7
 10
7.021652683387273
 20
4.51592621359223
 30
0
 11
6.946052683387272
 21
4.51592621359223
 31
0
  0
LINE
  8
0
 62
7
 10
6.946052683387272
 20
4.51592621359223
 30
0
 11
6.946052683387272
 21
4.455926213592231
 31
0
  0
LINE
  8
0
 62
7
 10
6.946052683387272
 20
4.39592621359223
 30
0
 11
7.021652683387273
 21
4.39592621359223
 31
0
  0
LINE
  8
0
 62
7
 10
7.010852683387274
 20
4.455926213592231
 30
0
 11
6.946052683387272
 21
4.455926213592231
 31
0
  0
LINE
  8
0
 62
7
 10
6.946052683387272
 20
4.455926213592231
 30
0
 11
6.946052683387272
 21
4.39592621359223
 31
0
  0
LINE
  8
0
 62
7
 10
4.374999999999999
 20
2.890000000000003
 30
0
 11
4.374999999999999
 21
3.010000000000003
 31
0
  0
LINE
  8
0
 62
7
 10
4.450599999999999
 20
3.010000000000003
 30
0
 11
4.3966
 21
2.950000000000003
 31
0
  0
LINE
  8
0
 62
7
 10
4.3966
 20
2.950000000000003
 30
0
 11
4.450599999999999
 21
2.890000000000003
 31
0
  0
LINE
  8
0
 62
7
 10
4.3966
 20
2.950000000000003
 30
0
 11
4.374999999999999
 21
2.926000000000004
 31
0
  0
LINE
  8
0
 62
7
 10
4.483
 20
2.992000000000003
 30
0
 11
4.4884
 21
3.001000000000003
 31
0
  0
LINE
  8
0
 62
7
 10
4.4884
 20
3.001000000000003
 30
0
 11
4.496499999999999
 21
3.007000000000003
 31
0
  0
LINE
  8
0
 62
7
 10
4.496499999999999
 20
3.007000000000003
 30
0
 11
4.5073
 21
3.010000000000003
 31
0
  0
LINE
  8
0
 62
7
 10
4.5073
 20
3.010000000000003
 30
0
 11
4.523499999999999
 21
3.010000000000003
 31
0
  0
LINE
  8
0
 62
7
 10
4.523499999999999
 20
3.010000000000003
 30
0
 11
4.5343
 21
3.007000000000003
 31
0
  0
LINE
  8
0
 62
7
 10
4.5343
 20
3.007000000000003
 30
0
 11
4.542399999999999
 21
3.001000000000003
 31
0
  0
LINE
  8
0
 62
7
 10
4.542399999999999
 20
3.001000000000003
 30
0
 11
4.5478
 21
2.992000000000003
 31
0
  0
LINE
  8
0
 62
7
 10
4.5478
 20
2.992000000000003
 30
0
 11
4.5478
 21
2.980000000000003
 31
0
  0
LINE
  8
0
 62
7
 10
4.5478
 20
2.980000000000003
 30
0
 11
4.542399999999999
 21
2.968000000000003
 31
0
  0
LINE
  8
0
 62
7
 10
4.542399999999999
 20
2.968000000000003
 30
0
 11
4.483
 21
2.890000000000003
 31
0
  0
LINE
  8
0
 62
7
 10
4.483
 20
2.890000000000003
 30
0
 11
4.5478
 21
2.890000000000003
 31
0
  0
LINE
  8
0
 62
7
 10
4.5802
 20
3.010000000000003
 30
0
 11
4.618
 21
2.890000000000003
 31
0
  0
LINE
  8
0
 62
7
 10
4.618
 20
2.890000000000003
 30
0
 11
4.655799999999999
 21
3.010000000000003
 31
0
  0
LINE
  8
0
 62
7
 10
4.688199999999999
 20
2.992000000000003
 30
0
 11
4.693599999999999
 21
3.001000000000003
 31
0
  0
LINE
  8
0
 62
7
 10
4.693599999999999
 20
3.001000000000003
 30
0
 11
4.701699999999999
 21
3.007000000000003
 31
0
  0
LINE
  8
0
 62
7
 10
4.701699999999999
 20
3.007000000000003
 30
0
 11
4.712499999999999
 21
3.010000000000003
 31
0
  0
LINE
  8
0
 62
7
 10
4.712499999999999
 20
3.010000000000003
 30
0
 11
4.728699999999999
 21
3.010000000000003
 31
0
  0
LINE
  8
0
 62
7
 10
4.728699999999999
 20
3.010000000000003
 30
0
 11
4.739499999999999
 21
3.007000000000003
 31
0
  0
LINE
  8
0
 62
7
 10
4.739499999999999
 20
3.007000000000003
 30
0
 11
4.747599999999998
 21
3.001000000000003
 31
0
  0
LINE
  8
0
 62
7
 10
4.747599999999998
 20
3.001000000000003
 30
0
 11
4.753
 21
2.992000000000003
 31
0
  0
LINE
  8
0
 62
7
 10
4.753
 20
2.992000000000003
 30
0
 11
4.753
 21
2.980000000000003
 31
0
  0
LINE
  8
0
 62
7
 10
4.753
 20
2.980000000000003
 30
0
 11
4.747599999999998
 21
2.968000000000003
 31
0
  0
LINE
  8
0
 62
7
 10
4.747599999999998
 20
2.968000000000003
 30
0
 11
4.688199999999999
 21
2.890000000000003
 31
0
  0
LINE
  8
0
 62
7
 10
4.688199999999999
 20
2.890000000000003
 30
0
 11
4.753
 21
2.890000000000003
 31
0
  0
LINE
  8
0
 62
7
 10
4.844799999999998
 20
3.010000000000003
 30
0
 11
4.785399999999998
 21
3.010000000000003
 31
0
  0
LINE
  8
0
 62
7
 10
4.785399999999998
 20
3.010000000000003
 30
0
 11
4.785399999999998
 21
2.950000000000003
 31
0
  0
LINE
  8
0
 62
7
 10
4.785399999999998
 20
2.950000000000003
 30
0
 11
4.7908
 21
2.959000000000003
 31
0
  0
LINE
  8
0
 62
7
 10
4.7908
 20
2.959000000000003
 30
0
 11
4.798899999999999
 21
2.965000000000003
 31
0
  0
LINE
  8
0
 62
7
 10
4.798899999999999
 20
2.965000000000003
 30
0
 11
4.809699999999999
 21
2.968000000000003
 31
0
  0
LINE
  8
0
 62
7
 10
4.809699999999999
 20
2.968000000000003
 30
0
 11
4.825900000000001
 21
2.968000000000003
 31
0
  0
LINE
  8
0
 62
7
 10
4.825900000000001
 20
2.968000000000003
 30
0
 11
4.834
 21
2.965000000000003
 31
0
  0
LINE
  8
0
 62
7
 10
4.834
 20
2.965000000000003
 30
0
 11
4.842099999999999
 21
2.959000000000003
 31
0
  0
LINE
  8
0
 62
7
 10
4.842099999999999
 20
2.959000000000003
 30
0
 11
4.8475
 21
2.950000000000003
 31
0
  0
LINE
  8
0
 62
7
 10
4.8475
 20
2.950000000000003
 30
0
 11
4.850199999999999
 21
2.938000000000003
 31
0
  0
LINE
  8
0
 62
7
 10
4.850199999999999
 20
2.938000000000003
 30
0
 11
4.850199999999999
 21
2.920000000000003
 31
0
  0
LINE
  8
0
 62
7
 10
4.850199999999999
 20
2.920000000000003
 30
0
 11
4.8475
 21
2.908000000000003
 31
0
  0
LINE
  8
0
 62
7
 10
4.8475
 20
2.908000000000003
 30
0
 11
4.842099999999999
 21
2.899000000000004
 31
0
  0
LINE
  8
0
 62
7
 10
4.842099999999999
 20
2.899000000000004
 30
0
 11
4.834
 21
2.893000000000003
 31
0
  0
LINE
  8
0
 62
7
 10
4.834
 20
2.893000000000003
 30
0
 11
4.825900000000001
 21
2.890000000000003
 31
0
  0
LINE
  8
0
 62
7
 10
4.825900000000001
 20
2.890000000000003
 30
0
 11
4.809699999999999
 21
2.890000000000003
 31
0
  0
LINE
  8
0
 62
7
 10
4.809699999999999
 20
2.890000000000003
 30
0
 11
4.798899999999999
 21
2.893000000000003
 31
0
  0
LINE
  8
0
 62
7
 10
4.798899999999999
 20
2.893000000000003
 30
0
 11
4.7908
 21
2.899000000000004
 31
0
  0
LINE
  8
0
 62
7
 10
4.7908
 20
2.899000000000004
 30
0
 11
4.785399999999998
 21
2.908000000000003
 31
0
  0
LINE
  8
0
 62
7
 10
4.882600000000001
 20
2.974000000000004
 30
0
 11
4.914999999999999
 21
3.010000000000003
 31
0
  0
LINE
  8
0
 62
7
 10
4.914999999999999
 20
3.010000000000003
 30
0
 11
4.914999999999999
 21
2.890000000000003
 31
0
  0
LINE
  8
0
 62
7
 10
4.947399999999999
 20
2.890000000000003
 30
0
 11
4.947399999999999
 21
3.010000000000003
 31
0
  0
LINE
  8
0
 62
7
 10
4.947399999999999
 20
3.010000000000003
 30
0
 11
4.998699999999999
 21
3.010000000000003
 31
0
  0
LINE
  8
0
 62
7
 10
4.998699999999999
 20
3.010000000000003
 30
0
 11
5.009499999999999
 21
3.007000000000003
 31
0
  0
LINE
  8
0
 62
7
 10
5.009499999999999
 20
3.007000000000003
 30
0
 11
5.017599999999999
 21
3.001000000000003
 31
0
  0
LINE
  8
0
 62
7
 10
5.017599999999999
 20
3.001000000000003
 30
0
 11
5.0203
 21
2.995000000000003
 31
0
  0
LINE
  8
0
 62
7
 10
5.0203
 20
2.995000000000003
 30
0
 11
5.023000000000001
 21
2.986000000000003
 31
0
  0
LINE
  8
0
 62
7
 10
5.023000000000001
 20
2.986000000000003
 30
0
 11
5.023000000000001
 21
2.974000000000004
 31
0
  0
LINE
  8
0
 62
7
 10
5.023000000000001
 20
2.974000000000004
 30
0
 11
5.0203
 21
2.965000000000003
 31
0
  0
LINE
  8
0
 62
7
 10
5.0203
 20
2.965000000000003
 30
0
 11
5.017599999999999
 21
2.959000000000003
 31
0
  0
LINE
  8
0
 62
7
 10
5.017599999999999
 20
2.959000000000003
 30
0
 11
5.009499999999999
 21
2.953000000000003
 31
0
  0
LINE
  8
0
 62
7
 10
5.009499999999999
 20
2.953000000000003
 30
0
 11
4.998699999999999
 21
2.950000000000003
 31
0
  0
LINE
  8
0
 62
7
 10
4.998699999999999
 20
2.950000000000003
 30
0
 11
4.990599999999999
 21
2.950000000000003
 31
0
  0
LINE
  8
0
 62
7
 10
4.990599999999999
 20
2.950000000000003
 30
0
 11
5.023000000000001
 21
2.890000000000003
 31
0
  0
LINE
  8
0
 62
7
 10
4.990599999999999
 20
2.950000000000003
 30
0
 11
4.947399999999999
 21
2.950000000000003
 31
0
  0
LINE
  8
0
 62
7
 10
5.0446
 20
2.992000000000003
 30
0
 11
5.05
 21
3.001000000000003
 31
0
  0
LINE
  8
0
 62
7
 10
5.05
 20
3.001000000000003
 30
0
 11
5.0581
 21
3.007000000000003
 31
0
  0
LINE
  8
0
 62
7
 10
5.0581
 20
3.007000000000003
 30
0
 11
5.0689
 21
3.010000000000003
 31
0
  0
LINE
  8
0
 62
7
 10
5.0689
 20
3.010000000000003
 30
0
 11
5.085100000000001
 21
3.010000000000003
 31
0
  0
LINE
  8
0
 62
7
 10
5.085100000000001
 20
3.010000000000003
 30
0
 11
5.0932
 21
3.007000000000003
 31
0
  0
LINE
  8
0
 62
7
 10
5.0932
 20
3.007000000000003
 30
0
 11
5.101299999999999
 21
3.001000000000003
 31
0
  0
LINE
  8
0
 62
7
 10
5.101299999999999
 20
3.001000000000003
 30
0
 11
5.1067
 21
2.992000000000003
 31
0
  0
LINE
  8
0
 62
7
 10
5.1067
 20
2.992000000000003
 30
0
 11
5.1094
 21
2.980000000000003
 31
0
  0
LINE
  8
0
 62
7
 10
5.1094
 20
2.980000000000003
 30
0
 11
5.1094
 21
2.971000000000004
 31
0
  0
LINE
  8
0
 62
7
 10
5.1094
 20
2.971000000000004
 30
0
 11
5.1067
 21
2.962000000000003
 31
0
  0
LINE
  8
0
 62
7
 10
5.1067
 20
2.962000000000003
 30
0
 11
5.101299999999999
 21
2.956000000000003
 31
0
  0
LINE
  8
0
 62
7
 10
5.101299999999999
 20
2.956000000000003
 30
0
 11
5.0878
 21
2.950000000000003
 31
0
  0
LINE
  8
0
 62
7
 10
5.0689
 20
2.950000000000003
 30
0
 11
5.0878
 21
2.950000000000003
 31
0
  0
LINE
  8
0
 62
7
 10
5.0878
 20
2.950000000000003
 30
0
 11
5.101299999999999
 21
2.944000000000004
 31
0
  0
LINE
  8
0
 62
7
 10
5.101299999999999
 20
2.944000000000004
 30
0
 11
5.1067
 21
2.938000000000003
 31
0
  0
LINE
  8
0
 62
7
 10
5.1067
 20
2.938000000000003
 30
0
 11
5.1094
 21
2.929000000000003
 31
0
  0
LINE
  8
0
 62
7
 10
5.1094
 20
2.929000000000003
 30
0
 11
5.1094
 21
2.920000000000003
 31
0
  0
LINE
  8
0
 62
7
 10
5.1094
 20
2.920000000000003
 30
0
 11
5.1067
 21
2.908000000000003
 31
0
  0
LINE
  8
0
 62
7
 10
5.1067
 20
2.908000000000003
 30
0
 11
5.101299999999999
 21
2.899000000000004
 31
0
  0
LINE
  8
0
 62
7
 10
5.101299999999999
 20
2.899000000000004
 30
0
 11
5.0932
 21
2.893000000000003
 31
0
  0
LINE
  8
0
 62
7
 10
5.0932
 20
2.893000000000003
 30
0
 11
5.085100000000001
 21
2.890000000000003
 31
0
  0
LINE
  8
0
 62
7
 10
5.085100000000001
 20
2.890000000000003
 30
0
 11
5.0689
 21
2.890000000000003
 31
0
  0
LINE
  8
0
 62
7
 10
5.0689
 20
2.890000000000003
 30
0
 11
5.0581
 21
2.893000000000003
 31
0
  0
LINE
  8
0
 62
7
 10
5.0581
 20
2.893000000000003
 30
0
 11
5.05
 21
2.899000000000004
 31
0
  0
LINE
  8
0
 62
7
 10
5.05
 20
2.899000000000004
 30
0
 11
5.0446
 21
2.908000000000003
 31
0
  0
LINE
  8
0
 62
7
 10
6.875
 20
2.890000000000003
 30
0
 11
6.875
 21
2.990000000000003
 31
0
  0
LINE
  8
0
 62
7
 10
6.875
 20
2.990000000000003
 30
0
 11
6.938
 21
2.890000000000003
 31
0
  0
LINE
  8
0
 62
7
 10
6.938
 20
2.890000000000003
 30
0
 11
6.938
 21
2.990000000000003
 31
0
  0
LINE
  8
0
 62
7
 10
7.019
 20
2.890000000000003
 30
0
 11
6.965000000000001
 21
2.890000000000003
 31
0
  0
LINE
  8
0
 62
7
 10
6.965000000000001
 20
2.890000000000003
 30
0
 11
6.965000000000001
 21
2.990000000000003
 31
0
  0
LINE
  8
0
 62
7
 10
7.045999999999999
 20
2.940000000000003
 30
0
 11
7.082
 21
2.940000000000003
 31
0
  0
LINE
  8
0
 62
7
 10
7.082
 20
2.940000000000003
 30
0
 11
7.0865
 21
2.940000000000003
 31
0
  0
LINE
  8
0
 62
7
 10
7.0865
 20
2.940000000000003
 30
0
 11
7.0955
 21
2.935000000000003
 31
0
  0
LINE
  8
0
 62
7
 10
7.0955
 20
2.935000000000003
 30
0
 11
7.100000000000001
 21
2.930000000000003
 31
0
  0
LINE
  8
0
 62
7
 10
7.100000000000001
 20
2.930000000000003
 30
0
 11
7.104499999999999
 21
2.920000000000003
 31
0
  0
LINE
  8
0
 62
7
 10
7.104499999999999
 20
2.920000000000003
 30
0
 11
7.104499999999999
 21
2.910000000000003
 31
0
  0
LINE
  8
0
 62
7
 10
7.104499999999999
 20
2.910000000000003
 30
0
 11
7.100000000000001
 21
2.900000000000003
 31
0
  0
LINE
  8
0
 62
7
 10
7.100000000000001
 20
2.900000000000003
 30
0
 11
7.0955
 21
2.895000000000003
 31
0
  0
LINE
  8
0
 62
7
 10
7.0955
 20
2.895000000000003
 30
0
 11
7.0865
 21
2.890000000000003
 31
0
  0
LINE
  8
0
 62
7
 10
7.0865
 20
2.890000000000003
 30
0
 11
7.045999999999999
 21
2.890000000000003
 31
0
  0
LINE
  8
0
 62
7
 10
7.045999999999999
 20
2.890000000000003
 30
0
 11
7.045999999999999
 21
2.940000000000003
 31
0
  0
LINE
  8
0
 62
7
 10
7.045999999999999
 20
2.990000000000003
 30
0
 11
7.079750000000001
 21
2.990000000000003
 31
0
  0
LINE
  8
0
 62
7
 10
7.079750000000001
 20
2.990000000000003
 30
0
 11
7.091
 21
2.987500000000003
 31
0
  0
LINE
  8
0
 62
7
 10
7.091
 20
2.987500000000003
 30
0
 11
7.097750000000001
 21
2.980000000000003
 31
0
  0
LINE
  8
0
 62
7
 10
7.097750000000001
 20
2.980000000000003
 30
0
 11
7.100000000000001
 21
2.970000000000003
 31
0
  0
LINE
  8
0
 62
7
 10
7.100000000000001
 20
2.970000000000003
 30
0
 11
7.100000000000001
 21
2.960000000000003
 31
0
  0
LINE
  8
0
 62
7
 10
7.100000000000001
 20
2.960000000000003
 30
0
 11
7.0955
 21
2.950000000000003
 31
0
  0
LINE
  8
0
 62
7
 10
7.0955
 20
2.950000000000003
 30
0
 11
7.088750000000001
 21
2.942500000000003
 31
0
  0
LINE
  8
0
 62
7
 10
7.088750000000001
 20
2.942500000000003
 30
0
 11
7.082
 21
2.940000000000003
 31
0
  0
LINE
  8
0
 62
7
 10
7.045999999999999
 20
2.940000000000003
 30
0
 11
7.045999999999999
 21
2.990000000000003
 31
0
  0
LINE
  8
0
 62
7
 10
7.246250000000001
 20
2.942500000000003
 30
0
 11
7.2395
 21
2.952500000000003
 31
0
  0
LINE
  8
0
 62
7
 10
7.2395
 20
2.952500000000003
 30
0
 11
7.23275
 21
2.957500000000003
 31
0
  0
LINE
  8
0
 62
7
 10
7.23275
 20
2.957500000000003
 30
0
 11
7.225999999999999
 21
2.960000000000003
 31
0
  0
LINE
  8
0
 62
7
 10
7.225999999999999
 20
2.960000000000003
 30
0
 11
7.216999999999999
 21
2.960000000000003
 31
0
  0
LINE
  8
0
 62
7
 10
7.216999999999999
 20
2.960000000000003
 30
0
 11
7.210250000000001
 21
2.957500000000003
 31
0
  0
LINE
  8
0
 62
7
 10
7.210250000000001
 20
2.957500000000003
 30
0
 11
7.2035
 21
2.952500000000003
 31
0
  0
LINE
  8
0
 62
7
 10
7.2035
 20
2.952500000000003
 30
0
 11
7.196750000000001
 21
2.942500000000003
 31
0
  0
LINE
  8
0
 62
7
 10
7.196750000000001
 20
2.942500000000003
 30
0
 11
7.1945
 21
2.935000000000003
 31
0
  0
LINE
  8
0
 62
7
 10
7.1945
 20
2.935000000000003
 30
0
 11
7.1945
 21
2.915000000000003
 31
0
  0
LINE
  8
0
 62
7
 10
7.1945
 20
2.915000000000003
 30
0
 11
7.196750000000001
 21
2.907500000000003
 31
0
  0
LINE
  8
0
 62
7
 10
7.196750000000001
 20
2.907500000000003
 30
0
 11
7.2035
 21
2.897500000000003
 31
0
  0
LINE
  8
0
 62
7
 10
7.2035
 20
2.897500000000003
 30
0
 11
7.210250000000001
 21
2.892500000000003
 31
0
  0
LINE
  8
0
 62
7
 10
7.210250000000001
 20
2.892500000000003
 30
0
 11
7.216999999999999
 21
2.890000000000003
 31
0
  0
LINE
  8
0
 62
7
 10
7.216999999999999
 20
2.890000000000003
 30
0
 11
7.225999999999999
 21
2.890000000000003
 31
0
  0
LINE
  8
0
 62
7
 10
7.225999999999999
 20
2.890000000000003
 30
0
 11
7.23275
 21
2.892500000000003
 31
0
  0
LINE
  8
0
 62
7
 10
7.23275
 20
2.892500000000003
 30
0
 11
7.2395
 21
2.897500000000003
 31
0
  0
LINE
  8
0
 62
7
 10
7.2395
 20
2.897500000000003
 30
0
 11
7.246250000000001
 21
2.907500000000003
 31
0
  0
LINE
  8
0
 62
7
 10
7.318249999999999
 20
2.935000000000003
 30
0
 11
7.316
 21
2.942500000000003
 31
0
  0
LINE
  8
0
 62
7
 10
7.316
 20
2.942500000000003
 30
0
 11
7.30925
 21
2.952500000000003
 31
0
  0
LINE
  8
0
 62
7
 10
7.30925
 20
2.952500000000003
 30
0
 11
7.302500000000001
 21
2.957500000000003
 31
0
  0
LINE
  8
0
 62
7
 10
7.302500000000001
 20
2.957500000000003
 30
0
 11
7.29575
 21
2.960000000000003
 31
0
  0
LINE
  8
0
 62
7
 10
7.29575
 20
2.960000000000003
 30
0
 11
7.286750000000001
 21
2.960000000000003
 31
0
  0
LINE
  8
0
 62
7
 10
7.286750000000001
 20
2.960000000000003
 30
0
 11
7.28
 21
2.957500000000003
 31
0
  0
LINE
  8
0
 62
7
 10
7.28
 20
2.957500000000003
 30
0
 11
7.273249999999999
 21
2.952500000000003
 31
0
  0
LINE
  8
0
 62
7
 10
7.273249999999999
 20
2.952500000000003
 30
0
 11
7.266500000000001
 21
2.942500000000003
 31
0
  0
LINE
  8
0
 62
7
 10
7.266500000000001
 20
2.942500000000003
 30
0
 11
7.264250000000001
 21
2.935000000000003
 31
0
  0
LINE
  8
0
 62
7
 10
7.264250000000001
 20
2.935000000000003
 30
0
 11
7.264250000000001
 21
2.915000000000003
 31
0
  0
LINE
  8
0
 62
7
 10
7.264250000000001
 20
2.915000000000003
 30
0
 11
7.266500000000001
 21
2.907500000000003
 31
0
  0
LINE
  8
0
 62
7
 10
7.266500000000001
 20
2.907500000000003
 30
0
 11
7.273249999999999
 21
2.897500000000003
 31
0
  0
LINE
  8
0
 62
7
 10
7.273249999999999
 20
2.897500000000003
 30
0
 11
7.28
 21
2.892500000000003
 31
0
  0
LINE
  8
0
 62
7
 10
7.28
 20
2.892500000000003
 30
0
 11
7.286750000000001
 21
2.890000000000003
 31
0
  0
LINE
  8
0
 62
7
 10
7.286750000000001
 20
2.890000000000003
 30
0
 11
7.29575
 21
2.890000000000003
 31
0
  0
LINE
  8
0
 62
7
 10
7.29575
 20
2.890000000000003
 30
0
 11
7.302500000000001
 21
2.892500000000003
 31
0
  0
LINE
  8
0
 62
7
 10
7.302500000000001
 20
2.892500000000003
 30
0
 11
7.30925
 21
2.897500000000003
 31
0
  0
LINE
  8
0
 62
7
 10
7.30925
 20
2.897500000000003
 30
0
 11
7.316
 21
2.907500000000003
 31
0
  0
LINE
  8
0
 62
7
 10
7.316
 20
2.907500000000003
 30
0
 11
7.318249999999999
 21
2.915000000000003
 31
0
  0
LINE
  8
0
 62
7
 10
7.318249999999999
 20
2.960000000000003
 30
0
 11
7.318249999999999
 21
2.935000000000003
 31
0
  0
LINE
  8
0
 62
7
 10
7.318249999999999
 20
2.892500000000003
 30
0
 11
7.3205
 21
2.890000000000003
 31
0
  0
LINE
  8
0
 62
7
 10
7.3205
 20
2.890000000000003
 30
0
 11
7.322750000000001
 21
2.890000000000003
 31
0
  0
LINE
  8
0
 62
7
 10
7.318249999999999
 20
2.915000000000003
 30
0
 11
7.318249999999999
 21
2.892500000000003
 31
0
  0
LINE
  8
0
 62
7
 10
7.318249999999999
 20
2.935000000000003
 30
0
 11
7.318249999999999
 21
2.915000000000003
 31
0
  0
LINE
  8
0
 62
7
 10
7.34075
 20
2.890000000000003
 30
0
 11
7.34075
 21
2.892500000000003
 31
0
  0
LINE
  8
0
 62
7
 10
7.34075
 20
2.892500000000003
 30
0
 11
7.343000000000001
 21
2.892500000000003
 31
0
  0
LINE
  8
0
 62
7
 10
7.343000000000001
 20
2.892500000000003
 30
0
 11
7.343000000000001
 21
2.890000000000003
 31
0
  0
LINE
  8
0
 62
7
 10
7.343000000000001
 20
2.890000000000003
 30
0
 11
7.34075
 21
2.890000000000003
 31
0
  0
LINE
  8
0
 62
7
 10
7.466750000000001
 20
2.990000000000003
 30
0
 11
7.47575
 21
2.990000000000003
 31
0
  0
LINE
  8
0
 62
7
 10
7.47575
 20
2.990000000000003
 30
0
 11
7.482500000000001
 21
2.987500000000003
 31
0
  0
LINE
  8
0
 62
7
 10
7.482500000000001
 20
2.987500000000003
 30
0
 11
7.486999999999999
 21
2.982500000000003
 31
0
  0
LINE
  8
0
 62
7
 10
7.486999999999999
 20
2.982500000000003
 30
0
 11
7.491500000000001
 21
2.975000000000003
 31
0
  0
LINE
  8
0
 62
7
 10
7.491500000000001
 20
2.975000000000003
 30
0
 11
7.491500000000001
 21
2.965000000000003
 31
0
  0
LINE
  8
0
 62
7
 10
7.491500000000001
 20
2.965000000000003
 30
0
 11
7.48925
 21
2.960000000000003
 31
0
  0
LINE
  8
0
 62
7
 10
7.48925
 20
2.960000000000003
 30
0
 11
7.482500000000001
 21
2.952500000000003
 31
0
  0
LINE
  8
0
 62
7
 10
7.482500000000001
 20
2.952500000000003
 30
0
 11
7.47575
 21
2.950000000000003
 31
0
  0
LINE
  8
0
 62
7
 10
7.47575
 20
2.950000000000003
 30
0
 11
7.466750000000001
 21
2.950000000000003
 31
0
  0
LINE
  8
0
 62
7
 10
7.466750000000001
 20
2.950000000000003
 30
0
 11
7.460000000000001
 21
2.952500000000003
 31
0
  0
LINE
  8
0
 62
7
 10
7.460000000000001
 20
2.952500000000003
 30
0
 11
7.453250000000001
 21
2.960000000000003
 31
0
  0
LINE
  8
0
 62
7
 10
7.453250000000001
 20
2.960000000000003
 30
0
 11
7.451
 21
2.965000000000003
 31
0
  0
LINE
  8
0
 62
7
 10
7.451
 20
2.965000000000003
 30
0
 11
7.451
 21
2.975000000000003
 31
0
  0
LINE
  8
0
 62
7
 10
7.451
 20
2.975000000000003
 30
0
 11
7.455500000000001
 21
2.982500000000003
 31
0
  0
LINE
  8
0
 62
7
 10
7.455500000000001
 20
2.982500000000003
 30
0
 11
7.460000000000001
 21
2.987500000000003
 31
0
  0
LINE
  8
0
 62
7
 10
7.460000000000001
 20
2.987500000000003
 30
0
 11
7.466750000000001
 21
2.990000000000003
 31
0
  0
LINE
  8
0
 62
7
 10
7.466750000000001
 20
2.950000000000003
 30
0
 11
7.455500000000001
 21
2.945000000000003
 31
0
  0
LINE
  8
0
 62
7
 10
7.455500000000001
 20
2.945000000000003
 30
0
 11
7.44875
 21
2.937500000000003
 31
0
  0
LINE
  8
0
 62
7
 10
7.44875
 20
2.937500000000003
 30
0
 11
7.44425
 21
2.927500000000003
 31
0
  0
LINE
  8
0
 62
7
 10
7.44425
 20
2.927500000000003
 30
0
 11
7.44425
 21
2.912500000000003
 31
0
  0
LINE
  8
0
 62
7
 10
7.44425
 20
2.912500000000003
 30
0
 11
7.44875
 21
2.902500000000003
 31
0
  0
LINE
  8
0
 62
7
 10
7.44875
 20
2.902500000000003
 30
0
 11
7.455500000000001
 21
2.895000000000003
 31
0
  0
LINE
  8
0
 62
7
 10
7.455500000000001
 20
2.895000000000003
 30
0
 11
7.4645
 21
2.890000000000003
 31
0
  0
LINE
  8
0
 62
7
 10
7.4645
 20
2.890000000000003
 30
0
 11
7.478000000000001
 21
2.890000000000003
 31
0
  0
LINE
  8
0
 62
7
 10
7.478000000000001
 20
2.890000000000003
 30
0
 11
7.486999999999999
 21
2.895000000000003
 31
0
  0
LINE
  8
0
 62
7
 10
7.486999999999999
 20
2.895000000000003
 30
0
 11
7.49375
 21
2.902500000000003
 31
0
  0
LINE
  8
0
 62
7
 10
7.49375
 20
2.902500000000003
 30
0
 11
7.498249999999999
 21
2.912500000000003
 31
0
  0
LINE
  8
0
 62
7
 10
7.498249999999999
 20
2.912500000000003
 30
0
 11
7.498249999999999
 21
2.927500000000003
 31
0
  0
LINE
  8
0
 62
7
 10
7.498249999999999
 20
2.927500000000003
 30
0
 11
7.49375
 21
2.937500000000003
 31
0
  0
LINE
  8
0
 62
7
 10
7.49375
 20
2.937500000000003
 30
0
 11
7.486999999999999
 21
2.945000000000003
 31
0
  0
LINE
  8
0
 62
7
 10
7.486999999999999
 20
2.945000000000003
 30
0
 11
7.47575
 21
2.950000000000003
 31
0
  0
LINE
  8
0
 62
7
 10
7.583750000000001
 20
2.990000000000003
 30
0
 11
7.53425
 21
2.990000000000003
 31
0
  0
LINE
  8
0
 62
7
 10
7.53425
 20
2.990000000000003
 30
0
 11
7.53425
 21
2.940000000000003
 31
0
  0
LINE
  8
0
 62
7
 10
7.53425
 20
2.940000000000003
 30
0
 11
7.53875
 21
2.947500000000003
 31
0
  0
LINE
  8
0
 62
7
 10
7.53875
 20
2.947500000000003
 30
0
 11
7.545500000000001
 21
2.952500000000003
 31
0
  0
LINE
  8
0
 62
7
 10
7.545500000000001
 20
2.952500000000003
 30
0
 11
7.554499999999999
 21
2.955000000000003
 31
0
  0
LINE
  8
0
 62
7
 10
7.554499999999999
 20
2.955000000000003
 30
0
 11
7.568000000000001
 21
2.955000000000003
 31
0
  0
LINE
  8
0
 62
7
 10
7.568000000000001
 20
2.955000000000003
 30
0
 11
7.574749999999999
 21
2.952500000000003
 31
0
  0
LINE
  8
0
 62
7
 10
7.574749999999999
 20
2.952500000000003
 30
0
 11
7.5815
 21
2.947500000000003
 31
0
  0
LINE
  8
0
 62
7
 10
7.5815
 20
2.947500000000003
 30
0
 11
7.586
 21
2.940000000000003
 31
0
  0
LINE
  8
0
 62
7
 10
7.586
 20
2.940000000000003
 30
0
 11
7.588249999999999
 21
2.930000000000003
 31
0
  0
LINE
  8
0
 62
7
 10
7.588249999999999
 20
2.930000000000003
 30
0
 11
7.588249999999999
 21
2.915000000000003
 31
0
  0
LINE
  8
0
 62
7
 10
7.588249999999999
 20
2.915000000000003
 30
0
 11
7.586
 21
2.905000000000003
 31
0
  0
LINE
  8
0
 62
7
 10
7.586
 20
2.905000000000003
 30
0
 11
7.5815
 21
2.897500000000003
 31
0
  0
LINE
  8
0
 62
7
 10
7.5815
 20
2.897500000000003
 30
0
 11
7.574749999999999
 21
2.892500000000003
 31
0
  0
LINE
  8
0
 62
7
 10
7.574749999999999
 20
2.892500000000003
 30
0
 11
7.568000000000001
 21
2.890000000000003
 31
0
  0
LINE
  8
0
 62
7
 10
7.568000000000001
 20
2.890000000000003
 30
0
 11
7.554499999999999
 21
2.890000000000003
 31
0
  0
LINE
  8
0
 62
7
 10
7.554499999999999
 20
2.890000000000003
 30
0
 11
7.545500000000001
 21
2.892500000000003
 31
0
  0
LINE
  8
0
 62
7
 10
7.545500000000001
 20
2.892500000000003
 30
0
 11
7.53875
 21
2.897500000000003
 31
0
  0
LINE
  8
0
 62
7
 10
7.53875
 20
2.897500000000003
 30
0
 11
7.53425
 21
2.905000000000003
 31
0
  0
LINE
  8
0
 62
7
 10
7.739000000000001
 20
2.942500000000003
 30
0
 11
7.73225
 21
2.952500000000003
 31
0
  0
LINE
  8
0
 62
7
 10
7.73225
 20
2.952500000000003
 30
0
 11
7.7255
 21
2.957500000000003
 31
0
  0
LINE
  8
0
 62
7
 10
7.7255
 20
2.957500000000003
 30
0
 11
7.71875
 21
2.960000000000003
 31
0
  0
LINE
  8
0
 62
7
 10
7.71875
 20
2.960000000000003
 30
0
 11
7.70975
 21
2.960000000000003
 31
0
  0
LINE
  8
0
 62
7
 10
7.70975
 20
2.960000000000003
 30
0
 11
7.703
 21
2.957500000000003
 31
0
  0
LINE
  8
0
 62
7
 10
7.703
 20
2.957500000000003
 30
0
 11
7.696250000000001
 21
2.952500000000003
 31
0
  0
LINE
  8
0
 62
7
 10
7.696250000000001
 20
2.952500000000003
 30
0
 11
7.6895
 21
2.942500000000003
 31
0
  0
LINE
  8
0
 62
7
 10
7.6895
 20
2.942500000000003
 30
0
 11
7.687249999999999
 21
2.935000000000003
 31
0
  0
LINE
  8
0
 62
7
 10
7.687249999999999
 20
2.935000000000003
 30
0
 11
7.687249999999999
 21
2.915000000000003
 31
0
  0
LINE
  8
0
 62
7
 10
7.687249999999999
 20
2.915000000000003
 30
0
 11
7.6895
 21
2.907500000000003
 31
0
  0
LINE
  8
0
 62
7
 10
7.6895
 20
2.907500000000003
 30
0
 11
7.696250000000001
 21
2.897500000000003
 31
0
  0
LINE
  8
0
 62
7
 10
7.696250000000001
 20
2.897500000000003
 30
0
 11
7.703
 21
2.892500000000003
 31
0
  0
LINE
  8
0
 62
7
 10
7.703
 20
2.892500000000003
 30
0
 11
7.70975
 21
2.890000000000003
 31
0
  0
LINE
  8
0
 62
7
 10
7.70975
 20
2.890000000000003
 30
0
 11
7.71875
 21
2.890000000000003
 31
0
  0
LINE
  8
0
 62
7
 10
7.71875
 20
2.890000000000003
 30
0
 11
7.7255
 21
2.892500000000003
 31
0
  0
LINE
  8
0
 62
7
 10
7.7255
 20
2.892500000000003
 30
0
 11
7.73225
 21
2.897500000000003
 31
0
  0
LINE
  8
0
 62
7
 10
7.73225
 20
2.897500000000003
 30
0
 11
7.739000000000001
 21
2.907500000000003
 31
0
  0
LINE
  8
0
 62
7
 10
7.797500000000001
 20
2.935000000000003
 30
0
 11
7.797500000000001
 21
2.890000000000003
 31
0
  0
LINE
  8
0
 62
7
 10
7.757
 20
2.960000000000003
 30
0
 11
7.757
 21
2.935000000000003
 31
0
  0
LINE
  8
0
 62
7
 10
7.757
 20
2.890000000000003
 30
0
 11
7.757
 21
2.935000000000003
 31
0
  0
LINE
  8
0
 62
7
 10
7.757
 20
2.935000000000003
 30
0
 11
7.759250000000001
 21
2.947500000000003
 31
0
  0
LINE
  8
0
 62
7
 10
7.759250000000001
 20
2.947500000000003
 30
0
 11
7.7615
 21
2.952500000000003
 31
0
  0
LINE
  8
0
 62
7
 10
7.7615
 20
2.952500000000003
 30
0
 11
7.766
 21
2.957500000000003
 31
0
  0
LINE
  8
0
 62
7
 10
7.766
 20
2.957500000000003
 30
0
 11
7.772750000000001
 21
2.960000000000003
 31
0
  0
LINE
  8
0
 62
7
 10
7.772750000000001
 20
2.960000000000003
 30
0
 11
7.78175
 21
2.960000000000003
 31
0
  0
LINE
  8
0
 62
7
 10
7.78175
 20
2.960000000000003
 30
0
 11
7.788499999999999
 21
2.957500000000003
 31
0
  0
LINE
  8
0
 62
7
 10
7.788499999999999
 20
2.957500000000003
 30
0
 11
7.793000000000001
 21
2.952500000000003
 31
0
  0
LINE
  8
0
 62
7
 10
7.793000000000001
 20
2.952500000000003
 30
0
 11
7.79525
 21
2.947500000000003
 31
0
  0
LINE
  8
0
 62
7
 10
7.79525
 20
2.947500000000003
 30
0
 11
7.797500000000001
 21
2.935000000000003
 31
0
  0
LINE
  8
0
 62
7
 10
7.797500000000001
 20
2.935000000000003
 30
0
 11
7.79975
 21
2.947500000000003
 31
0
  0
LINE
  8
0
 62
7
 10
7.79975
 20
2.947500000000003
 30
0
 11
7.802
 21
2.952500000000003
 31
0
  0
LINE
  8
0
 62
7
 10
7.802
 20
2.952500000000003
 30
0
 11
7.8065
 21
2.957500000000003
 31
0
  0
LINE
  8
0
 62
7
 10
7.8065
 20
2.957500000000003
 30
0
 11
7.81325
 21
2.960000000000003
 31
0
  0
LINE
  8
0
 62
7
 10
7.81325
 20
2.960000000000003
 30
0
 11
7.82225
 21
2.960000000000003
 31
0
  0
LINE
  8
0
 62
7
 10
7.82225
 20
2.960000000000003
 30
0
 11
7.829000000000001
 21
2.957500000000003
 31
0
  0
LINE
  8
0
 62
7
 10
7.8335
 20
2.952500000000003
 30
0
 11
7.829000000000001
 21
2.957500000000003
 31
0
  0
LINE
  8
0
 62
7
 10
7.829000000000001
 20
2.957500000000003
 30
0
 11
7.8335
 21
2.952500000000003
 31
0
  0
LINE
  8
0
 62
7
 10
7.8335
 20
2.952500000000003
 30
0
 11
7.835749999999999
 21
2.947500000000003
 31
0
  0
LINE
  8
0
 62
7
 10
7.835749999999999
 20
2.947500000000003
 30
0
 11
7.838
 21
2.935000000000003
 31
0
  0
LINE
  8
0
 62
7
 10
7.838
 20
2.935000000000003
 30
0
 11
7.838
 21
2.890000000000003
 31
0
  0
ARC
  8
0
 62
7
 10
6.460304506038871
 20
3.735304506038883
 30
0
 40
0.5099999999999948
 50
359.9657903677314
 51
90.03420963336424
  0
ARC
  8
0
 62
7
 10
5.879695493961121
 20
3.735304506038875
 30
0
 40
0.5100000000000028
 50
89.96579036773136
 51
180.0342096330161
  0
CIRCLE
  8
0
 62
7
 10
5.36969558486695
 20
3.250000000000003
 30
0
 40
0.05999999999999961
  0
DIMENSION
  8
0
  6
CONTINUOUS
 62
7
  2
*D1
  3
DMST_1
 10
7.424999999999999
 20
11.522645599841
 30
0
 11
6.19397794242887
 21
11.522645599841
 31
0
 12
0
 22
0
 32
0
 70
0
 13
4.914999999999999
 23
11.2
 33
0
 14
7.424999999999999
 24
11.2
 34
0
 53
0
  0
DIMENSION
  8
0
  6
CONTINUOUS
 62
7
  2
*D2
  3
DMST_2
 10
4.454210185658311
 20
4.700000000000002
 30
0
 11
4.454210185658311
 21
3.99653915573724
 31
0
 12
0
 22
0
 32
0
 70
0
 13
4.739999999999998
 23
3.250000000000002
 33
0
 14
4.739999999999998
 24
4.700000000000002
 34
0
 50
90
 53
0
  0
DIMENSION
  8
0
  6
CONTINUOUS
 62
7
  2
*D3
  3
DMST_2
 10
7.424999999999999
 20
5.58166088968375
 30
0
 11
6.19397794242887
 21
5.58166088968375
 31
0
 12
0
 22
0
 32
0
 70
0
 13
4.914999999999999
 23
5.219999999999995
 33
0
 14
7.424999999999999
 24
5.219999999999995
 34
0
 53
0
  0
DIMENSION
  8
0
  6
CONTINUOUS
 62
7
  2
*D4
  3
DMST_2
 10
7.946632867768101
 20
4.700000000000002
 30
0
 11
7.946632867768101
 21
4.06097499858059
 31
0
 12
0
 22
0
 32
0
 70
0
 13
7.599999999999999
 23
3.350000000000002
 33
0
 14
7.599999999999999
 24
4.700000000000002
 34
0
 50
90
 53
0
  0
INSERT
  8
0
  2
*D0
 10
0
 20
0
 30
0
  0
ENDSEC
  0
EOF
