  0
SECTION
  2
HEADER
  9
$ACADVER
  1
AC1009
  9
$INSBASE
 10
0
 20
0
  9
$EXTMIN
 10
0.45
 20
2.890000000000001
  9
$EXTMAX
 10
8.255159813348079
 20
11.5569471116505
  9
$LIMMIN
 10
0.45
 20
2.890000000000001
  9
$LIMMAX
 10
8.255159813348079
 20
11.5569471116505
  9
$VIEWCTR
 10
10
 20
10
  9
$VIEWSIZE
 40
10
  9
$SNAPMODE
 70
0
  9
$SNAPUNIT
 10
1
 20
1
  9
$SNAPBASE
 10
0
 20
0
  9
$SNAPANG
 50
0
  9
$SNAPSTYLE
 70
0
  9
$SNAPISOPAIR
 70
0
  9
$GRIDMODE
 70
0
  9
$GRIDUNIT
 10
0
 20
0
  9
$ORTHOMODE
 70
0
  9
$REGENMODE
 70
1
  9
$FILLMODE
 70
1
  9
$QTEXTMODE
 70
0
  9
$DRAGMODE
 70
2
  9
$LTSCALE
 40
1
  9
$OSMODE
 70
0
  9
$ATTMODE
 70
1
  9
$TEXTSIZE
 40
3.5
  9
$TRACEWID
 40
0.5
  9
$TEXTSTYLE
  7
STANDARD
  9
$CLAYER
  8
0
  9
$CELTYPE
  6
BYLAYER
  9
$CECOLOR
 62
256
  9
$DIMSCALE
 40
1
  9
$DIMASZ
 40
0.18
  9
$DIMEXO
 40
0.0625
  9
$DIMDLI
 40
0.38
  9
$DIMRND
 40
0
  9
$DIMDLE
 40
0
  9
$DIMEXE
 40
0.18
  9
$DIMTP
 40
0
  9
$DIMTM
 40
0
  9
$DIMTXT
 40
0.18
  9
$DIMCEN
 40
0.09
  9
$DIMTSZ
 40
0
  9
$DIMTOL
 70
0
  9
$DIMLIM
 70
0
  9
$DIMTIH
 70
1
  9
$DIMTOH
 70
1
  9
$DIMSE1
 70
0
  9
$DIMSE2
 70
0
  9
$DIMTAD
 70
0
  9
$DIMZIN
 70
0
  9
$DIMBLK
  1

  9
$DIMASO
 70
1
  9
$DIMSHO
 70
1
  9
$DIMPOST
  1

  9
$DIMAPOST
  1

  9
$DIMALT
 70
0
  9
$DIMALTD
 70
2
  9
$DIMALTF
 40
25.4
  9
$DIMLFAC
 40
1
  9
$DIMTOFL
 70
0
  9
$DIMTVP
 40
0
  9
$DIMTIX
 70
0
  9
$DIMSOXD
 70
0
  9
$DIMSAH
 70
0
  9
$DIMBLK1
  1

  9
$DIMBLK2
  1

  9
$DIMSTYLE
  2
*UNNAMED
  9
$DIMCLRD
 70
0
  9
$DIMCLRE
 70
0
  9
$DIMCLRT
 70
0
  9
$DIMTFAC
 40
1
  9
$DIMGAP
 40
0.09
  9
$LUNITS
 70
2
  9
$LUPREC
 70
4
  9
$AXISMODE
 70
0
  9
$AXISUNIT
 10
0
 20
0
  9
$SKETCHINC
 40
0.1
  9
$FILLETRAD
 40
2
  9
$AUNITS
 70
0
  9
$AUPREC
 70
0
  9
$MENU
  1
ACAD
  9
$ELEVATION
 40
0
  9
$THICKNESS
 40
0
  9
$VIEWDIR
 10
0
 20
0
 30
1
  9
$LIMCHECK
 70
0
  9
$BLIPMODE
 70
1
  9
$CHAMFERA
 40
0
  9
$CHAMFERB
 40
0
  9
$FASTZOOM
 70
1
  9
$SKPOLY
 70
0
  9
$ANGBASE
 50
0
  9
$ANGDIR
 70
0
  9
$PDMODE
 70
0
  9
$PDSIZE
 40
0
  9
$PLINEWID
 40
0
  9
$COORDS
 70
2
  0
ENDSEC
  0
SECTION
  2
TABLES
  0
TABLE
  2
DIMSTYLE
 70
2
  0
DIMSTYLE
  2
DMST_1
 70
0
  3

  4

  5

  6

  7

 40
1
 41
0.1
 42
0
 43
0.7
 44
0.2
 45
0
 46
0
 47
0
 48
0
140
0.1
141
0
142
0.1
143
25.4
144
1
145
0
146
1
147
0.25
 71
0
 72
0
 73
0
 74
0
 75
0
 76
0
 77
0
 78
9
170
0
171
2
172
0
173
0
174
0
175
0
176
7
177
7
178
7
  0
DIMSTYLE
  2
DMST_2
 70
0
  3

  4

  5

  6

  7

 40
1
 41
0.1
 42
0
 43
0.7
 44
0.2
 45
0
 46
0
 47
0
 48
0
140
0.1
141
0
142
0.1
143
25.4
144
1
145
0
146
1
147
0.2
 71
0
 72
0
 73
0
 74
0
 75
0
 76
0
 77
0
 78
9
170
0
171
2
172
0
173
0
174
0
175
0
176
7
177
7
178
7
  0
ENDTAB
  0
TABLE
  2
LTYPE
 70
9
  0
LTYPE
  2
CONTINUOUS
 70
64
  3
Solid line
 72
65
 73
0
 40
0
  0
LTYPE
  2
BORDER
 70
64
  3
__ __ . __ __ .
 72
65
 73
6
 40
0.3991357222470625
 49
0.114038777784875
 49
-0.0570193888924375
 49
0.114038777784875
 49
-0.0570193888924375
 49
0
 49
-0.0570193888924375
  0
LTYPE
  2
CENTER
 70
64
  3
____ _ ____ _
 72
65
 73
4
 40
0.4561551111395
 49
0.2850969444621875
 49
-0.0570193888924375
 49
0.0570193888924375
 49
-0.0570193888924375
  0
LTYPE
  2
DASHDOT
 70
64
  3
__ . __ . __ .
 72
65
 73
4
 40
0.22807755556975
 49
0.114038777784875
 49
-0.0570193888924375
 49
0
 49
-0.0570193888924375
  0
LTYPE
  2
DASHED
 70
64
  3
__ __ __ __ __
 72
65
 73
2
 40
0.1710581666773125
 49
0.114038777784875
 49
-0.0570193888924375
  0
LTYPE
  2
DIVIDE
 70
64
  3
__ . . __ . . 
 72
65
 73
6
 40
0.2850969444621875
 49
0.114038777784875
 49
-0.0570193888924375
 49
0
 49
-0.0570193888924375
 49
0
 49
-0.0570193888924375
  0
LTYPE
  2
DOT
 70
64
  3
..............
 72
65
 73
4
 40
0.114038777784875
 49
0
 49
-0.0570193888924375
 49
0
 49
-0.0570193888924375
  0
LTYPE
  2
HIDDEN
 70
64
  3
_ _ _ _ _ _ _
 72
65
 73
2
 40
0.08552908333865625
 49
0.0570193888924375
 49
-0.02850969444621875
  0
LTYPE
  2
PHANTOM
 70
64
  3
_____ _ _ _____ _ _ 
 72
65
 73
6
 40
0.5701938889243749
 49
0.2850969444621875
 49
-0.0570193888924375
 49
0.0570193888924375
 49
-0.0570193888924375
 49
0.0570193888924375
 49
-0.0570193888924375
  0
ENDTAB
  0
TABLE
  2
LAYER
 70
2
  0
LAYER
  2
0
 70
0
 62
7
  6
CONTINUOUS
  0
ENDTAB
  0
TABLE
  2
STYLE
 70
4
  0
STYLE
  2
STANDARD
 70
0
 40
0
 41
1
 50
0
 71
0
 42
3.5
  3
txt
  4

  0
STYLE
  2
SIMPLEX
 70
0
 40
0
 41
1
 50
0
 71
0
 42
3.5
  3
simplex
  4

  0
STYLE
  2
COMPLEX
 70
0
 40
0
 41
1
 50
0
 71
0
 42
3.5
  3
complex
  4

  0
STYLE
  2
ITALIC
 70
0
 40
0
 41
1
 50
0
 71
0
 42
3.5
  3
italic
  4

  0
ENDTAB
  0
TABLE
  2
VIEW
 70
0
  0
ENDTAB
  0
ENDSEC
  0
SECTION
  2
BLOCKS
  0
BLOCK
  8
0
  2
*X0
 70
1
 10
0
 20
0
 30
0
  0
LINE
  8
0
 62
7
  6
DASHED
 10
0.5
 20
8.242819253992694
 30
0
 11
0.5571807460073046
 21
8.299999999999999
 31
0
  0
LINE
  8
0
 62
7
  6
DASHED
 10
0.5693127803632705
 20
8.1
 30
0
 11
0.7400000000000007
 21
8.270687219636731
 31
0
  0
LINE
  8
0
 62
7
 10
0.5000000000000009
 20
8.136753236814712
 30
0
 11
0.6632467631852874
 21
8.299999999999999
 31
0
  0
LINE
  8
0
 62
7
 10
0.6753787975412524
 20
8.1
 30
0
 11
0.7399999999999998
 21
8.164621202458747
 31
0
  0
ENDBLK
  8
0
  0
BLOCK
  8
0
  2
*X1
 70
1
 10
0
 20
0
 30
0
  0
LINE
  8
0
 62
7
  6
DASHED
 10
0.4999999999999991
 20
11.00053570062023
 30
0
 11
0.5494642993797729
 21
11.05
 31
0
  0
LINE
  8
0
 62
7
  6
DASHED
 10
0.5615963337357357
 20
10.85
 30
0
 11
0.7399999999999993
 21
11.02840366626426
 31
0
  0
LINE
  8
0
 62
7
 10
0.5000000000000009
 20
10.89446968344225
 30
0
 11
0.655530316557754
 21
11.05
 31
0
  0
LINE
  8
0
 62
7
 10
0.6676623509137176
 20
10.85
 30
0
 11
0.7400000000000002
 21
10.92233764908628
 31
0
  0
ENDBLK
  8
0
  0
BLOCK
  8
0
  2
*X2
 70
1
 10
0
 20
0
 30
0
  0
LINE
  8
0
 62
7
  6
DASHED
 10
2.046520574227485
 20
10.85
 30
0
 11
2.246520574227487
 21
11.05
 31
0
  0
LINE
  8
0
 62
7
  6
DASHED
 10
2.258652608583449
 20
10.85
 30
0
 11
2.339999999999999
 21
10.93134739141655
 31
0
  0
LINE
  8
0
 62
7
 10
2.040000000000001
 20
10.9495454429505
 30
0
 11
2.140454557049504
 21
11.05
 31
0
  0
LINE
  8
0
 62
7
 10
2.152586591405467
 20
10.85
 30
0
 11
2.34
 21
11.03741340859453
 31
0
  0
ENDBLK
  8
0
  0
BLOCK
  8
0
  2
*X3
 70
1
 10
0
 20
0
 30
0
  0
LINE
  8
0
 62
7
  6
DASHED
 10
2.04
 20
8.297895013500945
 30
0
 11
2.042104986499054
 21
8.299999999999999
 31
0
  0
LINE
  8
0
 62
7
  6
DASHED
 10
2.054237020855018
 20
8.099999999999998
 30
0
 11
2.254237020855018
 21
8.299999999999999
 31
0
  0
LINE
  8
0
 62
7
  6
DASHED
 10
2.266369055210983
 20
8.099999999999998
 30
0
 11
2.34
 21
8.173630944789016
 31
0
  0
LINE
  8
0
 62
7
 10
2.04
 20
8.191828996322963
 30
0
 11
2.148171003677037
 21
8.299999999999999
 31
0
  0
LINE
  8
0
 62
7
 10
2.160303038033002
 20
8.1
 30
0
 11
2.340000000000001
 21
8.279696961966998
 31
0
  0
ENDBLK
  8
0
  0
BLOCK
  8
0
  2
*X4
 70
1
 10
0
 20
0
 30
0
  0
LINE
  8
0
 62
7
 10
0.549464299379772
 20
11.05
 30
0
 11
0.6994642993797715
 21
11.2
 31
0
  0
LINE
  8
0
 62
7
 10
0.5
 20
11.10660171779821
 30
0
 11
0.5933982822017896
 21
11.2
 31
0
  0
LINE
  8
0
 62
7
 10
0.655530316557754
 20
11.05
 30
0
 11
0.7399999999999993
 21
11.13446968344224
 31
0
  0
ENDBLK
  8
0
  0
BLOCK
  8
0
  2
*X5
 70
1
 10
0
 20
0
 30
0
  0
LINE
  8
0
 62
7
 10
0.5000000000000004
 20
10.78840366626426
 30
0
 11
0.5615963337357339
 21
10.85
 31
0
  0
LINE
  8
0
 62
7
 10
0.5000000000000004
 20
10.5762716319083
 30
0
 11
0.7400000000000002
 21
10.8162716319083
 31
0
  0
LINE
  8
0
 62
7
 10
0.5000000000000004
 20
10.36413959755233
 30
0
 11
0.7400000000000002
 21
10.60413959755233
 31
0
  0
LINE
  8
0
 62
7
 10
0.5000000000000004
 20
10.15200756319637
 30
0
 11
0.7400000000000002
 21
10.39200756319637
 31
0
  0
LINE
  8
0
 62
7
 10
0.5000000000000004
 20
9.939875528840407
 30
0
 11
0.7400000000000002
 21
10.17987552884041
 31
0
  0
LINE
  8
0
 62
7
 10
0.5000000000000004
 20
9.727743494484443
 30
0
 11
0.7400000000000002
 21
9.967743494484441
 31
0
  0
LINE
  8
0
 62
7
 10
0.5000000000000004
 20
9.515611460128479
 30
0
 11
0.7400000000000002
 21
9.755611460128478
 31
0
  0
LINE
  8
0
 62
7
 10
0.5000000000000004
 20
9.303479425772515
 30
0
 11
0.7400000000000002
 21
9.543479425772514
 31
0
  0
LINE
  8
0
 62
7
 10
0.5000000000000004
 20
9.091347391416551
 30
0
 11
0.7400000000000002
 21
9.33134739141655
 31
0
  0
LINE
  8
0
 62
7
 10
0.5000000000000004
 20
8.879215357060588
 30
0
 11
0.7400000000000002
 21
9.119215357060586
 31
0
  0
LINE
  8
0
 62
7
 10
0.5000000000000004
 20
8.667083322704624
 30
0
 11
0.7400000000000002
 21
8.907083322704622
 31
0
  0
LINE
  8
0
 62
7
 10
0.5000000000000004
 20
8.45495128834866
 30
0
 11
0.7400000000000002
 21
8.694951288348658
 31
0
  0
LINE
  8
0
 62
7
 10
0.5571807460073046
 20
8.299999999999999
 30
0
 11
0.7400000000000002
 21
8.482819253992695
 31
0
  0
LINE
  8
0
 62
7
 10
0.5
 20
10.68233764908628
 30
0
 11
0.6676623509137176
 21
10.85
 31
0
  0
LINE
  8
0
 62
7
 10
0.5
 20
10.47020561473031
 30
0
 11
0.7399999999999998
 21
10.71020561473031
 31
0
  0
LINE
  8
0
 62
7
 10
0.5
 20
10.25807358037435
 30
0
 11
0.7399999999999998
 21
10.49807358037435
 31
0
  0
LINE
  8
0
 62
7
 10
0.5
 20
10.04594154601839
 30
0
 11
0.7399999999999998
 21
10.28594154601839
 31
0
  0
LINE
  8
0
 62
7
 10
0.5
 20
9.833809511662423
 30
0
 11
0.7399999999999998
 21
10.07380951166242
 31
0
  0
LINE
  8
0
 62
7
 10
0.5
 20
9.621677477306459
 30
0
 11
0.7399999999999998
 21
9.861677477306458
 31
0
  0
LINE
  8
0
 62
7
 10
0.5
 20
9.409545442950495
 30
0
 11
0.7399999999999998
 21
9.649545442950494
 31
0
  0
LINE
  8
0
 62
7
 10
0.5
 20
9.197413408594532
 30
0
 11
0.7399999999999998
 21
9.43741340859453
 31
0
  0
LINE
  8
0
 62
7
 10
0.5
 20
8.985281374238568
 30
0
 11
0.7399999999999998
 21
9.225281374238566
 31
0
  0
LINE
  8
0
 62
7
 10
0.5
 20
8.773149339882604
 30
0
 11
0.7399999999999998
 21
9.013149339882602
 31
0
  0
LINE
  8
0
 62
7
 10
0.5
 20
8.56101730552664
 30
0
 11
0.7399999999999998
 21
8.801017305526639
 31
0
  0
LINE
  8
0
 62
7
 10
0.5
 20
8.348885271170676
 30
0
 11
0.7399999999999998
 21
8.588885271170675
 31
0
  0
LINE
  8
0
 62
7
 10
0.6632467631852879
 20
8.299999999999999
 30
0
 11
0.7399999999999998
 21
8.376753236814711
 31
0
  0
ENDBLK
  8
0
  0
BLOCK
  8
0
  2
*X6
 70
1
 10
0
 20
0
 30
0
  0
LINE
  8
0
 62
7
 10
0.5
 20
8.03068721963673
 30
0
 11
0.5693127803632683
 21
8.099999999999998
 31
0
  0
LINE
  8
0
 62
7
 10
0.6314448147192331
 20
7.949999999999999
 30
0
 11
0.7399999999999989
 21
8.058555185280763
 31
0
  0
LINE
  8
0
 62
7
 10
0.5253787975412521
 20
7.949999999999999
 30
0
 11
0.6753787975412524
 21
8.1
 31
0
  0
LINE
  8
0
 62
7
 10
0.7375108318972163
 20
7.949999999999999
 30
0
 11
0.7399999999999993
 21
7.952489168102783
 31
0
  0
ENDBLK
  8
0
  0
BLOCK
  8
0
  2
*X7
 70
1
 10
0
 20
0
 30
0
  0
LINE
  8
0
 62
7
  6
DASHED
 10
4.465000000000001
 20
10.93502704785691
 30
0
 11
4.579972952143101
 21
11.05
 31
0
  0
LINE
  8
0
 62
7
  6
DASHED
 10
4.592104986499063
 20
10.85
 30
0
 11
4.792104986499065
 21
11.05
 31
0
  0
LINE
  8
0
 62
7
  6
DASHED
 10
4.804237020855027
 20
10.85
 30
0
 11
5.004237020855029
 21
11.05
 31
0
  0
LINE
  8
0
 62
7
  6
DASHED
 10
5.016369055210991
 20
10.85
 30
0
 11
5.216369055210992
 21
11.05
 31
0
  0
LINE
  8
0
 62
7
  6
DASHED
 10
5.228501089566954
 20
10.85
 30
0
 11
5.428501089566956
 21
11.05
 31
0
  0
LINE
  8
0
 62
7
  6
DASHED
 10
5.440633123922918
 20
10.85
 30
0
 11
5.64063312392292
 21
11.05
 31
0
  0
LINE
  8
0
 62
7
  6
DASHED
 10
5.652765158278882
 20
10.85
 30
0
 11
5.852765158278884
 21
11.05
 31
0
  0
LINE
  8
0
 62
7
  6
DASHED
 10
5.864897192634846
 20
10.85
 30
0
 11
6.064897192634848
 21
11.05
 31
0
  0
LINE
  8
0
 62
7
  6
DASHED
 10
6.07702922699081
 20
10.85
 30
0
 11
6.277029226990812
 21
11.05
 31
0
  0
LINE
  8
0
 62
7
  6
DASHED
 10
6.289161261346774
 20
10.85
 30
0
 11
6.489161261346776
 21
11.05
 31
0
  0
LINE
  8
0
 62
7
  6
DASHED
 10
6.501293295702737
 20
10.85
 30
0
 11
6.701293295702739
 21
11.05
 31
0
  0
LINE
  8
0
 62
7
  6
DASHED
 10
6.713425330058701
 20
10.85
 30
0
 11
6.913425330058703
 21
11.05
 31
0
  0
LINE
  8
0
 62
7
  6
DASHED
 10
6.925557364414665
 20
10.85
 30
0
 11
7.125557364414667
 21
11.05
 31
0
  0
LINE
  8
0
 62
7
  6
DASHED
 10
7.137689398770629
 20
10.85
 30
0
 11
7.337689398770631
 21
11.05
 31
0
  0
LINE
  8
0
 62
7
  6
DASHED
 10
7.349821433126593
 20
10.85
 30
0
 11
7.549821433126595
 21
11.05
 31
0
  0
LINE
  8
0
 62
7
  6
DASHED
 10
7.561953467482557
 20
10.85
 30
0
 11
7.75
 21
11.03804653251744
 31
0
  0
LINE
  8
0
 62
7
 10
4.465000000000002
 20
11.04109306503489
 30
0
 11
4.473906934965116
 21
11.05
 31
0
  0
LINE
  8
0
 62
7
 10
4.48603896932108
 20
10.85
 30
0
 11
4.68603896932108
 21
11.05
 31
0
  0
LINE
  8
0
 62
7
 10
4.698171003677044
 20
10.85
 30
0
 11
4.898171003677044
 21
11.05
 31
0
  0
LINE
  8
0
 62
7
 10
4.910303038033008
 20
10.85
 30
0
 11
5.110303038033008
 21
11.05
 31
0
  0
LINE
  8
0
 62
7
 10
5.122435072388972
 20
10.85
 30
0
 11
5.322435072388972
 21
11.05
 31
0
  0
LINE
  8
0
 62
7
 10
5.334567106744935
 20
10.85
 30
0
 11
5.534567106744936
 21
11.05
 31
0
  0
LINE
  8
0
 62
7
 10
5.546699141100899
 20
10.85
 30
0
 11
5.746699141100899
 21
11.05
 31
0
  0
LINE
  8
0
 62
7
 10
5.758831175456863
 20
10.85
 30
0
 11
5.958831175456863
 21
11.05
 31
0
  0
LINE
  8
0
 62
7
 10
5.970963209812827
 20
10.85
 30
0
 11
6.170963209812827
 21
11.05
 31
0
  0
LINE
  8
0
 62
7
 10
6.183095244168791
 20
10.85
 30
0
 11
6.383095244168791
 21
11.05
 31
0
  0
LINE
  8
0
 62
7
 10
6.395227278524755
 20
10.85
 30
0
 11
6.595227278524755
 21
11.05
 31
0
  0
LINE
  8
0
 62
7
 10
6.607359312880718
 20
10.85
 30
0
 11
6.807359312880719
 21
11.05
 31
0
  0
LINE
  8
0
 62
7
 10
6.819491347236682
 20
10.85
 30
0
 11
7.019491347236682
 21
11.05
 31
0
  0
LINE
  8
0
 62
7
 10
7.031623381592646
 20
10.85
 30
0
 11
7.231623381592646
 21
11.05
 31
0
  0
LINE
  8
0
 62
7
 10
7.24375541594861
 20
10.85
 30
0
 11
7.44375541594861
 21
11.05
 31
0
  0
LINE
  8
0
 62
7
 10
7.455887450304574
 20
10.85
 30
0
 11
7.655887450304574
 21
11.05
 31
0
  0
LINE
  8
0
 62
7
 10
7.668019484660538
 20
10.85
 30
0
 11
7.750000000000001
 21
10.93198051533946
 31
0
  0
ENDBLK
  8
0
  0
BLOCK
  8
0
  2
*X8
 70
1
 10
0
 20
0
 30
0
  0
LINE
  8
0
 62
7
  6
DASHED
 10
4.465000000000002
 20
8.177310601229376
 30
0
 11
4.587689398770632
 21
8.299999999999999
 31
0
  0
LINE
  8
0
 62
7
  6
DASHED
 10
4.599821433126596
 20
8.1
 30
0
 11
4.799821433126596
 21
8.299999999999999
 31
0
  0
LINE
  8
0
 62
7
  6
DASHED
 10
4.81195346748256
 20
8.1
 30
0
 11
5.011953467482559
 21
8.299999999999999
 31
0
  0
LINE
  8
0
 62
7
  6
DASHED
 10
5.024085501838524
 20
8.1
 30
0
 11
5.224085501838523
 21
8.299999999999999
 31
0
  0
LINE
  8
0
 62
7
  6
DASHED
 10
5.236217536194488
 20
8.1
 30
0
 11
5.436217536194487
 21
8.299999999999999
 31
0
  0
LINE
  8
0
 62
7
  6
DASHED
 10
5.448349570550452
 20
8.1
 30
0
 11
5.648349570550451
 21
8.299999999999999
 31
0
  0
LINE
  8
0
 62
7
  6
DASHED
 10
5.660481604906415
 20
8.1
 30
0
 11
5.860481604906415
 21
8.299999999999999
 31
0
  0
LINE
  8
0
 62
7
  6
DASHED
 10
5.872613639262379
 20
8.1
 30
0
 11
6.072613639262379
 21
8.299999999999999
 31
0
  0
LINE
  8
0
 62
7
  6
DASHED
 10
6.084745673618343
 20
8.1
 30
0
 11
6.284745673618342
 21
8.299999999999999
 31
0
  0
LINE
  8
0
 62
7
  6
DASHED
 10
6.296877707974307
 20
8.1
 30
0
 11
6.496877707974306
 21
8.299999999999999
 31
0
  0
LINE
  8
0
 62
7
  6
DASHED
 10
6.509009742330271
 20
8.1
 30
0
 11
6.70900974233027
 21
8.299999999999999
 31
0
  0
LINE
  8
0
 62
7
  6
DASHED
 10
6.721141776686235
 20
8.1
 30
0
 11
6.921141776686234
 21
8.299999999999999
 31
0
  0
LINE
  8
0
 62
7
  6
DASHED
 10
6.933273811042199
 20
8.1
 30
0
 11
7.133273811042198
 21
8.299999999999999
 31
0
  0
LINE
  8
0
 62
7
  6
DASHED
 10
7.145405845398162
 20
8.1
 30
0
 11
7.345405845398162
 21
8.299999999999999
 31
0
  0
LINE
  8
0
 62
7
  6
DASHED
 10
7.357537879754126
 20
8.1
 30
0
 11
7.557537879754125
 21
8.299999999999999
 31
0
  0
LINE
  8
0
 62
7
  6
DASHED
 10
7.56966991411009
 20
8.1
 30
0
 11
7.750000000000002
 21
8.280330085889913
 31
0
  0
LINE
  8
0
 62
7
 10
4.465000000000002
 20
8.283376618407358
 30
0
 11
4.481623381592651
 21
8.299999999999999
 31
0
  0
LINE
  8
0
 62
7
 10
4.493755415948616
 20
8.1
 30
0
 11
4.693755415948615
 21
8.299999999999999
 31
0
  0
LINE
  8
0
 62
7
 10
4.70588745030458
 20
8.1
 30
0
 11
4.905887450304578
 21
8.299999999999999
 31
0
  0
LINE
  8
0
 62
7
 10
4.918019484660544
 20
8.1
 30
0
 11
5.118019484660542
 21
8.299999999999999
 31
0
  0
LINE
  8
0
 62
7
 10
5.130151519016508
 20
8.1
 30
0
 11
5.330151519016506
 21
8.299999999999999
 31
0
  0
LINE
  8
0
 62
7
 10
5.342283553372472
 20
8.1
 30
0
 11
5.54228355337247
 21
8.299999999999999
 31
0
  0
LINE
  8
0
 62
7
 10
5.554415587728435
 20
8.1
 30
0
 11
5.754415587728434
 21
8.299999999999999
 31
0
  0
LINE
  8
0
 62
7
 10
5.766547622084399
 20
8.1
 30
0
 11
5.966547622084398
 21
8.299999999999999
 31
0
  0
LINE
  8
0
 62
7
 10
5.978679656440363
 20
8.1
 30
0
 11
6.178679656440361
 21
8.299999999999999
 31
0
  0
LINE
  8
0
 62
7
 10
6.190811690796327
 20
8.1
 30
0
 11
6.390811690796325
 21
8.299999999999999
 31
0
  0
LINE
  8
0
 62
7
 10
6.402943725152291
 20
8.1
 30
0
 11
6.602943725152289
 21
8.299999999999999
 31
0
  0
LINE
  8
0
 62
7
 10
6.615075759508255
 20
8.1
 30
0
 11
6.815075759508253
 21
8.299999999999999
 31
0
  0
LINE
  8
0
 62
7
 10
6.827207793864218
 20
8.1
 30
0
 11
7.027207793864217
 21
8.299999999999999
 31
0
  0
LINE
  8
0
 62
7
 10
7.039339828220182
 20
8.1
 30
0
 11
7.239339828220181
 21
8.299999999999999
 31
0
  0
LINE
  8
0
 62
7
 10
7.251471862576146
 20
8.1
 30
0
 11
7.451471862576144
 21
8.299999999999999
 31
0
  0
LINE
  8
0
 62
7
 10
7.46360389693211
 20
8.1
 30
0
 11
7.663603896932108
 21
8.299999999999999
 31
0
  0
LINE
  8
0
 62
7
 10
7.675735931288074
 20
8.1
 30
0
 11
7.750000000000003
 21
8.174264068711929
 31
0
  0
ENDBLK
  8
0
  0
BLOCK
  8
0
  2
*X9
 70
1
 10
0
 20
0
 30
0
  0
LINE
  8
0
 62
7
 10
4.615
 20
11.08502704785691
 30
0
 11
4.729972952143092
 21
11.2
 31
0
  0
LINE
  8
0
 62
7
 10
4.615000000000001
 20
11.19109306503489
 30
0
 11
4.623906934965108
 21
11.2
 31
0
  0
LINE
  8
0
 62
7
 10
4.686038969321075
 20
11.05
 30
0
 11
4.790000000000001
 21
11.15396103067893
 31
0
  0
ENDBLK
  8
0
  0
BLOCK
  8
0
  2
*X10
 70
1
 10
0
 20
0
 30
0
  0
LINE
  8
0
 62
7
 10
4.615
 20
10.66076297914498
 30
0
 11
4.790000000000003
 21
10.83576297914498
 31
0
  0
LINE
  8
0
 62
7
 10
4.615
 20
10.44863094478901
 30
0
 11
4.790000000000003
 21
10.62363094478902
 31
0
  0
LINE
  8
0
 62
7
 10
4.615
 20
10.23649891043305
 30
0
 11
4.790000000000003
 21
10.41149891043305
 31
0
  0
LINE
  8
0
 62
7
 10
4.615
 20
10.02436687607709
 30
0
 11
4.790000000000003
 21
10.19936687607709
 31
0
  0
LINE
  8
0
 62
7
 10
4.615
 20
9.812234841721121
 30
0
 11
4.790000000000003
 21
9.987234841721124
 31
0
  0
LINE
  8
0
 62
7
 10
4.615
 20
9.600102807365158
 30
0
 11
4.790000000000003
 21
9.77510280736516
 31
0
  0
LINE
  8
0
 62
7
 10
4.615
 20
9.387970773009194
 30
0
 11
4.790000000000003
 21
9.562970773009196
 31
0
  0
LINE
  8
0
 62
7
 10
4.615
 20
9.17583873865323
 30
0
 11
4.790000000000003
 21
9.350838738653232
 31
0
  0
LINE
  8
0
 62
7
 10
4.615
 20
8.963706704297266
 30
0
 11
4.790000000000003
 21
9.138706704297269
 31
0
  0
LINE
  8
0
 62
7
 10
4.615
 20
8.751574669941302
 30
0
 11
4.790000000000003
 21
8.926574669941305
 31
0
  0
LINE
  8
0
 62
7
 10
4.615
 20
8.539442635585338
 30
0
 11
4.790000000000003
 21
8.714442635585341
 31
0
  0
LINE
  8
0
 62
7
 10
4.615
 20
8.327310601229374
 30
0
 11
4.790000000000003
 21
8.502310601229377
 31
0
  0
LINE
  8
0
 62
7
 10
4.615000000000001
 20
10.76682899632296
 30
0
 11
4.698171003677038
 21
10.85
 31
0
  0
LINE
  8
0
 62
7
 10
4.615000000000001
 20
10.55469696196699
 30
0
 11
4.790000000000002
 21
10.729696961967
 31
0
  0
LINE
  8
0
 62
7
 10
4.615000000000001
 20
10.34256492761103
 30
0
 11
4.790000000000002
 21
10.51756492761103
 31
0
  0
LINE
  8
0
 62
7
 10
4.615000000000001
 20
10.13043289325507
 30
0
 11
4.790000000000002
 21
10.30543289325507
 31
0
  0
LINE
  8
0
 62
7
 10
4.615000000000001
 20
9.918300858899103
 30
0
 11
4.790000000000002
 21
10.0933008588991
 31
0
  0
LINE
  8
0
 62
7
 10
4.615000000000001
 20
9.706168824543139
 30
0
 11
4.790000000000002
 21
9.88116882454314
 31
0
  0
LINE
  8
0
 62
7
 10
4.615000000000001
 20
9.494036790187176
 30
0
 11
4.790000000000002
 21
9.669036790187176
 31
0
  0
LINE
  8
0
 62
7
 10
4.615000000000001
 20
9.281904755831212
 30
0
 11
4.790000000000002
 21
9.456904755831212
 31
0
  0
LINE
  8
0
 62
7
 10
4.615000000000001
 20
9.069772721475248
 30
0
 11
4.790000000000002
 21
9.244772721475249
 31
0
  0
LINE
  8
0
 62
7
 10
4.615000000000001
 20
8.857640687119284
 30
0
 11
4.790000000000002
 21
9.032640687119285
 31
0
  0
LINE
  8
0
 62
7
 10
4.615000000000001
 20
8.64550865276332
 30
0
 11
4.790000000000002
 21
8.820508652763321
 31
0
  0
LINE
  8
0
 62
7
 10
4.615000000000001
 20
8.433376618407356
 30
0
 11
4.790000000000002
 21
8.608376618407357
 31
0
  0
LINE
  8
0
 62
7
 10
4.693755415948607
 20
8.299999999999999
 30
0
 11
4.790000000000002
 21
8.396244584051393
 31
0
  0
ENDBLK
  8
0
  0
BLOCK
  8
0
  2
*X11
 70
1
 10
0
 20
0
 30
0
  0
LINE
  8
0
 62
7
 10
4.661953467482554
 20
7.949999999999999
 30
0
 11
4.789999999999999
 21
8.078046532517444
 31
0
  0
LINE
  8
0
 62
7
 10
4.615
 20
8.009112549695427
 30
0
 11
4.705887450304573
 21
8.1
 31
0
  0
LINE
  8
0
 62
7
 10
4.768019484660536
 20
7.949999999999999
 30
0
 11
4.790000000000001
 21
7.971980515339462
 31
0
  0
ENDBLK
  8
0
  0
BLOCK
  8
0
  2
*X12
 70
1
 10
0
 20
0
 30
0
  0
LINE
  8
0
 62
7
 10
7.425000000000002
 20
11.13731060122938
 30
0
 11
7.487689398770626
 21
11.2
 31
0
  0
LINE
  8
0
 62
7
 10
7.549821433126593
 20
11.05
 30
0
 11
7.600000000000002
 21
11.10017856687341
 31
0
  0
LINE
  8
0
 62
7
 10
7.44375541594861
 20
11.05
 30
0
 11
7.593755415948609
 21
11.2
 31
0
  0
ENDBLK
  8
0
  0
BLOCK
  8
0
  2
*X13
 70
1
 10
0
 20
0
 30
0
  0
LINE
  8
0
 62
7
 10
7.425000000000002
 20
10.71304653251744
 30
0
 11
7.561953467482555
 21
10.85
 31
0
  0
LINE
  8
0
 62
7
 10
7.425000000000002
 20
10.50091449816148
 30
0
 11
7.600000000000002
 21
10.67591449816148
 31
0
  0
LINE
  8
0
 62
7
 10
7.425000000000002
 20
10.28878246380551
 30
0
 11
7.600000000000002
 21
10.46378246380551
 31
0
  0
LINE
  8
0
 62
7
 10
7.425000000000002
 20
10.07665042944955
 30
0
 11
7.600000000000002
 21
10.25165042944955
 31
0
  0
LINE
  8
0
 62
7
 10
7.425000000000002
 20
9.864518395093587
 30
0
 11
7.600000000000002
 21
10.03951839509359
 31
0
  0
LINE
  8
0
 62
7
 10
7.425000000000002
 20
9.652386360737623
 30
0
 11
7.600000000000002
 21
9.827386360737622
 31
0
  0
LINE
  8
0
 62
7
 10
7.425000000000002
 20
9.440254326381659
 30
0
 11
7.600000000000002
 21
9.615254326381658
 31
0
  0
LINE
  8
0
 62
7
 10
7.425000000000002
 20
9.228122292025695
 30
0
 11
7.600000000000002
 21
9.403122292025694
 31
0
  0
LINE
  8
0
 62
7
 10
7.425000000000002
 20
9.015990257669731
 30
0
 11
7.600000000000002
 21
9.19099025766973
 31
0
  0
LINE
  8
0
 62
7
 10
7.425000000000002
 20
8.803858223313767
 30
0
 11
7.600000000000002
 21
8.978858223313766
 31
0
  0
LINE
  8
0
 62
7
 10
7.425000000000002
 20
8.591726188957804
 30
0
 11
7.600000000000002
 21
8.766726188957803
 31
0
  0
LINE
  8
0
 62
7
 10
7.425000000000002
 20
8.37959415460184
 30
0
 11
7.600000000000002
 21
8.554594154601839
 31
0
  0
LINE
  8
0
 62
7
 10
7.557537879754124
 20
8.299999999999997
 30
0
 11
7.600000000000002
 21
8.342462120245875
 31
0
  0
LINE
  8
0
 62
7
 10
7.425000000000001
 20
10.81911254969542
 30
0
 11
7.455887450304571
 21
10.85
 31
0
  0
LINE
  8
0
 62
7
 10
7.425000000000001
 20
10.60698051533946
 30
0
 11
7.600000000000001
 21
10.78198051533946
 31
0
  0
LINE
  8
0
 62
7
 10
7.425000000000001
 20
10.3948484809835
 30
0
 11
7.600000000000001
 21
10.56984848098349
 31
0
  0
LINE
  8
0
 62
7
 10
7.425000000000001
 20
10.18271644662753
 30
0
 11
7.600000000000001
 21
10.35771644662753
 31
0
  0
LINE
  8
0
 62
7
 10
7.425000000000001
 20
9.970584412271569
 30
0
 11
7.600000000000001
 21
10.14558441227157
 31
0
  0
LINE
  8
0
 62
7
 10
7.425000000000001
 20
9.758452377915605
 30
0
 11
7.600000000000001
 21
9.933452377915602
 31
0
  0
LINE
  8
0
 62
7
 10
7.425000000000001
 20
9.546320343559641
 30
0
 11
7.600000000000001
 21
9.721320343559638
 31
0
  0
LINE
  8
0
 62
7
 10
7.425000000000001
 20
9.334188309203677
 30
0
 11
7.600000000000001
 21
9.509188309203674
 31
0
  0
LINE
  8
0
 62
7
 10
7.425000000000001
 20
9.122056274847713
 30
0
 11
7.600000000000001
 21
9.29705627484771
 31
0
  0
LINE
  8
0
 62
7
 10
7.425000000000001
 20
8.909924240491749
 30
0
 11
7.600000000000001
 21
9.084924240491747
 31
0
  0
LINE
  8
0
 62
7
 10
7.425000000000001
 20
8.697792206135786
 30
0
 11
7.600000000000001
 21
8.872792206135783
 31
0
  0
LINE
  8
0
 62
7
 10
7.425000000000001
 20
8.485660171779822
 30
0
 11
7.600000000000001
 21
8.660660171779819
 31
0
  0
LINE
  8
0
 62
7
 10
7.451471862576143
 20
8.299999999999997
 30
0
 11
7.600000000000001
 21
8.448528137423855
 31
0
  0
ENDBLK
  8
0
  0
BLOCK
  8
0
  2
*X14
 70
1
 10
0
 20
0
 30
0
  0
LINE
  8
0
 62
7
 10
7.425000000000001
 20
7.955330085889911
 30
0
 11
7.56966991411009
 21
8.1
 31
0
  0
LINE
  8
0
 62
7
 10
7.425000000000002
 20
8.061396103067892
 30
0
 11
7.463603896932107
 21
8.099999999999998
 31
0
  0
LINE
  8
0
 62
7
 10
7.525735931288072
 20
7.949999999999999
 30
0
 11
7.600000000000001
 21
8.024264068711927
 31
0
  0
ENDBLK
  8
0
  0
BLOCK
  8
0
  2
*X15
 70
1
 10
0
 20
0
 30
0
  0
LINE
  8
0
 62
7
 10
4.465000000000002
 20
4.995330085889912
 30
0
 11
4.789669914110088
 21
5.319999999999999
 31
0
  0
LINE
  8
0
 62
7
 10
4.611801948466061
 20
4.930000000000001
 30
0
 11
4.851801948466059
 21
5.17
 31
0
  0
LINE
  8
0
 62
7
 10
4.823933982822025
 20
4.930000000000001
 30
0
 11
5.063933982822022
 21
5.17
 31
0
  0
LINE
  8
0
 62
7
 10
5.036066017177989
 20
4.930000000000001
 30
0
 11
5.276066017177986
 21
5.17
 31
0
  0
LINE
  8
0
 62
7
 10
5.248198051533953
 20
4.930000000000001
 30
0
 11
5.48819805153395
 21
5.17
 31
0
  0
LINE
  8
0
 62
7
 10
5.460330085889916
 20
4.930000000000001
 30
0
 11
5.700330085889914
 21
5.17
 31
0
  0
LINE
  8
0
 62
7
 10
5.67246212024588
 20
4.930000000000001
 30
0
 11
5.912462120245878
 21
5.17
 31
0
  0
LINE
  8
0
 62
7
 10
5.884594154601844
 20
4.930000000000001
 30
0
 11
6.124594154601842
 21
5.17
 31
0
  0
LINE
  8
0
 62
7
 10
6.096726188957808
 20
4.930000000000001
 30
0
 11
6.336726188957805
 21
5.17
 31
0
  0
LINE
  8
0
 62
7
 10
6.308858223313772
 20
4.930000000000001
 30
0
 11
6.548858223313769
 21
5.17
 31
0
  0
LINE
  8
0
 62
7
 10
6.520990257669736
 20
4.930000000000001
 30
0
 11
6.760990257669733
 21
5.17
 31
0
  0
LINE
  8
0
 62
7
 10
6.733122292025699
 20
4.930000000000001
 30
0
 11
6.973122292025697
 21
5.17
 31
0
  0
LINE
  8
0
 62
7
 10
6.945254326381663
 20
4.930000000000001
 30
0
 11
7.185254326381661
 21
5.17
 31
0
  0
LINE
  8
0
 62
7
 10
7.425000000000001
 20
5.197613639262376
 30
0
 11
7.547386360737624
 21
5.319999999999999
 31
0
  0
LINE
  8
0
 62
7
 10
7.157386360737627
 20
4.930000000000001
 30
0
 11
7.397386360737625
 21
5.17
 31
0
  0
LINE
  8
0
 62
7
 10
7.369518395093591
 20
4.930000000000001
 30
0
 11
7.609518395093588
 21
5.169999999999998
 31
0
  0
LINE
  8
0
 62
7
 10
7.581650429449555
 20
4.930000000000001
 30
0
 11
7.765000000000001
 21
5.113349570550446
 31
0
  0
LINE
  8
0
 62
7
 10
4.615000000000001
 20
5.251396103067894
 30
0
 11
4.683603896932107
 21
5.319999999999999
 31
0
  0
LINE
  8
0
 62
7
 10
4.465000000000003
 20
5.101396103067895
 30
0
 11
4.533603896932108
 21
5.17
 31
0
  0
LINE
  8
0
 62
7
 10
4.50573593128808
 20
4.930000000000001
 30
0
 11
4.790000000000001
 21
5.214264068711929
 31
0
  0
LINE
  8
0
 62
7
 10
4.717867965644044
 20
4.930000000000001
 30
0
 11
4.95786796564404
 21
5.169999999999999
 31
0
  0
LINE
  8
0
 62
7
 10
4.930000000000008
 20
4.930000000000001
 30
0
 11
5.170000000000003
 21
5.169999999999999
 31
0
  0
LINE
  8
0
 62
7
 10
5.142132034355972
 20
4.930000000000001
 30
0
 11
5.382132034355967
 21
5.169999999999999
 31
0
  0
LINE
  8
0
 62
7
 10
5.354264068711935
 20
4.930000000000001
 30
0
 11
5.594264068711931
 21
5.169999999999999
 31
0
  0
LINE
  8
0
 62
7
 10
5.566396103067899
 20
4.930000000000001
 30
0
 11
5.806396103067895
 21
5.169999999999999
 31
0
  0
LINE
  8
0
 62
7
 10
5.778528137423863
 20
4.930000000000001
 30
0
 11
6.018528137423859
 21
5.169999999999999
 31
0
  0
LINE
  8
0
 62
7
 10
5.990660171779827
 20
4.930000000000001
 30
0
 11
6.230660171779823
 21
5.169999999999999
 31
0
  0
LINE
  8
0
 62
7
 10
6.202792206135791
 20
4.930000000000001
 30
0
 11
6.442792206135787
 21
5.169999999999999
 31
0
  0
LINE
  8
0
 62
7
 10
6.414924240491755
 20
4.930000000000001
 30
0
 11
6.65492424049175
 21
5.169999999999999
 31
0
  0
LINE
  8
0
 62
7
 10
6.627056274847718
 20
4.930000000000001
 30
0
 11
6.867056274847714
 21
5.169999999999999
 31
0
  0
LINE
  8
0
 62
7
 10
6.839188309203682
 20
4.930000000000001
 30
0
 11
7.079188309203678
 21
5.169999999999999
 31
0
  0
LINE
  8
0
 62
7
 10
7.425000000000001
 20
5.303679656440358
 30
0
 11
7.441320343559641
 21
5.319999999999999
 31
0
  0
LINE
  8
0
 62
7
 10
7.051320343559646
 20
4.930000000000001
 30
0
 11
7.291320343559642
 21
5.169999999999999
 31
0
  0
LINE
  8
0
 62
7
 10
7.26345237791561
 20
4.930000000000001
 30
0
 11
7.600000000000001
 21
5.266547622084394
 31
0
  0
LINE
  8
0
 62
7
 10
7.475584412271574
 20
4.930000000000001
 30
0
 11
7.71558441227157
 21
5.169999999999998
 31
0
  0
LINE
  8
0
 62
7
 10
7.687716446627538
 20
4.930000000000001
 30
0
 11
7.765000000000001
 21
5.007283553372464
 31
0
  0
ENDBLK
  8
0
  0
BLOCK
  8
0
  2
*X16
 70
1
 10
0
 20
0
 30
0
  0
LINE
  8
0
 62
7
 10
4.465000000000002
 20
4.783198051533947
 30
0
 11
4.571801948466061
 21
4.890000000000001
 31
0
  0
LINE
  8
0
 62
7
 10
4.54393398282202
 20
4.650000000000001
 30
0
 11
4.783933982822025
 21
4.890000000000001
 31
0
  0
LINE
  8
0
 62
7
 10
4.615000000000001
 20
4.508933982822017
 30
0
 11
4.996066017177989
 21
4.890000000000001
 31
0
  0
LINE
  8
0
 62
7
 10
4.968198051533943
 20
4.650000000000001
 30
0
 11
5.208198051533953
 21
4.890000000000001
 31
0
  0
LINE
  8
0
 62
7
 10
4.615000000000001
 20
4.296801948466054
 30
0
 11
4.79
 21
4.471801948466057
 31
0
  0
LINE
  8
0
 62
7
 10
5.180330085889908
 20
4.650000000000001
 30
0
 11
5.420330085889916
 21
4.890000000000001
 31
0
  0
LINE
  8
0
 62
7
 10
4.615000000000001
 20
4.08466991411009
 30
0
 11
4.79
 21
4.259669914110092
 31
0
  0
LINE
  8
0
 62
7
 10
5.392462120245873
 20
4.650000000000001
 30
0
 11
5.63246212024588
 21
4.890000000000001
 31
0
  0
LINE
  8
0
 62
7
 10
4.615000000000001
 20
3.872537879754126
 30
0
 11
4.79
 21
4.047537879754127
 31
0
  0
LINE
  8
0
 62
7
 10
5.604594154601838
 20
4.650000000000001
 30
0
 11
5.844594154601844
 21
4.890000000000001
 31
0
  0
LINE
  8
0
 62
7
 10
4.615000000000001
 20
3.660405845398162
 30
0
 11
4.79
 21
3.835405845398163
 31
0
  0
LINE
  8
0
 62
7
 10
5.816726188957802
 20
4.650000000000001
 30
0
 11
6.056726188957808
 21
4.890000000000001
 31
0
  0
LINE
  8
0
 62
7
 10
4.615000000000001
 20
3.448273811042197
 30
0
 11
4.79
 21
3.623273811042198
 31
0
  0
LINE
  8
0
 62
7
 10
6.028858223313767
 20
4.650000000000001
 30
0
 11
6.268858223313772
 21
4.890000000000001
 31
0
  0
LINE
  8
0
 62
7
 10
4.628858223313769
 20
3.250000000000001
 30
0
 11
4.79
 21
3.411141776686233
 31
0
  0
LINE
  8
0
 62
7
 10
6.240990257669732
 20
4.650000000000001
 30
0
 11
6.480990257669736
 21
4.890000000000001
 31
0
  0
LINE
  8
0
 62
7
 10
6.453122292025697
 20
4.650000000000001
 30
0
 11
6.693122292025699
 21
4.890000000000001
 31
0
  0
LINE
  8
0
 62
7
 10
6.665254326381661
 20
4.650000000000001
 30
0
 11
6.905254326381663
 21
4.890000000000001
 31
0
  0
LINE
  8
0
 62
7
 10
6.877386360737626
 20
4.650000000000001
 30
0
 11
7.117386360737627
 21
4.890000000000001
 31
0
  0
LINE
  8
0
 62
7
 10
7.089518395093591
 20
4.650000000000001
 30
0
 11
7.329518395093591
 21
4.890000000000001
 31
0
  0
LINE
  8
0
 62
7
 10
7.301650429449555
 20
4.650000000000001
 30
0
 11
7.541650429449555
 21
4.890000000000001
 31
0
  0
LINE
  8
0
 62
7
 10
7.425000000000002
 20
4.561217536194484
 30
0
 11
7.753782463805519
 21
4.890000000000001
 31
0
  0
LINE
  8
0
 62
7
 10
7.725914498161483
 20
4.650000000000001
 30
0
 11
7.765000000000001
 21
4.689085501838519
 31
0
  0
LINE
  8
0
 62
7
 10
7.425000000000002
 20
4.34908550183852
 30
0
 11
7.600000000000002
 21
4.52408550183852
 31
0
  0
LINE
  8
0
 62
7
 10
7.425000000000002
 20
4.136953467482556
 30
0
 11
7.600000000000002
 21
4.311953467482556
 31
0
  0
LINE
  8
0
 62
7
 10
7.425000000000002
 20
3.924821433126592
 30
0
 11
7.600000000000002
 21
4.099821433126592
 31
0
  0
LINE
  8
0
 62
7
 10
7.425000000000002
 20
3.712689398770628
 30
0
 11
7.600000000000002
 21
3.887689398770628
 31
0
  0
LINE
  8
0
 62
7
 10
7.425000000000002
 20
3.500557364414663
 30
0
 11
7.600000000000002
 21
3.675557364414663
 31
0
  0
LINE
  8
0
 62
7
 10
7.486574669941304
 20
3.350000000000001
 30
0
 11
7.600000000000002
 21
3.463425330058699
 31
0
  0
LINE
  8
0
 62
7
 10
4.465000000000002
 20
4.889264068711929
 30
0
 11
4.465735931288079
 21
4.890000000000001
 31
0
  0
LINE
  8
0
 62
7
 10
4.465000000000002
 20
4.677132034355965
 30
0
 11
4.677867965644043
 21
4.890000000000001
 31
0
  0
LINE
  8
0
 62
7
 10
4.615000000000001
 20
4.615
 30
0
 11
4.890000000000007
 21
4.890000000000001
 31
0
  0
LINE
  8
0
 62
7
 10
4.862132034355961
 20
4.650000000000001
 30
0
 11
5.102132034355971
 21
4.890000000000001
 31
0
  0
LINE
  8
0
 62
7
 10
4.615000000000001
 20
4.402867965644036
 30
0
 11
4.790000000000001
 21
4.577867965644039
 31
0
  0
LINE
  8
0
 62
7
 10
5.074264068711925
 20
4.650000000000001
 30
0
 11
5.314264068711934
 21
4.890000000000001
 31
0
  0
LINE
  8
0
 62
7
 10
4.615000000000001
 20
4.190735931288073
 30
0
 11
4.790000000000001
 21
4.365735931288074
 31
0
  0
LINE
  8
0
 62
7
 10
5.28639610306789
 20
4.650000000000001
 30
0
 11
5.526396103067898
 21
4.890000000000001
 31
0
  0
LINE
  8
0
 62
7
 10
4.615000000000001
 20
3.978603896932108
 30
0
 11
4.790000000000001
 21
4.153603896932109
 31
0
  0
LINE
  8
0
 62
7
 10
5.498528137423855
 20
4.650000000000001
 30
0
 11
5.738528137423862
 21
4.890000000000001
 31
0
  0
LINE
  8
0
 62
7
 10
4.615000000000001
 20
3.766471862576144
 30
0
 11
4.790000000000001
 21
3.941471862576145
 31
0
  0
LINE
  8
0
 62
7
 10
5.71066017177982
 20
4.650000000000001
 30
0
 11
5.950660171779826
 21
4.890000000000001
 31
0
  0
LINE
  8
0
 62
7
 10
4.615000000000001
 20
3.55433982822018
 30
0
 11
4.790000000000001
 21
3.72933982822018
 31
0
  0
LINE
  8
0
 62
7
 10
5.922792206135784
 20
4.650000000000001
 30
0
 11
6.16279220613579
 21
4.890000000000001
 31
0
  0
LINE
  8
0
 62
7
 10
4.615000000000001
 20
3.342207793864215
 30
0
 11
4.790000000000001
 21
3.517207793864215
 31
0
  0
LINE
  8
0
 62
7
 10
6.134924240491749
 20
4.650000000000001
 30
0
 11
6.374924240491754
 21
4.890000000000001
 31
0
  0
LINE
  8
0
 62
7
 10
4.73492424049175
 20
3.250000000000001
 30
0
 11
4.790000000000003
 21
3.305075759508252
 31
0
  0
LINE
  8
0
 62
7
 10
6.347056274847714
 20
4.650000000000001
 30
0
 11
6.587056274847717
 21
4.890000000000001
 31
0
  0
LINE
  8
0
 62
7
 10
6.559188309203678
 20
4.650000000000001
 30
0
 11
6.799188309203681
 21
4.890000000000001
 31
0
  0
LINE
  8
0
 62
7
 10
6.771320343559643
 20
4.650000000000001
 30
0
 11
7.011320343559645
 21
4.890000000000001
 31
0
  0
LINE
  8
0
 62
7
 10
6.983452377915608
 20
4.650000000000001
 30
0
 11
7.223452377915609
 21
4.890000000000001
 31
0
  0
LINE
  8
0
 62
7
 10
7.195584412271573
 20
4.650000000000001
 30
0
 11
7.435584412271573
 21
4.890000000000001
 31
0
  0
LINE
  8
0
 62
7
 10
7.407716446627537
 20
4.650000000000001
 30
0
 11
7.647716446627537
 21
4.890000000000001
 31
0
  0
LINE
  8
0
 62
7
 10
7.619848480983501
 20
4.650000000000001
 30
0
 11
7.765000000000001
 21
4.795151519016501
 31
0
  0
LINE
  8
0
 62
7
 10
7.425000000000002
 20
4.455151519016501
 30
0
 11
7.600000000000001
 21
4.630151519016501
 31
0
  0
LINE
  8
0
 62
7
 10
7.425000000000002
 20
4.243019484660537
 30
0
 11
7.600000000000001
 21
4.418019484660537
 31
0
  0
LINE
  8
0
 62
7
 10
7.425000000000002
 20
4.030887450304573
 30
0
 11
7.600000000000001
 21
4.205887450304573
 31
0
  0
LINE
  8
0
 62
7
 10
7.425000000000002
 20
3.818755415948609
 30
0
 11
7.600000000000001
 21
3.993755415948609
 31
0
  0
LINE
  8
0
 62
7
 10
7.425000000000002
 20
3.606623381592645
 30
0
 11
7.600000000000001
 21
3.781623381592645
 31
0
  0
LINE
  8
0
 62
7
 10
7.425000000000001
 20
3.394491347236679
 30
0
 11
7.600000000000001
 21
3.56949134723668
 31
0
  0
LINE
  8
0
 62
7
 10
7.592640687119287
 20
3.350000000000001
 30
0
 11
7.600000000000001
 21
3.357359312880716
 31
0
  0
ENDBLK
  8
0
  0
BLOCK
  8
0
  2
*D0
 70
1
 10
0
 20
0
 30
0
  0
LINE
  8
0
 62
7
 10
7.978545120791441
 20
4.31544411812298
 30
0
 11
7.978545120791441
 21
4.650000000000002
 31
0
  0
LINE
  8
0
 62
7
 10
7.978545120791441
 20
3.350000000000001
 30
0
 11
7.978545120791441
 21
3.66044411812298
 31
0
  0
LINE
  8
0
 62
7
 10
7.600000000000002
 20
4.650000000000002
 30
0
 11
8.028545120791442
 21
4.650000000000002
 31
0
  0
LINE
  8
0
 62
7
 10
7.600000000000002
 20
3.350000000000001
 30
0
 11
8.028545120791442
 21
3.350000000000001
 31
0
  0
LINE
  8
0
 62
7
 10
8.013900459850769
 20
4.614644660940675
 30
0
 11
7.943189781732114
 21
4.685355339059329
 31
0
  0
LINE
  8
0
 62
7
 10
7.943189781732114
 20
3.385355339059328
 30
0
 11
8.013900459850769
 21
3.314644660940673
 31
0
  0
TEXT
  8
0
 62
7
 10
8.023545120791441
 20
3.91044411812298
 30
0
 40
0.1
  1
1,3
 50
90
 41
0.9
  0
ENDBLK
  8
0
  0
BLOCK
  8
0
  2
*D1
 70
1
 10
0
 20
0
 30
0
  0
LINE
  8
0
 62
7
 10
6.521143572787121
 20
5.55183417206041
 30
0
 11
7.425000000000002
 21
5.55183417206041
 31
0
  0
LINE
  8
0
 62
7
 10
4.790000000000002
 20
5.55183417206041
 30
0
 11
5.746143572787121
 21
5.55183417206041
 31
0
  0
LINE
  8
0
 62
7
 10
7.425000000000002
 20
5.169999999999999
 30
0
 11
7.425000000000002
 21
5.60183417206041
 31
0
  0
LINE
  8
0
 62
7
 10
4.790000000000002
 20
5.169999999999999
 30
0
 11
4.790000000000002
 21
5.60183417206041
 31
0
  0
LINE
  8
0
 62
7
 10
4.825355339059329
 20
5.587189511119737
 30
0
 11
4.754644660940675
 21
5.516478833001083
 31
0
  0
LINE
  8
0
 62
7
 10
7.389644660940675
 20
5.516478833001083
 30
0
 11
7.46035533905933
 21
5.587189511119737
 31
0
  0
TEXT
  8
0
 62
7
 10
5.996143572787121
 20
5.50683417206041
 30
0
 40
0.1
  1
2,64
 41
0.9
  0
ENDBLK
  8
0
  0
BLOCK
  8
0
  2
*D2
 70
1
 10
0
 20
0
 30
0
  0
LINE
  8
0
 62
7
 10
4.22765256955088
 20
4.25435466289105
 30
0
 11
4.22765256955088
 21
4.650000000000001
 31
0
  0
LINE
  8
0
 62
7
 10
4.22765256955088
 20
3.250000000000001
 30
0
 11
4.22765256955088
 21
3.59935466289105
 31
0
  0
LINE
  8
0
 62
7
 10
4.615000000000001
 20
4.650000000000001
 30
0
 11
4.17765256955088
 21
4.650000000000001
 31
0
  0
LINE
  8
0
 62
7
 10
4.615000000000001
 20
3.250000000000001
 30
0
 11
4.17765256955088
 21
3.250000000000001
 31
0
  0
LINE
  8
0
 62
7
 10
4.192297230491553
 20
3.285355339059328
 30
0
 11
4.263007908610208
 21
3.214644660940674
 31
0
  0
LINE
  8
0
 62
7
 10
4.263007908610208
 20
4.614644660940674
 30
0
 11
4.192297230491553
 21
4.685355339059329
 31
0
  0
TEXT
  8
0
 62
7
 10
4.27265256955088
 20
3.84935466289105
 30
0
 40
0.1
  1
1,4
 50
90
 41
0.9
  0
ENDBLK
  8
0
  0
BLOCK
  8
0
  2
*D3
 70
1
 10
0
 20
0
 30
0
  0
LINE
  8
0
 62
7
 10
6.42227200860158
 20
11.5019471116505
 30
0
 11
7.425
 21
11.5019471116505
 31
0
  0
LINE
  8
0
 62
7
 10
4.79
 20
11.5019471116505
 30
0
 11
5.74727200860158
 21
11.5019471116505
 31
0
  0
LINE
  8
0
 62
7
 10
7.425
 20
11.2
 30
0
 11
7.425
 21
11.5519471116505
 31
0
  0
LINE
  8
0
 62
7
 10
4.79
 20
11.2
 30
0
 11
4.79
 21
11.5519471116505
 31
0
  0
LINE
  8
0
 62
7
 10
7.389644660940673
 20
11.46659177259117
 30
0
 11
7.460355339059327
 21
11.53730245070983
 31
0
  0
LINE
  8
0
 62
7
 10
4.825355339059327
 20
11.53730245070983
 30
0
 11
4.754644660940673
 21
11.46659177259117
 31
0
  0
TEXT
  8
0
 62
7
 10
5.94727200860158
 20
11.4569471116505
 30
0
 40
0.1
  1
2,64
 41
0.9
  0
ENDBLK
  8
0
  0
BLOCK
  8
0
  2
*D4
 70
1
 10
0
 20
0
 30
0
  0
LINE
  8
0
 62
7
 10
8.12515981334808
 20
10.2581350188781
 30
0
 11
8.12515981334808
 21
11.05
 31
0
  0
LINE
  8
0
 62
7
 10
8.12515981334808
 20
8.300000000000001
 30
0
 11
8.12515981334808
 21
9.1781350188781
 31
0
  0
LINE
  8
0
 62
7
 10
7.750000000000002
 20
11.05
 30
0
 11
8.175159813348081
 21
11.05
 31
0
  0
LINE
  8
0
 62
7
 10
7.750000000000002
 20
8.300000000000001
 30
0
 11
8.175159813348081
 21
8.300000000000001
 31
0
  0
LINE
  8
0
 62
7
 10
8.089804474288753
 20
8.335355339059328
 30
0
 11
8.160515152407408
 21
8.264644660940673
 31
0
  0
LINE
  8
0
 62
7
 10
8.160515152407408
 20
11.01464466094068
 30
0
 11
8.089804474288753
 21
11.08535533905933
 31
0
  0
TEXT
  8
0
 62
7
 10
8.095159813348081
 20
9.580635018878102
 30
0
 40
0.1
  1
2,75
 50
90
 41
0.9
  0
TEXT
  8
0
 62
7
 10
8.255159813348081
 20
9.378135018878101
 30
0
 40
0.1
  1
(260-280)
 50
90
 41
0.9
  0
ENDBLK
  8
0
  0
ENDSEC
  0
SECTION
  2
ENTITIES
  0
INSERT
  8
0
  2
*X0
 10
0
 20
0
 30
0
  0
INSERT
  8
0
  2
*X1
 10
0
 20
0
 30
0
  0
INSERT
  8
0
  2
*X2
 10
0
 20
0
 30
0
  0
INSERT
  8
0
  2
*X3
 10
0
 20
0
 30
0
  0
INSERT
  8
0
  2
*X4
 10
0
 20
0
 30
0
  0
INSERT
  8
0
  2
*X5
 10
0
 20
0
 30
0
  0
INSERT
  8
0
  2
*X6
 10
0
 20
0
 30
0
  0
INSERT
  8
0
  2
*X7
 10
0
 20
0
 30
0
  0
INSERT
  8
0
  2
*X8
 10
0
 20
0
 30
0
  0
INSERT
  8
0
  2
*X9
 10
0
 20
0
 30
0
  0
INSERT
  8
0
  2
*X10
 10
0
 20
0
 30
0
  0
INSERT
  8
0
  2
*X11
 10
0
 20
0
 30
0
  0
INSERT
  8
0
  2
*X12
 10
0
 20
0
 30
0
  0
INSERT
  8
0
  2
*X13
 10
0
 20
0
 30
0
  0
INSERT
  8
0
  2
*X14
 10
0
 20
0
 30
0
  0
INSERT
  8
0
  2
*X15
 10
0
 20
0
 30
0
  0
INSERT
  8
0
  2
*X16
 10
0
 20
0
 30
0
  0
LINE
  8
0
 62
7
  6
DASHDOT
 10
7.425000000000001
 20
5.319999999999999
 30
0
 11
7.600000000000001
 21
5.319999999999999
 31
0
  0
LINE
  8
0
 62
7
  6
DASHDOT
 10
7.600000000000001
 20
5.319999999999999
 30
0
 11
7.650000000000002
 21
5.319999999999999
 31
0
  0
LINE
  8
0
 62
7
  6
DASHDOT
 10
4.465000000000002
 20
4.890000000000001
 30
0
 11
4.465000000000002
 21
4.650000000000001
 31
0
  0
LINE
  8
0
 62
7
  6
DASHDOT
 10
7.765000000000001
 20
4.890000000000001
 30
0
 11
7.765000000000001
 21
4.650000000000001
 31
0
  0
LINE
  8
0
 62
7
  6
DASHDOT
 10
4.465000000000002
 20
4.930000000000001
 30
0
 11
4.465000000000002
 21
4.890000000000001
 31
0
  0
LINE
  8
0
 62
7
  6
DASHDOT
 10
7.765000000000001
 20
4.930000000000001
 30
0
 11
7.765000000000001
 21
4.890000000000001
 31
0
  0
LINE
  8
0
 62
7
  6
DASHDOT
 10
4.465000000000002
 20
4.650000000000001
 30
0
 11
4.465000000000002
 21
4.600000000000001
 31
0
  0
LINE
  8
0
 62
7
  6
DASHDOT
 10
4.465000000000002
 20
5.169999999999999
 30
0
 11
4.465000000000002
 21
4.930000000000001
 31
0
  0
LINE
  8
0
 62
7
  6
DASHDOT
 10
4.79
 20
5.319999999999999
 30
0
 11
4.840000000000002
 21
5.319999999999999
 31
0
  0
LINE
  8
0
 62
7
  6
DASHDOT
 10
4.615
 20
5.319999999999999
 30
0
 11
4.79
 21
5.319999999999999
 31
0
  0
LINE
  8
0
 62
7
  6
DASHDOT
 10
7.765000000000001
 20
4.650000000000001
 30
0
 11
7.765000000000001
 21
4.600000000000001
 31
0
  0
LINE
  8
0
 62
7
  6
DASHDOT
 10
7.765000000000001
 20
5.169999999999999
 30
0
 11
7.765000000000001
 21
4.930000000000001
 31
0
  0
LINE
  8
0
 62
7
  6
DASHDOT
 10
7.765000000000001
 20
5.219999999999999
 30
0
 11
7.765000000000001
 21
5.169999999999999
 31
0
  0
LINE
  8
0
 62
7
  6
DASHDOT
 10
4.465000000000002
 20
5.219999999999999
 30
0
 11
4.465000000000002
 21
5.169999999999999
 31
0
  0
LINE
  8
0
 62
7
  6
DASHDOT
 10
7.375000000000002
 20
5.319999999999999
 30
0
 11
7.425000000000001
 21
5.319999999999999
 31
0
  0
LINE
  8
0
 62
7
  6
DASHDOT
 10
4.565000000000001
 20
5.319999999999999
 30
0
 11
4.615
 21
5.319999999999999
 31
0
  0
LINE
  8
0
 62
7
 10
4.790000000000002
 20
3.350000000000001
 30
0
 11
4.79
 21
3.400000000000001
 31
0
  0
LINE
  8
0
 62
7
  6
DASHDOT
 10
7.425000000000002
 20
3.350000000000001
 30
0
 11
4.790000000000002
 21
3.350000000000001
 31
0
  0
LINE
  8
0
 62
7
 10
7.425000000000002
 20
3.400000000000001
 30
0
 11
7.425000000000002
 21
3.350000000000001
 31
0
  0
LINE
  8
0
 62
7
 10
4.79
 20
3.400000000000001
 30
0
 11
4.790000000000002
 21
4.65
 31
0
  0
LINE
  8
0
 62
7
 10
7.425000000000002
 20
3.400000000000001
 30
0
 11
4.79
 21
3.400000000000001
 31
0
  0
LINE
  8
0
 62
7
 10
7.425000000000002
 20
3.350000000000001
 30
0
 11
7.600000000000001
 21
3.350000000000001
 31
0
  0
LINE
  8
0
 62
7
 10
7.600000000000001
 20
4.650000000000002
 30
0
 11
7.765000000000001
 21
4.650000000000001
 31
0
  0
LINE
  8
0
 62
7
 10
7.600000000000001
 20
3.350000000000001
 30
0
 11
7.600000000000001
 21
4.650000000000002
 31
0
  0
LINE
  8
0
 62
7
 10
7.425000000000002
 20
4.650000000000001
 30
0
 11
7.425000000000002
 21
3.400000000000001
 31
0
  0
LINE
  8
0
 62
7
 10
4.790000000000002
 20
4.65
 30
0
 11
7.425000000000002
 21
4.650000000000001
 31
0
  0
LINE
  8
0
 62
7
 10
4.615000000000001
 20
4.650000000000001
 30
0
 11
4.615000000000001
 21
3.250000000000001
 31
0
  0
LINE
  8
0
 62
7
 10
4.615000000000001
 20
3.250000000000001
 30
0
 11
4.790000000000002
 21
3.250000000000001
 31
0
  0
LINE
  8
0
 62
7
 10
4.790000000000002
 20
3.250000000000001
 30
0
 11
4.790000000000002
 21
3.350000000000001
 31
0
  0
LINE
  8
0
 62
7
 10
4.465000000000002
 20
4.650000000000001
 30
0
 11
4.615000000000001
 21
4.650000000000001
 31
0
  0
LINE
  8
0
 62
7
 10
4.465000000000002
 20
4.890000000000001
 30
0
 11
7.765000000000001
 21
4.890000000000001
 31
0
  0
LINE
  8
0
 62
7
 10
4.465000000000002
 20
4.930000000000001
 30
0
 11
7.765000000000001
 21
4.930000000000001
 31
0
  0
LINE
  8
0
 62
7
 10
7.600000000000001
 20
5.169999999999999
 30
0
 11
7.765000000000001
 21
5.169999999999999
 31
0
  0
LINE
  8
0
 62
7
 10
7.600000000000001
 20
5.319999999999999
 30
0
 11
7.600000000000001
 21
5.169999999999999
 31
0
  0
LINE
  8
0
 62
7
 10
7.425000000000002
 20
5.169999999999999
 30
0
 11
7.425000000000001
 21
5.319999999999999
 31
0
  0
LINE
  8
0
 62
7
 10
4.790000000000002
 20
5.169999999999999
 30
0
 11
7.425000000000002
 21
5.169999999999999
 31
0
  0
LINE
  8
0
 62
7
 10
4.79
 20
5.319999999999999
 30
0
 11
4.790000000000002
 21
5.169999999999999
 31
0
  0
LINE
  8
0
 62
7
 10
4.615000000000001
 20
5.169999999999999
 30
0
 11
4.615
 21
5.319999999999999
 31
0
  0
LINE
  8
0
 62
7
 10
4.465000000000002
 20
5.169999999999999
 30
0
 11
4.615000000000001
 21
5.169999999999999
 31
0
  0
LINE
  8
0
 62
7
  6
DASHED
 10
0.7399999999999997
 20
8.1
 30
0
 11
2.04
 21
8.1
 31
0
  0
LINE
  8
0
 62
7
  6
DASHED
 10
0.7400000000000001
 20
8.299999999999999
 30
0
 11
2.04
 21
8.299999999999999
 31
0
  0
LINE
  8
0
 62
7
  6
DASHED
 10
0.7400000000000001
 20
10.85
 30
0
 11
2.04
 21
10.85
 31
0
  0
LINE
  8
0
 62
7
  6
DASHED
 10
0.7400000000000001
 20
11.05
 30
0
 11
2.04
 21
11.05
 31
0
  0
LINE
  8
0
 62
7
  6
DASHDOT
 10
2.34
 20
11.05
 30
0
 11
2.34
 21
10.85
 31
0
  0
LINE
  8
0
 62
7
  6
DASHDOT
 10
2.34
 20
10.85
 30
0
 11
2.34
 21
10.8
 31
0
  0
LINE
  8
0
 62
7
  6
DASHDOT
 10
0.4999999999999996
 20
11.2
 30
0
 11
0.7399999999999997
 21
11.2
 31
0
  0
LINE
  8
0
 62
7
  6
DASHDOT
 10
0.7399999999999997
 20
11.2
 30
0
 11
0.79
 21
11.2
 31
0
  0
LINE
  8
0
 62
7
  6
DASHDOT
 10
0.7400000000000001
 20
7.949999999999999
 30
0
 11
0.79
 21
7.949999999999999
 31
0
  0
LINE
  8
0
 62
7
  6
DASHDOT
 10
0.5
 20
7.949999999999999
 30
0
 11
0.7400000000000001
 21
7.949999999999999
 31
0
  0
LINE
  8
0
 62
7
  6
DASHDOT
 10
2.34
 20
8.1
 30
0
 11
2.34
 21
8.299999999999999
 31
0
  0
LINE
  8
0
 62
7
  6
DASHDOT
 10
2.34
 20
8.299999999999999
 30
0
 11
2.34
 21
8.399999999999999
 31
0
  0
LINE
  8
0
 62
7
  6
DASHDOT
 10
2.34
 20
11.15
 30
0
 11
2.34
 21
11.05
 31
0
  0
LINE
  8
0
 62
7
 10
2.04
 20
11.15
 30
0
 11
2.34
 21
11.15
 31
0
  0
LINE
  8
0
 62
7
  6
DASHDOT
 10
2.34
 20
8.399999999999999
 30
0
 11
2.339999999999999
 21
8.449999999999999
 31
0
  0
LINE
  8
0
 62
7
 10
2.04
 20
8.399999999999999
 30
0
 11
2.34
 21
8.399999999999999
 31
0
  0
LINE
  8
0
 62
7
  6
DASHDOT
 10
0.45
 20
7.949999999999999
 30
0
 11
0.5
 21
7.949999999999999
 31
0
  0
LINE
  8
0
 62
7
  6
DASHDOT
 10
2.34
 20
8.049999999999999
 30
0
 11
2.34
 21
8.1
 31
0
  0
LINE
  8
0
 62
7
  6
DASHDOT
 10
2.339999999999999
 20
11.2
 30
0
 11
2.34
 21
11.15
 31
0
  0
LINE
  8
0
 62
7
  6
DASHDOT
 10
0.45
 20
11.2
 30
0
 11
0.4999999999999996
 21
11.2
 31
0
  0
LINE
  8
0
 62
7
 10
2.04
 20
8.1
 30
0
 11
2.34
 21
8.1
 31
0
  0
LINE
  8
0
 62
7
 10
2.04
 20
8.299999999999999
 30
0
 11
2.04
 21
8.1
 31
0
  0
LINE
  8
0
 62
7
 10
2.04
 20
8.299999999999999
 30
0
 11
2.34
 21
8.299999999999999
 31
0
  0
LINE
  8
0
 62
7
 10
2.04
 20
11.05
 30
0
 11
2.34
 21
11.05
 31
0
  0
LINE
  8
0
 62
7
 10
2.04
 20
10.85
 30
0
 11
2.34
 21
10.85
 31
0
  0
LINE
  8
0
 62
7
 10
2.04
 20
11.05
 30
0
 11
2.04
 21
10.85
 31
0
  0
LINE
  8
0
 62
7
 10
0.7399999999999997
 20
8.1
 30
0
 11
0.7400000000000001
 21
7.949999999999999
 31
0
  0
LINE
  8
0
 62
7
 10
0.4999999999999996
 20
8.1
 30
0
 11
0.5
 21
8.299999999999999
 31
0
  0
LINE
  8
0
 62
7
 10
0.4999999999999996
 20
8.1
 30
0
 11
0.7399999999999997
 21
8.1
 31
0
  0
LINE
  8
0
 62
7
 10
0.7400000000000001
 20
8.299999999999999
 30
0
 11
0.7399999999999997
 21
8.1
 31
0
  0
LINE
  8
0
 62
7
 10
0.5
 20
8.299999999999999
 30
0
 11
0.5
 21
10.85
 31
0
  0
LINE
  8
0
 62
7
 10
0.5
 20
8.299999999999999
 30
0
 11
0.7400000000000001
 21
8.299999999999999
 31
0
  0
LINE
  8
0
 62
7
 10
0.7400000000000001
 20
10.85
 30
0
 11
0.7400000000000001
 21
8.299999999999999
 31
0
  0
LINE
  8
0
 62
7
 10
0.5
 20
10.85
 30
0
 11
0.5
 21
11.05
 31
0
  0
LINE
  8
0
 62
7
 10
0.5
 20
10.85
 30
0
 11
0.7400000000000001
 21
10.85
 31
0
  0
LINE
  8
0
 62
7
 10
0.7400000000000001
 20
11.05
 30
0
 11
0.7400000000000001
 21
10.85
 31
0
  0
LINE
  8
0
 62
7
 10
0.5
 20
11.05
 30
0
 11
0.4999999999999996
 21
11.2
 31
0
  0
LINE
  8
0
 62
7
 10
0.5
 20
11.05
 30
0
 11
0.7400000000000001
 21
11.05
 31
0
  0
LINE
  8
0
 62
7
 10
0.7399999999999997
 20
11.2
 30
0
 11
0.7400000000000001
 21
11.05
 31
0
  0
LINE
  8
0
 62
7
 10
0.5
 20
7.949999999999999
 30
0
 11
0.4999999999999996
 21
8.1
 31
0
  0
LINE
  8
0
 62
7
  6
DASHDOT
 10
4.565000000000001
 20
11.2
 30
0
 11
4.615
 21
11.2
 31
0
  0
LINE
  8
0
 62
7
  6
DASHDOT
 10
4.615
 20
11.2
 30
0
 11
4.79
 21
11.2
 31
0
  0
LINE
  8
0
 62
7
  6
DASHDOT
 10
4.465000000000002
 20
11.15
 30
0
 11
4.465000000000002
 21
11.05
 31
0
  0
LINE
  8
0
 62
7
  6
DASHDOT
 10
4.465000000000002
 20
11.05
 30
0
 11
4.465000000000002
 21
10.85
 31
0
  0
LINE
  8
0
 62
7
  6
DASHDOT
 10
7.375000000000002
 20
11.2
 30
0
 11
7.425000000000001
 21
11.2
 31
0
  0
LINE
  8
0
 62
7
  6
DASHDOT
 10
7.425000000000001
 20
11.2
 30
0
 11
7.600000000000001
 21
11.2
 31
0
  0
LINE
  8
0
 62
7
  6
DASHDOT
 10
7.750000000000002
 20
11.15
 30
0
 11
7.750000000000002
 21
11.05
 31
0
  0
LINE
  8
0
 62
7
  6
DASHDOT
 10
7.750000000000002
 20
11.05
 30
0
 11
7.750000000000002
 21
10.85
 31
0
  0
LINE
  8
0
 62
7
  6
DASHDOT
 10
7.375000000000002
 20
7.949999999999999
 30
0
 11
7.425000000000002
 21
7.949999999999999
 31
0
  0
LINE
  8
0
 62
7
  6
DASHDOT
 10
7.425000000000002
 20
7.949999999999999
 30
0
 11
7.600000000000001
 21
7.949999999999999
 31
0
  0
LINE
  8
0
 62
7
  6
DASHDOT
 10
7.750000000000002
 20
8.399999999999999
 30
0
 11
7.750000000000002
 21
8.299999999999999
 31
0
  0
LINE
  8
0
 62
7
  6
DASHDOT
 10
7.750000000000002
 20
8.299999999999999
 30
0
 11
7.750000000000002
 21
8.1
 31
0
  0
LINE
  8
0
 62
7
  6
DASHDOT
 10
4.565000000000001
 20
7.949999999999999
 30
0
 11
4.615000000000001
 21
7.949999999999999
 31
0
  0
LINE
  8
0
 62
7
  6
DASHDOT
 10
4.615000000000001
 20
7.949999999999999
 30
0
 11
4.790000000000002
 21
7.949999999999999
 31
0
  0
LINE
  8
0
 62
7
  6
DASHDOT
 10
4.465000000000002
 20
8.399999999999999
 30
0
 11
4.465000000000002
 21
8.299999999999999
 31
0
  0
LINE
  8
0
 62
7
  6
DASHDOT
 10
4.465000000000002
 20
8.299999999999999
 30
0
 11
4.465000000000002
 21
8.1
 31
0
  0
LINE
  8
0
 62
7
  6
DASHDOT
 10
4.465
 20
11.2
 30
0
 11
4.465000000000002
 21
11.15
 31
0
  0
LINE
  8
0
 62
7
 10
4.615
 20
11.2
 30
0
 11
4.615000000000001
 21
11.15
 31
0
  0
LINE
  8
0
 62
7
 10
4.465000000000002
 20
11.15
 30
0
 11
4.615000000000001
 21
11.15
 31
0
  0
LINE
  8
0
 62
7
 10
4.79
 20
11.2
 30
0
 11
4.790000000000002
 21
11.15
 31
0
  0
LINE
  8
0
 62
7
 10
7.425000000000001
 20
11.2
 30
0
 11
7.425000000000002
 21
11.15
 31
0
  0
LINE
  8
0
 62
7
 10
4.790000000000002
 20
11.15
 30
0
 11
7.425000000000002
 21
11.15
 31
0
  0
LINE
  8
0
 62
7
  6
DASHDOT
 10
7.75
 20
11.2
 30
0
 11
7.750000000000002
 21
11.15
 31
0
  0
LINE
  8
0
 62
7
 10
7.600000000000001
 20
11.2
 30
0
 11
7.600000000000001
 21
11.15
 31
0
  0
LINE
  8
0
 62
7
 10
7.600000000000001
 20
11.15
 30
0
 11
7.750000000000002
 21
11.15
 31
0
  0
LINE
  8
0
 62
7
  6
DASHDOT
 10
4.465
 20
8.449999999999999
 30
0
 11
4.465000000000002
 21
8.399999999999999
 31
0
  0
LINE
  8
0
 62
7
 10
4.615000000000001
 20
10.85
 30
0
 11
4.615000000000001
 21
8.399999999999999
 31
0
  0
LINE
  8
0
 62
7
 10
4.465000000000002
 20
8.399999999999999
 30
0
 11
4.615000000000001
 21
8.399999999999999
 31
0
  0
LINE
  8
0
 62
7
 10
4.790000000000002
 20
10.85
 30
0
 11
4.790000000000002
 21
8.399999999999999
 31
0
  0
LINE
  8
0
 62
7
 10
7.425000000000002
 20
10.85
 30
0
 11
7.425000000000002
 21
8.399999999999999
 31
0
  0
LINE
  8
0
 62
7
 10
4.790000000000002
 20
8.399999999999999
 30
0
 11
7.425000000000002
 21
8.399999999999999
 31
0
  0
LINE
  8
0
 62
7
  6
DASHDOT
 10
7.75
 20
8.449999999999999
 30
0
 11
7.750000000000002
 21
8.399999999999999
 31
0
  0
LINE
  8
0
 62
7
 10
7.600000000000001
 20
10.85
 30
0
 11
7.600000000000001
 21
8.399999999999999
 31
0
  0
LINE
  8
0
 62
7
 10
7.600000000000001
 20
8.399999999999999
 30
0
 11
7.750000000000002
 21
8.399999999999999
 31
0
  0
LINE
  8
0
 62
7
  6
DASHDOT
 10
4.790000000000002
 20
7.949999999999999
 30
0
 11
4.840000000000002
 21
7.949999999999999
 31
0
  0
LINE
  8
0
 62
7
  6
DASHDOT
 10
4.79
 20
11.2
 30
0
 11
4.840000000000002
 21
11.2
 31
0
  0
LINE
  8
0
 62
7
  6
DASHDOT
 10
7.600000000000001
 20
7.949999999999999
 30
0
 11
7.650000000000002
 21
7.949999999999999
 31
0
  0
LINE
  8
0
 62
7
  6
DASHDOT
 10
7.600000000000001
 20
11.2
 30
0
 11
7.650000000000002
 21
11.2
 31
0
  0
LINE
  8
0
 62
7
  6
DASHDOT
 10
4.465000000000002
 20
10.85
 30
0
 11
4.465000000000002
 21
10.8
 31
0
  0
LINE
  8
0
 62
7
  6
DASHDOT
 10
4.465000000000002
 20
8.1
 30
0
 11
4.465000000000002
 21
8.049999999999999
 31
0
  0
LINE
  8
0
 62
7
  6
DASHDOT
 10
7.750000000000002
 20
10.85
 30
0
 11
7.750000000000002
 21
10.8
 31
0
  0
LINE
  8
0
 62
7
  6
DASHDOT
 10
7.750000000000002
 20
8.1
 30
0
 11
7.750000000000002
 21
8.049999999999999
 31
0
  0
LINE
  8
0
 62
7
 10
4.465000000000002
 20
11.05
 30
0
 11
4.615000000000001
 21
11.05
 31
0
  0
LINE
  8
0
 62
7
 10
4.615000000000001
 20
11.15
 30
0
 11
4.615000000000001
 21
11.05
 31
0
  0
LINE
  8
0
 62
7
 10
4.465000000000002
 20
10.85
 30
0
 11
4.615000000000001
 21
10.85
 31
0
  0
LINE
  8
0
 62
7
 10
4.465000000000002
 20
8.299999999999999
 30
0
 11
4.615000000000001
 21
8.299999999999999
 31
0
  0
LINE
  8
0
 62
7
 10
4.615000000000001
 20
8.399999999999999
 30
0
 11
4.615000000000001
 21
8.299999999999999
 31
0
  0
LINE
  8
0
 62
7
 10
4.465000000000002
 20
8.1
 30
0
 11
4.615
 21
8.1
 31
0
  0
LINE
  8
0
 62
7
 10
4.615
 20
8.1
 30
0
 11
4.615000000000001
 21
7.949999999999999
 31
0
  0
LINE
  8
0
 62
7
 10
4.615000000000001
 20
11.05
 30
0
 11
4.790000000000002
 21
11.05
 31
0
  0
LINE
  8
0
 62
7
 10
4.790000000000002
 20
11.15
 30
0
 11
4.790000000000002
 21
11.05
 31
0
  0
LINE
  8
0
 62
7
 10
4.615000000000001
 20
10.85
 30
0
 11
4.790000000000002
 21
10.85
 31
0
  0
LINE
  8
0
 62
7
 10
4.615000000000001
 20
8.299999999999999
 30
0
 11
4.790000000000002
 21
8.299999999999999
 31
0
  0
LINE
  8
0
 62
7
 10
4.790000000000002
 20
8.399999999999999
 30
0
 11
4.790000000000002
 21
8.299999999999999
 31
0
  0
LINE
  8
0
 62
7
 10
4.615
 20
8.1
 30
0
 11
4.79
 21
8.1
 31
0
  0
LINE
  8
0
 62
7
 10
4.79
 20
8.1
 30
0
 11
4.790000000000002
 21
7.949999999999999
 31
0
  0
LINE
  8
0
 62
7
 10
4.790000000000002
 20
11.05
 30
0
 11
7.425000000000002
 21
11.05
 31
0
  0
LINE
  8
0
 62
7
 10
7.425000000000002
 20
11.15
 30
0
 11
7.425000000000002
 21
11.05
 31
0
  0
LINE
  8
0
 62
7
 10
4.790000000000002
 20
10.85
 30
0
 11
7.425000000000002
 21
10.85
 31
0
  0
LINE
  8
0
 62
7
 10
4.790000000000002
 20
8.299999999999999
 30
0
 11
7.425000000000002
 21
8.299999999999999
 31
0
  0
LINE
  8
0
 62
7
 10
7.425000000000002
 20
8.399999999999999
 30
0
 11
7.425000000000002
 21
8.299999999999999
 31
0
  0
LINE
  8
0
 62
7
 10
4.79
 20
8.1
 30
0
 11
7.425000000000001
 21
8.1
 31
0
  0
LINE
  8
0
 62
7
 10
7.425000000000001
 20
8.1
 30
0
 11
7.425000000000002
 21
7.949999999999999
 31
0
  0
LINE
  8
0
 62
7
 10
7.425000000000002
 20
11.05
 30
0
 11
7.600000000000001
 21
11.05
 31
0
  0
LINE
  8
0
 62
7
 10
7.600000000000001
 20
11.15
 30
0
 11
7.600000000000001
 21
11.05
 31
0
  0
LINE
  8
0
 62
7
 10
7.425000000000002
 20
10.85
 30
0
 11
7.600000000000001
 21
10.85
 31
0
  0
LINE
  8
0
 62
7
 10
7.425000000000002
 20
8.299999999999999
 30
0
 11
7.600000000000001
 21
8.299999999999999
 31
0
  0
LINE
  8
0
 62
7
 10
7.600000000000001
 20
8.399999999999999
 30
0
 11
7.600000000000001
 21
8.299999999999999
 31
0
  0
LINE
  8
0
 62
7
 10
7.425000000000001
 20
8.1
 30
0
 11
7.600000000000001
 21
8.1
 31
0
  0
LINE
  8
0
 62
7
 10
7.600000000000001
 20
8.1
 30
0
 11
7.600000000000001
 21
7.949999999999999
 31
0
  0
LINE
  8
0
 62
7
 10
7.600000000000001
 20
11.05
 30
0
 11
7.750000000000002
 21
11.05
 31
0
  0
LINE
  8
0
 62
7
 10
7.600000000000001
 20
10.85
 30
0
 11
7.750000000000002
 21
10.85
 31
0
  0
LINE
  8
0
 62
7
 10
7.600000000000001
 20
8.299999999999999
 30
0
 11
7.750000000000002
 21
8.299999999999999
 31
0
  0
LINE
  8
0
 62
7
 10
7.600000000000001
 20
8.1
 30
0
 11
7.750000000000002
 21
8.1
 31
0
  0
LINE
  8
0
 62
7
 10
1.669029010000001
 20
10.8886
 30
0
 11
1.669029010000001
 21
10.9536
 31
0
  0
LINE
  8
0
 62
7
 10
2.000000420000002
 20
10.9536
 30
0
 11
2.000000420000002
 21
10.8886
 31
0
  0
LINE
  8
0
 62
7
 10
2.000000420000002
 20
10.8886
 30
0
 11
1.669029010000001
 21
10.8886
 31
0
  0
LINE
  8
0
 62
7
 10
1.669029010000001
 20
10.9536
 30
0
 11
2.000000420000002
 21
10.9536
 31
0
  0
LINE
  8
0
 62
7
 10
1.288731080000002
 20
10.6922
 30
0
 11
1.288731080000002
 21
10.7572
 31
0
  0
LINE
  8
0
 62
7
 10
1.965725860000002
 20
10.7572
 30
0
 11
1.965725860000002
 21
10.6922
 31
0
  0
LINE
  8
0
 62
7
 10
1.288731080000002
 20
10.7572
 30
0
 11
1.965725860000002
 21
10.7572
 31
0
  0
LINE
  8
0
 62
7
 10
1.965725860000002
 20
10.6922
 30
0
 11
1.288731080000002
 21
10.6922
 31
0
  0
LINE
  8
0
 62
7
 10
0.7949998500000012
 20
10.49580001
 30
0
 11
0.7949998500000012
 21
10.56080001
 31
0
  0
LINE
  8
0
 62
7
 10
1.898174090000002
 20
10.56080001
 30
0
 11
1.898174090000002
 21
10.49580001
 31
0
  0
LINE
  8
0
 62
7
 10
0.7949998500000012
 20
10.56080001
 30
0
 11
1.898174090000002
 21
10.56080001
 31
0
  0
LINE
  8
0
 62
7
 10
1.898174090000002
 20
10.49580001
 30
0
 11
0.7949998500000012
 21
10.49580001
 31
0
  0
LINE
  8
0
 62
7
 10
0.7949998500000012
 20
10.29940002
 30
0
 11
0.7949998500000012
 21
10.36440002
 31
0
  0
LINE
  8
0
 62
7
 10
1.792692260000001
 20
10.36440002
 30
0
 11
1.792692260000001
 21
10.29940002
 31
0
  0
LINE
  8
0
 62
7
 10
0.7949998500000012
 20
10.36440002
 30
0
 11
1.792692260000001
 21
10.36440002
 31
0
  0
LINE
  8
0
 62
7
 10
1.792692260000001
 20
10.29940002
 30
0
 11
0.7949998500000012
 21
10.29940002
 31
0
  0
LINE
  8
0
 62
7
 10
1.705000230000001
 20
10.10300002
 30
0
 11
0.795
 21
10.10300002
 31
0
  0
LINE
  8
0
 62
7
 10
0.795
 20
10.10300002
 30
0
 11
0.795
 21
10.16800002
 31
0
  0
LINE
  8
0
 62
7
 10
1.705000230000001
 20
10.16800002
 30
0
 11
1.705000230000001
 21
10.10300002
 31
0
  0
LINE
  8
0
 62
7
 10
0.795
 20
10.16800002
 30
0
 11
1.705000230000001
 21
10.16800002
 31
0
  0
LINE
  8
0
 62
7
 10
1.705000230000001
 20
9.906600030000002
 30
0
 11
0.795
 21
9.906600030000002
 31
0
  0
LINE
  8
0
 62
7
 10
0.795
 20
9.906600030000002
 30
0
 11
0.795
 21
9.971600030000003
 31
0
  0
LINE
  8
0
 62
7
 10
1.705000230000001
 20
9.971600030000003
 30
0
 11
1.705000230000001
 21
9.906600030000002
 31
0
  0
LINE
  8
0
 62
7
 10
0.795
 20
9.971600030000003
 30
0
 11
1.705000230000001
 21
9.971600030000003
 31
0
  0
LINE
  8
0
 62
7
 10
1.705000300000001
 20
9.710200030000001
 30
0
 11
0.795
 21
9.710200030000001
 31
0
  0
LINE
  8
0
 62
7
 10
0.795
 20
9.710200030000001
 30
0
 11
0.795
 21
9.775200030000001
 31
0
  0
LINE
  8
0
 62
7
 10
1.705000300000001
 20
9.775200030000001
 30
0
 11
1.705000300000001
 21
9.710200030000001
 31
0
  0
LINE
  8
0
 62
7
 10
0.795
 20
9.775200030000001
 30
0
 11
1.705000300000001
 21
9.775200030000001
 31
0
  0
LINE
  8
0
 62
7
 10
1.705000150000001
 20
9.513800040000003
 30
0
 11
0.795
 21
9.513800040000003
 31
0
  0
LINE
  8
0
 62
7
 10
0.795
 20
9.513800040000003
 30
0
 11
0.795
 21
9.578800040000003
 31
0
  0
LINE
  8
0
 62
7
 10
1.705000150000001
 20
9.578800040000003
 30
0
 11
1.705000150000001
 21
9.513800040000003
 31
0
  0
LINE
  8
0
 62
7
 10
0.795
 20
9.578800040000003
 30
0
 11
1.705000150000001
 21
9.578800040000003
 31
0
  0
LINE
  8
0
 62
7
 10
1.705000230000001
 20
9.317400050000002
 30
0
 11
0.795
 21
9.317400050000002
 31
0
  0
LINE
  8
0
 62
7
 10
0.795
 20
9.317400050000002
 30
0
 11
0.795
 21
9.382400050000003
 31
0
  0
LINE
  8
0
 62
7
 10
1.705000230000001
 20
9.382400050000003
 30
0
 11
1.705000230000001
 21
9.317400050000002
 31
0
  0
LINE
  8
0
 62
7
 10
0.795
 20
9.382400050000003
 30
0
 11
1.705000230000001
 21
9.382400050000003
 31
0
  0
LINE
  8
0
 62
7
 10
0.795
 20
9.121000050000001
 30
0
 11
0.795
 21
9.186000050000002
 31
0
  0
LINE
  8
0
 62
7
 10
1.780038910000003
 20
9.186000050000002
 30
0
 11
1.780038910000003
 21
9.121000050000001
 31
0
  0
LINE
  8
0
 62
7
 10
0.795
 20
9.186000050000002
 30
0
 11
1.780038910000003
 21
9.186000050000002
 31
0
  0
LINE
  8
0
 62
7
 10
1.780038910000003
 20
9.121000050000001
 30
0
 11
0.795
 21
9.121000050000001
 31
0
  0
LINE
  8
0
 62
7
 10
0.9499348400000023
 20
8.924600060000001
 30
0
 11
0.9499348400000023
 21
8.989600060000001
 31
0
  0
LINE
  8
0
 62
7
 10
1.888213390000002
 20
8.989600060000001
 30
0
 11
1.888213390000002
 21
8.924600060000001
 31
0
  0
LINE
  8
0
 62
7
 10
0.9499348400000023
 20
8.989600060000001
 30
0
 11
1.888213390000002
 21
8.989600060000001
 31
0
  0
LINE
  8
0
 62
7
 10
1.888213390000002
 20
8.924600060000001
 30
0
 11
0.9499348400000023
 21
8.924600060000001
 31
0
  0
LINE
  8
0
 62
7
 10
1.412925720000003
 20
8.728200060000002
 30
0
 11
1.412925720000003
 21
8.793200060000002
 31
0
  0
LINE
  8
0
 62
7
 10
1.967776490000002
 20
8.793200060000002
 30
0
 11
1.967776490000002
 21
8.728200060000002
 31
0
  0
LINE
  8
0
 62
7
 10
1.412925720000003
 20
8.793200060000002
 30
0
 11
1.967776490000002
 21
8.793200060000002
 31
0
  0
LINE
  8
0
 62
7
 10
1.967776490000002
 20
8.728200060000002
 30
0
 11
1.412925720000003
 21
8.728200060000002
 31
0
  0
LINE
  8
0
 62
7
 10
1.772470700000001
 20
8.531800070000001
 30
0
 11
1.772470700000001
 21
8.596800070000002
 31
0
  0
LINE
  8
0
 62
7
 10
2.140000210000002
 20
8.596800070000002
 30
0
 11
2.140000210000002
 21
8.531800070000001
 31
0
  0
LINE
  8
0
 62
7
 10
2.140000210000002
 20
8.531800070000001
 30
0
 11
1.772470700000001
 21
8.531800070000001
 31
0
  0
LINE
  8
0
 62
7
 10
1.772470700000001
 20
8.596800070000002
 30
0
 11
2.140000210000002
 21
8.596800070000002
 31
0
  0
LINE
  8
0
 62
7
  6
DASHED
 10
7.370000000000002
 20
10.8886
 30
0
 11
6.460000160000002
 21
10.8886
 31
0
  0
LINE
  8
0
 62
7
  6
DASHED
 10
7.370000000000002
 20
10.9536
 30
0
 11
7.370000000000002
 21
10.8886
 31
0
  0
LINE
  8
0
 62
7
  6
DASHED
 10
6.460000160000002
 20
10.8886
 30
0
 11
6.460000160000002
 21
10.9536
 31
0
  0
LINE
  8
0
 62
7
  6
DASHED
 10
6.460000160000002
 20
10.9536
 30
0
 11
7.370000000000002
 21
10.9536
 31
0
  0
LINE
  8
0
 62
7
 10
7.370000310000001
 20
10.6922
 30
0
 11
6.459999850000003
 21
10.6922
 31
0
  0
LINE
  8
0
 62
7
 10
7.370000310000001
 20
10.7572
 30
0
 11
7.370000310000001
 21
10.6922
 31
0
  0
LINE
  8
0
 62
7
 10
6.459999850000003
 20
10.6922
 30
0
 11
6.459999850000003
 21
10.7572
 31
0
  0
LINE
  8
0
 62
7
 10
6.459999850000003
 20
10.7572
 30
0
 11
7.370000310000001
 21
10.7572
 31
0
  0
LINE
  8
0
 62
7
 10
7.370000000000002
 20
10.56080001
 30
0
 11
7.370000000000002
 21
10.49580001
 31
0
  0
LINE
  8
0
 62
7
 10
6.459999850000003
 20
10.49580001
 30
0
 11
6.459999850000003
 21
10.56080001
 31
0
  0
LINE
  8
0
 62
7
 10
7.370000000000002
 20
10.49580001
 30
0
 11
6.459999850000003
 21
10.49580001
 31
0
  0
LINE
  8
0
 62
7
 10
6.459999850000003
 20
10.56080001
 30
0
 11
7.370000000000002
 21
10.56080001
 31
0
  0
LINE
  8
0
 62
7
 10
7.370000000000002
 20
10.36440002
 30
0
 11
7.370000000000002
 21
10.29940002
 31
0
  0
LINE
  8
0
 62
7
 10
6.364932870000003
 20
10.29940002
 30
0
 11
6.364932870000003
 21
10.36440002
 31
0
  0
LINE
  8
0
 62
7
 10
6.364932870000003
 20
10.36440002
 30
0
 11
7.370000000000002
 21
10.36440002
 31
0
  0
LINE
  8
0
 62
7
 10
7.370000000000002
 20
10.29940002
 30
0
 11
6.364932870000003
 21
10.29940002
 31
0
  0
LINE
  8
0
 62
7
 10
6.942724610000004
 20
10.16800002
 30
0
 11
6.942724610000004
 21
10.10300002
 31
0
  0
LINE
  8
0
 62
7
 10
6.238538820000002
 20
10.10300002
 30
0
 11
6.238538820000002
 21
10.16800002
 31
0
  0
LINE
  8
0
 62
7
 10
6.238538820000002
 20
10.16800002
 30
0
 11
6.942724610000004
 21
10.16800002
 31
0
  0
LINE
  8
0
 62
7
 10
6.942724610000004
 20
10.10300002
 30
0
 11
6.238538820000002
 21
10.10300002
 31
0
  0
LINE
  8
0
 62
7
 10
6.584002840000003
 20
9.971600030000003
 30
0
 11
6.584002840000003
 21
9.906600030000002
 31
0
  0
LINE
  8
0
 62
7
 10
6.126518410000003
 20
9.906600030000002
 30
0
 11
6.126518410000003
 21
9.971600030000003
 31
0
  0
LINE
  8
0
 62
7
 10
6.126518410000003
 20
9.971600030000003
 30
0
 11
6.584002840000003
 21
9.971600030000003
 31
0
  0
LINE
  8
0
 62
7
 10
6.584002840000003
 20
9.906600030000002
 30
0
 11
6.126518410000003
 21
9.906600030000002
 31
0
  0
LINE
  8
0
 62
7
 10
6.254848640000001
 20
9.775200030000002
 30
0
 11
6.254848640000001
 21
9.710200030000003
 31
0
  0
LINE
  8
0
 62
7
 10
5.841164630000002
 20
9.710200030000003
 30
0
 11
5.841164630000002
 21
9.775200030000002
 31
0
  0
LINE
  8
0
 62
7
 10
5.841164630000002
 20
9.775200030000002
 30
0
 11
6.254848640000001
 21
9.775200030000002
 31
0
  0
LINE
  8
0
 62
7
 10
6.254848640000001
 20
9.710200030000003
 30
0
 11
5.841164630000002
 21
9.710200030000003
 31
0
  0
LINE
  8
0
 62
7
 10
6.103311770000001
 20
9.578800040000003
 30
0
 11
6.103311770000001
 21
9.513800040000003
 31
0
  0
LINE
  8
0
 62
7
 10
5.516027760000003
 20
9.513800040000003
 30
0
 11
5.516027760000001
 21
9.578800040000003
 31
0
  0
LINE
  8
0
 62
7
 10
5.516027760000001
 20
9.578800040000003
 30
0
 11
6.103311770000001
 21
9.578800040000003
 31
0
  0
LINE
  8
0
 62
7
 10
6.103311770000001
 20
9.513800040000003
 30
0
 11
5.516027760000003
 21
9.513800040000003
 31
0
  0
LINE
  8
0
 62
7
 10
5.992185220000001
 20
9.382400050000003
 30
0
 11
5.992185220000001
 21
9.317400050000002
 31
0
  0
LINE
  8
0
 62
7
 10
5.107674530000002
 20
9.317400050000002
 30
0
 11
5.107674530000002
 21
9.382400050000003
 31
0
  0
LINE
  8
0
 62
7
 10
5.107674530000002
 20
9.382400050000003
 30
0
 11
5.992185220000001
 21
9.382400050000003
 31
0
  0
LINE
  8
0
 62
7
 10
5.992185220000001
 20
9.317400050000002
 30
0
 11
5.107674530000002
 21
9.317400050000002
 31
0
  0
LINE
  8
0
 62
7
 10
5.862608800000002
 20
9.186000050000002
 30
0
 11
5.862608800000002
 21
9.121000050000001
 31
0
  0
LINE
  8
0
 62
7
 10
4.844999980000002
 20
9.121000050000001
 30
0
 11
4.844999980000002
 21
9.186000050000002
 31
0
  0
LINE
  8
0
 62
7
 10
4.844999980000002
 20
9.186000050000002
 30
0
 11
5.862608800000002
 21
9.186000050000002
 31
0
  0
LINE
  8
0
 62
7
 10
5.862608800000002
 20
9.121000050000001
 30
0
 11
4.844999980000002
 21
9.121000050000001
 31
0
  0
LINE
  8
0
 62
7
 10
5.755000000000002
 20
8.924600060000001
 30
0
 11
4.844999970000003
 21
8.924600060000001
 31
0
  0
LINE
  8
0
 62
7
 10
5.755000000000002
 20
8.989600060000001
 30
0
 11
5.755000000000002
 21
8.924600060000001
 31
0
  0
LINE
  8
0
 62
7
 10
4.844999970000003
 20
8.924600060000001
 30
0
 11
4.844999970000003
 21
8.989600060000001
 31
0
  0
LINE
  8
0
 62
7
 10
4.844999970000003
 20
8.989600060000001
 30
0
 11
5.755000000000002
 21
8.989600060000001
 31
0
  0
LINE
  8
0
 62
7
 10
5.755000000000002
 20
8.728200060000002
 30
0
 11
4.844999980000002
 21
8.728200060000002
 31
0
  0
LINE
  8
0
 62
7
 10
5.755000000000002
 20
8.793200060000002
 30
0
 11
5.755000000000002
 21
8.728200060000002
 31
0
  0
LINE
  8
0
 62
7
 10
4.844999980000002
 20
8.728200060000002
 30
0
 11
4.844999980000002
 21
8.793200060000002
 31
0
  0
LINE
  8
0
 62
7
 10
4.844999980000002
 20
8.793200060000002
 30
0
 11
5.755000000000002
 21
8.793200060000002
 31
0
  0
LINE
  8
0
 62
7
 10
5.755000000000002
 20
8.531800070000001
 30
0
 11
4.845000090000002
 21
8.531800070000001
 31
0
  0
LINE
  8
0
 62
7
 10
5.755000000000002
 20
8.596800070000002
 30
0
 11
5.755000000000002
 21
8.531800070000001
 31
0
  0
LINE
  8
0
 62
7
 10
4.845000090000002
 20
8.531800070000001
 30
0
 11
4.845000090000002
 21
8.596800070000002
 31
0
  0
LINE
  8
0
 62
7
 10
4.845000090000002
 20
8.596800070000002
 30
0
 11
5.755000000000002
 21
8.596800070000002
 31
0
  0
LINE
  8
0
 62
7
 10
6.962106078804713
 20
3.684999999990451
 30
0
 11
6.962106078804713
 21
3.400000000000001
 31
0
  0
LINE
  8
0
 62
7
 10
7.067761178066423
 20
3.461000000000001
 30
0
 11
6.962106078804713
 21
3.400000000000001
 31
0
  0
LINE
  8
0
 62
7
 10
6.856450979543012
 20
3.461000000000001
 30
0
 11
7.067761178066423
 21
3.461000000000001
 31
0
  0
LINE
  8
0
 62
7
 10
6.962106078804713
 20
3.400000000000001
 30
0
 11
6.856450979543012
 21
3.461000000000001
 31
0
  0
LINE
  8
0
 62
7
 10
5.755000000009554
 20
4.187106078804711
 30
0
 11
6.460000000021272
 21
4.187106078804711
 31
0
  0
LINE
  8
0
 62
7
 10
5.252893921195293
 20
3.250000000000001
 30
0
 11
5.252893921195293
 21
3.685000000029384
 31
0
  0
LINE
  8
0
 62
7
 10
7.370000000000002
 20
3.390000000000001
 30
0
 11
7.370000000000002
 21
3.7209706427032
 31
0
  0
LINE
  8
0
 62
7
 10
6.460000000000001
 20
3.516518024967992
 30
0
 11
6.460000000000001
 21
3.390000000000001
 31
0
  0
LINE
  8
0
 62
7
 10
7.370000000000002
 20
3.7209706427032
 30
0
 11
6.460000000000001
 21
3.516518024967992
 31
0
  0
LINE
  8
0
 62
7
 10
7.370000000000002
 20
3.628727094408451
 30
0
 11
7.370000000000002
 21
4.101268827926904
 31
0
  0
LINE
  8
0
 62
7
 10
6.460000000000001
 20
3.594824956927303
 30
0
 11
6.460000000000001
 21
3.424274476673252
 31
0
  0
LINE
  8
0
 62
7
 10
7.370000000000002
 20
4.101268827926904
 30
0
 11
6.460000000000001
 21
3.594824956927303
 31
0
  0
LINE
  8
0
 62
7
 10
7.370000000000002
 20
4.595000000000002
 30
0
 11
7.300877246239374
 21
4.595000000000002
 31
0
  0
LINE
  8
0
 62
7
 10
7.370000000000002
 20
3.998269831543812
 30
0
 11
7.370000000000002
 21
4.595000000000002
 31
0
  0
LINE
  8
0
 62
7
 10
6.460000000000001
 20
3.669372289576621
 30
0
 11
6.46
 21
3.643174538740307
 31
0
  0
LINE
  8
0
 62
7
 10
7.300877246239374
 20
4.595000000000002
 30
0
 11
6.460000000000001
 21
3.669372289576621
 31
0
  0
LINE
  8
0
 62
7
 10
7.370000000000002
 20
4.595000000000002
 30
0
 11
6.840278717997961
 21
4.595000000000002
 31
0
  0
LINE
  8
0
 62
7
 10
7.370000000000002
 20
4.537242394471491
 30
0
 11
7.370000000000002
 21
4.595000000000002
 31
0
  0
LINE
  8
0
 62
7
 10
6.36493294583433
 20
3.72086374429505
 30
0
 11
6.408818843458535
 21
3.685000000000001
 31
0
  0
LINE
  8
0
 62
7
 10
6.840278717997961
 20
4.595000000000002
 30
0
 11
6.36493294583433
 21
3.72086374429505
 31
0
  0
LINE
  8
0
 62
7
 10
6.942724915511905
 20
4.595000000000002
 30
0
 11
6.490613340426012
 21
4.595000000000002
 31
0
  0
LINE
  8
0
 62
7
 10
6.490613340426012
 20
4.595000000000002
 30
0
 11
6.238538828606092
 21
3.685000000000001
 31
0
  0
LINE
  8
0
 62
7
 10
6.584002457291554
 20
4.595000000000002
 30
0
 11
6.164769989955501
 21
4.595000000000002
 31
0
  0
LINE
  8
0
 62
7
 10
6.126519328887222
 20
3.685000000000001
 30
0
 11
6.238538828606092
 21
3.685000000000001
 31
0
  0
LINE
  8
0
 62
7
 10
6.164769989955501
 20
4.595000000000002
 30
0
 11
6.126519328887222
 21
3.685000000000001
 31
0
  0
LINE
  8
0
 62
7
 10
6.254849462279891
 20
4.595000000000002
 30
0
 11
5.841165162752472
 21
4.595000000000002
 31
0
  0
LINE
  8
0
 62
7
 10
6.011744269250102
 20
3.685000000000001
 30
0
 11
6.216598801211612
 21
3.685000000000001
 31
0
  0
LINE
  8
0
 62
7
 10
5.841165162752472
 20
4.595000000000002
 30
0
 11
6.011744269250102
 21
3.685000000000001
 31
0
  0
LINE
  8
0
 62
7
 10
5.932732692243693
 20
4.595000000000002
 30
0
 11
5.516028672488432
 21
4.595000000000002
 31
0
  0
LINE
  8
0
 62
7
 10
5.894703892203074
 20
3.685000000000001
 30
0
 11
6.103311798741324
 21
3.685000000000001
 31
0
  0
LINE
  8
0
 62
7
 10
5.516028672488432
 20
4.595000000000002
 30
0
 11
5.894703892203074
 21
3.685000000000001
 31
0
  0
LINE
  8
0
 62
7
 10
5.613509988719493
 20
4.595000000000002
 30
0
 11
5.107674753922304
 21
4.595000000000002
 31
0
  0
LINE
  8
0
 62
7
 10
5.779501466715082
 20
3.685000000000001
 30
0
 11
5.808374761306343
 21
3.685000000000001
 31
0
  0
LINE
  8
0
 62
7
 10
5.107674753922304
 20
4.595000000000002
 30
0
 11
5.779501466715082
 21
3.685000000000001
 31
0
  0
LINE
  8
0
 62
7
 10
4.845000000000002
 20
4.595000000000002
 30
0
 11
4.845000000000002
 21
4.323088135786182
 31
0
  0
LINE
  8
0
 62
7
 10
5.219544581460664
 20
4.595000000000002
 30
0
 11
4.845000000000002
 21
4.595000000000002
 31
0
  0
LINE
  8
0
 62
7
 10
5.703911283992391
 20
3.609961174568752
 30
0
 11
5.755000000000002
 21
3.646659524466488
 31
0
  0
LINE
  8
0
 62
7
 10
4.845000000000002
 20
4.323088135786182
 30
0
 11
5.703911283992391
 21
3.609961174568752
 31
0
  0
LINE
  8
0
 62
7
 10
4.845000000000002
 20
4.44006548610527
 30
0
 11
4.845000000000002
 21
3.879624827754661
 31
0
  0
LINE
  8
0
 62
7
 10
4.845000000000002
 20
3.879624827754661
 30
0
 11
5.755000000000002
 21
3.50178681486631
 31
0
  0
LINE
  8
0
 62
7
 10
4.845000000000002
 20
3.977074362737912
 30
0
 11
4.845000000000002
 21
3.526935561806961
 31
0
  0
LINE
  8
0
 62
7
 10
5.755000000000002
 20
3.422223628078772
 30
0
 11
5.755000000000002
 21
3.50178681486631
 31
0
  0
LINE
  8
0
 62
7
 10
4.845000000000002
 20
3.526935561806961
 30
0
 11
5.755000000000002
 21
3.422223628078772
 31
0
  0
LINE
  8
0
 62
7
 10
4.845000000000002
 20
3.617529432082571
 30
0
 11
4.845000000000002
 21
3.250000000000001
 31
0
  0
LINE
  8
0
 62
7
 10
5.755000000000002
 20
3.250000000000001
 30
0
 11
5.755000000000002
 21
3.50178681486631
 31
0
  0
LINE
  8
0
 62
7
 10
4.845000000000002
 20
3.250000000000001
 30
0
 11
5.755000000000002
 21
3.250000000000001
 31
0
  0
LINE
  8
0
 62
7
 10
5.755000000000002
 20
3.50178681486631
 30
0
 11
5.755000000000002
 21
3.646659524466488
 31
0
  0
LINE
  8
0
 62
7
 10
5.755000000000002
 20
3.50178681486631
 30
0
 11
5.755000000000002
 21
3.599236349849571
 31
0
  0
LINE
  8
0
 62
7
 10
5.755000000000002
 20
3.50178681486631
 30
0
 11
5.755000000000002
 21
3.51281749835438
 31
0
  0
LINE
  8
0
 62
7
 10
5.755000000000002
 20
3.646659524466488
 30
0
 11
5.808374761306343
 21
3.685000000000001
 31
0
  0
LINE
  8
0
 62
7
 10
5.808374761306343
 20
3.685000000000001
 30
0
 11
5.992185208434131
 21
3.685000000000001
 31
0
  0
LINE
  8
0
 62
7
 10
6.238538828606092
 20
3.685000000000001
 30
0
 11
6.408818843458535
 21
3.685000000000001
 31
0
  0
LINE
  8
0
 62
7
 10
6.238538828606092
 20
3.685000000000001
 30
0
 11
6.331927945471635
 21
3.685000000000001
 31
0
  0
LINE
  8
0
 62
7
 10
6.408818843458535
 20
3.685000000000001
 30
0
 11
6.46
 21
3.643174538740307
 31
0
  0
LINE
  8
0
 62
7
 10
6.46
 20
3.643174538740307
 30
0
 11
6.460000000000001
 21
3.491825960544211
 31
0
  0
LINE
  8
0
 62
7
 10
5.25261708468177
 20
4.34672837108953
 30
0
 11
5.25261708468177
 21
4.46672837108953
 31
0
  0
LINE
  8
0
 62
7
 10
5.32821708468177
 20
4.46672837108953
 30
0
 11
5.27421708468177
 21
4.406728371089531
 31
0
  0
LINE
  8
0
 62
7
 10
5.27421708468177
 20
4.406728371089531
 30
0
 11
5.32821708468177
 21
4.34672837108953
 31
0
  0
LINE
  8
0
 62
7
 10
5.27421708468177
 20
4.406728371089531
 30
0
 11
5.25261708468177
 21
4.38272837108953
 31
0
  0
LINE
  8
0
 62
7
 10
5.43621708468177
 20
4.46672837108953
 30
0
 11
5.36061708468177
 21
4.46672837108953
 31
0
  0
LINE
  8
0
 62
7
 10
5.36061708468177
 20
4.46672837108953
 30
0
 11
5.36061708468177
 21
4.406728371089531
 31
0
  0
LINE
  8
0
 62
7
 10
5.36061708468177
 20
4.34672837108953
 30
0
 11
5.43621708468177
 21
4.34672837108953
 31
0
  0
LINE
  8
0
 62
7
 10
5.425417084681771
 20
4.406728371089531
 30
0
 11
5.36061708468177
 21
4.406728371089531
 31
0
  0
LINE
  8
0
 62
7
 10
5.36061708468177
 20
4.406728371089531
 30
0
 11
5.36061708468177
 21
4.34672837108953
 31
0
  0
LINE
  8
0
 62
7
 10
5.46861708468177
 20
4.34672837108953
 30
0
 11
5.46861708468177
 21
4.46672837108953
 31
0
  0
LINE
  8
0
 62
7
 10
5.46861708468177
 20
4.46672837108953
 30
0
 11
5.544217084681771
 21
4.34672837108953
 31
0
  0
LINE
  8
0
 62
7
 10
5.544217084681771
 20
4.34672837108953
 30
0
 11
5.544217084681771
 21
4.46672837108953
 31
0
  0
LINE
  8
0
 62
7
 10
5.57661708468177
 20
4.34672837108953
 30
0
 11
5.57661708468177
 21
4.46672837108953
 31
0
  0
LINE
  8
0
 62
7
 10
5.57661708468177
 20
4.46672837108953
 30
0
 11
5.65221708468177
 21
4.34672837108953
 31
0
  0
LINE
  8
0
 62
7
 10
5.65221708468177
 20
4.34672837108953
 30
0
 11
5.65221708468177
 21
4.46672837108953
 31
0
  0
LINE
  8
0
 62
7
 10
5.760217084681771
 20
4.43072837108953
 30
0
 11
5.757517084681769
 21
4.44272837108953
 31
0
  0
LINE
  8
0
 62
7
 10
5.757517084681769
 20
4.44272837108953
 30
0
 11
5.75211708468177
 21
4.45172837108953
 31
0
  0
LINE
  8
0
 62
7
 10
5.75211708468177
 20
4.45172837108953
 30
0
 11
5.74671708468177
 21
4.45772837108953
 31
0
  0
LINE
  8
0
 62
7
 10
5.74671708468177
 20
4.45772837108953
 30
0
 11
5.738617084681771
 21
4.463728371089529
 31
0
  0
LINE
  8
0
 62
7
 10
5.738617084681771
 20
4.463728371089529
 30
0
 11
5.73051708468177
 21
4.46672837108953
 31
0
  0
LINE
  8
0
 62
7
 10
5.73051708468177
 20
4.46672837108953
 30
0
 11
5.71431708468177
 21
4.46672837108953
 31
0
  0
LINE
  8
0
 62
7
 10
5.71431708468177
 20
4.46672837108953
 30
0
 11
5.706217084681771
 21
4.463728371089529
 31
0
  0
LINE
  8
0
 62
7
 10
5.706217084681771
 20
4.463728371089529
 30
0
 11
5.698117084681771
 21
4.45772837108953
 31
0
  0
LINE
  8
0
 62
7
 10
5.698117084681771
 20
4.45772837108953
 30
0
 11
5.692717084681771
 21
4.45172837108953
 31
0
  0
LINE
  8
0
 62
7
 10
5.692717084681771
 20
4.45172837108953
 30
0
 11
5.68731708468177
 21
4.44272837108953
 31
0
  0
LINE
  8
0
 62
7
 10
5.68731708468177
 20
4.44272837108953
 30
0
 11
5.68461708468177
 21
4.43072837108953
 31
0
  0
LINE
  8
0
 62
7
 10
5.68461708468177
 20
4.43072837108953
 30
0
 11
5.68461708468177
 21
4.38272837108953
 31
0
  0
LINE
  8
0
 62
7
 10
5.68461708468177
 20
4.38272837108953
 30
0
 11
5.68731708468177
 21
4.370728371089529
 31
0
  0
LINE
  8
0
 62
7
 10
5.68731708468177
 20
4.370728371089529
 30
0
 11
5.692717084681771
 21
4.36172837108953
 31
0
  0
LINE
  8
0
 62
7
 10
5.692717084681771
 20
4.36172837108953
 30
0
 11
5.698117084681771
 21
4.35572837108953
 31
0
  0
LINE
  8
0
 62
7
 10
5.698117084681771
 20
4.35572837108953
 30
0
 11
5.706217084681771
 21
4.34972837108953
 31
0
  0
LINE
  8
0
 62
7
 10
5.706217084681771
 20
4.34972837108953
 30
0
 11
5.71431708468177
 21
4.34672837108953
 31
0
  0
LINE
  8
0
 62
7
 10
5.71431708468177
 20
4.34672837108953
 30
0
 11
5.73051708468177
 21
4.34672837108953
 31
0
  0
LINE
  8
0
 62
7
 10
5.73051708468177
 20
4.34672837108953
 30
0
 11
5.738617084681771
 21
4.34972837108953
 31
0
  0
LINE
  8
0
 62
7
 10
5.738617084681771
 20
4.34972837108953
 30
0
 11
5.74671708468177
 21
4.35572837108953
 31
0
  0
LINE
  8
0
 62
7
 10
5.74671708468177
 20
4.35572837108953
 30
0
 11
5.75211708468177
 21
4.36172837108953
 31
0
  0
LINE
  8
0
 62
7
 10
5.75211708468177
 20
4.36172837108953
 30
0
 11
5.757517084681769
 21
4.370728371089529
 31
0
  0
LINE
  8
0
 62
7
 10
5.757517084681769
 20
4.370728371089529
 30
0
 11
5.760217084681771
 21
4.38272837108953
 31
0
  0
LINE
  8
0
 62
7
 10
5.760217084681771
 20
4.38272837108953
 30
0
 11
5.760217084681771
 21
4.406728371089531
 31
0
  0
LINE
  8
0
 62
7
 10
5.760217084681771
 20
4.406728371089531
 30
0
 11
5.72781708468177
 21
4.406728371089531
 31
0
  0
LINE
  8
0
 62
7
 10
5.83851708468177
 20
4.46672837108953
 30
0
 11
5.822317084681771
 21
4.46672837108953
 31
0
  0
LINE
  8
0
 62
7
 10
5.822317084681771
 20
4.46672837108953
 30
0
 11
5.81421708468177
 21
4.463728371089529
 31
0
  0
LINE
  8
0
 62
7
 10
5.81421708468177
 20
4.463728371089529
 30
0
 11
5.80611708468177
 21
4.45772837108953
 31
0
  0
LINE
  8
0
 62
7
 10
5.80611708468177
 20
4.45772837108953
 30
0
 11
5.800717084681771
 21
4.45172837108953
 31
0
  0
LINE
  8
0
 62
7
 10
5.800717084681771
 20
4.45172837108953
 30
0
 11
5.79531708468177
 21
4.44272837108953
 31
0
  0
LINE
  8
0
 62
7
 10
5.79531708468177
 20
4.44272837108953
 30
0
 11
5.79261708468177
 21
4.43072837108953
 31
0
  0
LINE
  8
0
 62
7
 10
5.79261708468177
 20
4.43072837108953
 30
0
 11
5.79261708468177
 21
4.38272837108953
 31
0
  0
LINE
  8
0
 62
7
 10
5.79261708468177
 20
4.38272837108953
 30
0
 11
5.79531708468177
 21
4.370728371089529
 31
0
  0
LINE
  8
0
 62
7
 10
5.79531708468177
 20
4.370728371089529
 30
0
 11
5.800717084681771
 21
4.36172837108953
 31
0
  0
LINE
  8
0
 62
7
 10
5.800717084681771
 20
4.36172837108953
 30
0
 11
5.80611708468177
 21
4.35572837108953
 31
0
  0
LINE
  8
0
 62
7
 10
5.80611708468177
 20
4.35572837108953
 30
0
 11
5.81421708468177
 21
4.34972837108953
 31
0
  0
LINE
  8
0
 62
7
 10
5.81421708468177
 20
4.34972837108953
 30
0
 11
5.822317084681771
 21
4.34672837108953
 31
0
  0
LINE
  8
0
 62
7
 10
5.822317084681771
 20
4.34672837108953
 30
0
 11
5.83851708468177
 21
4.34672837108953
 31
0
  0
LINE
  8
0
 62
7
 10
5.83851708468177
 20
4.34672837108953
 30
0
 11
5.84661708468177
 21
4.34972837108953
 31
0
  0
LINE
  8
0
 62
7
 10
5.84661708468177
 20
4.34972837108953
 30
0
 11
5.85471708468177
 21
4.35572837108953
 31
0
  0
LINE
  8
0
 62
7
 10
5.85471708468177
 20
4.35572837108953
 30
0
 11
5.86011708468177
 21
4.36172837108953
 31
0
  0
LINE
  8
0
 62
7
 10
5.86011708468177
 20
4.36172837108953
 30
0
 11
5.86551708468177
 21
4.370728371089529
 31
0
  0
LINE
  8
0
 62
7
 10
5.86551708468177
 20
4.370728371089529
 30
0
 11
5.868217084681771
 21
4.38272837108953
 31
0
  0
LINE
  8
0
 62
7
 10
5.868217084681771
 20
4.38272837108953
 30
0
 11
5.868217084681771
 21
4.43072837108953
 31
0
  0
LINE
  8
0
 62
7
 10
5.868217084681771
 20
4.43072837108953
 30
0
 11
5.86551708468177
 21
4.44272837108953
 31
0
  0
LINE
  8
0
 62
7
 10
5.86551708468177
 20
4.44272837108953
 30
0
 11
5.86011708468177
 21
4.45172837108953
 31
0
  0
LINE
  8
0
 62
7
 10
5.86011708468177
 20
4.45172837108953
 30
0
 11
5.85471708468177
 21
4.45772837108953
 31
0
  0
LINE
  8
0
 62
7
 10
5.85471708468177
 20
4.45772837108953
 30
0
 11
5.84661708468177
 21
4.463728371089529
 31
0
  0
LINE
  8
0
 62
7
 10
5.84661708468177
 20
4.463728371089529
 30
0
 11
5.83851708468177
 21
4.46672837108953
 31
0
  0
LINE
  8
0
 62
7
 10
5.889817084681771
 20
4.46672837108953
 30
0
 11
5.927617084681771
 21
4.46672837108953
 31
0
  0
LINE
  8
0
 62
7
 10
5.927617084681771
 20
4.46672837108953
 30
0
 11
5.927617084681771
 21
4.34672837108953
 31
0
  0
LINE
  8
0
 62
7
 10
5.927617084681771
 20
4.46672837108953
 30
0
 11
5.965417084681771
 21
4.46672837108953
 31
0
  0
LINE
  8
0
 62
7
 10
5.99781708468177
 20
4.46672837108953
 30
0
 11
6.035617084681771
 21
4.46672837108953
 31
0
  0
LINE
  8
0
 62
7
 10
6.035617084681771
 20
4.46672837108953
 30
0
 11
6.035617084681771
 21
4.34672837108953
 31
0
  0
LINE
  8
0
 62
7
 10
6.035617084681771
 20
4.46672837108953
 30
0
 11
6.07341708468177
 21
4.46672837108953
 31
0
  0
LINE
  8
0
 62
7
 10
6.19221708468177
 20
4.38872837108953
 30
0
 11
6.246217084681771
 21
4.38872837108953
 31
0
  0
LINE
  8
0
 62
7
 10
6.354217084681769
 20
4.46672837108953
 30
0
 11
6.392017084681771
 21
4.46672837108953
 31
0
  0
LINE
  8
0
 62
7
 10
6.392017084681771
 20
4.46672837108953
 30
0
 11
6.392017084681771
 21
4.34672837108953
 31
0
  0
LINE
  8
0
 62
7
 10
6.392017084681771
 20
4.46672837108953
 30
0
 11
6.42981708468177
 21
4.46672837108953
 31
0
  0
LINE
  8
0
 62
7
 10
6.46221708468177
 20
4.34672837108953
 30
0
 11
6.46221708468177
 21
4.46672837108953
 31
0
  0
LINE
  8
0
 62
7
 10
6.46221708468177
 20
4.46672837108953
 30
0
 11
6.51351708468177
 21
4.46672837108953
 31
0
  0
LINE
  8
0
 62
7
 10
6.51351708468177
 20
4.46672837108953
 30
0
 11
6.524317084681771
 21
4.463728371089529
 31
0
  0
LINE
  8
0
 62
7
 10
6.524317084681771
 20
4.463728371089529
 30
0
 11
6.53241708468177
 21
4.45772837108953
 31
0
  0
LINE
  8
0
 62
7
 10
6.53241708468177
 20
4.45772837108953
 30
0
 11
6.53511708468177
 21
4.45172837108953
 31
0
  0
LINE
  8
0
 62
7
 10
6.53511708468177
 20
4.45172837108953
 30
0
 11
6.53781708468177
 21
4.44272837108953
 31
0
  0
LINE
  8
0
 62
7
 10
6.53781708468177
 20
4.44272837108953
 30
0
 11
6.53781708468177
 21
4.43072837108953
 31
0
  0
LINE
  8
0
 62
7
 10
6.53781708468177
 20
4.43072837108953
 30
0
 11
6.53511708468177
 21
4.421728371089531
 31
0
  0
LINE
  8
0
 62
7
 10
6.53511708468177
 20
4.421728371089531
 30
0
 11
6.53241708468177
 21
4.41572837108953
 31
0
  0
LINE
  8
0
 62
7
 10
6.53241708468177
 20
4.41572837108953
 30
0
 11
6.524317084681771
 21
4.40972837108953
 31
0
  0
LINE
  8
0
 62
7
 10
6.524317084681771
 20
4.40972837108953
 30
0
 11
6.51351708468177
 21
4.406728371089531
 31
0
  0
LINE
  8
0
 62
7
 10
6.51351708468177
 20
4.406728371089531
 30
0
 11
6.505417084681769
 21
4.406728371089531
 31
0
  0
LINE
  8
0
 62
7
 10
6.505417084681769
 20
4.406728371089531
 30
0
 11
6.53781708468177
 21
4.34672837108953
 31
0
  0
LINE
  8
0
 62
7
 10
6.505417084681769
 20
4.406728371089531
 30
0
 11
6.46221708468177
 21
4.406728371089531
 31
0
  0
LINE
  8
0
 62
7
 10
6.63501708468177
 20
4.46672837108953
 30
0
 11
6.559417084681769
 21
4.46672837108953
 31
0
  0
LINE
  8
0
 62
7
 10
6.559417084681769
 20
4.46672837108953
 30
0
 11
6.559417084681769
 21
4.406728371089531
 31
0
  0
LINE
  8
0
 62
7
 10
6.559417084681769
 20
4.34672837108953
 30
0
 11
6.63501708468177
 21
4.34672837108953
 31
0
  0
LINE
  8
0
 62
7
 10
6.624217084681769
 20
4.406728371089531
 30
0
 11
6.559417084681769
 21
4.406728371089531
 31
0
  0
LINE
  8
0
 62
7
 10
6.559417084681769
 20
4.406728371089531
 30
0
 11
6.559417084681769
 21
4.34672837108953
 31
0
  0
LINE
  8
0
 62
7
 10
6.66741708468177
 20
4.34672837108953
 30
0
 11
6.66741708468177
 21
4.406728371089531
 31
0
  0
LINE
  8
0
 62
7
 10
6.66741708468177
 20
4.46672837108953
 30
0
 11
6.71871708468177
 21
4.46672837108953
 31
0
  0
LINE
  8
0
 62
7
 10
6.71871708468177
 20
4.46672837108953
 30
0
 11
6.72951708468177
 21
4.463728371089529
 31
0
  0
LINE
  8
0
 62
7
 10
6.72951708468177
 20
4.463728371089529
 30
0
 11
6.73761708468177
 21
4.45772837108953
 31
0
  0
LINE
  8
0
 62
7
 10
6.73761708468177
 20
4.45772837108953
 30
0
 11
6.740317084681769
 21
4.45172837108953
 31
0
  0
LINE
  8
0
 62
7
 10
6.740317084681769
 20
4.45172837108953
 30
0
 11
6.743017084681769
 21
4.44272837108953
 31
0
  0
LINE
  8
0
 62
7
 10
6.743017084681769
 20
4.44272837108953
 30
0
 11
6.743017084681769
 21
4.43072837108953
 31
0
  0
LINE
  8
0
 62
7
 10
6.743017084681769
 20
4.43072837108953
 30
0
 11
6.740317084681769
 21
4.421728371089531
 31
0
  0
LINE
  8
0
 62
7
 10
6.740317084681769
 20
4.421728371089531
 30
0
 11
6.73761708468177
 21
4.41572837108953
 31
0
  0
LINE
  8
0
 62
7
 10
6.73761708468177
 20
4.41572837108953
 30
0
 11
6.72951708468177
 21
4.40972837108953
 31
0
  0
LINE
  8
0
 62
7
 10
6.72951708468177
 20
4.40972837108953
 30
0
 11
6.71871708468177
 21
4.406728371089531
 31
0
  0
LINE
  8
0
 62
7
 10
6.71871708468177
 20
4.406728371089531
 30
0
 11
6.66741708468177
 21
4.406728371089531
 31
0
  0
LINE
  8
0
 62
7
 10
6.66741708468177
 20
4.406728371089531
 30
0
 11
6.66741708468177
 21
4.46672837108953
 31
0
  0
LINE
  8
0
 62
7
 10
6.76461708468177
 20
4.34672837108953
 30
0
 11
6.76461708468177
 21
4.406728371089531
 31
0
  0
LINE
  8
0
 62
7
 10
6.76461708468177
 20
4.46672837108953
 30
0
 11
6.815917084681771
 21
4.46672837108953
 31
0
  0
LINE
  8
0
 62
7
 10
6.815917084681771
 20
4.46672837108953
 30
0
 11
6.826717084681771
 21
4.463728371089529
 31
0
  0
LINE
  8
0
 62
7
 10
6.826717084681771
 20
4.463728371089529
 30
0
 11
6.834817084681771
 21
4.45772837108953
 31
0
  0
LINE
  8
0
 62
7
 10
6.834817084681771
 20
4.45772837108953
 30
0
 11
6.83751708468177
 21
4.45172837108953
 31
0
  0
LINE
  8
0
 62
7
 10
6.83751708468177
 20
4.45172837108953
 30
0
 11
6.840217084681772
 21
4.44272837108953
 31
0
  0
LINE
  8
0
 62
7
 10
6.840217084681772
 20
4.44272837108953
 30
0
 11
6.840217084681772
 21
4.43072837108953
 31
0
  0
LINE
  8
0
 62
7
 10
6.840217084681772
 20
4.43072837108953
 30
0
 11
6.83751708468177
 21
4.421728371089531
 31
0
  0
LINE
  8
0
 62
7
 10
6.83751708468177
 20
4.421728371089531
 30
0
 11
6.834817084681771
 21
4.41572837108953
 31
0
  0
LINE
  8
0
 62
7
 10
6.834817084681771
 20
4.41572837108953
 30
0
 11
6.826717084681771
 21
4.40972837108953
 31
0
  0
LINE
  8
0
 62
7
 10
6.826717084681771
 20
4.40972837108953
 30
0
 11
6.815917084681771
 21
4.406728371089531
 31
0
  0
LINE
  8
0
 62
7
 10
6.815917084681771
 20
4.406728371089531
 30
0
 11
6.76461708468177
 21
4.406728371089531
 31
0
  0
LINE
  8
0
 62
7
 10
6.76461708468177
 20
4.406728371089531
 30
0
 11
6.76461708468177
 21
4.46672837108953
 31
0
  0
LINE
  8
0
 62
7
 10
6.937417084681771
 20
4.46672837108953
 30
0
 11
6.861817084681771
 21
4.46672837108953
 31
0
  0
LINE
  8
0
 62
7
 10
6.861817084681771
 20
4.46672837108953
 30
0
 11
6.861817084681771
 21
4.406728371089531
 31
0
  0
LINE
  8
0
 62
7
 10
6.861817084681771
 20
4.34672837108953
 30
0
 11
6.937417084681771
 21
4.34672837108953
 31
0
  0
LINE
  8
0
 62
7
 10
6.92661708468177
 20
4.406728371089531
 30
0
 11
6.861817084681771
 21
4.406728371089531
 31
0
  0
LINE
  8
0
 62
7
 10
6.861817084681771
 20
4.406728371089531
 30
0
 11
6.861817084681771
 21
4.34672837108953
 31
0
  0
LINE
  8
0
 62
7
 10
4.375
 20
2.890000000000001
 30
0
 11
4.375
 21
3.010000000000001
 31
0
  0
LINE
  8
0
 62
7
 10
4.450600000000001
 20
3.010000000000001
 30
0
 11
4.3966
 21
2.950000000000001
 31
0
  0
LINE
  8
0
 62
7
 10
4.3966
 20
2.950000000000001
 30
0
 11
4.450600000000001
 21
2.890000000000001
 31
0
  0
LINE
  8
0
 62
7
 10
4.3966
 20
2.950000000000001
 30
0
 11
4.375
 21
2.926000000000001
 31
0
  0
LINE
  8
0
 62
7
 10
4.483
 20
2.992
 30
0
 11
4.4884
 21
3.001000000000001
 31
0
  0
LINE
  8
0
 62
7
 10
4.4884
 20
3.001000000000001
 30
0
 11
4.4965
 21
3.007
 31
0
  0
LINE
  8
0
 62
7
 10
4.4965
 20
3.007
 30
0
 11
4.5073
 21
3.010000000000001
 31
0
  0
LINE
  8
0
 62
7
 10
4.5073
 20
3.010000000000001
 30
0
 11
4.5235
 21
3.010000000000001
 31
0
  0
LINE
  8
0
 62
7
 10
4.5235
 20
3.010000000000001
 30
0
 11
4.534300000000001
 21
3.007
 31
0
  0
LINE
  8
0
 62
7
 10
4.534300000000001
 20
3.007
 30
0
 11
4.5424
 21
3.001000000000001
 31
0
  0
LINE
  8
0
 62
7
 10
4.5424
 20
3.001000000000001
 30
0
 11
4.5478
 21
2.992
 31
0
  0
LINE
  8
0
 62
7
 10
4.5478
 20
2.992
 30
0
 11
4.5478
 21
2.980000000000001
 31
0
  0
LINE
  8
0
 62
7
 10
4.5478
 20
2.980000000000001
 30
0
 11
4.5424
 21
2.968000000000002
 31
0
  0
LINE
  8
0
 62
7
 10
4.5424
 20
2.968000000000002
 30
0
 11
4.483
 21
2.890000000000001
 31
0
  0
LINE
  8
0
 62
7
 10
4.483
 20
2.890000000000001
 30
0
 11
4.5478
 21
2.890000000000001
 31
0
  0
LINE
  8
0
 62
7
 10
4.5802
 20
3.010000000000001
 30
0
 11
4.618
 21
2.890000000000001
 31
0
  0
LINE
  8
0
 62
7
 10
4.618
 20
2.890000000000001
 30
0
 11
4.6558
 21
3.010000000000001
 31
0
  0
LINE
  8
0
 62
7
 10
4.6882
 20
2.992
 30
0
 11
4.693600000000001
 21
3.001000000000001
 31
0
  0
LINE
  8
0
 62
7
 10
4.693600000000001
 20
3.001000000000001
 30
0
 11
4.7017
 21
3.007
 31
0
  0
LINE
  8
0
 62
7
 10
4.7017
 20
3.007
 30
0
 11
4.7125
 21
3.010000000000001
 31
0
  0
LINE
  8
0
 62
7
 10
4.7125
 20
3.010000000000001
 30
0
 11
4.7287
 21
3.010000000000001
 31
0
  0
LINE
  8
0
 62
7
 10
4.7287
 20
3.010000000000001
 30
0
 11
4.7395
 21
3.007
 31
0
  0
LINE
  8
0
 62
7
 10
4.7395
 20
3.007
 30
0
 11
4.747600000000001
 21
3.001000000000001
 31
0
  0
LINE
  8
0
 62
7
 10
4.747600000000001
 20
3.001000000000001
 30
0
 11
4.753
 21
2.992
 31
0
  0
LINE
  8
0
 62
7
 10
4.753
 20
2.992
 30
0
 11
4.753
 21
2.980000000000001
 31
0
  0
LINE
  8
0
 62
7
 10
4.753
 20
2.980000000000001
 30
0
 11
4.747600000000001
 21
2.968000000000002
 31
0
  0
LINE
  8
0
 62
7
 10
4.747600000000001
 20
2.968000000000002
 30
0
 11
4.6882
 21
2.890000000000001
 31
0
  0
LINE
  8
0
 62
7
 10
4.6882
 20
2.890000000000001
 30
0
 11
4.753
 21
2.890000000000001
 31
0
  0
LINE
  8
0
 62
7
 10
4.785400000000001
 20
2.938000000000001
 30
0
 11
4.788099999999999
 21
2.950000000000001
 31
0
  0
LINE
  8
0
 62
7
 10
4.788099999999999
 20
2.950000000000001
 30
0
 11
4.793500000000001
 21
2.959
 31
0
  0
LINE
  8
0
 62
7
 10
4.793500000000001
 20
2.959
 30
0
 11
4.801600000000001
 21
2.965000000000001
 31
0
  0
LINE
  8
0
 62
7
 10
4.801600000000001
 20
2.965000000000001
 30
0
 11
4.809700000000001
 21
2.968000000000002
 31
0
  0
LINE
  8
0
 62
7
 10
4.809700000000001
 20
2.968000000000002
 30
0
 11
4.825900000000001
 21
2.968000000000002
 31
0
  0
LINE
  8
0
 62
7
 10
4.825900000000001
 20
2.968000000000002
 30
0
 11
4.834000000000001
 21
2.965000000000001
 31
0
  0
LINE
  8
0
 62
7
 10
4.834000000000001
 20
2.965000000000001
 30
0
 11
4.842099999999999
 21
2.959
 31
0
  0
LINE
  8
0
 62
7
 10
4.842099999999999
 20
2.959
 30
0
 11
4.8475
 21
2.950000000000001
 31
0
  0
LINE
  8
0
 62
7
 10
4.8475
 20
2.950000000000001
 30
0
 11
4.850200000000001
 21
2.938000000000001
 31
0
  0
LINE
  8
0
 62
7
 10
4.850200000000001
 20
2.938000000000001
 30
0
 11
4.850200000000001
 21
2.920000000000001
 31
0
  0
LINE
  8
0
 62
7
 10
4.850200000000001
 20
2.920000000000001
 30
0
 11
4.8475
 21
2.908000000000001
 31
0
  0
LINE
  8
0
 62
7
 10
4.8475
 20
2.908000000000001
 30
0
 11
4.842099999999999
 21
2.899
 31
0
  0
LINE
  8
0
 62
7
 10
4.842099999999999
 20
2.899
 30
0
 11
4.834000000000001
 21
2.893000000000002
 31
0
  0
LINE
  8
0
 62
7
 10
4.834000000000001
 20
2.893000000000002
 30
0
 11
4.825900000000001
 21
2.890000000000001
 31
0
  0
LINE
  8
0
 62
7
 10
4.825900000000001
 20
2.890000000000001
 30
0
 11
4.809700000000001
 21
2.890000000000001
 31
0
  0
LINE
  8
0
 62
7
 10
4.809700000000001
 20
2.890000000000001
 30
0
 11
4.801600000000001
 21
2.893000000000002
 31
0
  0
LINE
  8
0
 62
7
 10
4.801600000000001
 20
2.893000000000002
 30
0
 11
4.793500000000001
 21
2.899
 31
0
  0
LINE
  8
0
 62
7
 10
4.793500000000001
 20
2.899
 30
0
 11
4.788099999999999
 21
2.908000000000001
 31
0
  0
LINE
  8
0
 62
7
 10
4.788099999999999
 20
2.908000000000001
 30
0
 11
4.785400000000001
 21
2.920000000000001
 31
0
  0
LINE
  8
0
 62
7
 10
4.785400000000001
 20
2.920000000000001
 30
0
 11
4.785400000000001
 21
2.938000000000001
 31
0
  0
LINE
  8
0
 62
7
 10
4.785400000000001
 20
2.980000000000001
 30
0
 11
4.788099999999999
 21
2.992
 31
0
  0
LINE
  8
0
 62
7
 10
4.788099999999999
 20
2.992
 30
0
 11
4.793500000000001
 21
3.001000000000001
 31
0
  0
LINE
  8
0
 62
7
 10
4.793500000000001
 20
3.001000000000001
 30
0
 11
4.801600000000001
 21
3.007
 31
0
  0
LINE
  8
0
 62
7
 10
4.801600000000001
 20
3.007
 30
0
 11
4.809700000000001
 21
3.010000000000001
 31
0
  0
LINE
  8
0
 62
7
 10
4.809700000000001
 20
3.010000000000001
 30
0
 11
4.825900000000001
 21
3.010000000000001
 31
0
  0
LINE
  8
0
 62
7
 10
4.825900000000001
 20
3.010000000000001
 30
0
 11
4.834000000000001
 21
3.007
 31
0
  0
LINE
  8
0
 62
7
 10
4.834000000000001
 20
3.007
 30
0
 11
4.842099999999999
 21
3.001000000000001
 31
0
  0
LINE
  8
0
 62
7
 10
4.842099999999999
 20
3.001000000000001
 30
0
 11
4.8475
 21
2.992
 31
0
  0
LINE
  8
0
 62
7
 10
4.785400000000001
 20
2.938000000000001
 30
0
 11
4.785400000000001
 21
2.980000000000001
 31
0
  0
LINE
  8
0
 62
7
 10
4.882600000000001
 20
2.992
 30
0
 11
4.888000000000001
 21
3.001000000000001
 31
0
  0
LINE
  8
0
 62
7
 10
4.888000000000001
 20
3.001000000000001
 30
0
 11
4.896100000000001
 21
3.007
 31
0
  0
LINE
  8
0
 62
7
 10
4.896100000000001
 20
3.007
 30
0
 11
4.906900000000002
 21
3.010000000000001
 31
0
  0
LINE
  8
0
 62
7
 10
4.906900000000002
 20
3.010000000000001
 30
0
 11
4.923100000000002
 21
3.010000000000001
 31
0
  0
LINE
  8
0
 62
7
 10
4.923100000000002
 20
3.010000000000001
 30
0
 11
4.931200000000001
 21
3.007
 31
0
  0
LINE
  8
0
 62
7
 10
4.931200000000001
 20
3.007
 30
0
 11
4.939300000000002
 21
3.001000000000001
 31
0
  0
LINE
  8
0
 62
7
 10
4.939300000000002
 20
3.001000000000001
 30
0
 11
4.944700000000001
 21
2.992
 31
0
  0
LINE
  8
0
 62
7
 10
4.944700000000001
 20
2.992
 30
0
 11
4.947400000000002
 21
2.980000000000001
 31
0
  0
LINE
  8
0
 62
7
 10
4.947400000000002
 20
2.980000000000001
 30
0
 11
4.947400000000002
 21
2.971000000000001
 31
0
  0
LINE
  8
0
 62
7
 10
4.947400000000002
 20
2.971000000000001
 30
0
 11
4.944700000000001
 21
2.962
 31
0
  0
LINE
  8
0
 62
7
 10
4.944700000000001
 20
2.962
 30
0
 11
4.939300000000002
 21
2.956000000000001
 31
0
  0
LINE
  8
0
 62
7
 10
4.939300000000002
 20
2.956000000000001
 30
0
 11
4.925800000000001
 21
2.950000000000001
 31
0
  0
LINE
  8
0
 62
7
 10
4.906900000000002
 20
2.950000000000001
 30
0
 11
4.925800000000001
 21
2.950000000000001
 31
0
  0
LINE
  8
0
 62
7
 10
4.925800000000001
 20
2.950000000000001
 30
0
 11
4.939300000000002
 21
2.944
 31
0
  0
LINE
  8
0
 62
7
 10
4.939300000000002
 20
2.944
 30
0
 11
4.944700000000001
 21
2.938000000000001
 31
0
  0
LINE
  8
0
 62
7
 10
4.944700000000001
 20
2.938000000000001
 30
0
 11
4.947400000000002
 21
2.929
 31
0
  0
LINE
  8
0
 62
7
 10
4.947400000000002
 20
2.929
 30
0
 11
4.947400000000002
 21
2.920000000000001
 31
0
  0
LINE
  8
0
 62
7
 10
4.947400000000002
 20
2.920000000000001
 30
0
 11
4.944700000000001
 21
2.908000000000001
 31
0
  0
LINE
  8
0
 62
7
 10
4.944700000000001
 20
2.908000000000001
 30
0
 11
4.939300000000002
 21
2.899
 31
0
  0
LINE
  8
0
 62
7
 10
4.939300000000002
 20
2.899
 30
0
 11
4.931200000000001
 21
2.893000000000002
 31
0
  0
LINE
  8
0
 62
7
 10
4.931200000000001
 20
2.893000000000002
 30
0
 11
4.923100000000002
 21
2.890000000000001
 31
0
  0
LINE
  8
0
 62
7
 10
4.923100000000002
 20
2.890000000000001
 30
0
 11
4.906900000000002
 21
2.890000000000001
 31
0
  0
LINE
  8
0
 62
7
 10
4.906900000000002
 20
2.890000000000001
 30
0
 11
4.896100000000001
 21
2.893000000000002
 31
0
  0
LINE
  8
0
 62
7
 10
4.896100000000001
 20
2.893000000000002
 30
0
 11
4.888000000000001
 21
2.899
 31
0
  0
LINE
  8
0
 62
7
 10
4.888000000000001
 20
2.899
 30
0
 11
4.882600000000001
 21
2.908000000000001
 31
0
  0
LINE
  8
0
 62
7
 10
4.979800000000001
 20
2.890000000000001
 30
0
 11
4.979800000000001
 21
3.010000000000001
 31
0
  0
LINE
  8
0
 62
7
 10
4.979800000000001
 20
3.010000000000001
 30
0
 11
5.031100000000002
 21
3.010000000000001
 31
0
  0
LINE
  8
0
 62
7
 10
5.031100000000002
 20
3.010000000000001
 30
0
 11
5.041900000000002
 21
3.007
 31
0
  0
LINE
  8
0
 62
7
 10
5.041900000000002
 20
3.007
 30
0
 11
5.050000000000001
 21
3.001000000000001
 31
0
  0
LINE
  8
0
 62
7
 10
5.050000000000001
 20
3.001000000000001
 30
0
 11
5.052700000000001
 21
2.995000000000001
 31
0
  0
LINE
  8
0
 62
7
 10
5.052700000000001
 20
2.995000000000001
 30
0
 11
5.055400000000001
 21
2.986000000000001
 31
0
  0
LINE
  8
0
 62
7
 10
5.055400000000001
 20
2.986000000000001
 30
0
 11
5.055400000000001
 21
2.974
 31
0
  0
LINE
  8
0
 62
7
 10
5.055400000000001
 20
2.974
 30
0
 11
5.052700000000001
 21
2.965000000000001
 31
0
  0
LINE
  8
0
 62
7
 10
5.052700000000001
 20
2.965000000000001
 30
0
 11
5.050000000000001
 21
2.959
 31
0
  0
LINE
  8
0
 62
7
 10
5.050000000000001
 20
2.959
 30
0
 11
5.041900000000002
 21
2.953000000000002
 31
0
  0
LINE
  8
0
 62
7
 10
5.041900000000002
 20
2.953000000000002
 30
0
 11
5.031100000000002
 21
2.950000000000001
 31
0
  0
LINE
  8
0
 62
7
 10
5.031100000000002
 20
2.950000000000001
 30
0
 11
5.023000000000001
 21
2.950000000000001
 31
0
  0
LINE
  8
0
 62
7
 10
5.023000000000001
 20
2.950000000000001
 30
0
 11
5.055400000000001
 21
2.890000000000001
 31
0
  0
LINE
  8
0
 62
7
 10
5.023000000000001
 20
2.950000000000001
 30
0
 11
4.979800000000001
 21
2.950000000000001
 31
0
  0
LINE
  8
0
 62
7
 10
5.077000000000001
 20
2.992
 30
0
 11
5.0824
 21
3.001000000000001
 31
0
  0
LINE
  8
0
 62
7
 10
5.0824
 20
3.001000000000001
 30
0
 11
5.0905
 21
3.007
 31
0
  0
LINE
  8
0
 62
7
 10
5.0905
 20
3.007
 30
0
 11
5.101300000000002
 21
3.010000000000001
 31
0
  0
LINE
  8
0
 62
7
 10
5.101300000000002
 20
3.010000000000001
 30
0
 11
5.117500000000001
 21
3.010000000000001
 31
0
  0
LINE
  8
0
 62
7
 10
5.117500000000001
 20
3.010000000000001
 30
0
 11
5.125600000000001
 21
3.007
 31
0
  0
LINE
  8
0
 62
7
 10
5.125600000000001
 20
3.007
 30
0
 11
5.1337
 21
3.001000000000001
 31
0
  0
LINE
  8
0
 62
7
 10
5.1337
 20
3.001000000000001
 30
0
 11
5.139100000000001
 21
2.992
 31
0
  0
LINE
  8
0
 62
7
 10
5.139100000000001
 20
2.992
 30
0
 11
5.141800000000002
 21
2.980000000000001
 31
0
  0
LINE
  8
0
 62
7
 10
5.141800000000002
 20
2.980000000000001
 30
0
 11
5.141800000000002
 21
2.971000000000001
 31
0
  0
LINE
  8
0
 62
7
 10
5.141800000000002
 20
2.971000000000001
 30
0
 11
5.139100000000001
 21
2.962
 31
0
  0
LINE
  8
0
 62
7
 10
5.139100000000001
 20
2.962
 30
0
 11
5.1337
 21
2.956000000000001
 31
0
  0
LINE
  8
0
 62
7
 10
5.1337
 20
2.956000000000001
 30
0
 11
5.120200000000001
 21
2.950000000000001
 31
0
  0
LINE
  8
0
 62
7
 10
5.101300000000002
 20
2.950000000000001
 30
0
 11
5.120200000000001
 21
2.950000000000001
 31
0
  0
LINE
  8
0
 62
7
 10
5.120200000000001
 20
2.950000000000001
 30
0
 11
5.1337
 21
2.944
 31
0
  0
LINE
  8
0
 62
7
 10
5.1337
 20
2.944
 30
0
 11
5.139100000000001
 21
2.938000000000001
 31
0
  0
LINE
  8
0
 62
7
 10
5.139100000000001
 20
2.938000000000001
 30
0
 11
5.141800000000002
 21
2.929
 31
0
  0
LINE
  8
0
 62
7
 10
5.141800000000002
 20
2.929
 30
0
 11
5.141800000000002
 21
2.920000000000001
 31
0
  0
LINE
  8
0
 62
7
 10
5.141800000000002
 20
2.920000000000001
 30
0
 11
5.139100000000001
 21
2.908000000000001
 31
0
  0
LINE
  8
0
 62
7
 10
5.139100000000001
 20
2.908000000000001
 30
0
 11
5.1337
 21
2.899
 31
0
  0
LINE
  8
0
 62
7
 10
5.1337
 20
2.899
 30
0
 11
5.125600000000001
 21
2.893000000000002
 31
0
  0
LINE
  8
0
 62
7
 10
5.125600000000001
 20
2.893000000000002
 30
0
 11
5.117500000000001
 21
2.890000000000001
 31
0
  0
LINE
  8
0
 62
7
 10
5.117500000000001
 20
2.890000000000001
 30
0
 11
5.101300000000002
 21
2.890000000000001
 31
0
  0
LINE
  8
0
 62
7
 10
5.101300000000002
 20
2.890000000000001
 30
0
 11
5.0905
 21
2.893000000000002
 31
0
  0
LINE
  8
0
 62
7
 10
5.0905
 20
2.893000000000002
 30
0
 11
5.0824
 21
2.899
 31
0
  0
LINE
  8
0
 62
7
 10
5.0824
 20
2.899
 30
0
 11
5.077000000000001
 21
2.908000000000001
 31
0
  0
LINE
  8
0
 62
7
 10
6.875
 20
2.890000000000001
 30
0
 11
6.875
 21
2.990000000000001
 31
0
  0
LINE
  8
0
 62
7
 10
6.875
 20
2.990000000000001
 30
0
 11
6.938000000000001
 21
2.890000000000001
 31
0
  0
LINE
  8
0
 62
7
 10
6.938000000000001
 20
2.890000000000001
 30
0
 11
6.938000000000001
 21
2.990000000000001
 31
0
  0
LINE
  8
0
 62
7
 10
7.019000000000002
 20
2.890000000000001
 30
0
 11
6.965000000000001
 21
2.890000000000001
 31
0
  0
LINE
  8
0
 62
7
 10
6.965000000000001
 20
2.890000000000001
 30
0
 11
6.965000000000001
 21
2.990000000000001
 31
0
  0
LINE
  8
0
 62
7
 10
7.046000000000001
 20
2.940000000000001
 30
0
 11
7.082000000000001
 21
2.940000000000001
 31
0
  0
LINE
  8
0
 62
7
 10
7.082000000000001
 20
2.940000000000001
 30
0
 11
7.086500000000001
 21
2.940000000000001
 31
0
  0
LINE
  8
0
 62
7
 10
7.086500000000001
 20
2.940000000000001
 30
0
 11
7.095500000000001
 21
2.935000000000001
 31
0
  0
LINE
  8
0
 62
7
 10
7.095500000000001
 20
2.935000000000001
 30
0
 11
7.100000000000001
 21
2.930000000000001
 31
0
  0
LINE
  8
0
 62
7
 10
7.100000000000001
 20
2.930000000000001
 30
0
 11
7.104500000000001
 21
2.920000000000001
 31
0
  0
LINE
  8
0
 62
7
 10
7.104500000000001
 20
2.920000000000001
 30
0
 11
7.104500000000001
 21
2.910000000000001
 31
0
  0
LINE
  8
0
 62
7
 10
7.104500000000001
 20
2.910000000000001
 30
0
 11
7.100000000000001
 21
2.900000000000001
 31
0
  0
LINE
  8
0
 62
7
 10
7.100000000000001
 20
2.900000000000001
 30
0
 11
7.095500000000001
 21
2.895000000000001
 31
0
  0
LINE
  8
0
 62
7
 10
7.095500000000001
 20
2.895000000000001
 30
0
 11
7.086500000000001
 21
2.890000000000001
 31
0
  0
LINE
  8
0
 62
7
 10
7.086500000000001
 20
2.890000000000001
 30
0
 11
7.046000000000001
 21
2.890000000000001
 31
0
  0
LINE
  8
0
 62
7
 10
7.046000000000001
 20
2.890000000000001
 30
0
 11
7.046000000000001
 21
2.940000000000001
 31
0
  0
LINE
  8
0
 62
7
 10
7.046000000000001
 20
2.990000000000001
 30
0
 11
7.079750000000001
 21
2.990000000000001
 31
0
  0
LINE
  8
0
 62
7
 10
7.079750000000001
 20
2.990000000000001
 30
0
 11
7.091
 21
2.987500000000001
 31
0
  0
LINE
  8
0
 62
7
 10
7.091
 20
2.987500000000001
 30
0
 11
7.097750000000001
 21
2.980000000000001
 31
0
  0
LINE
  8
0
 62
7
 10
7.097750000000001
 20
2.980000000000001
 30
0
 11
7.100000000000001
 21
2.970000000000001
 31
0
  0
LINE
  8
0
 62
7
 10
7.100000000000001
 20
2.970000000000001
 30
0
 11
7.100000000000001
 21
2.960000000000001
 31
0
  0
LINE
  8
0
 62
7
 10
7.100000000000001
 20
2.960000000000001
 30
0
 11
7.095500000000001
 21
2.950000000000001
 31
0
  0
LINE
  8
0
 62
7
 10
7.095500000000001
 20
2.950000000000001
 30
0
 11
7.088750000000001
 21
2.942500000000001
 31
0
  0
LINE
  8
0
 62
7
 10
7.088750000000001
 20
2.942500000000001
 30
0
 11
7.082000000000001
 21
2.940000000000001
 31
0
  0
LINE
  8
0
 62
7
 10
7.046000000000001
 20
2.940000000000001
 30
0
 11
7.046000000000001
 21
2.990000000000001
 31
0
  0
LINE
  8
0
 62
7
 10
7.246250000000001
 20
2.942500000000001
 30
0
 11
7.2395
 21
2.952500000000001
 31
0
  0
LINE
  8
0
 62
7
 10
7.2395
 20
2.952500000000001
 30
0
 11
7.232750000000002
 21
2.957500000000001
 31
0
  0
LINE
  8
0
 62
7
 10
7.232750000000002
 20
2.957500000000001
 30
0
 11
7.226000000000001
 21
2.960000000000001
 31
0
  0
LINE
  8
0
 62
7
 10
7.226000000000001
 20
2.960000000000001
 30
0
 11
7.217000000000001
 21
2.960000000000001
 31
0
  0
LINE
  8
0
 62
7
 10
7.217000000000001
 20
2.960000000000001
 30
0
 11
7.210250000000001
 21
2.957500000000001
 31
0
  0
LINE
  8
0
 62
7
 10
7.210250000000001
 20
2.957500000000001
 30
0
 11
7.2035
 21
2.952500000000001
 31
0
  0
LINE
  8
0
 62
7
 10
7.2035
 20
2.952500000000001
 30
0
 11
7.196750000000002
 21
2.942500000000001
 31
0
  0
LINE
  8
0
 62
7
 10
7.196750000000002
 20
2.942500000000001
 30
0
 11
7.194500000000001
 21
2.935000000000001
 31
0
  0
LINE
  8
0
 62
7
 10
7.194500000000001
 20
2.935000000000001
 30
0
 11
7.194500000000001
 21
2.915000000000001
 31
0
  0
LINE
  8
0
 62
7
 10
7.194500000000001
 20
2.915000000000001
 30
0
 11
7.196750000000002
 21
2.907500000000001
 31
0
  0
LINE
  8
0
 62
7
 10
7.196750000000002
 20
2.907500000000001
 30
0
 11
7.2035
 21
2.897500000000001
 31
0
  0
LINE
  8
0
 62
7
 10
7.2035
 20
2.897500000000001
 30
0
 11
7.210250000000001
 21
2.892500000000001
 31
0
  0
LINE
  8
0
 62
7
 10
7.210250000000001
 20
2.892500000000001
 30
0
 11
7.217000000000001
 21
2.890000000000001
 31
0
  0
LINE
  8
0
 62
7
 10
7.217000000000001
 20
2.890000000000001
 30
0
 11
7.226000000000001
 21
2.890000000000001
 31
0
  0
LINE
  8
0
 62
7
 10
7.226000000000001
 20
2.890000000000001
 30
0
 11
7.232750000000002
 21
2.892500000000001
 31
0
  0
LINE
  8
0
 62
7
 10
7.232750000000002
 20
2.892500000000001
 30
0
 11
7.2395
 21
2.897500000000001
 31
0
  0
LINE
  8
0
 62
7
 10
7.2395
 20
2.897500000000001
 30
0
 11
7.246250000000001
 21
2.907500000000001
 31
0
  0
LINE
  8
0
 62
7
 10
7.318250000000001
 20
2.935000000000001
 30
0
 11
7.316
 21
2.942500000000001
 31
0
  0
LINE
  8
0
 62
7
 10
7.316
 20
2.942500000000001
 30
0
 11
7.309250000000002
 21
2.952500000000001
 31
0
  0
LINE
  8
0
 62
7
 10
7.309250000000002
 20
2.952500000000001
 30
0
 11
7.302500000000001
 21
2.957500000000001
 31
0
  0
LINE
  8
0
 62
7
 10
7.302500000000001
 20
2.957500000000001
 30
0
 11
7.29575
 21
2.960000000000001
 31
0
  0
LINE
  8
0
 62
7
 10
7.29575
 20
2.960000000000001
 30
0
 11
7.286750000000001
 21
2.960000000000001
 31
0
  0
LINE
  8
0
 62
7
 10
7.286750000000001
 20
2.960000000000001
 30
0
 11
7.28
 21
2.957500000000001
 31
0
  0
LINE
  8
0
 62
7
 10
7.28
 20
2.957500000000001
 30
0
 11
7.273250000000001
 21
2.952500000000001
 31
0
  0
LINE
  8
0
 62
7
 10
7.273250000000001
 20
2.952500000000001
 30
0
 11
7.266500000000001
 21
2.942500000000001
 31
0
  0
LINE
  8
0
 62
7
 10
7.266500000000001
 20
2.942500000000001
 30
0
 11
7.264250000000001
 21
2.935000000000001
 31
0
  0
LINE
  8
0
 62
7
 10
7.264250000000001
 20
2.935000000000001
 30
0
 11
7.264250000000001
 21
2.915000000000001
 31
0
  0
LINE
  8
0
 62
7
 10
7.264250000000001
 20
2.915000000000001
 30
0
 11
7.266500000000001
 21
2.907500000000001
 31
0
  0
LINE
  8
0
 62
7
 10
7.266500000000001
 20
2.907500000000001
 30
0
 11
7.273250000000001
 21
2.897500000000001
 31
0
  0
LINE
  8
0
 62
7
 10
7.273250000000001
 20
2.897500000000001
 30
0
 11
7.28
 21
2.892500000000001
 31
0
  0
LINE
  8
0
 62
7
 10
7.28
 20
2.892500000000001
 30
0
 11
7.286750000000001
 21
2.890000000000001
 31
0
  0
LINE
  8
0
 62
7
 10
7.286750000000001
 20
2.890000000000001
 30
0
 11
7.29575
 21
2.890000000000001
 31
0
  0
LINE
  8
0
 62
7
 10
7.29575
 20
2.890000000000001
 30
0
 11
7.302500000000001
 21
2.892500000000001
 31
0
  0
LINE
  8
0
 62
7
 10
7.302500000000001
 20
2.892500000000001
 30
0
 11
7.309250000000002
 21
2.897500000000001
 31
0
  0
LINE
  8
0
 62
7
 10
7.309250000000002
 20
2.897500000000001
 30
0
 11
7.316
 21
2.907500000000001
 31
0
  0
LINE
  8
0
 62
7
 10
7.316
 20
2.907500000000001
 30
0
 11
7.318250000000001
 21
2.915000000000001
 31
0
  0
LINE
  8
0
 62
7
 10
7.318250000000001
 20
2.960000000000001
 30
0
 11
7.318250000000001
 21
2.935000000000001
 31
0
  0
LINE
  8
0
 62
7
 10
7.318250000000001
 20
2.892500000000001
 30
0
 11
7.320500000000002
 21
2.890000000000001
 31
0
  0
LINE
  8
0
 62
7
 10
7.320500000000002
 20
2.890000000000001
 30
0
 11
7.322750000000001
 21
2.890000000000001
 31
0
  0
LINE
  8
0
 62
7
 10
7.318250000000001
 20
2.915000000000001
 30
0
 11
7.318250000000001
 21
2.892500000000001
 31
0
  0
LINE
  8
0
 62
7
 10
7.318250000000001
 20
2.935000000000001
 30
0
 11
7.318250000000001
 21
2.915000000000001
 31
0
  0
LINE
  8
0
 62
7
 10
7.34075
 20
2.890000000000001
 30
0
 11
7.34075
 21
2.892500000000001
 31
0
  0
LINE
  8
0
 62
7
 10
7.34075
 20
2.892500000000001
 30
0
 11
7.343000000000001
 21
2.892500000000001
 31
0
  0
LINE
  8
0
 62
7
 10
7.343000000000001
 20
2.892500000000001
 30
0
 11
7.343000000000001
 21
2.890000000000001
 31
0
  0
LINE
  8
0
 62
7
 10
7.343000000000001
 20
2.890000000000001
 30
0
 11
7.34075
 21
2.890000000000001
 31
0
  0
LINE
  8
0
 62
7
 10
7.466750000000001
 20
2.990000000000001
 30
0
 11
7.475750000000001
 21
2.990000000000001
 31
0
  0
LINE
  8
0
 62
7
 10
7.475750000000001
 20
2.990000000000001
 30
0
 11
7.482500000000001
 21
2.987500000000001
 31
0
  0
LINE
  8
0
 62
7
 10
7.482500000000001
 20
2.987500000000001
 30
0
 11
7.487000000000001
 21
2.982500000000001
 31
0
  0
LINE
  8
0
 62
7
 10
7.487000000000001
 20
2.982500000000001
 30
0
 11
7.491500000000001
 21
2.975000000000001
 31
0
  0
LINE
  8
0
 62
7
 10
7.491500000000001
 20
2.975000000000001
 30
0
 11
7.491500000000001
 21
2.965000000000001
 31
0
  0
LINE
  8
0
 62
7
 10
7.491500000000001
 20
2.965000000000001
 30
0
 11
7.489250000000002
 21
2.960000000000001
 31
0
  0
LINE
  8
0
 62
7
 10
7.489250000000002
 20
2.960000000000001
 30
0
 11
7.482500000000001
 21
2.952500000000001
 31
0
  0
LINE
  8
0
 62
7
 10
7.482500000000001
 20
2.952500000000001
 30
0
 11
7.475750000000001
 21
2.950000000000001
 31
0
  0
LINE
  8
0
 62
7
 10
7.475750000000001
 20
2.950000000000001
 30
0
 11
7.466750000000001
 21
2.950000000000001
 31
0
  0
LINE
  8
0
 62
7
 10
7.466750000000001
 20
2.950000000000001
 30
0
 11
7.460000000000001
 21
2.952500000000001
 31
0
  0
LINE
  8
0
 62
7
 10
7.460000000000001
 20
2.952500000000001
 30
0
 11
7.453250000000001
 21
2.960000000000001
 31
0
  0
LINE
  8
0
 62
7
 10
7.453250000000001
 20
2.960000000000001
 30
0
 11
7.451000000000001
 21
2.965000000000001
 31
0
  0
LINE
  8
0
 62
7
 10
7.451000000000001
 20
2.965000000000001
 30
0
 11
7.451000000000001
 21
2.975000000000001
 31
0
  0
LINE
  8
0
 62
7
 10
7.451000000000001
 20
2.975000000000001
 30
0
 11
7.455500000000001
 21
2.982500000000001
 31
0
  0
LINE
  8
0
 62
7
 10
7.455500000000001
 20
2.982500000000001
 30
0
 11
7.460000000000001
 21
2.987500000000001
 31
0
  0
LINE
  8
0
 62
7
 10
7.460000000000001
 20
2.987500000000001
 30
0
 11
7.466750000000001
 21
2.990000000000001
 31
0
  0
LINE
  8
0
 62
7
 10
7.466750000000001
 20
2.950000000000001
 30
0
 11
7.455500000000001
 21
2.945000000000001
 31
0
  0
LINE
  8
0
 62
7
 10
7.455500000000001
 20
2.945000000000001
 30
0
 11
7.44875
 21
2.937500000000001
 31
0
  0
LINE
  8
0
 62
7
 10
7.44875
 20
2.937500000000001
 30
0
 11
7.444250000000001
 21
2.927500000000001
 31
0
  0
LINE
  8
0
 62
7
 10
7.444250000000001
 20
2.927500000000001
 30
0
 11
7.444250000000001
 21
2.912500000000001
 31
0
  0
LINE
  8
0
 62
7
 10
7.444250000000001
 20
2.912500000000001
 30
0
 11
7.44875
 21
2.902500000000001
 31
0
  0
LINE
  8
0
 62
7
 10
7.44875
 20
2.902500000000001
 30
0
 11
7.455500000000001
 21
2.895000000000001
 31
0
  0
LINE
  8
0
 62
7
 10
7.455500000000001
 20
2.895000000000001
 30
0
 11
7.4645
 21
2.890000000000001
 31
0
  0
LINE
  8
0
 62
7
 10
7.4645
 20
2.890000000000001
 30
0
 11
7.478000000000002
 21
2.890000000000001
 31
0
  0
LINE
  8
0
 62
7
 10
7.478000000000002
 20
2.890000000000001
 30
0
 11
7.487000000000001
 21
2.895000000000001
 31
0
  0
LINE
  8
0
 62
7
 10
7.487000000000001
 20
2.895000000000001
 30
0
 11
7.49375
 21
2.902500000000001
 31
0
  0
LINE
  8
0
 62
7
 10
7.49375
 20
2.902500000000001
 30
0
 11
7.498250000000001
 21
2.912500000000001
 31
0
  0
LINE
  8
0
 62
7
 10
7.498250000000001
 20
2.912500000000001
 30
0
 11
7.498250000000001
 21
2.927500000000001
 31
0
  0
LINE
  8
0
 62
7
 10
7.498250000000001
 20
2.927500000000001
 30
0
 11
7.49375
 21
2.937500000000001
 31
0
  0
LINE
  8
0
 62
7
 10
7.49375
 20
2.937500000000001
 30
0
 11
7.487000000000001
 21
2.945000000000001
 31
0
  0
LINE
  8
0
 62
7
 10
7.487000000000001
 20
2.945000000000001
 30
0
 11
7.475750000000001
 21
2.950000000000001
 31
0
  0
LINE
  8
0
 62
7
 10
7.583750000000001
 20
2.990000000000001
 30
0
 11
7.534250000000002
 21
2.990000000000001
 31
0
  0
LINE
  8
0
 62
7
 10
7.534250000000002
 20
2.990000000000001
 30
0
 11
7.534250000000002
 21
2.940000000000001
 31
0
  0
LINE
  8
0
 62
7
 10
7.534250000000002
 20
2.940000000000001
 30
0
 11
7.53875
 21
2.947500000000001
 31
0
  0
LINE
  8
0
 62
7
 10
7.53875
 20
2.947500000000001
 30
0
 11
7.545500000000001
 21
2.952500000000001
 31
0
  0
LINE
  8
0
 62
7
 10
7.545500000000001
 20
2.952500000000001
 30
0
 11
7.554500000000001
 21
2.955000000000001
 31
0
  0
LINE
  8
0
 62
7
 10
7.554500000000001
 20
2.955000000000001
 30
0
 11
7.568000000000001
 21
2.955000000000001
 31
0
  0
LINE
  8
0
 62
7
 10
7.568000000000001
 20
2.955000000000001
 30
0
 11
7.574750000000001
 21
2.952500000000001
 31
0
  0
LINE
  8
0
 62
7
 10
7.574750000000001
 20
2.952500000000001
 30
0
 11
7.581500000000002
 21
2.947500000000001
 31
0
  0
LINE
  8
0
 62
7
 10
7.581500000000002
 20
2.947500000000001
 30
0
 11
7.586
 21
2.940000000000001
 31
0
  0
LINE
  8
0
 62
7
 10
7.586
 20
2.940000000000001
 30
0
 11
7.588250000000001
 21
2.930000000000001
 31
0
  0
LINE
  8
0
 62
7
 10
7.588250000000001
 20
2.930000000000001
 30
0
 11
7.588250000000001
 21
2.915000000000001
 31
0
  0
LINE
  8
0
 62
7
 10
7.588250000000001
 20
2.915000000000001
 30
0
 11
7.586
 21
2.905000000000001
 31
0
  0
LINE
  8
0
 62
7
 10
7.586
 20
2.905000000000001
 30
0
 11
7.581500000000002
 21
2.897500000000001
 31
0
  0
LINE
  8
0
 62
7
 10
7.581500000000002
 20
2.897500000000001
 30
0
 11
7.574750000000001
 21
2.892500000000001
 31
0
  0
LINE
  8
0
 62
7
 10
7.574750000000001
 20
2.892500000000001
 30
0
 11
7.568000000000001
 21
2.890000000000001
 31
0
  0
LINE
  8
0
 62
7
 10
7.568000000000001
 20
2.890000000000001
 30
0
 11
7.554500000000001
 21
2.890000000000001
 31
0
  0
LINE
  8
0
 62
7
 10
7.554500000000001
 20
2.890000000000001
 30
0
 11
7.545500000000001
 21
2.892500000000001
 31
0
  0
LINE
  8
0
 62
7
 10
7.545500000000001
 20
2.892500000000001
 30
0
 11
7.53875
 21
2.897500000000001
 31
0
  0
LINE
  8
0
 62
7
 10
7.53875
 20
2.897500000000001
 30
0
 11
7.534250000000002
 21
2.905000000000001
 31
0
  0
LINE
  8
0
 62
7
 10
7.739000000000002
 20
2.942500000000001
 30
0
 11
7.732250000000001
 21
2.952500000000001
 31
0
  0
LINE
  8
0
 62
7
 10
7.732250000000001
 20
2.952500000000001
 30
0
 11
7.725500000000001
 21
2.957500000000001
 31
0
  0
LINE
  8
0
 62
7
 10
7.725500000000001
 20
2.957500000000001
 30
0
 11
7.71875
 21
2.960000000000001
 31
0
  0
LINE
  8
0
 62
7
 10
7.71875
 20
2.960000000000001
 30
0
 11
7.70975
 21
2.960000000000001
 31
0
  0
LINE
  8
0
 62
7
 10
7.70975
 20
2.960000000000001
 30
0
 11
7.703000000000002
 21
2.957500000000001
 31
0
  0
LINE
  8
0
 62
7
 10
7.703000000000002
 20
2.957500000000001
 30
0
 11
7.696250000000001
 21
2.952500000000001
 31
0
  0
LINE
  8
0
 62
7
 10
7.696250000000001
 20
2.952500000000001
 30
0
 11
7.6895
 21
2.942500000000001
 31
0
  0
LINE
  8
0
 62
7
 10
7.6895
 20
2.942500000000001
 30
0
 11
7.687250000000001
 21
2.935000000000001
 31
0
  0
LINE
  8
0
 62
7
 10
7.687250000000001
 20
2.935000000000001
 30
0
 11
7.687250000000001
 21
2.915000000000001
 31
0
  0
LINE
  8
0
 62
7
 10
7.687250000000001
 20
2.915000000000001
 30
0
 11
7.6895
 21
2.907500000000001
 31
0
  0
LINE
  8
0
 62
7
 10
7.6895
 20
2.907500000000001
 30
0
 11
7.696250000000001
 21
2.897500000000001
 31
0
  0
LINE
  8
0
 62
7
 10
7.696250000000001
 20
2.897500000000001
 30
0
 11
7.703000000000002
 21
2.892500000000001
 31
0
  0
LINE
  8
0
 62
7
 10
7.703000000000002
 20
2.892500000000001
 30
0
 11
7.70975
 21
2.890000000000001
 31
0
  0
LINE
  8
0
 62
7
 10
7.70975
 20
2.890000000000001
 30
0
 11
7.71875
 21
2.890000000000001
 31
0
  0
LINE
  8
0
 62
7
 10
7.71875
 20
2.890000000000001
 30
0
 11
7.725500000000001
 21
2.892500000000001
 31
0
  0
LINE
  8
0
 62
7
 10
7.725500000000001
 20
2.892500000000001
 30
0
 11
7.732250000000001
 21
2.897500000000001
 31
0
  0
LINE
  8
0
 62
7
 10
7.732250000000001
 20
2.897500000000001
 30
0
 11
7.739000000000002
 21
2.907500000000001
 31
0
  0
LINE
  8
0
 62
7
 10
7.797500000000001
 20
2.935000000000001
 30
0
 11
7.797500000000001
 21
2.890000000000001
 31
0
  0
LINE
  8
0
 62
7
 10
7.757000000000001
 20
2.960000000000001
 30
0
 11
7.757000000000001
 21
2.935000000000001
 31
0
  0
LINE
  8
0
 62
7
 10
7.757000000000001
 20
2.890000000000001
 30
0
 11
7.757000000000001
 21
2.935000000000001
 31
0
  0
LINE
  8
0
 62
7
 10
7.757000000000001
 20
2.935000000000001
 30
0
 11
7.759250000000002
 21
2.947500000000001
 31
0
  0
LINE
  8
0
 62
7
 10
7.759250000000002
 20
2.947500000000001
 30
0
 11
7.761500000000002
 21
2.952500000000001
 31
0
  0
LINE
  8
0
 62
7
 10
7.761500000000002
 20
2.952500000000001
 30
0
 11
7.766
 21
2.957500000000001
 31
0
  0
LINE
  8
0
 62
7
 10
7.766
 20
2.957500000000001
 30
0
 11
7.772750000000001
 21
2.960000000000001
 31
0
  0
LINE
  8
0
 62
7
 10
7.772750000000001
 20
2.960000000000001
 30
0
 11
7.781750000000001
 21
2.960000000000001
 31
0
  0
LINE
  8
0
 62
7
 10
7.781750000000001
 20
2.960000000000001
 30
0
 11
7.788500000000001
 21
2.957500000000001
 31
0
  0
LINE
  8
0
 62
7
 10
7.788500000000001
 20
2.957500000000001
 30
0
 11
7.793000000000001
 21
2.952500000000001
 31
0
  0
LINE
  8
0
 62
7
 10
7.793000000000001
 20
2.952500000000001
 30
0
 11
7.795250000000002
 21
2.947500000000001
 31
0
  0
LINE
  8
0
 62
7
 10
7.795250000000002
 20
2.947500000000001
 30
0
 11
7.797500000000001
 21
2.935000000000001
 31
0
  0
LINE
  8
0
 62
7
 10
7.797500000000001
 20
2.935000000000001
 30
0
 11
7.79975
 21
2.947500000000001
 31
0
  0
LINE
  8
0
 62
7
 10
7.79975
 20
2.947500000000001
 30
0
 11
7.802
 21
2.952500000000001
 31
0
  0
LINE
  8
0
 62
7
 10
7.802
 20
2.952500000000001
 30
0
 11
7.806500000000002
 21
2.957500000000001
 31
0
  0
LINE
  8
0
 62
7
 10
7.806500000000002
 20
2.957500000000001
 30
0
 11
7.813250000000001
 21
2.960000000000001
 31
0
  0
LINE
  8
0
 62
7
 10
7.813250000000001
 20
2.960000000000001
 30
0
 11
7.82225
 21
2.960000000000001
 31
0
  0
LINE
  8
0
 62
7
 10
7.82225
 20
2.960000000000001
 30
0
 11
7.829000000000001
 21
2.957500000000001
 31
0
  0
LINE
  8
0
 62
7
 10
7.833500000000001
 20
2.952500000000001
 30
0
 11
7.829000000000001
 21
2.957500000000001
 31
0
  0
LINE
  8
0
 62
7
 10
7.829000000000001
 20
2.957500000000001
 30
0
 11
7.833500000000001
 21
2.952500000000001
 31
0
  0
LINE
  8
0
 62
7
 10
7.833500000000001
 20
2.952500000000001
 30
0
 11
7.835750000000001
 21
2.947500000000001
 31
0
  0
LINE
  8
0
 62
7
 10
7.835750000000001
 20
2.947500000000001
 30
0
 11
7.838000000000001
 21
2.935000000000001
 31
0
  0
LINE
  8
0
 62
7
 10
7.838000000000001
 20
2.935000000000001
 30
0
 11
7.838000000000001
 21
2.890000000000001
 31
0
  0
ARC
  8
0
 62
7
 10
6.460106090014962
 20
3.685106090014961
 30
0
 40
0.5020000000000036
 50
359.987891412952
 51
90.01210858353042
  0
ARC
  8
0
 62
7
 10
5.754893909985045
 20
3.685106090014972
 30
0
 40
0.5019999999999916
 50
89.98789141295205
 51
180.0121085826057
  0
CIRCLE
  8
0
 62
7
 10
5.252893921195293
 20
3.250000000000001
 30
0
 40
0.0600000000000005
  0
DIMENSION
  8
0
  6
CONTINUOUS
 62
7
  2
*D0
  3
DMST_1
 10
7.978545120791441
 20
3.350000000000001
 30
0
 11
7.978545120791441
 21
3.98794411812298
 31
0
 12
0
 22
0
 32
0
 70
0
 13
7.600000000000001
 23
4.650000000000002
 33
0
 14
7.600000000000001
 24
3.350000000000001
 34
0
 50
90
 53
0
  0
DIMENSION
  8
0
  6
CONTINUOUS
 62
7
  2
*D1
  3
DMST_1
 10
7.425000000000002
 20
5.55183417206041
 30
0
 11
6.133643572787121
 21
5.55183417206041
 31
0
 12
0
 22
0
 32
0
 70
0
 13
4.790000000000002
 23
5.169999999999999
 33
0
 14
7.425000000000002
 24
5.169999999999999
 34
0
 53
0
  0
DIMENSION
  8
0
  6
CONTINUOUS
 62
7
  2
*D2
  3
DMST_1
 10
4.22765256955088
 20
3.250000000000001
 30
0
 11
4.22765256955088
 21
3.92685466289105
 31
0
 12
0
 22
0
 32
0
 70
0
 13
4.615000000000001
 23
4.650000000000001
 33
0
 14
4.615000000000001
 24
3.250000000000001
 34
0
 50
90
 53
0
  0
DIMENSION
  8
0
  6
CONTINUOUS
 62
7
  2
*D3
  3
DMST_2
 10
4.790000000000001
 20
11.5019471116505
 30
0
 11
6.08477200860158
 21
11.5019471116505
 31
0
 12
0
 22
0
 32
0
 70
0
 13
7.425000000000001
 23
11.2
 33
0
 14
4.79
 24
11.2
 34
0
 53
0
  0
INSERT
  8
0
  2
*D4
 10
0
 20
0
 30
0
  0
ENDSEC
  0
EOF
