  0
SECTION
  2
HEADER
  9
$ACADVER
  1
AC1009
  9
$INSBASE
 10
0
 20
0
  9
$EXTMIN
 10
0.45
 20
2.890000000000001
  9
$EXTMAX
 10
8.187615891670928
 20
11.4930048543689
  9
$LIMMIN
 10
0.45
 20
2.890000000000001
  9
$LIMMAX
 10
8.187615891670928
 20
11.4930048543689
  9
$VIEWCTR
 10
10
 20
10
  9
$VIEWSIZE
 40
10
  9
$SNAPMODE
 70
0
  9
$SNAPUNIT
 10
1
 20
1
  9
$SNAPBASE
 10
0
 20
0
  9
$SNAPANG
 50
0
  9
$SNAPSTYLE
 70
0
  9
$SNAPISOPAIR
 70
0
  9
$GRIDMODE
 70
0
  9
$GRIDUNIT
 10
0
 20
0
  9
$ORTHOMODE
 70
0
  9
$REGENMODE
 70
1
  9
$FILLMODE
 70
1
  9
$QTEXTMODE
 70
0
  9
$DRAGMODE
 70
2
  9
$LTSCALE
 40
1
  9
$OSMODE
 70
0
  9
$ATTMODE
 70
1
  9
$TEXTSIZE
 40
3.5
  9
$TRACEWID
 40
0.5
  9
$TEXTSTYLE
  7
STANDARD
  9
$CLAYER
  8
0
  9
$CELTYPE
  6
BYLAYER
  9
$CECOLOR
 62
256
  9
$DIMSCALE
 40
1
  9
$DIMASZ
 40
0.18
  9
$DIMEXO
 40
0.0625
  9
$DIMDLI
 40
0.38
  9
$DIMRND
 40
0
  9
$DIMDLE
 40
0
  9
$DIMEXE
 40
0.18
  9
$DIMTP
 40
0
  9
$DIMTM
 40
0
  9
$DIMTXT
 40
0.18
  9
$DIMCEN
 40
0.09
  9
$DIMTSZ
 40
0
  9
$DIMTOL
 70
0
  9
$DIMLIM
 70
0
  9
$DIMTIH
 70
1
  9
$DIMTOH
 70
1
  9
$DIMSE1
 70
0
  9
$DIMSE2
 70
0
  9
$DIMTAD
 70
0
  9
$DIMZIN
 70
0
  9
$DIMBLK
  1

  9
$DIMASO
 70
1
  9
$DIMSHO
 70
1
  9
$DIMPOST
  1

  9
$DIMAPOST
  1

  9
$DIMALT
 70
0
  9
$DIMALTD
 70
2
  9
$DIMALTF
 40
25.4
  9
$DIMLFAC
 40
1
  9
$DIMTOFL
 70
0
  9
$DIMTVP
 40
0
  9
$DIMTIX
 70
0
  9
$DIMSOXD
 70
0
  9
$DIMSAH
 70
0
  9
$DIMBLK1
  1

  9
$DIMBLK2
  1

  9
$DIMSTYLE
  2
*UNNAMED
  9
$DIMCLRD
 70
0
  9
$DIMCLRE
 70
0
  9
$DIMCLRT
 70
0
  9
$DIMTFAC
 40
1
  9
$DIMGAP
 40
0.09
  9
$LUNITS
 70
2
  9
$LUPREC
 70
4
  9
$AXISMODE
 70
0
  9
$AXISUNIT
 10
0
 20
0
  9
$SKETCHINC
 40
0.1
  9
$FILLETRAD
 40
2
  9
$AUNITS
 70
0
  9
$AUPREC
 70
0
  9
$MENU
  1
ACAD
  9
$ELEVATION
 40
0
  9
$THICKNESS
 40
0
  9
$VIEWDIR
 10
0
 20
0
 30
1
  9
$LIMCHECK
 70
0
  9
$BLIPMODE
 70
1
  9
$CHAMFERA
 40
0
  9
$CHAMFERB
 40
0
  9
$FASTZOOM
 70
1
  9
$SKPOLY
 70
0
  9
$ANGBASE
 50
0
  9
$ANGDIR
 70
0
  9
$PDMODE
 70
0
  9
$PDSIZE
 40
0
  9
$PLINEWID
 40
0
  9
$COORDS
 70
2
  0
ENDSEC
  0
SECTION
  2
TABLES
  0
TABLE
  2
DIMSTYLE
 70
2
  0
DIMSTYLE
  2
DMST_1
 70
0
  3

  4

  5

  6

  7

 40
1
 41
0.1
 42
0
 43
0.7
 44
0.2
 45
0
 46
0
 47
0
 48
0
140
0.1
141
0
142
0.1
143
25.4
144
1
145
0
146
1
147
0.2
 71
0
 72
0
 73
0
 74
0
 75
0
 76
0
 77
0
 78
9
170
0
171
2
172
0
173
0
174
0
175
0
176
7
177
7
178
7
  0
DIMSTYLE
  2
DMST_2
 70
0
  3

  4

  5

  6

  7

 40
1
 41
0.1
 42
0
 43
0.7
 44
0.2
 45
0
 46
0
 47
0
 48
0
140
0.1
141
0
142
0.1
143
25.4
144
1
145
0
146
1
147
0.25
 71
0
 72
0
 73
0
 74
0
 75
0
 76
0
 77
0
 78
9
170
0
171
2
172
0
173
0
174
0
175
0
176
7
177
7
178
7
  0
ENDTAB
  0
TABLE
  2
LTYPE
 70
9
  0
LTYPE
  2
CONTINUOUS
 70
64
  3
Solid line
 72
65
 73
0
 40
0
  0
LTYPE
  2
BORDER
 70
64
  3
__ __ . __ __ .
 72
65
 73
6
 40
0.3961910130301466
 49
0.1131974322943276
 49
-0.05659871614716381
 49
0.1131974322943276
 49
-0.05659871614716381
 49
0
 49
-0.05659871614716381
  0
LTYPE
  2
CENTER
 70
64
  3
____ _ ____ _
 72
65
 73
4
 40
0.4527897291773105
 49
0.282993580735819
 49
-0.05659871614716381
 49
0.05659871614716381
 49
-0.05659871614716381
  0
LTYPE
  2
DASHDOT
 70
64
  3
__ . __ . __ .
 72
65
 73
4
 40
0.2263948645886552
 49
0.1131974322943276
 49
-0.05659871614716381
 49
0
 49
-0.05659871614716381
  0
LTYPE
  2
DASHED
 70
64
  3
__ __ __ __ __
 72
65
 73
2
 40
0.1697961484414914
 49
0.1131974322943276
 49
-0.05659871614716381
  0
LTYPE
  2
DIVIDE
 70
64
  3
__ . . __ . . 
 72
65
 73
6
 40
0.282993580735819
 49
0.1131974322943276
 49
-0.05659871614716381
 49
0
 49
-0.05659871614716381
 49
0
 49
-0.05659871614716381
  0
LTYPE
  2
DOT
 70
64
  3
..............
 72
65
 73
4
 40
0.1131974322943276
 49
0
 49
-0.05659871614716381
 49
0
 49
-0.05659871614716381
  0
LTYPE
  2
HIDDEN
 70
64
  3
_ _ _ _ _ _ _
 72
65
 73
2
 40
0.08489807422074572
 49
0.05659871614716381
 49
-0.0282993580735819
  0
LTYPE
  2
PHANTOM
 70
64
  3
_____ _ _ _____ _ _ 
 72
65
 73
6
 40
0.5659871614716381
 49
0.282993580735819
 49
-0.05659871614716381
 49
0.05659871614716381
 49
-0.05659871614716381
 49
0.05659871614716381
 49
-0.05659871614716381
  0
ENDTAB
  0
TABLE
  2
LAYER
 70
2
  0
LAYER
  2
0
 70
0
 62
7
  6
CONTINUOUS
  0
ENDTAB
  0
TABLE
  2
STYLE
 70
4
  0
STYLE
  2
STANDARD
 70
0
 40
0
 41
1
 50
0
 71
0
 42
3.5
  3
txt
  4

  0
STYLE
  2
SIMPLEX
 70
0
 40
0
 41
1
 50
0
 71
0
 42
3.5
  3
simplex
  4

  0
STYLE
  2
COMPLEX
 70
0
 40
0
 41
1
 50
0
 71
0
 42
3.5
  3
complex
  4

  0
STYLE
  2
ITALIC
 70
0
 40
0
 41
1
 50
0
 71
0
 42
3.5
  3
italic
  4

  0
ENDTAB
  0
TABLE
  2
VIEW
 70
0
  0
ENDTAB
  0
ENDSEC
  0
SECTION
  2
BLOCKS
  0
BLOCK
  8
0
  2
*X0
 70
1
 10
0
 20
0
 30
0
  0
LINE
  8
0
 62
7
 10
7.425000000000001
 20
7.955330085889911
 30
0
 11
7.569669914110086
 21
8.099999999999996
 31
0
  0
LINE
  8
0
 62
7
 10
7.425
 20
8.061396103067892
 30
0
 11
7.463603896932104
 21
8.099999999999994
 31
0
  0
LINE
  8
0
 62
7
 10
7.52573593128807
 20
7.949999999999997
 30
0
 11
7.600000000000001
 21
8.024264068711927
 31
0
  0
ENDBLK
  8
0
  0
BLOCK
  8
0
  2
*X1
 70
1
 10
0
 20
0
 30
0
  0
LINE
  8
0
 62
7
 10
7.425
 20
10.71304653251744
 30
0
 11
7.561953467482555
 21
10.85
 31
0
  0
LINE
  8
0
 62
7
 10
7.425
 20
10.50091449816148
 30
0
 11
7.600000000000002
 21
10.67591449816148
 31
0
  0
LINE
  8
0
 62
7
 10
7.425
 20
10.28878246380551
 30
0
 11
7.600000000000002
 21
10.46378246380551
 31
0
  0
LINE
  8
0
 62
7
 10
7.425
 20
10.07665042944955
 30
0
 11
7.600000000000002
 21
10.25165042944955
 31
0
  0
LINE
  8
0
 62
7
 10
7.425
 20
9.864518395093585
 30
0
 11
7.600000000000002
 21
10.03951839509359
 31
0
  0
LINE
  8
0
 62
7
 10
7.425
 20
9.652386360737621
 30
0
 11
7.600000000000002
 21
9.827386360737622
 31
0
  0
LINE
  8
0
 62
7
 10
7.425
 20
9.440254326381657
 30
0
 11
7.600000000000002
 21
9.615254326381658
 31
0
  0
LINE
  8
0
 62
7
 10
7.425
 20
9.228122292025693
 30
0
 11
7.600000000000002
 21
9.403122292025694
 31
0
  0
LINE
  8
0
 62
7
 10
7.425
 20
9.01599025766973
 30
0
 11
7.600000000000002
 21
9.19099025766973
 31
0
  0
LINE
  8
0
 62
7
 10
7.425
 20
8.803858223313766
 30
0
 11
7.600000000000002
 21
8.978858223313766
 31
0
  0
LINE
  8
0
 62
7
 10
7.425
 20
8.591726188957802
 30
0
 11
7.600000000000002
 21
8.766726188957803
 31
0
  0
LINE
  8
0
 62
7
 10
7.425
 20
8.379594154601838
 30
0
 11
7.600000000000002
 21
8.554594154601839
 31
0
  0
LINE
  8
0
 62
7
 10
7.557537879754124
 20
8.299999999999997
 30
0
 11
7.600000000000002
 21
8.342462120245875
 31
0
  0
LINE
  8
0
 62
7
 10
7.425000000000001
 20
10.81911254969542
 30
0
 11
7.455887450304573
 21
10.85
 31
0
  0
LINE
  8
0
 62
7
 10
7.425000000000001
 20
10.60698051533946
 30
0
 11
7.600000000000002
 21
10.78198051533946
 31
0
  0
LINE
  8
0
 62
7
 10
7.425000000000001
 20
10.3948484809835
 30
0
 11
7.600000000000002
 21
10.5698484809835
 31
0
  0
LINE
  8
0
 62
7
 10
7.425000000000001
 20
10.18271644662753
 30
0
 11
7.600000000000002
 21
10.35771644662753
 31
0
  0
LINE
  8
0
 62
7
 10
7.425000000000001
 20
9.970584412271569
 30
0
 11
7.600000000000002
 21
10.14558441227157
 31
0
  0
LINE
  8
0
 62
7
 10
7.425000000000001
 20
9.758452377915605
 30
0
 11
7.600000000000002
 21
9.933452377915604
 31
0
  0
LINE
  8
0
 62
7
 10
7.425000000000001
 20
9.546320343559641
 30
0
 11
7.600000000000002
 21
9.72132034355964
 31
0
  0
LINE
  8
0
 62
7
 10
7.425000000000001
 20
9.334188309203677
 30
0
 11
7.600000000000002
 21
9.509188309203676
 31
0
  0
LINE
  8
0
 62
7
 10
7.425000000000001
 20
9.122056274847713
 30
0
 11
7.600000000000002
 21
9.297056274847712
 31
0
  0
LINE
  8
0
 62
7
 10
7.425000000000001
 20
8.909924240491749
 30
0
 11
7.600000000000002
 21
9.084924240491748
 31
0
  0
LINE
  8
0
 62
7
 10
7.425000000000001
 20
8.697792206135786
 30
0
 11
7.600000000000002
 21
8.872792206135784
 31
0
  0
LINE
  8
0
 62
7
 10
7.425000000000001
 20
8.485660171779822
 30
0
 11
7.600000000000002
 21
8.660660171779821
 31
0
  0
LINE
  8
0
 62
7
 10
7.451471862576141
 20
8.299999999999997
 30
0
 11
7.600000000000002
 21
8.448528137423857
 31
0
  0
ENDBLK
  8
0
  0
BLOCK
  8
0
  2
*X2
 70
1
 10
0
 20
0
 30
0
  0
LINE
  8
0
 62
7
 10
7.425000000000002
 20
11.13731060122938
 30
0
 11
7.487689398770626
 21
11.2
 31
0
  0
LINE
  8
0
 62
7
 10
7.549821433126593
 20
11.05
 30
0
 11
7.600000000000002
 21
11.10017856687341
 31
0
  0
LINE
  8
0
 62
7
 10
7.44375541594861
 20
11.05
 30
0
 11
7.593755415948609
 21
11.2
 31
0
  0
ENDBLK
  8
0
  0
BLOCK
  8
0
  2
*X3
 70
1
 10
0
 20
0
 30
0
  0
LINE
  8
0
 62
7
 10
4.490000000000001
 20
7.990178566873411
 30
0
 11
4.599821433126587
 21
8.099999999999996
 31
0
  0
LINE
  8
0
 62
7
 10
4.661953467482551
 20
7.949999999999996
 30
0
 11
4.665000000000001
 21
7.953046532517447
 31
0
  0
LINE
  8
0
 62
7
 10
4.490000000000001
 20
8.096244584051393
 30
0
 11
4.493755415948604
 21
8.099999999999994
 31
0
  0
LINE
  8
0
 62
7
 10
4.555887450304569
 20
7.949999999999997
 30
0
 11
4.665000000000001
 21
8.059112549695428
 31
0
  0
ENDBLK
  8
0
  0
BLOCK
  8
0
  2
*X4
 70
1
 10
0
 20
0
 30
0
  0
LINE
  8
0
 62
7
 10
4.490000000000001
 20
10.74789501350094
 30
0
 11
4.592104986499056
 21
10.85
 31
0
  0
LINE
  8
0
 62
7
 10
4.490000000000001
 20
10.53576297914498
 30
0
 11
4.665000000000002
 21
10.71076297914498
 31
0
  0
LINE
  8
0
 62
7
 10
4.490000000000001
 20
10.32363094478901
 30
0
 11
4.665000000000002
 21
10.49863094478901
 31
0
  0
LINE
  8
0
 62
7
 10
4.490000000000001
 20
10.11149891043305
 30
0
 11
4.665000000000002
 21
10.28649891043305
 31
0
  0
LINE
  8
0
 62
7
 10
4.490000000000001
 20
9.899366876077085
 30
0
 11
4.665000000000002
 21
10.07436687607709
 31
0
  0
LINE
  8
0
 62
7
 10
4.490000000000001
 20
9.687234841721121
 30
0
 11
4.665000000000002
 21
9.862234841721122
 31
0
  0
LINE
  8
0
 62
7
 10
4.490000000000001
 20
9.475102807365158
 30
0
 11
4.665000000000002
 21
9.650102807365158
 31
0
  0
LINE
  8
0
 62
7
 10
4.490000000000001
 20
9.262970773009194
 30
0
 11
4.665000000000002
 21
9.437970773009194
 31
0
  0
LINE
  8
0
 62
7
 10
4.490000000000001
 20
9.05083873865323
 30
0
 11
4.665000000000002
 21
9.225838738653231
 31
0
  0
LINE
  8
0
 62
7
 10
4.490000000000001
 20
8.838706704297266
 30
0
 11
4.665000000000002
 21
9.013706704297267
 31
0
  0
LINE
  8
0
 62
7
 10
4.490000000000001
 20
8.626574669941302
 30
0
 11
4.665000000000002
 21
8.801574669941303
 31
0
  0
LINE
  8
0
 62
7
 10
4.490000000000001
 20
8.414442635585338
 30
0
 11
4.665000000000002
 21
8.589442635585339
 31
0
  0
LINE
  8
0
 62
7
 10
4.587689398770625
 20
8.299999999999999
 30
0
 11
4.665000000000002
 21
8.377310601229375
 31
0
  0
LINE
  8
0
 62
7
 10
4.490000000000002
 20
10.64182899632296
 30
0
 11
4.665000000000003
 21
10.81682899632296
 31
0
  0
LINE
  8
0
 62
7
 10
4.490000000000002
 20
10.42969696196699
 30
0
 11
4.665000000000003
 21
10.604696961967
 31
0
  0
LINE
  8
0
 62
7
 10
4.490000000000002
 20
10.21756492761103
 30
0
 11
4.665000000000003
 21
10.39256492761103
 31
0
  0
LINE
  8
0
 62
7
 10
4.490000000000002
 20
10.00543289325507
 30
0
 11
4.665000000000003
 21
10.18043289325507
 31
0
  0
LINE
  8
0
 62
7
 10
4.490000000000002
 20
9.793300858899103
 30
0
 11
4.665000000000003
 21
9.968300858899106
 31
0
  0
LINE
  8
0
 62
7
 10
4.490000000000002
 20
9.581168824543139
 30
0
 11
4.665000000000003
 21
9.756168824543142
 31
0
  0
LINE
  8
0
 62
7
 10
4.490000000000002
 20
9.369036790187176
 30
0
 11
4.665000000000003
 21
9.544036790187178
 31
0
  0
LINE
  8
0
 62
7
 10
4.490000000000002
 20
9.156904755831212
 30
0
 11
4.665000000000003
 21
9.331904755831214
 31
0
  0
LINE
  8
0
 62
7
 10
4.490000000000002
 20
8.944772721475248
 30
0
 11
4.665000000000003
 21
9.11977272147525
 31
0
  0
LINE
  8
0
 62
7
 10
4.490000000000002
 20
8.732640687119284
 30
0
 11
4.665000000000003
 21
8.907640687119287
 31
0
  0
LINE
  8
0
 62
7
 10
4.490000000000002
 20
8.52050865276332
 30
0
 11
4.665000000000003
 21
8.695508652763323
 31
0
  0
LINE
  8
0
 62
7
 10
4.490000000000002
 20
8.308376618407356
 30
0
 11
4.665000000000003
 21
8.483376618407359
 31
0
  0
ENDBLK
  8
0
  0
BLOCK
  8
0
  2
*X5
 70
1
 10
0
 20
0
 30
0
  0
LINE
  8
0
 62
7
 10
4.490000000000001
 20
11.17215908221287
 30
0
 11
4.517840917787128
 21
11.2
 31
0
  0
LINE
  8
0
 62
7
 10
4.579972952143093
 20
11.05
 30
0
 11
4.665000000000001
 21
11.13502704785691
 31
0
  0
LINE
  8
0
 62
7
 10
4.490000000000002
 20
11.06609306503489
 30
0
 11
4.62390693496511
 21
11.2
 31
0
  0
ENDBLK
  8
0
  0
BLOCK
  8
0
  2
*X6
 70
1
 10
0
 20
0
 30
0
  0
LINE
  8
0
 62
7
  6
DASHED
 10
4.340000000000002
 20
8.26444263558534
 30
0
 11
4.375557364414665
 21
8.299999999999995
 31
0
  0
LINE
  8
0
 62
7
  6
DASHED
 10
4.387689398770631
 20
8.099999999999998
 30
0
 11
4.587689398770629
 21
8.299999999999995
 31
0
  0
LINE
  8
0
 62
7
  6
DASHED
 10
4.599821433126595
 20
8.099999999999998
 30
0
 11
4.799821433126593
 21
8.299999999999995
 31
0
  0
LINE
  8
0
 62
7
  6
DASHED
 10
4.811953467482558
 20
8.099999999999998
 30
0
 11
5.011953467482557
 21
8.299999999999995
 31
0
  0
LINE
  8
0
 62
7
  6
DASHED
 10
5.024085501838522
 20
8.099999999999998
 30
0
 11
5.224085501838521
 21
8.299999999999995
 31
0
  0
LINE
  8
0
 62
7
  6
DASHED
 10
5.236217536194486
 20
8.099999999999998
 30
0
 11
5.436217536194484
 21
8.299999999999995
 31
0
  0
LINE
  8
0
 62
7
  6
DASHED
 10
5.44834957055045
 20
8.099999999999998
 30
0
 11
5.648349570550448
 21
8.299999999999995
 31
0
  0
LINE
  8
0
 62
7
  6
DASHED
 10
5.660481604906414
 20
8.099999999999998
 30
0
 11
5.860481604906412
 21
8.299999999999995
 31
0
  0
LINE
  8
0
 62
7
  6
DASHED
 10
5.872613639262378
 20
8.099999999999998
 30
0
 11
6.072613639262376
 21
8.299999999999995
 31
0
  0
LINE
  8
0
 62
7
  6
DASHED
 10
6.084745673618341
 20
8.099999999999998
 30
0
 11
6.28474567361834
 21
8.299999999999995
 31
0
  0
LINE
  8
0
 62
7
  6
DASHED
 10
6.296877707974305
 20
8.099999999999998
 30
0
 11
6.496877707974304
 21
8.299999999999995
 31
0
  0
LINE
  8
0
 62
7
  6
DASHED
 10
6.509009742330269
 20
8.099999999999998
 30
0
 11
6.709009742330267
 21
8.299999999999995
 31
0
  0
LINE
  8
0
 62
7
  6
DASHED
 10
6.721141776686233
 20
8.099999999999998
 30
0
 11
6.921141776686231
 21
8.299999999999995
 31
0
  0
LINE
  8
0
 62
7
  6
DASHED
 10
6.933273811042197
 20
8.099999999999998
 30
0
 11
7.133273811042195
 21
8.299999999999995
 31
0
  0
LINE
  8
0
 62
7
  6
DASHED
 10
7.145405845398161
 20
8.099999999999998
 30
0
 11
7.345405845398159
 21
8.299999999999995
 31
0
  0
LINE
  8
0
 62
7
  6
DASHED
 10
7.357537879754124
 20
8.099999999999998
 30
0
 11
7.557537879754123
 21
8.299999999999995
 31
0
  0
LINE
  8
0
 62
7
  6
DASHED
 10
7.569669914110088
 20
8.099999999999998
 30
0
 11
7.75
 21
8.28033008588991
 31
0
  0
LINE
  8
0
 62
7
 10
4.340000000000002
 20
8.158376618407358
 30
0
 11
4.481623381592648
 21
8.299999999999997
 31
0
  0
LINE
  8
0
 62
7
 10
4.493755415948614
 20
8.1
 30
0
 11
4.693755415948612
 21
8.299999999999997
 31
0
  0
LINE
  8
0
 62
7
 10
4.705887450304578
 20
8.1
 30
0
 11
4.905887450304576
 21
8.299999999999997
 31
0
  0
LINE
  8
0
 62
7
 10
4.918019484660542
 20
8.1
 30
0
 11
5.11801948466054
 21
8.299999999999997
 31
0
  0
LINE
  8
0
 62
7
 10
5.130151519016506
 20
8.1
 30
0
 11
5.330151519016503
 21
8.299999999999997
 31
0
  0
LINE
  8
0
 62
7
 10
5.34228355337247
 20
8.1
 30
0
 11
5.542283553372467
 21
8.299999999999997
 31
0
  0
LINE
  8
0
 62
7
 10
5.554415587728434
 20
8.1
 30
0
 11
5.754415587728431
 21
8.299999999999997
 31
0
  0
LINE
  8
0
 62
7
 10
5.766547622084397
 20
8.1
 30
0
 11
5.966547622084395
 21
8.299999999999997
 31
0
  0
LINE
  8
0
 62
7
 10
5.978679656440361
 20
8.1
 30
0
 11
6.178679656440359
 21
8.299999999999997
 31
0
  0
LINE
  8
0
 62
7
 10
6.190811690796325
 20
8.1
 30
0
 11
6.390811690796323
 21
8.299999999999997
 31
0
  0
LINE
  8
0
 62
7
 10
6.402943725152289
 20
8.1
 30
0
 11
6.602943725152286
 21
8.299999999999997
 31
0
  0
LINE
  8
0
 62
7
 10
6.615075759508253
 20
8.1
 30
0
 11
6.81507575950825
 21
8.299999999999997
 31
0
  0
LINE
  8
0
 62
7
 10
6.827207793864217
 20
8.1
 30
0
 11
7.027207793864214
 21
8.299999999999997
 31
0
  0
LINE
  8
0
 62
7
 10
7.03933982822018
 20
8.1
 30
0
 11
7.239339828220178
 21
8.299999999999997
 31
0
  0
LINE
  8
0
 62
7
 10
7.251471862576144
 20
8.1
 30
0
 11
7.451471862576142
 21
8.299999999999997
 31
0
  0
LINE
  8
0
 62
7
 10
7.463603896932108
 20
8.1
 30
0
 11
7.663603896932106
 21
8.299999999999997
 31
0
  0
LINE
  8
0
 62
7
 10
7.675735931288072
 20
8.1
 30
0
 11
7.75
 21
8.174264068711928
 31
0
  0
ENDBLK
  8
0
  0
BLOCK
  8
0
  2
*X7
 70
1
 10
0
 20
0
 30
0
  0
LINE
  8
0
 62
7
  6
DASHED
 10
4.340000000000001
 20
11.02215908221287
 30
0
 11
4.367840917787135
 21
11.05
 31
0
  0
LINE
  8
0
 62
7
  6
DASHED
 10
4.379972952143097
 20
10.85
 30
0
 11
4.579972952143099
 21
11.05
 31
0
  0
LINE
  8
0
 62
7
  6
DASHED
 10
4.592104986499061
 20
10.85
 30
0
 11
4.792104986499063
 21
11.05
 31
0
  0
LINE
  8
0
 62
7
  6
DASHED
 10
4.804237020855025
 20
10.85
 30
0
 11
5.004237020855027
 21
11.05
 31
0
  0
LINE
  8
0
 62
7
  6
DASHED
 10
5.016369055210989
 20
10.85
 30
0
 11
5.216369055210991
 21
11.05
 31
0
  0
LINE
  8
0
 62
7
  6
DASHED
 10
5.228501089566953
 20
10.85
 30
0
 11
5.428501089566955
 21
11.05
 31
0
  0
LINE
  8
0
 62
7
  6
DASHED
 10
5.440633123922916
 20
10.85
 30
0
 11
5.640633123922918
 21
11.05
 31
0
  0
LINE
  8
0
 62
7
  6
DASHED
 10
5.65276515827888
 20
10.85
 30
0
 11
5.852765158278882
 21
11.05
 31
0
  0
LINE
  8
0
 62
7
  6
DASHED
 10
5.864897192634844
 20
10.85
 30
0
 11
6.064897192634846
 21
11.05
 31
0
  0
LINE
  8
0
 62
7
  6
DASHED
 10
6.077029226990808
 20
10.85
 30
0
 11
6.27702922699081
 21
11.05
 31
0
  0
LINE
  8
0
 62
7
  6
DASHED
 10
6.289161261346772
 20
10.85
 30
0
 11
6.489161261346774
 21
11.05
 31
0
  0
LINE
  8
0
 62
7
  6
DASHED
 10
6.501293295702736
 20
10.85
 30
0
 11
6.701293295702738
 21
11.05
 31
0
  0
LINE
  8
0
 62
7
  6
DASHED
 10
6.713425330058699
 20
10.85
 30
0
 11
6.913425330058701
 21
11.05
 31
0
  0
LINE
  8
0
 62
7
  6
DASHED
 10
6.925557364414663
 20
10.85
 30
0
 11
7.125557364414665
 21
11.05
 31
0
  0
LINE
  8
0
 62
7
  6
DASHED
 10
7.137689398770627
 20
10.85
 30
0
 11
7.337689398770629
 21
11.05
 31
0
  0
LINE
  8
0
 62
7
  6
DASHED
 10
7.349821433126591
 20
10.85
 30
0
 11
7.549821433126593
 21
11.05
 31
0
  0
LINE
  8
0
 62
7
  6
DASHED
 10
7.561953467482555
 20
10.85
 30
0
 11
7.75
 21
11.03804653251744
 31
0
  0
LINE
  8
0
 62
7
 10
4.340000000000002
 20
10.91609306503489
 30
0
 11
4.473906934965115
 21
11.05
 31
0
  0
LINE
  8
0
 62
7
 10
4.48603896932108
 20
10.85
 30
0
 11
4.686038969321078
 21
11.05
 31
0
  0
LINE
  8
0
 62
7
 10
4.698171003677044
 20
10.85
 30
0
 11
4.898171003677042
 21
11.05
 31
0
  0
LINE
  8
0
 62
7
 10
4.910303038033008
 20
10.85
 30
0
 11
5.110303038033006
 21
11.05
 31
0
  0
LINE
  8
0
 62
7
 10
5.122435072388972
 20
10.85
 30
0
 11
5.32243507238897
 21
11.05
 31
0
  0
LINE
  8
0
 62
7
 10
5.334567106744935
 20
10.85
 30
0
 11
5.534567106744934
 21
11.05
 31
0
  0
LINE
  8
0
 62
7
 10
5.546699141100899
 20
10.85
 30
0
 11
5.746699141100898
 21
11.05
 31
0
  0
LINE
  8
0
 62
7
 10
5.758831175456863
 20
10.85
 30
0
 11
5.958831175456861
 21
11.05
 31
0
  0
LINE
  8
0
 62
7
 10
5.970963209812827
 20
10.85
 30
0
 11
6.170963209812825
 21
11.05
 31
0
  0
LINE
  8
0
 62
7
 10
6.183095244168791
 20
10.85
 30
0
 11
6.383095244168789
 21
11.05
 31
0
  0
LINE
  8
0
 62
7
 10
6.395227278524755
 20
10.85
 30
0
 11
6.595227278524753
 21
11.05
 31
0
  0
LINE
  8
0
 62
7
 10
6.607359312880718
 20
10.85
 30
0
 11
6.807359312880717
 21
11.05
 31
0
  0
LINE
  8
0
 62
7
 10
6.819491347236682
 20
10.85
 30
0
 11
7.019491347236681
 21
11.05
 31
0
  0
LINE
  8
0
 62
7
 10
7.031623381592646
 20
10.85
 30
0
 11
7.231623381592645
 21
11.05
 31
0
  0
LINE
  8
0
 62
7
 10
7.24375541594861
 20
10.85
 30
0
 11
7.443755415948608
 21
11.05
 31
0
  0
LINE
  8
0
 62
7
 10
7.455887450304574
 20
10.85
 30
0
 11
7.655887450304572
 21
11.05
 31
0
  0
LINE
  8
0
 62
7
 10
7.668019484660538
 20
10.85
 30
0
 11
7.749999999999999
 21
10.93198051533946
 31
0
  0
ENDBLK
  8
0
  0
BLOCK
  8
0
  2
*X8
 70
1
 10
0
 20
0
 30
0
  0
LINE
  8
0
 62
7
 10
0.5
 20
8.03068721963673
 30
0
 11
0.5693127803632656
 21
8.099999999999996
 31
0
  0
LINE
  8
0
 62
7
 10
0.6314448147192304
 20
7.949999999999996
 30
0
 11
0.7399999999999989
 21
8.058555185280763
 31
0
  0
LINE
  8
0
 62
7
 10
0.5253787975412485
 20
7.949999999999996
 30
0
 11
0.6753787975412489
 21
8.099999999999996
 31
0
  0
LINE
  8
0
 62
7
 10
0.7375108318972128
 20
7.949999999999996
 30
0
 11
0.7399999999999993
 21
7.952489168102781
 31
0
  0
ENDBLK
  8
0
  0
BLOCK
  8
0
  2
*X9
 70
1
 10
0
 20
0
 30
0
  0
LINE
  8
0
 62
7
 10
0.5000000000000004
 20
10.78840366626426
 30
0
 11
0.5615963337357339
 21
10.85
 31
0
  0
LINE
  8
0
 62
7
 10
0.5000000000000004
 20
10.5762716319083
 30
0
 11
0.7399999999999993
 21
10.81627163190829
 31
0
  0
LINE
  8
0
 62
7
 10
0.5000000000000004
 20
10.36413959755233
 30
0
 11
0.7399999999999993
 21
10.60413959755233
 31
0
  0
LINE
  8
0
 62
7
 10
0.5000000000000004
 20
10.15200756319637
 30
0
 11
0.7399999999999993
 21
10.39200756319637
 31
0
  0
LINE
  8
0
 62
7
 10
0.5000000000000004
 20
9.939875528840407
 30
0
 11
0.7399999999999993
 21
10.1798755288404
 31
0
  0
LINE
  8
0
 62
7
 10
0.5000000000000004
 20
9.727743494484443
 30
0
 11
0.7399999999999993
 21
9.96774349448444
 31
0
  0
LINE
  8
0
 62
7
 10
0.5000000000000004
 20
9.515611460128479
 30
0
 11
0.7399999999999993
 21
9.755611460128476
 31
0
  0
LINE
  8
0
 62
7
 10
0.5000000000000004
 20
9.303479425772515
 30
0
 11
0.7399999999999993
 21
9.543479425772512
 31
0
  0
LINE
  8
0
 62
7
 10
0.5000000000000004
 20
9.091347391416551
 30
0
 11
0.7399999999999993
 21
9.331347391416548
 31
0
  0
LINE
  8
0
 62
7
 10
0.5000000000000004
 20
8.879215357060588
 30
0
 11
0.7399999999999993
 21
9.119215357060584
 31
0
  0
LINE
  8
0
 62
7
 10
0.5000000000000004
 20
8.667083322704624
 30
0
 11
0.7399999999999993
 21
8.90708332270462
 31
0
  0
LINE
  8
0
 62
7
 10
0.5000000000000004
 20
8.45495128834866
 30
0
 11
0.7399999999999993
 21
8.694951288348657
 31
0
  0
LINE
  8
0
 62
7
 10
0.5571807460073028
 20
8.299999999999997
 30
0
 11
0.7399999999999993
 21
8.482819253992693
 31
0
  0
LINE
  8
0
 62
7
 10
0.5
 20
10.68233764908628
 30
0
 11
0.6676623509137176
 21
10.85
 31
0
  0
LINE
  8
0
 62
7
 10
0.5
 20
10.47020561473031
 30
0
 11
0.7399999999999989
 21
10.71020561473031
 31
0
  0
LINE
  8
0
 62
7
 10
0.5
 20
10.25807358037435
 30
0
 11
0.7399999999999989
 21
10.49807358037435
 31
0
  0
LINE
  8
0
 62
7
 10
0.5
 20
10.04594154601839
 30
0
 11
0.7399999999999989
 21
10.28594154601839
 31
0
  0
LINE
  8
0
 62
7
 10
0.5
 20
9.833809511662423
 30
0
 11
0.7399999999999989
 21
10.07380951166242
 31
0
  0
LINE
  8
0
 62
7
 10
0.5
 20
9.621677477306459
 30
0
 11
0.7399999999999989
 21
9.861677477306458
 31
0
  0
LINE
  8
0
 62
7
 10
0.5
 20
9.409545442950495
 30
0
 11
0.7399999999999989
 21
9.649545442950494
 31
0
  0
LINE
  8
0
 62
7
 10
0.5
 20
9.197413408594532
 30
0
 11
0.7399999999999989
 21
9.43741340859453
 31
0
  0
LINE
  8
0
 62
7
 10
0.5
 20
8.985281374238568
 30
0
 11
0.7399999999999989
 21
9.225281374238566
 31
0
  0
LINE
  8
0
 62
7
 10
0.5
 20
8.773149339882604
 30
0
 11
0.7399999999999989
 21
9.013149339882602
 31
0
  0
LINE
  8
0
 62
7
 10
0.5
 20
8.56101730552664
 30
0
 11
0.7399999999999989
 21
8.801017305526639
 31
0
  0
LINE
  8
0
 62
7
 10
0.5
 20
8.348885271170676
 30
0
 11
0.7399999999999989
 21
8.588885271170675
 31
0
  0
LINE
  8
0
 62
7
 10
0.6632467631852861
 20
8.299999999999997
 30
0
 11
0.7399999999999989
 21
8.376753236814711
 31
0
  0
ENDBLK
  8
0
  0
BLOCK
  8
0
  2
*X10
 70
1
 10
0
 20
0
 30
0
  0
LINE
  8
0
 62
7
 10
0.549464299379772
 20
11.05
 30
0
 11
0.6994642993797715
 21
11.2
 31
0
  0
LINE
  8
0
 62
7
 10
0.5
 20
11.10660171779821
 30
0
 11
0.5933982822017896
 21
11.2
 31
0
  0
LINE
  8
0
 62
7
 10
0.6555303165577557
 20
11.05
 30
0
 11
0.7400000000000002
 21
11.13446968344225
 31
0
  0
ENDBLK
  8
0
  0
BLOCK
  8
0
  2
*X11
 70
1
 10
0
 20
0
 30
0
  0
LINE
  8
0
 62
7
  6
DASHED
 10
1.99
 20
8.247895013500944
 30
0
 11
2.042104986499051
 21
8.299999999999997
 31
0
  0
LINE
  8
0
 62
7
  6
DASHED
 10
2.054237020855016
 20
8.099999999999996
 30
0
 11
2.254237020855016
 21
8.299999999999997
 31
0
  0
LINE
  8
0
 62
7
  6
DASHED
 10
2.266369055210981
 20
8.099999999999996
 30
0
 11
2.29
 21
8.123630944789015
 31
0
  0
LINE
  8
0
 62
7
 10
1.989999999999999
 20
8.14182899632296
 30
0
 11
2.148171003677034
 21
8.299999999999997
 31
0
  0
LINE
  8
0
 62
7
 10
2.160303038033
 20
8.099999999999998
 30
0
 11
2.29
 21
8.229696961966997
 31
0
  0
ENDBLK
  8
0
  0
BLOCK
  8
0
  2
*X12
 70
1
 10
0
 20
0
 30
0
  0
LINE
  8
0
 62
7
  6
DASHED
 10
1.989999999999999
 20
11.00561146012848
 30
0
 11
2.034388539871521
 21
11.05
 31
0
  0
LINE
  8
0
 62
7
  6
DASHED
 10
2.046520574227485
 20
10.85
 30
0
 11
2.246520574227485
 21
11.05
 31
0
  0
LINE
  8
0
 62
7
  6
DASHED
 10
2.258652608583449
 20
10.85
 30
0
 11
2.289999999999998
 21
10.88134739141655
 31
0
  0
LINE
  8
0
 62
7
 10
1.989999999999999
 20
10.8995454429505
 30
0
 11
2.140454557049504
 21
11.05
 31
0
  0
LINE
  8
0
 62
7
 10
2.152586591405467
 20
10.85
 30
0
 11
2.289999999999998
 21
10.98741340859453
 31
0
  0
ENDBLK
  8
0
  0
BLOCK
  8
0
  2
*X13
 70
1
 10
0
 20
0
 30
0
  0
LINE
  8
0
 62
7
  6
DASHED
 10
0.4999999999999991
 20
11.00053570062023
 30
0
 11
0.5494642993797729
 21
11.05
 31
0
  0
LINE
  8
0
 62
7
  6
DASHED
 10
0.5615963337357357
 20
10.85
 30
0
 11
0.7399999999999984
 21
11.02840366626426
 31
0
  0
LINE
  8
0
 62
7
 10
0.5000000000000009
 20
10.89446968344225
 30
0
 11
0.6555303165577557
 21
11.05
 31
0
  0
LINE
  8
0
 62
7
 10
0.6676623509137176
 20
10.85
 30
0
 11
0.7399999999999984
 21
10.92233764908628
 31
0
  0
ENDBLK
  8
0
  0
BLOCK
  8
0
  2
*X14
 70
1
 10
0
 20
0
 30
0
  0
LINE
  8
0
 62
7
  6
DASHED
 10
0.5
 20
8.242819253992694
 30
0
 11
0.5571807460073028
 21
8.299999999999997
 31
0
  0
LINE
  8
0
 62
7
  6
DASHED
 10
0.569312780363266
 20
8.099999999999996
 30
0
 11
0.739999999999998
 21
8.270687219636727
 31
0
  0
LINE
  8
0
 62
7
 10
0.4999999999999991
 20
8.136753236814712
 30
0
 11
0.6632467631852856
 21
8.299999999999997
 31
0
  0
LINE
  8
0
 62
7
 10
0.6753787975412489
 20
8.099999999999996
 30
0
 11
0.7399999999999989
 21
8.164621202458747
 31
0
  0
ENDBLK
  8
0
  0
BLOCK
  8
0
  2
*X15
 70
1
 10
0
 20
0
 30
0
  0
LINE
  8
0
 62
7
 10
4.490000000000001
 20
5.232462120245875
 30
0
 11
4.527537879754123
 21
5.269999999999998
 31
0
  0
LINE
  8
0
 62
7
 10
4.340000000000002
 20
5.082462120245876
 30
0
 11
4.377537879754123
 21
5.119999999999997
 31
0
  0
LINE
  8
0
 62
7
 10
4.349669914110097
 20
4.880000000000001
 30
0
 11
4.665000000000002
 21
5.195330085889912
 31
0
  0
LINE
  8
0
 62
7
 10
4.561801948466061
 20
4.880000000000001
 30
0
 11
4.801801948466056
 21
5.119999999999997
 31
0
  0
LINE
  8
0
 62
7
 10
4.773933982822025
 20
4.880000000000001
 30
0
 11
5.01393398282202
 21
5.119999999999997
 31
0
  0
LINE
  8
0
 62
7
 10
4.986066017177989
 20
4.880000000000001
 30
0
 11
5.226066017177984
 21
5.119999999999997
 31
0
  0
LINE
  8
0
 62
7
 10
5.198198051533953
 20
4.880000000000001
 30
0
 11
5.438198051533948
 21
5.119999999999997
 31
0
  0
LINE
  8
0
 62
7
 10
5.410330085889917
 20
4.880000000000001
 30
0
 11
5.650330085889911
 21
5.119999999999997
 31
0
  0
LINE
  8
0
 62
7
 10
5.62246212024588
 20
4.880000000000001
 30
0
 11
5.862462120245875
 21
5.119999999999997
 31
0
  0
LINE
  8
0
 62
7
 10
5.834594154601844
 20
4.880000000000001
 30
0
 11
6.074594154601839
 21
5.119999999999997
 31
0
  0
LINE
  8
0
 62
7
 10
6.046726188957808
 20
4.880000000000001
 30
0
 11
6.286726188957803
 21
5.119999999999997
 31
0
  0
LINE
  8
0
 62
7
 10
6.258858223313772
 20
4.880000000000001
 30
0
 11
6.498858223313767
 21
5.119999999999997
 31
0
  0
LINE
  8
0
 62
7
 10
6.470990257669736
 20
4.880000000000001
 30
0
 11
6.710990257669731
 21
5.119999999999997
 31
0
  0
LINE
  8
0
 62
7
 10
6.6831222920257
 20
4.880000000000001
 30
0
 11
6.923122292025695
 21
5.119999999999997
 31
0
  0
LINE
  8
0
 62
7
 10
6.895254326381663
 20
4.880000000000001
 30
0
 11
7.135254326381658
 21
5.119999999999997
 31
0
  0
LINE
  8
0
 62
7
 10
7.425000000000001
 20
5.197613639262376
 30
0
 11
7.497386360737623
 21
5.269999999999997
 31
0
  0
LINE
  8
0
 62
7
 10
7.107386360737627
 20
4.880000000000001
 30
0
 11
7.347386360737622
 21
5.119999999999997
 31
0
  0
LINE
  8
0
 62
7
 10
7.319518395093591
 20
4.880000000000001
 30
0
 11
7.600000000000001
 21
5.160481604906412
 31
0
  0
LINE
  8
0
 62
7
 10
7.531650429449555
 20
4.880000000000001
 30
0
 11
7.765
 21
5.113349570550445
 31
0
  0
LINE
  8
0
 62
7
 10
7.743782463805519
 20
4.880000000000001
 30
0
 11
7.765
 21
4.901217536194482
 31
0
  0
LINE
  8
0
 62
7
 10
4.490000000000002
 20
5.126396103067894
 30
0
 11
4.633603896932105
 21
5.269999999999997
 31
0
  0
LINE
  8
0
 62
7
 10
4.340000000000002
 20
4.976396103067894
 30
0
 11
4.483603896932105
 21
5.119999999999997
 31
0
  0
LINE
  8
0
 62
7
 10
4.455735931288078
 20
4.88
 30
0
 11
4.695735931288075
 21
5.119999999999998
 31
0
  0
LINE
  8
0
 62
7
 10
4.667867965644042
 20
4.88
 30
0
 11
4.907867965644039
 21
5.119999999999998
 31
0
  0
LINE
  8
0
 62
7
 10
4.880000000000006
 20
4.88
 30
0
 11
5.120000000000003
 21
5.119999999999998
 31
0
  0
LINE
  8
0
 62
7
 10
5.09213203435597
 20
4.88
 30
0
 11
5.332132034355967
 21
5.119999999999998
 31
0
  0
LINE
  8
0
 62
7
 10
5.304264068711934
 20
4.88
 30
0
 11
5.54426406871193
 21
5.119999999999998
 31
0
  0
LINE
  8
0
 62
7
 10
5.516396103067898
 20
4.88
 30
0
 11
5.756396103067894
 21
5.119999999999998
 31
0
  0
LINE
  8
0
 62
7
 10
5.728528137423861
 20
4.88
 30
0
 11
5.968528137423858
 21
5.119999999999998
 31
0
  0
LINE
  8
0
 62
7
 10
5.940660171779825
 20
4.88
 30
0
 11
6.180660171779822
 21
5.119999999999998
 31
0
  0
LINE
  8
0
 62
7
 10
6.152792206135789
 20
4.88
 30
0
 11
6.392792206135786
 21
5.119999999999998
 31
0
  0
LINE
  8
0
 62
7
 10
6.364924240491753
 20
4.88
 30
0
 11
6.60492424049175
 21
5.119999999999998
 31
0
  0
LINE
  8
0
 62
7
 10
6.577056274847717
 20
4.88
 30
0
 11
6.817056274847713
 21
5.119999999999998
 31
0
  0
LINE
  8
0
 62
7
 10
6.789188309203681
 20
4.88
 30
0
 11
7.029188309203677
 21
5.119999999999998
 31
0
  0
LINE
  8
0
 62
7
 10
7.001320343559644
 20
4.88
 30
0
 11
7.241320343559641
 21
5.119999999999998
 31
0
  0
LINE
  8
0
 62
7
 10
7.213452377915608
 20
4.88
 30
0
 11
7.600000000000003
 21
5.266547622084396
 31
0
  0
LINE
  8
0
 62
7
 10
7.425584412271572
 20
4.88
 30
0
 11
7.665584412271569
 21
5.119999999999997
 31
0
  0
LINE
  8
0
 62
7
 10
7.637716446627536
 20
4.88
 30
0
 11
7.765000000000001
 21
5.007283553372464
 31
0
  0
ENDBLK
  8
0
  0
BLOCK
  8
0
  2
*X16
 70
1
 10
0
 20
0
 30
0
  0
LINE
  8
0
 62
7
 10
4.340000000000002
 20
4.658198051533947
 30
0
 11
4.52180194846606
 21
4.839999999999999
 31
0
  0
LINE
  8
0
 62
7
 10
4.49
 20
4.596066017177982
 30
0
 11
4.733933982822024
 21
4.839999999999999
 31
0
  0
LINE
  8
0
 62
7
 10
4.706066017177989
 20
4.600000000000001
 30
0
 11
4.946066017177988
 21
4.839999999999999
 31
0
  0
LINE
  8
0
 62
7
 10
4.49
 20
4.383933982822018
 30
0
 11
4.665000000000002
 21
4.558933982822019
 31
0
  0
LINE
  8
0
 62
7
 10
4.918198051533953
 20
4.600000000000001
 30
0
 11
5.158198051533952
 21
4.839999999999999
 31
0
  0
LINE
  8
0
 62
7
 10
4.49
 20
4.171801948466054
 30
0
 11
4.665000000000002
 21
4.346801948466055
 31
0
  0
LINE
  8
0
 62
7
 10
5.130330085889916
 20
4.600000000000001
 30
0
 11
5.370330085889916
 21
4.839999999999999
 31
0
  0
LINE
  8
0
 62
7
 10
4.49
 20
3.95966991411009
 30
0
 11
4.665000000000002
 21
4.134669914110091
 31
0
  0
LINE
  8
0
 62
7
 10
5.34246212024588
 20
4.600000000000001
 30
0
 11
5.58246212024588
 21
4.839999999999999
 31
0
  0
LINE
  8
0
 62
7
 10
4.49
 20
3.747537879754126
 30
0
 11
4.665000000000002
 21
3.922537879754127
 31
0
  0
LINE
  8
0
 62
7
 10
5.554594154601844
 20
4.600000000000001
 30
0
 11
5.794594154601843
 21
4.839999999999999
 31
0
  0
LINE
  8
0
 62
7
 10
4.49
 20
3.535405845398162
 30
0
 11
4.665000000000002
 21
3.710405845398163
 31
0
  0
LINE
  8
0
 62
7
 10
5.766726188957808
 20
4.600000000000001
 30
0
 11
6.006726188957807
 21
4.839999999999999
 31
0
  0
LINE
  8
0
 62
7
 10
4.49
 20
3.323273811042197
 30
0
 11
4.665000000000002
 21
3.498273811042199
 31
0
  0
LINE
  8
0
 62
7
 10
5.978858223313772
 20
4.600000000000001
 30
0
 11
6.218858223313771
 21
4.839999999999999
 31
0
  0
LINE
  8
0
 62
7
 10
4.628858223313768
 20
3.25
 30
0
 11
4.665000000000002
 21
3.286141776686234
 31
0
  0
LINE
  8
0
 62
7
 10
6.190990257669736
 20
4.600000000000001
 30
0
 11
6.430990257669735
 21
4.839999999999999
 31
0
  0
LINE
  8
0
 62
7
 10
6.403122292025699
 20
4.600000000000001
 30
0
 11
6.643122292025699
 21
4.839999999999999
 31
0
  0
LINE
  8
0
 62
7
 10
6.615254326381663
 20
4.600000000000001
 30
0
 11
6.855254326381663
 21
4.839999999999999
 31
0
  0
LINE
  8
0
 62
7
 10
6.827386360737627
 20
4.600000000000001
 30
0
 11
7.067386360737626
 21
4.839999999999999
 31
0
  0
LINE
  8
0
 62
7
 10
7.039518395093591
 20
4.600000000000001
 30
0
 11
7.27951839509359
 21
4.839999999999999
 31
0
  0
LINE
  8
0
 62
7
 10
7.251650429449555
 20
4.600000000000001
 30
0
 11
7.491650429449554
 21
4.839999999999999
 31
0
  0
LINE
  8
0
 62
7
 10
7.425000000000001
 20
4.561217536194482
 30
0
 11
7.703782463805518
 21
4.839999999999999
 31
0
  0
LINE
  8
0
 62
7
 10
7.675914498161483
 20
4.600000000000001
 30
0
 11
7.765000000000001
 21
4.689085501838519
 31
0
  0
LINE
  8
0
 62
7
 10
7.425000000000001
 20
4.349085501838518
 30
0
 11
7.600000000000001
 21
4.524085501838519
 31
0
  0
LINE
  8
0
 62
7
 10
7.425000000000001
 20
4.136953467482554
 30
0
 11
7.600000000000001
 21
4.311953467482555
 31
0
  0
LINE
  8
0
 62
7
 10
7.425000000000001
 20
3.92482143312659
 30
0
 11
7.600000000000001
 21
4.099821433126591
 31
0
  0
LINE
  8
0
 62
7
 10
7.425000000000001
 20
3.712689398770626
 30
0
 11
7.600000000000001
 21
3.887689398770627
 31
0
  0
LINE
  8
0
 62
7
 10
7.425000000000001
 20
3.500557364414662
 30
0
 11
7.600000000000001
 21
3.675557364414662
 31
0
  0
LINE
  8
0
 62
7
 10
7.486574669941303
 20
3.35
 30
0
 11
7.600000000000001
 21
3.463425330058698
 31
0
  0
LINE
  8
0
 62
7
 10
4.340000000000003
 20
4.764264068711929
 30
0
 11
4.415735931288078
 21
4.839999999999998
 31
0
  0
LINE
  8
0
 62
7
 10
4.387867965644038
 20
4.600000000000001
 30
0
 11
4.627867965644041
 21
4.839999999999998
 31
0
  0
LINE
  8
0
 62
7
 10
4.490000000000001
 20
4.489999999999999
 30
0
 11
4.840000000000005
 21
4.839999999999998
 31
0
  0
LINE
  8
0
 62
7
 10
4.812132034355971
 20
4.600000000000001
 30
0
 11
5.052132034355969
 21
4.839999999999998
 31
0
  0
LINE
  8
0
 62
7
 10
4.490000000000001
 20
4.277867965644035
 30
0
 11
4.665000000000002
 21
4.452867965644036
 31
0
  0
LINE
  8
0
 62
7
 10
5.024264068711935
 20
4.600000000000001
 30
0
 11
5.264264068711933
 21
4.839999999999998
 31
0
  0
LINE
  8
0
 62
7
 10
4.490000000000001
 20
4.065735931288072
 30
0
 11
4.665000000000002
 21
4.240735931288072
 31
0
  0
LINE
  8
0
 62
7
 10
5.236396103067899
 20
4.600000000000001
 30
0
 11
5.476396103067897
 21
4.839999999999998
 31
0
  0
LINE
  8
0
 62
7
 10
4.490000000000001
 20
3.853603896932108
 30
0
 11
4.665000000000002
 21
4.028603896932109
 31
0
  0
LINE
  8
0
 62
7
 10
5.448528137423863
 20
4.600000000000001
 30
0
 11
5.688528137423861
 21
4.839999999999998
 31
0
  0
LINE
  8
0
 62
7
 10
4.490000000000001
 20
3.641471862576144
 30
0
 11
4.665000000000002
 21
3.816471862576144
 31
0
  0
LINE
  8
0
 62
7
 10
5.660660171779827
 20
4.600000000000001
 30
0
 11
5.900660171779824
 21
4.839999999999998
 31
0
  0
LINE
  8
0
 62
7
 10
4.490000000000001
 20
3.429339828220179
 30
0
 11
4.665000000000002
 21
3.60433982822018
 31
0
  0
LINE
  8
0
 62
7
 10
5.872792206135791
 20
4.600000000000001
 30
0
 11
6.112792206135788
 21
4.839999999999998
 31
0
  0
LINE
  8
0
 62
7
 10
4.522792206135787
 20
3.25
 30
0
 11
4.665000000000003
 21
3.392207793864217
 31
0
  0
LINE
  8
0
 62
7
 10
6.084924240491755
 20
4.600000000000001
 30
0
 11
6.324924240491752
 21
4.839999999999998
 31
0
  0
LINE
  8
0
 62
7
 10
6.297056274847718
 20
4.600000000000001
 30
0
 11
6.537056274847716
 21
4.839999999999998
 31
0
  0
LINE
  8
0
 62
7
 10
6.509188309203682
 20
4.600000000000001
 30
0
 11
6.74918830920368
 21
4.839999999999998
 31
0
  0
LINE
  8
0
 62
7
 10
6.721320343559646
 20
4.600000000000001
 30
0
 11
6.961320343559644
 21
4.839999999999998
 31
0
  0
LINE
  8
0
 62
7
 10
6.93345237791561
 20
4.600000000000001
 30
0
 11
7.173452377915607
 21
4.839999999999998
 31
0
  0
LINE
  8
0
 62
7
 10
7.145584412271574
 20
4.600000000000001
 30
0
 11
7.385584412271571
 21
4.839999999999998
 31
0
  0
LINE
  8
0
 62
7
 10
7.357716446627538
 20
4.600000000000001
 30
0
 11
7.597716446627535
 21
4.839999999999998
 31
0
  0
LINE
  8
0
 62
7
 10
7.425000000000001
 20
4.4551515190165
 30
0
 11
7.765000000000001
 21
4.795151519016501
 31
0
  0
LINE
  8
0
 62
7
 10
7.425000000000001
 20
4.243019484660536
 30
0
 11
7.600000000000001
 21
4.418019484660537
 31
0
  0
LINE
  8
0
 62
7
 10
7.425000000000001
 20
4.030887450304572
 30
0
 11
7.600000000000001
 21
4.205887450304573
 31
0
  0
LINE
  8
0
 62
7
 10
7.425000000000001
 20
3.818755415948608
 30
0
 11
7.600000000000001
 21
3.993755415948609
 31
0
  0
LINE
  8
0
 62
7
 10
7.425000000000001
 20
3.606623381592644
 30
0
 11
7.600000000000001
 21
3.781623381592645
 31
0
  0
LINE
  8
0
 62
7
 10
7.425000000000001
 20
3.394491347236679
 30
0
 11
7.600000000000001
 21
3.56949134723668
 31
0
  0
LINE
  8
0
 62
7
 10
7.592640687119285
 20
3.35
 30
0
 11
7.600000000000001
 21
3.357359312880716
 31
0
  0
ENDBLK
  8
0
  0
BLOCK
  8
0
  2
*D0
 70
1
 10
0
 20
0
 30
0
  0
LINE
  8
0
 62
7
 10
8.057615891670929
 20
10.2129142394822
 30
0
 11
8.057615891670929
 21
11.05
 31
0
  0
LINE
  8
0
 62
7
 10
8.057615891670929
 20
8.299999999999997
 30
0
 11
8.057615891670929
 21
9.132914239482199
 31
0
  0
LINE
  8
0
 62
7
 10
7.75
 20
11.05
 30
0
 11
8.10761589167093
 21
11.05
 31
0
  0
LINE
  8
0
 62
7
 10
7.75
 20
8.299999999999997
 30
0
 11
8.10761589167093
 21
8.299999999999997
 31
0
  0
LINE
  8
0
 62
7
 10
8.022260552611602
 20
8.335355339059324
 30
0
 11
8.092971230730257
 21
8.26464466094067
 31
0
  0
LINE
  8
0
 62
7
 10
8.092971230730257
 20
11.01464466094067
 30
0
 11
8.022260552611602
 21
11.08535533905933
 31
0
  0
TEXT
  8
0
 62
7
 10
8.02761589167093
 20
9.535414239482201
 30
0
 40
0.1
  1
2,75
 50
90
 41
0.9
  0
TEXT
  8
0
 62
7
 10
8.18761589167093
 20
9.3329142394822
 30
0
 40
0.1
  1
(260-280)
 50
90
 41
0.9
  0
ENDBLK
  8
0
  0
BLOCK
  8
0
  2
*D1
 70
1
 10
0
 20
0
 30
0
  0
LINE
  8
0
 62
7
 10
6.344060875489701
 20
11.4380048543689
 30
0
 11
7.425000000000001
 21
11.4380048543689
 31
0
  0
LINE
  8
0
 62
7
 10
4.665000000000002
 20
11.4380048543689
 30
0
 11
5.6690608754897
 21
11.4380048543689
 31
0
  0
LINE
  8
0
 62
7
 10
7.425000000000001
 20
11.2
 30
0
 11
7.425000000000001
 21
11.4880048543689
 31
0
  0
LINE
  8
0
 62
7
 10
4.665000000000002
 20
11.2
 30
0
 11
4.665000000000002
 21
11.4880048543689
 31
0
  0
LINE
  8
0
 62
7
 10
7.389644660940673
 20
11.40264951530957
 30
0
 11
7.460355339059328
 21
11.47336019342823
 31
0
  0
LINE
  8
0
 62
7
 10
4.700355339059329
 20
11.47336019342823
 30
0
 11
4.629644660940675
 21
11.40264951530957
 31
0
  0
TEXT
  8
0
 62
7
 10
5.8690608754897
 20
11.3930048543689
 30
0
 40
0.1
  1
2,76
 41
0.9
  0
ENDBLK
  8
0
  0
BLOCK
  8
0
  2
*D2
 70
1
 10
0
 20
0
 30
0
  0
LINE
  8
0
 62
7
 10
4.19216605348323
 20
4.32612621359223
 30
0
 11
4.19216605348323
 21
4.6
 31
0
  0
LINE
  8
0
 62
7
 10
4.19216605348323
 20
3.25
 30
0
 11
4.19216605348323
 21
3.58112621359223
 31
0
  0
LINE
  8
0
 62
7
 10
4.490000000000001
 20
4.6
 30
0
 11
4.14216605348323
 21
4.6
 31
0
  0
LINE
  8
0
 62
7
 10
4.490000000000001
 20
3.25
 30
0
 11
4.14216605348323
 21
3.25
 31
0
  0
LINE
  8
0
 62
7
 10
4.156810714423902
 20
3.285355339059327
 30
0
 11
4.227521392542557
 21
3.214644660940673
 31
0
  0
LINE
  8
0
 62
7
 10
4.227521392542557
 20
4.564644660940672
 30
0
 11
4.156810714423902
 21
4.635355339059327
 31
0
  0
TEXT
  8
0
 62
7
 10
4.23716605348323
 20
3.83112621359223
 30
0
 40
0.1
  1
1,35
 50
90
 41
0.9
  0
ENDBLK
  8
0
  0
BLOCK
  8
0
  2
*D3
 70
1
 10
0
 20
0
 30
0
  0
LINE
  8
0
 62
7
 10
6.394060875489701
 20
5.47219579288026
 30
0
 11
7.425000000000001
 21
5.47219579288026
 31
0
  0
LINE
  8
0
 62
7
 10
4.665000000000002
 20
5.47219579288026
 30
0
 11
5.6190608754897
 21
5.47219579288026
 31
0
  0
LINE
  8
0
 62
7
 10
7.425000000000001
 20
5.119999999999997
 30
0
 11
7.425000000000001
 21
5.52219579288026
 31
0
  0
LINE
  8
0
 62
7
 10
4.665000000000002
 20
5.119999999999997
 30
0
 11
4.665000000000002
 21
5.52219579288026
 31
0
  0
LINE
  8
0
 62
7
 10
4.700355339059329
 20
5.507551131939588
 30
0
 11
4.629644660940675
 21
5.436840453820933
 31
0
  0
LINE
  8
0
 62
7
 10
7.389644660940673
 20
5.436840453820933
 30
0
 11
7.460355339059328
 21
5.507551131939588
 31
0
  0
TEXT
  8
0
 62
7
 10
5.8690608754897
 20
5.42719579288026
 30
0
 40
0.1
  1
2,76
 41
0.9
  0
ENDBLK
  8
0
  0
BLOCK
  8
0
  2
*D4
 70
1
 10
0
 20
0
 30
0
  0
LINE
  8
0
 62
7
 10
7.89984242888776
 20
4.34584789644013
 30
0
 11
7.89984242888776
 21
4.6
 31
0
  0
LINE
  8
0
 62
7
 10
7.89984242888776
 20
3.35
 30
0
 11
7.89984242888776
 21
3.60084789644013
 31
0
  0
LINE
  8
0
 62
7
 10
7.6
 20
4.6
 30
0
 11
7.949842428887759
 21
4.6
 31
0
  0
LINE
  8
0
 62
7
 10
7.6
 20
3.35
 30
0
 11
7.949842428887759
 21
3.35
 31
0
  0
LINE
  8
0
 62
7
 10
7.935197767947087
 20
4.564644660940672
 30
0
 11
7.864487089828432
 21
4.635355339059327
 31
0
  0
LINE
  8
0
 62
7
 10
7.864487089828432
 20
3.385355339059327
 30
0
 11
7.935197767947087
 21
3.314644660940673
 31
0
  0
TEXT
  8
0
 62
7
 10
7.944842428887759
 20
3.85084789644013
 30
0
 40
0.1
  1
1,25
 50
90
 41
0.9
  0
ENDBLK
  8
0
  0
ENDSEC
  0
SECTION
  2
ENTITIES
  0
INSERT
  8
0
  2
*X0
 10
0
 20
0
 30
0
  0
INSERT
  8
0
  2
*X1
 10
0
 20
0
 30
0
  0
INSERT
  8
0
  2
*X2
 10
0
 20
0
 30
0
  0
INSERT
  8
0
  2
*X3
 10
0
 20
0
 30
0
  0
INSERT
  8
0
  2
*X4
 10
0
 20
0
 30
0
  0
INSERT
  8
0
  2
*X5
 10
0
 20
0
 30
0
  0
INSERT
  8
0
  2
*X6
 10
0
 20
0
 30
0
  0
INSERT
  8
0
  2
*X7
 10
0
 20
0
 30
0
  0
INSERT
  8
0
  2
*X8
 10
0
 20
0
 30
0
  0
INSERT
  8
0
  2
*X9
 10
0
 20
0
 30
0
  0
INSERT
  8
0
  2
*X10
 10
0
 20
0
 30
0
  0
INSERT
  8
0
  2
*X11
 10
0
 20
0
 30
0
  0
INSERT
  8
0
  2
*X12
 10
0
 20
0
 30
0
  0
INSERT
  8
0
  2
*X13
 10
0
 20
0
 30
0
  0
INSERT
  8
0
  2
*X14
 10
0
 20
0
 30
0
  0
INSERT
  8
0
  2
*X15
 10
0
 20
0
 30
0
  0
INSERT
  8
0
  2
*X16
 10
0
 20
0
 30
0
  0
LINE
  8
0
 62
7
 10
6.459999999999991
 20
3.582910524638638
 30
0
 11
6.459999999999991
 21
3.423961626347241
 31
0
  0
LINE
  8
0
 62
7
 10
6.419973350511786
 20
3.635
 30
0
 11
6.459999999999991
 21
3.582910524638638
 31
0
  0
LINE
  8
0
 62
7
 10
6.242590998120992
 20
3.635
 30
0
 11
6.246070788174642
 21
3.635
 31
0
  0
LINE
  8
0
 62
7
 10
6.242590998120992
 20
3.635
 30
0
 11
6.34856594463844
 21
3.635
 31
0
  0
LINE
  8
0
 62
7
 10
6.242590998120992
 20
3.635
 30
0
 11
6.419973350511786
 21
3.635
 31
0
  0
LINE
  8
0
 62
7
 10
5.672618751057403
 20
3.635
 30
0
 11
5.866579591774943
 21
3.635
 31
0
  0
LINE
  8
0
 62
7
 10
5.629999999999992
 20
3.582080420210291
 30
0
 11
5.672618751057403
 21
3.635
 31
0
  0
LINE
  8
0
 62
7
 10
5.629999999999992
 20
3.4337118828787
 30
0
 11
5.629999999999992
 21
3.524106169891959
 31
0
  0
LINE
  8
0
 62
7
 10
5.629999999999992
 20
3.4337118828787
 30
0
 11
5.629999999999992
 21
3.582080420210291
 31
0
  0
LINE
  8
0
 62
7
 10
4.719999999999991
 20
3.609380145131871
 30
0
 11
4.719999999999991
 21
3.25
 31
0
  0
LINE
  8
0
 62
7
 10
5.629999999999992
 20
3.25
 30
0
 11
5.629999999999992
 21
3.4337118828787
 31
0
  0
LINE
  8
0
 62
7
 10
4.719999999999991
 20
3.25
 30
0
 11
5.629999999999992
 21
3.25
 31
0
  0
LINE
  8
0
 62
7
 10
4.719999999999991
 20
3.957748498376751
 30
0
 11
4.719999999999991
 21
3.518985858118601
 31
0
  0
LINE
  8
0
 62
7
 10
4.719999999999991
 20
3.518985858118601
 30
0
 11
5.629999999999992
 21
3.4337118828787
 31
0
  0
LINE
  8
0
 62
7
 10
4.719999999999991
 20
4.37222658444315
 30
0
 11
4.719999999999991
 21
3.86206853302406
 31
0
  0
LINE
  8
0
 62
7
 10
5.599813517118132
 20
3.54459795181779
 30
0
 11
5.629999999999992
 21
3.582080420210291
 31
0
  0
LINE
  8
0
 62
7
 10
4.719999999999991
 20
3.86206853302406
 30
0
 11
5.599813517118132
 21
3.54459795181779
 31
0
  0
LINE
  8
0
 62
7
 10
4.719999999999991
 20
4.545000000000001
 30
0
 11
4.719999999999991
 21
4.263858962748261
 31
0
  0
LINE
  8
0
 62
7
 10
5.14154697567157
 20
4.545000000000001
 30
0
 11
4.719999999999991
 21
4.545000000000001
 31
0
  0
LINE
  8
0
 62
7
 10
5.65763521153739
 20
3.635
 30
0
 11
5.672618751057403
 21
3.635
 31
0
  0
LINE
  8
0
 62
7
 10
4.719999999999991
 20
4.263858962748261
 30
0
 11
5.65763521153739
 21
3.635
 31
0
  0
LINE
  8
0
 62
7
 10
5.532251221531641
 20
4.545000000000001
 30
0
 11
5.026473845163212
 21
4.545000000000001
 31
0
  0
LINE
  8
0
 62
7
 10
5.751506461266583
 20
3.635
 30
0
 11
5.952595008292052
 21
3.635
 31
0
  0
LINE
  8
0
 62
7
 10
5.026473845163212
 20
4.545000000000001
 30
0
 11
5.751506461266583
 21
3.635
 31
0
  0
LINE
  8
0
 62
7
 10
5.862258664865011
 20
4.545000000000001
 30
0
 11
5.433113591782733
 21
4.545000000000001
 31
0
  0
LINE
  8
0
 62
7
 10
5.853457378543142
 20
3.635
 30
0
 11
6.047938425731433
 21
3.635
 31
0
  0
LINE
  8
0
 62
7
 10
5.433113591782733
 20
4.545000000000001
 30
0
 11
5.853457378543142
 21
3.635
 31
0
  0
LINE
  8
0
 62
7
 10
6.200558458948274
 20
4.545000000000001
 30
0
 11
5.770404247372174
 21
4.545000000000001
 31
0
  0
LINE
  8
0
 62
7
 10
5.956084008238592
 20
3.635
 30
0
 11
6.145655289710411
 21
3.635
 31
0
  0
LINE
  8
0
 62
7
 10
5.770404247372174
 20
4.545000000000001
 30
0
 11
5.956084008238592
 21
3.635
 31
0
  0
LINE
  8
0
 62
7
 10
6.548304016103014
 20
4.545000000000001
 30
0
 11
6.110394803722063
 21
4.545000000000001
 31
0
  0
LINE
  8
0
 62
7
 10
6.055491634484202
 20
3.635
 30
0
 11
6.242590998120992
 21
3.635
 31
0
  0
LINE
  8
0
 62
7
 10
6.110394803722063
 20
4.545000000000001
 30
0
 11
6.055491634484202
 21
3.635
 31
0
  0
LINE
  8
0
 62
7
 10
6.914308524556552
 20
4.545000000000001
 30
0
 11
6.453470036223504
 21
4.545000000000001
 31
0
  0
LINE
  8
0
 62
7
 10
6.151236808295122
 20
3.635
 30
0
 11
6.242590998120992
 21
3.635
 31
0
  0
LINE
  8
0
 62
7
 10
6.453470036223504
 20
4.545000000000001
 30
0
 11
6.151236808295122
 21
3.635
 31
0
  0
LINE
  8
0
 62
7
 10
7.370000000000002
 20
4.545000000000001
 30
0
 11
6.808333578039101
 21
4.545000000000001
 31
0
  0
LINE
  8
0
 62
7
 10
7.370000000000002
 20
4.455473383103961
 30
0
 11
7.370000000000002
 21
4.545000000000001
 31
0
  0
LINE
  8
0
 62
7
 10
6.808333578039101
 20
4.545000000000001
 30
0
 11
6.242590998120992
 21
3.635
 31
0
  0
LINE
  8
0
 62
7
 10
7.370000000000002
 20
4.545000000000001
 30
0
 11
7.335259612984014
 21
4.545000000000001
 31
0
  0
LINE
  8
0
 62
7
 10
7.370000000000002
 20
3.996261813362851
 30
0
 11
7.370000000000002
 21
4.545000000000001
 31
0
  0
LINE
  8
0
 62
7
 10
6.375797561251662
 20
3.69248904081797
 30
0
 11
6.419973350511786
 21
3.635
 31
0
  0
LINE
  8
0
 62
7
 10
7.335259612984014
 20
4.545000000000001
 30
0
 11
6.375797561251662
 21
3.69248904081797
 31
0
  0
LINE
  8
0
 62
7
 10
7.370000000000002
 20
3.63221249427275
 30
0
 11
7.370000000000002
 21
4.097833031905861
 31
0
  0
LINE
  8
0
 62
7
 10
6.459999999999991
 20
3.62178194421916
 30
0
 11
6.459999999999991
 21
3.582910524638638
 31
0
  0
LINE
  8
0
 62
7
 10
7.370000000000002
 20
4.097833031905861
 30
0
 11
6.459999999999991
 21
3.62178194421916
 31
0
  0
LINE
  8
0
 62
7
 10
7.370000000000002
 20
3.39
 30
0
 11
7.370000000000002
 21
3.724539116051961
 31
0
  0
LINE
  8
0
 62
7
 10
6.459999999999991
 20
3.51628824812644
 30
0
 11
6.459999999999991
 21
3.39
 31
0
  0
LINE
  8
0
 62
7
 10
7.370000000000002
 20
3.724539116051961
 30
0
 11
6.459999999999991
 21
3.51628824812644
 31
0
  0
LINE
  8
0
 62
7
 10
6.953962975947585
 20
3.634999999990609
 30
0
 11
6.953962975947585
 21
3.4
 31
0
  0
LINE
  8
0
 62
7
 10
7.059618075209283
 20
3.461000000000001
 30
0
 11
6.953962975947585
 21
3.4
 31
0
  0
LINE
  8
0
 62
7
 10
6.848307876685884
 20
3.461000000000001
 30
0
 11
7.059618075209283
 21
3.461000000000001
 31
0
  0
LINE
  8
0
 62
7
 10
6.953962975947585
 20
3.4
 30
0
 11
6.848307876685884
 21
3.461000000000001
 31
0
  0
LINE
  8
0
 62
7
 10
5.630000000009392
 20
4.128962975947592
 30
0
 11
6.460000000017904
 21
4.128962975947592
 31
0
  0
LINE
  8
0
 62
7
 10
5.136037024052412
 20
3.25
 30
0
 11
5.136037024052412
 21
3.634999999996369
 31
0
  0
LINE
  8
0
 62
7
 10
4.719999120000001
 20
8.596800069999997
 30
0
 11
5.629999849999999
 21
8.596800069999997
 31
0
  0
LINE
  8
0
 62
7
 10
4.719999120000001
 20
8.531800069999996
 30
0
 11
4.719999120000001
 21
8.596800069999997
 31
0
  0
LINE
  8
0
 62
7
 10
5.629999849999999
 20
8.596800069999997
 30
0
 11
5.629999849999999
 21
8.531800069999996
 31
0
  0
LINE
  8
0
 62
7
 10
5.629999849999999
 20
8.531800069999996
 30
0
 11
4.719999120000001
 21
8.531800069999996
 31
0
  0
LINE
  8
0
 62
7
 10
4.71999981
 20
8.793200059999995
 30
0
 11
5.630000000000002
 21
8.793200059999995
 31
0
  0
LINE
  8
0
 62
7
 10
4.71999981
 20
8.728200059999997
 30
0
 11
4.71999981
 21
8.793200059999995
 31
0
  0
LINE
  8
0
 62
7
 10
5.630000000000002
 20
8.793200059999995
 30
0
 11
5.630000000000002
 21
8.728200059999997
 31
0
  0
LINE
  8
0
 62
7
 10
5.630000000000002
 20
8.728200059999997
 30
0
 11
4.71999981
 21
8.728200059999997
 31
0
  0
LINE
  8
0
 62
7
 10
4.71999985
 20
8.989600059999995
 30
0
 11
5.72402969
 21
8.989600059999995
 31
0
  0
LINE
  8
0
 62
7
 10
5.72402969
 20
8.924600059999996
 30
0
 11
4.71999985
 21
8.924600059999996
 31
0
  0
LINE
  8
0
 62
7
 10
4.71999985
 20
8.924600059999996
 30
0
 11
4.71999985
 21
8.989600059999995
 31
0
  0
LINE
  8
0
 62
7
 10
5.72402969
 20
8.989600059999995
 30
0
 11
5.72402969
 21
8.924600059999996
 31
0
  0
LINE
  8
0
 62
7
 10
5.866579510000001
 20
9.121000049999996
 30
0
 11
4.71999997
 21
9.121000049999996
 31
0
  0
LINE
  8
0
 62
7
 10
4.71999997
 20
9.186000049999995
 30
0
 11
5.866579510000001
 21
9.186000049999995
 31
0
  0
LINE
  8
0
 62
7
 10
4.71999997
 20
9.121000049999996
 30
0
 11
4.71999997
 21
9.186000049999995
 31
0
  0
LINE
  8
0
 62
7
 10
5.866579510000001
 20
9.186000049999995
 30
0
 11
5.866579510000001
 21
9.121000049999996
 31
0
  0
LINE
  8
0
 62
7
 10
5.952595370000001
 20
9.317400049999996
 30
0
 11
5.026473349999999
 21
9.317400049999996
 31
0
  0
LINE
  8
0
 62
7
 10
5.026473349999999
 20
9.382400049999998
 30
0
 11
5.952595370000001
 21
9.382400049999998
 31
0
  0
LINE
  8
0
 62
7
 10
5.026473349999999
 20
9.317400049999996
 30
0
 11
5.026473349999999
 21
9.382400049999998
 31
0
  0
LINE
  8
0
 62
7
 10
5.952595370000001
 20
9.382400049999998
 30
0
 11
5.952595370000001
 21
9.317400049999996
 31
0
  0
LINE
  8
0
 62
7
 10
6.04793838
 20
9.513800039999998
 30
0
 11
5.433113940000002
 21
9.513800039999998
 31
0
  0
LINE
  8
0
 62
7
 10
5.433113940000002
 20
9.578800039999997
 30
0
 11
6.04793838
 21
9.578800039999997
 31
0
  0
LINE
  8
0
 62
7
 10
5.433113940000002
 20
9.513800039999998
 30
0
 11
5.433113940000002
 21
9.578800039999997
 31
0
  0
LINE
  8
0
 62
7
 10
6.04793838
 20
9.578800039999997
 30
0
 11
6.04793838
 21
9.513800039999998
 31
0
  0
LINE
  8
0
 62
7
 10
6.20055786
 20
9.710200029999998
 30
0
 11
5.77040405
 21
9.710200029999998
 31
0
  0
LINE
  8
0
 62
7
 10
5.77040405
 20
9.775200029999997
 30
0
 11
6.20055786
 21
9.775200029999997
 31
0
  0
LINE
  8
0
 62
7
 10
5.77040405
 20
9.710200029999998
 30
0
 11
5.77040405
 21
9.775200029999997
 31
0
  0
LINE
  8
0
 62
7
 10
6.20055786
 20
9.775200029999997
 30
0
 11
6.20055786
 21
9.710200029999998
 31
0
  0
LINE
  8
0
 62
7
 10
6.548304440000002
 20
9.906600029999996
 30
0
 11
6.055491940000001
 21
9.906600029999996
 31
0
  0
LINE
  8
0
 62
7
 10
6.055491940000001
 20
9.971600029999998
 30
0
 11
6.548304440000002
 21
9.971600029999998
 31
0
  0
LINE
  8
0
 62
7
 10
6.055491940000001
 20
9.906600029999996
 30
0
 11
6.055491940000001
 21
9.971600029999998
 31
0
  0
LINE
  8
0
 62
7
 10
6.548304440000002
 20
9.971600029999998
 30
0
 11
6.548304440000002
 21
9.906600029999996
 31
0
  0
LINE
  8
0
 62
7
 10
6.914307860000001
 20
10.10300002
 30
0
 11
6.151236570000001
 21
10.10300002
 31
0
  0
LINE
  8
0
 62
7
 10
6.151236570000001
 20
10.16800002
 30
0
 11
6.914307860000001
 21
10.16800002
 31
0
  0
LINE
  8
0
 62
7
 10
6.151236570000001
 20
10.10300002
 30
0
 11
6.151236570000001
 21
10.16800002
 31
0
  0
LINE
  8
0
 62
7
 10
6.914307860000001
 20
10.16800002
 30
0
 11
6.914307860000001
 21
10.10300002
 31
0
  0
LINE
  8
0
 62
7
 10
7.370000000000001
 20
10.29940002
 30
0
 11
6.24259018
 21
10.29940002
 31
0
  0
LINE
  8
0
 62
7
 10
6.24259018
 20
10.36440002
 30
0
 11
7.370000000000001
 21
10.36440002
 31
0
  0
LINE
  8
0
 62
7
 10
6.24259018
 20
10.29940002
 30
0
 11
6.24259018
 21
10.36440002
 31
0
  0
LINE
  8
0
 62
7
 10
7.370000000000001
 20
10.36440002
 30
0
 11
7.370000000000001
 21
10.29940002
 31
0
  0
LINE
  8
0
 62
7
 10
7.370000000000001
 20
10.49580001
 30
0
 11
6.37579712
 21
10.49580001
 31
0
  0
LINE
  8
0
 62
7
 10
6.37579712
 20
10.56080001
 30
0
 11
7.370000000000001
 21
10.56080001
 31
0
  0
LINE
  8
0
 62
7
 10
6.37579712
 20
10.49580001
 30
0
 11
6.37579712
 21
10.56080001
 31
0
  0
LINE
  8
0
 62
7
 10
7.370000000000001
 20
10.56080001
 30
0
 11
7.370000000000001
 21
10.49580001
 31
0
  0
LINE
  8
0
 62
7
 10
6.46
 20
10.7572
 30
0
 11
7.370000000000001
 21
10.7572
 31
0
  0
LINE
  8
0
 62
7
 10
6.46
 20
10.6922
 30
0
 11
6.46
 21
10.7572
 31
0
  0
LINE
  8
0
 62
7
 10
7.370000000000001
 20
10.7572
 30
0
 11
7.370000000000001
 21
10.6922
 31
0
  0
LINE
  8
0
 62
7
 10
7.370000000000001
 20
10.6922
 30
0
 11
6.46
 21
10.6922
 31
0
  0
LINE
  8
0
 62
7
  6
DASHED
 10
6.460000150000001
 20
10.95359999999999
 30
0
 11
7.370000000000001
 21
10.95359999999999
 31
0
  0
LINE
  8
0
 62
7
  6
DASHED
 10
6.460000150000001
 20
10.88859999999999
 30
0
 11
6.460000150000001
 21
10.95359999999999
 31
0
  0
LINE
  8
0
 62
7
  6
DASHED
 10
7.370000000000001
 20
10.95359999999999
 30
0
 11
7.370000000000001
 21
10.88859999999999
 31
0
  0
LINE
  8
0
 62
7
  6
DASHED
 10
7.370000000000001
 20
10.88859999999999
 30
0
 11
6.460000150000001
 21
10.88859999999999
 31
0
  0
LINE
  8
0
 62
7
 10
1.730619850000001
 20
8.596800069999993
 30
0
 11
2.090000110000001
 21
8.596800069999993
 31
0
  0
LINE
  8
0
 62
7
 10
2.090000110000001
 20
8.531800069999994
 30
0
 11
1.730619850000001
 21
8.531800069999994
 31
0
  0
LINE
  8
0
 62
7
 10
2.090000110000001
 20
8.596800069999993
 30
0
 11
2.090000110000001
 21
8.531800069999994
 31
0
  0
LINE
  8
0
 62
7
 10
1.730619850000001
 20
8.531800069999994
 30
0
 11
1.730619850000001
 21
8.596800069999993
 31
0
  0
LINE
  8
0
 62
7
 10
1.90628815
 20
8.728200059999997
 30
0
 11
1.382251430000001
 21
8.728200059999997
 31
0
  0
LINE
  8
0
 62
7
 10
1.382251430000001
 20
8.793200059999995
 30
0
 11
1.90628815
 21
8.793200059999995
 31
0
  0
LINE
  8
0
 62
7
 10
1.90628815
 20
8.793200059999995
 30
0
 11
1.90628815
 21
8.728200059999997
 31
0
  0
LINE
  8
0
 62
7
 10
1.382251430000001
 20
8.728200059999997
 30
0
 11
1.382251430000001
 21
8.793200059999995
 31
0
  0
LINE
  8
0
 62
7
 10
1.79540214
 20
8.924600059999996
 30
0
 11
0.967773440000001
 21
8.924600059999996
 31
0
  0
LINE
  8
0
 62
7
 10
0.967773440000001
 20
8.989600059999995
 30
0
 11
1.79540214
 21
8.989600059999995
 31
0
  0
LINE
  8
0
 62
7
 10
1.79540214
 20
8.989600059999995
 30
0
 11
1.79540214
 21
8.924600059999996
 31
0
  0
LINE
  8
0
 62
7
 10
0.967773440000001
 20
8.924600059999996
 30
0
 11
0.967773440000001
 21
8.989600059999995
 31
0
  0
LINE
  8
0
 62
7
 10
0.7949998500000004
 20
9.186000049999995
 30
0
 11
1.705
 21
9.186000049999995
 31
0
  0
LINE
  8
0
 62
7
 10
1.705
 20
9.121000049999996
 30
0
 11
0.7949998500000004
 21
9.121000049999996
 31
0
  0
LINE
  8
0
 62
7
 10
1.705
 20
9.186000049999995
 30
0
 11
1.705
 21
9.121000049999996
 31
0
  0
LINE
  8
0
 62
7
 10
0.7949998500000004
 20
9.121000049999996
 30
0
 11
0.7949998500000004
 21
9.186000049999995
 31
0
  0
LINE
  8
0
 62
7
 10
0.795
 20
9.382400049999996
 30
0
 11
1.70500007
 21
9.382400049999996
 31
0
  0
LINE
  8
0
 62
7
 10
1.70500007
 20
9.382400049999996
 30
0
 11
1.70500007
 21
9.317400049999994
 31
0
  0
LINE
  8
0
 62
7
 10
0.795
 20
9.317400049999994
 30
0
 11
0.795
 21
9.382400049999996
 31
0
  0
LINE
  8
0
 62
7
 10
1.70500007
 20
9.317400049999994
 30
0
 11
0.795
 21
9.317400049999994
 31
0
  0
LINE
  8
0
 62
7
 10
0.7949998500000004
 20
9.578800039999996
 30
0
 11
1.70500015
 21
9.578800039999996
 31
0
  0
LINE
  8
0
 62
7
 10
1.70500015
 20
9.578800039999996
 30
0
 11
1.70500015
 21
9.513800039999996
 31
0
  0
LINE
  8
0
 62
7
 10
0.7949998500000004
 20
9.513800039999996
 30
0
 11
0.7949998500000004
 21
9.578800039999996
 31
0
  0
LINE
  8
0
 62
7
 10
1.70500015
 20
9.513800039999996
 30
0
 11
0.7949998500000004
 21
9.513800039999996
 31
0
  0
LINE
  8
0
 62
7
 10
0.795
 20
9.775200029999995
 30
0
 11
1.705
 21
9.775200029999995
 31
0
  0
LINE
  8
0
 62
7
 10
1.705
 20
9.775200029999995
 30
0
 11
1.705
 21
9.710200029999996
 31
0
  0
LINE
  8
0
 62
7
 10
0.795
 20
9.710200029999996
 30
0
 11
0.795
 21
9.775200029999995
 31
0
  0
LINE
  8
0
 62
7
 10
1.705
 20
9.710200029999996
 30
0
 11
0.795
 21
9.710200029999996
 31
0
  0
LINE
  8
0
 62
7
 10
0.794999690000001
 20
9.971600029999996
 30
0
 11
1.705000340000001
 21
9.971600029999996
 31
0
  0
LINE
  8
0
 62
7
 10
1.705000340000001
 20
9.971600029999996
 30
0
 11
1.705000340000001
 21
9.906600029999995
 31
0
  0
LINE
  8
0
 62
7
 10
0.794999690000001
 20
9.906600029999995
 30
0
 11
0.794999690000001
 21
9.971600029999996
 31
0
  0
LINE
  8
0
 62
7
 10
1.705000340000001
 20
9.906600029999995
 30
0
 11
0.794999690000001
 21
9.906600029999995
 31
0
  0
LINE
  8
0
 62
7
 10
0.795
 20
10.16800001999999
 30
0
 11
1.705000040000001
 21
10.16800001999999
 31
0
  0
LINE
  8
0
 62
7
 10
1.705000040000001
 20
10.16800001999999
 30
0
 11
1.705000040000001
 21
10.10300001999999
 31
0
  0
LINE
  8
0
 62
7
 10
0.795
 20
10.10300001999999
 30
0
 11
0.795
 21
10.16800001999999
 31
0
  0
LINE
  8
0
 62
7
 10
1.705000040000001
 20
10.10300001999999
 30
0
 11
0.795
 21
10.10300001999999
 31
0
  0
LINE
  8
0
 62
7
 10
0.7949998500000004
 20
10.36440002
 30
0
 11
1.705000230000003
 21
10.36440002
 31
0
  0
LINE
  8
0
 62
7
 10
1.705000230000003
 20
10.29940002
 30
0
 11
0.7949998500000004
 21
10.29940002
 31
0
  0
LINE
  8
0
 62
7
 10
1.705000230000003
 20
10.36440002
 30
0
 11
1.705000230000003
 21
10.29940002
 31
0
  0
LINE
  8
0
 62
7
 10
0.7949998500000004
 20
10.29940002
 30
0
 11
0.7949998500000004
 21
10.36440002
 31
0
  0
LINE
  8
0
 62
7
 10
1.801811600000001
 20
10.49580001
 30
0
 11
0.795
 21
10.49580001
 31
0
  0
LINE
  8
0
 62
7
 10
0.795
 20
10.56080001
 30
0
 11
1.801811600000001
 21
10.56080001
 31
0
  0
LINE
  8
0
 62
7
 10
1.801811600000001
 20
10.56080001
 30
0
 11
1.801811600000001
 21
10.49580001
 31
0
  0
LINE
  8
0
 62
7
 10
0.795
 20
10.49580001
 30
0
 11
0.795
 21
10.56080001
 31
0
  0
LINE
  8
0
 62
7
 10
1.91603874
 20
10.69219999999999
 30
0
 11
1.24216713
 21
10.69219999999999
 31
0
  0
LINE
  8
0
 62
7
 10
1.24216713
 20
10.75719999999999
 30
0
 11
1.91603874
 21
10.75719999999999
 31
0
  0
LINE
  8
0
 62
7
 10
1.91603874
 20
10.75719999999999
 30
0
 11
1.91603874
 21
10.69219999999999
 31
0
  0
LINE
  8
0
 62
7
 10
1.24216713
 20
10.69219999999999
 30
0
 11
1.24216713
 21
10.75719999999999
 31
0
  0
LINE
  8
0
 62
7
 10
1.615460970000001
 20
10.95359999999999
 30
0
 11
1.95000137
 21
10.95359999999999
 31
0
  0
LINE
  8
0
 62
7
 10
1.95000137
 20
10.88859999999999
 30
0
 11
1.615460970000001
 21
10.88859999999999
 31
0
  0
LINE
  8
0
 62
7
 10
1.95000137
 20
10.95359999999999
 30
0
 11
1.95000137
 21
10.88859999999999
 31
0
  0
LINE
  8
0
 62
7
 10
1.615460970000001
 20
10.88859999999999
 30
0
 11
1.615460970000001
 21
10.95359999999999
 31
0
  0
LINE
  8
0
 62
7
 10
7.600000000000001
 20
8.099999999999996
 30
0
 11
7.75
 21
8.099999999999998
 31
0
  0
LINE
  8
0
 62
7
 10
7.600000000000001
 20
8.299999999999997
 30
0
 11
7.75
 21
8.299999999999997
 31
0
  0
LINE
  8
0
 62
7
 10
7.600000000000001
 20
10.85
 30
0
 11
7.75
 21
10.85
 31
0
  0
LINE
  8
0
 62
7
 10
7.600000000000001
 20
11.05
 30
0
 11
7.75
 21
11.05
 31
0
  0
LINE
  8
0
 62
7
 10
7.600000000000001
 20
8.099999999999996
 30
0
 11
7.600000000000001
 21
7.949999999999996
 31
0
  0
LINE
  8
0
 62
7
 10
7.425000000000001
 20
8.099999999999996
 30
0
 11
7.600000000000001
 21
8.099999999999996
 31
0
  0
LINE
  8
0
 62
7
 10
7.600000000000001
 20
8.399999999999997
 30
0
 11
7.600000000000001
 21
8.299999999999997
 31
0
  0
LINE
  8
0
 62
7
 10
7.425000000000001
 20
8.299999999999997
 30
0
 11
7.600000000000001
 21
8.299999999999997
 31
0
  0
LINE
  8
0
 62
7
 10
7.425000000000001
 20
10.85
 30
0
 11
7.600000000000001
 21
10.85
 31
0
  0
LINE
  8
0
 62
7
 10
7.600000000000001
 20
11.15
 30
0
 11
7.600000000000001
 21
11.05
 31
0
  0
LINE
  8
0
 62
7
 10
7.425000000000001
 20
11.05
 30
0
 11
7.600000000000001
 21
11.05
 31
0
  0
LINE
  8
0
 62
7
 10
7.425000000000001
 20
8.099999999999996
 30
0
 11
7.425000000000001
 21
7.949999999999996
 31
0
  0
LINE
  8
0
 62
7
 10
4.665000000000002
 20
8.099999999999996
 30
0
 11
7.425000000000001
 21
8.099999999999996
 31
0
  0
LINE
  8
0
 62
7
 10
7.425000000000001
 20
8.399999999999997
 30
0
 11
7.425000000000001
 21
8.299999999999997
 31
0
  0
LINE
  8
0
 62
7
 10
4.665000000000002
 20
8.299999999999997
 30
0
 11
7.425000000000001
 21
8.299999999999997
 31
0
  0
LINE
  8
0
 62
7
 10
4.665000000000002
 20
10.85
 30
0
 11
7.425000000000001
 21
10.85
 31
0
  0
LINE
  8
0
 62
7
 10
7.425000000000001
 20
11.15
 30
0
 11
7.425000000000001
 21
11.05
 31
0
  0
LINE
  8
0
 62
7
 10
4.665000000000002
 20
11.05
 30
0
 11
7.425000000000001
 21
11.05
 31
0
  0
LINE
  8
0
 62
7
 10
4.665000000000002
 20
8.099999999999996
 30
0
 11
4.665000000000002
 21
7.949999999999996
 31
0
  0
LINE
  8
0
 62
7
 10
4.490000000000001
 20
8.099999999999996
 30
0
 11
4.665000000000002
 21
8.099999999999996
 31
0
  0
LINE
  8
0
 62
7
 10
4.665000000000002
 20
8.399999999999997
 30
0
 11
4.665000000000002
 21
8.299999999999997
 31
0
  0
LINE
  8
0
 62
7
 10
4.490000000000001
 20
8.299999999999997
 30
0
 11
4.665000000000002
 21
8.299999999999997
 31
0
  0
LINE
  8
0
 62
7
 10
4.490000000000001
 20
10.85
 30
0
 11
4.665000000000002
 21
10.85
 31
0
  0
LINE
  8
0
 62
7
 10
4.665000000000002
 20
11.15
 30
0
 11
4.665000000000002
 21
11.05
 31
0
  0
LINE
  8
0
 62
7
 10
4.490000000000001
 20
11.05
 30
0
 11
4.665000000000002
 21
11.05
 31
0
  0
LINE
  8
0
 62
7
 10
4.490000000000001
 20
8.099999999999996
 30
0
 11
4.490000000000001
 21
7.949999999999996
 31
0
  0
LINE
  8
0
 62
7
 10
4.340000000000002
 20
8.099999999999998
 30
0
 11
4.490000000000001
 21
8.099999999999996
 31
0
  0
LINE
  8
0
 62
7
 10
4.490000000000001
 20
8.399999999999997
 30
0
 11
4.490000000000001
 21
8.299999999999997
 31
0
  0
LINE
  8
0
 62
7
 10
4.340000000000002
 20
8.299999999999997
 30
0
 11
4.490000000000001
 21
8.299999999999997
 31
0
  0
LINE
  8
0
 62
7
 10
4.340000000000002
 20
10.85
 30
0
 11
4.490000000000001
 21
10.85
 31
0
  0
LINE
  8
0
 62
7
 10
4.490000000000001
 20
11.15
 30
0
 11
4.490000000000001
 21
11.05
 31
0
  0
LINE
  8
0
 62
7
 10
4.340000000000002
 20
11.05
 30
0
 11
4.490000000000001
 21
11.05
 31
0
  0
LINE
  8
0
 62
7
  6
DASHDOT
 10
7.75
 20
8.099999999999998
 30
0
 11
7.75
 21
8.049999999999997
 31
0
  0
LINE
  8
0
 62
7
  6
DASHDOT
 10
7.75
 20
10.85
 30
0
 11
7.75
 21
10.8
 31
0
  0
LINE
  8
0
 62
7
  6
DASHDOT
 10
4.340000000000002
 20
8.099999999999998
 30
0
 11
4.340000000000002
 21
8.049999999999997
 31
0
  0
LINE
  8
0
 62
7
  6
DASHDOT
 10
4.340000000000002
 20
10.85
 30
0
 11
4.340000000000002
 21
10.8
 31
0
  0
LINE
  8
0
 62
7
  6
DASHDOT
 10
7.600000000000001
 20
11.2
 30
0
 11
7.65
 21
11.2
 31
0
  0
LINE
  8
0
 62
7
  6
DASHDOT
 10
7.600000000000001
 20
7.949999999999996
 30
0
 11
7.65
 21
7.949999999999996
 31
0
  0
LINE
  8
0
 62
7
  6
DASHDOT
 10
4.665000000000002
 20
11.2
 30
0
 11
4.715000000000002
 21
11.2
 31
0
  0
LINE
  8
0
 62
7
  6
DASHDOT
 10
4.665000000000002
 20
7.949999999999996
 30
0
 11
4.715000000000002
 21
7.949999999999996
 31
0
  0
LINE
  8
0
 62
7
 10
7.600000000000001
 20
8.399999999999997
 30
0
 11
7.75
 21
8.399999999999997
 31
0
  0
LINE
  8
0
 62
7
 10
7.600000000000001
 20
10.85
 30
0
 11
7.600000000000001
 21
8.399999999999997
 31
0
  0
LINE
  8
0
 62
7
  6
DASHDOT
 10
7.75
 20
8.449999999999998
 30
0
 11
7.75
 21
8.399999999999997
 31
0
  0
LINE
  8
0
 62
7
 10
4.665000000000002
 20
8.399999999999997
 30
0
 11
7.425000000000001
 21
8.399999999999997
 31
0
  0
LINE
  8
0
 62
7
 10
7.425000000000001
 20
10.85
 30
0
 11
7.425000000000001
 21
8.399999999999997
 31
0
  0
LINE
  8
0
 62
7
 10
4.665000000000002
 20
10.85
 30
0
 11
4.665000000000002
 21
8.399999999999997
 31
0
  0
LINE
  8
0
 62
7
 10
4.340000000000002
 20
8.399999999999997
 30
0
 11
4.490000000000001
 21
8.399999999999997
 31
0
  0
LINE
  8
0
 62
7
 10
4.490000000000001
 20
10.85
 30
0
 11
4.490000000000001
 21
8.399999999999997
 31
0
  0
LINE
  8
0
 62
7
  6
DASHDOT
 10
4.340000000000002
 20
8.449999999999998
 30
0
 11
4.340000000000002
 21
8.399999999999997
 31
0
  0
LINE
  8
0
 62
7
 10
7.600000000000001
 20
11.15
 30
0
 11
7.75
 21
11.15
 31
0
  0
LINE
  8
0
 62
7
 10
7.600000000000001
 20
11.2
 30
0
 11
7.600000000000001
 21
11.15
 31
0
  0
LINE
  8
0
 62
7
  6
DASHDOT
 10
7.75
 20
11.2
 30
0
 11
7.75
 21
11.15
 31
0
  0
LINE
  8
0
 62
7
 10
4.665000000000002
 20
11.15
 30
0
 11
7.425000000000001
 21
11.15
 31
0
  0
LINE
  8
0
 62
7
 10
7.425000000000001
 20
11.2
 30
0
 11
7.425000000000001
 21
11.15
 31
0
  0
LINE
  8
0
 62
7
 10
4.665000000000002
 20
11.2
 30
0
 11
4.665000000000002
 21
11.15
 31
0
  0
LINE
  8
0
 62
7
 10
4.340000000000002
 20
11.15
 30
0
 11
4.490000000000001
 21
11.15
 31
0
  0
LINE
  8
0
 62
7
 10
4.490000000000001
 20
11.2
 30
0
 11
4.490000000000001
 21
11.15
 31
0
  0
LINE
  8
0
 62
7
  6
DASHDOT
 10
4.340000000000002
 20
11.2
 30
0
 11
4.340000000000002
 21
11.15
 31
0
  0
LINE
  8
0
 62
7
  6
DASHDOT
 10
4.340000000000002
 20
8.299999999999997
 30
0
 11
4.340000000000002
 21
8.099999999999998
 31
0
  0
LINE
  8
0
 62
7
  6
DASHDOT
 10
4.340000000000002
 20
8.399999999999997
 30
0
 11
4.340000000000002
 21
8.299999999999997
 31
0
  0
LINE
  8
0
 62
7
  6
DASHDOT
 10
4.490000000000001
 20
7.949999999999996
 30
0
 11
4.665000000000002
 21
7.949999999999996
 31
0
  0
LINE
  8
0
 62
7
  6
DASHDOT
 10
4.440000000000001
 20
7.949999999999996
 30
0
 11
4.490000000000001
 21
7.949999999999996
 31
0
  0
LINE
  8
0
 62
7
  6
DASHDOT
 10
7.75
 20
8.299999999999997
 30
0
 11
7.75
 21
8.099999999999998
 31
0
  0
LINE
  8
0
 62
7
  6
DASHDOT
 10
7.75
 20
8.399999999999997
 30
0
 11
7.75
 21
8.299999999999997
 31
0
  0
LINE
  8
0
 62
7
  6
DASHDOT
 10
7.425000000000001
 20
7.949999999999996
 30
0
 11
7.600000000000001
 21
7.949999999999996
 31
0
  0
LINE
  8
0
 62
7
  6
DASHDOT
 10
7.375
 20
7.949999999999996
 30
0
 11
7.425000000000001
 21
7.949999999999996
 31
0
  0
LINE
  8
0
 62
7
  6
DASHDOT
 10
7.75
 20
11.05
 30
0
 11
7.75
 21
10.85
 31
0
  0
LINE
  8
0
 62
7
  6
DASHDOT
 10
7.75
 20
11.15
 30
0
 11
7.75
 21
11.05
 31
0
  0
LINE
  8
0
 62
7
  6
DASHDOT
 10
7.425000000000001
 20
11.2
 30
0
 11
7.600000000000001
 21
11.2
 31
0
  0
LINE
  8
0
 62
7
  6
DASHDOT
 10
7.375
 20
11.2
 30
0
 11
7.425000000000001
 21
11.2
 31
0
  0
LINE
  8
0
 62
7
  6
DASHDOT
 10
4.340000000000002
 20
11.05
 30
0
 11
4.340000000000002
 21
10.85
 31
0
  0
LINE
  8
0
 62
7
  6
DASHDOT
 10
4.340000000000002
 20
11.15
 30
0
 11
4.340000000000002
 21
11.05
 31
0
  0
LINE
  8
0
 62
7
  6
DASHDOT
 10
4.490000000000001
 20
11.2
 30
0
 11
4.665000000000002
 21
11.2
 31
0
  0
LINE
  8
0
 62
7
  6
DASHDOT
 10
4.440000000000001
 20
11.2
 30
0
 11
4.490000000000001
 21
11.2
 31
0
  0
LINE
  8
0
 62
7
 10
0.5
 20
7.949999999999996
 30
0
 11
0.5
 21
8.099999999999996
 31
0
  0
LINE
  8
0
 62
7
 10
0.7399999999999992
 20
11.2
 30
0
 11
0.7399999999999992
 21
11.05
 31
0
  0
LINE
  8
0
 62
7
 10
0.5
 20
11.05
 30
0
 11
0.7399999999999992
 21
11.05
 31
0
  0
LINE
  8
0
 62
7
 10
0.5
 20
11.05
 30
0
 11
0.5
 21
11.2
 31
0
  0
LINE
  8
0
 62
7
 10
0.7399999999999992
 20
11.05
 30
0
 11
0.7399999999999992
 21
10.85
 31
0
  0
LINE
  8
0
 62
7
 10
0.5
 20
10.85
 30
0
 11
0.7399999999999992
 21
10.85
 31
0
  0
LINE
  8
0
 62
7
 10
0.5
 20
10.85
 30
0
 11
0.5
 21
11.05
 31
0
  0
LINE
  8
0
 62
7
 10
0.7399999999999992
 20
10.85
 30
0
 11
0.7399999999999992
 21
8.299999999999997
 31
0
  0
LINE
  8
0
 62
7
 10
0.5
 20
8.299999999999997
 30
0
 11
0.7399999999999992
 21
8.299999999999997
 31
0
  0
LINE
  8
0
 62
7
 10
0.5
 20
8.299999999999997
 30
0
 11
0.5
 21
10.85
 31
0
  0
LINE
  8
0
 62
7
 10
0.7399999999999992
 20
8.299999999999997
 30
0
 11
0.7399999999999992
 21
8.099999999999996
 31
0
  0
LINE
  8
0
 62
7
 10
0.5
 20
8.099999999999996
 30
0
 11
0.7399999999999992
 21
8.099999999999996
 31
0
  0
LINE
  8
0
 62
7
 10
0.5
 20
8.099999999999996
 30
0
 11
0.5
 21
8.299999999999997
 31
0
  0
LINE
  8
0
 62
7
 10
0.7399999999999992
 20
8.099999999999996
 30
0
 11
0.7399999999999992
 21
7.949999999999996
 31
0
  0
LINE
  8
0
 62
7
 10
1.989999999999999
 20
11.05
 30
0
 11
1.989999999999999
 21
10.85
 31
0
  0
LINE
  8
0
 62
7
 10
1.989999999999999
 20
10.85
 30
0
 11
2.289999999999999
 21
10.85
 31
0
  0
LINE
  8
0
 62
7
 10
1.989999999999999
 20
11.05
 30
0
 11
2.289999999999999
 21
11.05
 31
0
  0
LINE
  8
0
 62
7
 10
1.989999999999999
 20
8.299999999999997
 30
0
 11
2.289999999999999
 21
8.299999999999997
 31
0
  0
LINE
  8
0
 62
7
 10
1.989999999999999
 20
8.299999999999997
 30
0
 11
1.989999999999999
 21
8.099999999999998
 31
0
  0
LINE
  8
0
 62
7
 10
1.989999999999999
 20
8.099999999999998
 30
0
 11
2.289999999999999
 21
8.099999999999998
 31
0
  0
LINE
  8
0
 62
7
  6
DASHDOT
 10
0.45
 20
11.2
 30
0
 11
0.5
 21
11.2
 31
0
  0
LINE
  8
0
 62
7
  6
DASHDOT
 10
2.289999999999999
 20
11.2
 30
0
 11
2.289999999999999
 21
11.15
 31
0
  0
LINE
  8
0
 62
7
  6
DASHDOT
 10
2.289999999999999
 20
8.049999999999997
 30
0
 11
2.289999999999999
 21
8.099999999999998
 31
0
  0
LINE
  8
0
 62
7
  6
DASHDOT
 10
0.45
 20
7.949999999999996
 30
0
 11
0.5
 21
7.949999999999996
 31
0
  0
LINE
  8
0
 62
7
 10
1.989999999999999
 20
8.399999999999997
 30
0
 11
2.289999999999999
 21
8.399999999999997
 31
0
  0
LINE
  8
0
 62
7
  6
DASHDOT
 10
2.289999999999999
 20
8.399999999999997
 30
0
 11
2.289999999999999
 21
8.449999999999998
 31
0
  0
LINE
  8
0
 62
7
 10
1.989999999999999
 20
11.15
 30
0
 11
2.289999999999999
 21
11.15
 31
0
  0
LINE
  8
0
 62
7
  6
DASHDOT
 10
2.289999999999999
 20
11.15
 30
0
 11
2.289999999999999
 21
11.05
 31
0
  0
LINE
  8
0
 62
7
  6
DASHDOT
 10
2.289999999999999
 20
8.299999999999997
 30
0
 11
2.289999999999999
 21
8.399999999999997
 31
0
  0
LINE
  8
0
 62
7
  6
DASHDOT
 10
2.289999999999999
 20
8.099999999999998
 30
0
 11
2.289999999999999
 21
8.299999999999997
 31
0
  0
LINE
  8
0
 62
7
  6
DASHDOT
 10
0.5
 20
7.949999999999996
 30
0
 11
0.7399999999999992
 21
7.949999999999996
 31
0
  0
LINE
  8
0
 62
7
  6
DASHDOT
 10
0.7399999999999992
 20
7.949999999999996
 30
0
 11
0.7899999999999991
 21
7.949999999999996
 31
0
  0
LINE
  8
0
 62
7
  6
DASHDOT
 10
0.7399999999999992
 20
11.2
 30
0
 11
0.7899999999999991
 21
11.2
 31
0
  0
LINE
  8
0
 62
7
  6
DASHDOT
 10
0.5
 20
11.2
 30
0
 11
0.7399999999999992
 21
11.2
 31
0
  0
LINE
  8
0
 62
7
  6
DASHDOT
 10
2.289999999999999
 20
10.85
 30
0
 11
2.29
 21
10.8
 31
0
  0
LINE
  8
0
 62
7
  6
DASHDOT
 10
2.289999999999999
 20
11.05
 30
0
 11
2.289999999999999
 21
10.85
 31
0
  0
LINE
  8
0
 62
7
  6
DASHED
 10
0.7399999999999992
 20
11.05
 30
0
 11
1.989999999999999
 21
11.05
 31
0
  0
LINE
  8
0
 62
7
  6
DASHED
 10
0.7399999999999992
 20
10.85
 30
0
 11
1.989999999999999
 21
10.85
 31
0
  0
LINE
  8
0
 62
7
  6
DASHED
 10
0.7399999999999992
 20
8.299999999999997
 30
0
 11
1.989999999999999
 21
8.299999999999997
 31
0
  0
LINE
  8
0
 62
7
  6
DASHED
 10
0.7399999999999992
 20
8.099999999999996
 30
0
 11
1.989999999999999
 21
8.099999999999998
 31
0
  0
LINE
  8
0
 62
7
 10
4.340000000000002
 20
5.119999999999997
 30
0
 11
4.490000000000001
 21
5.119999999999997
 31
0
  0
LINE
  8
0
 62
7
 10
4.490000000000001
 20
5.119999999999997
 30
0
 11
4.490000000000001
 21
5.269999999999997
 31
0
  0
LINE
  8
0
 62
7
 10
4.665000000000002
 20
5.269999999999997
 30
0
 11
4.665000000000002
 21
5.119999999999997
 31
0
  0
LINE
  8
0
 62
7
 10
4.665000000000002
 20
5.119999999999997
 30
0
 11
7.425000000000001
 21
5.119999999999997
 31
0
  0
LINE
  8
0
 62
7
 10
7.425000000000001
 20
5.119999999999997
 30
0
 11
7.425000000000001
 21
5.269999999999997
 31
0
  0
LINE
  8
0
 62
7
 10
7.600000000000001
 20
5.269999999999997
 30
0
 11
7.600000000000001
 21
5.119999999999997
 31
0
  0
LINE
  8
0
 62
7
 10
7.600000000000001
 20
5.119999999999997
 30
0
 11
7.765000000000001
 21
5.119999999999997
 31
0
  0
LINE
  8
0
 62
7
 10
4.340000000000002
 20
4.880000000000001
 30
0
 11
7.765000000000001
 21
4.880000000000001
 31
0
  0
LINE
  8
0
 62
7
 10
4.340000000000002
 20
4.84
 30
0
 11
7.765000000000001
 21
4.84
 31
0
  0
LINE
  8
0
 62
7
 10
4.340000000000002
 20
4.600000000000001
 30
0
 11
4.490000000000001
 21
4.600000000000001
 31
0
  0
LINE
  8
0
 62
7
 10
4.665000000000002
 20
3.25
 30
0
 11
4.665000000000002
 21
3.35
 31
0
  0
LINE
  8
0
 62
7
 10
4.490000000000001
 20
3.25
 30
0
 11
4.665000000000002
 21
3.25
 31
0
  0
LINE
  8
0
 62
7
 10
4.490000000000001
 20
4.600000000000001
 30
0
 11
4.490000000000001
 21
3.25
 31
0
  0
LINE
  8
0
 62
7
 10
4.665000000000002
 20
4.600000000000001
 30
0
 11
7.425000000000001
 21
4.600000000000001
 31
0
  0
LINE
  8
0
 62
7
 10
7.425000000000001
 20
4.600000000000001
 30
0
 11
7.425000000000001
 21
3.4
 31
0
  0
LINE
  8
0
 62
7
 10
7.600000000000001
 20
3.35
 30
0
 11
7.600000000000001
 21
4.600000000000001
 31
0
  0
LINE
  8
0
 62
7
 10
7.600000000000001
 20
4.600000000000001
 30
0
 11
7.765000000000001
 21
4.600000000000001
 31
0
  0
LINE
  8
0
 62
7
 10
7.425000000000001
 20
3.35
 30
0
 11
7.600000000000001
 21
3.35
 31
0
  0
LINE
  8
0
 62
7
 10
7.425000000000001
 20
3.4
 30
0
 11
4.665000000000002
 21
3.4
 31
0
  0
LINE
  8
0
 62
7
 10
4.665000000000002
 20
3.4
 30
0
 11
4.665000000000002
 21
4.600000000000001
 31
0
  0
LINE
  8
0
 62
7
 10
7.425000000000001
 20
3.4
 30
0
 11
7.425000000000001
 21
3.35
 31
0
  0
LINE
  8
0
 62
7
  6
DASHDOT
 10
7.425000000000001
 20
3.35
 30
0
 11
4.665000000000002
 21
3.35
 31
0
  0
LINE
  8
0
 62
7
 10
4.665000000000002
 20
3.35
 30
0
 11
4.665000000000002
 21
3.4
 31
0
  0
LINE
  8
0
 62
7
  6
DASHDOT
 10
4.440000000000001
 20
5.269999999999997
 30
0
 11
4.490000000000001
 21
5.269999999999997
 31
0
  0
LINE
  8
0
 62
7
  6
DASHDOT
 10
7.375
 20
5.269999999999997
 30
0
 11
7.425000000000001
 21
5.269999999999997
 31
0
  0
LINE
  8
0
 62
7
  6
DASHDOT
 10
4.340000000000002
 20
5.169999999999997
 30
0
 11
4.340000000000002
 21
5.119999999999997
 31
0
  0
LINE
  8
0
 62
7
  6
DASHDOT
 10
7.765000000000001
 20
5.169999999999997
 30
0
 11
7.765000000000001
 21
5.119999999999997
 31
0
  0
LINE
  8
0
 62
7
  6
DASHDOT
 10
7.765000000000001
 20
5.119999999999997
 30
0
 11
7.765000000000001
 21
4.880000000000001
 31
0
  0
LINE
  8
0
 62
7
  6
DASHDOT
 10
7.765000000000001
 20
4.600000000000001
 30
0
 11
7.765000000000001
 21
4.55
 31
0
  0
LINE
  8
0
 62
7
  6
DASHDOT
 10
4.490000000000001
 20
5.269999999999997
 30
0
 11
4.665000000000002
 21
5.269999999999997
 31
0
  0
LINE
  8
0
 62
7
  6
DASHDOT
 10
4.665000000000002
 20
5.269999999999997
 30
0
 11
4.715000000000002
 21
5.269999999999997
 31
0
  0
LINE
  8
0
 62
7
  6
DASHDOT
 10
4.340000000000002
 20
5.119999999999997
 30
0
 11
4.340000000000002
 21
4.880000000000001
 31
0
  0
LINE
  8
0
 62
7
  6
DASHDOT
 10
4.340000000000002
 20
4.600000000000001
 30
0
 11
4.340000000000002
 21
4.55
 31
0
  0
LINE
  8
0
 62
7
  6
DASHDOT
 10
7.765000000000001
 20
4.880000000000001
 30
0
 11
7.765000000000001
 21
4.84
 31
0
  0
LINE
  8
0
 62
7
  6
DASHDOT
 10
4.340000000000002
 20
4.880000000000001
 30
0
 11
4.340000000000002
 21
4.84
 31
0
  0
LINE
  8
0
 62
7
  6
DASHDOT
 10
7.765000000000001
 20
4.84
 30
0
 11
7.765000000000001
 21
4.600000000000001
 31
0
  0
LINE
  8
0
 62
7
  6
DASHDOT
 10
4.340000000000002
 20
4.84
 30
0
 11
4.340000000000002
 21
4.600000000000001
 31
0
  0
LINE
  8
0
 62
7
  6
DASHDOT
 10
7.600000000000001
 20
5.269999999999997
 30
0
 11
7.65
 21
5.269999999999997
 31
0
  0
LINE
  8
0
 62
7
  6
DASHDOT
 10
7.425000000000001
 20
5.269999999999997
 30
0
 11
7.600000000000001
 21
5.269999999999997
 31
0
  0
LINE
  8
0
 62
7
 10
5.193917969255662
 20
4.291731175836031
 30
0
 11
5.193917969255662
 21
4.411731175836031
 31
0
  0
LINE
  8
0
 62
7
 10
5.269517969255662
 20
4.411731175836031
 30
0
 11
5.215517969255662
 21
4.35173117583603
 31
0
  0
LINE
  8
0
 62
7
 10
5.215517969255662
 20
4.35173117583603
 30
0
 11
5.269517969255662
 21
4.291731175836031
 31
0
  0
LINE
  8
0
 62
7
 10
5.215517969255662
 20
4.35173117583603
 30
0
 11
5.193917969255662
 21
4.327731175836031
 31
0
  0
LINE
  8
0
 62
7
 10
5.377517969255662
 20
4.411731175836031
 30
0
 11
5.301917969255662
 21
4.411731175836031
 31
0
  0
LINE
  8
0
 62
7
 10
5.301917969255662
 20
4.411731175836031
 30
0
 11
5.301917969255662
 21
4.35173117583603
 31
0
  0
LINE
  8
0
 62
7
 10
5.301917969255662
 20
4.291731175836031
 30
0
 11
5.377517969255662
 21
4.291731175836031
 31
0
  0
LINE
  8
0
 62
7
 10
5.366717969255661
 20
4.35173117583603
 30
0
 11
5.301917969255662
 21
4.35173117583603
 31
0
  0
LINE
  8
0
 62
7
 10
5.301917969255662
 20
4.35173117583603
 30
0
 11
5.301917969255662
 21
4.291731175836031
 31
0
  0
LINE
  8
0
 62
7
 10
5.409917969255662
 20
4.291731175836031
 30
0
 11
5.409917969255662
 21
4.411731175836031
 31
0
  0
LINE
  8
0
 62
7
 10
5.409917969255662
 20
4.411731175836031
 30
0
 11
5.485517969255661
 21
4.291731175836031
 31
0
  0
LINE
  8
0
 62
7
 10
5.485517969255661
 20
4.291731175836031
 30
0
 11
5.485517969255661
 21
4.411731175836031
 31
0
  0
LINE
  8
0
 62
7
 10
5.517917969255661
 20
4.291731175836031
 30
0
 11
5.517917969255661
 21
4.411731175836031
 31
0
  0
LINE
  8
0
 62
7
 10
5.517917969255661
 20
4.411731175836031
 30
0
 11
5.593517969255663
 21
4.291731175836031
 31
0
  0
LINE
  8
0
 62
7
 10
5.593517969255663
 20
4.291731175836031
 30
0
 11
5.593517969255663
 21
4.411731175836031
 31
0
  0
LINE
  8
0
 62
7
 10
5.701517969255661
 20
4.375731175836031
 30
0
 11
5.698817969255661
 21
4.38773117583603
 31
0
  0
LINE
  8
0
 62
7
 10
5.698817969255661
 20
4.38773117583603
 30
0
 11
5.693417969255662
 21
4.39673117583603
 31
0
  0
LINE
  8
0
 62
7
 10
5.693417969255662
 20
4.39673117583603
 30
0
 11
5.688017969255662
 21
4.40273117583603
 31
0
  0
LINE
  8
0
 62
7
 10
5.688017969255662
 20
4.40273117583603
 30
0
 11
5.679917969255661
 21
4.408731175836031
 31
0
  0
LINE
  8
0
 62
7
 10
5.679917969255661
 20
4.408731175836031
 30
0
 11
5.671817969255662
 21
4.411731175836031
 31
0
  0
LINE
  8
0
 62
7
 10
5.671817969255662
 20
4.411731175836031
 30
0
 11
5.655617969255662
 21
4.411731175836031
 31
0
  0
LINE
  8
0
 62
7
 10
5.655617969255662
 20
4.411731175836031
 30
0
 11
5.647517969255662
 21
4.408731175836031
 31
0
  0
LINE
  8
0
 62
7
 10
5.647517969255662
 20
4.408731175836031
 30
0
 11
5.639417969255661
 21
4.40273117583603
 31
0
  0
LINE
  8
0
 62
7
 10
5.639417969255661
 20
4.40273117583603
 30
0
 11
5.634017969255662
 21
4.39673117583603
 31
0
  0
LINE
  8
0
 62
7
 10
5.634017969255662
 20
4.39673117583603
 30
0
 11
5.628617969255661
 21
4.38773117583603
 31
0
  0
LINE
  8
0
 62
7
 10
5.628617969255661
 20
4.38773117583603
 30
0
 11
5.625917969255661
 21
4.375731175836031
 31
0
  0
LINE
  8
0
 62
7
 10
5.625917969255661
 20
4.375731175836031
 30
0
 11
5.625917969255661
 21
4.327731175836031
 31
0
  0
LINE
  8
0
 62
7
 10
5.625917969255661
 20
4.327731175836031
 30
0
 11
5.628617969255661
 21
4.315731175836031
 31
0
  0
LINE
  8
0
 62
7
 10
5.628617969255661
 20
4.315731175836031
 30
0
 11
5.634017969255662
 21
4.30673117583603
 31
0
  0
LINE
  8
0
 62
7
 10
5.634017969255662
 20
4.30673117583603
 30
0
 11
5.639417969255661
 21
4.300731175836031
 31
0
  0
LINE
  8
0
 62
7
 10
5.639417969255661
 20
4.300731175836031
 30
0
 11
5.647517969255662
 21
4.29473117583603
 31
0
  0
LINE
  8
0
 62
7
 10
5.647517969255662
 20
4.29473117583603
 30
0
 11
5.655617969255662
 21
4.291731175836031
 31
0
  0
LINE
  8
0
 62
7
 10
5.655617969255662
 20
4.291731175836031
 30
0
 11
5.671817969255662
 21
4.291731175836031
 31
0
  0
LINE
  8
0
 62
7
 10
5.671817969255662
 20
4.291731175836031
 30
0
 11
5.679917969255661
 21
4.29473117583603
 31
0
  0
LINE
  8
0
 62
7
 10
5.679917969255661
 20
4.29473117583603
 30
0
 11
5.688017969255662
 21
4.300731175836031
 31
0
  0
LINE
  8
0
 62
7
 10
5.688017969255662
 20
4.300731175836031
 30
0
 11
5.693417969255662
 21
4.30673117583603
 31
0
  0
LINE
  8
0
 62
7
 10
5.693417969255662
 20
4.30673117583603
 30
0
 11
5.698817969255661
 21
4.315731175836031
 31
0
  0
LINE
  8
0
 62
7
 10
5.698817969255661
 20
4.315731175836031
 30
0
 11
5.701517969255661
 21
4.327731175836031
 31
0
  0
LINE
  8
0
 62
7
 10
5.701517969255661
 20
4.327731175836031
 30
0
 11
5.701517969255661
 21
4.35173117583603
 31
0
  0
LINE
  8
0
 62
7
 10
5.701517969255661
 20
4.35173117583603
 30
0
 11
5.669117969255662
 21
4.35173117583603
 31
0
  0
LINE
  8
0
 62
7
 10
5.779817969255661
 20
4.411731175836031
 30
0
 11
5.763617969255661
 21
4.411731175836031
 31
0
  0
LINE
  8
0
 62
7
 10
5.763617969255661
 20
4.411731175836031
 30
0
 11
5.755517969255662
 21
4.408731175836031
 31
0
  0
LINE
  8
0
 62
7
 10
5.755517969255662
 20
4.408731175836031
 30
0
 11
5.747417969255661
 21
4.40273117583603
 31
0
  0
LINE
  8
0
 62
7
 10
5.747417969255661
 20
4.40273117583603
 30
0
 11
5.742017969255662
 21
4.39673117583603
 31
0
  0
LINE
  8
0
 62
7
 10
5.742017969255662
 20
4.39673117583603
 30
0
 11
5.736617969255661
 21
4.38773117583603
 31
0
  0
LINE
  8
0
 62
7
 10
5.736617969255661
 20
4.38773117583603
 30
0
 11
5.733917969255662
 21
4.375731175836031
 31
0
  0
LINE
  8
0
 62
7
 10
5.733917969255662
 20
4.375731175836031
 30
0
 11
5.733917969255662
 21
4.327731175836031
 31
0
  0
LINE
  8
0
 62
7
 10
5.733917969255662
 20
4.327731175836031
 30
0
 11
5.736617969255661
 21
4.315731175836031
 31
0
  0
LINE
  8
0
 62
7
 10
5.736617969255661
 20
4.315731175836031
 30
0
 11
5.742017969255662
 21
4.30673117583603
 31
0
  0
LINE
  8
0
 62
7
 10
5.742017969255662
 20
4.30673117583603
 30
0
 11
5.747417969255661
 21
4.300731175836031
 31
0
  0
LINE
  8
0
 62
7
 10
5.747417969255661
 20
4.300731175836031
 30
0
 11
5.755517969255662
 21
4.29473117583603
 31
0
  0
LINE
  8
0
 62
7
 10
5.755517969255662
 20
4.29473117583603
 30
0
 11
5.763617969255661
 21
4.291731175836031
 31
0
  0
LINE
  8
0
 62
7
 10
5.763617969255661
 20
4.291731175836031
 30
0
 11
5.779817969255661
 21
4.291731175836031
 31
0
  0
LINE
  8
0
 62
7
 10
5.779817969255661
 20
4.291731175836031
 30
0
 11
5.787917969255662
 21
4.29473117583603
 31
0
  0
LINE
  8
0
 62
7
 10
5.787917969255662
 20
4.29473117583603
 30
0
 11
5.796017969255662
 21
4.300731175836031
 31
0
  0
LINE
  8
0
 62
7
 10
5.796017969255662
 20
4.300731175836031
 30
0
 11
5.801417969255662
 21
4.30673117583603
 31
0
  0
LINE
  8
0
 62
7
 10
5.801417969255662
 20
4.30673117583603
 30
0
 11
5.806817969255661
 21
4.315731175836031
 31
0
  0
LINE
  8
0
 62
7
 10
5.806817969255661
 20
4.315731175836031
 30
0
 11
5.809517969255662
 21
4.327731175836031
 31
0
  0
LINE
  8
0
 62
7
 10
5.809517969255662
 20
4.327731175836031
 30
0
 11
5.809517969255662
 21
4.375731175836031
 31
0
  0
LINE
  8
0
 62
7
 10
5.809517969255662
 20
4.375731175836031
 30
0
 11
5.806817969255661
 21
4.38773117583603
 31
0
  0
LINE
  8
0
 62
7
 10
5.806817969255661
 20
4.38773117583603
 30
0
 11
5.801417969255662
 21
4.39673117583603
 31
0
  0
LINE
  8
0
 62
7
 10
5.801417969255662
 20
4.39673117583603
 30
0
 11
5.796017969255662
 21
4.40273117583603
 31
0
  0
LINE
  8
0
 62
7
 10
5.796017969255662
 20
4.40273117583603
 30
0
 11
5.787917969255662
 21
4.408731175836031
 31
0
  0
LINE
  8
0
 62
7
 10
5.787917969255662
 20
4.408731175836031
 30
0
 11
5.779817969255661
 21
4.411731175836031
 31
0
  0
LINE
  8
0
 62
7
 10
5.831117969255661
 20
4.411731175836031
 30
0
 11
5.868917969255662
 21
4.411731175836031
 31
0
  0
LINE
  8
0
 62
7
 10
5.868917969255662
 20
4.411731175836031
 30
0
 11
5.868917969255662
 21
4.291731175836031
 31
0
  0
LINE
  8
0
 62
7
 10
5.868917969255662
 20
4.411731175836031
 30
0
 11
5.906717969255662
 21
4.411731175836031
 31
0
  0
LINE
  8
0
 62
7
 10
5.939117969255662
 20
4.411731175836031
 30
0
 11
5.976917969255662
 21
4.411731175836031
 31
0
  0
LINE
  8
0
 62
7
 10
5.976917969255662
 20
4.411731175836031
 30
0
 11
5.976917969255662
 21
4.291731175836031
 31
0
  0
LINE
  8
0
 62
7
 10
5.976917969255662
 20
4.411731175836031
 30
0
 11
6.014717969255662
 21
4.411731175836031
 31
0
  0
LINE
  8
0
 62
7
 10
6.133517969255662
 20
4.333731175836031
 30
0
 11
6.187517969255661
 21
4.333731175836031
 31
0
  0
LINE
  8
0
 62
7
 10
6.295517969255662
 20
4.411731175836031
 30
0
 11
6.333317969255661
 21
4.411731175836031
 31
0
  0
LINE
  8
0
 62
7
 10
6.333317969255661
 20
4.411731175836031
 30
0
 11
6.333317969255661
 21
4.291731175836031
 31
0
  0
LINE
  8
0
 62
7
 10
6.333317969255661
 20
4.411731175836031
 30
0
 11
6.371117969255661
 21
4.411731175836031
 31
0
  0
LINE
  8
0
 62
7
 10
6.403517969255661
 20
4.291731175836031
 30
0
 11
6.403517969255661
 21
4.411731175836031
 31
0
  0
LINE
  8
0
 62
7
 10
6.403517969255661
 20
4.411731175836031
 30
0
 11
6.454817969255661
 21
4.411731175836031
 31
0
  0
LINE
  8
0
 62
7
 10
6.454817969255661
 20
4.411731175836031
 30
0
 11
6.465617969255662
 21
4.408731175836031
 31
0
  0
LINE
  8
0
 62
7
 10
6.465617969255662
 20
4.408731175836031
 30
0
 11
6.473717969255661
 21
4.40273117583603
 31
0
  0
LINE
  8
0
 62
7
 10
6.473717969255661
 20
4.40273117583603
 30
0
 11
6.476417969255661
 21
4.39673117583603
 31
0
  0
LINE
  8
0
 62
7
 10
6.476417969255661
 20
4.39673117583603
 30
0
 11
6.479117969255661
 21
4.38773117583603
 31
0
  0
LINE
  8
0
 62
7
 10
6.479117969255661
 20
4.38773117583603
 30
0
 11
6.479117969255661
 21
4.375731175836031
 31
0
  0
LINE
  8
0
 62
7
 10
6.479117969255661
 20
4.375731175836031
 30
0
 11
6.476417969255661
 21
4.366731175836031
 31
0
  0
LINE
  8
0
 62
7
 10
6.476417969255661
 20
4.366731175836031
 30
0
 11
6.473717969255661
 21
4.360731175836031
 31
0
  0
LINE
  8
0
 62
7
 10
6.473717969255661
 20
4.360731175836031
 30
0
 11
6.465617969255662
 21
4.35473117583603
 31
0
  0
LINE
  8
0
 62
7
 10
6.465617969255662
 20
4.35473117583603
 30
0
 11
6.454817969255661
 21
4.35173117583603
 31
0
  0
LINE
  8
0
 62
7
 10
6.454817969255661
 20
4.35173117583603
 30
0
 11
6.44671796925566
 21
4.35173117583603
 31
0
  0
LINE
  8
0
 62
7
 10
6.44671796925566
 20
4.35173117583603
 30
0
 11
6.479117969255661
 21
4.291731175836031
 31
0
  0
LINE
  8
0
 62
7
 10
6.44671796925566
 20
4.35173117583603
 30
0
 11
6.403517969255661
 21
4.35173117583603
 31
0
  0
LINE
  8
0
 62
7
 10
6.576317969255661
 20
4.411731175836031
 30
0
 11
6.50071796925566
 21
4.411731175836031
 31
0
  0
LINE
  8
0
 62
7
 10
6.50071796925566
 20
4.411731175836031
 30
0
 11
6.50071796925566
 21
4.35173117583603
 31
0
  0
LINE
  8
0
 62
7
 10
6.50071796925566
 20
4.291731175836031
 30
0
 11
6.576317969255661
 21
4.291731175836031
 31
0
  0
LINE
  8
0
 62
7
 10
6.565517969255662
 20
4.35173117583603
 30
0
 11
6.50071796925566
 21
4.35173117583603
 31
0
  0
LINE
  8
0
 62
7
 10
6.50071796925566
 20
4.35173117583603
 30
0
 11
6.50071796925566
 21
4.291731175836031
 31
0
  0
LINE
  8
0
 62
7
 10
6.608717969255661
 20
4.291731175836031
 30
0
 11
6.608717969255661
 21
4.35173117583603
 31
0
  0
LINE
  8
0
 62
7
 10
6.608717969255661
 20
4.411731175836031
 30
0
 11
6.660017969255661
 21
4.411731175836031
 31
0
  0
LINE
  8
0
 62
7
 10
6.660017969255661
 20
4.411731175836031
 30
0
 11
6.670817969255662
 21
4.408731175836031
 31
0
  0
LINE
  8
0
 62
7
 10
6.670817969255662
 20
4.408731175836031
 30
0
 11
6.678917969255662
 21
4.40273117583603
 31
0
  0
LINE
  8
0
 62
7
 10
6.678917969255662
 20
4.40273117583603
 30
0
 11
6.681617969255661
 21
4.39673117583603
 31
0
  0
LINE
  8
0
 62
7
 10
6.681617969255661
 20
4.39673117583603
 30
0
 11
6.684317969255662
 21
4.38773117583603
 31
0
  0
LINE
  8
0
 62
7
 10
6.684317969255662
 20
4.38773117583603
 30
0
 11
6.684317969255662
 21
4.375731175836031
 31
0
  0
LINE
  8
0
 62
7
 10
6.684317969255662
 20
4.375731175836031
 30
0
 11
6.681617969255661
 21
4.366731175836031
 31
0
  0
LINE
  8
0
 62
7
 10
6.681617969255661
 20
4.366731175836031
 30
0
 11
6.678917969255662
 21
4.360731175836031
 31
0
  0
LINE
  8
0
 62
7
 10
6.678917969255662
 20
4.360731175836031
 30
0
 11
6.670817969255662
 21
4.35473117583603
 31
0
  0
LINE
  8
0
 62
7
 10
6.670817969255662
 20
4.35473117583603
 30
0
 11
6.660017969255661
 21
4.35173117583603
 31
0
  0
LINE
  8
0
 62
7
 10
6.660017969255661
 20
4.35173117583603
 30
0
 11
6.608717969255661
 21
4.35173117583603
 31
0
  0
LINE
  8
0
 62
7
 10
6.608717969255661
 20
4.35173117583603
 30
0
 11
6.608717969255661
 21
4.411731175836031
 31
0
  0
LINE
  8
0
 62
7
 10
6.705917969255662
 20
4.291731175836031
 30
0
 11
6.705917969255662
 21
4.35173117583603
 31
0
  0
LINE
  8
0
 62
7
 10
6.705917969255662
 20
4.411731175836031
 30
0
 11
6.757217969255662
 21
4.411731175836031
 31
0
  0
LINE
  8
0
 62
7
 10
6.757217969255662
 20
4.411731175836031
 30
0
 11
6.768017969255661
 21
4.408731175836031
 31
0
  0
LINE
  8
0
 62
7
 10
6.768017969255661
 20
4.408731175836031
 30
0
 11
6.776117969255662
 21
4.40273117583603
 31
0
  0
LINE
  8
0
 62
7
 10
6.776117969255662
 20
4.40273117583603
 30
0
 11
6.778817969255662
 21
4.39673117583603
 31
0
  0
LINE
  8
0
 62
7
 10
6.778817969255662
 20
4.39673117583603
 30
0
 11
6.781517969255662
 21
4.38773117583603
 31
0
  0
LINE
  8
0
 62
7
 10
6.781517969255662
 20
4.38773117583603
 30
0
 11
6.781517969255662
 21
4.375731175836031
 31
0
  0
LINE
  8
0
 62
7
 10
6.781517969255662
 20
4.375731175836031
 30
0
 11
6.778817969255662
 21
4.366731175836031
 31
0
  0
LINE
  8
0
 62
7
 10
6.778817969255662
 20
4.366731175836031
 30
0
 11
6.776117969255662
 21
4.360731175836031
 31
0
  0
LINE
  8
0
 62
7
 10
6.776117969255662
 20
4.360731175836031
 30
0
 11
6.768017969255661
 21
4.35473117583603
 31
0
  0
LINE
  8
0
 62
7
 10
6.768017969255661
 20
4.35473117583603
 30
0
 11
6.757217969255662
 21
4.35173117583603
 31
0
  0
LINE
  8
0
 62
7
 10
6.757217969255662
 20
4.35173117583603
 30
0
 11
6.705917969255662
 21
4.35173117583603
 31
0
  0
LINE
  8
0
 62
7
 10
6.705917969255662
 20
4.35173117583603
 30
0
 11
6.705917969255662
 21
4.411731175836031
 31
0
  0
LINE
  8
0
 62
7
 10
6.878717969255662
 20
4.411731175836031
 30
0
 11
6.803117969255663
 21
4.411731175836031
 31
0
  0
LINE
  8
0
 62
7
 10
6.803117969255663
 20
4.411731175836031
 30
0
 11
6.803117969255663
 21
4.35173117583603
 31
0
  0
LINE
  8
0
 62
7
 10
6.803117969255663
 20
4.291731175836031
 30
0
 11
6.878717969255662
 21
4.291731175836031
 31
0
  0
LINE
  8
0
 62
7
 10
6.867917969255662
 20
4.35173117583603
 30
0
 11
6.803117969255663
 21
4.35173117583603
 31
0
  0
LINE
  8
0
 62
7
 10
6.803117969255663
 20
4.35173117583603
 30
0
 11
6.803117969255663
 21
4.291731175836031
 31
0
  0
LINE
  8
0
 62
7
 10
4.375
 20
2.890000000000001
 30
0
 11
4.375
 21
3.01
 31
0
  0
LINE
  8
0
 62
7
 10
4.450600000000001
 20
3.01
 30
0
 11
4.3966
 21
2.95
 31
0
  0
LINE
  8
0
 62
7
 10
4.3966
 20
2.95
 30
0
 11
4.450600000000001
 21
2.890000000000001
 31
0
  0
LINE
  8
0
 62
7
 10
4.3966
 20
2.95
 30
0
 11
4.375
 21
2.926
 31
0
  0
LINE
  8
0
 62
7
 10
4.483
 20
2.992
 30
0
 11
4.4884
 21
3.001
 31
0
  0
LINE
  8
0
 62
7
 10
4.4884
 20
3.001
 30
0
 11
4.4965
 21
3.007
 31
0
  0
LINE
  8
0
 62
7
 10
4.4965
 20
3.007
 30
0
 11
4.5073
 21
3.01
 31
0
  0
LINE
  8
0
 62
7
 10
4.5073
 20
3.01
 30
0
 11
4.5235
 21
3.01
 31
0
  0
LINE
  8
0
 62
7
 10
4.5235
 20
3.01
 30
0
 11
4.534300000000001
 21
3.007
 31
0
  0
LINE
  8
0
 62
7
 10
4.534300000000001
 20
3.007
 30
0
 11
4.5424
 21
3.001
 31
0
  0
LINE
  8
0
 62
7
 10
4.5424
 20
3.001
 30
0
 11
4.5478
 21
2.992
 31
0
  0
LINE
  8
0
 62
7
 10
4.5478
 20
2.992
 30
0
 11
4.5478
 21
2.98
 31
0
  0
LINE
  8
0
 62
7
 10
4.5478
 20
2.98
 30
0
 11
4.5424
 21
2.968
 31
0
  0
LINE
  8
0
 62
7
 10
4.5424
 20
2.968
 30
0
 11
4.483
 21
2.890000000000001
 31
0
  0
LINE
  8
0
 62
7
 10
4.483
 20
2.890000000000001
 30
0
 11
4.5478
 21
2.890000000000001
 31
0
  0
LINE
  8
0
 62
7
 10
4.5802
 20
3.01
 30
0
 11
4.618
 21
2.890000000000001
 31
0
  0
LINE
  8
0
 62
7
 10
4.618
 20
2.890000000000001
 30
0
 11
4.6558
 21
3.01
 31
0
  0
LINE
  8
0
 62
7
 10
4.6882
 20
2.992
 30
0
 11
4.693600000000001
 21
3.001
 31
0
  0
LINE
  8
0
 62
7
 10
4.693600000000001
 20
3.001
 30
0
 11
4.7017
 21
3.007
 31
0
  0
LINE
  8
0
 62
7
 10
4.7017
 20
3.007
 30
0
 11
4.7125
 21
3.01
 31
0
  0
LINE
  8
0
 62
7
 10
4.7125
 20
3.01
 30
0
 11
4.7287
 21
3.01
 31
0
  0
LINE
  8
0
 62
7
 10
4.7287
 20
3.01
 30
0
 11
4.7395
 21
3.007
 31
0
  0
LINE
  8
0
 62
7
 10
4.7395
 20
3.007
 30
0
 11
4.747600000000001
 21
3.001
 31
0
  0
LINE
  8
0
 62
7
 10
4.747600000000001
 20
3.001
 30
0
 11
4.753
 21
2.992
 31
0
  0
LINE
  8
0
 62
7
 10
4.753
 20
2.992
 30
0
 11
4.753
 21
2.98
 31
0
  0
LINE
  8
0
 62
7
 10
4.753
 20
2.98
 30
0
 11
4.747600000000001
 21
2.968
 31
0
  0
LINE
  8
0
 62
7
 10
4.747600000000001
 20
2.968
 30
0
 11
4.6882
 21
2.890000000000001
 31
0
  0
LINE
  8
0
 62
7
 10
4.6882
 20
2.890000000000001
 30
0
 11
4.753
 21
2.890000000000001
 31
0
  0
LINE
  8
0
 62
7
 10
4.785400000000001
 20
2.998
 30
0
 11
4.785400000000001
 21
3.01
 31
0
  0
LINE
  8
0
 62
7
 10
4.785400000000001
 20
3.01
 30
0
 11
4.850200000000001
 21
3.01
 31
0
  0
LINE
  8
0
 62
7
 10
4.850200000000001
 20
3.01
 30
0
 11
4.7962
 21
2.890000000000001
 31
0
  0
LINE
  8
0
 62
7
 10
4.882600000000001
 20
2.938
 30
0
 11
4.8853
 21
2.95
 31
0
  0
LINE
  8
0
 62
7
 10
4.8853
 20
2.95
 30
0
 11
4.890700000000002
 21
2.959
 31
0
  0
LINE
  8
0
 62
7
 10
4.890700000000002
 20
2.959
 30
0
 11
4.898800000000001
 21
2.965
 31
0
  0
LINE
  8
0
 62
7
 10
4.898800000000001
 20
2.965
 30
0
 11
4.906900000000002
 21
2.968
 31
0
  0
LINE
  8
0
 62
7
 10
4.906900000000002
 20
2.968
 30
0
 11
4.923100000000002
 21
2.968
 31
0
  0
LINE
  8
0
 62
7
 10
4.923100000000002
 20
2.968
 30
0
 11
4.931200000000001
 21
2.965
 31
0
  0
LINE
  8
0
 62
7
 10
4.931200000000001
 20
2.965
 30
0
 11
4.939300000000002
 21
2.959
 31
0
  0
LINE
  8
0
 62
7
 10
4.939300000000002
 20
2.959
 30
0
 11
4.944700000000001
 21
2.95
 31
0
  0
LINE
  8
0
 62
7
 10
4.944700000000001
 20
2.95
 30
0
 11
4.947400000000002
 21
2.938
 31
0
  0
LINE
  8
0
 62
7
 10
4.947400000000002
 20
2.938
 30
0
 11
4.947400000000002
 21
2.92
 31
0
  0
LINE
  8
0
 62
7
 10
4.947400000000002
 20
2.92
 30
0
 11
4.944700000000001
 21
2.908
 31
0
  0
LINE
  8
0
 62
7
 10
4.944700000000001
 20
2.908
 30
0
 11
4.939300000000002
 21
2.899
 31
0
  0
LINE
  8
0
 62
7
 10
4.939300000000002
 20
2.899
 30
0
 11
4.931200000000001
 21
2.893
 31
0
  0
LINE
  8
0
 62
7
 10
4.931200000000001
 20
2.893
 30
0
 11
4.923100000000002
 21
2.890000000000001
 31
0
  0
LINE
  8
0
 62
7
 10
4.923100000000002
 20
2.890000000000001
 30
0
 11
4.906900000000002
 21
2.890000000000001
 31
0
  0
LINE
  8
0
 62
7
 10
4.906900000000002
 20
2.890000000000001
 30
0
 11
4.898800000000001
 21
2.893
 31
0
  0
LINE
  8
0
 62
7
 10
4.898800000000001
 20
2.893
 30
0
 11
4.890700000000002
 21
2.899
 31
0
  0
LINE
  8
0
 62
7
 10
4.890700000000002
 20
2.899
 30
0
 11
4.8853
 21
2.908
 31
0
  0
LINE
  8
0
 62
7
 10
4.8853
 20
2.908
 30
0
 11
4.882600000000001
 21
2.92
 31
0
  0
LINE
  8
0
 62
7
 10
4.882600000000001
 20
2.92
 30
0
 11
4.882600000000001
 21
2.938
 31
0
  0
LINE
  8
0
 62
7
 10
4.882600000000001
 20
2.98
 30
0
 11
4.8853
 21
2.992
 31
0
  0
LINE
  8
0
 62
7
 10
4.8853
 20
2.992
 30
0
 11
4.890700000000002
 21
3.001
 31
0
  0
LINE
  8
0
 62
7
 10
4.890700000000002
 20
3.001
 30
0
 11
4.898800000000001
 21
3.007
 31
0
  0
LINE
  8
0
 62
7
 10
4.898800000000001
 20
3.007
 30
0
 11
4.906900000000002
 21
3.01
 31
0
  0
LINE
  8
0
 62
7
 10
4.906900000000002
 20
3.01
 30
0
 11
4.923100000000002
 21
3.01
 31
0
  0
LINE
  8
0
 62
7
 10
4.923100000000002
 20
3.01
 30
0
 11
4.931200000000001
 21
3.007
 31
0
  0
LINE
  8
0
 62
7
 10
4.931200000000001
 20
3.007
 30
0
 11
4.939300000000002
 21
3.001
 31
0
  0
LINE
  8
0
 62
7
 10
4.939300000000002
 20
3.001
 30
0
 11
4.944700000000001
 21
2.992
 31
0
  0
LINE
  8
0
 62
7
 10
4.882600000000001
 20
2.938
 30
0
 11
4.882600000000001
 21
2.98
 31
0
  0
LINE
  8
0
 62
7
 10
4.979800000000001
 20
2.890000000000001
 30
0
 11
4.979800000000001
 21
3.01
 31
0
  0
LINE
  8
0
 62
7
 10
4.979800000000001
 20
3.01
 30
0
 11
5.031100000000002
 21
3.01
 31
0
  0
LINE
  8
0
 62
7
 10
5.031100000000002
 20
3.01
 30
0
 11
5.041900000000002
 21
3.007
 31
0
  0
LINE
  8
0
 62
7
 10
5.041900000000002
 20
3.007
 30
0
 11
5.050000000000001
 21
3.001
 31
0
  0
LINE
  8
0
 62
7
 10
5.050000000000001
 20
3.001
 30
0
 11
5.052700000000001
 21
2.995
 31
0
  0
LINE
  8
0
 62
7
 10
5.052700000000001
 20
2.995
 30
0
 11
5.055400000000001
 21
2.986
 31
0
  0
LINE
  8
0
 62
7
 10
5.055400000000001
 20
2.986
 30
0
 11
5.055400000000001
 21
2.974
 31
0
  0
LINE
  8
0
 62
7
 10
5.055400000000001
 20
2.974
 30
0
 11
5.052700000000001
 21
2.965
 31
0
  0
LINE
  8
0
 62
7
 10
5.052700000000001
 20
2.965
 30
0
 11
5.050000000000001
 21
2.959
 31
0
  0
LINE
  8
0
 62
7
 10
5.050000000000001
 20
2.959
 30
0
 11
5.041900000000002
 21
2.953
 31
0
  0
LINE
  8
0
 62
7
 10
5.041900000000002
 20
2.953
 30
0
 11
5.031100000000002
 21
2.95
 31
0
  0
LINE
  8
0
 62
7
 10
5.031100000000002
 20
2.95
 30
0
 11
5.023000000000001
 21
2.95
 31
0
  0
LINE
  8
0
 62
7
 10
5.023000000000001
 20
2.95
 30
0
 11
5.055400000000001
 21
2.890000000000001
 31
0
  0
LINE
  8
0
 62
7
 10
5.023000000000001
 20
2.95
 30
0
 11
4.979800000000001
 21
2.95
 31
0
  0
LINE
  8
0
 62
7
 10
5.077000000000001
 20
2.992
 30
0
 11
5.0824
 21
3.001
 31
0
  0
LINE
  8
0
 62
7
 10
5.0824
 20
3.001
 30
0
 11
5.0905
 21
3.007
 31
0
  0
LINE
  8
0
 62
7
 10
5.0905
 20
3.007
 30
0
 11
5.101300000000002
 21
3.01
 31
0
  0
LINE
  8
0
 62
7
 10
5.101300000000002
 20
3.01
 30
0
 11
5.117500000000001
 21
3.01
 31
0
  0
LINE
  8
0
 62
7
 10
5.117500000000001
 20
3.01
 30
0
 11
5.125600000000001
 21
3.007
 31
0
  0
LINE
  8
0
 62
7
 10
5.125600000000001
 20
3.007
 30
0
 11
5.1337
 21
3.001
 31
0
  0
LINE
  8
0
 62
7
 10
5.1337
 20
3.001
 30
0
 11
5.139100000000001
 21
2.992
 31
0
  0
LINE
  8
0
 62
7
 10
5.139100000000001
 20
2.992
 30
0
 11
5.141800000000002
 21
2.98
 31
0
  0
LINE
  8
0
 62
7
 10
5.141800000000002
 20
2.98
 30
0
 11
5.141800000000002
 21
2.971
 31
0
  0
LINE
  8
0
 62
7
 10
5.141800000000002
 20
2.971
 30
0
 11
5.139100000000001
 21
2.962
 31
0
  0
LINE
  8
0
 62
7
 10
5.139100000000001
 20
2.962
 30
0
 11
5.1337
 21
2.956
 31
0
  0
LINE
  8
0
 62
7
 10
5.1337
 20
2.956
 30
0
 11
5.120200000000001
 21
2.95
 31
0
  0
LINE
  8
0
 62
7
 10
5.101300000000002
 20
2.95
 30
0
 11
5.120200000000001
 21
2.95
 31
0
  0
LINE
  8
0
 62
7
 10
5.120200000000001
 20
2.95
 30
0
 11
5.1337
 21
2.944
 31
0
  0
LINE
  8
0
 62
7
 10
5.1337
 20
2.944
 30
0
 11
5.139100000000001
 21
2.938
 31
0
  0
LINE
  8
0
 62
7
 10
5.139100000000001
 20
2.938
 30
0
 11
5.141800000000002
 21
2.929
 31
0
  0
LINE
  8
0
 62
7
 10
5.141800000000002
 20
2.929
 30
0
 11
5.141800000000002
 21
2.92
 31
0
  0
LINE
  8
0
 62
7
 10
5.141800000000002
 20
2.92
 30
0
 11
5.139100000000001
 21
2.908
 31
0
  0
LINE
  8
0
 62
7
 10
5.139100000000001
 20
2.908
 30
0
 11
5.1337
 21
2.899
 31
0
  0
LINE
  8
0
 62
7
 10
5.1337
 20
2.899
 30
0
 11
5.125600000000001
 21
2.893
 31
0
  0
LINE
  8
0
 62
7
 10
5.125600000000001
 20
2.893
 30
0
 11
5.117500000000001
 21
2.890000000000001
 31
0
  0
LINE
  8
0
 62
7
 10
5.117500000000001
 20
2.890000000000001
 30
0
 11
5.101300000000002
 21
2.890000000000001
 31
0
  0
LINE
  8
0
 62
7
 10
5.101300000000002
 20
2.890000000000001
 30
0
 11
5.0905
 21
2.893
 31
0
  0
LINE
  8
0
 62
7
 10
5.0905
 20
2.893
 30
0
 11
5.0824
 21
2.899
 31
0
  0
LINE
  8
0
 62
7
 10
5.0824
 20
2.899
 30
0
 11
5.077000000000001
 21
2.908
 31
0
  0
LINE
  8
0
 62
7
 10
6.875
 20
2.890000000000001
 30
0
 11
6.875
 21
2.99
 31
0
  0
LINE
  8
0
 62
7
 10
6.875
 20
2.99
 30
0
 11
6.938000000000001
 21
2.890000000000001
 31
0
  0
LINE
  8
0
 62
7
 10
6.938000000000001
 20
2.890000000000001
 30
0
 11
6.938000000000001
 21
2.99
 31
0
  0
LINE
  8
0
 62
7
 10
7.019000000000002
 20
2.890000000000001
 30
0
 11
6.965000000000001
 21
2.890000000000001
 31
0
  0
LINE
  8
0
 62
7
 10
6.965000000000001
 20
2.890000000000001
 30
0
 11
6.965000000000001
 21
2.99
 31
0
  0
LINE
  8
0
 62
7
 10
7.046000000000001
 20
2.94
 30
0
 11
7.082000000000001
 21
2.94
 31
0
  0
LINE
  8
0
 62
7
 10
7.082000000000001
 20
2.94
 30
0
 11
7.086500000000001
 21
2.94
 31
0
  0
LINE
  8
0
 62
7
 10
7.086500000000001
 20
2.94
 30
0
 11
7.095500000000001
 21
2.935
 31
0
  0
LINE
  8
0
 62
7
 10
7.095500000000001
 20
2.935
 30
0
 11
7.100000000000001
 21
2.93
 31
0
  0
LINE
  8
0
 62
7
 10
7.100000000000001
 20
2.93
 30
0
 11
7.104500000000001
 21
2.92
 31
0
  0
LINE
  8
0
 62
7
 10
7.104500000000001
 20
2.92
 30
0
 11
7.104500000000001
 21
2.91
 31
0
  0
LINE
  8
0
 62
7
 10
7.104500000000001
 20
2.91
 30
0
 11
7.100000000000001
 21
2.9
 31
0
  0
LINE
  8
0
 62
7
 10
7.100000000000001
 20
2.9
 30
0
 11
7.095500000000001
 21
2.895
 31
0
  0
LINE
  8
0
 62
7
 10
7.095500000000001
 20
2.895
 30
0
 11
7.086500000000001
 21
2.890000000000001
 31
0
  0
LINE
  8
0
 62
7
 10
7.086500000000001
 20
2.890000000000001
 30
0
 11
7.046000000000001
 21
2.890000000000001
 31
0
  0
LINE
  8
0
 62
7
 10
7.046000000000001
 20
2.890000000000001
 30
0
 11
7.046000000000001
 21
2.94
 31
0
  0
LINE
  8
0
 62
7
 10
7.046000000000001
 20
2.99
 30
0
 11
7.079750000000001
 21
2.99
 31
0
  0
LINE
  8
0
 62
7
 10
7.079750000000001
 20
2.99
 30
0
 11
7.091
 21
2.9875
 31
0
  0
LINE
  8
0
 62
7
 10
7.091
 20
2.9875
 30
0
 11
7.097750000000001
 21
2.98
 31
0
  0
LINE
  8
0
 62
7
 10
7.097750000000001
 20
2.98
 30
0
 11
7.100000000000001
 21
2.97
 31
0
  0
LINE
  8
0
 62
7
 10
7.100000000000001
 20
2.97
 30
0
 11
7.100000000000001
 21
2.96
 31
0
  0
LINE
  8
0
 62
7
 10
7.100000000000001
 20
2.96
 30
0
 11
7.095500000000001
 21
2.95
 31
0
  0
LINE
  8
0
 62
7
 10
7.095500000000001
 20
2.95
 30
0
 11
7.088750000000001
 21
2.9425
 31
0
  0
LINE
  8
0
 62
7
 10
7.088750000000001
 20
2.9425
 30
0
 11
7.082000000000001
 21
2.94
 31
0
  0
LINE
  8
0
 62
7
 10
7.046000000000001
 20
2.94
 30
0
 11
7.046000000000001
 21
2.99
 31
0
  0
LINE
  8
0
 62
7
 10
7.246250000000001
 20
2.9425
 30
0
 11
7.2395
 21
2.952500000000001
 31
0
  0
LINE
  8
0
 62
7
 10
7.2395
 20
2.952500000000001
 30
0
 11
7.232750000000002
 21
2.9575
 31
0
  0
LINE
  8
0
 62
7
 10
7.232750000000002
 20
2.9575
 30
0
 11
7.226000000000001
 21
2.96
 31
0
  0
LINE
  8
0
 62
7
 10
7.226000000000001
 20
2.96
 30
0
 11
7.217000000000001
 21
2.96
 31
0
  0
LINE
  8
0
 62
7
 10
7.217000000000001
 20
2.96
 30
0
 11
7.210250000000001
 21
2.9575
 31
0
  0
LINE
  8
0
 62
7
 10
7.210250000000001
 20
2.9575
 30
0
 11
7.2035
 21
2.952500000000001
 31
0
  0
LINE
  8
0
 62
7
 10
7.2035
 20
2.952500000000001
 30
0
 11
7.196750000000002
 21
2.9425
 31
0
  0
LINE
  8
0
 62
7
 10
7.196750000000002
 20
2.9425
 30
0
 11
7.194500000000001
 21
2.935
 31
0
  0
LINE
  8
0
 62
7
 10
7.194500000000001
 20
2.935
 30
0
 11
7.194500000000001
 21
2.915
 31
0
  0
LINE
  8
0
 62
7
 10
7.194500000000001
 20
2.915
 30
0
 11
7.196750000000002
 21
2.9075
 31
0
  0
LINE
  8
0
 62
7
 10
7.196750000000002
 20
2.9075
 30
0
 11
7.2035
 21
2.8975
 31
0
  0
LINE
  8
0
 62
7
 10
7.2035
 20
2.8975
 30
0
 11
7.210250000000001
 21
2.8925
 31
0
  0
LINE
  8
0
 62
7
 10
7.210250000000001
 20
2.8925
 30
0
 11
7.217000000000001
 21
2.890000000000001
 31
0
  0
LINE
  8
0
 62
7
 10
7.217000000000001
 20
2.890000000000001
 30
0
 11
7.226000000000001
 21
2.890000000000001
 31
0
  0
LINE
  8
0
 62
7
 10
7.226000000000001
 20
2.890000000000001
 30
0
 11
7.232750000000002
 21
2.8925
 31
0
  0
LINE
  8
0
 62
7
 10
7.232750000000002
 20
2.8925
 30
0
 11
7.2395
 21
2.8975
 31
0
  0
LINE
  8
0
 62
7
 10
7.2395
 20
2.8975
 30
0
 11
7.246250000000001
 21
2.9075
 31
0
  0
LINE
  8
0
 62
7
 10
7.318250000000001
 20
2.935
 30
0
 11
7.316
 21
2.9425
 31
0
  0
LINE
  8
0
 62
7
 10
7.316
 20
2.9425
 30
0
 11
7.309250000000002
 21
2.952500000000001
 31
0
  0
LINE
  8
0
 62
7
 10
7.309250000000002
 20
2.952500000000001
 30
0
 11
7.302500000000001
 21
2.9575
 31
0
  0
LINE
  8
0
 62
7
 10
7.302500000000001
 20
2.9575
 30
0
 11
7.29575
 21
2.96
 31
0
  0
LINE
  8
0
 62
7
 10
7.29575
 20
2.96
 30
0
 11
7.286750000000001
 21
2.96
 31
0
  0
LINE
  8
0
 62
7
 10
7.286750000000001
 20
2.96
 30
0
 11
7.28
 21
2.9575
 31
0
  0
LINE
  8
0
 62
7
 10
7.28
 20
2.9575
 30
0
 11
7.273250000000001
 21
2.952500000000001
 31
0
  0
LINE
  8
0
 62
7
 10
7.273250000000001
 20
2.952500000000001
 30
0
 11
7.266500000000001
 21
2.9425
 31
0
  0
LINE
  8
0
 62
7
 10
7.266500000000001
 20
2.9425
 30
0
 11
7.264250000000001
 21
2.935
 31
0
  0
LINE
  8
0
 62
7
 10
7.264250000000001
 20
2.935
 30
0
 11
7.264250000000001
 21
2.915
 31
0
  0
LINE
  8
0
 62
7
 10
7.264250000000001
 20
2.915
 30
0
 11
7.266500000000001
 21
2.9075
 31
0
  0
LINE
  8
0
 62
7
 10
7.266500000000001
 20
2.9075
 30
0
 11
7.273250000000001
 21
2.8975
 31
0
  0
LINE
  8
0
 62
7
 10
7.273250000000001
 20
2.8975
 30
0
 11
7.28
 21
2.8925
 31
0
  0
LINE
  8
0
 62
7
 10
7.28
 20
2.8925
 30
0
 11
7.286750000000001
 21
2.890000000000001
 31
0
  0
LINE
  8
0
 62
7
 10
7.286750000000001
 20
2.890000000000001
 30
0
 11
7.29575
 21
2.890000000000001
 31
0
  0
LINE
  8
0
 62
7
 10
7.29575
 20
2.890000000000001
 30
0
 11
7.302500000000001
 21
2.8925
 31
0
  0
LINE
  8
0
 62
7
 10
7.302500000000001
 20
2.8925
 30
0
 11
7.309250000000002
 21
2.8975
 31
0
  0
LINE
  8
0
 62
7
 10
7.309250000000002
 20
2.8975
 30
0
 11
7.316
 21
2.9075
 31
0
  0
LINE
  8
0
 62
7
 10
7.316
 20
2.9075
 30
0
 11
7.318250000000001
 21
2.915
 31
0
  0
LINE
  8
0
 62
7
 10
7.318250000000001
 20
2.96
 30
0
 11
7.318250000000001
 21
2.935
 31
0
  0
LINE
  8
0
 62
7
 10
7.318250000000001
 20
2.8925
 30
0
 11
7.320500000000002
 21
2.890000000000001
 31
0
  0
LINE
  8
0
 62
7
 10
7.320500000000002
 20
2.890000000000001
 30
0
 11
7.322750000000001
 21
2.890000000000001
 31
0
  0
LINE
  8
0
 62
7
 10
7.318250000000001
 20
2.915
 30
0
 11
7.318250000000001
 21
2.8925
 31
0
  0
LINE
  8
0
 62
7
 10
7.318250000000001
 20
2.935
 30
0
 11
7.318250000000001
 21
2.915
 31
0
  0
LINE
  8
0
 62
7
 10
7.34075
 20
2.890000000000001
 30
0
 11
7.34075
 21
2.8925
 31
0
  0
LINE
  8
0
 62
7
 10
7.34075
 20
2.8925
 30
0
 11
7.343000000000001
 21
2.8925
 31
0
  0
LINE
  8
0
 62
7
 10
7.343000000000001
 20
2.8925
 30
0
 11
7.343000000000001
 21
2.890000000000001
 31
0
  0
LINE
  8
0
 62
7
 10
7.343000000000001
 20
2.890000000000001
 30
0
 11
7.34075
 21
2.890000000000001
 31
0
  0
LINE
  8
0
 62
7
 10
7.466750000000001
 20
2.99
 30
0
 11
7.475750000000001
 21
2.99
 31
0
  0
LINE
  8
0
 62
7
 10
7.475750000000001
 20
2.99
 30
0
 11
7.482500000000001
 21
2.9875
 31
0
  0
LINE
  8
0
 62
7
 10
7.482500000000001
 20
2.9875
 30
0
 11
7.487000000000001
 21
2.9825
 31
0
  0
LINE
  8
0
 62
7
 10
7.487000000000001
 20
2.9825
 30
0
 11
7.491500000000001
 21
2.975
 31
0
  0
LINE
  8
0
 62
7
 10
7.491500000000001
 20
2.975
 30
0
 11
7.491500000000001
 21
2.965
 31
0
  0
LINE
  8
0
 62
7
 10
7.491500000000001
 20
2.965
 30
0
 11
7.489250000000002
 21
2.96
 31
0
  0
LINE
  8
0
 62
7
 10
7.489250000000002
 20
2.96
 30
0
 11
7.482500000000001
 21
2.952500000000001
 31
0
  0
LINE
  8
0
 62
7
 10
7.482500000000001
 20
2.952500000000001
 30
0
 11
7.475750000000001
 21
2.95
 31
0
  0
LINE
  8
0
 62
7
 10
7.475750000000001
 20
2.95
 30
0
 11
7.466750000000001
 21
2.95
 31
0
  0
LINE
  8
0
 62
7
 10
7.466750000000001
 20
2.95
 30
0
 11
7.460000000000001
 21
2.952500000000001
 31
0
  0
LINE
  8
0
 62
7
 10
7.460000000000001
 20
2.952500000000001
 30
0
 11
7.453250000000001
 21
2.96
 31
0
  0
LINE
  8
0
 62
7
 10
7.453250000000001
 20
2.96
 30
0
 11
7.451000000000001
 21
2.965
 31
0
  0
LINE
  8
0
 62
7
 10
7.451000000000001
 20
2.965
 30
0
 11
7.451000000000001
 21
2.975
 31
0
  0
LINE
  8
0
 62
7
 10
7.451000000000001
 20
2.975
 30
0
 11
7.455500000000001
 21
2.9825
 31
0
  0
LINE
  8
0
 62
7
 10
7.455500000000001
 20
2.9825
 30
0
 11
7.460000000000001
 21
2.9875
 31
0
  0
LINE
  8
0
 62
7
 10
7.460000000000001
 20
2.9875
 30
0
 11
7.466750000000001
 21
2.99
 31
0
  0
LINE
  8
0
 62
7
 10
7.466750000000001
 20
2.95
 30
0
 11
7.455500000000001
 21
2.945
 31
0
  0
LINE
  8
0
 62
7
 10
7.455500000000001
 20
2.945
 30
0
 11
7.44875
 21
2.9375
 31
0
  0
LINE
  8
0
 62
7
 10
7.44875
 20
2.9375
 30
0
 11
7.444250000000001
 21
2.9275
 31
0
  0
LINE
  8
0
 62
7
 10
7.444250000000001
 20
2.9275
 30
0
 11
7.444250000000001
 21
2.9125
 31
0
  0
LINE
  8
0
 62
7
 10
7.444250000000001
 20
2.9125
 30
0
 11
7.44875
 21
2.9025
 31
0
  0
LINE
  8
0
 62
7
 10
7.44875
 20
2.9025
 30
0
 11
7.455500000000001
 21
2.895
 31
0
  0
LINE
  8
0
 62
7
 10
7.455500000000001
 20
2.895
 30
0
 11
7.4645
 21
2.890000000000001
 31
0
  0
LINE
  8
0
 62
7
 10
7.4645
 20
2.890000000000001
 30
0
 11
7.478000000000002
 21
2.890000000000001
 31
0
  0
LINE
  8
0
 62
7
 10
7.478000000000002
 20
2.890000000000001
 30
0
 11
7.487000000000001
 21
2.895
 31
0
  0
LINE
  8
0
 62
7
 10
7.487000000000001
 20
2.895
 30
0
 11
7.49375
 21
2.9025
 31
0
  0
LINE
  8
0
 62
7
 10
7.49375
 20
2.9025
 30
0
 11
7.498250000000001
 21
2.9125
 31
0
  0
LINE
  8
0
 62
7
 10
7.498250000000001
 20
2.9125
 30
0
 11
7.498250000000001
 21
2.9275
 31
0
  0
LINE
  8
0
 62
7
 10
7.498250000000001
 20
2.9275
 30
0
 11
7.49375
 21
2.9375
 31
0
  0
LINE
  8
0
 62
7
 10
7.49375
 20
2.9375
 30
0
 11
7.487000000000001
 21
2.945
 31
0
  0
LINE
  8
0
 62
7
 10
7.487000000000001
 20
2.945
 30
0
 11
7.475750000000001
 21
2.95
 31
0
  0
LINE
  8
0
 62
7
 10
7.583750000000001
 20
2.99
 30
0
 11
7.534250000000002
 21
2.99
 31
0
  0
LINE
  8
0
 62
7
 10
7.534250000000002
 20
2.99
 30
0
 11
7.534250000000002
 21
2.94
 31
0
  0
LINE
  8
0
 62
7
 10
7.534250000000002
 20
2.94
 30
0
 11
7.53875
 21
2.9475
 31
0
  0
LINE
  8
0
 62
7
 10
7.53875
 20
2.9475
 30
0
 11
7.545500000000001
 21
2.952500000000001
 31
0
  0
LINE
  8
0
 62
7
 10
7.545500000000001
 20
2.952500000000001
 30
0
 11
7.554500000000001
 21
2.955
 31
0
  0
LINE
  8
0
 62
7
 10
7.554500000000001
 20
2.955
 30
0
 11
7.568000000000001
 21
2.955
 31
0
  0
LINE
  8
0
 62
7
 10
7.568000000000001
 20
2.955
 30
0
 11
7.574750000000001
 21
2.952500000000001
 31
0
  0
LINE
  8
0
 62
7
 10
7.574750000000001
 20
2.952500000000001
 30
0
 11
7.581500000000002
 21
2.9475
 31
0
  0
LINE
  8
0
 62
7
 10
7.581500000000002
 20
2.9475
 30
0
 11
7.586
 21
2.94
 31
0
  0
LINE
  8
0
 62
7
 10
7.586
 20
2.94
 30
0
 11
7.588250000000001
 21
2.93
 31
0
  0
LINE
  8
0
 62
7
 10
7.588250000000001
 20
2.93
 30
0
 11
7.588250000000001
 21
2.915
 31
0
  0
LINE
  8
0
 62
7
 10
7.588250000000001
 20
2.915
 30
0
 11
7.586
 21
2.905
 31
0
  0
LINE
  8
0
 62
7
 10
7.586
 20
2.905
 30
0
 11
7.581500000000002
 21
2.8975
 31
0
  0
LINE
  8
0
 62
7
 10
7.581500000000002
 20
2.8975
 30
0
 11
7.574750000000001
 21
2.8925
 31
0
  0
LINE
  8
0
 62
7
 10
7.574750000000001
 20
2.8925
 30
0
 11
7.568000000000001
 21
2.890000000000001
 31
0
  0
LINE
  8
0
 62
7
 10
7.568000000000001
 20
2.890000000000001
 30
0
 11
7.554500000000001
 21
2.890000000000001
 31
0
  0
LINE
  8
0
 62
7
 10
7.554500000000001
 20
2.890000000000001
 30
0
 11
7.545500000000001
 21
2.8925
 31
0
  0
LINE
  8
0
 62
7
 10
7.545500000000001
 20
2.8925
 30
0
 11
7.53875
 21
2.8975
 31
0
  0
LINE
  8
0
 62
7
 10
7.53875
 20
2.8975
 30
0
 11
7.534250000000002
 21
2.905
 31
0
  0
LINE
  8
0
 62
7
 10
7.739000000000002
 20
2.9425
 30
0
 11
7.732250000000001
 21
2.952500000000001
 31
0
  0
LINE
  8
0
 62
7
 10
7.732250000000001
 20
2.952500000000001
 30
0
 11
7.725500000000001
 21
2.9575
 31
0
  0
LINE
  8
0
 62
7
 10
7.725500000000001
 20
2.9575
 30
0
 11
7.71875
 21
2.96
 31
0
  0
LINE
  8
0
 62
7
 10
7.71875
 20
2.96
 30
0
 11
7.70975
 21
2.96
 31
0
  0
LINE
  8
0
 62
7
 10
7.70975
 20
2.96
 30
0
 11
7.703000000000002
 21
2.9575
 31
0
  0
LINE
  8
0
 62
7
 10
7.703000000000002
 20
2.9575
 30
0
 11
7.696250000000001
 21
2.952500000000001
 31
0
  0
LINE
  8
0
 62
7
 10
7.696250000000001
 20
2.952500000000001
 30
0
 11
7.6895
 21
2.9425
 31
0
  0
LINE
  8
0
 62
7
 10
7.6895
 20
2.9425
 30
0
 11
7.687250000000001
 21
2.935
 31
0
  0
LINE
  8
0
 62
7
 10
7.687250000000001
 20
2.935
 30
0
 11
7.687250000000001
 21
2.915
 31
0
  0
LINE
  8
0
 62
7
 10
7.687250000000001
 20
2.915
 30
0
 11
7.6895
 21
2.9075
 31
0
  0
LINE
  8
0
 62
7
 10
7.6895
 20
2.9075
 30
0
 11
7.696250000000001
 21
2.8975
 31
0
  0
LINE
  8
0
 62
7
 10
7.696250000000001
 20
2.8975
 30
0
 11
7.703000000000002
 21
2.8925
 31
0
  0
LINE
  8
0
 62
7
 10
7.703000000000002
 20
2.8925
 30
0
 11
7.70975
 21
2.890000000000001
 31
0
  0
LINE
  8
0
 62
7
 10
7.70975
 20
2.890000000000001
 30
0
 11
7.71875
 21
2.890000000000001
 31
0
  0
LINE
  8
0
 62
7
 10
7.71875
 20
2.890000000000001
 30
0
 11
7.725500000000001
 21
2.8925
 31
0
  0
LINE
  8
0
 62
7
 10
7.725500000000001
 20
2.8925
 30
0
 11
7.732250000000001
 21
2.8975
 31
0
  0
LINE
  8
0
 62
7
 10
7.732250000000001
 20
2.8975
 30
0
 11
7.739000000000002
 21
2.9075
 31
0
  0
LINE
  8
0
 62
7
 10
7.797500000000001
 20
2.935
 30
0
 11
7.797500000000001
 21
2.890000000000001
 31
0
  0
LINE
  8
0
 62
7
 10
7.757000000000001
 20
2.96
 30
0
 11
7.757000000000001
 21
2.935
 31
0
  0
LINE
  8
0
 62
7
 10
7.757000000000001
 20
2.890000000000001
 30
0
 11
7.757000000000001
 21
2.935
 31
0
  0
LINE
  8
0
 62
7
 10
7.757000000000001
 20
2.935
 30
0
 11
7.759250000000002
 21
2.9475
 31
0
  0
LINE
  8
0
 62
7
 10
7.759250000000002
 20
2.9475
 30
0
 11
7.761500000000002
 21
2.952500000000001
 31
0
  0
LINE
  8
0
 62
7
 10
7.761500000000002
 20
2.952500000000001
 30
0
 11
7.766
 21
2.9575
 31
0
  0
LINE
  8
0
 62
7
 10
7.766
 20
2.9575
 30
0
 11
7.772750000000001
 21
2.96
 31
0
  0
LINE
  8
0
 62
7
 10
7.772750000000001
 20
2.96
 30
0
 11
7.781750000000001
 21
2.96
 31
0
  0
LINE
  8
0
 62
7
 10
7.781750000000001
 20
2.96
 30
0
 11
7.788500000000001
 21
2.9575
 31
0
  0
LINE
  8
0
 62
7
 10
7.788500000000001
 20
2.9575
 30
0
 11
7.793000000000001
 21
2.952500000000001
 31
0
  0
LINE
  8
0
 62
7
 10
7.793000000000001
 20
2.952500000000001
 30
0
 11
7.795250000000002
 21
2.9475
 31
0
  0
LINE
  8
0
 62
7
 10
7.795250000000002
 20
2.9475
 30
0
 11
7.797500000000001
 21
2.935
 31
0
  0
LINE
  8
0
 62
7
 10
7.797500000000001
 20
2.935
 30
0
 11
7.79975
 21
2.9475
 31
0
  0
LINE
  8
0
 62
7
 10
7.79975
 20
2.9475
 30
0
 11
7.802
 21
2.952500000000001
 31
0
  0
LINE
  8
0
 62
7
 10
7.802
 20
2.952500000000001
 30
0
 11
7.806500000000002
 21
2.9575
 31
0
  0
LINE
  8
0
 62
7
 10
7.806500000000002
 20
2.9575
 30
0
 11
7.813250000000001
 21
2.96
 31
0
  0
LINE
  8
0
 62
7
 10
7.813250000000001
 20
2.96
 30
0
 11
7.82225
 21
2.96
 31
0
  0
LINE
  8
0
 62
7
 10
7.82225
 20
2.96
 30
0
 11
7.829000000000001
 21
2.9575
 31
0
  0
LINE
  8
0
 62
7
 10
7.833500000000001
 20
2.952500000000001
 30
0
 11
7.829000000000001
 21
2.9575
 31
0
  0
LINE
  8
0
 62
7
 10
7.829000000000001
 20
2.9575
 30
0
 11
7.833500000000001
 21
2.952500000000001
 31
0
  0
LINE
  8
0
 62
7
 10
7.833500000000001
 20
2.952500000000001
 30
0
 11
7.835750000000001
 21
2.9475
 31
0
  0
LINE
  8
0
 62
7
 10
7.835750000000001
 20
2.9475
 30
0
 11
7.838000000000001
 21
2.935
 31
0
  0
LINE
  8
0
 62
7
 10
7.838000000000001
 20
2.935
 30
0
 11
7.838000000000001
 21
2.890000000000001
 31
0
  0
ARC
  8
0
 62
7
 10
6.460963918279582
 20
3.63596391827954
 30
0
 40
0.4930000000000067
 50
359.887974675579
 51
90.1120253212537
  0
ARC
  8
0
 62
7
 10
5.629036081720422
 20
3.63596391827959
 30
0
 40
0.4930000000000055
 50
89.88797467557434
 51
180.1120253237575
  0
CIRCLE
  8
0
 62
7
 10
5.136037024052412
 20
3.25
 30
0
 40
0.05999999999999872
  0
DIMENSION
  8
0
  6
CONTINUOUS
 62
7
  2
*D1
  3
DMST_1
 10
4.665000000000001
 20
11.4380048543689
 30
0
 11
6.006560875489701
 21
11.4380048543689
 31
0
 12
0
 22
0
 32
0
 70
0
 13
7.425000000000001
 23
11.2
 33
0
 14
4.665000000000002
 24
11.2
 34
0
 53
0
  0
DIMENSION
  8
0
  6
CONTINUOUS
 62
7
  2
*D2
  3
DMST_2
 10
4.19216605348323
 20
4.6
 30
0
 11
4.19216605348323
 21
3.95362621359223
 31
0
 12
0
 22
0
 32
0
 70
0
 13
4.490000000000001
 23
3.25
 33
0
 14
4.490000000000001
 24
4.600000000000001
 34
0
 50
90
 53
0
  0
DIMENSION
  8
0
  6
CONTINUOUS
 62
7
  2
*D3
  3
DMST_2
 10
4.665000000000002
 20
5.47219579288026
 30
0
 11
6.006560875489701
 21
5.47219579288026
 31
0
 12
0
 22
0
 32
0
 70
0
 13
7.425000000000001
 23
5.119999999999997
 33
0
 14
4.665000000000002
 24
5.119999999999997
 34
0
 53
0
  0
DIMENSION
  8
0
  6
CONTINUOUS
 62
7
  2
*D4
  3
DMST_2
 10
7.89984242888776
 20
3.35
 30
0
 11
7.89984242888776
 21
3.97334789644013
 31
0
 12
0
 22
0
 32
0
 70
0
 13
7.600000000000001
 23
4.600000000000001
 33
0
 14
7.600000000000001
 24
3.35
 34
0
 50
90
 53
0
  0
INSERT
  8
0
  2
*D0
 10
0
 20
0
 30
0
  0
ENDSEC
  0
EOF
