  0
SECTION
  2
HEADER
  9
$ACADVER
  1
AC1009
  9
$INSBASE
 10
0
 20
0
  9
$EXTMIN
 10
0.5844885313404959
 20
2.890000000000002
  9
$EXTMAX
 10
8.250000000000012
 20
11.5162161637711
  9
$LIMMIN
 10
0.5844885313404959
 20
2.890000000000002
  9
$LIMMAX
 10
8.250000000000012
 20
11.5162161637711
  9
$VIEWCTR
 10
10
 20
10
  9
$VIEWSIZE
 40
10
  9
$SNAPMODE
 70
0
  9
$SNAPUNIT
 10
1
 20
1
  9
$SNAPBASE
 10
0
 20
0
  9
$SNAPANG
 50
0
  9
$SNAPSTYLE
 70
0
  9
$SNAPISOPAIR
 70
0
  9
$GRIDMODE
 70
0
  9
$GRIDUNIT
 10
0
 20
0
  9
$ORTHOMODE
 70
0
  9
$REGENMODE
 70
1
  9
$FILLMODE
 70
1
  9
$QTEXTMODE
 70
0
  9
$DRAGMODE
 70
2
  9
$LTSCALE
 40
1
  9
$OSMODE
 70
0
  9
$ATTMODE
 70
1
  9
$TEXTSIZE
 40
3.5
  9
$TRACEWID
 40
0.5
  9
$TEXTSTYLE
  7
STANDARD
  9
$CLAYER
  8
0
  9
$CELTYPE
  6
BYLAYER
  9
$CECOLOR
 62
256
  9
$DIMSCALE
 40
1
  9
$DIMASZ
 40
0.18
  9
$DIMEXO
 40
0.0625
  9
$DIMDLI
 40
0.38
  9
$DIMRND
 40
0
  9
$DIMDLE
 40
0
  9
$DIMEXE
 40
0.18
  9
$DIMTP
 40
0
  9
$DIMTM
 40
0
  9
$DIMTXT
 40
0.18
  9
$DIMCEN
 40
0.09
  9
$DIMTSZ
 40
0
  9
$DIMTOL
 70
0
  9
$DIMLIM
 70
0
  9
$DIMTIH
 70
1
  9
$DIMTOH
 70
1
  9
$DIMSE1
 70
0
  9
$DIMSE2
 70
0
  9
$DIMTAD
 70
0
  9
$DIMZIN
 70
0
  9
$DIMBLK
  1

  9
$DIMASO
 70
1
  9
$DIMSHO
 70
1
  9
$DIMPOST
  1

  9
$DIMAPOST
  1

  9
$DIMALT
 70
0
  9
$DIMALTD
 70
2
  9
$DIMALTF
 40
25.4
  9
$DIMLFAC
 40
1
  9
$DIMTOFL
 70
0
  9
$DIMTVP
 40
0
  9
$DIMTIX
 70
0
  9
$DIMSOXD
 70
0
  9
$DIMSAH
 70
0
  9
$DIMBLK1
  1

  9
$DIMBLK2
  1

  9
$DIMSTYLE
  2
*UNNAMED
  9
$DIMCLRD
 70
0
  9
$DIMCLRE
 70
0
  9
$DIMCLRT
 70
0
  9
$DIMTFAC
 40
1
  9
$DIMGAP
 40
0.09
  9
$LUNITS
 70
2
  9
$LUPREC
 70
4
  9
$AXISMODE
 70
0
  9
$AXISUNIT
 10
0
 20
0
  9
$SKETCHINC
 40
0.1
  9
$FILLETRAD
 40
2
  9
$AUNITS
 70
0
  9
$AUPREC
 70
0
  9
$MENU
  1
ACAD
  9
$ELEVATION
 40
0
  9
$THICKNESS
 40
0
  9
$VIEWDIR
 10
0
 20
0
 30
1
  9
$LIMCHECK
 70
0
  9
$BLIPMODE
 70
1
  9
$CHAMFERA
 40
0
  9
$CHAMFERB
 40
0
  9
$FASTZOOM
 70
1
  9
$SKPOLY
 70
0
  9
$ANGBASE
 50
0
  9
$ANGDIR
 70
0
  9
$PDMODE
 70
0
  9
$PDSIZE
 40
0
  9
$PLINEWID
 40
0
  9
$COORDS
 70
2
  0
ENDSEC
  0
SECTION
  2
TABLES
  0
TABLE
  2
DIMSTYLE
 70
2
  0
DIMSTYLE
  2
DMST_1
 70
0
  3

  4

  5

  6

  7

 40
1
 41
0.1
 42
0
 43
0.7
 44
0.2
 45
0
 46
0
 47
0
 48
0
140
0.1
141
0
142
0.1
143
25.4
144
1
145
0
146
1
147
0.2
 71
0
 72
0
 73
0
 74
0
 75
0
 76
0
 77
0
 78
9
170
0
171
2
172
0
173
0
174
0
175
0
176
7
177
7
178
7
  0
DIMSTYLE
  2
DMST_2
 70
0
  3

  4

  5

  6

  7

 40
1
 41
0.1
 42
0
 43
0.7
 44
0.2
 45
0
 46
0
 47
0
 48
0
140
0.1
141
0
142
0.1
143
25.4
144
1
145
0
146
1
147
0.25
 71
0
 72
0
 73
0
 74
0
 75
0
 76
0
 77
0
 78
9
170
0
171
2
172
0
173
0
174
0
175
0
176
7
177
7
178
7
  0
ENDTAB
  0
TABLE
  2
LTYPE
 70
9
  0
LTYPE
  2
CONTINUOUS
 70
64
  3
Solid line
 72
65
 73
0
 40
0
  0
LTYPE
  2
BORDER
 70
64
  3
__ __ . __ __ .
 72
65
 73
6
 40
0.3972599549105111
 49
0.113502844260146
 49
-0.05675142213007301
 49
0.113502844260146
 49
-0.05675142213007301
 49
0
 49
-0.05675142213007301
  0
LTYPE
  2
CENTER
 70
64
  3
____ _ ____ _
 72
65
 73
4
 40
0.4540113770405841
 49
0.2837571106503651
 49
-0.05675142213007301
 49
0.05675142213007301
 49
-0.05675142213007301
  0
LTYPE
  2
DASHDOT
 70
64
  3
__ . __ . __ .
 72
65
 73
4
 40
0.227005688520292
 49
0.113502844260146
 49
-0.05675142213007301
 49
0
 49
-0.05675142213007301
  0
LTYPE
  2
DASHED
 70
64
  3
__ __ __ __ __
 72
65
 73
2
 40
0.170254266390219
 49
0.113502844260146
 49
-0.05675142213007301
  0
LTYPE
  2
DIVIDE
 70
64
  3
__ . . __ . . 
 72
65
 73
6
 40
0.2837571106503651
 49
0.113502844260146
 49
-0.05675142213007301
 49
0
 49
-0.05675142213007301
 49
0
 49
-0.05675142213007301
  0
LTYPE
  2
DOT
 70
64
  3
..............
 72
65
 73
4
 40
0.113502844260146
 49
0
 49
-0.05675142213007301
 49
0
 49
-0.05675142213007301
  0
LTYPE
  2
HIDDEN
 70
64
  3
_ _ _ _ _ _ _
 72
65
 73
2
 40
0.08512713319510952
 49
0.05675142213007301
 49
-0.02837571106503651
  0
LTYPE
  2
PHANTOM
 70
64
  3
_____ _ _ _____ _ _ 
 72
65
 73
6
 40
0.5675142213007301
 49
0.2837571106503651
 49
-0.05675142213007301
 49
0.05675142213007301
 49
-0.05675142213007301
 49
0.05675142213007301
 49
-0.05675142213007301
  0
ENDTAB
  0
TABLE
  2
LAYER
 70
2
  0
LAYER
  2
0
 70
0
 62
7
  6
CONTINUOUS
  0
ENDTAB
  0
TABLE
  2
STYLE
 70
4
  0
STYLE
  2
STANDARD
 70
0
 40
0
 41
1
 50
0
 71
0
 42
3.5
  3
txt
  4

  0
STYLE
  2
SIMPLEX
 70
0
 40
0
 41
1
 50
0
 71
0
 42
3.5
  3
simplex
  4

  0
STYLE
  2
COMPLEX
 70
0
 40
0
 41
1
 50
0
 71
0
 42
3.5
  3
complex
  4

  0
STYLE
  2
ITALIC
 70
0
 40
0
 41
1
 50
0
 71
0
 42
3.5
  3
italic
  4

  0
ENDTAB
  0
TABLE
  2
VIEW
 70
0
  0
ENDTAB
  0
ENDSEC
  0
SECTION
  2
BLOCKS
  0
BLOCK
  8
0
  2
*X0
 70
1
 10
0
 20
0
 30
0
  0
LINE
  8
0
 62
7
 10
1.100000000000005
 20
7.994291116568842
 30
0
 11
1.205708883431162
 21
8.1
 31
0
  0
LINE
  8
0
 62
7
 10
1.267840917787126
 20
7.949999999999999
 30
0
 11
1.275000000000004
 21
7.957159082212877
 31
0
  0
LINE
  8
0
 62
7
 10
1.161774900609145
 20
7.950000000000001
 30
0
 11
1.275000000000004
 21
8.063225099390859
 31
0
  0
ENDBLK
  8
0
  0
BLOCK
  8
0
  2
*X1
 70
1
 10
0
 20
0
 30
0
  0
LINE
  8
0
 62
7
 10
1.100000000000005
 20
10.75200756319637
 30
0
 11
1.197992436803626
 21
10.85
 31
0
  0
LINE
  8
0
 62
7
 10
1.100000000000005
 20
10.53987552884041
 30
0
 11
1.275000000000004
 21
10.71487552884041
 31
0
  0
LINE
  8
0
 62
7
 10
1.100000000000005
 20
10.32774349448444
 30
0
 11
1.275000000000004
 21
10.50274349448444
 31
0
  0
LINE
  8
0
 62
7
 10
1.100000000000005
 20
10.11561146012848
 30
0
 11
1.275000000000004
 21
10.29061146012848
 31
0
  0
LINE
  8
0
 62
7
 10
1.100000000000005
 20
9.903479425772517
 30
0
 11
1.275000000000004
 21
10.07847942577252
 31
0
  0
LINE
  8
0
 62
7
 10
1.100000000000005
 20
9.691347391416553
 30
0
 11
1.275000000000004
 21
9.866347391416552
 31
0
  0
LINE
  8
0
 62
7
 10
1.100000000000005
 20
9.479215357060589
 30
0
 11
1.275000000000004
 21
9.654215357060588
 31
0
  0
LINE
  8
0
 62
7
 10
1.100000000000005
 20
9.267083322704625
 30
0
 11
1.275000000000004
 21
9.442083322704624
 31
0
  0
LINE
  8
0
 62
7
 10
1.100000000000005
 20
9.054951288348661
 30
0
 11
1.275000000000004
 21
9.22995128834866
 31
0
  0
LINE
  8
0
 62
7
 10
1.100000000000005
 20
8.842819253992698
 30
0
 11
1.275000000000004
 21
9.017819253992696
 31
0
  0
LINE
  8
0
 62
7
 10
1.100000000000005
 20
8.630687219636734
 30
0
 11
1.275000000000004
 21
8.805687219636733
 31
0
  0
LINE
  8
0
 62
7
 10
1.100000000000005
 20
8.41855518528077
 30
0
 11
1.275000000000004
 21
8.593555185280769
 31
0
  0
LINE
  8
0
 62
7
 10
1.1935768490752
 20
8.300000000000001
 30
0
 11
1.275000000000004
 21
8.381423150924805
 31
0
  0
LINE
  8
0
 62
7
 10
1.100000000000004
 20
10.64594154601839
 30
0
 11
1.275000000000004
 21
10.82094154601839
 31
0
  0
LINE
  8
0
 62
7
 10
1.100000000000004
 20
10.43380951166242
 30
0
 11
1.275000000000004
 21
10.60880951166243
 31
0
  0
LINE
  8
0
 62
7
 10
1.100000000000004
 20
10.22167747730646
 30
0
 11
1.275000000000004
 21
10.39667747730646
 31
0
  0
LINE
  8
0
 62
7
 10
1.100000000000004
 20
10.0095454429505
 30
0
 11
1.275000000000004
 21
10.1845454429505
 31
0
  0
LINE
  8
0
 62
7
 10
1.100000000000004
 20
9.797413408594533
 30
0
 11
1.275000000000004
 21
9.972413408594534
 31
0
  0
LINE
  8
0
 62
7
 10
1.100000000000004
 20
9.585281374238569
 30
0
 11
1.275000000000004
 21
9.76028137423857
 31
0
  0
LINE
  8
0
 62
7
 10
1.100000000000004
 20
9.373149339882605
 30
0
 11
1.275000000000004
 21
9.548149339882606
 31
0
  0
LINE
  8
0
 62
7
 10
1.100000000000004
 20
9.161017305526642
 30
0
 11
1.275000000000004
 21
9.336017305526642
 31
0
  0
LINE
  8
0
 62
7
 10
1.100000000000004
 20
8.948885271170678
 30
0
 11
1.275000000000004
 21
9.123885271170678
 31
0
  0
LINE
  8
0
 62
7
 10
1.100000000000004
 20
8.736753236814714
 30
0
 11
1.275000000000004
 21
8.911753236814715
 31
0
  0
LINE
  8
0
 62
7
 10
1.100000000000004
 20
8.52462120245875
 30
0
 11
1.275000000000004
 21
8.699621202458751
 31
0
  0
LINE
  8
0
 62
7
 10
1.100000000000004
 20
8.312489168102786
 30
0
 11
1.275000000000004
 21
8.487489168102787
 31
0
  0
ENDBLK
  8
0
  0
BLOCK
  8
0
  2
*X2
 70
1
 10
0
 20
0
 30
0
  0
LINE
  8
0
 62
7
 10
1.100000000000004
 20
11.1762716319083
 30
0
 11
1.123728368091698
 21
11.2
 31
0
  0
LINE
  8
0
 62
7
 10
1.185860402447664
 20
11.05
 30
0
 11
1.275000000000004
 21
11.13913959755234
 31
0
  0
LINE
  8
0
 62
7
 10
1.100000000000005
 20
11.07020561473032
 30
0
 11
1.229794385269681
 21
11.2
 31
0
  0
ENDBLK
  8
0
  0
BLOCK
  8
0
  2
*X3
 70
1
 10
0
 20
0
 30
0
  0
LINE
  8
0
 62
7
 10
4.160000000000004
 20
8.084442635585342
 30
0
 11
4.175557364414662
 21
8.1
 31
0
  0
LINE
  8
0
 62
7
 10
4.237689398770627
 20
7.95
 30
0
 11
4.335000000000004
 21
8.047310601229379
 31
0
  0
LINE
  8
0
 62
7
 10
4.160000000000005
 20
7.97837661840736
 30
0
 11
4.281623381592645
 21
8.100000000000001
 31
0
  0
ENDBLK
  8
0
  0
BLOCK
  8
0
  2
*X4
 70
1
 10
0
 20
0
 30
0
  0
LINE
  8
0
 62
7
 10
4.160000000000004
 20
10.84215908221287
 30
0
 11
4.167840917787127
 21
10.85
 31
0
  0
LINE
  8
0
 62
7
 10
4.160000000000004
 20
10.63002704785691
 30
0
 11
4.335000000000005
 21
10.80502704785691
 31
0
  0
LINE
  8
0
 62
7
 10
4.160000000000004
 20
10.41789501350095
 30
0
 11
4.335000000000005
 21
10.59289501350094
 31
0
  0
LINE
  8
0
 62
7
 10
4.160000000000004
 20
10.20576297914498
 30
0
 11
4.335000000000005
 21
10.38076297914498
 31
0
  0
LINE
  8
0
 62
7
 10
4.160000000000004
 20
9.993630944789018
 30
0
 11
4.335000000000005
 21
10.16863094478902
 31
0
  0
LINE
  8
0
 62
7
 10
4.160000000000004
 20
9.781498910433054
 30
0
 11
4.335000000000005
 21
9.956498910433053
 31
0
  0
LINE
  8
0
 62
7
 10
4.160000000000004
 20
9.56936687607709
 30
0
 11
4.335000000000005
 21
9.744366876077089
 31
0
  0
LINE
  8
0
 62
7
 10
4.160000000000004
 20
9.357234841721127
 30
0
 11
4.335000000000005
 21
9.532234841721126
 31
0
  0
LINE
  8
0
 62
7
 10
4.160000000000004
 20
9.145102807365163
 30
0
 11
4.335000000000005
 21
9.320102807365162
 31
0
  0
LINE
  8
0
 62
7
 10
4.160000000000004
 20
8.932970773009199
 30
0
 11
4.335000000000005
 21
9.107970773009198
 31
0
  0
LINE
  8
0
 62
7
 10
4.160000000000004
 20
8.720838738653235
 30
0
 11
4.335000000000005
 21
8.895838738653234
 31
0
  0
LINE
  8
0
 62
7
 10
4.160000000000004
 20
8.508706704297271
 30
0
 11
4.335000000000005
 21
8.68370670429727
 31
0
  0
LINE
  8
0
 62
7
 10
4.163425330058699
 20
8.300000000000001
 30
0
 11
4.335000000000005
 21
8.471574669941306
 31
0
  0
LINE
  8
0
 62
7
 10
4.160000000000004
 20
10.73609306503489
 30
0
 11
4.273906934965108
 21
10.85
 31
0
  0
LINE
  8
0
 62
7
 10
4.160000000000004
 20
10.52396103067893
 30
0
 11
4.335000000000004
 21
10.69896103067893
 31
0
  0
LINE
  8
0
 62
7
 10
4.160000000000004
 20
10.31182899632296
 30
0
 11
4.335000000000004
 21
10.48682899632296
 31
0
  0
LINE
  8
0
 62
7
 10
4.160000000000004
 20
10.099696961967
 30
0
 11
4.335000000000004
 21
10.274696961967
 31
0
  0
LINE
  8
0
 62
7
 10
4.160000000000004
 20
9.887564927611034
 30
0
 11
4.335000000000004
 21
10.06256492761104
 31
0
  0
LINE
  8
0
 62
7
 10
4.160000000000004
 20
9.675432893255071
 30
0
 11
4.335000000000004
 21
9.850432893255071
 31
0
  0
LINE
  8
0
 62
7
 10
4.160000000000004
 20
9.463300858899107
 30
0
 11
4.335000000000004
 21
9.638300858899107
 31
0
  0
LINE
  8
0
 62
7
 10
4.160000000000004
 20
9.251168824543143
 30
0
 11
4.335000000000004
 21
9.426168824543144
 31
0
  0
LINE
  8
0
 62
7
 10
4.160000000000004
 20
9.039036790187179
 30
0
 11
4.335000000000004
 21
9.21403679018718
 31
0
  0
LINE
  8
0
 62
7
 10
4.160000000000004
 20
8.826904755831215
 30
0
 11
4.335000000000004
 21
9.001904755831216
 31
0
  0
LINE
  8
0
 62
7
 10
4.160000000000004
 20
8.614772721475251
 30
0
 11
4.335000000000004
 21
8.789772721475252
 31
0
  0
LINE
  8
0
 62
7
 10
4.160000000000004
 20
8.402640687119288
 30
0
 11
4.335000000000004
 21
8.577640687119288
 31
0
  0
LINE
  8
0
 62
7
 10
4.269491347236682
 20
8.300000000000001
 30
0
 11
4.335000000000004
 21
8.365508652763324
 31
0
  0
ENDBLK
  8
0
  0
BLOCK
  8
0
  2
*X5
 70
1
 10
0
 20
0
 30
0
  0
LINE
  8
0
 62
7
 10
4.160000000000005
 20
11.05429111656884
 30
0
 11
4.305708883431163
 21
11.2
 31
0
  0
LINE
  8
0
 62
7
 10
4.160000000000004
 20
11.16035713374682
 30
0
 11
4.19964286625318
 21
11.2
 31
0
  0
LINE
  8
0
 62
7
 10
4.261774900609146
 20
11.05
 30
0
 11
4.335000000000004
 21
11.12322509939086
 31
0
  0
ENDBLK
  8
0
  0
BLOCK
  8
0
  2
*X6
 70
1
 10
0
 20
0
 30
0
  0
LINE
  8
0
 62
7
  6
DASHED
 10
0.9500000000000042
 20
8.268555185280769
 30
0
 11
0.9814448147192345
 21
8.300000000000001
 31
0
  0
LINE
  8
0
 62
7
  6
DASHED
 10
0.9935768490751999
 20
8.100000000000001
 30
0
 11
1.193576849075199
 21
8.300000000000001
 31
0
  0
LINE
  8
0
 62
7
  6
DASHED
 10
1.205708883431164
 20
8.100000000000001
 30
0
 11
1.405708883431163
 21
8.300000000000001
 31
0
  0
LINE
  8
0
 62
7
  6
DASHED
 10
1.417840917787129
 20
8.100000000000001
 30
0
 11
1.617840917787127
 21
8.300000000000001
 31
0
  0
LINE
  8
0
 62
7
  6
DASHED
 10
1.629972952143093
 20
8.100000000000001
 30
0
 11
1.829972952143092
 21
8.300000000000001
 31
0
  0
LINE
  8
0
 62
7
  6
DASHED
 10
1.842104986499057
 20
8.100000000000001
 30
0
 11
2.042104986499056
 21
8.300000000000001
 31
0
  0
LINE
  8
0
 62
7
  6
DASHED
 10
2.054237020855021
 20
8.100000000000001
 30
0
 11
2.25423702085502
 21
8.300000000000001
 31
0
  0
LINE
  8
0
 62
7
  6
DASHED
 10
2.266369055210986
 20
8.100000000000001
 30
0
 11
2.466369055210984
 21
8.300000000000001
 31
0
  0
LINE
  8
0
 62
7
  6
DASHED
 10
2.47850108956695
 20
8.100000000000001
 30
0
 11
2.678501089566949
 21
8.300000000000001
 31
0
  0
LINE
  8
0
 62
7
  6
DASHED
 10
2.690633123922914
 20
8.100000000000001
 30
0
 11
2.890633123922913
 21
8.300000000000001
 31
0
  0
LINE
  8
0
 62
7
  6
DASHED
 10
2.902765158278878
 20
8.100000000000001
 30
0
 11
3.102765158278877
 21
8.300000000000001
 31
0
  0
LINE
  8
0
 62
7
  6
DASHED
 10
3.114897192634843
 20
8.100000000000001
 30
0
 11
3.314897192634842
 21
8.300000000000001
 31
0
  0
LINE
  8
0
 62
7
  6
DASHED
 10
3.327029226990807
 20
8.100000000000001
 30
0
 11
3.527029226990806
 21
8.300000000000001
 31
0
  0
LINE
  8
0
 62
7
  6
DASHED
 10
3.539161261346771
 20
8.100000000000001
 30
0
 11
3.73916126134677
 21
8.300000000000001
 31
0
  0
LINE
  8
0
 62
7
  6
DASHED
 10
3.751293295702736
 20
8.100000000000001
 30
0
 11
3.951293295702734
 21
8.300000000000001
 31
0
  0
LINE
  8
0
 62
7
  6
DASHED
 10
3.9634253300587
 20
8.100000000000001
 30
0
 11
4.163425330058699
 21
8.300000000000001
 31
0
  0
LINE
  8
0
 62
7
  6
DASHED
 10
4.175557364414664
 20
8.100000000000001
 30
0
 11
4.375557364414663
 21
8.300000000000001
 31
0
  0
LINE
  8
0
 62
7
  6
DASHED
 10
4.387689398770628
 20
8.100000000000001
 30
0
 11
4.485000000000003
 21
8.197310601229377
 31
0
  0
LINE
  8
0
 62
7
 10
0.9500000000000024
 20
8.162489168102786
 30
0
 11
1.087510831897218
 21
8.300000000000001
 31
0
  0
LINE
  8
0
 62
7
 10
1.099642866253181
 20
8.100000000000001
 30
0
 11
1.299642866253182
 21
8.300000000000001
 31
0
  0
LINE
  8
0
 62
7
 10
1.311774900609146
 20
8.100000000000001
 30
0
 11
1.511774900609146
 21
8.300000000000001
 31
0
  0
LINE
  8
0
 62
7
 10
1.52390693496511
 20
8.100000000000001
 30
0
 11
1.723906934965111
 21
8.300000000000001
 31
0
  0
LINE
  8
0
 62
7
 10
1.736038969321074
 20
8.100000000000001
 30
0
 11
1.936038969321075
 21
8.300000000000001
 31
0
  0
LINE
  8
0
 62
7
 10
1.948171003677039
 20
8.100000000000001
 30
0
 11
2.148171003677039
 21
8.300000000000001
 31
0
  0
LINE
  8
0
 62
7
 10
2.160303038033003
 20
8.100000000000001
 30
0
 11
2.360303038033003
 21
8.300000000000001
 31
0
  0
LINE
  8
0
 62
7
 10
2.372435072388967
 20
8.100000000000001
 30
0
 11
2.572435072388968
 21
8.300000000000001
 31
0
  0
LINE
  8
0
 62
7
 10
2.584567106744931
 20
8.100000000000001
 30
0
 11
2.784567106744932
 21
8.300000000000001
 31
0
  0
LINE
  8
0
 62
7
 10
2.796699141100896
 20
8.100000000000001
 30
0
 11
2.996699141100896
 21
8.300000000000001
 31
0
  0
LINE
  8
0
 62
7
 10
3.00883117545686
 20
8.100000000000001
 30
0
 11
3.208831175456861
 21
8.300000000000001
 31
0
  0
LINE
  8
0
 62
7
 10
3.220963209812824
 20
8.100000000000001
 30
0
 11
3.420963209812825
 21
8.300000000000001
 31
0
  0
LINE
  8
0
 62
7
 10
3.433095244168789
 20
8.100000000000001
 30
0
 11
3.633095244168789
 21
8.300000000000001
 31
0
  0
LINE
  8
0
 62
7
 10
3.645227278524753
 20
8.100000000000001
 30
0
 11
3.845227278524753
 21
8.300000000000001
 31
0
  0
LINE
  8
0
 62
7
 10
3.857359312880717
 20
8.100000000000001
 30
0
 11
4.057359312880718
 21
8.300000000000001
 31
0
  0
LINE
  8
0
 62
7
 10
4.069491347236681
 20
8.100000000000001
 30
0
 11
4.269491347236682
 21
8.300000000000001
 31
0
  0
LINE
  8
0
 62
7
 10
4.281623381592645
 20
8.100000000000001
 30
0
 11
4.481623381592645
 21
8.300000000000001
 31
0
  0
ENDBLK
  8
0
  0
BLOCK
  8
0
  2
*X7
 70
1
 10
0
 20
0
 30
0
  0
LINE
  8
0
 62
7
  6
DASHED
 10
0.9500000000000037
 20
11.0262716319083
 30
0
 11
0.973728368091701
 21
11.05
 31
0
  0
LINE
  8
0
 62
7
  6
DASHED
 10
0.9858604024476638
 20
10.85
 30
0
 11
1.185860402447665
 21
11.05
 31
0
  0
LINE
  8
0
 62
7
  6
DASHED
 10
1.197992436803628
 20
10.85
 30
0
 11
1.39799243680363
 21
11.05
 31
0
  0
LINE
  8
0
 62
7
  6
DASHED
 10
1.410124471159592
 20
10.85
 30
0
 11
1.610124471159594
 21
11.05
 31
0
  0
LINE
  8
0
 62
7
  6
DASHED
 10
1.622256505515557
 20
10.85
 30
0
 11
1.822256505515558
 21
11.05
 31
0
  0
LINE
  8
0
 62
7
  6
DASHED
 10
1.834388539871521
 20
10.85
 30
0
 11
2.034388539871522
 21
11.05
 31
0
  0
LINE
  8
0
 62
7
  6
DASHED
 10
2.046520574227485
 20
10.85
 30
0
 11
2.246520574227487
 21
11.05
 31
0
  0
LINE
  8
0
 62
7
  6
DASHED
 10
2.25865260858345
 20
10.85
 30
0
 11
2.458652608583451
 21
11.05
 31
0
  0
LINE
  8
0
 62
7
  6
DASHED
 10
2.470784642939414
 20
10.85
 30
0
 11
2.670784642939415
 21
11.05
 31
0
  0
LINE
  8
0
 62
7
  6
DASHED
 10
2.682916677295378
 20
10.85
 30
0
 11
2.88291667729538
 21
11.05
 31
0
  0
LINE
  8
0
 62
7
  6
DASHED
 10
2.895048711651342
 20
10.85
 30
0
 11
3.095048711651344
 21
11.05
 31
0
  0
LINE
  8
0
 62
7
  6
DASHED
 10
3.107180746007307
 20
10.85
 30
0
 11
3.307180746007308
 21
11.05
 31
0
  0
LINE
  8
0
 62
7
  6
DASHED
 10
3.319312780363271
 20
10.85
 30
0
 11
3.519312780363272
 21
11.05
 31
0
  0
LINE
  8
0
 62
7
  6
DASHED
 10
3.531444814719235
 20
10.85
 30
0
 11
3.731444814719237
 21
11.05
 31
0
  0
LINE
  8
0
 62
7
  6
DASHED
 10
3.743576849075199
 20
10.85
 30
0
 11
3.943576849075201
 21
11.05
 31
0
  0
LINE
  8
0
 62
7
  6
DASHED
 10
3.955708883431164
 20
10.85
 30
0
 11
4.155708883431165
 21
11.05
 31
0
  0
LINE
  8
0
 62
7
  6
DASHED
 10
4.167840917787128
 20
10.85
 30
0
 11
4.367840917787129
 21
11.05
 31
0
  0
LINE
  8
0
 62
7
  6
DASHED
 10
4.379972952143092
 20
10.85
 30
0
 11
4.485000000000003
 21
10.95502704785691
 31
0
  0
LINE
  8
0
 62
7
 10
0.9500000000000037
 20
10.92020561473032
 30
0
 11
1.079794385269683
 21
11.05
 31
0
  0
LINE
  8
0
 62
7
 10
1.091926419625646
 20
10.85
 30
0
 11
1.291926419625648
 21
11.05
 31
0
  0
LINE
  8
0
 62
7
 10
1.30405845398161
 20
10.85
 30
0
 11
1.504058453981612
 21
11.05
 31
0
  0
LINE
  8
0
 62
7
 10
1.516190488337575
 20
10.85
 30
0
 11
1.716190488337576
 21
11.05
 31
0
  0
LINE
  8
0
 62
7
 10
1.728322522693539
 20
10.85
 30
0
 11
1.928322522693541
 21
11.05
 31
0
  0
LINE
  8
0
 62
7
 10
1.940454557049503
 20
10.85
 30
0
 11
2.140454557049505
 21
11.05
 31
0
  0
LINE
  8
0
 62
7
 10
2.152586591405468
 20
10.85
 30
0
 11
2.352586591405469
 21
11.05
 31
0
  0
LINE
  8
0
 62
7
 10
2.364718625761432
 20
10.85
 30
0
 11
2.564718625761433
 21
11.05
 31
0
  0
LINE
  8
0
 62
7
 10
2.576850660117396
 20
10.85
 30
0
 11
2.776850660117398
 21
11.05
 31
0
  0
LINE
  8
0
 62
7
 10
2.78898269447336
 20
10.85
 30
0
 11
2.988982694473362
 21
11.05
 31
0
  0
LINE
  8
0
 62
7
 10
3.001114728829325
 20
10.85
 30
0
 11
3.201114728829326
 21
11.05
 31
0
  0
LINE
  8
0
 62
7
 10
3.213246763185289
 20
10.85
 30
0
 11
3.413246763185291
 21
11.05
 31
0
  0
LINE
  8
0
 62
7
 10
3.425378797541253
 20
10.85
 30
0
 11
3.625378797541255
 21
11.05
 31
0
  0
LINE
  8
0
 62
7
 10
3.637510831897218
 20
10.85
 30
0
 11
3.837510831897219
 21
11.05
 31
0
  0
LINE
  8
0
 62
7
 10
3.849642866253182
 20
10.85
 30
0
 11
4.049642866253183
 21
11.05
 31
0
  0
LINE
  8
0
 62
7
 10
4.061774900609146
 20
10.85
 30
0
 11
4.261774900609147
 21
11.05
 31
0
  0
LINE
  8
0
 62
7
 10
4.27390693496511
 20
10.85
 30
0
 11
4.473906934965111
 21
11.05
 31
0
  0
ENDBLK
  8
0
  0
BLOCK
  8
0
  2
*X8
 70
1
 10
0
 20
0
 30
0
  0
LINE
  8
0
 62
7
 10
7.960000000000012
 20
8.066066017177995
 30
0
 11
7.993933982822019
 21
8.1
 31
0
  0
LINE
  8
0
 62
7
 10
8.056066017177983
 20
7.95
 30
0
 11
8.200000000000012
 21
8.093933982822026
 31
0
  0
LINE
  8
0
 62
7
 10
7.960000000000012
 20
7.960000000000011
 30
0
 11
8.100000000000001
 21
8.1
 31
0
  0
LINE
  8
0
 62
7
 10
8.162132034355967
 20
7.950000000000001
 30
0
 11
8.200000000000014
 21
7.987867965644048
 31
0
  0
ENDBLK
  8
0
  0
BLOCK
  8
0
  2
*X9
 70
1
 10
0
 20
0
 30
0
  0
LINE
  8
0
 62
7
 10
7.960000000000012
 20
10.82378246380552
 30
0
 11
7.986217536194484
 21
10.85
 31
0
  0
LINE
  8
0
 62
7
 10
7.960000000000012
 20
10.61165042944956
 30
0
 11
8.198349570550448
 21
10.85
 31
0
  0
LINE
  8
0
 62
7
 10
7.960000000000012
 20
10.3995183950936
 30
0
 11
8.200000000000012
 21
10.6395183950936
 31
0
  0
LINE
  8
0
 62
7
 10
7.960000000000012
 20
10.18738636073763
 30
0
 11
8.200000000000012
 21
10.42738636073763
 31
0
  0
LINE
  8
0
 62
7
 10
7.960000000000012
 20
9.975254326381668
 30
0
 11
8.200000000000012
 21
10.21525432638167
 31
0
  0
LINE
  8
0
 62
7
 10
7.960000000000012
 20
9.763122292025704
 30
0
 11
8.200000000000012
 21
10.0031222920257
 31
0
  0
LINE
  8
0
 62
7
 10
7.960000000000012
 20
9.55099025766974
 30
0
 11
8.200000000000012
 21
9.790990257669741
 31
0
  0
LINE
  8
0
 62
7
 10
7.960000000000012
 20
9.338858223313776
 30
0
 11
8.200000000000012
 21
9.578858223313777
 31
0
  0
LINE
  8
0
 62
7
 10
7.960000000000012
 20
9.126726188957813
 30
0
 11
8.200000000000012
 21
9.366726188957813
 31
0
  0
LINE
  8
0
 62
7
 10
7.960000000000012
 20
8.914594154601849
 30
0
 11
8.200000000000012
 21
9.154594154601849
 31
0
  0
LINE
  8
0
 62
7
 10
7.960000000000012
 20
8.702462120245885
 30
0
 11
8.200000000000012
 21
8.942462120245885
 31
0
  0
LINE
  8
0
 62
7
 10
7.960000000000012
 20
8.490330085889921
 30
0
 11
8.200000000000012
 21
8.730330085889921
 31
0
  0
LINE
  8
0
 62
7
 10
7.981801948466055
 20
8.300000000000001
 30
0
 11
8.200000000000012
 21
8.518198051533957
 31
0
  0
LINE
  8
0
 62
7
 10
8.193933982822019
 20
8.300000000000001
 30
0
 11
8.200000000000012
 21
8.306066017177994
 31
0
  0
LINE
  8
0
 62
7
 10
7.960000000000015
 20
10.71771644662754
 30
0
 11
8.092283553372464
 21
10.85
 31
0
  0
LINE
  8
0
 62
7
 10
7.960000000000015
 20
10.50558441227158
 30
0
 11
8.200000000000012
 21
10.74558441227158
 31
0
  0
LINE
  8
0
 62
7
 10
7.960000000000015
 20
10.29345237791562
 30
0
 11
8.200000000000012
 21
10.53345237791561
 31
0
  0
LINE
  8
0
 62
7
 10
7.960000000000015
 20
10.08132034355965
 30
0
 11
8.200000000000012
 21
10.32132034355965
 31
0
  0
LINE
  8
0
 62
7
 10
7.960000000000015
 20
9.869188309203688
 30
0
 11
8.200000000000012
 21
10.10918830920368
 31
0
  0
LINE
  8
0
 62
7
 10
7.960000000000015
 20
9.657056274847724
 30
0
 11
8.200000000000012
 21
9.897056274847721
 31
0
  0
LINE
  8
0
 62
7
 10
7.960000000000015
 20
9.44492424049176
 30
0
 11
8.200000000000012
 21
9.684924240491757
 31
0
  0
LINE
  8
0
 62
7
 10
7.960000000000015
 20
9.232792206135796
 30
0
 11
8.200000000000012
 21
9.472792206135793
 31
0
  0
LINE
  8
0
 62
7
 10
7.960000000000015
 20
9.020660171779832
 30
0
 11
8.200000000000012
 21
9.260660171779829
 31
0
  0
LINE
  8
0
 62
7
 10
7.960000000000015
 20
8.808528137423869
 30
0
 11
8.200000000000012
 21
9.048528137423865
 31
0
  0
LINE
  8
0
 62
7
 10
7.960000000000015
 20
8.596396103067905
 30
0
 11
8.200000000000012
 21
8.836396103067901
 31
0
  0
LINE
  8
0
 62
7
 10
7.960000000000015
 20
8.384264068711941
 30
0
 11
8.200000000000012
 21
8.624264068711938
 31
0
  0
LINE
  8
0
 62
7
 10
8.087867965644037
 20
8.300000000000001
 30
0
 11
8.200000000000012
 21
8.412132034355974
 31
0
  0
ENDBLK
  8
0
  0
BLOCK
  8
0
  2
*X10
 70
1
 10
0
 20
0
 30
0
  0
LINE
  8
0
 62
7
 10
7.974085501838521
 20
11.05
 30
0
 11
8.12408550183852
 21
11.2
 31
0
  0
LINE
  8
0
 62
7
 10
8.186217536194485
 20
11.05
 30
0
 11
8.200000000000012
 21
11.06378246380553
 31
0
  0
LINE
  8
0
 62
7
 10
7.960000000000012
 20
11.14198051533947
 30
0
 11
8.018019484660536
 21
11.2
 31
0
  0
LINE
  8
0
 62
7
 10
8.080151519016503
 20
11.05
 30
0
 11
8.20000000000001
 21
11.16984848098351
 31
0
  0
ENDBLK
  8
0
  0
BLOCK
  8
0
  2
*X11
 70
1
 10
0
 20
0
 30
0
  0
LINE
  8
0
 62
7
  6
DASHED
 10
6.510000000000012
 20
8.100990257669743
 30
0
 11
6.70900974233027
 21
8.300000000000001
 31
0
  0
LINE
  8
0
 62
7
  6
DASHED
 10
6.721141776686234
 20
8.1
 30
0
 11
6.810000000000012
 21
8.188858223313778
 31
0
  0
LINE
  8
0
 62
7
 10
6.510000000000014
 20
8.207056274847726
 30
0
 11
6.602943725152286
 21
8.299999999999999
 31
0
  0
LINE
  8
0
 62
7
 10
6.615075759508251
 20
8.1
 30
0
 11
6.810000000000013
 21
8.294924240491762
 31
0
  0
ENDBLK
  8
0
  0
BLOCK
  8
0
  2
*X12
 70
1
 10
0
 20
0
 30
0
  0
LINE
  8
0
 62
7
  6
DASHED
 10
6.510000000000014
 20
10.85870670429728
 30
0
 11
6.701293295702735
 21
11.05
 31
0
  0
LINE
  8
0
 62
7
  6
DASHED
 10
6.713425330058699
 20
10.85
 30
0
 11
6.810000000000014
 21
10.94657466994131
 31
0
  0
LINE
  8
0
 62
7
 10
6.510000000000014
 20
10.96477272147526
 30
0
 11
6.595227278524755
 21
11.05
 31
0
  0
LINE
  8
0
 62
7
 10
6.607359312880718
 20
10.85
 30
0
 11
6.807359312880719
 21
11.05
 31
0
  0
ENDBLK
  8
0
  0
BLOCK
  8
0
  2
*X13
 70
1
 10
0
 20
0
 30
0
  0
LINE
  8
0
 62
7
  6
DASHED
 10
7.960000000000012
 20
11.03591449816149
 30
0
 11
7.974085501838521
 21
11.05
 31
0
  0
LINE
  8
0
 62
7
  6
DASHED
 10
7.986217536194484
 20
10.85
 30
0
 11
8.186217536194485
 21
11.05
 31
0
  0
LINE
  8
0
 62
7
  6
DASHED
 10
8.198349570550448
 20
10.85
 30
0
 11
8.20000000000001
 21
10.85165042944956
 31
0
  0
LINE
  8
0
 62
7
 10
7.960000000000011
 20
10.92984848098351
 30
0
 11
8.080151519016503
 21
11.05
 31
0
  0
LINE
  8
0
 62
7
 10
8.092283553372466
 20
10.85
 30
0
 11
8.200000000000012
 21
10.95771644662754
 31
0
  0
ENDBLK
  8
0
  0
BLOCK
  8
0
  2
*X14
 70
1
 10
0
 20
0
 30
0
  0
LINE
  8
0
 62
7
  6
DASHED
 10
7.960000000000011
 20
8.278198051533957
 30
0
 11
7.981801948466055
 21
8.300000000000001
 31
0
  0
LINE
  8
0
 62
7
  6
DASHED
 10
7.993933982822019
 20
8.1
 30
0
 11
8.193933982822019
 21
8.300000000000001
 31
0
  0
LINE
  8
0
 62
7
 10
7.960000000000013
 20
8.172132034355975
 30
0
 11
8.087867965644037
 21
8.300000000000001
 31
0
  0
LINE
  8
0
 62
7
 10
8.100000000000001
 20
8.1
 30
0
 11
8.20000000000001
 21
8.20000000000001
 31
0
  0
ENDBLK
  8
0
  0
BLOCK
  8
0
  2
*X15
 70
1
 10
0
 20
0
 30
0
  0
LINE
  8
0
 62
7
 10
1.100000000000004
 20
5.024442635585342
 30
0
 11
1.245557364414661
 21
5.169999999999999
 31
0
  0
LINE
  8
0
 62
7
 10
0.9350000000000038
 20
4.859442635585342
 30
0
 11
1.095557364414661
 21
5.019999999999999
 31
0
  0
LINE
  8
0
 62
7
 10
1.06768939877063
 20
4.780000000000002
 30
0
 11
1.307689398770625
 21
5.019999999999999
 31
0
  0
LINE
  8
0
 62
7
 10
1.279821433126594
 20
4.780000000000002
 30
0
 11
1.519821433126589
 21
5.019999999999999
 31
0
  0
LINE
  8
0
 62
7
 10
1.491953467482558
 20
4.780000000000002
 30
0
 11
1.731953467482553
 21
5.019999999999999
 31
0
  0
LINE
  8
0
 62
7
 10
1.704085501838522
 20
4.780000000000002
 30
0
 11
1.944085501838518
 21
5.019999999999999
 31
0
  0
LINE
  8
0
 62
7
 10
1.916217536194487
 20
4.780000000000002
 30
0
 11
2.156217536194482
 21
5.019999999999999
 31
0
  0
LINE
  8
0
 62
7
 10
2.128349570550451
 20
4.780000000000002
 30
0
 11
2.368349570550446
 21
5.019999999999999
 31
0
  0
LINE
  8
0
 62
7
 10
2.340481604906415
 20
4.780000000000002
 30
0
 11
2.580481604906411
 21
5.019999999999999
 31
0
  0
LINE
  8
0
 62
7
 10
2.552613639262379
 20
4.780000000000002
 30
0
 11
2.792613639262375
 21
5.019999999999999
 31
0
  0
LINE
  8
0
 62
7
 10
2.764745673618344
 20
4.780000000000002
 30
0
 11
3.004745673618339
 21
5.019999999999999
 31
0
  0
LINE
  8
0
 62
7
 10
2.976877707974308
 20
4.780000000000002
 30
0
 11
3.216877707974303
 21
5.019999999999999
 31
0
  0
LINE
  8
0
 62
7
 10
3.189009742330272
 20
4.780000000000002
 30
0
 11
3.429009742330268
 21
5.019999999999999
 31
0
  0
LINE
  8
0
 62
7
 10
3.401141776686237
 20
4.780000000000002
 30
0
 11
3.641141776686232
 21
5.019999999999999
 31
0
  0
LINE
  8
0
 62
7
 10
3.613273811042201
 20
4.780000000000002
 30
0
 11
3.853273811042196
 21
5.019999999999999
 31
0
  0
LINE
  8
0
 62
7
 10
4.160000000000003
 20
5.114594154601842
 30
0
 11
4.215405845398161
 21
5.169999999999999
 31
0
  0
LINE
  8
0
 62
7
 10
3.825405845398165
 20
4.780000000000002
 30
0
 11
4.065405845398161
 21
5.019999999999999
 31
0
  0
LINE
  8
0
 62
7
 10
4.037537879754129
 20
4.780000000000002
 30
0
 11
4.335000000000004
 21
5.077462120245879
 31
0
  0
LINE
  8
0
 62
7
 10
4.249669914110093
 20
4.780000000000002
 30
0
 11
4.485000000000004
 21
5.015330085889913
 31
0
  0
LINE
  8
0
 62
7
 10
4.461801948466057
 20
4.780000000000002
 30
0
 11
4.485000000000004
 21
4.803198051533949
 31
0
  0
LINE
  8
0
 62
7
 10
1.100000000000004
 20
5.130508652763323
 30
0
 11
1.139491347236679
 21
5.17
 31
0
  0
LINE
  8
0
 62
7
 10
0.9350000000000032
 20
4.965508652763323
 30
0
 11
0.9894913472366782
 21
5.019999999999998
 31
0
  0
LINE
  8
0
 62
7
 10
0.9616233815926472
 20
4.780000000000002
 30
0
 11
1.275000000000004
 21
5.093376618407359
 31
0
  0
LINE
  8
0
 62
7
 10
1.173755415948611
 20
4.780000000000002
 30
0
 11
1.413755415948607
 21
5.019999999999999
 31
0
  0
LINE
  8
0
 62
7
 10
1.385887450304576
 20
4.780000000000002
 30
0
 11
1.625887450304571
 21
5.019999999999999
 31
0
  0
LINE
  8
0
 62
7
 10
1.59801948466054
 20
4.780000000000002
 30
0
 11
1.838019484660536
 21
5.019999999999999
 31
0
  0
LINE
  8
0
 62
7
 10
1.810151519016504
 20
4.780000000000002
 30
0
 11
2.0501515190165
 21
5.019999999999999
 31
0
  0
LINE
  8
0
 62
7
 10
2.022283553372469
 20
4.780000000000002
 30
0
 11
2.262283553372464
 21
5.019999999999999
 31
0
  0
LINE
  8
0
 62
7
 10
2.234415587728433
 20
4.780000000000002
 30
0
 11
2.474415587728429
 21
5.019999999999999
 31
0
  0
LINE
  8
0
 62
7
 10
2.446547622084397
 20
4.780000000000002
 30
0
 11
2.686547622084393
 21
5.019999999999999
 31
0
  0
LINE
  8
0
 62
7
 10
2.658679656440361
 20
4.780000000000002
 30
0
 11
2.898679656440357
 21
5.019999999999999
 31
0
  0
LINE
  8
0
 62
7
 10
2.870811690796326
 20
4.780000000000002
 30
0
 11
3.110811690796321
 21
5.019999999999999
 31
0
  0
LINE
  8
0
 62
7
 10
3.08294372515229
 20
4.780000000000002
 30
0
 11
3.322943725152286
 21
5.019999999999999
 31
0
  0
LINE
  8
0
 62
7
 10
3.295075759508254
 20
4.780000000000002
 30
0
 11
3.53507575950825
 21
5.019999999999999
 31
0
  0
LINE
  8
0
 62
7
 10
3.507207793864219
 20
4.780000000000002
 30
0
 11
3.747207793864214
 21
5.019999999999999
 31
0
  0
LINE
  8
0
 62
7
 10
3.719339828220183
 20
4.780000000000002
 30
0
 11
3.959339828220179
 21
5.019999999999999
 31
0
  0
LINE
  8
0
 62
7
 10
3.931471862576147
 20
4.780000000000002
 30
0
 11
4.321471862576143
 21
5.169999999999999
 31
0
  0
LINE
  8
0
 62
7
 10
4.143603896932111
 20
4.780000000000002
 30
0
 11
4.383603896932107
 21
5.02
 31
0
  0
LINE
  8
0
 62
7
 10
4.355735931288075
 20
4.780000000000002
 30
0
 11
4.485000000000004
 21
4.909264068711931
 31
0
  0
ENDBLK
  8
0
  0
BLOCK
  8
0
  2
*X16
 70
1
 10
0
 20
0
 30
0
  0
LINE
  8
0
 62
7
 10
0.9350000000000036
 20
4.647310601229377
 30
0
 11
1.027689398770629
 21
4.740000000000002
 31
0
  0
LINE
  8
0
 62
7
 10
0.9998214331265931
 20
4.500000000000003
 30
0
 11
1.239821433126593
 21
4.740000000000002
 31
0
  0
LINE
  8
0
 62
7
 10
1.100000000000004
 20
4.388046532517449
 30
0
 11
1.451953467482558
 21
4.740000000000002
 31
0
  0
LINE
  8
0
 62
7
 10
1.42408550183852
 20
4.500000000000003
 30
0
 11
1.664085501838522
 21
4.740000000000002
 31
0
  0
LINE
  8
0
 62
7
 10
1.100000000000004
 20
4.175914498161485
 30
0
 11
1.275000000000004
 21
4.350914498161485
 31
0
  0
LINE
  8
0
 62
7
 10
1.636217536194485
 20
4.500000000000003
 30
0
 11
1.876217536194486
 21
4.740000000000002
 31
0
  0
LINE
  8
0
 62
7
 10
1.100000000000004
 20
3.963782463805521
 30
0
 11
1.275000000000004
 21
4.138782463805521
 31
0
  0
LINE
  8
0
 62
7
 10
1.848349570550449
 20
4.500000000000003
 30
0
 11
2.08834957055045
 21
4.740000000000002
 31
0
  0
LINE
  8
0
 62
7
 10
1.100000000000004
 20
3.751650429449557
 30
0
 11
1.275000000000004
 21
3.926650429449557
 31
0
  0
LINE
  8
0
 62
7
 10
2.060481604906413
 20
4.500000000000003
 30
0
 11
2.300481604906415
 21
4.740000000000002
 31
0
  0
LINE
  8
0
 62
7
 10
1.100000000000004
 20
3.539518395093593
 30
0
 11
1.275000000000004
 21
3.714518395093592
 31
0
  0
LINE
  8
0
 62
7
 10
2.272613639262377
 20
4.500000000000003
 30
0
 11
2.512613639262379
 21
4.740000000000002
 31
0
  0
LINE
  8
0
 62
7
 10
1.122613639262377
 20
3.350000000000001
 30
0
 11
1.275000000000004
 21
3.502386360737628
 31
0
  0
LINE
  8
0
 62
7
 10
2.484745673618342
 20
4.500000000000003
 30
0
 11
2.724745673618343
 21
4.740000000000002
 31
0
  0
LINE
  8
0
 62
7
 10
2.696877707974306
 20
4.500000000000003
 30
0
 11
2.936877707974308
 21
4.740000000000002
 31
0
  0
LINE
  8
0
 62
7
 10
2.90900974233027
 20
4.500000000000003
 30
0
 11
3.149009742330272
 21
4.740000000000002
 31
0
  0
LINE
  8
0
 62
7
 10
3.121141776686235
 20
4.500000000000003
 30
0
 11
3.361141776686236
 21
4.740000000000002
 31
0
  0
LINE
  8
0
 62
7
 10
3.333273811042199
 20
4.500000000000003
 30
0
 11
3.5732738110422
 21
4.740000000000002
 31
0
  0
LINE
  8
0
 62
7
 10
3.545405845398163
 20
4.500000000000003
 30
0
 11
3.785405845398165
 21
4.740000000000002
 31
0
  0
LINE
  8
0
 62
7
 10
3.757537879754127
 20
4.500000000000003
 30
0
 11
3.997537879754129
 21
4.740000000000002
 31
0
  0
LINE
  8
0
 62
7
 10
3.969669914110092
 20
4.500000000000003
 30
0
 11
4.209669914110093
 21
4.740000000000002
 31
0
  0
LINE
  8
0
 62
7
 10
4.160000000000004
 20
4.478198051533949
 30
0
 11
4.421801948466057
 21
4.740000000000002
 31
0
  0
LINE
  8
0
 62
7
 10
4.393933982822022
 20
4.500000000000003
 30
0
 11
4.485000000000003
 21
4.591066017177985
 31
0
  0
LINE
  8
0
 62
7
 10
4.160000000000004
 20
4.266066017177985
 30
0
 11
4.335000000000004
 21
4.441066017177985
 31
0
  0
LINE
  8
0
 62
7
 10
4.160000000000004
 20
4.053933982822021
 30
0
 11
4.335000000000004
 21
4.228933982822021
 31
0
  0
LINE
  8
0
 62
7
 10
4.160000000000004
 20
3.841801948466057
 30
0
 11
4.335000000000004
 21
4.016801948466057
 31
0
  0
LINE
  8
0
 62
7
 10
4.160000000000004
 20
3.629669914110093
 30
0
 11
4.335000000000004
 21
3.804669914110093
 31
0
  0
LINE
  8
0
 62
7
 10
4.160000000000004
 20
3.417537879754128
 30
0
 11
4.335000000000004
 21
3.592537879754129
 31
0
  0
LINE
  8
0
 62
7
 10
4.20459415460184
 20
3.250000000000001
 30
0
 11
4.335000000000004
 21
3.380405845398164
 31
0
  0
LINE
  8
0
 62
7
 10
0.9350000000000038
 20
4.541244584051396
 30
0
 11
1.133755415948611
 21
4.740000000000002
 31
0
  0
LINE
  8
0
 62
7
 10
1.100000000000004
 20
4.494112549695431
 30
0
 11
1.345887450304575
 21
4.740000000000002
 31
0
  0
LINE
  8
0
 62
7
 10
1.318019484660538
 20
4.500000000000002
 30
0
 11
1.558019484660539
 21
4.740000000000002
 31
0
  0
LINE
  8
0
 62
7
 10
1.100000000000004
 20
4.281980515339467
 30
0
 11
1.275000000000004
 21
4.456980515339466
 31
0
  0
LINE
  8
0
 62
7
 10
1.530151519016503
 20
4.500000000000002
 30
0
 11
1.770151519016503
 21
4.740000000000002
 31
0
  0
LINE
  8
0
 62
7
 10
1.100000000000004
 20
4.069848480983503
 30
0
 11
1.275000000000004
 21
4.244848480983502
 31
0
  0
LINE
  8
0
 62
7
 10
1.742283553372467
 20
4.500000000000002
 30
0
 11
1.982283553372468
 21
4.740000000000002
 31
0
  0
LINE
  8
0
 62
7
 10
1.100000000000004
 20
3.857716446627539
 30
0
 11
1.275000000000004
 21
4.032716446627538
 31
0
  0
LINE
  8
0
 62
7
 10
1.954415587728431
 20
4.500000000000002
 30
0
 11
2.194415587728432
 21
4.740000000000002
 31
0
  0
LINE
  8
0
 62
7
 10
1.100000000000004
 20
3.645584412271575
 30
0
 11
1.275000000000004
 21
3.820584412271574
 31
0
  0
LINE
  8
0
 62
7
 10
2.166547622084396
 20
4.500000000000002
 30
0
 11
2.406547622084396
 21
4.740000000000002
 31
0
  0
LINE
  8
0
 62
7
 10
1.100000000000004
 20
3.43345237791561
 30
0
 11
1.275000000000004
 21
3.60845237791561
 31
0
  0
LINE
  8
0
 62
7
 10
2.37867965644036
 20
4.500000000000002
 30
0
 11
2.61867965644036
 21
4.740000000000002
 31
0
  0
LINE
  8
0
 62
7
 10
1.228679656440359
 20
3.350000000000001
 30
0
 11
1.275000000000004
 21
3.396320343559646
 31
0
  0
LINE
  8
0
 62
7
 10
2.590811690796324
 20
4.500000000000002
 30
0
 11
2.830811690796325
 21
4.740000000000002
 31
0
  0
LINE
  8
0
 62
7
 10
2.802943725152288
 20
4.500000000000002
 30
0
 11
3.042943725152289
 21
4.740000000000002
 31
0
  0
LINE
  8
0
 62
7
 10
3.015075759508253
 20
4.500000000000002
 30
0
 11
3.255075759508253
 21
4.740000000000002
 31
0
  0
LINE
  8
0
 62
7
 10
3.227207793864217
 20
4.500000000000002
 30
0
 11
3.467207793864218
 21
4.740000000000002
 31
0
  0
LINE
  8
0
 62
7
 10
3.439339828220181
 20
4.500000000000002
 30
0
 11
3.679339828220182
 21
4.740000000000002
 31
0
  0
LINE
  8
0
 62
7
 10
3.651471862576146
 20
4.500000000000002
 30
0
 11
3.891471862576146
 21
4.740000000000002
 31
0
  0
LINE
  8
0
 62
7
 10
3.86360389693211
 20
4.500000000000002
 30
0
 11
4.10360389693211
 21
4.740000000000002
 31
0
  0
LINE
  8
0
 62
7
 10
4.075735931288074
 20
4.500000000000002
 30
0
 11
4.315735931288074
 21
4.740000000000002
 31
0
  0
LINE
  8
0
 62
7
 10
4.160000000000004
 20
4.372132034355967
 30
0
 11
4.485000000000004
 21
4.697132034355968
 31
0
  0
LINE
  8
0
 62
7
 10
4.160000000000004
 20
4.160000000000003
 30
0
 11
4.335000000000004
 21
4.335000000000004
 31
0
  0
LINE
  8
0
 62
7
 10
4.160000000000004
 20
3.947867965644039
 30
0
 11
4.335000000000004
 21
4.12286796564404
 31
0
  0
LINE
  8
0
 62
7
 10
4.160000000000004
 20
3.735735931288075
 30
0
 11
4.335000000000004
 21
3.910735931288076
 31
0
  0
LINE
  8
0
 62
7
 10
4.160000000000004
 20
3.52360389693211
 30
0
 11
4.335000000000004
 21
3.698603896932112
 31
0
  0
LINE
  8
0
 62
7
 10
4.160000000000003
 20
3.311471862576146
 30
0
 11
4.335000000000004
 21
3.486471862576147
 31
0
  0
LINE
  8
0
 62
7
 10
4.310660171779823
 20
3.250000000000001
 30
0
 11
4.335000000000004
 21
3.274339828220183
 31
0
  0
ENDBLK
  8
0
  0
BLOCK
  8
0
  2
*D0
 70
1
 10
0
 20
0
 30
0
  0
LINE
  8
0
 62
7
 10
0.7144885313404959
 20
10.10776571325157
 30
0
 11
0.7144885313404959
 21
11.05
 31
0
  0
LINE
  8
0
 62
7
 10
0.7144885313404959
 20
8.300000000000001
 30
0
 11
0.7144885313404959
 21
9.027765713251569
 31
0
  0
LINE
  8
0
 62
7
 10
0.9500000000000037
 20
11.05
 30
0
 11
0.6644885313404959
 21
11.05
 31
0
  0
LINE
  8
0
 62
7
 10
0.9500000000000037
 20
8.300000000000001
 30
0
 11
0.6644885313404959
 21
8.300000000000001
 31
0
  0
LINE
  8
0
 62
7
 10
0.6791331922811685
 20
8.335355339059328
 30
0
 11
0.7498438703998234
 21
8.264644660940673
 31
0
  0
LINE
  8
0
 62
7
 10
0.7498438703998234
 20
11.01464466094067
 30
0
 11
0.6791331922811685
 21
11.08535533905933
 31
0
  0
TEXT
  8
0
 62
7
 10
0.6844885313404959
 20
9.43026571325157
 30
0
 40
0.1
  1
2,75
 50
90
 41
0.9
  0
TEXT
  8
0
 62
7
 10
0.844488531340496
 20
9.22776571325157
 30
0
 40
0.1
  1
(260-280)
 50
90
 41
0.9
  0
ENDBLK
  8
0
  0
BLOCK
  8
0
  2
*D1
 70
1
 10
0
 20
0
 30
0
  0
LINE
  8
0
 62
7
 10
3.07321784661898
 20
11.4612161637711
 30
0
 11
4.160000000000004
 21
11.4612161637711
 31
0
  0
LINE
  8
0
 62
7
 10
1.275000000000004
 20
11.4612161637711
 30
0
 11
2.39821784661898
 21
11.4612161637711
 31
0
  0
LINE
  8
0
 62
7
 10
4.160000000000004
 20
11.2
 30
0
 11
4.160000000000004
 21
11.5112161637711
 31
0
  0
LINE
  8
0
 62
7
 10
1.275000000000004
 20
11.2
 30
0
 11
1.275000000000004
 21
11.5112161637711
 31
0
  0
LINE
  8
0
 62
7
 10
1.310355339059331
 20
11.49657150283043
 30
0
 11
1.239644660940677
 21
11.42586082471177
 31
0
  0
LINE
  8
0
 62
7
 10
4.124644660940676
 20
11.42586082471177
 30
0
 11
4.195355339059331
 21
11.49657150283043
 31
0
  0
TEXT
  8
0
 62
7
 10
2.59821784661898
 20
11.4162161637711
 30
0
 40
0.1
  1
2,89
 41
0.9
  0
ENDBLK
  8
0
  0
BLOCK
  8
0
  2
*D2
 70
1
 10
0
 20
0
 30
0
  0
LINE
  8
0
 62
7
 10
4.74533090146483
 20
4.283146882558341
 30
0
 11
4.74533090146483
 21
4.500000000000003
 31
0
  0
LINE
  8
0
 62
7
 10
4.74533090146483
 20
3.250000000000001
 30
0
 11
4.74533090146483
 21
3.53814688255834
 31
0
  0
LINE
  8
0
 62
7
 10
4.335000000000004
 20
4.500000000000003
 30
0
 11
4.79533090146483
 21
4.500000000000003
 31
0
  0
LINE
  8
0
 62
7
 10
4.335000000000004
 20
3.250000000000001
 30
0
 11
4.79533090146483
 21
3.250000000000001
 31
0
  0
LINE
  8
0
 62
7
 10
4.709975562405503
 20
3.285355339059328
 30
0
 11
4.780686240524157
 21
3.214644660940674
 31
0
  0
LINE
  8
0
 62
7
 10
4.780686240524157
 20
4.464644660940675
 30
0
 11
4.709975562405503
 21
4.53535533905933
 31
0
  0
TEXT
  8
0
 62
7
 10
4.79033090146483
 20
3.78814688255834
 30
0
 40
0.1
  1
1,25
 50
90
 41
0.9
  0
ENDBLK
  8
0
  0
BLOCK
  8
0
  2
*D3
 70
1
 10
0
 20
0
 30
0
  0
LINE
  8
0
 62
7
 10
3.06513654445581
 20
5.36267943663771
 30
0
 11
4.160000000000004
 21
5.36267943663771
 31
0
  0
LINE
  8
0
 62
7
 10
1.275000000000004
 20
5.36267943663771
 30
0
 11
2.29013654445581
 21
5.36267943663771
 31
0
  0
LINE
  8
0
 62
7
 10
4.160000000000004
 20
5.019999999999998
 30
0
 11
4.160000000000004
 21
5.41267943663771
 31
0
  0
LINE
  8
0
 62
7
 10
1.275000000000004
 20
5.019999999999998
 30
0
 11
1.275000000000004
 21
5.41267943663771
 31
0
  0
LINE
  8
0
 62
7
 10
4.124644660940676
 20
5.327324097578383
 30
0
 11
4.195355339059331
 21
5.398034775697037
 31
0
  0
LINE
  8
0
 62
7
 10
1.310355339059331
 20
5.398034775697037
 30
0
 11
1.239644660940677
 21
5.327324097578383
 31
0
  0
TEXT
  8
0
 62
7
 10
2.54013654445581
 20
5.31767943663771
 30
0
 40
0.1
  1
2,89
 41
0.9
  0
ENDBLK
  8
0
  0
BLOCK
  8
0
  2
*D4
 70
1
 10
0
 20
0
 30
0
  0
LINE
  8
0
 62
7
 10
0.702872270907861
 20
4.302995663856239
 30
0
 11
0.702872270907861
 21
4.500000000000002
 31
0
  0
LINE
  8
0
 62
7
 10
0.702872270907861
 20
3.350000000000001
 30
0
 11
0.702872270907861
 21
3.58799566385624
 31
0
  0
LINE
  8
0
 62
7
 10
1.100000000000004
 20
4.500000000000002
 30
0
 11
0.6528722709078609
 21
4.500000000000002
 31
0
  0
LINE
  8
0
 62
7
 10
1.100000000000004
 20
3.350000000000001
 30
0
 11
0.6528722709078609
 21
3.350000000000001
 31
0
  0
LINE
  8
0
 62
7
 10
0.7382276099671884
 20
4.464644660940674
 30
0
 11
0.6675169318485336
 21
4.535355339059329
 31
0
  0
LINE
  8
0
 62
7
 10
0.6675169318485336
 20
3.385355339059328
 30
0
 11
0.7382276099671884
 21
3.314644660940673
 31
0
  0
TEXT
  8
0
 62
7
 10
0.747872270907861
 20
3.83799566385624
 30
0
 40
0.1
  1
1,15
 50
90
 41
0.9
  0
ENDBLK
  8
0
  0
ENDSEC
  0
SECTION
  2
ENTITIES
  0
INSERT
  8
0
  2
*X0
 10
0
 20
0
 30
0
  0
INSERT
  8
0
  2
*X1
 10
0
 20
0
 30
0
  0
INSERT
  8
0
  2
*X2
 10
0
 20
0
 30
0
  0
INSERT
  8
0
  2
*X3
 10
0
 20
0
 30
0
  0
INSERT
  8
0
  2
*X4
 10
0
 20
0
 30
0
  0
INSERT
  8
0
  2
*X5
 10
0
 20
0
 30
0
  0
INSERT
  8
0
  2
*X6
 10
0
 20
0
 30
0
  0
INSERT
  8
0
  2
*X7
 10
0
 20
0
 30
0
  0
INSERT
  8
0
  2
*X8
 10
0
 20
0
 30
0
  0
INSERT
  8
0
  2
*X9
 10
0
 20
0
 30
0
  0
INSERT
  8
0
  2
*X10
 10
0
 20
0
 30
0
  0
INSERT
  8
0
  2
*X11
 10
0
 20
0
 30
0
  0
INSERT
  8
0
  2
*X12
 10
0
 20
0
 30
0
  0
INSERT
  8
0
  2
*X13
 10
0
 20
0
 30
0
  0
INSERT
  8
0
  2
*X14
 10
0
 20
0
 30
0
  0
INSERT
  8
0
  2
*X15
 10
0
 20
0
 30
0
  0
INSERT
  8
0
  2
*X16
 10
0
 20
0
 30
0
  0
LINE
  8
0
 62
7
 10
2.441857794771673
 20
3.535000000000002
 30
0
 11
2.484933977086024
 21
3.535000000000002
 31
0
  0
LINE
  8
0
 62
7
 10
2.353026516405542
 20
3.535000000000002
 30
0
 11
2.484933977086024
 21
3.535000000000002
 31
0
  0
LINE
  8
0
 62
7
 10
2.279452027099305
 20
3.535000000000002
 30
0
 11
2.484933977086024
 21
3.535000000000002
 31
0
  0
LINE
  8
0
 62
7
 10
2.328223818850014
 20
3.611712090802252
 30
0
 11
2.328223818850014
 21
3.611712090802252
 31
0
  0
LINE
  8
0
 62
7
 10
2.240000000000004
 20
3.390000000000002
 30
0
 11
2.240000000000004
 21
3.466772959834376
 31
0
  0
LINE
  8
0
 62
7
 10
2.240000000000004
 20
3.466772959834376
 30
0
 11
2.328223818850014
 21
3.611712090802252
 31
0
  0
LINE
  8
0
 62
7
 10
3.127624131643415
 20
3.535000000000002
 30
0
 11
3.146047713562892
 21
3.540737577316456
 31
0
  0
LINE
  8
0
 62
7
 10
3.146047713562892
 20
3.540737577316456
 30
0
 11
3.195000000000004
 21
3.465677404779544
 31
0
  0
LINE
  8
0
 62
7
 10
3.195000000000004
 20
3.465677404779544
 30
0
 11
3.195000000000004
 21
3.250000000000002
 31
0
  0
LINE
  8
0
 62
7
 10
4.105000000000004
 20
3.250000000000002
 30
0
 11
4.105000000000004
 21
3.605101235618662
 31
0
  0
LINE
  8
0
 62
7
 10
3.195000000000004
 20
3.250000000000002
 30
0
 11
4.105000000000004
 21
3.250000000000002
 31
0
  0
LINE
  8
0
 62
7
 10
4.105000000000004
 20
3.514748135276653
 30
0
 11
4.105000000000004
 21
3.933643374959711
 31
0
  0
LINE
  8
0
 62
7
 10
3.195000000000004
 20
3.465677404779544
 30
0
 11
3.214492840772553
 21
3.435788382261633
 31
0
  0
LINE
  8
0
 62
7
 10
3.214492840772553
 20
3.435788382261633
 30
0
 11
4.105000000000004
 21
3.514748135276653
 31
0
  0
LINE
  8
0
 62
7
 10
4.105000000000004
 20
3.839379986282962
 30
0
 11
4.105000000000004
 21
4.420801690470362
 31
0
  0
LINE
  8
0
 62
7
 10
2.917236474899623
 20
3.535000000000002
 30
0
 11
3.127624131643415
 21
3.535000000000002
 31
0
  0
LINE
  8
0
 62
7
 10
3.146047713562892
 20
3.540737577316456
 30
0
 11
4.105000000000004
 21
3.839379986282962
 31
0
  0
LINE
  8
0
 62
7
 10
4.105000000000004
 20
4.308529548511171
 30
0
 11
4.105000000000004
 21
4.445000000000002
 31
0
  0
LINE
  8
0
 62
7
 10
4.105000000000004
 20
4.445000000000002
 30
0
 11
3.581102184806712
 21
4.445000000000002
 31
0
  0
LINE
  8
0
 62
7
 10
2.867138933480393
 20
3.535000000000002
 30
0
 11
3.067781180942362
 21
3.535000000000002
 31
0
  0
LINE
  8
0
 62
7
 10
3.067781180942362
 20
3.535000000000002
 30
0
 11
4.105000000000004
 21
4.308529548511171
 31
0
  0
LINE
  8
0
 62
7
 10
3.695496324764085
 20
4.445000000000002
 30
0
 11
3.224635448595353
 21
4.445000000000002
 31
0
  0
LINE
  8
0
 62
7
 10
2.790094078388302
 20
3.535000000000002
 30
0
 11
2.981533073437764
 21
3.535000000000002
 31
0
  0
LINE
  8
0
 62
7
 10
2.981533073437764
 20
3.535000000000002
 30
0
 11
3.695496324764085
 21
4.445000000000002
 31
0
  0
LINE
  8
0
 62
7
 10
3.324370045317735
 20
4.445000000000002
 30
0
 11
2.897112804014592
 21
4.445000000000002
 31
0
  0
LINE
  8
0
 62
7
 10
2.707125870270033
 20
3.535000000000002
 30
0
 11
2.889828675110683
 21
3.535000000000002
 31
0
  0
LINE
  8
0
 62
7
 10
2.889828675110683
 20
3.535000000000002
 30
0
 11
3.324370045317735
 21
4.445000000000002
 31
0
  0
LINE
  8
0
 62
7
 10
2.989053333505042
 20
4.445000000000002
 30
0
 11
2.560919232089295
 21
4.445000000000002
 31
0
  0
LINE
  8
0
 62
7
 10
2.621565366410723
 20
3.535000000000002
 30
0
 11
2.799066399760493
 21
3.535000000000002
 31
0
  0
LINE
  8
0
 62
7
 10
2.799066399760493
 20
3.535000000000002
 30
0
 11
2.989053333505042
 21
4.445000000000002
 31
0
  0
LINE
  8
0
 62
7
 10
2.651118875304034
 20
4.445000000000002
 30
0
 11
2.214864065271493
 21
4.445000000000002
 31
0
  0
LINE
  8
0
 62
7
 10
2.533056372389394
 20
3.535000000000002
 30
0
 11
2.711765009625451
 21
3.535000000000002
 31
0
  0
LINE
  8
0
 62
7
 10
2.711765009625451
 20
3.535000000000002
 30
0
 11
2.651118875304034
 21
4.445000000000002
 31
0
  0
LINE
  8
0
 62
7
 10
2.310207307101813
 20
4.445000000000002
 30
0
 11
1.859054434423644
 21
4.445000000000002
 31
0
  0
LINE
  8
0
 62
7
 10
2.484933977086024
 20
3.535000000000002
 30
0
 11
2.628399614219703
 21
3.535000000000002
 31
0
  0
LINE
  8
0
 62
7
 10
2.628399614219703
 20
3.535000000000002
 30
0
 11
2.310207307101813
 21
4.445000000000002
 31
0
  0
LINE
  8
0
 62
7
 10
1.965929863030413
 20
4.445000000000002
 30
0
 11
1.377968386230583
 21
4.445000000000002
 31
0
  0
LINE
  8
0
 62
7
 10
2.484933977086024
 20
3.535000000000002
 30
0
 11
2.548733223378453
 21
3.535000000000002
 31
0
  0
LINE
  8
0
 62
7
 10
2.548733223378453
 20
3.535000000000002
 30
0
 11
1.965929863030413
 21
4.445000000000002
 31
0
  0
LINE
  8
0
 62
7
 10
1.509875846911062
 20
4.445000000000002
 30
0
 11
1.330000000000004
 21
4.445000000000002
 31
0
  0
LINE
  8
0
 62
7
 10
1.330000000000004
 20
4.445000000000002
 30
0
 11
1.330000000000004
 21
3.964946601653132
 31
0
  0
LINE
  8
0
 62
7
 10
2.484933977086024
 20
3.535000000000002
 30
0
 11
1.509875846911062
 21
4.445000000000002
 31
0
  0
LINE
  8
0
 62
7
 10
1.330000000000004
 20
4.063744343463801
 30
0
 11
1.330000000000004
 21
3.626829539396963
 31
0
  0
LINE
  8
0
 62
7
 10
2.328223818850014
 20
3.611712090802252
 30
0
 11
1.330000000000004
 21
4.063744343463801
 31
0
  0
LINE
  8
0
 62
7
 10
1.330000000000004
 20
3.719028478693232
 30
0
 11
1.330000000000004
 21
3.390000000000002
 31
0
  0
LINE
  8
0
 62
7
 10
2.240000000000004
 20
3.466772959834376
 30
0
 11
2.240000000000004
 21
3.516643430163792
 31
0
  0
LINE
  8
0
 62
7
 10
2.240000000000004
 20
3.516643430163792
 30
0
 11
1.330000000000004
 21
3.719028478693232
 31
0
  0
LINE
  8
0
 62
7
 10
1.721889058059442
 20
3.400000000000002
 30
0
 11
1.721889058059442
 21
3.534999999990141
 31
0
  0
LINE
  8
0
 62
7
 10
1.721889058059442
 20
3.400000000000002
 30
0
 11
1.616233958797744
 21
3.461000000000002
 31
0
  0
LINE
  8
0
 62
7
 10
1.616233958797744
 20
3.461000000000002
 30
0
 11
1.827544157321143
 21
3.461000000000002
 31
0
  0
LINE
  8
0
 62
7
 10
1.827544157321143
 20
3.461000000000002
 30
0
 11
1.721889058059442
 21
3.400000000000002
 31
0
  0
LINE
  8
0
 62
7
 10
2.240000000013084
 20
4.053110941940562
 30
0
 11
3.194999999990142
 21
4.053110941940562
 31
0
  0
LINE
  8
0
 62
7
 10
3.713110941940564
 20
3.534999999977522
 30
0
 11
3.713110941940564
 21
3.250000000000002
 31
0
  0
LINE
  8
0
 62
7
 10
3.194999920000004
 20
8.596800069999999
 30
0
 11
4.105000070000002
 21
8.596800069999999
 31
0
  0
LINE
  8
0
 62
7
 10
4.105000070000002
 20
8.596800069999999
 30
0
 11
4.105000070000002
 21
8.531800069999997
 31
0
  0
LINE
  8
0
 62
7
 10
3.194999920000004
 20
8.531800069999997
 30
0
 11
3.194999920000004
 21
8.596800069999999
 31
0
  0
LINE
  8
0
 62
7
 10
4.105000070000002
 20
8.531800069999997
 30
0
 11
3.194999920000004
 21
8.531800069999997
 31
0
  0
LINE
  8
0
 62
7
 10
3.094949800000002
 20
8.793200059999995
 30
0
 11
4.105000150000005
 21
8.793200059999995
 31
0
  0
LINE
  8
0
 62
7
 10
4.105000150000005
 20
8.728200059999997
 30
0
 11
3.094949800000002
 21
8.728200059999997
 31
0
  0
LINE
  8
0
 62
7
 10
4.105000150000005
 20
8.793200059999995
 30
0
 11
4.105000150000005
 21
8.728200059999997
 31
0
  0
LINE
  8
0
 62
7
 10
3.094949800000002
 20
8.728200059999997
 30
0
 11
3.094949800000002
 21
8.793200059999995
 31
0
  0
LINE
  8
0
 62
7
 10
2.917236250000005
 20
8.989600059999997
 30
0
 11
4.104999980000005
 21
8.989600059999997
 31
0
  0
LINE
  8
0
 62
7
 10
4.104999980000005
 20
8.924600059999998
 30
0
 11
2.917236250000005
 21
8.924600059999998
 31
0
  0
LINE
  8
0
 62
7
 10
4.104999980000005
 20
8.989600059999997
 30
0
 11
4.104999980000005
 21
8.924600059999998
 31
0
  0
LINE
  8
0
 62
7
 10
2.917236250000005
 20
8.924600059999998
 30
0
 11
2.917236250000005
 21
8.989600059999997
 31
0
  0
LINE
  8
0
 62
7
 10
4.105000020000004
 20
9.121000049999996
 30
0
 11
2.867138520000004
 21
9.121000049999996
 31
0
  0
LINE
  8
0
 62
7
 10
2.867138520000004
 20
9.186000049999995
 30
0
 11
4.105000020000004
 21
9.186000049999995
 31
0
  0
LINE
  8
0
 62
7
 10
4.105000020000004
 20
9.186000049999995
 30
0
 11
4.105000020000004
 21
9.121000049999996
 31
0
  0
LINE
  8
0
 62
7
 10
2.867138520000004
 20
9.121000049999996
 30
0
 11
2.867138520000004
 21
9.186000049999995
 31
0
  0
LINE
  8
0
 62
7
 10
3.695495610000004
 20
9.317400049999996
 30
0
 11
2.790093840000004
 21
9.317400049999996
 31
0
  0
LINE
  8
0
 62
7
 10
2.790093840000004
 20
9.382400049999998
 30
0
 11
3.695495610000004
 21
9.382400049999998
 31
0
  0
LINE
  8
0
 62
7
 10
3.695495610000004
 20
9.382400049999998
 30
0
 11
3.695495610000004
 21
9.317400049999996
 31
0
  0
LINE
  8
0
 62
7
 10
2.790093840000004
 20
9.317400049999996
 30
0
 11
2.790093840000004
 21
9.382400049999998
 31
0
  0
LINE
  8
0
 62
7
 10
3.324370120000003
 20
9.513800039999996
 30
0
 11
2.707125250000003
 21
9.513800039999996
 31
0
  0
LINE
  8
0
 62
7
 10
2.707125250000003
 20
9.578800039999997
 30
0
 11
3.324370120000003
 21
9.578800039999997
 31
0
  0
LINE
  8
0
 62
7
 10
3.324370120000003
 20
9.578800039999997
 30
0
 11
3.324370120000003
 21
9.513800039999996
 31
0
  0
LINE
  8
0
 62
7
 10
2.707125250000003
 20
9.513800039999996
 30
0
 11
2.707125250000003
 21
9.578800039999997
 31
0
  0
LINE
  8
0
 62
7
 10
2.989052740000003
 20
9.710200029999998
 30
0
 11
2.560919190000002
 21
9.710200029999998
 31
0
  0
LINE
  8
0
 62
7
 10
2.560919190000002
 20
9.775200029999997
 30
0
 11
2.989052740000003
 21
9.775200029999997
 31
0
  0
LINE
  8
0
 62
7
 10
2.989052740000003
 20
9.775200029999997
 30
0
 11
2.989052740000003
 21
9.710200029999998
 31
0
  0
LINE
  8
0
 62
7
 10
2.560919190000002
 20
9.710200029999998
 30
0
 11
2.560919190000002
 21
9.775200029999997
 31
0
  0
LINE
  8
0
 62
7
 10
2.711765140000003
 20
9.90660003
 30
0
 11
2.214863280000003
 21
9.90660003
 31
0
  0
LINE
  8
0
 62
7
 10
2.214863280000003
 20
9.971600029999998
 30
0
 11
2.711765140000003
 21
9.971600029999998
 31
0
  0
LINE
  8
0
 62
7
 10
2.711765140000003
 20
9.971600029999998
 30
0
 11
2.711765140000003
 21
9.90660003
 31
0
  0
LINE
  8
0
 62
7
 10
2.214863280000003
 20
9.90660003
 30
0
 11
2.214863280000003
 21
9.971600029999998
 31
0
  0
LINE
  8
0
 62
7
 10
2.628399810000005
 20
10.10300002
 30
0
 11
1.859053960000001
 21
10.10300002
 31
0
  0
LINE
  8
0
 62
7
 10
1.859053960000001
 20
10.16800002
 30
0
 11
2.628399810000005
 21
10.16800002
 31
0
  0
LINE
  8
0
 62
7
 10
2.628399810000005
 20
10.16800002
 30
0
 11
2.628399810000005
 21
10.10300002
 31
0
  0
LINE
  8
0
 62
7
 10
1.859053960000001
 20
10.10300002
 30
0
 11
1.859053960000001
 21
10.16800002
 31
0
  0
LINE
  8
0
 62
7
 10
2.548732760000004
 20
10.29940002
 30
0
 11
1.377968750000004
 21
10.29940002
 31
0
  0
LINE
  8
0
 62
7
 10
1.377968750000004
 20
10.36440002
 30
0
 11
2.548732760000004
 21
10.36440002
 31
0
  0
LINE
  8
0
 62
7
 10
2.548732760000004
 20
10.36440002
 30
0
 11
2.548732760000004
 21
10.29940002
 31
0
  0
LINE
  8
0
 62
7
 10
1.377968750000004
 20
10.29940002
 30
0
 11
1.377968750000004
 21
10.36440002
 31
0
  0
LINE
  8
0
 62
7
 10
2.484934080000003
 20
10.49580001
 30
0
 11
1.330000000000004
 21
10.49580001
 31
0
  0
LINE
  8
0
 62
7
 10
1.330000000000004
 20
10.56080001
 30
0
 11
2.484934080000003
 21
10.56080001
 31
0
  0
LINE
  8
0
 62
7
 10
2.484934080000003
 20
10.56080001
 30
0
 11
2.484934080000003
 21
10.49580001
 31
0
  0
LINE
  8
0
 62
7
 10
1.330000000000004
 20
10.49580001
 30
0
 11
1.330000000000004
 21
10.56080001
 31
0
  0
LINE
  8
0
 62
7
 10
1.330000000000004
 20
10.7572
 30
0
 11
2.328223880000003
 21
10.7572
 31
0
  0
LINE
  8
0
 62
7
 10
2.328223880000003
 20
10.6922
 30
0
 11
1.330000000000004
 21
10.6922
 31
0
  0
LINE
  8
0
 62
7
 10
2.328223880000003
 20
10.7572
 30
0
 11
2.328223880000003
 21
10.6922
 31
0
  0
LINE
  8
0
 62
7
 10
1.330000000000004
 20
10.6922
 30
0
 11
1.330000000000004
 21
10.7572
 31
0
  0
LINE
  8
0
 62
7
  6
DASHED
 10
1.330000000000004
 20
10.95359999999999
 30
0
 11
2.240000000000004
 21
10.95359999999999
 31
0
  0
LINE
  8
0
 62
7
  6
DASHED
 10
2.240000000000004
 20
10.95359999999999
 30
0
 11
2.240000000000004
 21
10.88859999999999
 31
0
  0
LINE
  8
0
 62
7
  6
DASHED
 10
1.330000000000004
 20
10.88859999999999
 30
0
 11
1.330000000000004
 21
10.95359999999999
 31
0
  0
LINE
  8
0
 62
7
  6
DASHED
 10
2.240000000000004
 20
10.88859999999999
 30
0
 11
1.330000000000004
 21
10.88859999999999
 31
0
  0
LINE
  8
0
 62
7
 10
6.709999790000015
 20
8.596800069999999
 30
0
 11
7.065101130000014
 21
8.596800069999999
 31
0
  0
LINE
  8
0
 62
7
 10
7.065101130000014
 20
8.531800069999997
 30
0
 11
6.709999790000015
 21
8.531800069999997
 31
0
  0
LINE
  8
0
 62
7
 10
6.709999790000015
 20
8.531800069999997
 30
0
 11
6.709999790000015
 21
8.596800069999999
 31
0
  0
LINE
  8
0
 62
7
 10
7.065101130000014
 20
8.596800069999999
 30
0
 11
7.065101130000014
 21
8.531800069999997
 31
0
  0
LINE
  8
0
 62
7
 10
7.393643190000013
 20
8.728200059999997
 30
0
 11
6.895788040000013
 21
8.728200059999997
 31
0
  0
LINE
  8
0
 62
7
 10
6.895788040000013
 20
8.793200059999995
 30
0
 11
7.393643190000013
 21
8.793200059999995
 31
0
  0
LINE
  8
0
 62
7
 10
6.895788040000013
 20
8.728200059999997
 30
0
 11
6.895788040000013
 21
8.793200059999995
 31
0
  0
LINE
  8
0
 62
7
 10
7.393643190000013
 20
8.793200059999995
 30
0
 11
7.393643190000013
 21
8.728200059999997
 31
0
  0
LINE
  8
0
 62
7
 10
6.994999690000014
 20
8.989600059999997
 30
0
 11
7.880801540000012
 21
8.989600059999997
 31
0
  0
LINE
  8
0
 62
7
 10
7.880801540000012
 20
8.924600059999998
 30
0
 11
6.994999690000014
 21
8.924600059999998
 31
0
  0
LINE
  8
0
 62
7
 10
6.994999690000014
 20
8.924600059999998
 30
0
 11
6.994999690000014
 21
8.989600059999997
 31
0
  0
LINE
  8
0
 62
7
 10
7.880801540000012
 20
8.989600059999997
 30
0
 11
7.880801540000012
 21
8.924600059999998
 31
0
  0
LINE
  8
0
 62
7
 10
6.994999730000014
 20
9.186000049999995
 30
0
 11
7.904999850000014
 21
9.186000049999995
 31
0
  0
LINE
  8
0
 62
7
 10
7.904999850000014
 20
9.121000049999996
 30
0
 11
6.994999730000014
 21
9.121000049999996
 31
0
  0
LINE
  8
0
 62
7
 10
6.994999730000014
 20
9.121000049999996
 30
0
 11
6.994999730000014
 21
9.186000049999995
 31
0
  0
LINE
  8
0
 62
7
 10
7.904999850000014
 20
9.186000049999995
 30
0
 11
7.904999850000014
 21
9.121000049999996
 31
0
  0
LINE
  8
0
 62
7
 10
6.994999920000014
 20
9.382400049999998
 30
0
 11
7.904999850000014
 21
9.382400049999998
 31
0
  0
LINE
  8
0
 62
7
 10
6.994999920000014
 20
9.317400049999996
 30
0
 11
6.994999920000014
 21
9.382400049999998
 31
0
  0
LINE
  8
0
 62
7
 10
7.904999850000014
 20
9.382400049999998
 30
0
 11
7.904999850000014
 21
9.317400049999996
 31
0
  0
LINE
  8
0
 62
7
 10
7.904999850000014
 20
9.317400049999996
 30
0
 11
6.994999920000014
 21
9.317400049999996
 31
0
  0
LINE
  8
0
 62
7
 10
6.994999850000015
 20
9.578800039999997
 30
0
 11
7.904999850000014
 21
9.578800039999997
 31
0
  0
LINE
  8
0
 62
7
 10
6.994999850000015
 20
9.513800039999998
 30
0
 11
6.994999850000015
 21
9.578800039999997
 31
0
  0
LINE
  8
0
 62
7
 10
7.904999850000014
 20
9.578800039999997
 30
0
 11
7.904999850000014
 21
9.513800039999998
 31
0
  0
LINE
  8
0
 62
7
 10
7.904999850000014
 20
9.513800039999998
 30
0
 11
6.994999850000015
 21
9.513800039999998
 31
0
  0
LINE
  8
0
 62
7
 10
6.994999730000014
 20
9.775200029999997
 30
0
 11
7.905000000000012
 21
9.775200029999997
 31
0
  0
LINE
  8
0
 62
7
 10
6.994999730000014
 20
9.710200029999998
 30
0
 11
6.994999730000014
 21
9.775200029999997
 31
0
  0
LINE
  8
0
 62
7
 10
7.905000000000012
 20
9.775200029999997
 30
0
 11
7.905000000000012
 21
9.710200029999998
 31
0
  0
LINE
  8
0
 62
7
 10
7.905000000000012
 20
9.710200029999998
 30
0
 11
6.994999730000014
 21
9.710200029999998
 31
0
  0
LINE
  8
0
 62
7
 10
6.994999850000015
 20
9.971600029999998
 30
0
 11
7.904999850000014
 21
9.971600029999998
 31
0
  0
LINE
  8
0
 62
7
 10
6.994999850000015
 20
9.90660003
 30
0
 11
6.994999850000015
 21
9.971600029999998
 31
0
  0
LINE
  8
0
 62
7
 10
7.904999850000014
 20
9.971600029999998
 30
0
 11
7.904999850000014
 21
9.90660003
 31
0
  0
LINE
  8
0
 62
7
 10
7.904999850000014
 20
9.90660003
 30
0
 11
6.994999850000015
 21
9.90660003
 31
0
  0
LINE
  8
0
 62
7
 10
6.994999660000012
 20
10.16800002
 30
0
 11
7.904999850000014
 21
10.16800002
 31
0
  0
LINE
  8
0
 62
7
 10
6.994999660000012
 20
10.10300002
 30
0
 11
6.994999660000012
 21
10.16800002
 31
0
  0
LINE
  8
0
 62
7
 10
7.904999850000014
 20
10.16800002
 30
0
 11
7.904999850000014
 21
10.10300002
 31
0
  0
LINE
  8
0
 62
7
 10
7.904999850000014
 20
10.10300002
 30
0
 11
6.994999660000012
 21
10.10300002
 31
0
  0
LINE
  8
0
 62
7
 10
6.994999620000013
 20
10.36440002
 30
0
 11
7.904999850000014
 21
10.36440002
 31
0
  0
LINE
  8
0
 62
7
 10
6.994999620000013
 20
10.29940002
 30
0
 11
6.994999620000013
 21
10.36440002
 31
0
  0
LINE
  8
0
 62
7
 10
7.904999850000014
 20
10.36440002
 30
0
 11
7.904999850000014
 21
10.29940002
 31
0
  0
LINE
  8
0
 62
7
 10
7.904999850000014
 20
10.29940002
 30
0
 11
6.994999620000013
 21
10.29940002
 31
0
  0
LINE
  8
0
 62
7
 10
6.994999660000012
 20
10.56080001
 30
0
 11
7.904999690000013
 21
10.56080001
 31
0
  0
LINE
  8
0
 62
7
 10
7.904999690000013
 20
10.49580001
 30
0
 11
6.994999660000012
 21
10.49580001
 31
0
  0
LINE
  8
0
 62
7
 10
6.994999660000012
 20
10.49580001
 30
0
 11
6.994999660000012
 21
10.56080001
 31
0
  0
LINE
  8
0
 62
7
 10
7.904999690000013
 20
10.56080001
 30
0
 11
7.904999690000013
 21
10.49580001
 31
0
  0
LINE
  8
0
 62
7
 10
7.523744130000015
 20
10.6922
 30
0
 11
6.889491540000015
 21
10.6922
 31
0
  0
LINE
  8
0
 62
7
 10
6.889491540000015
 20
10.7572
 30
0
 11
7.523744130000015
 21
10.7572
 31
0
  0
LINE
  8
0
 62
7
 10
6.889491540000015
 20
10.6922
 30
0
 11
6.889491540000015
 21
10.7572
 31
0
  0
LINE
  8
0
 62
7
 10
7.523744130000015
 20
10.7572
 30
0
 11
7.523744130000015
 21
10.6922
 31
0
  0
LINE
  8
0
 62
7
 10
6.849999870000016
 20
10.9536
 30
0
 11
7.179028780000016
 21
10.9536
 31
0
  0
LINE
  8
0
 62
7
 10
7.179028780000016
 20
10.8886
 30
0
 11
6.849999870000016
 21
10.8886
 31
0
  0
LINE
  8
0
 62
7
 10
6.849999870000016
 20
10.8886
 30
0
 11
6.849999870000016
 21
10.9536
 31
0
  0
LINE
  8
0
 62
7
 10
7.179028780000016
 20
10.9536
 30
0
 11
7.179028780000016
 21
10.8886
 31
0
  0
LINE
  8
0
 62
7
 10
0.9500000000000037
 20
8.1
 30
0
 11
1.100000000000004
 21
8.1
 31
0
  0
LINE
  8
0
 62
7
 10
0.9500000000000037
 20
8.300000000000001
 30
0
 11
1.100000000000004
 21
8.300000000000001
 31
0
  0
LINE
  8
0
 62
7
 10
0.9500000000000037
 20
10.85
 30
0
 11
1.100000000000004
 21
10.85
 31
0
  0
LINE
  8
0
 62
7
 10
0.9500000000000037
 20
11.05
 30
0
 11
1.100000000000004
 21
11.05
 31
0
  0
LINE
  8
0
 62
7
 10
1.100000000000004
 20
7.95
 30
0
 11
1.100000000000004
 21
8.1
 31
0
  0
LINE
  8
0
 62
7
 10
1.100000000000004
 20
8.1
 30
0
 11
1.275000000000004
 21
8.1
 31
0
  0
LINE
  8
0
 62
7
 10
1.100000000000004
 20
8.300000000000001
 30
0
 11
1.100000000000004
 21
8.4
 31
0
  0
LINE
  8
0
 62
7
 10
1.100000000000004
 20
8.300000000000001
 30
0
 11
1.275000000000004
 21
8.300000000000001
 31
0
  0
LINE
  8
0
 62
7
 10
1.100000000000004
 20
10.85
 30
0
 11
1.275000000000004
 21
10.85
 31
0
  0
LINE
  8
0
 62
7
 10
1.100000000000004
 20
11.05
 30
0
 11
1.100000000000004
 21
11.15
 31
0
  0
LINE
  8
0
 62
7
 10
1.100000000000004
 20
11.05
 30
0
 11
1.275000000000004
 21
11.05
 31
0
  0
LINE
  8
0
 62
7
 10
1.275000000000004
 20
7.95
 30
0
 11
1.275000000000004
 21
8.1
 31
0
  0
LINE
  8
0
 62
7
 10
1.275000000000004
 20
8.1
 30
0
 11
4.160000000000004
 21
8.1
 31
0
  0
LINE
  8
0
 62
7
 10
1.275000000000004
 20
8.300000000000001
 30
0
 11
1.275000000000004
 21
8.4
 31
0
  0
LINE
  8
0
 62
7
 10
1.275000000000004
 20
8.300000000000001
 30
0
 11
4.160000000000004
 21
8.300000000000001
 31
0
  0
LINE
  8
0
 62
7
 10
1.275000000000004
 20
10.85
 30
0
 11
4.160000000000004
 21
10.85
 31
0
  0
LINE
  8
0
 62
7
 10
1.275000000000004
 20
11.05
 30
0
 11
1.275000000000004
 21
11.15
 31
0
  0
LINE
  8
0
 62
7
 10
1.275000000000004
 20
11.05
 30
0
 11
4.160000000000004
 21
11.05
 31
0
  0
LINE
  8
0
 62
7
 10
4.160000000000004
 20
7.95
 30
0
 11
4.160000000000004
 21
8.1
 31
0
  0
LINE
  8
0
 62
7
 10
4.160000000000004
 20
8.1
 30
0
 11
4.335000000000004
 21
8.1
 31
0
  0
LINE
  8
0
 62
7
 10
4.160000000000004
 20
8.300000000000001
 30
0
 11
4.160000000000004
 21
8.4
 31
0
  0
LINE
  8
0
 62
7
 10
4.160000000000004
 20
8.300000000000001
 30
0
 11
4.335000000000004
 21
8.300000000000001
 31
0
  0
LINE
  8
0
 62
7
 10
4.160000000000004
 20
10.85
 30
0
 11
4.335000000000004
 21
10.85
 31
0
  0
LINE
  8
0
 62
7
 10
4.160000000000004
 20
11.05
 30
0
 11
4.160000000000004
 21
11.15
 31
0
  0
LINE
  8
0
 62
7
 10
4.160000000000004
 20
11.05
 30
0
 11
4.335000000000004
 21
11.05
 31
0
  0
LINE
  8
0
 62
7
 10
4.335000000000004
 20
7.95
 30
0
 11
4.335000000000004
 21
8.1
 31
0
  0
LINE
  8
0
 62
7
 10
4.335000000000004
 20
8.1
 30
0
 11
4.485000000000004
 21
8.1
 31
0
  0
LINE
  8
0
 62
7
 10
4.335000000000004
 20
8.300000000000001
 30
0
 11
4.335000000000004
 21
8.4
 31
0
  0
LINE
  8
0
 62
7
 10
4.335000000000004
 20
8.300000000000001
 30
0
 11
4.485000000000004
 21
8.300000000000001
 31
0
  0
LINE
  8
0
 62
7
 10
4.335000000000004
 20
10.85
 30
0
 11
4.485000000000004
 21
10.85
 31
0
  0
LINE
  8
0
 62
7
 10
4.335000000000004
 20
11.05
 30
0
 11
4.335000000000004
 21
11.15
 31
0
  0
LINE
  8
0
 62
7
 10
4.335000000000004
 20
11.05
 30
0
 11
4.485000000000004
 21
11.05
 31
0
  0
LINE
  8
0
 62
7
  6
DASHDOT
 10
0.9500000000000037
 20
8.050000000000001
 30
0
 11
0.9500000000000037
 21
8.1
 31
0
  0
LINE
  8
0
 62
7
  6
DASHDOT
 10
0.9500000000000037
 20
10.8
 30
0
 11
0.9500000000000037
 21
10.85
 31
0
  0
LINE
  8
0
 62
7
  6
DASHDOT
 10
4.485000000000004
 20
8.050000000000001
 30
0
 11
4.485000000000004
 21
8.1
 31
0
  0
LINE
  8
0
 62
7
  6
DASHDOT
 10
4.485000000000004
 20
10.8
 30
0
 11
4.485000000000004
 21
10.85
 31
0
  0
LINE
  8
0
 62
7
  6
DASHDOT
 10
1.050000000000004
 20
11.2
 30
0
 11
1.100000000000004
 21
11.2
 31
0
  0
LINE
  8
0
 62
7
  6
DASHDOT
 10
1.050000000000004
 20
7.95
 30
0
 11
1.100000000000004
 21
7.95
 31
0
  0
LINE
  8
0
 62
7
  6
DASHDOT
 10
4.110000000000004
 20
11.2
 30
0
 11
4.160000000000004
 21
11.2
 31
0
  0
LINE
  8
0
 62
7
  6
DASHDOT
 10
4.110000000000004
 20
7.95
 30
0
 11
4.160000000000004
 21
7.95
 31
0
  0
LINE
  8
0
 62
7
 10
0.9500000000000037
 20
8.4
 30
0
 11
1.100000000000004
 21
8.4
 31
0
  0
LINE
  8
0
 62
7
 10
1.100000000000004
 20
8.4
 30
0
 11
1.100000000000004
 21
10.85
 31
0
  0
LINE
  8
0
 62
7
  6
DASHDOT
 10
0.9500000000000037
 20
8.4
 30
0
 11
0.9500000000000037
 21
8.450000000000001
 31
0
  0
LINE
  8
0
 62
7
 10
1.275000000000004
 20
8.4
 30
0
 11
4.160000000000004
 21
8.4
 31
0
  0
LINE
  8
0
 62
7
 10
1.275000000000004
 20
8.4
 30
0
 11
1.275000000000004
 21
10.85
 31
0
  0
LINE
  8
0
 62
7
 10
4.160000000000004
 20
8.4
 30
0
 11
4.160000000000004
 21
10.85
 31
0
  0
LINE
  8
0
 62
7
 10
4.335000000000004
 20
8.4
 30
0
 11
4.485000000000004
 21
8.4
 31
0
  0
LINE
  8
0
 62
7
 10
4.335000000000004
 20
8.4
 30
0
 11
4.335000000000004
 21
10.85
 31
0
  0
LINE
  8
0
 62
7
  6
DASHDOT
 10
4.485000000000004
 20
8.4
 30
0
 11
4.485000000000004
 21
8.450000000000001
 31
0
  0
LINE
  8
0
 62
7
 10
0.9500000000000037
 20
11.15
 30
0
 11
1.100000000000004
 21
11.15
 31
0
  0
LINE
  8
0
 62
7
 10
1.100000000000004
 20
11.15
 30
0
 11
1.100000000000004
 21
11.2
 31
0
  0
LINE
  8
0
 62
7
  6
DASHDOT
 10
0.9500000000000037
 20
11.15
 30
0
 11
0.9500000000000037
 21
11.2
 31
0
  0
LINE
  8
0
 62
7
 10
1.275000000000004
 20
11.15
 30
0
 11
4.160000000000004
 21
11.15
 31
0
  0
LINE
  8
0
 62
7
 10
1.275000000000004
 20
11.15
 30
0
 11
1.275000000000004
 21
11.2
 31
0
  0
LINE
  8
0
 62
7
 10
4.160000000000004
 20
11.15
 30
0
 11
4.160000000000004
 21
11.2
 31
0
  0
LINE
  8
0
 62
7
 10
4.335000000000004
 20
11.15
 30
0
 11
4.485000000000004
 21
11.15
 31
0
  0
LINE
  8
0
 62
7
 10
4.335000000000004
 20
11.15
 30
0
 11
4.335000000000004
 21
11.2
 31
0
  0
LINE
  8
0
 62
7
  6
DASHDOT
 10
4.485000000000004
 20
11.15
 30
0
 11
4.485000000000004
 21
11.2
 31
0
  0
LINE
  8
0
 62
7
  6
DASHDOT
 10
4.485000000000004
 20
8.1
 30
0
 11
4.485000000000004
 21
8.300000000000001
 31
0
  0
LINE
  8
0
 62
7
  6
DASHDOT
 10
4.485000000000004
 20
8.300000000000001
 30
0
 11
4.485000000000004
 21
8.4
 31
0
  0
LINE
  8
0
 62
7
  6
DASHDOT
 10
4.160000000000004
 20
7.95
 30
0
 11
4.335000000000004
 21
7.95
 31
0
  0
LINE
  8
0
 62
7
  6
DASHDOT
 10
4.335000000000004
 20
7.95
 30
0
 11
4.385000000000004
 21
7.95
 31
0
  0
LINE
  8
0
 62
7
  6
DASHDOT
 10
0.9500000000000037
 20
8.1
 30
0
 11
0.9500000000000037
 21
8.300000000000001
 31
0
  0
LINE
  8
0
 62
7
  6
DASHDOT
 10
0.9500000000000037
 20
8.300000000000001
 30
0
 11
0.9500000000000037
 21
8.4
 31
0
  0
LINE
  8
0
 62
7
  6
DASHDOT
 10
1.100000000000004
 20
7.95
 30
0
 11
1.275000000000004
 21
7.95
 31
0
  0
LINE
  8
0
 62
7
  6
DASHDOT
 10
1.275000000000004
 20
7.95
 30
0
 11
1.325000000000004
 21
7.95
 31
0
  0
LINE
  8
0
 62
7
  6
DASHDOT
 10
0.9500000000000037
 20
10.85
 30
0
 11
0.9500000000000037
 21
11.05
 31
0
  0
LINE
  8
0
 62
7
  6
DASHDOT
 10
0.9500000000000037
 20
11.05
 30
0
 11
0.9500000000000037
 21
11.15
 31
0
  0
LINE
  8
0
 62
7
  6
DASHDOT
 10
1.100000000000004
 20
11.2
 30
0
 11
1.275000000000004
 21
11.2
 31
0
  0
LINE
  8
0
 62
7
  6
DASHDOT
 10
1.275000000000004
 20
11.2
 30
0
 11
1.325000000000004
 21
11.2
 31
0
  0
LINE
  8
0
 62
7
  6
DASHDOT
 10
4.485000000000004
 20
10.85
 30
0
 11
4.485000000000004
 21
11.05
 31
0
  0
LINE
  8
0
 62
7
  6
DASHDOT
 10
4.485000000000004
 20
11.05
 30
0
 11
4.485000000000004
 21
11.15
 31
0
  0
LINE
  8
0
 62
7
  6
DASHDOT
 10
4.160000000000004
 20
11.2
 30
0
 11
4.335000000000004
 21
11.2
 31
0
  0
LINE
  8
0
 62
7
  6
DASHDOT
 10
4.335000000000004
 20
11.2
 30
0
 11
4.385000000000004
 21
11.2
 31
0
  0
LINE
  8
0
 62
7
 10
8.200000000000012
 20
8.1
 30
0
 11
8.200000000000012
 21
7.95
 31
0
  0
LINE
  8
0
 62
7
 10
7.960000000000012
 20
11.05
 30
0
 11
7.960000000000012
 21
11.2
 31
0
  0
LINE
  8
0
 62
7
 10
7.960000000000012
 20
11.05
 30
0
 11
8.200000000000012
 21
11.05
 31
0
  0
LINE
  8
0
 62
7
 10
8.200000000000012
 20
11.2
 30
0
 11
8.200000000000012
 21
11.05
 31
0
  0
LINE
  8
0
 62
7
 10
7.960000000000012
 20
10.85
 30
0
 11
7.960000000000012
 21
11.05
 31
0
  0
LINE
  8
0
 62
7
 10
7.960000000000012
 20
10.85
 30
0
 11
8.200000000000012
 21
10.85
 31
0
  0
LINE
  8
0
 62
7
 10
8.200000000000012
 20
11.05
 30
0
 11
8.200000000000012
 21
10.85
 31
0
  0
LINE
  8
0
 62
7
 10
7.960000000000012
 20
8.300000000000001
 30
0
 11
7.960000000000012
 21
10.85
 31
0
  0
LINE
  8
0
 62
7
 10
7.960000000000012
 20
8.300000000000001
 30
0
 11
8.200000000000012
 21
8.300000000000001
 31
0
  0
LINE
  8
0
 62
7
 10
8.200000000000012
 20
10.85
 30
0
 11
8.200000000000012
 21
8.300000000000001
 31
0
  0
LINE
  8
0
 62
7
 10
7.960000000000012
 20
8.1
 30
0
 11
7.960000000000012
 21
8.300000000000001
 31
0
  0
LINE
  8
0
 62
7
 10
7.960000000000012
 20
8.1
 30
0
 11
8.200000000000012
 21
8.1
 31
0
  0
LINE
  8
0
 62
7
 10
8.200000000000012
 20
8.300000000000001
 30
0
 11
8.200000000000012
 21
8.1
 31
0
  0
LINE
  8
0
 62
7
 10
7.960000000000012
 20
7.95
 30
0
 11
7.960000000000012
 21
8.1
 31
0
  0
LINE
  8
0
 62
7
 10
6.810000000000014
 20
10.85
 30
0
 11
6.810000000000014
 21
11.05
 31
0
  0
LINE
  8
0
 62
7
 10
6.510000000000014
 20
10.85
 30
0
 11
6.810000000000014
 21
10.85
 31
0
  0
LINE
  8
0
 62
7
 10
6.510000000000014
 20
11.05
 30
0
 11
6.810000000000014
 21
11.05
 31
0
  0
LINE
  8
0
 62
7
 10
6.510000000000014
 20
8.300000000000001
 30
0
 11
6.810000000000014
 21
8.300000000000001
 31
0
  0
LINE
  8
0
 62
7
 10
6.810000000000014
 20
8.1
 30
0
 11
6.810000000000014
 21
8.300000000000001
 31
0
  0
LINE
  8
0
 62
7
 10
6.510000000000014
 20
8.1
 30
0
 11
6.810000000000014
 21
8.1
 31
0
  0
LINE
  8
0
 62
7
  6
DASHDOT
 10
8.200000000000012
 20
11.2
 30
0
 11
8.250000000000012
 21
11.2
 31
0
  0
LINE
  8
0
 62
7
  6
DASHDOT
 10
6.510000000000014
 20
11.15
 30
0
 11
6.510000000000014
 21
11.2
 31
0
  0
LINE
  8
0
 62
7
  6
DASHDOT
 10
6.510000000000014
 20
8.1
 30
0
 11
6.510000000000014
 21
8.050000000000001
 31
0
  0
LINE
  8
0
 62
7
  6
DASHDOT
 10
8.200000000000012
 20
7.95
 30
0
 11
8.250000000000012
 21
7.95
 31
0
  0
LINE
  8
0
 62
7
 10
6.510000000000014
 20
8.4
 30
0
 11
6.810000000000014
 21
8.4
 31
0
  0
LINE
  8
0
 62
7
  6
DASHDOT
 10
6.510000000000014
 20
8.450000000000001
 30
0
 11
6.510000000000014
 21
8.4
 31
0
  0
LINE
  8
0
 62
7
 10
6.510000000000014
 20
11.15
 30
0
 11
6.810000000000014
 21
11.15
 31
0
  0
LINE
  8
0
 62
7
  6
DASHDOT
 10
6.510000000000014
 20
11.05
 30
0
 11
6.510000000000014
 21
11.15
 31
0
  0
LINE
  8
0
 62
7
  6
DASHDOT
 10
6.510000000000014
 20
8.4
 30
0
 11
6.510000000000014
 21
8.300000000000001
 31
0
  0
LINE
  8
0
 62
7
  6
DASHDOT
 10
6.510000000000014
 20
8.300000000000001
 30
0
 11
6.510000000000014
 21
8.1
 31
0
  0
LINE
  8
0
 62
7
  6
DASHDOT
 10
7.960000000000012
 20
7.95
 30
0
 11
8.200000000000012
 21
7.95
 31
0
  0
LINE
  8
0
 62
7
  6
DASHDOT
 10
7.910000000000011
 20
7.95
 30
0
 11
7.960000000000012
 21
7.95
 31
0
  0
LINE
  8
0
 62
7
  6
DASHDOT
 10
7.910000000000011
 20
11.2
 30
0
 11
7.960000000000012
 21
11.2
 31
0
  0
LINE
  8
0
 62
7
  6
DASHDOT
 10
7.960000000000012
 20
11.2
 30
0
 11
8.200000000000012
 21
11.2
 31
0
  0
LINE
  8
0
 62
7
  6
DASHDOT
 10
6.510000000000014
 20
10.8
 30
0
 11
6.510000000000014
 21
10.85
 31
0
  0
LINE
  8
0
 62
7
  6
DASHDOT
 10
6.510000000000014
 20
10.85
 30
0
 11
6.510000000000014
 21
11.05
 31
0
  0
LINE
  8
0
 62
7
  6
DASHED
 10
6.810000000000014
 20
11.05
 30
0
 11
7.960000000000012
 21
11.05
 31
0
  0
LINE
  8
0
 62
7
  6
DASHED
 10
6.810000000000014
 20
10.85
 30
0
 11
7.960000000000012
 21
10.85
 31
0
  0
LINE
  8
0
 62
7
  6
DASHED
 10
6.810000000000014
 20
8.300000000000001
 30
0
 11
7.960000000000012
 21
8.300000000000001
 31
0
  0
LINE
  8
0
 62
7
  6
DASHED
 10
6.810000000000014
 20
8.1
 30
0
 11
7.960000000000012
 21
8.1
 31
0
  0
LINE
  8
0
 62
7
 10
4.335000000000004
 20
5.019999999999999
 30
0
 11
4.485000000000004
 21
5.019999999999999
 31
0
  0
LINE
  8
0
 62
7
 10
4.335000000000004
 20
5.169999999999999
 30
0
 11
4.335000000000004
 21
5.019999999999999
 31
0
  0
LINE
  8
0
 62
7
 10
4.160000000000004
 20
5.019999999999999
 30
0
 11
4.160000000000004
 21
5.169999999999999
 31
0
  0
LINE
  8
0
 62
7
 10
1.275000000000004
 20
5.019999999999999
 30
0
 11
4.160000000000004
 21
5.019999999999999
 31
0
  0
LINE
  8
0
 62
7
 10
1.275000000000004
 20
5.169999999999999
 30
0
 11
1.275000000000004
 21
5.019999999999999
 31
0
  0
LINE
  8
0
 62
7
 10
1.100000000000004
 20
5.019999999999999
 30
0
 11
1.100000000000004
 21
5.169999999999999
 31
0
  0
LINE
  8
0
 62
7
 10
0.9350000000000037
 20
5.019999999999999
 30
0
 11
1.100000000000004
 21
5.019999999999999
 31
0
  0
LINE
  8
0
 62
7
 10
0.9350000000000037
 20
4.780000000000002
 30
0
 11
4.485000000000004
 21
4.780000000000002
 31
0
  0
LINE
  8
0
 62
7
 10
0.9350000000000037
 20
4.740000000000002
 30
0
 11
4.485000000000004
 21
4.740000000000002
 31
0
  0
LINE
  8
0
 62
7
 10
4.335000000000004
 20
4.500000000000003
 30
0
 11
4.485000000000004
 21
4.500000000000003
 31
0
  0
LINE
  8
0
 62
7
 10
4.160000000000004
 20
3.350000000000001
 30
0
 11
4.160000000000004
 21
3.250000000000001
 31
0
  0
LINE
  8
0
 62
7
 10
4.160000000000004
 20
3.250000000000001
 30
0
 11
4.335000000000004
 21
3.250000000000001
 31
0
  0
LINE
  8
0
 62
7
 10
4.335000000000004
 20
3.250000000000001
 30
0
 11
4.335000000000004
 21
4.500000000000003
 31
0
  0
LINE
  8
0
 62
7
 10
1.275000000000004
 20
4.500000000000003
 30
0
 11
4.160000000000004
 21
4.500000000000003
 31
0
  0
LINE
  8
0
 62
7
 10
1.275000000000004
 20
3.400000000000001
 30
0
 11
1.275000000000004
 21
4.500000000000003
 31
0
  0
LINE
  8
0
 62
7
 10
1.100000000000004
 20
4.500000000000003
 30
0
 11
1.100000000000004
 21
3.350000000000001
 31
0
  0
LINE
  8
0
 62
7
 10
0.9350000000000037
 20
4.500000000000003
 30
0
 11
1.100000000000004
 21
4.500000000000003
 31
0
  0
LINE
  8
0
 62
7
 10
1.100000000000004
 20
3.350000000000001
 30
0
 11
1.275000000000004
 21
3.350000000000001
 31
0
  0
LINE
  8
0
 62
7
 10
4.160000000000004
 20
3.400000000000001
 30
0
 11
1.275000000000004
 21
3.400000000000001
 31
0
  0
LINE
  8
0
 62
7
 10
4.160000000000004
 20
4.500000000000003
 30
0
 11
4.160000000000004
 21
3.400000000000001
 31
0
  0
LINE
  8
0
 62
7
 10
1.275000000000004
 20
3.350000000000001
 30
0
 11
1.275000000000004
 21
3.400000000000001
 31
0
  0
LINE
  8
0
 62
7
  6
DASHDOT
 10
4.160000000000004
 20
3.350000000000001
 30
0
 11
1.275000000000004
 21
3.350000000000001
 31
0
  0
LINE
  8
0
 62
7
 10
4.160000000000004
 20
3.400000000000001
 30
0
 11
4.160000000000004
 21
3.350000000000001
 31
0
  0
LINE
  8
0
 62
7
  6
DASHDOT
 10
4.335000000000004
 20
5.169999999999999
 30
0
 11
4.385000000000004
 21
5.169999999999999
 31
0
  0
LINE
  8
0
 62
7
  6
DASHDOT
 10
1.275000000000004
 20
5.169999999999999
 30
0
 11
1.325000000000004
 21
5.169999999999999
 31
0
  0
LINE
  8
0
 62
7
  6
DASHDOT
 10
4.485000000000004
 20
5.019999999999999
 30
0
 11
4.485000000000004
 21
5.069999999999999
 31
0
  0
LINE
  8
0
 62
7
  6
DASHDOT
 10
0.9350000000000037
 20
5.019999999999999
 30
0
 11
0.9350000000000037
 21
5.069999999999999
 31
0
  0
LINE
  8
0
 62
7
  6
DASHDOT
 10
0.9350000000000037
 20
4.780000000000002
 30
0
 11
0.9350000000000037
 21
5.019999999999999
 31
0
  0
LINE
  8
0
 62
7
  6
DASHDOT
 10
0.9350000000000037
 20
4.450000000000002
 30
0
 11
0.9350000000000037
 21
4.500000000000003
 31
0
  0
LINE
  8
0
 62
7
  6
DASHDOT
 10
4.160000000000004
 20
5.169999999999999
 30
0
 11
4.335000000000004
 21
5.169999999999999
 31
0
  0
LINE
  8
0
 62
7
  6
DASHDOT
 10
4.110000000000004
 20
5.169999999999999
 30
0
 11
4.160000000000004
 21
5.169999999999999
 31
0
  0
LINE
  8
0
 62
7
  6
DASHDOT
 10
4.485000000000004
 20
4.780000000000002
 30
0
 11
4.485000000000004
 21
5.019999999999999
 31
0
  0
LINE
  8
0
 62
7
  6
DASHDOT
 10
4.485000000000004
 20
4.450000000000002
 30
0
 11
4.485000000000004
 21
4.500000000000003
 31
0
  0
LINE
  8
0
 62
7
  6
DASHDOT
 10
0.9350000000000037
 20
4.740000000000002
 30
0
 11
0.9350000000000037
 21
4.780000000000002
 31
0
  0
LINE
  8
0
 62
7
  6
DASHDOT
 10
4.485000000000004
 20
4.740000000000002
 30
0
 11
4.485000000000004
 21
4.780000000000002
 31
0
  0
LINE
  8
0
 62
7
  6
DASHDOT
 10
0.9350000000000037
 20
4.500000000000003
 30
0
 11
0.9350000000000037
 21
4.740000000000002
 31
0
  0
LINE
  8
0
 62
7
  6
DASHDOT
 10
4.485000000000004
 20
4.500000000000003
 30
0
 11
4.485000000000004
 21
4.740000000000002
 31
0
  0
LINE
  8
0
 62
7
  6
DASHDOT
 10
1.050000000000004
 20
5.169999999999999
 30
0
 11
1.100000000000004
 21
5.169999999999999
 31
0
  0
LINE
  8
0
 62
7
  6
DASHDOT
 10
1.100000000000004
 20
5.169999999999999
 30
0
 11
1.275000000000004
 21
5.169999999999999
 31
0
  0
LINE
  8
0
 62
7
 10
1.9066775
 20
4.19324850053938
 30
0
 11
1.9066775
 21
4.31324850053938
 31
0
  0
LINE
  8
0
 62
7
 10
1.9822775
 20
4.31324850053938
 30
0
 11
1.9282775
 21
4.253248500539381
 31
0
  0
LINE
  8
0
 62
7
 10
1.9282775
 20
4.253248500539381
 30
0
 11
1.9822775
 21
4.19324850053938
 31
0
  0
LINE
  8
0
 62
7
 10
1.9282775
 20
4.253248500539381
 30
0
 11
1.9066775
 21
4.22924850053938
 31
0
  0
LINE
  8
0
 62
7
 10
2.0902775
 20
4.31324850053938
 30
0
 11
2.0146775
 21
4.31324850053938
 31
0
  0
LINE
  8
0
 62
7
 10
2.0146775
 20
4.31324850053938
 30
0
 11
2.0146775
 21
4.253248500539381
 31
0
  0
LINE
  8
0
 62
7
 10
2.0146775
 20
4.19324850053938
 30
0
 11
2.0902775
 21
4.19324850053938
 31
0
  0
LINE
  8
0
 62
7
 10
2.0794775
 20
4.253248500539381
 30
0
 11
2.0146775
 21
4.253248500539381
 31
0
  0
LINE
  8
0
 62
7
 10
2.0146775
 20
4.253248500539381
 30
0
 11
2.0146775
 21
4.19324850053938
 31
0
  0
LINE
  8
0
 62
7
 10
2.1226775
 20
4.19324850053938
 30
0
 11
2.1226775
 21
4.31324850053938
 31
0
  0
LINE
  8
0
 62
7
 10
2.1226775
 20
4.31324850053938
 30
0
 11
2.1982775
 21
4.19324850053938
 31
0
  0
LINE
  8
0
 62
7
 10
2.1982775
 20
4.19324850053938
 30
0
 11
2.1982775
 21
4.31324850053938
 31
0
  0
LINE
  8
0
 62
7
 10
2.2306775
 20
4.19324850053938
 30
0
 11
2.2306775
 21
4.31324850053938
 31
0
  0
LINE
  8
0
 62
7
 10
2.2306775
 20
4.31324850053938
 30
0
 11
2.3062775
 21
4.19324850053938
 31
0
  0
LINE
  8
0
 62
7
 10
2.3062775
 20
4.19324850053938
 30
0
 11
2.3062775
 21
4.31324850053938
 31
0
  0
LINE
  8
0
 62
7
 10
2.4142775
 20
4.277248500539381
 30
0
 11
2.4115775
 21
4.28924850053938
 31
0
  0
LINE
  8
0
 62
7
 10
2.4115775
 20
4.28924850053938
 30
0
 11
2.4061775
 21
4.298248500539381
 31
0
  0
LINE
  8
0
 62
7
 10
2.4061775
 20
4.298248500539381
 30
0
 11
2.4007775
 21
4.30424850053938
 31
0
  0
LINE
  8
0
 62
7
 10
2.4007775
 20
4.30424850053938
 30
0
 11
2.3926775
 21
4.310248500539381
 31
0
  0
LINE
  8
0
 62
7
 10
2.3926775
 20
4.310248500539381
 30
0
 11
2.3845775
 21
4.31324850053938
 31
0
  0
LINE
  8
0
 62
7
 10
2.3845775
 20
4.31324850053938
 30
0
 11
2.3683775
 21
4.31324850053938
 31
0
  0
LINE
  8
0
 62
7
 10
2.3683775
 20
4.31324850053938
 30
0
 11
2.3602775
 21
4.310248500539381
 31
0
  0
LINE
  8
0
 62
7
 10
2.3602775
 20
4.310248500539381
 30
0
 11
2.3521775
 21
4.30424850053938
 31
0
  0
LINE
  8
0
 62
7
 10
2.3521775
 20
4.30424850053938
 30
0
 11
2.3467775
 21
4.298248500539381
 31
0
  0
LINE
  8
0
 62
7
 10
2.3467775
 20
4.298248500539381
 30
0
 11
2.3413775
 21
4.28924850053938
 31
0
  0
LINE
  8
0
 62
7
 10
2.3413775
 20
4.28924850053938
 30
0
 11
2.3386775
 21
4.277248500539381
 31
0
  0
LINE
  8
0
 62
7
 10
2.3386775
 20
4.277248500539381
 30
0
 11
2.3386775
 21
4.22924850053938
 31
0
  0
LINE
  8
0
 62
7
 10
2.3386775
 20
4.22924850053938
 30
0
 11
2.3413775
 21
4.21724850053938
 31
0
  0
LINE
  8
0
 62
7
 10
2.3413775
 20
4.21724850053938
 30
0
 11
2.3467775
 21
4.20824850053938
 31
0
  0
LINE
  8
0
 62
7
 10
2.3467775
 20
4.20824850053938
 30
0
 11
2.3521775
 21
4.202248500539381
 31
0
  0
LINE
  8
0
 62
7
 10
2.3521775
 20
4.202248500539381
 30
0
 11
2.3602775
 21
4.19624850053938
 31
0
  0
LINE
  8
0
 62
7
 10
2.3602775
 20
4.19624850053938
 30
0
 11
2.3683775
 21
4.19324850053938
 31
0
  0
LINE
  8
0
 62
7
 10
2.3683775
 20
4.19324850053938
 30
0
 11
2.3845775
 21
4.19324850053938
 31
0
  0
LINE
  8
0
 62
7
 10
2.3845775
 20
4.19324850053938
 30
0
 11
2.3926775
 21
4.19624850053938
 31
0
  0
LINE
  8
0
 62
7
 10
2.3926775
 20
4.19624850053938
 30
0
 11
2.4007775
 21
4.202248500539381
 31
0
  0
LINE
  8
0
 62
7
 10
2.4007775
 20
4.202248500539381
 30
0
 11
2.4061775
 21
4.20824850053938
 31
0
  0
LINE
  8
0
 62
7
 10
2.4061775
 20
4.20824850053938
 30
0
 11
2.4115775
 21
4.21724850053938
 31
0
  0
LINE
  8
0
 62
7
 10
2.4115775
 20
4.21724850053938
 30
0
 11
2.4142775
 21
4.22924850053938
 31
0
  0
LINE
  8
0
 62
7
 10
2.4142775
 20
4.22924850053938
 30
0
 11
2.4142775
 21
4.253248500539381
 31
0
  0
LINE
  8
0
 62
7
 10
2.4142775
 20
4.253248500539381
 30
0
 11
2.3818775
 21
4.253248500539381
 31
0
  0
LINE
  8
0
 62
7
 10
2.4925775
 20
4.31324850053938
 30
0
 11
2.4763775
 21
4.31324850053938
 31
0
  0
LINE
  8
0
 62
7
 10
2.4763775
 20
4.31324850053938
 30
0
 11
2.468277500000001
 21
4.310248500539381
 31
0
  0
LINE
  8
0
 62
7
 10
2.468277500000001
 20
4.310248500539381
 30
0
 11
2.4601775
 21
4.30424850053938
 31
0
  0
LINE
  8
0
 62
7
 10
2.4601775
 20
4.30424850053938
 30
0
 11
2.4547775
 21
4.298248500539381
 31
0
  0
LINE
  8
0
 62
7
 10
2.4547775
 20
4.298248500539381
 30
0
 11
2.4493775
 21
4.28924850053938
 31
0
  0
LINE
  8
0
 62
7
 10
2.4493775
 20
4.28924850053938
 30
0
 11
2.4466775
 21
4.277248500539381
 31
0
  0
LINE
  8
0
 62
7
 10
2.4466775
 20
4.277248500539381
 30
0
 11
2.4466775
 21
4.22924850053938
 31
0
  0
LINE
  8
0
 62
7
 10
2.4466775
 20
4.22924850053938
 30
0
 11
2.4493775
 21
4.21724850053938
 31
0
  0
LINE
  8
0
 62
7
 10
2.4493775
 20
4.21724850053938
 30
0
 11
2.4547775
 21
4.20824850053938
 31
0
  0
LINE
  8
0
 62
7
 10
2.4547775
 20
4.20824850053938
 30
0
 11
2.4601775
 21
4.202248500539381
 31
0
  0
LINE
  8
0
 62
7
 10
2.4601775
 20
4.202248500539381
 30
0
 11
2.468277500000001
 21
4.19624850053938
 31
0
  0
LINE
  8
0
 62
7
 10
2.468277500000001
 20
4.19624850053938
 30
0
 11
2.4763775
 21
4.19324850053938
 31
0
  0
LINE
  8
0
 62
7
 10
2.4763775
 20
4.19324850053938
 30
0
 11
2.4925775
 21
4.19324850053938
 31
0
  0
LINE
  8
0
 62
7
 10
2.4925775
 20
4.19324850053938
 30
0
 11
2.5006775
 21
4.19624850053938
 31
0
  0
LINE
  8
0
 62
7
 10
2.5006775
 20
4.19624850053938
 30
0
 11
2.5087775
 21
4.202248500539381
 31
0
  0
LINE
  8
0
 62
7
 10
2.5087775
 20
4.202248500539381
 30
0
 11
2.514177500000001
 21
4.20824850053938
 31
0
  0
LINE
  8
0
 62
7
 10
2.514177500000001
 20
4.20824850053938
 30
0
 11
2.5195775
 21
4.21724850053938
 31
0
  0
LINE
  8
0
 62
7
 10
2.5195775
 20
4.21724850053938
 30
0
 11
2.5222775
 21
4.22924850053938
 31
0
  0
LINE
  8
0
 62
7
 10
2.5222775
 20
4.22924850053938
 30
0
 11
2.5222775
 21
4.277248500539381
 31
0
  0
LINE
  8
0
 62
7
 10
2.5222775
 20
4.277248500539381
 30
0
 11
2.5195775
 21
4.28924850053938
 31
0
  0
LINE
  8
0
 62
7
 10
2.5195775
 20
4.28924850053938
 30
0
 11
2.514177500000001
 21
4.298248500539381
 31
0
  0
LINE
  8
0
 62
7
 10
2.514177500000001
 20
4.298248500539381
 30
0
 11
2.5087775
 21
4.30424850053938
 31
0
  0
LINE
  8
0
 62
7
 10
2.5087775
 20
4.30424850053938
 30
0
 11
2.5006775
 21
4.310248500539381
 31
0
  0
LINE
  8
0
 62
7
 10
2.5006775
 20
4.310248500539381
 30
0
 11
2.4925775
 21
4.31324850053938
 31
0
  0
LINE
  8
0
 62
7
 10
2.543877500000001
 20
4.31324850053938
 30
0
 11
2.581677500000001
 21
4.31324850053938
 31
0
  0
LINE
  8
0
 62
7
 10
2.581677500000001
 20
4.31324850053938
 30
0
 11
2.581677500000001
 21
4.19324850053938
 31
0
  0
LINE
  8
0
 62
7
 10
2.581677500000001
 20
4.31324850053938
 30
0
 11
2.6194775
 21
4.31324850053938
 31
0
  0
LINE
  8
0
 62
7
 10
2.651877500000001
 20
4.31324850053938
 30
0
 11
2.689677500000001
 21
4.31324850053938
 31
0
  0
LINE
  8
0
 62
7
 10
2.689677500000001
 20
4.31324850053938
 30
0
 11
2.689677500000001
 21
4.19324850053938
 31
0
  0
LINE
  8
0
 62
7
 10
2.689677500000001
 20
4.31324850053938
 30
0
 11
2.727477500000001
 21
4.31324850053938
 31
0
  0
LINE
  8
0
 62
7
 10
2.8462775
 20
4.235248500539381
 30
0
 11
2.900277500000001
 21
4.235248500539381
 31
0
  0
LINE
  8
0
 62
7
 10
3.0082775
 20
4.31324850053938
 30
0
 11
3.046077500000001
 21
4.31324850053938
 31
0
  0
LINE
  8
0
 62
7
 10
3.046077500000001
 20
4.31324850053938
 30
0
 11
3.046077500000001
 21
4.19324850053938
 31
0
  0
LINE
  8
0
 62
7
 10
3.046077500000001
 20
4.31324850053938
 30
0
 11
3.0838775
 21
4.31324850053938
 31
0
  0
LINE
  8
0
 62
7
 10
3.116277500000001
 20
4.19324850053938
 30
0
 11
3.116277500000001
 21
4.31324850053938
 31
0
  0
LINE
  8
0
 62
7
 10
3.116277500000001
 20
4.31324850053938
 30
0
 11
3.1675775
 21
4.31324850053938
 31
0
  0
LINE
  8
0
 62
7
 10
3.1675775
 20
4.31324850053938
 30
0
 11
3.178377500000001
 21
4.310248500539381
 31
0
  0
LINE
  8
0
 62
7
 10
3.178377500000001
 20
4.310248500539381
 30
0
 11
3.186477500000001
 21
4.30424850053938
 31
0
  0
LINE
  8
0
 62
7
 10
3.186477500000001
 20
4.30424850053938
 30
0
 11
3.189177500000001
 21
4.298248500539381
 31
0
  0
LINE
  8
0
 62
7
 10
3.189177500000001
 20
4.298248500539381
 30
0
 11
3.191877500000001
 21
4.28924850053938
 31
0
  0
LINE
  8
0
 62
7
 10
3.191877500000001
 20
4.28924850053938
 30
0
 11
3.191877500000001
 21
4.277248500539381
 31
0
  0
LINE
  8
0
 62
7
 10
3.191877500000001
 20
4.277248500539381
 30
0
 11
3.189177500000001
 21
4.26824850053938
 31
0
  0
LINE
  8
0
 62
7
 10
3.189177500000001
 20
4.26824850053938
 30
0
 11
3.186477500000001
 21
4.26224850053938
 31
0
  0
LINE
  8
0
 62
7
 10
3.186477500000001
 20
4.26224850053938
 30
0
 11
3.178377500000001
 21
4.256248500539381
 31
0
  0
LINE
  8
0
 62
7
 10
3.178377500000001
 20
4.256248500539381
 30
0
 11
3.1675775
 21
4.253248500539381
 31
0
  0
LINE
  8
0
 62
7
 10
3.1675775
 20
4.253248500539381
 30
0
 11
3.1594775
 21
4.253248500539381
 31
0
  0
LINE
  8
0
 62
7
 10
3.1594775
 20
4.253248500539381
 30
0
 11
3.191877500000001
 21
4.19324850053938
 31
0
  0
LINE
  8
0
 62
7
 10
3.1594775
 20
4.253248500539381
 30
0
 11
3.116277500000001
 21
4.253248500539381
 31
0
  0
LINE
  8
0
 62
7
 10
3.289077500000001
 20
4.31324850053938
 30
0
 11
3.213477500000002
 21
4.31324850053938
 31
0
  0
LINE
  8
0
 62
7
 10
3.213477500000002
 20
4.31324850053938
 30
0
 11
3.213477500000002
 21
4.253248500539381
 31
0
  0
LINE
  8
0
 62
7
 10
3.213477500000002
 20
4.19324850053938
 30
0
 11
3.289077500000001
 21
4.19324850053938
 31
0
  0
LINE
  8
0
 62
7
 10
3.278277500000001
 20
4.253248500539381
 30
0
 11
3.213477500000002
 21
4.253248500539381
 31
0
  0
LINE
  8
0
 62
7
 10
3.213477500000002
 20
4.253248500539381
 30
0
 11
3.213477500000002
 21
4.19324850053938
 31
0
  0
LINE
  8
0
 62
7
 10
3.321477500000001
 20
4.19324850053938
 30
0
 11
3.321477500000001
 21
4.253248500539381
 31
0
  0
LINE
  8
0
 62
7
 10
3.321477500000001
 20
4.31324850053938
 30
0
 11
3.372777500000001
 21
4.31324850053938
 31
0
  0
LINE
  8
0
 62
7
 10
3.372777500000001
 20
4.31324850053938
 30
0
 11
3.383577500000001
 21
4.310248500539381
 31
0
  0
LINE
  8
0
 62
7
 10
3.383577500000001
 20
4.310248500539381
 30
0
 11
3.391677500000002
 21
4.30424850053938
 31
0
  0
LINE
  8
0
 62
7
 10
3.391677500000002
 20
4.30424850053938
 30
0
 11
3.394377500000001
 21
4.298248500539381
 31
0
  0
LINE
  8
0
 62
7
 10
3.394377500000001
 20
4.298248500539381
 30
0
 11
3.3970775
 21
4.28924850053938
 31
0
  0
LINE
  8
0
 62
7
 10
3.3970775
 20
4.28924850053938
 30
0
 11
3.3970775
 21
4.277248500539381
 31
0
  0
LINE
  8
0
 62
7
 10
3.3970775
 20
4.277248500539381
 30
0
 11
3.394377500000001
 21
4.26824850053938
 31
0
  0
LINE
  8
0
 62
7
 10
3.394377500000001
 20
4.26824850053938
 30
0
 11
3.391677500000002
 21
4.26224850053938
 31
0
  0
LINE
  8
0
 62
7
 10
3.391677500000002
 20
4.26224850053938
 30
0
 11
3.383577500000001
 21
4.256248500539381
 31
0
  0
LINE
  8
0
 62
7
 10
3.383577500000001
 20
4.256248500539381
 30
0
 11
3.372777500000001
 21
4.253248500539381
 31
0
  0
LINE
  8
0
 62
7
 10
3.372777500000001
 20
4.253248500539381
 30
0
 11
3.321477500000001
 21
4.253248500539381
 31
0
  0
LINE
  8
0
 62
7
 10
3.321477500000001
 20
4.253248500539381
 30
0
 11
3.321477500000001
 21
4.31324850053938
 31
0
  0
LINE
  8
0
 62
7
 10
3.418677500000001
 20
4.19324850053938
 30
0
 11
3.418677500000001
 21
4.253248500539381
 31
0
  0
LINE
  8
0
 62
7
 10
3.418677500000001
 20
4.31324850053938
 30
0
 11
3.469977500000001
 21
4.31324850053938
 31
0
  0
LINE
  8
0
 62
7
 10
3.469977500000001
 20
4.31324850053938
 30
0
 11
3.480777500000002
 21
4.310248500539381
 31
0
  0
LINE
  8
0
 62
7
 10
3.480777500000002
 20
4.310248500539381
 30
0
 11
3.488877500000001
 21
4.30424850053938
 31
0
  0
LINE
  8
0
 62
7
 10
3.488877500000001
 20
4.30424850053938
 30
0
 11
3.491577500000001
 21
4.298248500539381
 31
0
  0
LINE
  8
0
 62
7
 10
3.491577500000001
 20
4.298248500539381
 30
0
 11
3.494277500000001
 21
4.28924850053938
 31
0
  0
LINE
  8
0
 62
7
 10
3.494277500000001
 20
4.28924850053938
 30
0
 11
3.494277500000001
 21
4.277248500539381
 31
0
  0
LINE
  8
0
 62
7
 10
3.494277500000001
 20
4.277248500539381
 30
0
 11
3.491577500000001
 21
4.26824850053938
 31
0
  0
LINE
  8
0
 62
7
 10
3.491577500000001
 20
4.26824850053938
 30
0
 11
3.488877500000001
 21
4.26224850053938
 31
0
  0
LINE
  8
0
 62
7
 10
3.488877500000001
 20
4.26224850053938
 30
0
 11
3.480777500000002
 21
4.256248500539381
 31
0
  0
LINE
  8
0
 62
7
 10
3.480777500000002
 20
4.256248500539381
 30
0
 11
3.469977500000001
 21
4.253248500539381
 31
0
  0
LINE
  8
0
 62
7
 10
3.469977500000001
 20
4.253248500539381
 30
0
 11
3.418677500000001
 21
4.253248500539381
 31
0
  0
LINE
  8
0
 62
7
 10
3.418677500000001
 20
4.253248500539381
 30
0
 11
3.418677500000001
 21
4.31324850053938
 31
0
  0
LINE
  8
0
 62
7
 10
3.591477500000002
 20
4.31324850053938
 30
0
 11
3.515877500000002
 21
4.31324850053938
 31
0
  0
LINE
  8
0
 62
7
 10
3.515877500000002
 20
4.31324850053938
 30
0
 11
3.515877500000002
 21
4.253248500539381
 31
0
  0
LINE
  8
0
 62
7
 10
3.515877500000002
 20
4.19324850053938
 30
0
 11
3.591477500000002
 21
4.19324850053938
 31
0
  0
LINE
  8
0
 62
7
 10
3.580677500000001
 20
4.253248500539381
 30
0
 11
3.515877500000002
 21
4.253248500539381
 31
0
  0
LINE
  8
0
 62
7
 10
3.515877500000002
 20
4.253248500539381
 30
0
 11
3.515877500000002
 21
4.19324850053938
 31
0
  0
LINE
  8
0
 62
7
 10
0.625
 20
2.890000000000002
 30
0
 11
0.625
 21
3.010000000000002
 31
0
  0
LINE
  8
0
 62
7
 10
0.7006000000000001
 20
3.010000000000002
 30
0
 11
0.6466000000000002
 21
2.950000000000003
 31
0
  0
LINE
  8
0
 62
7
 10
0.6466000000000002
 20
2.950000000000003
 30
0
 11
0.7006000000000001
 21
2.890000000000002
 31
0
  0
LINE
  8
0
 62
7
 10
0.6466000000000002
 20
2.950000000000003
 30
0
 11
0.625
 21
2.926000000000004
 31
0
  0
LINE
  8
0
 62
7
 10
0.7330000000000001
 20
2.992000000000003
 30
0
 11
0.7384000000000002
 21
3.001000000000003
 31
0
  0
LINE
  8
0
 62
7
 10
0.7384000000000002
 20
3.001000000000003
 30
0
 11
0.7465000000000001
 21
3.007000000000002
 31
0
  0
LINE
  8
0
 62
7
 10
0.7465000000000001
 20
3.007000000000002
 30
0
 11
0.7573000000000001
 21
3.010000000000002
 31
0
  0
LINE
  8
0
 62
7
 10
0.7573000000000001
 20
3.010000000000002
 30
0
 11
0.7735000000000002
 21
3.010000000000002
 31
0
  0
LINE
  8
0
 62
7
 10
0.7735000000000002
 20
3.010000000000002
 30
0
 11
0.7843000000000001
 21
3.007000000000002
 31
0
  0
LINE
  8
0
 62
7
 10
0.7843000000000001
 20
3.007000000000002
 30
0
 11
0.7924000000000002
 21
3.001000000000003
 31
0
  0
LINE
  8
0
 62
7
 10
0.7924000000000002
 20
3.001000000000003
 30
0
 11
0.7978000000000001
 21
2.992000000000003
 31
0
  0
LINE
  8
0
 62
7
 10
0.7978000000000001
 20
2.992000000000003
 30
0
 11
0.7978000000000001
 21
2.980000000000002
 31
0
  0
LINE
  8
0
 62
7
 10
0.7978000000000001
 20
2.980000000000002
 30
0
 11
0.7924000000000002
 21
2.968000000000002
 31
0
  0
LINE
  8
0
 62
7
 10
0.7924000000000002
 20
2.968000000000002
 30
0
 11
0.7330000000000001
 21
2.890000000000002
 31
0
  0
LINE
  8
0
 62
7
 10
0.7330000000000001
 20
2.890000000000002
 30
0
 11
0.7978000000000001
 21
2.890000000000002
 31
0
  0
LINE
  8
0
 62
7
 10
0.8302000000000002
 20
3.010000000000002
 30
0
 11
0.8680000000000002
 21
2.890000000000002
 31
0
  0
LINE
  8
0
 62
7
 10
0.8680000000000002
 20
2.890000000000002
 30
0
 11
0.9058000000000002
 21
3.010000000000002
 31
0
  0
LINE
  8
0
 62
7
 10
0.9382000000000001
 20
2.992000000000003
 30
0
 11
0.9436000000000002
 21
3.001000000000003
 31
0
  0
LINE
  8
0
 62
7
 10
0.9436000000000002
 20
3.001000000000003
 30
0
 11
0.9517000000000002
 21
3.007000000000002
 31
0
  0
LINE
  8
0
 62
7
 10
0.9517000000000002
 20
3.007000000000002
 30
0
 11
0.9625
 21
3.010000000000002
 31
0
  0
LINE
  8
0
 62
7
 10
0.9625
 20
3.010000000000002
 30
0
 11
0.9787000000000001
 21
3.010000000000002
 31
0
  0
LINE
  8
0
 62
7
 10
0.9787000000000001
 20
3.010000000000002
 30
0
 11
0.9895
 21
3.007000000000002
 31
0
  0
LINE
  8
0
 62
7
 10
0.9895
 20
3.007000000000002
 30
0
 11
0.9976000000000002
 21
3.001000000000003
 31
0
  0
LINE
  8
0
 62
7
 10
0.9976000000000002
 20
3.001000000000003
 30
0
 11
1.003
 21
2.992000000000003
 31
0
  0
LINE
  8
0
 62
7
 10
1.003
 20
2.992000000000003
 30
0
 11
1.003
 21
2.980000000000002
 31
0
  0
LINE
  8
0
 62
7
 10
1.003
 20
2.980000000000002
 30
0
 11
0.9976000000000002
 21
2.968000000000002
 31
0
  0
LINE
  8
0
 62
7
 10
0.9976000000000002
 20
2.968000000000002
 30
0
 11
0.9382000000000001
 21
2.890000000000002
 31
0
  0
LINE
  8
0
 62
7
 10
0.9382000000000001
 20
2.890000000000002
 30
0
 11
1.003
 21
2.890000000000002
 31
0
  0
LINE
  8
0
 62
7
 10
1.0624
 20
3.010000000000002
 30
0
 11
1.0732
 21
3.010000000000002
 31
0
  0
LINE
  8
0
 62
7
 10
1.0732
 20
3.010000000000002
 30
0
 11
1.0813
 21
3.007000000000002
 31
0
  0
LINE
  8
0
 62
7
 10
1.0813
 20
3.007000000000002
 30
0
 11
1.0867
 21
3.001000000000003
 31
0
  0
LINE
  8
0
 62
7
 10
1.0867
 20
3.001000000000003
 30
0
 11
1.0921
 21
2.992000000000003
 31
0
  0
LINE
  8
0
 62
7
 10
1.0921
 20
2.992000000000003
 30
0
 11
1.0921
 21
2.980000000000002
 31
0
  0
LINE
  8
0
 62
7
 10
1.0921
 20
2.980000000000002
 30
0
 11
1.0894
 21
2.974000000000004
 31
0
  0
LINE
  8
0
 62
7
 10
1.0894
 20
2.974000000000004
 30
0
 11
1.0813
 21
2.965000000000003
 31
0
  0
LINE
  8
0
 62
7
 10
1.0813
 20
2.965000000000003
 30
0
 11
1.0732
 21
2.962000000000002
 31
0
  0
LINE
  8
0
 62
7
 10
1.0732
 20
2.962000000000002
 30
0
 11
1.0624
 21
2.962000000000002
 31
0
  0
LINE
  8
0
 62
7
 10
1.0624
 20
2.962000000000002
 30
0
 11
1.0543
 21
2.965000000000003
 31
0
  0
LINE
  8
0
 62
7
 10
1.0543
 20
2.965000000000003
 30
0
 11
1.0462
 21
2.974000000000004
 31
0
  0
LINE
  8
0
 62
7
 10
1.0462
 20
2.974000000000004
 30
0
 11
1.0435
 21
2.980000000000002
 31
0
  0
LINE
  8
0
 62
7
 10
1.0435
 20
2.980000000000002
 30
0
 11
1.0435
 21
2.992000000000003
 31
0
  0
LINE
  8
0
 62
7
 10
1.0435
 20
2.992000000000003
 30
0
 11
1.0489
 21
3.001000000000003
 31
0
  0
LINE
  8
0
 62
7
 10
1.0489
 20
3.001000000000003
 30
0
 11
1.0543
 21
3.007000000000002
 31
0
  0
LINE
  8
0
 62
7
 10
1.0543
 20
3.007000000000002
 30
0
 11
1.0624
 21
3.010000000000002
 31
0
  0
LINE
  8
0
 62
7
 10
1.0624
 20
2.962000000000002
 30
0
 11
1.0489
 21
2.956000000000003
 31
0
  0
LINE
  8
0
 62
7
 10
1.0489
 20
2.956000000000003
 30
0
 11
1.0408
 21
2.947000000000003
 31
0
  0
LINE
  8
0
 62
7
 10
1.0408
 20
2.947000000000003
 30
0
 11
1.0354
 21
2.935000000000002
 31
0
  0
LINE
  8
0
 62
7
 10
1.0354
 20
2.935000000000002
 30
0
 11
1.0354
 21
2.917000000000002
 31
0
  0
LINE
  8
0
 62
7
 10
1.0354
 20
2.917000000000002
 30
0
 11
1.0408
 21
2.905000000000002
 31
0
  0
LINE
  8
0
 62
7
 10
1.0408
 20
2.905000000000002
 30
0
 11
1.0489
 21
2.896000000000003
 31
0
  0
LINE
  8
0
 62
7
 10
1.0489
 20
2.896000000000003
 30
0
 11
1.0597
 21
2.890000000000002
 31
0
  0
LINE
  8
0
 62
7
 10
1.0597
 20
2.890000000000002
 30
0
 11
1.0759
 21
2.890000000000002
 31
0
  0
LINE
  8
0
 62
7
 10
1.0759
 20
2.890000000000002
 30
0
 11
1.0867
 21
2.896000000000003
 31
0
  0
LINE
  8
0
 62
7
 10
1.0867
 20
2.896000000000003
 30
0
 11
1.0948
 21
2.905000000000002
 31
0
  0
LINE
  8
0
 62
7
 10
1.0948
 20
2.905000000000002
 30
0
 11
1.1002
 21
2.917000000000002
 31
0
  0
LINE
  8
0
 62
7
 10
1.1002
 20
2.917000000000002
 30
0
 11
1.1002
 21
2.935000000000002
 31
0
  0
LINE
  8
0
 62
7
 10
1.1002
 20
2.935000000000002
 30
0
 11
1.0948
 21
2.947000000000003
 31
0
  0
LINE
  8
0
 62
7
 10
1.0948
 20
2.947000000000003
 30
0
 11
1.0867
 21
2.956000000000003
 31
0
  0
LINE
  8
0
 62
7
 10
1.0867
 20
2.956000000000003
 30
0
 11
1.0732
 21
2.962000000000002
 31
0
  0
LINE
  8
0
 62
7
 10
1.1704
 20
3.010000000000002
 30
0
 11
1.1812
 21
3.010000000000002
 31
0
  0
LINE
  8
0
 62
7
 10
1.1812
 20
3.010000000000002
 30
0
 11
1.1893
 21
3.007000000000002
 31
0
  0
LINE
  8
0
 62
7
 10
1.1893
 20
3.007000000000002
 30
0
 11
1.1947
 21
3.001000000000003
 31
0
  0
LINE
  8
0
 62
7
 10
1.1947
 20
3.001000000000003
 30
0
 11
1.2001
 21
2.992000000000003
 31
0
  0
LINE
  8
0
 62
7
 10
1.2001
 20
2.992000000000003
 30
0
 11
1.2001
 21
2.980000000000002
 31
0
  0
LINE
  8
0
 62
7
 10
1.2001
 20
2.980000000000002
 30
0
 11
1.1974
 21
2.974000000000004
 31
0
  0
LINE
  8
0
 62
7
 10
1.1974
 20
2.974000000000004
 30
0
 11
1.1893
 21
2.965000000000003
 31
0
  0
LINE
  8
0
 62
7
 10
1.1893
 20
2.965000000000003
 30
0
 11
1.1812
 21
2.962000000000002
 31
0
  0
LINE
  8
0
 62
7
 10
1.1812
 20
2.962000000000002
 30
0
 11
1.1704
 21
2.962000000000002
 31
0
  0
LINE
  8
0
 62
7
 10
1.1704
 20
2.962000000000002
 30
0
 11
1.1623
 21
2.965000000000003
 31
0
  0
LINE
  8
0
 62
7
 10
1.1623
 20
2.965000000000003
 30
0
 11
1.1542
 21
2.974000000000004
 31
0
  0
LINE
  8
0
 62
7
 10
1.1542
 20
2.974000000000004
 30
0
 11
1.1515
 21
2.980000000000002
 31
0
  0
LINE
  8
0
 62
7
 10
1.1515
 20
2.980000000000002
 30
0
 11
1.1515
 21
2.992000000000003
 31
0
  0
LINE
  8
0
 62
7
 10
1.1515
 20
2.992000000000003
 30
0
 11
1.1569
 21
3.001000000000003
 31
0
  0
LINE
  8
0
 62
7
 10
1.1569
 20
3.001000000000003
 30
0
 11
1.1623
 21
3.007000000000002
 31
0
  0
LINE
  8
0
 62
7
 10
1.1623
 20
3.007000000000002
 30
0
 11
1.1704
 21
3.010000000000002
 31
0
  0
LINE
  8
0
 62
7
 10
1.1704
 20
2.962000000000002
 30
0
 11
1.1569
 21
2.956000000000003
 31
0
  0
LINE
  8
0
 62
7
 10
1.1569
 20
2.956000000000003
 30
0
 11
1.1488
 21
2.947000000000003
 31
0
  0
LINE
  8
0
 62
7
 10
1.1488
 20
2.947000000000003
 30
0
 11
1.1434
 21
2.935000000000002
 31
0
  0
LINE
  8
0
 62
7
 10
1.1434
 20
2.935000000000002
 30
0
 11
1.1434
 21
2.917000000000002
 31
0
  0
LINE
  8
0
 62
7
 10
1.1434
 20
2.917000000000002
 30
0
 11
1.1488
 21
2.905000000000002
 31
0
  0
LINE
  8
0
 62
7
 10
1.1488
 20
2.905000000000002
 30
0
 11
1.1569
 21
2.896000000000003
 31
0
  0
LINE
  8
0
 62
7
 10
1.1569
 20
2.896000000000003
 30
0
 11
1.1677
 21
2.890000000000002
 31
0
  0
LINE
  8
0
 62
7
 10
1.1677
 20
2.890000000000002
 30
0
 11
1.1839
 21
2.890000000000002
 31
0
  0
LINE
  8
0
 62
7
 10
1.1839
 20
2.890000000000002
 30
0
 11
1.1947
 21
2.896000000000003
 31
0
  0
LINE
  8
0
 62
7
 10
1.1947
 20
2.896000000000003
 30
0
 11
1.2028
 21
2.905000000000002
 31
0
  0
LINE
  8
0
 62
7
 10
1.2028
 20
2.905000000000002
 30
0
 11
1.2082
 21
2.917000000000002
 31
0
  0
LINE
  8
0
 62
7
 10
1.2082
 20
2.917000000000002
 30
0
 11
1.2082
 21
2.935000000000002
 31
0
  0
LINE
  8
0
 62
7
 10
1.2082
 20
2.935000000000002
 30
0
 11
1.2028
 21
2.947000000000003
 31
0
  0
LINE
  8
0
 62
7
 10
1.2028
 20
2.947000000000003
 30
0
 11
1.1947
 21
2.956000000000003
 31
0
  0
LINE
  8
0
 62
7
 10
1.1947
 20
2.956000000000003
 30
0
 11
1.1812
 21
2.962000000000002
 31
0
  0
LINE
  8
0
 62
7
 10
1.3162
 20
2.890000000000002
 30
0
 11
1.2514
 21
2.890000000000002
 31
0
  0
LINE
  8
0
 62
7
 10
1.2514
 20
2.890000000000002
 30
0
 11
1.2514
 21
3.010000000000002
 31
0
  0
LINE
  8
0
 62
7
 10
1.3486
 20
2.992000000000003
 30
0
 11
1.354
 21
3.001000000000003
 31
0
  0
LINE
  8
0
 62
7
 10
1.354
 20
3.001000000000003
 30
0
 11
1.3621
 21
3.007000000000002
 31
0
  0
LINE
  8
0
 62
7
 10
1.3621
 20
3.007000000000002
 30
0
 11
1.3729
 21
3.010000000000002
 31
0
  0
LINE
  8
0
 62
7
 10
1.3729
 20
3.010000000000002
 30
0
 11
1.3891
 21
3.010000000000002
 31
0
  0
LINE
  8
0
 62
7
 10
1.3891
 20
3.010000000000002
 30
0
 11
1.3972
 21
3.007000000000002
 31
0
  0
LINE
  8
0
 62
7
 10
1.3972
 20
3.007000000000002
 30
0
 11
1.4053
 21
3.001000000000003
 31
0
  0
LINE
  8
0
 62
7
 10
1.4053
 20
3.001000000000003
 30
0
 11
1.4107
 21
2.992000000000003
 31
0
  0
LINE
  8
0
 62
7
 10
1.4107
 20
2.992000000000003
 30
0
 11
1.4134
 21
2.980000000000002
 31
0
  0
LINE
  8
0
 62
7
 10
1.4134
 20
2.980000000000002
 30
0
 11
1.4134
 21
2.971000000000004
 31
0
  0
LINE
  8
0
 62
7
 10
1.4134
 20
2.971000000000004
 30
0
 11
1.4107
 21
2.962000000000002
 31
0
  0
LINE
  8
0
 62
7
 10
1.4107
 20
2.962000000000002
 30
0
 11
1.4053
 21
2.956000000000003
 31
0
  0
LINE
  8
0
 62
7
 10
1.4053
 20
2.956000000000003
 30
0
 11
1.3918
 21
2.950000000000003
 31
0
  0
LINE
  8
0
 62
7
 10
1.3729
 20
2.950000000000003
 30
0
 11
1.3918
 21
2.950000000000003
 31
0
  0
LINE
  8
0
 62
7
 10
1.3918
 20
2.950000000000003
 30
0
 11
1.4053
 21
2.944000000000004
 31
0
  0
LINE
  8
0
 62
7
 10
1.4053
 20
2.944000000000004
 30
0
 11
1.4107
 21
2.938000000000002
 31
0
  0
LINE
  8
0
 62
7
 10
1.4107
 20
2.938000000000002
 30
0
 11
1.4134
 21
2.929000000000003
 31
0
  0
LINE
  8
0
 62
7
 10
1.4134
 20
2.929000000000003
 30
0
 11
1.4134
 21
2.920000000000003
 31
0
  0
LINE
  8
0
 62
7
 10
1.4134
 20
2.920000000000003
 30
0
 11
1.4107
 21
2.908000000000002
 31
0
  0
LINE
  8
0
 62
7
 10
1.4107
 20
2.908000000000002
 30
0
 11
1.4053
 21
2.899000000000004
 31
0
  0
LINE
  8
0
 62
7
 10
1.4053
 20
2.899000000000004
 30
0
 11
1.3972
 21
2.893000000000002
 31
0
  0
LINE
  8
0
 62
7
 10
1.3972
 20
2.893000000000002
 30
0
 11
1.3891
 21
2.890000000000002
 31
0
  0
LINE
  8
0
 62
7
 10
1.3891
 20
2.890000000000002
 30
0
 11
1.3729
 21
2.890000000000002
 31
0
  0
LINE
  8
0
 62
7
 10
1.3729
 20
2.890000000000002
 30
0
 11
1.3621
 21
2.893000000000002
 31
0
  0
LINE
  8
0
 62
7
 10
1.3621
 20
2.893000000000002
 30
0
 11
1.354
 21
2.899000000000004
 31
0
  0
LINE
  8
0
 62
7
 10
1.354
 20
2.899000000000004
 30
0
 11
1.3486
 21
2.908000000000002
 31
0
  0
LINE
  8
0
 62
7
 10
3.125
 20
2.890000000000002
 30
0
 11
3.125
 21
2.990000000000002
 31
0
  0
LINE
  8
0
 62
7
 10
3.125
 20
2.990000000000002
 30
0
 11
3.188
 21
2.890000000000002
 31
0
  0
LINE
  8
0
 62
7
 10
3.188
 20
2.890000000000002
 30
0
 11
3.188
 21
2.990000000000002
 31
0
  0
LINE
  8
0
 62
7
 10
3.269
 20
2.890000000000002
 30
0
 11
3.215
 21
2.890000000000002
 31
0
  0
LINE
  8
0
 62
7
 10
3.215
 20
2.890000000000002
 30
0
 11
3.215
 21
2.990000000000002
 31
0
  0
LINE
  8
0
 62
7
 10
3.296
 20
2.940000000000003
 30
0
 11
3.332
 21
2.940000000000003
 31
0
  0
LINE
  8
0
 62
7
 10
3.332
 20
2.940000000000003
 30
0
 11
3.3365
 21
2.940000000000003
 31
0
  0
LINE
  8
0
 62
7
 10
3.3365
 20
2.940000000000003
 30
0
 11
3.3455
 21
2.935000000000002
 31
0
  0
LINE
  8
0
 62
7
 10
3.3455
 20
2.935000000000002
 30
0
 11
3.35
 21
2.930000000000002
 31
0
  0
LINE
  8
0
 62
7
 10
3.35
 20
2.930000000000002
 30
0
 11
3.3545
 21
2.920000000000003
 31
0
  0
LINE
  8
0
 62
7
 10
3.3545
 20
2.920000000000003
 30
0
 11
3.3545
 21
2.910000000000002
 31
0
  0
LINE
  8
0
 62
7
 10
3.3545
 20
2.910000000000002
 30
0
 11
3.35
 21
2.900000000000003
 31
0
  0
LINE
  8
0
 62
7
 10
3.35
 20
2.900000000000003
 30
0
 11
3.3455
 21
2.895000000000003
 31
0
  0
LINE
  8
0
 62
7
 10
3.3455
 20
2.895000000000003
 30
0
 11
3.3365
 21
2.890000000000002
 31
0
  0
LINE
  8
0
 62
7
 10
3.3365
 20
2.890000000000002
 30
0
 11
3.296
 21
2.890000000000002
 31
0
  0
LINE
  8
0
 62
7
 10
3.296
 20
2.890000000000002
 30
0
 11
3.296
 21
2.940000000000003
 31
0
  0
LINE
  8
0
 62
7
 10
3.296
 20
2.990000000000002
 30
0
 11
3.32975
 21
2.990000000000002
 31
0
  0
LINE
  8
0
 62
7
 10
3.32975
 20
2.990000000000002
 30
0
 11
3.341000000000001
 21
2.987500000000002
 31
0
  0
LINE
  8
0
 62
7
 10
3.341000000000001
 20
2.987500000000002
 30
0
 11
3.34775
 21
2.980000000000002
 31
0
  0
LINE
  8
0
 62
7
 10
3.34775
 20
2.980000000000002
 30
0
 11
3.35
 21
2.970000000000002
 31
0
  0
LINE
  8
0
 62
7
 10
3.35
 20
2.970000000000002
 30
0
 11
3.35
 21
2.960000000000003
 31
0
  0
LINE
  8
0
 62
7
 10
3.35
 20
2.960000000000003
 30
0
 11
3.3455
 21
2.950000000000003
 31
0
  0
LINE
  8
0
 62
7
 10
3.3455
 20
2.950000000000003
 30
0
 11
3.338750000000001
 21
2.942500000000003
 31
0
  0
LINE
  8
0
 62
7
 10
3.338750000000001
 20
2.942500000000003
 30
0
 11
3.332
 21
2.940000000000003
 31
0
  0
LINE
  8
0
 62
7
 10
3.296
 20
2.940000000000003
 30
0
 11
3.296
 21
2.990000000000002
 31
0
  0
LINE
  8
0
 62
7
 10
3.49625
 20
2.942500000000003
 30
0
 11
3.4895
 21
2.952500000000002
 31
0
  0
LINE
  8
0
 62
7
 10
3.4895
 20
2.952500000000002
 30
0
 11
3.48275
 21
2.957500000000003
 31
0
  0
LINE
  8
0
 62
7
 10
3.48275
 20
2.957500000000003
 30
0
 11
3.476
 21
2.960000000000003
 31
0
  0
LINE
  8
0
 62
7
 10
3.476
 20
2.960000000000003
 30
0
 11
3.467000000000001
 21
2.960000000000003
 31
0
  0
LINE
  8
0
 62
7
 10
3.467000000000001
 20
2.960000000000003
 30
0
 11
3.46025
 21
2.957500000000003
 31
0
  0
LINE
  8
0
 62
7
 10
3.46025
 20
2.957500000000003
 30
0
 11
3.4535
 21
2.952500000000002
 31
0
  0
LINE
  8
0
 62
7
 10
3.4535
 20
2.952500000000002
 30
0
 11
3.44675
 21
2.942500000000003
 31
0
  0
LINE
  8
0
 62
7
 10
3.44675
 20
2.942500000000003
 30
0
 11
3.4445
 21
2.935000000000002
 31
0
  0
LINE
  8
0
 62
7
 10
3.4445
 20
2.935000000000002
 30
0
 11
3.4445
 21
2.915000000000003
 31
0
  0
LINE
  8
0
 62
7
 10
3.4445
 20
2.915000000000003
 30
0
 11
3.44675
 21
2.907500000000002
 31
0
  0
LINE
  8
0
 62
7
 10
3.44675
 20
2.907500000000002
 30
0
 11
3.4535
 21
2.897500000000003
 31
0
  0
LINE
  8
0
 62
7
 10
3.4535
 20
2.897500000000003
 30
0
 11
3.46025
 21
2.892500000000002
 31
0
  0
LINE
  8
0
 62
7
 10
3.46025
 20
2.892500000000002
 30
0
 11
3.467000000000001
 21
2.890000000000002
 31
0
  0
LINE
  8
0
 62
7
 10
3.467000000000001
 20
2.890000000000002
 30
0
 11
3.476
 21
2.890000000000002
 31
0
  0
LINE
  8
0
 62
7
 10
3.476
 20
2.890000000000002
 30
0
 11
3.48275
 21
2.892500000000002
 31
0
  0
LINE
  8
0
 62
7
 10
3.48275
 20
2.892500000000002
 30
0
 11
3.4895
 21
2.897500000000003
 31
0
  0
LINE
  8
0
 62
7
 10
3.4895
 20
2.897500000000003
 30
0
 11
3.49625
 21
2.907500000000002
 31
0
  0
LINE
  8
0
 62
7
 10
3.56825
 20
2.935000000000002
 30
0
 11
3.566000000000001
 21
2.942500000000003
 31
0
  0
LINE
  8
0
 62
7
 10
3.566000000000001
 20
2.942500000000003
 30
0
 11
3.55925
 21
2.952500000000002
 31
0
  0
LINE
  8
0
 62
7
 10
3.55925
 20
2.952500000000002
 30
0
 11
3.5525
 21
2.957500000000003
 31
0
  0
LINE
  8
0
 62
7
 10
3.5525
 20
2.957500000000003
 30
0
 11
3.54575
 21
2.960000000000003
 31
0
  0
LINE
  8
0
 62
7
 10
3.54575
 20
2.960000000000003
 30
0
 11
3.53675
 21
2.960000000000003
 31
0
  0
LINE
  8
0
 62
7
 10
3.53675
 20
2.960000000000003
 30
0
 11
3.530000000000001
 21
2.957500000000003
 31
0
  0
LINE
  8
0
 62
7
 10
3.530000000000001
 20
2.957500000000003
 30
0
 11
3.52325
 21
2.952500000000002
 31
0
  0
LINE
  8
0
 62
7
 10
3.52325
 20
2.952500000000002
 30
0
 11
3.5165
 21
2.942500000000003
 31
0
  0
LINE
  8
0
 62
7
 10
3.5165
 20
2.942500000000003
 30
0
 11
3.51425
 21
2.935000000000002
 31
0
  0
LINE
  8
0
 62
7
 10
3.51425
 20
2.935000000000002
 30
0
 11
3.51425
 21
2.915000000000003
 31
0
  0
LINE
  8
0
 62
7
 10
3.51425
 20
2.915000000000003
 30
0
 11
3.5165
 21
2.907500000000002
 31
0
  0
LINE
  8
0
 62
7
 10
3.5165
 20
2.907500000000002
 30
0
 11
3.52325
 21
2.897500000000003
 31
0
  0
LINE
  8
0
 62
7
 10
3.52325
 20
2.897500000000003
 30
0
 11
3.530000000000001
 21
2.892500000000002
 31
0
  0
LINE
  8
0
 62
7
 10
3.530000000000001
 20
2.892500000000002
 30
0
 11
3.53675
 21
2.890000000000002
 31
0
  0
LINE
  8
0
 62
7
 10
3.53675
 20
2.890000000000002
 30
0
 11
3.54575
 21
2.890000000000002
 31
0
  0
LINE
  8
0
 62
7
 10
3.54575
 20
2.890000000000002
 30
0
 11
3.5525
 21
2.892500000000002
 31
0
  0
LINE
  8
0
 62
7
 10
3.5525
 20
2.892500000000002
 30
0
 11
3.55925
 21
2.897500000000003
 31
0
  0
LINE
  8
0
 62
7
 10
3.55925
 20
2.897500000000003
 30
0
 11
3.566000000000001
 21
2.907500000000002
 31
0
  0
LINE
  8
0
 62
7
 10
3.566000000000001
 20
2.907500000000002
 30
0
 11
3.56825
 21
2.915000000000003
 31
0
  0
LINE
  8
0
 62
7
 10
3.56825
 20
2.960000000000003
 30
0
 11
3.56825
 21
2.935000000000002
 31
0
  0
LINE
  8
0
 62
7
 10
3.56825
 20
2.892500000000002
 30
0
 11
3.5705
 21
2.890000000000002
 31
0
  0
LINE
  8
0
 62
7
 10
3.5705
 20
2.890000000000002
 30
0
 11
3.57275
 21
2.890000000000002
 31
0
  0
LINE
  8
0
 62
7
 10
3.56825
 20
2.915000000000003
 30
0
 11
3.56825
 21
2.892500000000002
 31
0
  0
LINE
  8
0
 62
7
 10
3.56825
 20
2.935000000000002
 30
0
 11
3.56825
 21
2.915000000000003
 31
0
  0
LINE
  8
0
 62
7
 10
3.59075
 20
2.890000000000002
 30
0
 11
3.59075
 21
2.892500000000002
 31
0
  0
LINE
  8
0
 62
7
 10
3.59075
 20
2.892500000000002
 30
0
 11
3.593
 21
2.892500000000002
 31
0
  0
LINE
  8
0
 62
7
 10
3.593
 20
2.892500000000002
 30
0
 11
3.593
 21
2.890000000000002
 31
0
  0
LINE
  8
0
 62
7
 10
3.593
 20
2.890000000000002
 30
0
 11
3.59075
 21
2.890000000000002
 31
0
  0
LINE
  8
0
 62
7
 10
3.716750000000001
 20
2.990000000000002
 30
0
 11
3.72575
 21
2.990000000000002
 31
0
  0
LINE
  8
0
 62
7
 10
3.72575
 20
2.990000000000002
 30
0
 11
3.7325
 21
2.987500000000002
 31
0
  0
LINE
  8
0
 62
7
 10
3.7325
 20
2.987500000000002
 30
0
 11
3.737
 21
2.982500000000003
 31
0
  0
LINE
  8
0
 62
7
 10
3.737
 20
2.982500000000003
 30
0
 11
3.7415
 21
2.975000000000003
 31
0
  0
LINE
  8
0
 62
7
 10
3.7415
 20
2.975000000000003
 30
0
 11
3.7415
 21
2.965000000000003
 31
0
  0
LINE
  8
0
 62
7
 10
3.7415
 20
2.965000000000003
 30
0
 11
3.73925
 21
2.960000000000003
 31
0
  0
LINE
  8
0
 62
7
 10
3.73925
 20
2.960000000000003
 30
0
 11
3.7325
 21
2.952500000000002
 31
0
  0
LINE
  8
0
 62
7
 10
3.7325
 20
2.952500000000002
 30
0
 11
3.72575
 21
2.950000000000003
 31
0
  0
LINE
  8
0
 62
7
 10
3.72575
 20
2.950000000000003
 30
0
 11
3.716750000000001
 21
2.950000000000003
 31
0
  0
LINE
  8
0
 62
7
 10
3.716750000000001
 20
2.950000000000003
 30
0
 11
3.71
 21
2.952500000000002
 31
0
  0
LINE
  8
0
 62
7
 10
3.71
 20
2.952500000000002
 30
0
 11
3.70325
 21
2.960000000000003
 31
0
  0
LINE
  8
0
 62
7
 10
3.70325
 20
2.960000000000003
 30
0
 11
3.701
 21
2.965000000000003
 31
0
  0
LINE
  8
0
 62
7
 10
3.701
 20
2.965000000000003
 30
0
 11
3.701
 21
2.975000000000003
 31
0
  0
LINE
  8
0
 62
7
 10
3.701
 20
2.975000000000003
 30
0
 11
3.7055
 21
2.982500000000003
 31
0
  0
LINE
  8
0
 62
7
 10
3.7055
 20
2.982500000000003
 30
0
 11
3.71
 21
2.987500000000002
 31
0
  0
LINE
  8
0
 62
7
 10
3.71
 20
2.987500000000002
 30
0
 11
3.716750000000001
 21
2.990000000000002
 31
0
  0
LINE
  8
0
 62
7
 10
3.716750000000001
 20
2.950000000000003
 30
0
 11
3.7055
 21
2.945000000000003
 31
0
  0
LINE
  8
0
 62
7
 10
3.7055
 20
2.945000000000003
 30
0
 11
3.69875
 21
2.937500000000003
 31
0
  0
LINE
  8
0
 62
7
 10
3.69875
 20
2.937500000000003
 30
0
 11
3.69425
 21
2.927500000000002
 31
0
  0
LINE
  8
0
 62
7
 10
3.69425
 20
2.927500000000002
 30
0
 11
3.69425
 21
2.912500000000003
 31
0
  0
LINE
  8
0
 62
7
 10
3.69425
 20
2.912500000000003
 30
0
 11
3.69875
 21
2.902500000000003
 31
0
  0
LINE
  8
0
 62
7
 10
3.69875
 20
2.902500000000003
 30
0
 11
3.7055
 21
2.895000000000003
 31
0
  0
LINE
  8
0
 62
7
 10
3.7055
 20
2.895000000000003
 30
0
 11
3.714500000000001
 21
2.890000000000002
 31
0
  0
LINE
  8
0
 62
7
 10
3.714500000000001
 20
2.890000000000002
 30
0
 11
3.728
 21
2.890000000000002
 31
0
  0
LINE
  8
0
 62
7
 10
3.728
 20
2.890000000000002
 30
0
 11
3.737
 21
2.895000000000003
 31
0
  0
LINE
  8
0
 62
7
 10
3.737
 20
2.895000000000003
 30
0
 11
3.74375
 21
2.902500000000003
 31
0
  0
LINE
  8
0
 62
7
 10
3.74375
 20
2.902500000000003
 30
0
 11
3.748250000000001
 21
2.912500000000003
 31
0
  0
LINE
  8
0
 62
7
 10
3.748250000000001
 20
2.912500000000003
 30
0
 11
3.748250000000001
 21
2.927500000000002
 31
0
  0
LINE
  8
0
 62
7
 10
3.748250000000001
 20
2.927500000000002
 30
0
 11
3.74375
 21
2.937500000000003
 31
0
  0
LINE
  8
0
 62
7
 10
3.74375
 20
2.937500000000003
 30
0
 11
3.737
 21
2.945000000000003
 31
0
  0
LINE
  8
0
 62
7
 10
3.737
 20
2.945000000000003
 30
0
 11
3.72575
 21
2.950000000000003
 31
0
  0
LINE
  8
0
 62
7
 10
3.83375
 20
2.990000000000002
 30
0
 11
3.78425
 21
2.990000000000002
 31
0
  0
LINE
  8
0
 62
7
 10
3.78425
 20
2.990000000000002
 30
0
 11
3.78425
 21
2.940000000000003
 31
0
  0
LINE
  8
0
 62
7
 10
3.78425
 20
2.940000000000003
 30
0
 11
3.78875
 21
2.947500000000002
 31
0
  0
LINE
  8
0
 62
7
 10
3.78875
 20
2.947500000000002
 30
0
 11
3.7955
 21
2.952500000000002
 31
0
  0
LINE
  8
0
 62
7
 10
3.7955
 20
2.952500000000002
 30
0
 11
3.8045
 21
2.955000000000002
 31
0
  0
LINE
  8
0
 62
7
 10
3.8045
 20
2.955000000000002
 30
0
 11
3.818
 21
2.955000000000002
 31
0
  0
LINE
  8
0
 62
7
 10
3.818
 20
2.955000000000002
 30
0
 11
3.82475
 21
2.952500000000002
 31
0
  0
LINE
  8
0
 62
7
 10
3.82475
 20
2.952500000000002
 30
0
 11
3.8315
 21
2.947500000000002
 31
0
  0
LINE
  8
0
 62
7
 10
3.8315
 20
2.947500000000002
 30
0
 11
3.836
 21
2.940000000000003
 31
0
  0
LINE
  8
0
 62
7
 10
3.836
 20
2.940000000000003
 30
0
 11
3.83825
 21
2.930000000000002
 31
0
  0
LINE
  8
0
 62
7
 10
3.83825
 20
2.930000000000002
 30
0
 11
3.83825
 21
2.915000000000003
 31
0
  0
LINE
  8
0
 62
7
 10
3.83825
 20
2.915000000000003
 30
0
 11
3.836
 21
2.905000000000002
 31
0
  0
LINE
  8
0
 62
7
 10
3.836
 20
2.905000000000002
 30
0
 11
3.8315
 21
2.897500000000003
 31
0
  0
LINE
  8
0
 62
7
 10
3.8315
 20
2.897500000000003
 30
0
 11
3.82475
 21
2.892500000000002
 31
0
  0
LINE
  8
0
 62
7
 10
3.82475
 20
2.892500000000002
 30
0
 11
3.818
 21
2.890000000000002
 31
0
  0
LINE
  8
0
 62
7
 10
3.818
 20
2.890000000000002
 30
0
 11
3.8045
 21
2.890000000000002
 31
0
  0
LINE
  8
0
 62
7
 10
3.8045
 20
2.890000000000002
 30
0
 11
3.7955
 21
2.892500000000002
 31
0
  0
LINE
  8
0
 62
7
 10
3.7955
 20
2.892500000000002
 30
0
 11
3.78875
 21
2.897500000000003
 31
0
  0
LINE
  8
0
 62
7
 10
3.78875
 20
2.897500000000003
 30
0
 11
3.78425
 21
2.905000000000002
 31
0
  0
LINE
  8
0
 62
7
 10
3.989
 20
2.942500000000003
 30
0
 11
3.98225
 21
2.952500000000002
 31
0
  0
LINE
  8
0
 62
7
 10
3.98225
 20
2.952500000000002
 30
0
 11
3.9755
 21
2.957500000000003
 31
0
  0
LINE
  8
0
 62
7
 10
3.9755
 20
2.957500000000003
 30
0
 11
3.96875
 21
2.960000000000003
 31
0
  0
LINE
  8
0
 62
7
 10
3.96875
 20
2.960000000000003
 30
0
 11
3.959750000000001
 21
2.960000000000003
 31
0
  0
LINE
  8
0
 62
7
 10
3.959750000000001
 20
2.960000000000003
 30
0
 11
3.953
 21
2.957500000000003
 31
0
  0
LINE
  8
0
 62
7
 10
3.953
 20
2.957500000000003
 30
0
 11
3.94625
 21
2.952500000000002
 31
0
  0
LINE
  8
0
 62
7
 10
3.94625
 20
2.952500000000002
 30
0
 11
3.939500000000001
 21
2.942500000000003
 31
0
  0
LINE
  8
0
 62
7
 10
3.939500000000001
 20
2.942500000000003
 30
0
 11
3.937250000000001
 21
2.935000000000002
 31
0
  0
LINE
  8
0
 62
7
 10
3.937250000000001
 20
2.935000000000002
 30
0
 11
3.937250000000001
 21
2.915000000000003
 31
0
  0
LINE
  8
0
 62
7
 10
3.937250000000001
 20
2.915000000000003
 30
0
 11
3.939500000000001
 21
2.907500000000002
 31
0
  0
LINE
  8
0
 62
7
 10
3.939500000000001
 20
2.907500000000002
 30
0
 11
3.94625
 21
2.897500000000003
 31
0
  0
LINE
  8
0
 62
7
 10
3.94625
 20
2.897500000000003
 30
0
 11
3.953
 21
2.892500000000002
 31
0
  0
LINE
  8
0
 62
7
 10
3.953
 20
2.892500000000002
 30
0
 11
3.959750000000001
 21
2.890000000000002
 31
0
  0
LINE
  8
0
 62
7
 10
3.959750000000001
 20
2.890000000000002
 30
0
 11
3.96875
 21
2.890000000000002
 31
0
  0
LINE
  8
0
 62
7
 10
3.96875
 20
2.890000000000002
 30
0
 11
3.9755
 21
2.892500000000002
 31
0
  0
LINE
  8
0
 62
7
 10
3.9755
 20
2.892500000000002
 30
0
 11
3.98225
 21
2.897500000000003
 31
0
  0
LINE
  8
0
 62
7
 10
3.98225
 20
2.897500000000003
 30
0
 11
3.989
 21
2.907500000000002
 31
0
  0
LINE
  8
0
 62
7
 10
4.0475
 20
2.935000000000002
 30
0
 11
4.0475
 21
2.890000000000002
 31
0
  0
LINE
  8
0
 62
7
 10
4.007000000000001
 20
2.960000000000003
 30
0
 11
4.007000000000001
 21
2.935000000000002
 31
0
  0
LINE
  8
0
 62
7
 10
4.007000000000001
 20
2.890000000000002
 30
0
 11
4.007000000000001
 21
2.935000000000002
 31
0
  0
LINE
  8
0
 62
7
 10
4.007000000000001
 20
2.935000000000002
 30
0
 11
4.009250000000001
 21
2.947500000000002
 31
0
  0
LINE
  8
0
 62
7
 10
4.009250000000001
 20
2.947500000000002
 30
0
 11
4.011500000000001
 21
2.952500000000002
 31
0
  0
LINE
  8
0
 62
7
 10
4.011500000000001
 20
2.952500000000002
 30
0
 11
4.016000000000001
 21
2.957500000000003
 31
0
  0
LINE
  8
0
 62
7
 10
4.016000000000001
 20
2.957500000000003
 30
0
 11
4.02275
 21
2.960000000000003
 31
0
  0
LINE
  8
0
 62
7
 10
4.02275
 20
2.960000000000003
 30
0
 11
4.031750000000001
 21
2.960000000000003
 31
0
  0
LINE
  8
0
 62
7
 10
4.031750000000001
 20
2.960000000000003
 30
0
 11
4.0385
 21
2.957500000000003
 31
0
  0
LINE
  8
0
 62
7
 10
4.0385
 20
2.957500000000003
 30
0
 11
4.043
 21
2.952500000000002
 31
0
  0
LINE
  8
0
 62
7
 10
4.043
 20
2.952500000000002
 30
0
 11
4.04525
 21
2.947500000000002
 31
0
  0
LINE
  8
0
 62
7
 10
4.04525
 20
2.947500000000002
 30
0
 11
4.0475
 21
2.935000000000002
 31
0
  0
LINE
  8
0
 62
7
 10
4.0475
 20
2.935000000000002
 30
0
 11
4.04975
 21
2.947500000000002
 31
0
  0
LINE
  8
0
 62
7
 10
4.04975
 20
2.947500000000002
 30
0
 11
4.052
 21
2.952500000000002
 31
0
  0
LINE
  8
0
 62
7
 10
4.052
 20
2.952500000000002
 30
0
 11
4.0565
 21
2.957500000000003
 31
0
  0
LINE
  8
0
 62
7
 10
4.0565
 20
2.957500000000003
 30
0
 11
4.06325
 21
2.960000000000003
 31
0
  0
LINE
  8
0
 62
7
 10
4.06325
 20
2.960000000000003
 30
0
 11
4.07225
 21
2.960000000000003
 31
0
  0
LINE
  8
0
 62
7
 10
4.07225
 20
2.960000000000003
 30
0
 11
4.079
 21
2.957500000000003
 31
0
  0
LINE
  8
0
 62
7
 10
4.0835
 20
2.952500000000002
 30
0
 11
4.079
 21
2.957500000000003
 31
0
  0
LINE
  8
0
 62
7
 10
4.079
 20
2.957500000000003
 30
0
 11
4.0835
 21
2.952500000000002
 31
0
  0
LINE
  8
0
 62
7
 10
4.0835
 20
2.952500000000002
 30
0
 11
4.08575
 21
2.947500000000002
 31
0
  0
LINE
  8
0
 62
7
 10
4.08575
 20
2.947500000000002
 30
0
 11
4.088
 21
2.935000000000002
 31
0
  0
LINE
  8
0
 62
7
 10
4.088
 20
2.935000000000002
 30
0
 11
4.088
 21
2.890000000000002
 31
0
  0
ARC
  8
0
 62
7
 10
2.239889046176482
 20
3.535110953823532
 30
0
 40
0.5179999999999972
 50
89.98772743898324
 51
180.0122725606616
  0
ARC
  8
0
 62
7
 10
3.195110953823532
 20
3.535110953823522
 30
0
 40
0.5180000000000015
 50
359.9877274379437
 51
90.01227256066147
  0
CIRCLE
  8
0
 62
7
 10
3.713110941940564
 20
3.250000000000002
 30
0
 40
0.06000000000000005
  0
DIMENSION
  8
0
  6
CONTINUOUS
 62
7
  2
*D1
  3
DMST_1
 10
4.160000000000004
 20
11.4612161637711
 30
0
 11
2.73571784661898
 21
11.4612161637711
 31
0
 12
0
 22
0
 32
0
 70
0
 13
1.275000000000004
 23
11.2
 33
0
 14
4.160000000000004
 24
11.2
 34
0
 53
0
  0
DIMENSION
  8
0
  6
CONTINUOUS
 62
7
  2
*D2
  3
DMST_2
 10
4.74533090146483
 20
4.500000000000003
 30
0
 11
4.74533090146483
 21
3.91064688255834
 31
0
 12
0
 22
0
 32
0
 70
0
 13
4.335000000000004
 23
3.250000000000001
 33
0
 14
4.335000000000004
 24
4.500000000000003
 34
0
 50
90
 53
0
  0
DIMENSION
  8
0
  6
CONTINUOUS
 62
7
  2
*D3
  3
DMST_2
 10
1.275000000000004
 20
5.36267943663771
 30
0
 11
2.67763654445581
 21
5.36267943663771
 31
0
 12
0
 22
0
 32
0
 70
0
 13
4.160000000000004
 23
5.019999999999999
 33
0
 14
1.275000000000004
 24
5.019999999999999
 34
0
 53
0
  0
DIMENSION
  8
0
  6
CONTINUOUS
 62
7
  2
*D4
  3
DMST_2
 10
0.702872270907861
 20
4.500000000000002
 30
0
 11
0.702872270907861
 21
3.94549566385624
 31
0
 12
0
 22
0
 32
0
 70
0
 13
1.100000000000004
 23
3.350000000000001
 33
0
 14
1.100000000000004
 24
4.500000000000003
 34
0
 50
90
 53
0
  0
INSERT
  8
0
  2
*D0
 10
0
 20
0
 30
0
  0
ENDSEC
  0
EOF
