  0
SECTION
  2
HEADER
  9
$ACADVER
  1
AC1009
  9
$INSBASE
 10
0
 20
0
  9
$EXTMIN
 10
0.45
 20
2.890000000000002
  9
$EXTMAX
 10
8.21573320771593
 20
11.5148365155
  9
$LIMMIN
 10
0.45
 20
2.890000000000002
  9
$LIMMAX
 10
8.21573320771593
 20
11.5148365155
  9
$VIEWCTR
 10
10
 20
10
  9
$VIEWSIZE
 40
10
  9
$SNAPMODE
 70
0
  9
$SNAPUNIT
 10
1
 20
1
  9
$SNAPBASE
 10
0
 20
0
  9
$SNAPANG
 50
0
  9
$SNAPSTYLE
 70
0
  9
$SNAPISOPAIR
 70
0
  9
$GRIDMODE
 70
0
  9
$GRIDUNIT
 10
0
 20
0
  9
$ORTHOMODE
 70
0
  9
$REGENMODE
 70
1
  9
$FILLMODE
 70
1
  9
$QTEXTMODE
 70
0
  9
$DRAGMODE
 70
2
  9
$LTSCALE
 40
1
  9
$OSMODE
 70
0
  9
$ATTMODE
 70
1
  9
$TEXTSIZE
 40
3.5
  9
$TRACEWID
 40
0.5
  9
$TEXTSTYLE
  7
STANDARD
  9
$CLAYER
  8
0
  9
$CELTYPE
  6
BYLAYER
  9
$CECOLOR
 62
256
  9
$DIMSCALE
 40
1
  9
$DIMASZ
 40
0.18
  9
$DIMEXO
 40
0.0625
  9
$DIMDLI
 40
0.38
  9
$DIMRND
 40
0
  9
$DIMDLE
 40
0
  9
$DIMEXE
 40
0.18
  9
$DIMTP
 40
0
  9
$DIMTM
 40
0
  9
$DIMTXT
 40
0.18
  9
$DIMCEN
 40
0.09
  9
$DIMTSZ
 40
0
  9
$DIMTOL
 70
0
  9
$DIMLIM
 70
0
  9
$DIMTIH
 70
1
  9
$DIMTOH
 70
1
  9
$DIMSE1
 70
0
  9
$DIMSE2
 70
0
  9
$DIMTAD
 70
0
  9
$DIMZIN
 70
0
  9
$DIMBLK
  1

  9
$DIMASO
 70
1
  9
$DIMSHO
 70
1
  9
$DIMPOST
  1

  9
$DIMAPOST
  1

  9
$DIMALT
 70
0
  9
$DIMALTD
 70
2
  9
$DIMALTF
 40
25.4
  9
$DIMLFAC
 40
1
  9
$DIMTOFL
 70
0
  9
$DIMTVP
 40
0
  9
$DIMTIX
 70
0
  9
$DIMSOXD
 70
0
  9
$DIMSAH
 70
0
  9
$DIMBLK1
  1

  9
$DIMBLK2
  1

  9
$DIMSTYLE
  2
*UNNAMED
  9
$DIMCLRD
 70
0
  9
$DIMCLRE
 70
0
  9
$DIMCLRT
 70
0
  9
$DIMTFAC
 40
1
  9
$DIMGAP
 40
0.09
  9
$LUNITS
 70
2
  9
$LUPREC
 70
4
  9
$AXISMODE
 70
0
  9
$AXISUNIT
 10
0
 20
0
  9
$SKETCHINC
 40
0.1
  9
$FILLETRAD
 40
2
  9
$AUNITS
 70
0
  9
$AUPREC
 70
0
  9
$MENU
  1
ACAD
  9
$ELEVATION
 40
0
  9
$THICKNESS
 40
0
  9
$VIEWDIR
 10
0
 20
0
 30
1
  9
$LIMCHECK
 70
0
  9
$BLIPMODE
 70
1
  9
$CHAMFERA
 40
0
  9
$CHAMFERB
 40
0
  9
$FASTZOOM
 70
1
  9
$SKPOLY
 70
0
  9
$ANGBASE
 50
0
  9
$ANGDIR
 70
0
  9
$PDMODE
 70
0
  9
$PDSIZE
 40
0
  9
$PLINEWID
 40
0
  9
$COORDS
 70
2
  0
ENDSEC
  0
SECTION
  2
TABLES
  0
TABLE
  2
DIMSTYLE
 70
2
  0
DIMSTYLE
  2
DMST_1
 70
0
  3

  4

  5

  6

  7

 40
1
 41
0.1
 42
0
 43
0.7
 44
0.2
 45
0
 46
0
 47
0
 48
0
140
0.1
141
0
142
0.1
143
25.4
144
1
145
0
146
1
147
0.2
 71
0
 72
0
 73
0
 74
0
 75
0
 76
0
 77
0
 78
9
170
0
171
2
172
0
173
0
174
0
175
0
176
7
177
7
178
7
  0
DIMSTYLE
  2
DMST_2
 70
0
  3

  4

  5

  6

  7

 40
1
 41
0.1
 42
0
 43
0.7
 44
0.2
 45
0
 46
0
 47
0
 48
0
140
0.1
141
0
142
0.1
143
25.4
144
1
145
0
146
1
147
0.25
 71
0
 72
0
 73
0
 74
0
 75
0
 76
0
 77
0
 78
9
170
0
171
2
172
0
173
0
174
0
175
0
176
7
177
7
178
7
  0
ENDTAB
  0
TABLE
  2
LTYPE
 70
9
  0
LTYPE
  2
CONTINUOUS
 70
64
  3
Solid line
 72
65
 73
0
 40
0
  0
LTYPE
  2
BORDER
 70
64
  3
__ __ . __ __ .
 72
65
 73
6
 40
0.3971964184769736
 49
0.113484690993421
 49
-0.05674234549671051
 49
0.113484690993421
 49
-0.05674234549671051
 49
0
 49
-0.05674234549671051
  0
LTYPE
  2
CENTER
 70
64
  3
____ _ ____ _
 72
65
 73
4
 40
0.4539387639736841
 49
0.2837117274835526
 49
-0.05674234549671051
 49
0.05674234549671051
 49
-0.05674234549671051
  0
LTYPE
  2
DASHDOT
 70
64
  3
__ . __ . __ .
 72
65
 73
4
 40
0.2269693819868421
 49
0.113484690993421
 49
-0.05674234549671051
 49
0
 49
-0.05674234549671051
  0
LTYPE
  2
DASHED
 70
64
  3
__ __ __ __ __
 72
65
 73
2
 40
0.1702270364901315
 49
0.113484690993421
 49
-0.05674234549671051
  0
LTYPE
  2
DIVIDE
 70
64
  3
__ . . __ . . 
 72
65
 73
6
 40
0.2837117274835526
 49
0.113484690993421
 49
-0.05674234549671051
 49
0
 49
-0.05674234549671051
 49
0
 49
-0.05674234549671051
  0
LTYPE
  2
DOT
 70
64
  3
..............
 72
65
 73
4
 40
0.113484690993421
 49
0
 49
-0.05674234549671051
 49
0
 49
-0.05674234549671051
  0
LTYPE
  2
HIDDEN
 70
64
  3
_ _ _ _ _ _ _
 72
65
 73
2
 40
0.08511351824506577
 49
0.05674234549671051
 49
-0.02837117274835526
  0
LTYPE
  2
PHANTOM
 70
64
  3
_____ _ _ _____ _ _ 
 72
65
 73
6
 40
0.5674234549671051
 49
0.2837117274835526
 49
-0.05674234549671051
 49
0.05674234549671051
 49
-0.05674234549671051
 49
0.05674234549671051
 49
-0.05674234549671051
  0
ENDTAB
  0
TABLE
  2
LAYER
 70
2
  0
LAYER
  2
0
 70
0
 62
7
  6
CONTINUOUS
  0
ENDTAB
  0
TABLE
  2
STYLE
 70
4
  0
STYLE
  2
STANDARD
 70
0
 40
0
 41
1
 50
0
 71
0
 42
3.5
  3
txt
  4

  0
STYLE
  2
SIMPLEX
 70
0
 40
0
 41
1
 50
0
 71
0
 42
3.5
  3
simplex
  4

  0
STYLE
  2
COMPLEX
 70
0
 40
0
 41
1
 50
0
 71
0
 42
3.5
  3
complex
  4

  0
STYLE
  2
ITALIC
 70
0
 40
0
 41
1
 50
0
 71
0
 42
3.5
  3
italic
  4

  0
ENDTAB
  0
TABLE
  2
VIEW
 70
0
  0
ENDTAB
  0
ENDSEC
  0
SECTION
  2
BLOCKS
  0
BLOCK
  8
0
  2
*X0
 70
1
 10
0
 20
0
 30
0
  0
LINE
  8
0
 62
7
 10
7.425000000000013
 20
7.955330085889922
 30
0
 11
7.56966991411009
 21
8.1
 31
0
  0
LINE
  8
0
 62
7
 10
7.425000000000011
 20
8.061396103067903
 30
0
 11
7.463603896932107
 21
8.099999999999998
 31
0
  0
LINE
  8
0
 62
7
 10
7.525735931288073
 20
7.95
 30
0
 11
7.600000000000011
 21
8.024264068711938
 31
0
  0
ENDBLK
  8
0
  0
BLOCK
  8
0
  2
*X1
 70
1
 10
0
 20
0
 30
0
  0
LINE
  8
0
 62
7
 10
7.425000000000011
 20
10.71304653251745
 30
0
 11
7.561953467482555
 21
10.85
 31
0
  0
LINE
  8
0
 62
7
 10
7.425000000000011
 20
10.50091449816149
 30
0
 11
7.600000000000012
 21
10.67591449816149
 31
0
  0
LINE
  8
0
 62
7
 10
7.425000000000011
 20
10.28878246380552
 30
0
 11
7.600000000000012
 21
10.46378246380552
 31
0
  0
LINE
  8
0
 62
7
 10
7.425000000000011
 20
10.07665042944956
 30
0
 11
7.600000000000012
 21
10.25165042944956
 31
0
  0
LINE
  8
0
 62
7
 10
7.425000000000011
 20
9.864518395093597
 30
0
 11
7.600000000000012
 21
10.0395183950936
 31
0
  0
LINE
  8
0
 62
7
 10
7.425000000000011
 20
9.652386360737633
 30
0
 11
7.600000000000012
 21
9.827386360737632
 31
0
  0
LINE
  8
0
 62
7
 10
7.425000000000011
 20
9.44025432638167
 30
0
 11
7.600000000000012
 21
9.615254326381669
 31
0
  0
LINE
  8
0
 62
7
 10
7.425000000000011
 20
9.228122292025706
 30
0
 11
7.600000000000012
 21
9.403122292025705
 31
0
  0
LINE
  8
0
 62
7
 10
7.425000000000011
 20
9.015990257669742
 30
0
 11
7.600000000000012
 21
9.190990257669741
 31
0
  0
LINE
  8
0
 62
7
 10
7.425000000000011
 20
8.803858223313778
 30
0
 11
7.600000000000012
 21
8.978858223313777
 31
0
  0
LINE
  8
0
 62
7
 10
7.425000000000011
 20
8.591726188957814
 30
0
 11
7.600000000000012
 21
8.766726188957813
 31
0
  0
LINE
  8
0
 62
7
 10
7.425000000000011
 20
8.37959415460185
 30
0
 11
7.600000000000012
 21
8.554594154601849
 31
0
  0
LINE
  8
0
 62
7
 10
7.557537879754127
 20
8.300000000000001
 30
0
 11
7.600000000000012
 21
8.342462120245886
 31
0
  0
LINE
  8
0
 62
7
 10
7.425000000000011
 20
10.81911254969543
 30
0
 11
7.455887450304573
 21
10.85
 31
0
  0
LINE
  8
0
 62
7
 10
7.425000000000011
 20
10.60698051533947
 30
0
 11
7.600000000000011
 21
10.78198051533947
 31
0
  0
LINE
  8
0
 62
7
 10
7.425000000000011
 20
10.39484848098351
 30
0
 11
7.600000000000011
 21
10.5698484809835
 31
0
  0
LINE
  8
0
 62
7
 10
7.425000000000011
 20
10.18271644662754
 30
0
 11
7.600000000000011
 21
10.35771644662754
 31
0
  0
LINE
  8
0
 62
7
 10
7.425000000000011
 20
9.970584412271577
 30
0
 11
7.600000000000011
 21
10.14558441227158
 31
0
  0
LINE
  8
0
 62
7
 10
7.425000000000011
 20
9.758452377915614
 30
0
 11
7.600000000000011
 21
9.933452377915613
 31
0
  0
LINE
  8
0
 62
7
 10
7.425000000000011
 20
9.54632034355965
 30
0
 11
7.600000000000011
 21
9.721320343559649
 31
0
  0
LINE
  8
0
 62
7
 10
7.425000000000011
 20
9.334188309203686
 30
0
 11
7.600000000000011
 21
9.509188309203685
 31
0
  0
LINE
  8
0
 62
7
 10
7.425000000000011
 20
9.122056274847722
 30
0
 11
7.600000000000011
 21
9.297056274847721
 31
0
  0
LINE
  8
0
 62
7
 10
7.425000000000011
 20
8.909924240491758
 30
0
 11
7.600000000000011
 21
9.084924240491757
 31
0
  0
LINE
  8
0
 62
7
 10
7.425000000000011
 20
8.697792206135794
 30
0
 11
7.600000000000011
 21
8.872792206135793
 31
0
  0
LINE
  8
0
 62
7
 10
7.425000000000011
 20
8.485660171779831
 30
0
 11
7.600000000000011
 21
8.660660171779829
 31
0
  0
LINE
  8
0
 62
7
 10
7.451471862576145
 20
8.300000000000001
 30
0
 11
7.600000000000011
 21
8.448528137423866
 31
0
  0
ENDBLK
  8
0
  0
BLOCK
  8
0
  2
*X2
 70
1
 10
0
 20
0
 30
0
  0
LINE
  8
0
 62
7
 10
7.425000000000012
 20
11.13731060122939
 30
0
 11
7.487689398770626
 21
11.2
 31
0
  0
LINE
  8
0
 62
7
 10
7.549821433126593
 20
11.05
 30
0
 11
7.600000000000011
 21
11.10017856687342
 31
0
  0
LINE
  8
0
 62
7
 10
7.44375541594861
 20
11.05
 30
0
 11
7.593755415948609
 21
11.2
 31
0
  0
ENDBLK
  8
0
  0
BLOCK
  8
0
  2
*X3
 70
1
 10
0
 20
0
 30
0
  0
LINE
  8
0
 62
7
 10
4.365000000000013
 20
8.077310601229385
 30
0
 11
4.387689398770626
 21
8.1
 31
0
  0
LINE
  8
0
 62
7
 10
4.449821433126591
 20
7.95
 30
0
 11
4.540000000000012
 21
8.040178566873422
 31
0
  0
LINE
  8
0
 62
7
 10
4.365000000000013
 20
7.971244584051404
 30
0
 11
4.493755415948608
 21
8.1
 31
0
  0
ENDBLK
  8
0
  0
BLOCK
  8
0
  2
*X4
 70
1
 10
0
 20
0
 30
0
  0
LINE
  8
0
 62
7
 10
4.365000000000011
 20
10.83502704785692
 30
0
 11
4.379972952143091
 21
10.85
 31
0
  0
LINE
  8
0
 62
7
 10
4.365000000000011
 20
10.62289501350095
 30
0
 11
4.540000000000012
 21
10.79789501350095
 31
0
  0
LINE
  8
0
 62
7
 10
4.365000000000011
 20
10.41076297914499
 30
0
 11
4.540000000000012
 21
10.58576297914499
 31
0
  0
LINE
  8
0
 62
7
 10
4.365000000000011
 20
10.19863094478902
 30
0
 11
4.540000000000012
 21
10.37363094478902
 31
0
  0
LINE
  8
0
 62
7
 10
4.365000000000011
 20
9.98649891043306
 30
0
 11
4.540000000000012
 21
10.16149891043306
 31
0
  0
LINE
  8
0
 62
7
 10
4.365000000000011
 20
9.774366876077096
 30
0
 11
4.540000000000012
 21
9.949366876077097
 31
0
  0
LINE
  8
0
 62
7
 10
4.365000000000011
 20
9.562234841721132
 30
0
 11
4.540000000000012
 21
9.737234841721133
 31
0
  0
LINE
  8
0
 62
7
 10
4.365000000000011
 20
9.350102807365168
 30
0
 11
4.540000000000012
 21
9.525102807365169
 31
0
  0
LINE
  8
0
 62
7
 10
4.365000000000011
 20
9.137970773009204
 30
0
 11
4.540000000000012
 21
9.312970773009205
 31
0
  0
LINE
  8
0
 62
7
 10
4.365000000000011
 20
8.925838738653241
 30
0
 11
4.540000000000012
 21
9.100838738653241
 31
0
  0
LINE
  8
0
 62
7
 10
4.365000000000011
 20
8.713706704297277
 30
0
 11
4.540000000000012
 21
8.888706704297277
 31
0
  0
LINE
  8
0
 62
7
 10
4.365000000000011
 20
8.501574669941313
 30
0
 11
4.540000000000012
 21
8.676574669941314
 31
0
  0
LINE
  8
0
 62
7
 10
4.375557364414662
 20
8.299999999999999
 30
0
 11
4.540000000000012
 21
8.46444263558535
 31
0
  0
LINE
  8
0
 62
7
 10
4.365000000000011
 20
10.72896103067893
 30
0
 11
4.486038969321073
 21
10.85
 31
0
  0
LINE
  8
0
 62
7
 10
4.365000000000011
 20
10.51682899632297
 30
0
 11
4.540000000000012
 21
10.69182899632297
 31
0
  0
LINE
  8
0
 62
7
 10
4.365000000000011
 20
10.30469696196701
 30
0
 11
4.540000000000012
 21
10.47969696196701
 31
0
  0
LINE
  8
0
 62
7
 10
4.365000000000011
 20
10.09256492761104
 30
0
 11
4.540000000000012
 21
10.26756492761104
 31
0
  0
LINE
  8
0
 62
7
 10
4.365000000000011
 20
9.880432893255078
 30
0
 11
4.540000000000012
 21
10.05543289325508
 31
0
  0
LINE
  8
0
 62
7
 10
4.365000000000011
 20
9.668300858899114
 30
0
 11
4.540000000000012
 21
9.843300858899115
 31
0
  0
LINE
  8
0
 62
7
 10
4.365000000000011
 20
9.45616882454315
 30
0
 11
4.540000000000012
 21
9.631168824543151
 31
0
  0
LINE
  8
0
 62
7
 10
4.365000000000011
 20
9.244036790187186
 30
0
 11
4.540000000000012
 21
9.419036790187187
 31
0
  0
LINE
  8
0
 62
7
 10
4.365000000000011
 20
9.031904755831222
 30
0
 11
4.540000000000012
 21
9.206904755831223
 31
0
  0
LINE
  8
0
 62
7
 10
4.365000000000011
 20
8.819772721475259
 30
0
 11
4.540000000000012
 21
8.994772721475259
 31
0
  0
LINE
  8
0
 62
7
 10
4.365000000000011
 20
8.607640687119295
 30
0
 11
4.540000000000012
 21
8.782640687119295
 31
0
  0
LINE
  8
0
 62
7
 10
4.365000000000011
 20
8.395508652763331
 30
0
 11
4.540000000000012
 21
8.570508652763332
 31
0
  0
LINE
  8
0
 62
7
 10
4.481623381592645
 20
8.300000000000001
 30
0
 11
4.540000000000012
 21
8.358376618407368
 31
0
  0
ENDBLK
  8
0
  0
BLOCK
  8
0
  2
*X5
 70
1
 10
0
 20
0
 30
0
  0
LINE
  8
0
 62
7
 10
4.367840917787128
 20
11.05
 30
0
 11
4.517840917787128
 21
11.2
 31
0
  0
LINE
  8
0
 62
7
 10
4.365000000000012
 20
11.15322509939087
 30
0
 11
4.411774900609145
 21
11.2
 31
0
  0
LINE
  8
0
 62
7
 10
4.473906934965109
 20
11.05
 30
0
 11
4.540000000000012
 21
11.1160930650349
 31
0
  0
ENDBLK
  8
0
  0
BLOCK
  8
0
  2
*X6
 70
1
 10
0
 20
0
 30
0
  0
LINE
  8
0
 62
7
  6
DASHED
 10
4.215000000000011
 20
8.139442635585349
 30
0
 11
4.375557364414669
 21
8.300000000000001
 31
0
  0
LINE
  8
0
 62
7
  6
DASHED
 10
4.387689398770631
 20
8.099999999999998
 30
0
 11
4.587689398770633
 21
8.300000000000001
 31
0
  0
LINE
  8
0
 62
7
  6
DASHED
 10
4.599821433126595
 20
8.099999999999998
 30
0
 11
4.799821433126596
 21
8.300000000000001
 31
0
  0
LINE
  8
0
 62
7
  6
DASHED
 10
4.811953467482558
 20
8.099999999999998
 30
0
 11
5.01195346748256
 21
8.300000000000001
 31
0
  0
LINE
  8
0
 62
7
  6
DASHED
 10
5.024085501838522
 20
8.099999999999998
 30
0
 11
5.224085501838524
 21
8.300000000000001
 31
0
  0
LINE
  8
0
 62
7
  6
DASHED
 10
5.236217536194486
 20
8.099999999999998
 30
0
 11
5.436217536194488
 21
8.300000000000001
 31
0
  0
LINE
  8
0
 62
7
  6
DASHED
 10
5.44834957055045
 20
8.099999999999998
 30
0
 11
5.648349570550452
 21
8.300000000000001
 31
0
  0
LINE
  8
0
 62
7
  6
DASHED
 10
5.660481604906414
 20
8.099999999999998
 30
0
 11
5.860481604906416
 21
8.300000000000001
 31
0
  0
LINE
  8
0
 62
7
  6
DASHED
 10
5.872613639262378
 20
8.099999999999998
 30
0
 11
6.07261363926238
 21
8.300000000000001
 31
0
  0
LINE
  8
0
 62
7
  6
DASHED
 10
6.084745673618341
 20
8.099999999999998
 30
0
 11
6.284745673618343
 21
8.300000000000001
 31
0
  0
LINE
  8
0
 62
7
  6
DASHED
 10
6.296877707974305
 20
8.099999999999998
 30
0
 11
6.496877707974307
 21
8.300000000000001
 31
0
  0
LINE
  8
0
 62
7
  6
DASHED
 10
6.509009742330269
 20
8.099999999999998
 30
0
 11
6.709009742330271
 21
8.300000000000001
 31
0
  0
LINE
  8
0
 62
7
  6
DASHED
 10
6.721141776686233
 20
8.099999999999998
 30
0
 11
6.921141776686235
 21
8.300000000000001
 31
0
  0
LINE
  8
0
 62
7
  6
DASHED
 10
6.933273811042197
 20
8.099999999999998
 30
0
 11
7.133273811042199
 21
8.300000000000001
 31
0
  0
LINE
  8
0
 62
7
  6
DASHED
 10
7.145405845398161
 20
8.099999999999998
 30
0
 11
7.345405845398163
 21
8.300000000000001
 31
0
  0
LINE
  8
0
 62
7
  6
DASHED
 10
7.357537879754124
 20
8.099999999999998
 30
0
 11
7.557537879754126
 21
8.300000000000001
 31
0
  0
LINE
  8
0
 62
7
  6
DASHED
 10
7.569669914110088
 20
8.099999999999998
 30
0
 11
7.750000000000011
 21
8.280330085889922
 31
0
  0
LINE
  8
0
 62
7
 10
4.215000000000011
 20
8.245508652763329
 30
0
 11
4.269491347236687
 21
8.299999999999999
 31
0
  0
LINE
  8
0
 62
7
 10
4.281623381592651
 20
8.1
 30
0
 11
4.481623381592651
 21
8.299999999999999
 31
0
  0
LINE
  8
0
 62
7
 10
4.493755415948614
 20
8.1
 30
0
 11
4.693755415948615
 21
8.299999999999999
 31
0
  0
LINE
  8
0
 62
7
 10
4.705887450304578
 20
8.1
 30
0
 11
4.905887450304578
 21
8.299999999999999
 31
0
  0
LINE
  8
0
 62
7
 10
4.918019484660542
 20
8.1
 30
0
 11
5.118019484660542
 21
8.299999999999999
 31
0
  0
LINE
  8
0
 62
7
 10
5.130151519016506
 20
8.1
 30
0
 11
5.330151519016506
 21
8.299999999999999
 31
0
  0
LINE
  8
0
 62
7
 10
5.34228355337247
 20
8.1
 30
0
 11
5.54228355337247
 21
8.299999999999999
 31
0
  0
LINE
  8
0
 62
7
 10
5.554415587728434
 20
8.1
 30
0
 11
5.754415587728434
 21
8.299999999999999
 31
0
  0
LINE
  8
0
 62
7
 10
5.766547622084397
 20
8.1
 30
0
 11
5.966547622084398
 21
8.299999999999999
 31
0
  0
LINE
  8
0
 62
7
 10
5.978679656440361
 20
8.1
 30
0
 11
6.178679656440361
 21
8.299999999999999
 31
0
  0
LINE
  8
0
 62
7
 10
6.190811690796325
 20
8.1
 30
0
 11
6.390811690796325
 21
8.299999999999999
 31
0
  0
LINE
  8
0
 62
7
 10
6.402943725152289
 20
8.1
 30
0
 11
6.602943725152289
 21
8.299999999999999
 31
0
  0
LINE
  8
0
 62
7
 10
6.615075759508253
 20
8.1
 30
0
 11
6.815075759508253
 21
8.299999999999999
 31
0
  0
LINE
  8
0
 62
7
 10
6.827207793864217
 20
8.1
 30
0
 11
7.027207793864217
 21
8.299999999999999
 31
0
  0
LINE
  8
0
 62
7
 10
7.03933982822018
 20
8.1
 30
0
 11
7.239339828220181
 21
8.299999999999999
 31
0
  0
LINE
  8
0
 62
7
 10
7.251471862576144
 20
8.1
 30
0
 11
7.451471862576144
 21
8.299999999999999
 31
0
  0
LINE
  8
0
 62
7
 10
7.463603896932108
 20
8.1
 30
0
 11
7.663603896932108
 21
8.299999999999999
 31
0
  0
LINE
  8
0
 62
7
 10
7.675735931288072
 20
8.1
 30
0
 11
7.750000000000012
 21
8.174264068711938
 31
0
  0
ENDBLK
  8
0
  0
BLOCK
  8
0
  2
*X7
 70
1
 10
0
 20
0
 30
0
  0
LINE
  8
0
 62
7
  6
DASHED
 10
4.215000000000011
 20
10.89715908221288
 30
0
 11
4.367840917787135
 21
11.05
 31
0
  0
LINE
  8
0
 62
7
  6
DASHED
 10
4.379972952143097
 20
10.85
 30
0
 11
4.579972952143099
 21
11.05
 31
0
  0
LINE
  8
0
 62
7
  6
DASHED
 10
4.592104986499061
 20
10.85
 30
0
 11
4.792104986499063
 21
11.05
 31
0
  0
LINE
  8
0
 62
7
  6
DASHED
 10
4.804237020855025
 20
10.85
 30
0
 11
5.004237020855027
 21
11.05
 31
0
  0
LINE
  8
0
 62
7
  6
DASHED
 10
5.016369055210989
 20
10.85
 30
0
 11
5.216369055210991
 21
11.05
 31
0
  0
LINE
  8
0
 62
7
  6
DASHED
 10
5.228501089566953
 20
10.85
 30
0
 11
5.428501089566955
 21
11.05
 31
0
  0
LINE
  8
0
 62
7
  6
DASHED
 10
5.440633123922916
 20
10.85
 30
0
 11
5.640633123922918
 21
11.05
 31
0
  0
LINE
  8
0
 62
7
  6
DASHED
 10
5.65276515827888
 20
10.85
 30
0
 11
5.852765158278882
 21
11.05
 31
0
  0
LINE
  8
0
 62
7
  6
DASHED
 10
5.864897192634844
 20
10.85
 30
0
 11
6.064897192634846
 21
11.05
 31
0
  0
LINE
  8
0
 62
7
  6
DASHED
 10
6.077029226990808
 20
10.85
 30
0
 11
6.27702922699081
 21
11.05
 31
0
  0
LINE
  8
0
 62
7
  6
DASHED
 10
6.289161261346772
 20
10.85
 30
0
 11
6.489161261346774
 21
11.05
 31
0
  0
LINE
  8
0
 62
7
  6
DASHED
 10
6.501293295702736
 20
10.85
 30
0
 11
6.701293295702738
 21
11.05
 31
0
  0
LINE
  8
0
 62
7
  6
DASHED
 10
6.713425330058699
 20
10.85
 30
0
 11
6.913425330058701
 21
11.05
 31
0
  0
LINE
  8
0
 62
7
  6
DASHED
 10
6.925557364414663
 20
10.85
 30
0
 11
7.125557364414665
 21
11.05
 31
0
  0
LINE
  8
0
 62
7
  6
DASHED
 10
7.137689398770627
 20
10.85
 30
0
 11
7.337689398770629
 21
11.05
 31
0
  0
LINE
  8
0
 62
7
  6
DASHED
 10
7.349821433126591
 20
10.85
 30
0
 11
7.549821433126593
 21
11.05
 31
0
  0
LINE
  8
0
 62
7
  6
DASHED
 10
7.561953467482555
 20
10.85
 30
0
 11
7.750000000000012
 21
11.03804653251746
 31
0
  0
LINE
  8
0
 62
7
 10
4.21500000000001
 20
11.00322509939086
 30
0
 11
4.261774900609151
 21
11.05
 31
0
  0
LINE
  8
0
 62
7
 10
4.273906934965116
 20
10.85
 30
0
 11
4.473906934965115
 21
11.05
 31
0
  0
LINE
  8
0
 62
7
 10
4.48603896932108
 20
10.85
 30
0
 11
4.686038969321078
 21
11.05
 31
0
  0
LINE
  8
0
 62
7
 10
4.698171003677044
 20
10.85
 30
0
 11
4.898171003677042
 21
11.05
 31
0
  0
LINE
  8
0
 62
7
 10
4.910303038033008
 20
10.85
 30
0
 11
5.110303038033006
 21
11.05
 31
0
  0
LINE
  8
0
 62
7
 10
5.122435072388972
 20
10.85
 30
0
 11
5.32243507238897
 21
11.05
 31
0
  0
LINE
  8
0
 62
7
 10
5.334567106744935
 20
10.85
 30
0
 11
5.534567106744934
 21
11.05
 31
0
  0
LINE
  8
0
 62
7
 10
5.546699141100899
 20
10.85
 30
0
 11
5.746699141100898
 21
11.05
 31
0
  0
LINE
  8
0
 62
7
 10
5.758831175456863
 20
10.85
 30
0
 11
5.958831175456861
 21
11.05
 31
0
  0
LINE
  8
0
 62
7
 10
5.970963209812827
 20
10.85
 30
0
 11
6.170963209812825
 21
11.05
 31
0
  0
LINE
  8
0
 62
7
 10
6.183095244168791
 20
10.85
 30
0
 11
6.383095244168789
 21
11.05
 31
0
  0
LINE
  8
0
 62
7
 10
6.395227278524755
 20
10.85
 30
0
 11
6.595227278524753
 21
11.05
 31
0
  0
LINE
  8
0
 62
7
 10
6.607359312880718
 20
10.85
 30
0
 11
6.807359312880717
 21
11.05
 31
0
  0
LINE
  8
0
 62
7
 10
6.819491347236682
 20
10.85
 30
0
 11
7.019491347236681
 21
11.05
 31
0
  0
LINE
  8
0
 62
7
 10
7.031623381592646
 20
10.85
 30
0
 11
7.231623381592645
 21
11.05
 31
0
  0
LINE
  8
0
 62
7
 10
7.24375541594861
 20
10.85
 30
0
 11
7.443755415948608
 21
11.05
 31
0
  0
LINE
  8
0
 62
7
 10
7.455887450304574
 20
10.85
 30
0
 11
7.655887450304572
 21
11.05
 31
0
  0
LINE
  8
0
 62
7
 10
7.668019484660538
 20
10.85
 30
0
 11
7.750000000000012
 21
10.93198051533948
 31
0
  0
ENDBLK
  8
0
  0
BLOCK
  8
0
  2
*X8
 70
1
 10
0
 20
0
 30
0
  0
LINE
  8
0
 62
7
 10
0.5
 20
8.03068721963673
 30
0
 11
0.5693127803632692
 21
8.1
 31
0
  0
LINE
  8
0
 62
7
 10
0.6314448147192349
 20
7.95
 30
0
 11
0.7399999999999998
 21
8.058555185280767
 31
0
  0
LINE
  8
0
 62
7
 10
0.5253787975412538
 20
7.950000000000001
 30
0
 11
0.6753787975412515
 21
8.099999999999998
 31
0
  0
LINE
  8
0
 62
7
 10
0.7375108318972181
 20
7.950000000000001
 30
0
 11
0.7400000000000002
 21
7.952489168102783
 31
0
  0
ENDBLK
  8
0
  0
BLOCK
  8
0
  2
*X9
 70
1
 10
0
 20
0
 30
0
  0
LINE
  8
0
 62
7
 10
0.5000000000000004
 20
10.78840366626426
 30
0
 11
0.5615963337357339
 21
10.85
 31
0
  0
LINE
  8
0
 62
7
 10
0.5000000000000004
 20
10.5762716319083
 30
0
 11
0.7400000000000002
 21
10.8162716319083
 31
0
  0
LINE
  8
0
 62
7
 10
0.5000000000000004
 20
10.36413959755233
 30
0
 11
0.7400000000000002
 21
10.60413959755233
 31
0
  0
LINE
  8
0
 62
7
 10
0.5000000000000004
 20
10.15200756319637
 30
0
 11
0.7400000000000002
 21
10.39200756319637
 31
0
  0
LINE
  8
0
 62
7
 10
0.5000000000000004
 20
9.939875528840407
 30
0
 11
0.7400000000000002
 21
10.17987552884041
 31
0
  0
LINE
  8
0
 62
7
 10
0.5000000000000004
 20
9.727743494484443
 30
0
 11
0.7400000000000002
 21
9.967743494484441
 31
0
  0
LINE
  8
0
 62
7
 10
0.5000000000000004
 20
9.515611460128479
 30
0
 11
0.7400000000000002
 21
9.755611460128478
 31
0
  0
LINE
  8
0
 62
7
 10
0.5000000000000004
 20
9.303479425772515
 30
0
 11
0.7400000000000002
 21
9.543479425772514
 31
0
  0
LINE
  8
0
 62
7
 10
0.5000000000000004
 20
9.091347391416551
 30
0
 11
0.7400000000000002
 21
9.33134739141655
 31
0
  0
LINE
  8
0
 62
7
 10
0.5000000000000004
 20
8.879215357060588
 30
0
 11
0.7400000000000002
 21
9.119215357060586
 31
0
  0
LINE
  8
0
 62
7
 10
0.5000000000000004
 20
8.667083322704624
 30
0
 11
0.7400000000000002
 21
8.907083322704622
 31
0
  0
LINE
  8
0
 62
7
 10
0.5000000000000004
 20
8.45495128834866
 30
0
 11
0.7400000000000002
 21
8.694951288348658
 31
0
  0
LINE
  8
0
 62
7
 10
0.5571807460073064
 20
8.300000000000001
 30
0
 11
0.7400000000000002
 21
8.482819253992695
 31
0
  0
LINE
  8
0
 62
7
 10
0.5
 20
10.68233764908628
 30
0
 11
0.6676623509137176
 21
10.85
 31
0
  0
LINE
  8
0
 62
7
 10
0.5
 20
10.47020561473031
 30
0
 11
0.7399999999999998
 21
10.71020561473031
 31
0
  0
LINE
  8
0
 62
7
 10
0.5
 20
10.25807358037435
 30
0
 11
0.7399999999999998
 21
10.49807358037435
 31
0
  0
LINE
  8
0
 62
7
 10
0.5
 20
10.04594154601839
 30
0
 11
0.7399999999999998
 21
10.28594154601839
 31
0
  0
LINE
  8
0
 62
7
 10
0.5
 20
9.833809511662423
 30
0
 11
0.7399999999999998
 21
10.07380951166242
 31
0
  0
LINE
  8
0
 62
7
 10
0.5
 20
9.621677477306459
 30
0
 11
0.7399999999999998
 21
9.861677477306458
 31
0
  0
LINE
  8
0
 62
7
 10
0.5
 20
9.409545442950495
 30
0
 11
0.7399999999999998
 21
9.649545442950494
 31
0
  0
LINE
  8
0
 62
7
 10
0.5
 20
9.197413408594532
 30
0
 11
0.7399999999999998
 21
9.43741340859453
 31
0
  0
LINE
  8
0
 62
7
 10
0.5
 20
8.985281374238568
 30
0
 11
0.7399999999999998
 21
9.225281374238566
 31
0
  0
LINE
  8
0
 62
7
 10
0.5
 20
8.773149339882604
 30
0
 11
0.7399999999999998
 21
9.013149339882602
 31
0
  0
LINE
  8
0
 62
7
 10
0.5
 20
8.56101730552664
 30
0
 11
0.7399999999999998
 21
8.801017305526639
 31
0
  0
LINE
  8
0
 62
7
 10
0.5
 20
8.348885271170676
 30
0
 11
0.7399999999999998
 21
8.588885271170675
 31
0
  0
LINE
  8
0
 62
7
 10
0.6632467631852896
 20
8.300000000000001
 30
0
 11
0.7399999999999998
 21
8.376753236814711
 31
0
  0
ENDBLK
  8
0
  0
BLOCK
  8
0
  2
*X10
 70
1
 10
0
 20
0
 30
0
  0
LINE
  8
0
 62
7
 10
0.549464299379772
 20
11.05
 30
0
 11
0.6994642993797706
 21
11.2
 31
0
  0
LINE
  8
0
 62
7
 10
0.5
 20
11.10660171779821
 30
0
 11
0.5933982822017896
 21
11.2
 31
0
  0
LINE
  8
0
 62
7
 10
0.655530316557754
 20
11.05
 30
0
 11
0.7400000000000002
 21
11.13446968344225
 31
0
  0
ENDBLK
  8
0
  0
BLOCK
  8
0
  2
*X11
 70
1
 10
0
 20
0
 30
0
  0
LINE
  8
0
 62
7
  6
DASHED
 10
1.890000000000001
 20
8.147895013500946
 30
0
 11
2.042104986499056
 21
8.300000000000001
 31
0
  0
LINE
  8
0
 62
7
  6
DASHED
 10
2.05423702085502
 20
8.1
 30
0
 11
2.190000000000001
 21
8.235762979144981
 31
0
  0
LINE
  8
0
 62
7
 10
1.890000000000002
 20
8.253961030678928
 30
0
 11
1.936038969321074
 21
8.300000000000001
 31
0
  0
LINE
  8
0
 62
7
 10
1.948171003677038
 20
8.1
 30
0
 11
2.148171003677038
 21
8.300000000000001
 31
0
  0
LINE
  8
0
 62
7
 10
2.160303038033002
 20
8.1
 30
0
 11
2.190000000000002
 21
8.129696961966999
 31
0
  0
ENDBLK
  8
0
  0
BLOCK
  8
0
  2
*X12
 70
1
 10
0
 20
0
 30
0
  0
LINE
  8
0
 62
7
  6
DASHED
 10
1.890000000000003
 20
10.90561146012848
 30
0
 11
2.034388539871522
 21
11.05
 31
0
  0
LINE
  8
0
 62
7
  6
DASHED
 10
2.046520574227484
 20
10.85
 30
0
 11
2.190000000000002
 21
10.99347942577252
 31
0
  0
LINE
  8
0
 62
7
 10
1.890000000000001
 20
11.01167747730646
 30
0
 11
1.92832252269354
 21
11.05
 31
0
  0
LINE
  8
0
 62
7
 10
1.940454557049503
 20
10.85
 30
0
 11
2.140454557049504
 21
11.05
 31
0
  0
LINE
  8
0
 62
7
 10
2.152586591405467
 20
10.85
 30
0
 11
2.190000000000001
 21
10.88741340859453
 31
0
  0
ENDBLK
  8
0
  0
BLOCK
  8
0
  2
*X13
 70
1
 10
0
 20
0
 30
0
  0
LINE
  8
0
 62
7
  6
DASHED
 10
0.4999999999999991
 20
11.00053570062023
 30
0
 11
0.5494642993797729
 21
11.05
 31
0
  0
LINE
  8
0
 62
7
  6
DASHED
 10
0.5615963337357357
 20
10.85
 30
0
 11
0.7399999999999993
 21
11.02840366626426
 31
0
  0
LINE
  8
0
 62
7
 10
0.5000000000000009
 20
10.89446968344225
 30
0
 11
0.655530316557754
 21
11.05
 31
0
  0
LINE
  8
0
 62
7
 10
0.6676623509137176
 20
10.85
 30
0
 11
0.7400000000000002
 21
10.92233764908628
 31
0
  0
ENDBLK
  8
0
  0
BLOCK
  8
0
  2
*X14
 70
1
 10
0
 20
0
 30
0
  0
LINE
  8
0
 62
7
  6
DASHED
 10
0.5
 20
8.242819253992694
 30
0
 11
0.5571807460073064
 21
8.300000000000001
 31
0
  0
LINE
  8
0
 62
7
  6
DASHED
 10
0.5693127803632705
 20
8.100000000000001
 30
0
 11
0.7399999999999998
 21
8.270687219636729
 31
0
  0
LINE
  8
0
 62
7
 10
0.4999999999999991
 20
8.136753236814712
 30
0
 11
0.6632467631852892
 21
8.300000000000001
 31
0
  0
LINE
  8
0
 62
7
 10
0.6753787975412515
 20
8.099999999999998
 30
0
 11
0.7399999999999989
 21
8.164621202458747
 31
0
  0
ENDBLK
  8
0
  0
BLOCK
  8
0
  2
*X15
 70
1
 10
0
 20
0
 30
0
  0
LINE
  8
0
 62
7
 10
4.365000000000012
 20
5.107462120245886
 30
0
 11
4.427537879754125
 21
5.169999999999999
 31
0
  0
LINE
  8
0
 62
7
 10
4.215000000000011
 20
4.957462120245886
 30
0
 11
4.277537879754123
 21
5.019999999999998
 31
0
  0
LINE
  8
0
 62
7
 10
4.249669914110099
 20
4.780000000000002
 30
0
 11
4.540000000000012
 21
5.070330085889922
 31
0
  0
LINE
  8
0
 62
7
 10
4.461801948466062
 20
4.780000000000002
 30
0
 11
4.701801948466057
 21
5.019999999999999
 31
0
  0
LINE
  8
0
 62
7
 10
4.673933982822026
 20
4.780000000000002
 30
0
 11
4.913933982822021
 21
5.019999999999999
 31
0
  0
LINE
  8
0
 62
7
 10
4.88606601717799
 20
4.780000000000002
 30
0
 11
5.126066017177985
 21
5.019999999999999
 31
0
  0
LINE
  8
0
 62
7
 10
5.098198051533954
 20
4.780000000000002
 30
0
 11
5.338198051533949
 21
5.019999999999999
 31
0
  0
LINE
  8
0
 62
7
 10
5.310330085889918
 20
4.780000000000002
 30
0
 11
5.550330085889913
 21
5.019999999999999
 31
0
  0
LINE
  8
0
 62
7
 10
5.522462120245882
 20
4.780000000000002
 30
0
 11
5.762462120245877
 21
5.019999999999999
 31
0
  0
LINE
  8
0
 62
7
 10
5.734594154601846
 20
4.780000000000002
 30
0
 11
5.97459415460184
 21
5.019999999999999
 31
0
  0
LINE
  8
0
 62
7
 10
5.946726188957809
 20
4.780000000000002
 30
0
 11
6.186726188957804
 21
5.019999999999999
 31
0
  0
LINE
  8
0
 62
7
 10
6.158858223313773
 20
4.780000000000002
 30
0
 11
6.398858223313768
 21
5.019999999999999
 31
0
  0
LINE
  8
0
 62
7
 10
6.370990257669737
 20
4.780000000000002
 30
0
 11
6.610990257669732
 21
5.019999999999999
 31
0
  0
LINE
  8
0
 62
7
 10
6.583122292025701
 20
4.780000000000002
 30
0
 11
6.823122292025696
 21
5.019999999999999
 31
0
  0
LINE
  8
0
 62
7
 10
6.795254326381665
 20
4.780000000000002
 30
0
 11
7.03525432638166
 21
5.019999999999999
 31
0
  0
LINE
  8
0
 62
7
 10
7.007386360737629
 20
4.780000000000002
 30
0
 11
7.247386360737623
 21
5.019999999999999
 31
0
  0
LINE
  8
0
 62
7
 10
7.219518395093592
 20
4.780000000000002
 30
0
 11
7.600000000000012
 21
5.160481604906423
 31
0
  0
LINE
  8
0
 62
7
 10
7.431650429449556
 20
4.780000000000002
 30
0
 11
7.671650429449553
 21
5.019999999999999
 31
0
  0
LINE
  8
0
 62
7
 10
7.64378246380552
 20
4.780000000000002
 30
0
 11
7.765000000000011
 21
4.901217536194493
 31
0
  0
LINE
  8
0
 62
7
 10
4.215000000000012
 20
4.851396103067904
 30
0
 11
4.533603896932107
 21
5.169999999999999
 31
0
  0
LINE
  8
0
 62
7
 10
4.355735931288081
 20
4.780000000000003
 30
0
 11
4.595735931288077
 21
5.02
 31
0
  0
LINE
  8
0
 62
7
 10
4.567867965644045
 20
4.780000000000003
 30
0
 11
4.807867965644041
 21
5.02
 31
0
  0
LINE
  8
0
 62
7
 10
4.780000000000009
 20
4.780000000000003
 30
0
 11
5.020000000000005
 21
5.02
 31
0
  0
LINE
  8
0
 62
7
 10
4.992132034355973
 20
4.780000000000003
 30
0
 11
5.232132034355969
 21
5.02
 31
0
  0
LINE
  8
0
 62
7
 10
5.204264068711937
 20
4.780000000000003
 30
0
 11
5.444264068711933
 21
5.02
 31
0
  0
LINE
  8
0
 62
7
 10
5.416396103067901
 20
4.780000000000003
 30
0
 11
5.656396103067896
 21
5.02
 31
0
  0
LINE
  8
0
 62
7
 10
5.628528137423864
 20
4.780000000000003
 30
0
 11
5.86852813742386
 21
5.02
 31
0
  0
LINE
  8
0
 62
7
 10
5.840660171779828
 20
4.780000000000003
 30
0
 11
6.080660171779824
 21
5.02
 31
0
  0
LINE
  8
0
 62
7
 10
6.052792206135792
 20
4.780000000000003
 30
0
 11
6.292792206135788
 21
5.02
 31
0
  0
LINE
  8
0
 62
7
 10
6.264924240491756
 20
4.780000000000003
 30
0
 11
6.504924240491752
 21
5.02
 31
0
  0
LINE
  8
0
 62
7
 10
6.47705627484772
 20
4.780000000000003
 30
0
 11
6.717056274847716
 21
5.02
 31
0
  0
LINE
  8
0
 62
7
 10
6.689188309203684
 20
4.780000000000003
 30
0
 11
6.929188309203679
 21
5.02
 31
0
  0
LINE
  8
0
 62
7
 10
6.901320343559648
 20
4.780000000000003
 30
0
 11
7.141320343559643
 21
5.02
 31
0
  0
LINE
  8
0
 62
7
 10
7.425000000000011
 20
5.091547622084404
 30
0
 11
7.503452377915607
 21
5.17
 31
0
  0
LINE
  8
0
 62
7
 10
7.113452377915611
 20
4.780000000000003
 30
0
 11
7.353452377915607
 21
5.02
 31
0
  0
LINE
  8
0
 62
7
 10
7.325584412271575
 20
4.780000000000003
 30
0
 11
7.600000000000012
 21
5.054415587728441
 31
0
  0
LINE
  8
0
 62
7
 10
7.537716446627539
 20
4.780000000000003
 30
0
 11
7.765000000000012
 21
5.007283553372475
 31
0
  0
LINE
  8
0
 62
7
 10
7.749848480983503
 20
4.780000000000003
 30
0
 11
7.765000000000012
 21
4.795151519016511
 31
0
  0
ENDBLK
  8
0
  0
BLOCK
  8
0
  2
*X16
 70
1
 10
0
 20
0
 30
0
  0
LINE
  8
0
 62
7
 10
4.215000000000011
 20
4.533198051533956
 30
0
 11
4.421801948466064
 21
4.740000000000004
 31
0
  0
LINE
  8
0
 62
7
 10
4.365000000000011
 20
4.471066017177992
 30
0
 11
4.633933982822028
 21
4.740000000000004
 31
0
  0
LINE
  8
0
 62
7
 10
4.606066017177991
 20
4.500000000000003
 30
0
 11
4.846066017177992
 21
4.740000000000004
 31
0
  0
LINE
  8
0
 62
7
 10
4.365000000000011
 20
4.258933982822028
 30
0
 11
4.540000000000012
 21
4.433933982822028
 31
0
  0
LINE
  8
0
 62
7
 10
4.818198051533955
 20
4.500000000000003
 30
0
 11
5.058198051533956
 21
4.740000000000004
 31
0
  0
LINE
  8
0
 62
7
 10
4.365000000000011
 20
4.046801948466064
 30
0
 11
4.540000000000012
 21
4.221801948466064
 31
0
  0
LINE
  8
0
 62
7
 10
5.030330085889918
 20
4.500000000000003
 30
0
 11
5.27033008588992
 21
4.740000000000004
 31
0
  0
LINE
  8
0
 62
7
 10
4.365000000000011
 20
3.8346699141101
 30
0
 11
4.540000000000012
 21
4.0096699141101
 31
0
  0
LINE
  8
0
 62
7
 10
5.242462120245882
 20
4.500000000000003
 30
0
 11
5.482462120245883
 21
4.740000000000004
 31
0
  0
LINE
  8
0
 62
7
 10
4.365000000000011
 20
3.622537879754136
 30
0
 11
4.540000000000012
 21
3.797537879754136
 31
0
  0
LINE
  8
0
 62
7
 10
5.454594154601846
 20
4.500000000000003
 30
0
 11
5.694594154601847
 21
4.740000000000004
 31
0
  0
LINE
  8
0
 62
7
 10
4.365000000000011
 20
3.410405845398172
 30
0
 11
4.540000000000012
 21
3.585405845398172
 31
0
  0
LINE
  8
0
 62
7
 10
5.66672618895781
 20
4.500000000000003
 30
0
 11
5.906726188957811
 21
4.740000000000004
 31
0
  0
LINE
  8
0
 62
7
 10
4.416726188957805
 20
3.25
 30
0
 11
4.540000000000012
 21
3.373273811042208
 31
0
  0
LINE
  8
0
 62
7
 10
5.878858223313774
 20
4.500000000000003
 30
0
 11
6.118858223313775
 21
4.740000000000004
 31
0
  0
LINE
  8
0
 62
7
 10
6.090990257669738
 20
4.500000000000003
 30
0
 11
6.330990257669739
 21
4.740000000000004
 31
0
  0
LINE
  8
0
 62
7
 10
6.303122292025702
 20
4.500000000000003
 30
0
 11
6.543122292025703
 21
4.740000000000004
 31
0
  0
LINE
  8
0
 62
7
 10
6.515254326381665
 20
4.500000000000003
 30
0
 11
6.755254326381666
 21
4.740000000000004
 31
0
  0
LINE
  8
0
 62
7
 10
6.727386360737629
 20
4.500000000000003
 30
0
 11
6.96738636073763
 21
4.740000000000004
 31
0
  0
LINE
  8
0
 62
7
 10
6.939518395093593
 20
4.500000000000003
 30
0
 11
7.179518395093594
 21
4.740000000000004
 31
0
  0
LINE
  8
0
 62
7
 10
7.151650429449557
 20
4.500000000000003
 30
0
 11
7.391650429449558
 21
4.740000000000004
 31
0
  0
LINE
  8
0
 62
7
 10
7.363782463805521
 20
4.500000000000003
 30
0
 11
7.603782463805522
 21
4.740000000000004
 31
0
  0
LINE
  8
0
 62
7
 10
7.42500000000001
 20
4.349085501838529
 30
0
 11
7.765000000000011
 21
4.689085501838528
 31
0
  0
LINE
  8
0
 62
7
 10
7.42500000000001
 20
4.136953467482565
 30
0
 11
7.600000000000012
 21
4.311953467482565
 31
0
  0
LINE
  8
0
 62
7
 10
7.42500000000001
 20
3.924821433126601
 30
0
 11
7.600000000000012
 21
4.099821433126602
 31
0
  0
LINE
  8
0
 62
7
 10
7.42500000000001
 20
3.712689398770637
 30
0
 11
7.600000000000012
 21
3.887689398770637
 31
0
  0
LINE
  8
0
 62
7
 10
7.42500000000001
 20
3.500557364414672
 30
0
 11
7.600000000000012
 21
3.675557364414673
 31
0
  0
LINE
  8
0
 62
7
 10
7.486574669941303
 20
3.35
 30
0
 11
7.600000000000012
 21
3.463425330058709
 31
0
  0
LINE
  8
0
 62
7
 10
4.215000000000011
 20
4.639264068711938
 30
0
 11
4.315735931288081
 21
4.740000000000003
 31
0
  0
LINE
  8
0
 62
7
 10
4.287867965644038
 20
4.500000000000002
 30
0
 11
4.527867965644045
 21
4.740000000000003
 31
0
  0
LINE
  8
0
 62
7
 10
4.365000000000012
 20
4.365000000000011
 30
0
 11
4.740000000000009
 21
4.740000000000003
 31
0
  0
LINE
  8
0
 62
7
 10
4.712132034355973
 20
4.500000000000003
 30
0
 11
4.952132034355973
 21
4.740000000000003
 31
0
  0
LINE
  8
0
 62
7
 10
4.365000000000012
 20
4.152867965644047
 30
0
 11
4.540000000000012
 21
4.327867965644046
 31
0
  0
LINE
  8
0
 62
7
 10
4.924264068711937
 20
4.500000000000003
 30
0
 11
5.164264068711937
 21
4.740000000000003
 31
0
  0
LINE
  8
0
 62
7
 10
4.365000000000012
 20
3.940735931288083
 30
0
 11
4.540000000000012
 21
4.115735931288082
 31
0
  0
LINE
  8
0
 62
7
 10
5.1363961030679
 20
4.500000000000003
 30
0
 11
5.376396103067901
 21
4.740000000000003
 31
0
  0
LINE
  8
0
 62
7
 10
4.365000000000012
 20
3.728603896932119
 30
0
 11
4.540000000000012
 21
3.903603896932118
 31
0
  0
LINE
  8
0
 62
7
 10
5.348528137423864
 20
4.500000000000003
 30
0
 11
5.588528137423864
 21
4.740000000000003
 31
0
  0
LINE
  8
0
 62
7
 10
4.365000000000012
 20
3.516471862576155
 30
0
 11
4.540000000000012
 21
3.691471862576154
 31
0
  0
LINE
  8
0
 62
7
 10
5.560660171779828
 20
4.500000000000003
 30
0
 11
5.800660171779828
 21
4.740000000000003
 31
0
  0
LINE
  8
0
 62
7
 10
4.365000000000012
 20
3.30433982822019
 30
0
 11
4.540000000000012
 21
3.47933982822019
 31
0
  0
LINE
  8
0
 62
7
 10
5.772792206135792
 20
4.500000000000003
 30
0
 11
6.012792206135792
 21
4.740000000000003
 31
0
  0
LINE
  8
0
 62
7
 10
4.522792206135787
 20
3.250000000000001
 30
0
 11
4.540000000000012
 21
3.267207793864225
 31
0
  0
LINE
  8
0
 62
7
 10
5.984924240491756
 20
4.500000000000003
 30
0
 11
6.224924240491756
 21
4.740000000000003
 31
0
  0
LINE
  8
0
 62
7
 10
6.19705627484772
 20
4.500000000000003
 30
0
 11
6.43705627484772
 21
4.740000000000003
 31
0
  0
LINE
  8
0
 62
7
 10
6.409188309203683
 20
4.500000000000003
 30
0
 11
6.649188309203684
 21
4.740000000000003
 31
0
  0
LINE
  8
0
 62
7
 10
6.621320343559647
 20
4.500000000000003
 30
0
 11
6.861320343559647
 21
4.740000000000003
 31
0
  0
LINE
  8
0
 62
7
 10
6.833452377915611
 20
4.500000000000003
 30
0
 11
7.073452377915611
 21
4.740000000000003
 31
0
  0
LINE
  8
0
 62
7
 10
7.045584412271575
 20
4.500000000000003
 30
0
 11
7.285584412271575
 21
4.740000000000003
 31
0
  0
LINE
  8
0
 62
7
 10
7.257716446627539
 20
4.500000000000003
 30
0
 11
7.497716446627539
 21
4.740000000000003
 31
0
  0
LINE
  8
0
 62
7
 10
7.425000000000011
 20
4.455151519016511
 30
0
 11
7.709848480983503
 21
4.740000000000003
 31
0
  0
LINE
  8
0
 62
7
 10
7.681980515339466
 20
4.500000000000003
 30
0
 11
7.765000000000011
 21
4.583019484660547
 31
0
  0
LINE
  8
0
 62
7
 10
7.425000000000011
 20
4.243019484660547
 30
0
 11
7.600000000000012
 21
4.418019484660547
 31
0
  0
LINE
  8
0
 62
7
 10
7.425000000000011
 20
4.030887450304583
 30
0
 11
7.600000000000012
 21
4.205887450304584
 31
0
  0
LINE
  8
0
 62
7
 10
7.425000000000011
 20
3.818755415948619
 30
0
 11
7.600000000000012
 21
3.99375541594862
 31
0
  0
LINE
  8
0
 62
7
 10
7.425000000000011
 20
3.606623381592654
 30
0
 11
7.600000000000012
 21
3.781623381592655
 31
0
  0
LINE
  8
0
 62
7
 10
7.425000000000013
 20
3.394491347236691
 30
0
 11
7.600000000000012
 21
3.569491347236691
 31
0
  0
LINE
  8
0
 62
7
 10
7.592640687119287
 20
3.350000000000001
 30
0
 11
7.600000000000012
 21
3.357359312880727
 31
0
  0
ENDBLK
  8
0
  0
BLOCK
  8
0
  2
*D0
 70
1
 10
0
 20
0
 30
0
  0
LINE
  8
0
 62
7
 10
8.085733207715931
 20
10.21616644907176
 30
0
 11
8.085733207715931
 21
11.05
 31
0
  0
LINE
  8
0
 62
7
 10
8.085733207715931
 20
8.300000000000001
 30
0
 11
8.085733207715931
 21
9.136166449071759
 31
0
  0
LINE
  8
0
 62
7
 10
7.750000000000012
 20
11.05
 30
0
 11
8.135733207715932
 21
11.05
 31
0
  0
LINE
  8
0
 62
7
 10
7.750000000000012
 20
8.300000000000001
 30
0
 11
8.135733207715932
 21
8.300000000000001
 31
0
  0
LINE
  8
0
 62
7
 10
8.050377868656604
 20
8.335355339059328
 30
0
 11
8.121088546775258
 21
8.264644660940673
 31
0
  0
LINE
  8
0
 62
7
 10
8.121088546775258
 20
11.01464466094067
 30
0
 11
8.050377868656604
 21
11.08535533905933
 31
0
  0
TEXT
  8
0
 62
7
 10
8.055733207715932
 20
9.53866644907176
 30
0
 40
0.1
  1
2,75
 50
90
 41
0.9
  0
TEXT
  8
0
 62
7
 10
8.215733207715932
 20
9.33616644907176
 30
0
 40
0.1
  1
(260-280)
 50
90
 41
0.9
  0
ENDBLK
  8
0
  0
BLOCK
  8
0
  2
*D1
 70
1
 10
0
 20
0
 30
0
  0
LINE
  8
0
 62
7
 10
6.354671394566531
 20
11.4598365155
 30
0
 11
7.425000000000011
 21
11.4598365155
 31
0
  0
LINE
  8
0
 62
7
 10
4.540000000000012
 20
11.4598365155
 30
0
 11
5.67967139456653
 21
11.4598365155
 31
0
  0
LINE
  8
0
 62
7
 10
7.425000000000011
 20
11.2
 30
0
 11
7.425000000000011
 21
11.5098365155
 31
0
  0
LINE
  8
0
 62
7
 10
4.540000000000012
 20
11.2
 30
0
 11
4.540000000000012
 21
11.5098365155
 31
0
  0
LINE
  8
0
 62
7
 10
7.389644660940684
 20
11.42448117644067
 30
0
 11
7.460355339059339
 21
11.49519185455933
 31
0
  0
LINE
  8
0
 62
7
 10
4.575355339059339
 20
11.49519185455933
 30
0
 11
4.504644660940684
 21
11.42448117644067
 31
0
  0
TEXT
  8
0
 62
7
 10
5.879671394566531
 20
11.4148365155
 30
0
 40
0.1
  1
2,89
 41
0.9
  0
ENDBLK
  8
0
  0
BLOCK
  8
0
  2
*D2
 70
1
 10
0
 20
0
 30
0
  0
LINE
  8
0
 62
7
 10
4.047702362885381
 20
4.22696553781299
 30
0
 11
4.047702362885381
 21
4.500000000000002
 31
0
  0
LINE
  8
0
 62
7
 10
4.047702362885381
 20
3.25
 30
0
 11
4.047702362885381
 21
3.48196553781299
 31
0
  0
LINE
  8
0
 62
7
 10
4.365000000000013
 20
4.500000000000002
 30
0
 11
3.997702362885382
 21
4.500000000000002
 31
0
  0
LINE
  8
0
 62
7
 10
4.365000000000013
 20
3.25
 30
0
 11
3.997702362885382
 21
3.25
 31
0
  0
LINE
  8
0
 62
7
 10
4.012347023826054
 20
3.285355339059328
 30
0
 11
4.083057701944709
 21
3.214644660940673
 31
0
  0
LINE
  8
0
 62
7
 10
4.083057701944709
 20
4.464644660940674
 30
0
 11
4.012347023826054
 21
4.535355339059329
 31
0
  0
TEXT
  8
0
 62
7
 10
4.092702362885381
 20
3.73196553781299
 30
0
 40
0.1
  1
1,25
 50
90
 41
0.9
  0
ENDBLK
  8
0
  0
BLOCK
  8
0
  2
*D3
 70
1
 10
0
 20
0
 30
0
  0
LINE
  8
0
 62
7
 10
6.355125003832421
 20
5.439950041304741
 30
0
 11
7.425000000000012
 21
5.439950041304741
 31
0
  0
LINE
  8
0
 62
7
 10
4.540000000000012
 20
5.439950041304741
 30
0
 11
5.58012500383242
 21
5.439950041304741
 31
0
  0
LINE
  8
0
 62
7
 10
7.425000000000012
 20
5.019999999999999
 30
0
 11
7.425000000000012
 21
5.48995004130474
 31
0
  0
LINE
  8
0
 62
7
 10
4.540000000000012
 20
5.019999999999999
 30
0
 11
4.540000000000012
 21
5.48995004130474
 31
0
  0
LINE
  8
0
 62
7
 10
4.575355339059339
 20
5.475305380364068
 30
0
 11
4.504644660940684
 21
5.404594702245413
 31
0
  0
LINE
  8
0
 62
7
 10
7.389644660940685
 20
5.404594702245413
 30
0
 11
7.46035533905934
 21
5.475305380364068
 31
0
  0
TEXT
  8
0
 62
7
 10
5.83012500383242
 20
5.394950041304741
 30
0
 40
0.1
  1
2,89
 41
0.9
  0
ENDBLK
  8
0
  0
BLOCK
  8
0
  2
*D4
 70
1
 10
0
 20
0
 30
0
  0
LINE
  8
0
 62
7
 10
7.986640426247691
 20
4.31105831928122
 30
0
 11
7.986640426247691
 21
4.500000000000002
 31
0
  0
LINE
  8
0
 62
7
 10
7.986640426247691
 20
3.350000000000001
 30
0
 11
7.986640426247691
 21
3.596058319281219
 31
0
  0
LINE
  8
0
 62
7
 10
7.600000000000012
 20
4.500000000000002
 30
0
 11
8.036640426247692
 21
4.500000000000002
 31
0
  0
LINE
  8
0
 62
7
 10
7.600000000000012
 20
3.350000000000001
 30
0
 11
8.036640426247692
 21
3.350000000000001
 31
0
  0
LINE
  8
0
 62
7
 10
8.021995765307018
 20
4.464644660940674
 30
0
 11
7.951285087188364
 21
4.535355339059329
 31
0
  0
LINE
  8
0
 62
7
 10
7.951285087188364
 20
3.385355339059328
 30
0
 11
8.021995765307018
 21
3.314644660940673
 31
0
  0
TEXT
  8
0
 62
7
 10
8.031640426247691
 20
3.84605831928122
 30
0
 40
0.1
  1
1,15
 50
90
 41
0.9
  0
ENDBLK
  8
0
  0
ENDSEC
  0
SECTION
  2
ENTITIES
  0
INSERT
  8
0
  2
*X0
 10
0
 20
0
 30
0
  0
INSERT
  8
0
  2
*X1
 10
0
 20
0
 30
0
  0
INSERT
  8
0
  2
*X2
 10
0
 20
0
 30
0
  0
INSERT
  8
0
  2
*X3
 10
0
 20
0
 30
0
  0
INSERT
  8
0
  2
*X4
 10
0
 20
0
 30
0
  0
INSERT
  8
0
  2
*X5
 10
0
 20
0
 30
0
  0
INSERT
  8
0
  2
*X6
 10
0
 20
0
 30
0
  0
INSERT
  8
0
  2
*X7
 10
0
 20
0
 30
0
  0
INSERT
  8
0
  2
*X8
 10
0
 20
0
 30
0
  0
INSERT
  8
0
  2
*X9
 10
0
 20
0
 30
0
  0
INSERT
  8
0
  2
*X10
 10
0
 20
0
 30
0
  0
INSERT
  8
0
  2
*X11
 10
0
 20
0
 30
0
  0
INSERT
  8
0
  2
*X12
 10
0
 20
0
 30
0
  0
INSERT
  8
0
  2
*X13
 10
0
 20
0
 30
0
  0
INSERT
  8
0
  2
*X14
 10
0
 20
0
 30
0
  0
INSERT
  8
0
  2
*X15
 10
0
 20
0
 30
0
  0
INSERT
  8
0
  2
*X16
 10
0
 20
0
 30
0
  0
LINE
  8
0
 62
7
 10
6.215066022913991
 20
3.535000000000002
 30
0
 11
6.258142205228342
 21
3.535000000000002
 31
0
  0
LINE
  8
0
 62
7
 10
6.215066022913991
 20
3.535000000000002
 30
0
 11
6.346973483594475
 21
3.535000000000002
 31
0
  0
LINE
  8
0
 62
7
 10
6.215066022913991
 20
3.535000000000002
 30
0
 11
6.42054797290071
 21
3.535000000000002
 31
0
  0
LINE
  8
0
 62
7
 10
6.37177618115
 20
3.611712090802252
 30
0
 11
6.37177618115
 21
3.611712090802252
 31
0
  0
LINE
  8
0
 62
7
 10
6.460000000000012
 20
3.466772959834376
 30
0
 11
6.460000000000012
 21
3.390000000000002
 31
0
  0
LINE
  8
0
 62
7
 10
6.37177618115
 20
3.611712090802252
 30
0
 11
6.460000000000012
 21
3.466772959834376
 31
0
  0
LINE
  8
0
 62
7
 10
5.55395228643712
 20
3.540737577316456
 30
0
 11
5.572375868356602
 21
3.535000000000002
 31
0
  0
LINE
  8
0
 62
7
 10
5.505000000000011
 20
3.465677404779544
 30
0
 11
5.55395228643712
 21
3.540737577316456
 31
0
  0
LINE
  8
0
 62
7
 10
5.505000000000011
 20
3.250000000000002
 30
0
 11
5.505000000000011
 21
3.465677404779544
 31
0
  0
LINE
  8
0
 62
7
 10
4.595000000000011
 20
3.605101235618662
 30
0
 11
4.595000000000011
 21
3.250000000000002
 31
0
  0
LINE
  8
0
 62
7
 10
4.595000000000011
 20
3.250000000000002
 30
0
 11
5.505000000000011
 21
3.250000000000002
 31
0
  0
LINE
  8
0
 62
7
 10
4.595000000000011
 20
3.933643374959711
 30
0
 11
4.595000000000011
 21
3.514748135276653
 31
0
  0
LINE
  8
0
 62
7
 10
5.485507159227463
 20
3.435788382261633
 30
0
 11
5.505000000000011
 21
3.465677404779544
 31
0
  0
LINE
  8
0
 62
7
 10
4.595000000000011
 20
3.514748135276653
 30
0
 11
5.485507159227463
 21
3.435788382261633
 31
0
  0
LINE
  8
0
 62
7
 10
4.595000000000011
 20
4.420801690470362
 30
0
 11
4.595000000000011
 21
3.839379986282962
 31
0
  0
LINE
  8
0
 62
7
 10
5.572375868356602
 20
3.535000000000002
 30
0
 11
5.782763525100391
 21
3.535000000000002
 31
0
  0
LINE
  8
0
 62
7
 10
4.595000000000011
 20
3.839379986282962
 30
0
 11
5.55395228643712
 21
3.540737577316456
 31
0
  0
LINE
  8
0
 62
7
 10
4.595000000000011
 20
4.445000000000002
 30
0
 11
4.595000000000011
 21
4.308529548511171
 31
0
  0
LINE
  8
0
 62
7
 10
5.118897815193301
 20
4.445000000000002
 30
0
 11
4.595000000000011
 21
4.445000000000002
 31
0
  0
LINE
  8
0
 62
7
 10
5.632218819057649
 20
3.535000000000002
 30
0
 11
5.832861066519621
 21
3.535000000000002
 31
0
  0
LINE
  8
0
 62
7
 10
4.595000000000011
 20
4.308529548511171
 30
0
 11
5.632218819057649
 21
3.535000000000002
 31
0
  0
LINE
  8
0
 62
7
 10
5.475364551404663
 20
4.445000000000002
 30
0
 11
5.004503675235931
 21
4.445000000000002
 31
0
  0
LINE
  8
0
 62
7
 10
5.718466926562251
 20
3.535000000000002
 30
0
 11
5.909905921611712
 21
3.535000000000002
 31
0
  0
LINE
  8
0
 62
7
 10
5.004503675235931
 20
4.445000000000002
 30
0
 11
5.718466926562251
 21
3.535000000000002
 31
0
  0
LINE
  8
0
 62
7
 10
5.802887195985423
 20
4.445000000000002
 30
0
 11
5.375629954682282
 21
4.445000000000002
 31
0
  0
LINE
  8
0
 62
7
 10
5.810171324889334
 20
3.535000000000002
 30
0
 11
5.99287412972998
 21
3.535000000000002
 31
0
  0
LINE
  8
0
 62
7
 10
5.375629954682282
 20
4.445000000000002
 30
0
 11
5.810171324889334
 21
3.535000000000002
 31
0
  0
LINE
  8
0
 62
7
 10
6.139080767910721
 20
4.445000000000002
 30
0
 11
5.710946666494974
 21
4.445000000000002
 31
0
  0
LINE
  8
0
 62
7
 10
5.900933600239522
 20
3.535000000000002
 30
0
 11
6.07843463358929
 21
3.535000000000002
 31
0
  0
LINE
  8
0
 62
7
 10
5.710946666494974
 20
4.445000000000002
 30
0
 11
5.900933600239522
 21
3.535000000000002
 31
0
  0
LINE
  8
0
 62
7
 10
6.485135934728523
 20
4.445000000000002
 30
0
 11
6.048881124695981
 21
4.445000000000002
 31
0
  0
LINE
  8
0
 62
7
 10
5.98823499037456
 20
3.535000000000002
 30
0
 11
6.166943627610622
 21
3.535000000000002
 31
0
  0
LINE
  8
0
 62
7
 10
6.048881124695981
 20
4.445000000000002
 30
0
 11
5.98823499037456
 21
3.535000000000002
 31
0
  0
LINE
  8
0
 62
7
 10
6.840945565576373
 20
4.445000000000002
 30
0
 11
6.389792692898202
 21
4.445000000000002
 31
0
  0
LINE
  8
0
 62
7
 10
6.071600385780312
 20
3.535000000000002
 30
0
 11
6.215066022913991
 21
3.535000000000002
 31
0
  0
LINE
  8
0
 62
7
 10
6.389792692898202
 20
4.445000000000002
 30
0
 11
6.071600385780312
 21
3.535000000000002
 31
0
  0
LINE
  8
0
 62
7
 10
7.322031613769433
 20
4.445000000000002
 30
0
 11
6.734070136969601
 21
4.445000000000002
 31
0
  0
LINE
  8
0
 62
7
 10
6.151266776621562
 20
3.535000000000002
 30
0
 11
6.215066022913991
 21
3.535000000000002
 31
0
  0
LINE
  8
0
 62
7
 10
6.734070136969601
 20
4.445000000000002
 30
0
 11
6.151266776621562
 21
3.535000000000002
 31
0
  0
LINE
  8
0
 62
7
 10
7.370000000000012
 20
4.445000000000002
 30
0
 11
7.190124153088951
 21
4.445000000000002
 31
0
  0
LINE
  8
0
 62
7
 10
7.370000000000012
 20
3.964946601653132
 30
0
 11
7.370000000000012
 21
4.445000000000002
 31
0
  0
LINE
  8
0
 62
7
 10
7.190124153088951
 20
4.445000000000002
 30
0
 11
6.215066022913991
 21
3.535000000000002
 31
0
  0
LINE
  8
0
 62
7
 10
7.370000000000012
 20
3.626829539396963
 30
0
 11
7.370000000000012
 21
4.063744343463801
 31
0
  0
LINE
  8
0
 62
7
 10
7.370000000000012
 20
4.063744343463801
 30
0
 11
6.37177618115
 21
3.611712090802252
 31
0
  0
LINE
  8
0
 62
7
 10
7.370000000000012
 20
3.390000000000002
 30
0
 11
7.370000000000012
 21
3.719028478693232
 31
0
  0
LINE
  8
0
 62
7
 10
6.460000000000012
 20
3.516643430163792
 30
0
 11
6.460000000000012
 21
3.466772959834376
 31
0
  0
LINE
  8
0
 62
7
 10
7.370000000000012
 20
3.719028478693232
 30
0
 11
6.460000000000012
 21
3.516643430163792
 31
0
  0
LINE
  8
0
 62
7
 10
6.978110941940573
 20
3.534999999990141
 30
0
 11
6.978110941940573
 21
3.400000000000002
 31
0
  0
LINE
  8
0
 62
7
 10
7.083766041202272
 20
3.461000000000002
 30
0
 11
6.978110941940573
 21
3.400000000000002
 31
0
  0
LINE
  8
0
 62
7
 10
6.872455842678874
 20
3.461000000000002
 30
0
 11
7.083766041202272
 21
3.461000000000002
 31
0
  0
LINE
  8
0
 62
7
 10
6.978110941940573
 20
3.400000000000002
 30
0
 11
6.872455842678874
 21
3.461000000000002
 31
0
  0
LINE
  8
0
 62
7
 10
5.50500000000987
 20
4.053110941940562
 30
0
 11
6.459999999986931
 21
4.053110941940562
 31
0
  0
LINE
  8
0
 62
7
 10
4.986889058059452
 20
3.250000000000002
 30
0
 11
4.986889058059452
 21
3.534999999977522
 31
0
  0
LINE
  8
0
 62
7
 10
4.59499993000001
 20
8.596800069999999
 30
0
 11
5.505000080000011
 21
8.596800069999999
 31
0
  0
LINE
  8
0
 62
7
 10
4.59499993000001
 20
8.531800069999997
 30
0
 11
4.59499993000001
 21
8.596800069999999
 31
0
  0
LINE
  8
0
 62
7
 10
5.505000080000011
 20
8.596800069999999
 30
0
 11
5.505000080000011
 21
8.531800069999997
 31
0
  0
LINE
  8
0
 62
7
 10
5.505000080000011
 20
8.531800069999997
 30
0
 11
4.59499993000001
 21
8.531800069999997
 31
0
  0
LINE
  8
0
 62
7
 10
4.594999850000011
 20
8.793200059999995
 30
0
 11
5.605050200000014
 21
8.793200059999995
 31
0
  0
LINE
  8
0
 62
7
 10
5.605050200000014
 20
8.728200059999997
 30
0
 11
4.594999850000011
 21
8.728200059999997
 31
0
  0
LINE
  8
0
 62
7
 10
4.594999850000011
 20
8.728200059999997
 30
0
 11
4.594999850000011
 21
8.793200059999995
 31
0
  0
LINE
  8
0
 62
7
 10
5.605050200000014
 20
8.793200059999995
 30
0
 11
5.605050200000014
 21
8.728200059999997
 31
0
  0
LINE
  8
0
 62
7
 10
4.59500002000001
 20
8.989600059999997
 30
0
 11
5.78276375000001
 21
8.989600059999997
 31
0
  0
LINE
  8
0
 62
7
 10
5.78276375000001
 20
8.924600059999998
 30
0
 11
4.59500002000001
 21
8.924600059999998
 31
0
  0
LINE
  8
0
 62
7
 10
4.59500002000001
 20
8.924600059999998
 30
0
 11
4.59500002000001
 21
8.989600059999997
 31
0
  0
LINE
  8
0
 62
7
 10
5.78276375000001
 20
8.989600059999997
 30
0
 11
5.78276375000001
 21
8.924600059999998
 31
0
  0
LINE
  8
0
 62
7
 10
5.832861480000011
 20
9.121000049999996
 30
0
 11
4.594999980000011
 21
9.121000049999996
 31
0
  0
LINE
  8
0
 62
7
 10
4.594999980000011
 20
9.186000049999995
 30
0
 11
5.832861480000011
 21
9.186000049999995
 31
0
  0
LINE
  8
0
 62
7
 10
4.594999980000011
 20
9.121000049999996
 30
0
 11
4.594999980000011
 21
9.186000049999995
 31
0
  0
LINE
  8
0
 62
7
 10
5.832861480000011
 20
9.186000049999995
 30
0
 11
5.832861480000011
 21
9.121000049999996
 31
0
  0
LINE
  8
0
 62
7
 10
5.909906160000012
 20
9.317400049999996
 30
0
 11
5.004504390000012
 21
9.317400049999996
 31
0
  0
LINE
  8
0
 62
7
 10
5.004504390000012
 20
9.382400049999998
 30
0
 11
5.909906160000012
 21
9.382400049999998
 31
0
  0
LINE
  8
0
 62
7
 10
5.004504390000012
 20
9.317400049999996
 30
0
 11
5.004504390000012
 21
9.382400049999998
 31
0
  0
LINE
  8
0
 62
7
 10
5.909906160000012
 20
9.382400049999998
 30
0
 11
5.909906160000012
 21
9.317400049999996
 31
0
  0
LINE
  8
0
 62
7
 10
5.992874750000013
 20
9.513800039999996
 30
0
 11
5.37562988000001
 21
9.513800039999996
 31
0
  0
LINE
  8
0
 62
7
 10
5.37562988000001
 20
9.578800039999997
 30
0
 11
5.992874750000013
 21
9.578800039999997
 31
0
  0
LINE
  8
0
 62
7
 10
5.37562988000001
 20
9.513800039999996
 30
0
 11
5.37562988000001
 21
9.578800039999997
 31
0
  0
LINE
  8
0
 62
7
 10
5.992874750000013
 20
9.578800039999997
 30
0
 11
5.992874750000013
 21
9.513800039999996
 31
0
  0
LINE
  8
0
 62
7
 10
6.139080810000011
 20
9.710200029999998
 30
0
 11
5.710947260000012
 21
9.710200029999998
 31
0
  0
LINE
  8
0
 62
7
 10
5.710947260000012
 20
9.775200029999997
 30
0
 11
6.139080810000011
 21
9.775200029999997
 31
0
  0
LINE
  8
0
 62
7
 10
5.710947260000012
 20
9.710200029999998
 30
0
 11
5.710947260000012
 21
9.775200029999997
 31
0
  0
LINE
  8
0
 62
7
 10
6.139080810000011
 20
9.775200029999997
 30
0
 11
6.139080810000011
 21
9.710200029999998
 31
0
  0
LINE
  8
0
 62
7
 10
6.485136720000011
 20
9.90660003
 30
0
 11
5.988234860000012
 21
9.90660003
 31
0
  0
LINE
  8
0
 62
7
 10
5.988234860000012
 20
9.971600029999998
 30
0
 11
6.485136720000011
 21
9.971600029999998
 31
0
  0
LINE
  8
0
 62
7
 10
5.988234860000012
 20
9.90660003
 30
0
 11
5.988234860000012
 21
9.971600029999998
 31
0
  0
LINE
  8
0
 62
7
 10
6.485136720000011
 20
9.971600029999998
 30
0
 11
6.485136720000011
 21
9.90660003
 31
0
  0
LINE
  8
0
 62
7
 10
6.84094604000001
 20
10.10300002
 30
0
 11
6.07160019000001
 21
10.10300002
 31
0
  0
LINE
  8
0
 62
7
 10
6.07160019000001
 20
10.16800002
 30
0
 11
6.84094604000001
 21
10.16800002
 31
0
  0
LINE
  8
0
 62
7
 10
6.07160019000001
 20
10.10300002
 30
0
 11
6.07160019000001
 21
10.16800002
 31
0
  0
LINE
  8
0
 62
7
 10
6.84094604000001
 20
10.16800002
 30
0
 11
6.84094604000001
 21
10.10300002
 31
0
  0
LINE
  8
0
 62
7
 10
7.322031250000011
 20
10.29940002
 30
0
 11
6.151267240000012
 21
10.29940002
 31
0
  0
LINE
  8
0
 62
7
 10
6.151267240000012
 20
10.36440002
 30
0
 11
7.322031250000011
 21
10.36440002
 31
0
  0
LINE
  8
0
 62
7
 10
6.151267240000012
 20
10.29940002
 30
0
 11
6.151267240000012
 21
10.36440002
 31
0
  0
LINE
  8
0
 62
7
 10
7.322031250000011
 20
10.36440002
 30
0
 11
7.322031250000011
 21
10.29940002
 31
0
  0
LINE
  8
0
 62
7
 10
7.370000000000012
 20
10.49580001
 30
0
 11
6.215065920000011
 21
10.49580001
 31
0
  0
LINE
  8
0
 62
7
 10
6.215065920000011
 20
10.56080001
 30
0
 11
7.370000000000012
 21
10.56080001
 31
0
  0
LINE
  8
0
 62
7
 10
6.215065920000011
 20
10.49580001
 30
0
 11
6.215065920000011
 21
10.56080001
 31
0
  0
LINE
  8
0
 62
7
 10
7.370000000000012
 20
10.56080001
 30
0
 11
7.370000000000012
 21
10.49580001
 31
0
  0
LINE
  8
0
 62
7
 10
6.37177612000001
 20
10.7572
 30
0
 11
7.370000000000012
 21
10.7572
 31
0
  0
LINE
  8
0
 62
7
 10
7.370000000000012
 20
10.6922
 30
0
 11
6.37177612000001
 21
10.6922
 31
0
  0
LINE
  8
0
 62
7
 10
6.37177612000001
 20
10.6922
 30
0
 11
6.37177612000001
 21
10.7572
 31
0
  0
LINE
  8
0
 62
7
 10
7.370000000000012
 20
10.7572
 30
0
 11
7.370000000000012
 21
10.6922
 31
0
  0
LINE
  8
0
 62
7
  6
DASHED
 10
6.460000000000012
 20
10.95359999999999
 30
0
 11
7.370000000000012
 21
10.95359999999999
 31
0
  0
LINE
  8
0
 62
7
  6
DASHED
 10
6.460000000000012
 20
10.88859999999999
 30
0
 11
6.460000000000012
 21
10.95359999999999
 31
0
  0
LINE
  8
0
 62
7
  6
DASHED
 10
7.370000000000012
 20
10.95359999999999
 30
0
 11
7.370000000000012
 21
10.88859999999999
 31
0
  0
LINE
  8
0
 62
7
  6
DASHED
 10
7.370000000000012
 20
10.88859999999999
 30
0
 11
6.460000000000012
 21
10.88859999999999
 31
0
  0
LINE
  8
0
 62
7
 10
1.634898870000001
 20
8.596800069999999
 30
0
 11
1.99000021
 21
8.596800069999999
 31
0
  0
LINE
  8
0
 62
7
 10
1.99000021
 20
8.531800069999997
 30
0
 11
1.634898870000001
 21
8.531800069999997
 31
0
  0
LINE
  8
0
 62
7
 10
1.99000021
 20
8.596800069999999
 30
0
 11
1.99000021
 21
8.531800069999997
 31
0
  0
LINE
  8
0
 62
7
 10
1.634898870000001
 20
8.531800069999997
 30
0
 11
1.634898870000001
 21
8.596800069999999
 31
0
  0
LINE
  8
0
 62
7
 10
1.804211960000001
 20
8.728200059999997
 30
0
 11
1.306356810000001
 21
8.728200059999997
 31
0
  0
LINE
  8
0
 62
7
 10
1.306356810000001
 20
8.793200059999995
 30
0
 11
1.804211960000001
 21
8.793200059999995
 31
0
  0
LINE
  8
0
 62
7
 10
1.804211960000001
 20
8.793200059999995
 30
0
 11
1.804211960000001
 21
8.728200059999997
 31
0
  0
LINE
  8
0
 62
7
 10
1.306356810000001
 20
8.728200059999997
 30
0
 11
1.306356810000001
 21
8.793200059999995
 31
0
  0
LINE
  8
0
 62
7
 10
0.8191984600000014
 20
8.989600059999997
 30
0
 11
1.70500031
 21
8.989600059999997
 31
0
  0
LINE
  8
0
 62
7
 10
1.70500031
 20
8.924600059999998
 30
0
 11
0.8191984600000014
 21
8.924600059999998
 31
0
  0
LINE
  8
0
 62
7
 10
1.70500031
 20
8.989600059999997
 30
0
 11
1.70500031
 21
8.924600059999998
 31
0
  0
LINE
  8
0
 62
7
 10
0.8191984600000014
 20
8.924600059999998
 30
0
 11
0.8191984600000014
 21
8.989600059999997
 31
0
  0
LINE
  8
0
 62
7
 10
0.7950001499999999
 20
9.186000049999995
 30
0
 11
1.70500027
 21
9.186000049999995
 31
0
  0
LINE
  8
0
 62
7
 10
1.70500027
 20
9.121000049999996
 30
0
 11
0.7950001499999999
 21
9.121000049999996
 31
0
  0
LINE
  8
0
 62
7
 10
1.70500027
 20
9.186000049999995
 30
0
 11
1.70500027
 21
9.121000049999996
 31
0
  0
LINE
  8
0
 62
7
 10
0.7950001499999999
 20
9.121000049999996
 30
0
 11
0.7950001499999999
 21
9.186000049999995
 31
0
  0
LINE
  8
0
 62
7
 10
0.7950001499999999
 20
9.382400049999998
 30
0
 11
1.705000080000002
 21
9.382400049999998
 31
0
  0
LINE
  8
0
 62
7
 10
1.705000080000002
 20
9.382400049999998
 30
0
 11
1.705000080000002
 21
9.317400049999996
 31
0
  0
LINE
  8
0
 62
7
 10
0.7950001499999999
 20
9.317400049999996
 30
0
 11
0.7950001499999999
 21
9.382400049999998
 31
0
  0
LINE
  8
0
 62
7
 10
1.705000080000002
 20
9.317400049999996
 30
0
 11
0.7950001499999999
 21
9.317400049999996
 31
0
  0
LINE
  8
0
 62
7
 10
0.7950001499999999
 20
9.578800039999997
 30
0
 11
1.70500015
 21
9.578800039999997
 31
0
  0
LINE
  8
0
 62
7
 10
1.70500015
 20
9.578800039999997
 30
0
 11
1.70500015
 21
9.513800039999998
 31
0
  0
LINE
  8
0
 62
7
 10
0.7950001499999999
 20
9.513800039999998
 30
0
 11
0.7950001499999999
 21
9.578800039999997
 31
0
  0
LINE
  8
0
 62
7
 10
1.70500015
 20
9.513800039999998
 30
0
 11
0.7950001499999999
 21
9.513800039999998
 31
0
  0
LINE
  8
0
 62
7
 10
0.795
 20
9.775200029999997
 30
0
 11
1.70500027
 21
9.775200029999997
 31
0
  0
LINE
  8
0
 62
7
 10
1.70500027
 20
9.775200029999997
 30
0
 11
1.70500027
 21
9.710200029999998
 31
0
  0
LINE
  8
0
 62
7
 10
0.795
 20
9.710200029999998
 30
0
 11
0.795
 21
9.775200029999997
 31
0
  0
LINE
  8
0
 62
7
 10
1.70500027
 20
9.710200029999998
 30
0
 11
0.795
 21
9.710200029999998
 31
0
  0
LINE
  8
0
 62
7
 10
0.7950001499999999
 20
9.971600029999998
 30
0
 11
1.70500015
 21
9.971600029999998
 31
0
  0
LINE
  8
0
 62
7
 10
1.70500015
 20
9.971600029999998
 30
0
 11
1.70500015
 21
9.90660003
 31
0
  0
LINE
  8
0
 62
7
 10
0.7950001499999999
 20
9.90660003
 30
0
 11
0.7950001499999999
 21
9.971600029999998
 31
0
  0
LINE
  8
0
 62
7
 10
1.70500015
 20
9.90660003
 30
0
 11
0.7950001499999999
 21
9.90660003
 31
0
  0
LINE
  8
0
 62
7
 10
0.7950001499999999
 20
10.16800002
 30
0
 11
1.705000340000001
 21
10.16800002
 31
0
  0
LINE
  8
0
 62
7
 10
1.705000340000001
 20
10.16800002
 30
0
 11
1.705000340000001
 21
10.10300002
 31
0
  0
LINE
  8
0
 62
7
 10
0.7950001499999999
 20
10.10300002
 30
0
 11
0.7950001499999999
 21
10.16800002
 31
0
  0
LINE
  8
0
 62
7
 10
1.705000340000001
 20
10.10300002
 30
0
 11
0.7950001499999999
 21
10.10300002
 31
0
  0
LINE
  8
0
 62
7
 10
0.7950001499999999
 20
10.36440002
 30
0
 11
1.705000380000001
 21
10.36440002
 31
0
  0
LINE
  8
0
 62
7
 10
1.705000380000001
 20
10.36440002
 30
0
 11
1.705000380000001
 21
10.29940002
 31
0
  0
LINE
  8
0
 62
7
 10
0.7950001499999999
 20
10.29940002
 30
0
 11
0.7950001499999999
 21
10.36440002
 31
0
  0
LINE
  8
0
 62
7
 10
1.705000380000001
 20
10.29940002
 30
0
 11
0.7950001499999999
 21
10.29940002
 31
0
  0
LINE
  8
0
 62
7
 10
0.7950003100000015
 20
10.56080001
 30
0
 11
1.705000340000001
 21
10.56080001
 31
0
  0
LINE
  8
0
 62
7
 10
1.705000340000001
 20
10.49580001
 30
0
 11
0.7950003100000015
 21
10.49580001
 31
0
  0
LINE
  8
0
 62
7
 10
1.705000340000001
 20
10.56080001
 30
0
 11
1.705000340000001
 21
10.49580001
 31
0
  0
LINE
  8
0
 62
7
 10
0.7950003100000015
 20
10.49580001
 30
0
 11
0.7950003100000015
 21
10.56080001
 31
0
  0
LINE
  8
0
 62
7
 10
1.810508460000001
 20
10.6922
 30
0
 11
1.176255870000001
 21
10.6922
 31
0
  0
LINE
  8
0
 62
7
 10
1.176255870000001
 20
10.7572
 30
0
 11
1.810508460000001
 21
10.7572
 31
0
  0
LINE
  8
0
 62
7
 10
1.810508460000001
 20
10.7572
 30
0
 11
1.810508460000001
 21
10.6922
 31
0
  0
LINE
  8
0
 62
7
 10
1.176255870000001
 20
10.6922
 30
0
 11
1.176255870000001
 21
10.7572
 31
0
  0
LINE
  8
0
 62
7
 10
1.520971220000001
 20
10.9536
 30
0
 11
1.850000130000001
 21
10.9536
 31
0
  0
LINE
  8
0
 62
7
 10
1.850000130000001
 20
10.8886
 30
0
 11
1.520971220000001
 21
10.8886
 31
0
  0
LINE
  8
0
 62
7
 10
1.850000130000001
 20
10.9536
 30
0
 11
1.850000130000001
 21
10.8886
 31
0
  0
LINE
  8
0
 62
7
 10
1.520971220000001
 20
10.8886
 30
0
 11
1.520971220000001
 21
10.9536
 31
0
  0
LINE
  8
0
 62
7
 10
7.600000000000012
 20
8.1
 30
0
 11
7.750000000000012
 21
8.1
 31
0
  0
LINE
  8
0
 62
7
 10
7.600000000000012
 20
8.300000000000001
 30
0
 11
7.750000000000012
 21
8.300000000000001
 31
0
  0
LINE
  8
0
 62
7
 10
7.600000000000012
 20
10.85
 30
0
 11
7.750000000000012
 21
10.85
 31
0
  0
LINE
  8
0
 62
7
 10
7.600000000000012
 20
11.05
 30
0
 11
7.750000000000012
 21
11.05
 31
0
  0
LINE
  8
0
 62
7
 10
7.600000000000012
 20
8.1
 30
0
 11
7.600000000000012
 21
7.95
 31
0
  0
LINE
  8
0
 62
7
 10
7.425000000000011
 20
8.1
 30
0
 11
7.600000000000012
 21
8.1
 31
0
  0
LINE
  8
0
 62
7
 10
7.600000000000012
 20
8.4
 30
0
 11
7.600000000000012
 21
8.300000000000001
 31
0
  0
LINE
  8
0
 62
7
 10
7.425000000000011
 20
8.300000000000001
 30
0
 11
7.600000000000012
 21
8.300000000000001
 31
0
  0
LINE
  8
0
 62
7
 10
7.425000000000011
 20
10.85
 30
0
 11
7.600000000000012
 21
10.85
 31
0
  0
LINE
  8
0
 62
7
 10
7.600000000000012
 20
11.15
 30
0
 11
7.600000000000012
 21
11.05
 31
0
  0
LINE
  8
0
 62
7
 10
7.425000000000011
 20
11.05
 30
0
 11
7.600000000000012
 21
11.05
 31
0
  0
LINE
  8
0
 62
7
 10
7.425000000000011
 20
8.1
 30
0
 11
7.425000000000011
 21
7.95
 31
0
  0
LINE
  8
0
 62
7
 10
4.540000000000012
 20
8.1
 30
0
 11
7.425000000000011
 21
8.1
 31
0
  0
LINE
  8
0
 62
7
 10
7.425000000000011
 20
8.4
 30
0
 11
7.425000000000011
 21
8.300000000000001
 31
0
  0
LINE
  8
0
 62
7
 10
4.540000000000012
 20
8.300000000000001
 30
0
 11
7.425000000000011
 21
8.300000000000001
 31
0
  0
LINE
  8
0
 62
7
 10
4.540000000000012
 20
10.85
 30
0
 11
7.425000000000011
 21
10.85
 31
0
  0
LINE
  8
0
 62
7
 10
7.425000000000011
 20
11.15
 30
0
 11
7.425000000000011
 21
11.05
 31
0
  0
LINE
  8
0
 62
7
 10
4.540000000000012
 20
11.05
 30
0
 11
7.425000000000011
 21
11.05
 31
0
  0
LINE
  8
0
 62
7
 10
4.540000000000012
 20
8.1
 30
0
 11
4.540000000000012
 21
7.95
 31
0
  0
LINE
  8
0
 62
7
 10
4.365000000000012
 20
8.1
 30
0
 11
4.540000000000012
 21
8.1
 31
0
  0
LINE
  8
0
 62
7
 10
4.540000000000012
 20
8.4
 30
0
 11
4.540000000000012
 21
8.300000000000001
 31
0
  0
LINE
  8
0
 62
7
 10
4.365000000000012
 20
8.300000000000001
 30
0
 11
4.540000000000012
 21
8.300000000000001
 31
0
  0
LINE
  8
0
 62
7
 10
4.365000000000012
 20
10.85
 30
0
 11
4.540000000000012
 21
10.85
 31
0
  0
LINE
  8
0
 62
7
 10
4.540000000000012
 20
11.15
 30
0
 11
4.540000000000012
 21
11.05
 31
0
  0
LINE
  8
0
 62
7
 10
4.365000000000012
 20
11.05
 30
0
 11
4.540000000000012
 21
11.05
 31
0
  0
LINE
  8
0
 62
7
 10
4.365000000000012
 20
8.1
 30
0
 11
4.365000000000012
 21
7.95
 31
0
  0
LINE
  8
0
 62
7
 10
4.215000000000011
 20
8.1
 30
0
 11
4.365000000000012
 21
8.1
 31
0
  0
LINE
  8
0
 62
7
 10
4.365000000000012
 20
8.4
 30
0
 11
4.365000000000012
 21
8.300000000000001
 31
0
  0
LINE
  8
0
 62
7
 10
4.215000000000011
 20
8.300000000000001
 30
0
 11
4.365000000000012
 21
8.300000000000001
 31
0
  0
LINE
  8
0
 62
7
 10
4.215000000000011
 20
10.85
 30
0
 11
4.365000000000012
 21
10.85
 31
0
  0
LINE
  8
0
 62
7
 10
4.365000000000012
 20
11.15
 30
0
 11
4.365000000000012
 21
11.05
 31
0
  0
LINE
  8
0
 62
7
 10
4.215000000000011
 20
11.05
 30
0
 11
4.365000000000012
 21
11.05
 31
0
  0
LINE
  8
0
 62
7
  6
DASHDOT
 10
7.750000000000012
 20
8.1
 30
0
 11
7.750000000000012
 21
8.050000000000001
 31
0
  0
LINE
  8
0
 62
7
  6
DASHDOT
 10
7.750000000000012
 20
10.85
 30
0
 11
7.750000000000012
 21
10.8
 31
0
  0
LINE
  8
0
 62
7
  6
DASHDOT
 10
4.215000000000011
 20
8.1
 30
0
 11
4.215000000000011
 21
8.050000000000001
 31
0
  0
LINE
  8
0
 62
7
  6
DASHDOT
 10
4.215000000000011
 20
10.85
 30
0
 11
4.215000000000011
 21
10.8
 31
0
  0
LINE
  8
0
 62
7
  6
DASHDOT
 10
7.600000000000012
 20
11.2
 30
0
 11
7.650000000000012
 21
11.2
 31
0
  0
LINE
  8
0
 62
7
  6
DASHDOT
 10
7.600000000000012
 20
7.95
 30
0
 11
7.650000000000012
 21
7.95
 31
0
  0
LINE
  8
0
 62
7
  6
DASHDOT
 10
4.540000000000012
 20
11.2
 30
0
 11
4.590000000000011
 21
11.2
 31
0
  0
LINE
  8
0
 62
7
  6
DASHDOT
 10
4.540000000000012
 20
7.95
 30
0
 11
4.590000000000011
 21
7.95
 31
0
  0
LINE
  8
0
 62
7
 10
7.600000000000012
 20
8.4
 30
0
 11
7.750000000000012
 21
8.4
 31
0
  0
LINE
  8
0
 62
7
 10
7.600000000000012
 20
10.85
 30
0
 11
7.600000000000012
 21
8.4
 31
0
  0
LINE
  8
0
 62
7
  6
DASHDOT
 10
7.750000000000012
 20
8.450000000000001
 30
0
 11
7.750000000000012
 21
8.4
 31
0
  0
LINE
  8
0
 62
7
 10
4.540000000000012
 20
8.4
 30
0
 11
7.425000000000011
 21
8.4
 31
0
  0
LINE
  8
0
 62
7
 10
7.425000000000011
 20
10.85
 30
0
 11
7.425000000000011
 21
8.4
 31
0
  0
LINE
  8
0
 62
7
 10
4.540000000000012
 20
10.85
 30
0
 11
4.540000000000012
 21
8.4
 31
0
  0
LINE
  8
0
 62
7
 10
4.215000000000011
 20
8.4
 30
0
 11
4.365000000000012
 21
8.4
 31
0
  0
LINE
  8
0
 62
7
 10
4.365000000000012
 20
10.85
 30
0
 11
4.365000000000012
 21
8.4
 31
0
  0
LINE
  8
0
 62
7
  6
DASHDOT
 10
4.215000000000011
 20
8.450000000000001
 30
0
 11
4.215000000000011
 21
8.4
 31
0
  0
LINE
  8
0
 62
7
 10
7.600000000000012
 20
11.15
 30
0
 11
7.750000000000012
 21
11.15
 31
0
  0
LINE
  8
0
 62
7
 10
7.600000000000012
 20
11.2
 30
0
 11
7.600000000000012
 21
11.15
 31
0
  0
LINE
  8
0
 62
7
  6
DASHDOT
 10
7.750000000000012
 20
11.2
 30
0
 11
7.750000000000012
 21
11.15
 31
0
  0
LINE
  8
0
 62
7
 10
4.540000000000012
 20
11.15
 30
0
 11
7.425000000000011
 21
11.15
 31
0
  0
LINE
  8
0
 62
7
 10
7.425000000000011
 20
11.2
 30
0
 11
7.425000000000011
 21
11.15
 31
0
  0
LINE
  8
0
 62
7
 10
4.540000000000012
 20
11.2
 30
0
 11
4.540000000000012
 21
11.15
 31
0
  0
LINE
  8
0
 62
7
 10
4.215000000000011
 20
11.15
 30
0
 11
4.365000000000012
 21
11.15
 31
0
  0
LINE
  8
0
 62
7
 10
4.365000000000012
 20
11.2
 30
0
 11
4.365000000000012
 21
11.15
 31
0
  0
LINE
  8
0
 62
7
  6
DASHDOT
 10
4.215000000000011
 20
11.2
 30
0
 11
4.215000000000011
 21
11.15
 31
0
  0
LINE
  8
0
 62
7
  6
DASHDOT
 10
4.215000000000011
 20
8.300000000000001
 30
0
 11
4.215000000000011
 21
8.1
 31
0
  0
LINE
  8
0
 62
7
  6
DASHDOT
 10
4.215000000000011
 20
8.4
 30
0
 11
4.215000000000011
 21
8.300000000000001
 31
0
  0
LINE
  8
0
 62
7
  6
DASHDOT
 10
4.365000000000012
 20
7.95
 30
0
 11
4.540000000000012
 21
7.95
 31
0
  0
LINE
  8
0
 62
7
  6
DASHDOT
 10
4.315000000000011
 20
7.95
 30
0
 11
4.365000000000012
 21
7.95
 31
0
  0
LINE
  8
0
 62
7
  6
DASHDOT
 10
7.750000000000012
 20
8.300000000000001
 30
0
 11
7.750000000000012
 21
8.1
 31
0
  0
LINE
  8
0
 62
7
  6
DASHDOT
 10
7.750000000000012
 20
8.4
 30
0
 11
7.750000000000012
 21
8.300000000000001
 31
0
  0
LINE
  8
0
 62
7
  6
DASHDOT
 10
7.425000000000011
 20
7.95
 30
0
 11
7.600000000000012
 21
7.95
 31
0
  0
LINE
  8
0
 62
7
  6
DASHDOT
 10
7.375000000000012
 20
7.95
 30
0
 11
7.425000000000011
 21
7.95
 31
0
  0
LINE
  8
0
 62
7
  6
DASHDOT
 10
7.750000000000012
 20
11.05
 30
0
 11
7.750000000000012
 21
10.85
 31
0
  0
LINE
  8
0
 62
7
  6
DASHDOT
 10
7.750000000000012
 20
11.15
 30
0
 11
7.750000000000012
 21
11.05
 31
0
  0
LINE
  8
0
 62
7
  6
DASHDOT
 10
7.425000000000011
 20
11.2
 30
0
 11
7.600000000000012
 21
11.2
 31
0
  0
LINE
  8
0
 62
7
  6
DASHDOT
 10
7.375000000000012
 20
11.2
 30
0
 11
7.425000000000011
 21
11.2
 31
0
  0
LINE
  8
0
 62
7
  6
DASHDOT
 10
4.215000000000011
 20
11.05
 30
0
 11
4.215000000000011
 21
10.85
 31
0
  0
LINE
  8
0
 62
7
  6
DASHDOT
 10
4.215000000000011
 20
11.15
 30
0
 11
4.215000000000011
 21
11.05
 31
0
  0
LINE
  8
0
 62
7
  6
DASHDOT
 10
4.365000000000012
 20
11.2
 30
0
 11
4.540000000000012
 21
11.2
 31
0
  0
LINE
  8
0
 62
7
  6
DASHDOT
 10
4.315000000000011
 20
11.2
 30
0
 11
4.365000000000012
 21
11.2
 31
0
  0
LINE
  8
0
 62
7
 10
0.5
 20
7.95
 30
0
 11
0.5
 21
8.1
 31
0
  0
LINE
  8
0
 62
7
 10
0.7400000000000001
 20
11.2
 30
0
 11
0.7400000000000001
 21
11.05
 31
0
  0
LINE
  8
0
 62
7
 10
0.5
 20
11.05
 30
0
 11
0.7400000000000001
 21
11.05
 31
0
  0
LINE
  8
0
 62
7
 10
0.5
 20
11.05
 30
0
 11
0.5
 21
11.2
 31
0
  0
LINE
  8
0
 62
7
 10
0.7400000000000001
 20
11.05
 30
0
 11
0.7400000000000001
 21
10.85
 31
0
  0
LINE
  8
0
 62
7
 10
0.5
 20
10.85
 30
0
 11
0.7400000000000001
 21
10.85
 31
0
  0
LINE
  8
0
 62
7
 10
0.5
 20
10.85
 30
0
 11
0.5
 21
11.05
 31
0
  0
LINE
  8
0
 62
7
 10
0.7400000000000001
 20
10.85
 30
0
 11
0.7400000000000001
 21
8.300000000000001
 31
0
  0
LINE
  8
0
 62
7
 10
0.5
 20
8.300000000000001
 30
0
 11
0.7400000000000001
 21
8.300000000000001
 31
0
  0
LINE
  8
0
 62
7
 10
0.5
 20
8.300000000000001
 30
0
 11
0.5
 21
10.85
 31
0
  0
LINE
  8
0
 62
7
 10
0.7400000000000001
 20
8.300000000000001
 30
0
 11
0.7400000000000001
 21
8.1
 31
0
  0
LINE
  8
0
 62
7
 10
0.5
 20
8.1
 30
0
 11
0.7400000000000001
 21
8.1
 31
0
  0
LINE
  8
0
 62
7
 10
0.5
 20
8.1
 30
0
 11
0.5
 21
8.300000000000001
 31
0
  0
LINE
  8
0
 62
7
 10
0.7400000000000001
 20
8.1
 30
0
 11
0.7400000000000001
 21
7.95
 31
0
  0
LINE
  8
0
 62
7
 10
1.890000000000002
 20
11.05
 30
0
 11
1.890000000000002
 21
10.85
 31
0
  0
LINE
  8
0
 62
7
 10
1.890000000000002
 20
10.85
 30
0
 11
2.190000000000002
 21
10.85
 31
0
  0
LINE
  8
0
 62
7
 10
1.890000000000002
 20
11.05
 30
0
 11
2.190000000000002
 21
11.05
 31
0
  0
LINE
  8
0
 62
7
 10
1.890000000000002
 20
8.300000000000001
 30
0
 11
2.190000000000002
 21
8.300000000000001
 31
0
  0
LINE
  8
0
 62
7
 10
1.890000000000002
 20
8.300000000000001
 30
0
 11
1.890000000000002
 21
8.1
 31
0
  0
LINE
  8
0
 62
7
 10
1.890000000000002
 20
8.1
 30
0
 11
2.190000000000002
 21
8.1
 31
0
  0
LINE
  8
0
 62
7
  6
DASHDOT
 10
0.45
 20
11.2
 30
0
 11
0.5
 21
11.2
 31
0
  0
LINE
  8
0
 62
7
  6
DASHDOT
 10
2.190000000000002
 20
11.2
 30
0
 11
2.190000000000002
 21
11.15
 31
0
  0
LINE
  8
0
 62
7
  6
DASHDOT
 10
2.190000000000002
 20
8.050000000000001
 30
0
 11
2.190000000000002
 21
8.1
 31
0
  0
LINE
  8
0
 62
7
  6
DASHDOT
 10
0.45
 20
7.95
 30
0
 11
0.5
 21
7.95
 31
0
  0
LINE
  8
0
 62
7
 10
1.890000000000002
 20
8.4
 30
0
 11
2.190000000000002
 21
8.4
 31
0
  0
LINE
  8
0
 62
7
  6
DASHDOT
 10
2.190000000000002
 20
8.4
 30
0
 11
2.190000000000002
 21
8.450000000000001
 31
0
  0
LINE
  8
0
 62
7
 10
1.890000000000002
 20
11.15
 30
0
 11
2.190000000000002
 21
11.15
 31
0
  0
LINE
  8
0
 62
7
  6
DASHDOT
 10
2.190000000000002
 20
11.15
 30
0
 11
2.190000000000002
 21
11.05
 31
0
  0
LINE
  8
0
 62
7
  6
DASHDOT
 10
2.190000000000002
 20
8.300000000000001
 30
0
 11
2.190000000000002
 21
8.4
 31
0
  0
LINE
  8
0
 62
7
  6
DASHDOT
 10
2.190000000000002
 20
8.1
 30
0
 11
2.190000000000002
 21
8.300000000000001
 31
0
  0
LINE
  8
0
 62
7
  6
DASHDOT
 10
0.5
 20
7.95
 30
0
 11
0.7400000000000001
 21
7.95
 31
0
  0
LINE
  8
0
 62
7
  6
DASHDOT
 10
0.7400000000000001
 20
7.95
 30
0
 11
0.79
 21
7.95
 31
0
  0
LINE
  8
0
 62
7
  6
DASHDOT
 10
0.7400000000000001
 20
11.2
 30
0
 11
0.79
 21
11.2
 31
0
  0
LINE
  8
0
 62
7
  6
DASHDOT
 10
0.5
 20
11.2
 30
0
 11
0.7400000000000001
 21
11.2
 31
0
  0
LINE
  8
0
 62
7
  6
DASHDOT
 10
2.190000000000002
 20
10.85
 30
0
 11
2.190000000000002
 21
10.8
 31
0
  0
LINE
  8
0
 62
7
  6
DASHDOT
 10
2.190000000000002
 20
11.05
 30
0
 11
2.190000000000002
 21
10.85
 31
0
  0
LINE
  8
0
 62
7
  6
DASHED
 10
0.7400000000000001
 20
11.05
 30
0
 11
1.890000000000002
 21
11.05
 31
0
  0
LINE
  8
0
 62
7
  6
DASHED
 10
0.7400000000000001
 20
10.85
 30
0
 11
1.890000000000002
 21
10.85
 31
0
  0
LINE
  8
0
 62
7
  6
DASHED
 10
0.7400000000000001
 20
8.300000000000001
 30
0
 11
1.890000000000002
 21
8.300000000000001
 31
0
  0
LINE
  8
0
 62
7
  6
DASHED
 10
0.7400000000000001
 20
8.1
 30
0
 11
1.890000000000002
 21
8.1
 31
0
  0
LINE
  8
0
 62
7
 10
4.215000000000011
 20
5.019999999999999
 30
0
 11
4.365000000000012
 21
5.019999999999999
 31
0
  0
LINE
  8
0
 62
7
 10
4.365000000000012
 20
5.019999999999999
 30
0
 11
4.365000000000012
 21
5.169999999999999
 31
0
  0
LINE
  8
0
 62
7
 10
4.540000000000012
 20
5.169999999999999
 30
0
 11
4.540000000000012
 21
5.019999999999999
 31
0
  0
LINE
  8
0
 62
7
 10
4.540000000000012
 20
5.019999999999999
 30
0
 11
7.425000000000011
 21
5.019999999999999
 31
0
  0
LINE
  8
0
 62
7
 10
7.425000000000011
 20
5.019999999999999
 30
0
 11
7.425000000000011
 21
5.169999999999999
 31
0
  0
LINE
  8
0
 62
7
 10
7.600000000000012
 20
5.169999999999999
 30
0
 11
7.600000000000012
 21
5.019999999999999
 31
0
  0
LINE
  8
0
 62
7
 10
7.600000000000012
 20
5.019999999999999
 30
0
 11
7.765000000000011
 21
5.019999999999999
 31
0
  0
LINE
  8
0
 62
7
 10
4.215000000000011
 20
4.780000000000002
 30
0
 11
7.765000000000011
 21
4.780000000000002
 31
0
  0
LINE
  8
0
 62
7
 10
4.215000000000011
 20
4.740000000000002
 30
0
 11
7.765000000000011
 21
4.740000000000002
 31
0
  0
LINE
  8
0
 62
7
 10
4.215000000000011
 20
4.500000000000003
 30
0
 11
4.365000000000012
 21
4.500000000000003
 31
0
  0
LINE
  8
0
 62
7
 10
4.540000000000012
 20
3.250000000000001
 30
0
 11
4.540000000000012
 21
3.350000000000001
 31
0
  0
LINE
  8
0
 62
7
 10
4.365000000000012
 20
3.250000000000001
 30
0
 11
4.540000000000012
 21
3.250000000000001
 31
0
  0
LINE
  8
0
 62
7
 10
4.365000000000012
 20
4.500000000000003
 30
0
 11
4.365000000000012
 21
3.250000000000001
 31
0
  0
LINE
  8
0
 62
7
 10
4.540000000000012
 20
4.500000000000003
 30
0
 11
7.425000000000011
 21
4.500000000000003
 31
0
  0
LINE
  8
0
 62
7
 10
7.425000000000011
 20
4.500000000000003
 30
0
 11
7.425000000000011
 21
3.400000000000001
 31
0
  0
LINE
  8
0
 62
7
 10
7.600000000000012
 20
3.350000000000001
 30
0
 11
7.600000000000012
 21
4.500000000000003
 31
0
  0
LINE
  8
0
 62
7
 10
7.600000000000012
 20
4.500000000000003
 30
0
 11
7.765000000000011
 21
4.500000000000003
 31
0
  0
LINE
  8
0
 62
7
 10
7.425000000000011
 20
3.350000000000001
 30
0
 11
7.600000000000012
 21
3.350000000000001
 31
0
  0
LINE
  8
0
 62
7
 10
7.425000000000011
 20
3.400000000000001
 30
0
 11
4.540000000000012
 21
3.400000000000001
 31
0
  0
LINE
  8
0
 62
7
 10
4.540000000000012
 20
3.400000000000001
 30
0
 11
4.540000000000012
 21
4.500000000000003
 31
0
  0
LINE
  8
0
 62
7
 10
7.425000000000011
 20
3.400000000000001
 30
0
 11
7.425000000000011
 21
3.350000000000001
 31
0
  0
LINE
  8
0
 62
7
  6
DASHDOT
 10
7.425000000000011
 20
3.350000000000001
 30
0
 11
4.540000000000012
 21
3.350000000000001
 31
0
  0
LINE
  8
0
 62
7
 10
4.540000000000012
 20
3.350000000000001
 30
0
 11
4.540000000000012
 21
3.400000000000001
 31
0
  0
LINE
  8
0
 62
7
  6
DASHDOT
 10
4.315000000000011
 20
5.169999999999999
 30
0
 11
4.365000000000012
 21
5.169999999999999
 31
0
  0
LINE
  8
0
 62
7
  6
DASHDOT
 10
7.375000000000012
 20
5.169999999999999
 30
0
 11
7.425000000000011
 21
5.169999999999999
 31
0
  0
LINE
  8
0
 62
7
  6
DASHDOT
 10
4.215000000000011
 20
5.069999999999999
 30
0
 11
4.215000000000011
 21
5.019999999999999
 31
0
  0
LINE
  8
0
 62
7
  6
DASHDOT
 10
7.765000000000011
 20
5.069999999999999
 30
0
 11
7.765000000000011
 21
5.019999999999999
 31
0
  0
LINE
  8
0
 62
7
  6
DASHDOT
 10
7.765000000000011
 20
5.019999999999999
 30
0
 11
7.765000000000011
 21
4.780000000000002
 31
0
  0
LINE
  8
0
 62
7
  6
DASHDOT
 10
7.765000000000011
 20
4.500000000000003
 30
0
 11
7.765000000000011
 21
4.450000000000002
 31
0
  0
LINE
  8
0
 62
7
  6
DASHDOT
 10
4.365000000000012
 20
5.169999999999999
 30
0
 11
4.540000000000012
 21
5.169999999999999
 31
0
  0
LINE
  8
0
 62
7
  6
DASHDOT
 10
4.540000000000012
 20
5.169999999999999
 30
0
 11
4.590000000000011
 21
5.169999999999999
 31
0
  0
LINE
  8
0
 62
7
  6
DASHDOT
 10
4.215000000000011
 20
5.019999999999999
 30
0
 11
4.215000000000011
 21
4.780000000000002
 31
0
  0
LINE
  8
0
 62
7
  6
DASHDOT
 10
4.215000000000011
 20
4.500000000000003
 30
0
 11
4.215000000000011
 21
4.450000000000002
 31
0
  0
LINE
  8
0
 62
7
  6
DASHDOT
 10
7.765000000000011
 20
4.780000000000002
 30
0
 11
7.765000000000011
 21
4.740000000000002
 31
0
  0
LINE
  8
0
 62
7
  6
DASHDOT
 10
4.215000000000011
 20
4.780000000000002
 30
0
 11
4.215000000000011
 21
4.740000000000002
 31
0
  0
LINE
  8
0
 62
7
  6
DASHDOT
 10
7.765000000000011
 20
4.740000000000002
 30
0
 11
7.765000000000011
 21
4.500000000000003
 31
0
  0
LINE
  8
0
 62
7
  6
DASHDOT
 10
4.215000000000011
 20
4.740000000000002
 30
0
 11
4.215000000000011
 21
4.500000000000003
 31
0
  0
LINE
  8
0
 62
7
  6
DASHDOT
 10
7.600000000000012
 20
5.169999999999999
 30
0
 11
7.650000000000012
 21
5.169999999999999
 31
0
  0
LINE
  8
0
 62
7
  6
DASHDOT
 10
7.425000000000011
 20
5.169999999999999
 30
0
 11
7.600000000000012
 21
5.169999999999999
 31
0
  0
LINE
  8
0
 62
7
 10
5.101804916396979
 20
4.20389514563107
 30
0
 11
5.101804916396979
 21
4.323895145631069
 31
0
  0
LINE
  8
0
 62
7
 10
5.177404916396981
 20
4.323895145631069
 30
0
 11
5.123404916396979
 21
4.263895145631071
 31
0
  0
LINE
  8
0
 62
7
 10
5.123404916396979
 20
4.263895145631071
 30
0
 11
5.177404916396981
 21
4.20389514563107
 31
0
  0
LINE
  8
0
 62
7
 10
5.123404916396979
 20
4.263895145631071
 30
0
 11
5.101804916396979
 21
4.23989514563107
 31
0
  0
LINE
  8
0
 62
7
 10
5.28540491639698
 20
4.323895145631069
 30
0
 11
5.20980491639698
 21
4.323895145631069
 31
0
  0
LINE
  8
0
 62
7
 10
5.20980491639698
 20
4.323895145631069
 30
0
 11
5.20980491639698
 21
4.263895145631071
 31
0
  0
LINE
  8
0
 62
7
 10
5.20980491639698
 20
4.20389514563107
 30
0
 11
5.28540491639698
 21
4.20389514563107
 31
0
  0
LINE
  8
0
 62
7
 10
5.27460491639698
 20
4.263895145631071
 30
0
 11
5.20980491639698
 21
4.263895145631071
 31
0
  0
LINE
  8
0
 62
7
 10
5.20980491639698
 20
4.263895145631071
 30
0
 11
5.20980491639698
 21
4.20389514563107
 31
0
  0
LINE
  8
0
 62
7
 10
5.31780491639698
 20
4.20389514563107
 30
0
 11
5.31780491639698
 21
4.323895145631069
 31
0
  0
LINE
  8
0
 62
7
 10
5.31780491639698
 20
4.323895145631069
 30
0
 11
5.39340491639698
 21
4.20389514563107
 31
0
  0
LINE
  8
0
 62
7
 10
5.39340491639698
 20
4.20389514563107
 30
0
 11
5.39340491639698
 21
4.323895145631069
 31
0
  0
LINE
  8
0
 62
7
 10
5.42580491639698
 20
4.20389514563107
 30
0
 11
5.42580491639698
 21
4.323895145631069
 31
0
  0
LINE
  8
0
 62
7
 10
5.42580491639698
 20
4.323895145631069
 30
0
 11
5.50140491639698
 21
4.20389514563107
 31
0
  0
LINE
  8
0
 62
7
 10
5.50140491639698
 20
4.20389514563107
 30
0
 11
5.50140491639698
 21
4.323895145631069
 31
0
  0
LINE
  8
0
 62
7
 10
5.609404916396979
 20
4.28789514563107
 30
0
 11
5.606704916396978
 21
4.29989514563107
 31
0
  0
LINE
  8
0
 62
7
 10
5.606704916396978
 20
4.29989514563107
 30
0
 11
5.601304916396979
 21
4.30889514563107
 31
0
  0
LINE
  8
0
 62
7
 10
5.601304916396979
 20
4.30889514563107
 30
0
 11
5.59590491639698
 21
4.31489514563107
 31
0
  0
LINE
  8
0
 62
7
 10
5.59590491639698
 20
4.31489514563107
 30
0
 11
5.58780491639698
 21
4.32089514563107
 31
0
  0
LINE
  8
0
 62
7
 10
5.58780491639698
 20
4.32089514563107
 30
0
 11
5.579704916396979
 21
4.323895145631069
 31
0
  0
LINE
  8
0
 62
7
 10
5.579704916396979
 20
4.323895145631069
 30
0
 11
5.56350491639698
 21
4.323895145631069
 31
0
  0
LINE
  8
0
 62
7
 10
5.56350491639698
 20
4.323895145631069
 30
0
 11
5.55540491639698
 21
4.32089514563107
 31
0
  0
LINE
  8
0
 62
7
 10
5.55540491639698
 20
4.32089514563107
 30
0
 11
5.547304916396979
 21
4.31489514563107
 31
0
  0
LINE
  8
0
 62
7
 10
5.547304916396979
 20
4.31489514563107
 30
0
 11
5.54190491639698
 21
4.30889514563107
 31
0
  0
LINE
  8
0
 62
7
 10
5.54190491639698
 20
4.30889514563107
 30
0
 11
5.536504916396979
 21
4.29989514563107
 31
0
  0
LINE
  8
0
 62
7
 10
5.536504916396979
 20
4.29989514563107
 30
0
 11
5.53380491639698
 21
4.28789514563107
 31
0
  0
LINE
  8
0
 62
7
 10
5.53380491639698
 20
4.28789514563107
 30
0
 11
5.53380491639698
 21
4.23989514563107
 31
0
  0
LINE
  8
0
 62
7
 10
5.53380491639698
 20
4.23989514563107
 30
0
 11
5.536504916396979
 21
4.22789514563107
 31
0
  0
LINE
  8
0
 62
7
 10
5.536504916396979
 20
4.22789514563107
 30
0
 11
5.54190491639698
 21
4.21889514563107
 31
0
  0
LINE
  8
0
 62
7
 10
5.54190491639698
 20
4.21889514563107
 30
0
 11
5.547304916396979
 21
4.212895145631069
 31
0
  0
LINE
  8
0
 62
7
 10
5.547304916396979
 20
4.212895145631069
 30
0
 11
5.55540491639698
 21
4.206895145631071
 31
0
  0
LINE
  8
0
 62
7
 10
5.55540491639698
 20
4.206895145631071
 30
0
 11
5.56350491639698
 21
4.20389514563107
 31
0
  0
LINE
  8
0
 62
7
 10
5.56350491639698
 20
4.20389514563107
 30
0
 11
5.579704916396979
 21
4.20389514563107
 31
0
  0
LINE
  8
0
 62
7
 10
5.579704916396979
 20
4.20389514563107
 30
0
 11
5.58780491639698
 21
4.206895145631071
 31
0
  0
LINE
  8
0
 62
7
 10
5.58780491639698
 20
4.206895145631071
 30
0
 11
5.59590491639698
 21
4.212895145631069
 31
0
  0
LINE
  8
0
 62
7
 10
5.59590491639698
 20
4.212895145631069
 30
0
 11
5.601304916396979
 21
4.21889514563107
 31
0
  0
LINE
  8
0
 62
7
 10
5.601304916396979
 20
4.21889514563107
 30
0
 11
5.606704916396978
 21
4.22789514563107
 31
0
  0
LINE
  8
0
 62
7
 10
5.606704916396978
 20
4.22789514563107
 30
0
 11
5.609404916396979
 21
4.23989514563107
 31
0
  0
LINE
  8
0
 62
7
 10
5.609404916396979
 20
4.23989514563107
 30
0
 11
5.609404916396979
 21
4.263895145631071
 31
0
  0
LINE
  8
0
 62
7
 10
5.609404916396979
 20
4.263895145631071
 30
0
 11
5.57700491639698
 21
4.263895145631071
 31
0
  0
LINE
  8
0
 62
7
 10
5.687704916396979
 20
4.323895145631069
 30
0
 11
5.671504916396979
 21
4.323895145631069
 31
0
  0
LINE
  8
0
 62
7
 10
5.671504916396979
 20
4.323895145631069
 30
0
 11
5.66340491639698
 21
4.32089514563107
 31
0
  0
LINE
  8
0
 62
7
 10
5.66340491639698
 20
4.32089514563107
 30
0
 11
5.655304916396981
 21
4.31489514563107
 31
0
  0
LINE
  8
0
 62
7
 10
5.655304916396981
 20
4.31489514563107
 30
0
 11
5.649904916396981
 21
4.30889514563107
 31
0
  0
LINE
  8
0
 62
7
 10
5.649904916396981
 20
4.30889514563107
 30
0
 11
5.64450491639698
 21
4.29989514563107
 31
0
  0
LINE
  8
0
 62
7
 10
5.64450491639698
 20
4.29989514563107
 30
0
 11
5.641804916396979
 21
4.28789514563107
 31
0
  0
LINE
  8
0
 62
7
 10
5.641804916396979
 20
4.28789514563107
 30
0
 11
5.641804916396979
 21
4.23989514563107
 31
0
  0
LINE
  8
0
 62
7
 10
5.641804916396979
 20
4.23989514563107
 30
0
 11
5.64450491639698
 21
4.22789514563107
 31
0
  0
LINE
  8
0
 62
7
 10
5.64450491639698
 20
4.22789514563107
 30
0
 11
5.649904916396981
 21
4.21889514563107
 31
0
  0
LINE
  8
0
 62
7
 10
5.649904916396981
 20
4.21889514563107
 30
0
 11
5.655304916396981
 21
4.212895145631069
 31
0
  0
LINE
  8
0
 62
7
 10
5.655304916396981
 20
4.212895145631069
 30
0
 11
5.66340491639698
 21
4.206895145631071
 31
0
  0
LINE
  8
0
 62
7
 10
5.66340491639698
 20
4.206895145631071
 30
0
 11
5.671504916396979
 21
4.20389514563107
 31
0
  0
LINE
  8
0
 62
7
 10
5.671504916396979
 20
4.20389514563107
 30
0
 11
5.687704916396979
 21
4.20389514563107
 31
0
  0
LINE
  8
0
 62
7
 10
5.687704916396979
 20
4.20389514563107
 30
0
 11
5.69580491639698
 21
4.206895145631071
 31
0
  0
LINE
  8
0
 62
7
 10
5.69580491639698
 20
4.206895145631071
 30
0
 11
5.703904916396979
 21
4.212895145631069
 31
0
  0
LINE
  8
0
 62
7
 10
5.703904916396979
 20
4.212895145631069
 30
0
 11
5.70930491639698
 21
4.21889514563107
 31
0
  0
LINE
  8
0
 62
7
 10
5.70930491639698
 20
4.21889514563107
 30
0
 11
5.714704916396979
 21
4.22789514563107
 31
0
  0
LINE
  8
0
 62
7
 10
5.714704916396979
 20
4.22789514563107
 30
0
 11
5.717404916396981
 21
4.23989514563107
 31
0
  0
LINE
  8
0
 62
7
 10
5.717404916396981
 20
4.23989514563107
 30
0
 11
5.717404916396981
 21
4.28789514563107
 31
0
  0
LINE
  8
0
 62
7
 10
5.717404916396981
 20
4.28789514563107
 30
0
 11
5.714704916396979
 21
4.29989514563107
 31
0
  0
LINE
  8
0
 62
7
 10
5.714704916396979
 20
4.29989514563107
 30
0
 11
5.70930491639698
 21
4.30889514563107
 31
0
  0
LINE
  8
0
 62
7
 10
5.70930491639698
 20
4.30889514563107
 30
0
 11
5.703904916396979
 21
4.31489514563107
 31
0
  0
LINE
  8
0
 62
7
 10
5.703904916396979
 20
4.31489514563107
 30
0
 11
5.69580491639698
 21
4.32089514563107
 31
0
  0
LINE
  8
0
 62
7
 10
5.69580491639698
 20
4.32089514563107
 30
0
 11
5.687704916396979
 21
4.323895145631069
 31
0
  0
LINE
  8
0
 62
7
 10
5.73900491639698
 20
4.323895145631069
 30
0
 11
5.776804916396981
 21
4.323895145631069
 31
0
  0
LINE
  8
0
 62
7
 10
5.776804916396981
 20
4.323895145631069
 30
0
 11
5.776804916396981
 21
4.20389514563107
 31
0
  0
LINE
  8
0
 62
7
 10
5.776804916396981
 20
4.323895145631069
 30
0
 11
5.814604916396981
 21
4.323895145631069
 31
0
  0
LINE
  8
0
 62
7
 10
5.847004916396981
 20
4.323895145631069
 30
0
 11
5.88480491639698
 21
4.323895145631069
 31
0
  0
LINE
  8
0
 62
7
 10
5.88480491639698
 20
4.323895145631069
 30
0
 11
5.88480491639698
 21
4.20389514563107
 31
0
  0
LINE
  8
0
 62
7
 10
5.88480491639698
 20
4.323895145631069
 30
0
 11
5.922604916396981
 21
4.323895145631069
 31
0
  0
LINE
  8
0
 62
7
 10
6.04140491639698
 20
4.24589514563107
 30
0
 11
6.09540491639698
 21
4.24589514563107
 31
0
  0
LINE
  8
0
 62
7
 10
6.20340491639698
 20
4.323895145631069
 30
0
 11
6.241204916396981
 21
4.323895145631069
 31
0
  0
LINE
  8
0
 62
7
 10
6.241204916396981
 20
4.323895145631069
 30
0
 11
6.241204916396981
 21
4.20389514563107
 31
0
  0
LINE
  8
0
 62
7
 10
6.241204916396981
 20
4.323895145631069
 30
0
 11
6.27900491639698
 21
4.323895145631069
 31
0
  0
LINE
  8
0
 62
7
 10
6.31140491639698
 20
4.20389514563107
 30
0
 11
6.31140491639698
 21
4.323895145631069
 31
0
  0
LINE
  8
0
 62
7
 10
6.31140491639698
 20
4.323895145631069
 30
0
 11
6.36270491639698
 21
4.323895145631069
 31
0
  0
LINE
  8
0
 62
7
 10
6.36270491639698
 20
4.323895145631069
 30
0
 11
6.37350491639698
 21
4.32089514563107
 31
0
  0
LINE
  8
0
 62
7
 10
6.37350491639698
 20
4.32089514563107
 30
0
 11
6.381604916396981
 21
4.31489514563107
 31
0
  0
LINE
  8
0
 62
7
 10
6.381604916396981
 20
4.31489514563107
 30
0
 11
6.38430491639698
 21
4.30889514563107
 31
0
  0
LINE
  8
0
 62
7
 10
6.38430491639698
 20
4.30889514563107
 30
0
 11
6.387004916396982
 21
4.29989514563107
 31
0
  0
LINE
  8
0
 62
7
 10
6.387004916396982
 20
4.29989514563107
 30
0
 11
6.387004916396982
 21
4.28789514563107
 31
0
  0
LINE
  8
0
 62
7
 10
6.387004916396982
 20
4.28789514563107
 30
0
 11
6.38430491639698
 21
4.27889514563107
 31
0
  0
LINE
  8
0
 62
7
 10
6.38430491639698
 20
4.27889514563107
 30
0
 11
6.381604916396981
 21
4.27289514563107
 31
0
  0
LINE
  8
0
 62
7
 10
6.381604916396981
 20
4.27289514563107
 30
0
 11
6.37350491639698
 21
4.266895145631071
 31
0
  0
LINE
  8
0
 62
7
 10
6.37350491639698
 20
4.266895145631071
 30
0
 11
6.36270491639698
 21
4.263895145631071
 31
0
  0
LINE
  8
0
 62
7
 10
6.36270491639698
 20
4.263895145631071
 30
0
 11
6.35460491639698
 21
4.263895145631071
 31
0
  0
LINE
  8
0
 62
7
 10
6.35460491639698
 20
4.263895145631071
 30
0
 11
6.387004916396982
 21
4.20389514563107
 31
0
  0
LINE
  8
0
 62
7
 10
6.35460491639698
 20
4.263895145631071
 30
0
 11
6.31140491639698
 21
4.263895145631071
 31
0
  0
LINE
  8
0
 62
7
 10
6.484204916396981
 20
4.323895145631069
 30
0
 11
6.408604916396981
 21
4.323895145631069
 31
0
  0
LINE
  8
0
 62
7
 10
6.408604916396981
 20
4.323895145631069
 30
0
 11
6.408604916396981
 21
4.263895145631071
 31
0
  0
LINE
  8
0
 62
7
 10
6.408604916396981
 20
4.20389514563107
 30
0
 11
6.484204916396981
 21
4.20389514563107
 31
0
  0
LINE
  8
0
 62
7
 10
6.47340491639698
 20
4.263895145631071
 30
0
 11
6.408604916396981
 21
4.263895145631071
 31
0
  0
LINE
  8
0
 62
7
 10
6.408604916396981
 20
4.263895145631071
 30
0
 11
6.408604916396981
 21
4.20389514563107
 31
0
  0
LINE
  8
0
 62
7
 10
6.516604916396982
 20
4.20389514563107
 30
0
 11
6.516604916396982
 21
4.263895145631071
 31
0
  0
LINE
  8
0
 62
7
 10
6.516604916396982
 20
4.323895145631069
 30
0
 11
6.567904916396981
 21
4.323895145631069
 31
0
  0
LINE
  8
0
 62
7
 10
6.567904916396981
 20
4.323895145631069
 30
0
 11
6.578704916396982
 21
4.32089514563107
 31
0
  0
LINE
  8
0
 62
7
 10
6.578704916396982
 20
4.32089514563107
 30
0
 11
6.586804916396982
 21
4.31489514563107
 31
0
  0
LINE
  8
0
 62
7
 10
6.586804916396982
 20
4.31489514563107
 30
0
 11
6.58950491639698
 21
4.30889514563107
 31
0
  0
LINE
  8
0
 62
7
 10
6.58950491639698
 20
4.30889514563107
 30
0
 11
6.592204916396982
 21
4.29989514563107
 31
0
  0
LINE
  8
0
 62
7
 10
6.592204916396982
 20
4.29989514563107
 30
0
 11
6.592204916396982
 21
4.28789514563107
 31
0
  0
LINE
  8
0
 62
7
 10
6.592204916396982
 20
4.28789514563107
 30
0
 11
6.58950491639698
 21
4.27889514563107
 31
0
  0
LINE
  8
0
 62
7
 10
6.58950491639698
 20
4.27889514563107
 30
0
 11
6.586804916396982
 21
4.27289514563107
 31
0
  0
LINE
  8
0
 62
7
 10
6.586804916396982
 20
4.27289514563107
 30
0
 11
6.578704916396982
 21
4.266895145631071
 31
0
  0
LINE
  8
0
 62
7
 10
6.578704916396982
 20
4.266895145631071
 30
0
 11
6.567904916396981
 21
4.263895145631071
 31
0
  0
LINE
  8
0
 62
7
 10
6.567904916396981
 20
4.263895145631071
 30
0
 11
6.516604916396982
 21
4.263895145631071
 31
0
  0
LINE
  8
0
 62
7
 10
6.516604916396982
 20
4.263895145631071
 30
0
 11
6.516604916396982
 21
4.323895145631069
 31
0
  0
LINE
  8
0
 62
7
 10
6.61380491639698
 20
4.20389514563107
 30
0
 11
6.61380491639698
 21
4.263895145631071
 31
0
  0
LINE
  8
0
 62
7
 10
6.61380491639698
 20
4.323895145631069
 30
0
 11
6.665104916396982
 21
4.323895145631069
 31
0
  0
LINE
  8
0
 62
7
 10
6.665104916396982
 20
4.323895145631069
 30
0
 11
6.675904916396981
 21
4.32089514563107
 31
0
  0
LINE
  8
0
 62
7
 10
6.675904916396981
 20
4.32089514563107
 30
0
 11
6.684004916396979
 21
4.31489514563107
 31
0
  0
LINE
  8
0
 62
7
 10
6.684004916396979
 20
4.31489514563107
 30
0
 11
6.68670491639698
 21
4.30889514563107
 31
0
  0
LINE
  8
0
 62
7
 10
6.68670491639698
 20
4.30889514563107
 30
0
 11
6.689404916396981
 21
4.29989514563107
 31
0
  0
LINE
  8
0
 62
7
 10
6.689404916396981
 20
4.29989514563107
 30
0
 11
6.689404916396981
 21
4.28789514563107
 31
0
  0
LINE
  8
0
 62
7
 10
6.689404916396981
 20
4.28789514563107
 30
0
 11
6.68670491639698
 21
4.27889514563107
 31
0
  0
LINE
  8
0
 62
7
 10
6.68670491639698
 20
4.27889514563107
 30
0
 11
6.684004916396979
 21
4.27289514563107
 31
0
  0
LINE
  8
0
 62
7
 10
6.684004916396979
 20
4.27289514563107
 30
0
 11
6.675904916396981
 21
4.266895145631071
 31
0
  0
LINE
  8
0
 62
7
 10
6.675904916396981
 20
4.266895145631071
 30
0
 11
6.665104916396982
 21
4.263895145631071
 31
0
  0
LINE
  8
0
 62
7
 10
6.665104916396982
 20
4.263895145631071
 30
0
 11
6.61380491639698
 21
4.263895145631071
 31
0
  0
LINE
  8
0
 62
7
 10
6.61380491639698
 20
4.263895145631071
 30
0
 11
6.61380491639698
 21
4.323895145631069
 31
0
  0
LINE
  8
0
 62
7
 10
6.786604916396981
 20
4.323895145631069
 30
0
 11
6.71100491639698
 21
4.323895145631069
 31
0
  0
LINE
  8
0
 62
7
 10
6.71100491639698
 20
4.323895145631069
 30
0
 11
6.71100491639698
 21
4.263895145631071
 31
0
  0
LINE
  8
0
 62
7
 10
6.71100491639698
 20
4.20389514563107
 30
0
 11
6.786604916396981
 21
4.20389514563107
 31
0
  0
LINE
  8
0
 62
7
 10
6.775804916396982
 20
4.263895145631071
 30
0
 11
6.71100491639698
 21
4.263895145631071
 31
0
  0
LINE
  8
0
 62
7
 10
6.71100491639698
 20
4.263895145631071
 30
0
 11
6.71100491639698
 21
4.20389514563107
 31
0
  0
LINE
  8
0
 62
7
 10
4.375000000000011
 20
2.890000000000002
 30
0
 11
4.375000000000011
 21
3.010000000000002
 31
0
  0
LINE
  8
0
 62
7
 10
4.450600000000011
 20
3.010000000000002
 30
0
 11
4.396600000000013
 21
2.950000000000003
 31
0
  0
LINE
  8
0
 62
7
 10
4.396600000000013
 20
2.950000000000003
 30
0
 11
4.450600000000011
 21
2.890000000000002
 31
0
  0
LINE
  8
0
 62
7
 10
4.396600000000013
 20
2.950000000000003
 30
0
 11
4.375000000000011
 21
2.926000000000004
 31
0
  0
LINE
  8
0
 62
7
 10
4.483000000000011
 20
2.992000000000003
 30
0
 11
4.488400000000012
 21
3.001000000000003
 31
0
  0
LINE
  8
0
 62
7
 10
4.488400000000012
 20
3.001000000000003
 30
0
 11
4.496500000000011
 21
3.007000000000002
 31
0
  0
LINE
  8
0
 62
7
 10
4.496500000000011
 20
3.007000000000002
 30
0
 11
4.507300000000012
 21
3.010000000000002
 31
0
  0
LINE
  8
0
 62
7
 10
4.507300000000012
 20
3.010000000000002
 30
0
 11
4.523500000000012
 21
3.010000000000002
 31
0
  0
LINE
  8
0
 62
7
 10
4.523500000000012
 20
3.010000000000002
 30
0
 11
4.534300000000012
 21
3.007000000000002
 31
0
  0
LINE
  8
0
 62
7
 10
4.534300000000012
 20
3.007000000000002
 30
0
 11
4.54240000000001
 21
3.001000000000003
 31
0
  0
LINE
  8
0
 62
7
 10
4.54240000000001
 20
3.001000000000003
 30
0
 11
4.547800000000012
 21
2.992000000000003
 31
0
  0
LINE
  8
0
 62
7
 10
4.547800000000012
 20
2.992000000000003
 30
0
 11
4.547800000000012
 21
2.980000000000002
 31
0
  0
LINE
  8
0
 62
7
 10
4.547800000000012
 20
2.980000000000002
 30
0
 11
4.54240000000001
 21
2.968000000000002
 31
0
  0
LINE
  8
0
 62
7
 10
4.54240000000001
 20
2.968000000000002
 30
0
 11
4.483000000000011
 21
2.890000000000002
 31
0
  0
LINE
  8
0
 62
7
 10
4.483000000000011
 20
2.890000000000002
 30
0
 11
4.547800000000012
 21
2.890000000000002
 31
0
  0
LINE
  8
0
 62
7
 10
4.580200000000012
 20
3.010000000000002
 30
0
 11
4.618000000000012
 21
2.890000000000002
 31
0
  0
LINE
  8
0
 62
7
 10
4.618000000000012
 20
2.890000000000002
 30
0
 11
4.655800000000012
 21
3.010000000000002
 31
0
  0
LINE
  8
0
 62
7
 10
4.688200000000012
 20
2.992000000000003
 30
0
 11
4.69360000000001
 21
3.001000000000003
 31
0
  0
LINE
  8
0
 62
7
 10
4.69360000000001
 20
3.001000000000003
 30
0
 11
4.701700000000011
 21
3.007000000000002
 31
0
  0
LINE
  8
0
 62
7
 10
4.701700000000011
 20
3.007000000000002
 30
0
 11
4.712500000000011
 21
3.010000000000002
 31
0
  0
LINE
  8
0
 62
7
 10
4.712500000000011
 20
3.010000000000002
 30
0
 11
4.728700000000011
 21
3.010000000000002
 31
0
  0
LINE
  8
0
 62
7
 10
4.728700000000011
 20
3.010000000000002
 30
0
 11
4.739500000000011
 21
3.007000000000002
 31
0
  0
LINE
  8
0
 62
7
 10
4.739500000000011
 20
3.007000000000002
 30
0
 11
4.747600000000012
 21
3.001000000000003
 31
0
  0
LINE
  8
0
 62
7
 10
4.747600000000012
 20
3.001000000000003
 30
0
 11
4.753000000000011
 21
2.992000000000003
 31
0
  0
LINE
  8
0
 62
7
 10
4.753000000000011
 20
2.992000000000003
 30
0
 11
4.753000000000011
 21
2.980000000000002
 31
0
  0
LINE
  8
0
 62
7
 10
4.753000000000011
 20
2.980000000000002
 30
0
 11
4.747600000000012
 21
2.968000000000002
 31
0
  0
LINE
  8
0
 62
7
 10
4.747600000000012
 20
2.968000000000002
 30
0
 11
4.688200000000012
 21
2.890000000000002
 31
0
  0
LINE
  8
0
 62
7
 10
4.688200000000012
 20
2.890000000000002
 30
0
 11
4.753000000000011
 21
2.890000000000002
 31
0
  0
LINE
  8
0
 62
7
 10
4.812400000000011
 20
3.010000000000002
 30
0
 11
4.823200000000011
 21
3.010000000000002
 31
0
  0
LINE
  8
0
 62
7
 10
4.823200000000011
 20
3.010000000000002
 30
0
 11
4.83130000000001
 21
3.007000000000002
 31
0
  0
LINE
  8
0
 62
7
 10
4.83130000000001
 20
3.007000000000002
 30
0
 11
4.836700000000011
 21
3.001000000000003
 31
0
  0
LINE
  8
0
 62
7
 10
4.836700000000011
 20
3.001000000000003
 30
0
 11
4.842100000000012
 21
2.992000000000003
 31
0
  0
LINE
  8
0
 62
7
 10
4.842100000000012
 20
2.992000000000003
 30
0
 11
4.842100000000012
 21
2.980000000000002
 31
0
  0
LINE
  8
0
 62
7
 10
4.842100000000012
 20
2.980000000000002
 30
0
 11
4.839400000000011
 21
2.974000000000004
 31
0
  0
LINE
  8
0
 62
7
 10
4.839400000000011
 20
2.974000000000004
 30
0
 11
4.83130000000001
 21
2.965000000000003
 31
0
  0
LINE
  8
0
 62
7
 10
4.83130000000001
 20
2.965000000000003
 30
0
 11
4.823200000000011
 21
2.962000000000002
 31
0
  0
LINE
  8
0
 62
7
 10
4.823200000000011
 20
2.962000000000002
 30
0
 11
4.812400000000011
 21
2.962000000000002
 31
0
  0
LINE
  8
0
 62
7
 10
4.812400000000011
 20
2.962000000000002
 30
0
 11
4.804300000000011
 21
2.965000000000003
 31
0
  0
LINE
  8
0
 62
7
 10
4.804300000000011
 20
2.965000000000003
 30
0
 11
4.796200000000011
 21
2.974000000000004
 31
0
  0
LINE
  8
0
 62
7
 10
4.796200000000011
 20
2.974000000000004
 30
0
 11
4.793500000000011
 21
2.980000000000002
 31
0
  0
LINE
  8
0
 62
7
 10
4.793500000000011
 20
2.980000000000002
 30
0
 11
4.793500000000011
 21
2.992000000000003
 31
0
  0
LINE
  8
0
 62
7
 10
4.793500000000011
 20
2.992000000000003
 30
0
 11
4.798900000000012
 21
3.001000000000003
 31
0
  0
LINE
  8
0
 62
7
 10
4.798900000000012
 20
3.001000000000003
 30
0
 11
4.804300000000011
 21
3.007000000000002
 31
0
  0
LINE
  8
0
 62
7
 10
4.804300000000011
 20
3.007000000000002
 30
0
 11
4.812400000000011
 21
3.010000000000002
 31
0
  0
LINE
  8
0
 62
7
 10
4.812400000000011
 20
2.962000000000002
 30
0
 11
4.798900000000012
 21
2.956000000000003
 31
0
  0
LINE
  8
0
 62
7
 10
4.798900000000012
 20
2.956000000000003
 30
0
 11
4.790800000000011
 21
2.947000000000003
 31
0
  0
LINE
  8
0
 62
7
 10
4.790800000000011
 20
2.947000000000003
 30
0
 11
4.785400000000011
 21
2.935000000000002
 31
0
  0
LINE
  8
0
 62
7
 10
4.785400000000011
 20
2.935000000000002
 30
0
 11
4.785400000000011
 21
2.917000000000002
 31
0
  0
LINE
  8
0
 62
7
 10
4.785400000000011
 20
2.917000000000002
 30
0
 11
4.790800000000011
 21
2.905000000000002
 31
0
  0
LINE
  8
0
 62
7
 10
4.790800000000011
 20
2.905000000000002
 30
0
 11
4.798900000000012
 21
2.896000000000003
 31
0
  0
LINE
  8
0
 62
7
 10
4.798900000000012
 20
2.896000000000003
 30
0
 11
4.809700000000011
 21
2.890000000000002
 31
0
  0
LINE
  8
0
 62
7
 10
4.809700000000011
 20
2.890000000000002
 30
0
 11
4.825900000000011
 21
2.890000000000002
 31
0
  0
LINE
  8
0
 62
7
 10
4.825900000000011
 20
2.890000000000002
 30
0
 11
4.836700000000011
 21
2.896000000000003
 31
0
  0
LINE
  8
0
 62
7
 10
4.836700000000011
 20
2.896000000000003
 30
0
 11
4.84480000000001
 21
2.905000000000002
 31
0
  0
LINE
  8
0
 62
7
 10
4.84480000000001
 20
2.905000000000002
 30
0
 11
4.850200000000012
 21
2.917000000000002
 31
0
  0
LINE
  8
0
 62
7
 10
4.850200000000012
 20
2.917000000000002
 30
0
 11
4.850200000000012
 21
2.935000000000002
 31
0
  0
LINE
  8
0
 62
7
 10
4.850200000000012
 20
2.935000000000002
 30
0
 11
4.84480000000001
 21
2.947000000000003
 31
0
  0
LINE
  8
0
 62
7
 10
4.84480000000001
 20
2.947000000000003
 30
0
 11
4.836700000000011
 21
2.956000000000003
 31
0
  0
LINE
  8
0
 62
7
 10
4.836700000000011
 20
2.956000000000003
 30
0
 11
4.823200000000011
 21
2.962000000000002
 31
0
  0
LINE
  8
0
 62
7
 10
4.920400000000011
 20
3.010000000000002
 30
0
 11
4.931200000000011
 21
3.010000000000002
 31
0
  0
LINE
  8
0
 62
7
 10
4.931200000000011
 20
3.010000000000002
 30
0
 11
4.93930000000001
 21
3.007000000000002
 31
0
  0
LINE
  8
0
 62
7
 10
4.93930000000001
 20
3.007000000000002
 30
0
 11
4.944700000000012
 21
3.001000000000003
 31
0
  0
LINE
  8
0
 62
7
 10
4.944700000000012
 20
3.001000000000003
 30
0
 11
4.950100000000011
 21
2.992000000000003
 31
0
  0
LINE
  8
0
 62
7
 10
4.950100000000011
 20
2.992000000000003
 30
0
 11
4.950100000000011
 21
2.980000000000002
 31
0
  0
LINE
  8
0
 62
7
 10
4.950100000000011
 20
2.980000000000002
 30
0
 11
4.947400000000011
 21
2.974000000000004
 31
0
  0
LINE
  8
0
 62
7
 10
4.947400000000011
 20
2.974000000000004
 30
0
 11
4.93930000000001
 21
2.965000000000003
 31
0
  0
LINE
  8
0
 62
7
 10
4.93930000000001
 20
2.965000000000003
 30
0
 11
4.931200000000011
 21
2.962000000000002
 31
0
  0
LINE
  8
0
 62
7
 10
4.931200000000011
 20
2.962000000000002
 30
0
 11
4.920400000000011
 21
2.962000000000002
 31
0
  0
LINE
  8
0
 62
7
 10
4.920400000000011
 20
2.962000000000002
 30
0
 11
4.912300000000011
 21
2.965000000000003
 31
0
  0
LINE
  8
0
 62
7
 10
4.912300000000011
 20
2.965000000000003
 30
0
 11
4.904200000000011
 21
2.974000000000004
 31
0
  0
LINE
  8
0
 62
7
 10
4.904200000000011
 20
2.974000000000004
 30
0
 11
4.901500000000011
 21
2.980000000000002
 31
0
  0
LINE
  8
0
 62
7
 10
4.901500000000011
 20
2.980000000000002
 30
0
 11
4.901500000000011
 21
2.992000000000003
 31
0
  0
LINE
  8
0
 62
7
 10
4.901500000000011
 20
2.992000000000003
 30
0
 11
4.906900000000011
 21
3.001000000000003
 31
0
  0
LINE
  8
0
 62
7
 10
4.906900000000011
 20
3.001000000000003
 30
0
 11
4.912300000000011
 21
3.007000000000002
 31
0
  0
LINE
  8
0
 62
7
 10
4.912300000000011
 20
3.007000000000002
 30
0
 11
4.920400000000011
 21
3.010000000000002
 31
0
  0
LINE
  8
0
 62
7
 10
4.920400000000011
 20
2.962000000000002
 30
0
 11
4.906900000000011
 21
2.956000000000003
 31
0
  0
LINE
  8
0
 62
7
 10
4.906900000000011
 20
2.956000000000003
 30
0
 11
4.898800000000011
 21
2.947000000000003
 31
0
  0
LINE
  8
0
 62
7
 10
4.898800000000011
 20
2.947000000000003
 30
0
 11
4.893400000000012
 21
2.935000000000002
 31
0
  0
LINE
  8
0
 62
7
 10
4.893400000000012
 20
2.935000000000002
 30
0
 11
4.893400000000012
 21
2.917000000000002
 31
0
  0
LINE
  8
0
 62
7
 10
4.893400000000012
 20
2.917000000000002
 30
0
 11
4.898800000000011
 21
2.905000000000002
 31
0
  0
LINE
  8
0
 62
7
 10
4.898800000000011
 20
2.905000000000002
 30
0
 11
4.906900000000011
 21
2.896000000000003
 31
0
  0
LINE
  8
0
 62
7
 10
4.906900000000011
 20
2.896000000000003
 30
0
 11
4.917700000000012
 21
2.890000000000002
 31
0
  0
LINE
  8
0
 62
7
 10
4.917700000000012
 20
2.890000000000002
 30
0
 11
4.933900000000012
 21
2.890000000000002
 31
0
  0
LINE
  8
0
 62
7
 10
4.933900000000012
 20
2.890000000000002
 30
0
 11
4.944700000000012
 21
2.896000000000003
 31
0
  0
LINE
  8
0
 62
7
 10
4.944700000000012
 20
2.896000000000003
 30
0
 11
4.952800000000011
 21
2.905000000000002
 31
0
  0
LINE
  8
0
 62
7
 10
4.952800000000011
 20
2.905000000000002
 30
0
 11
4.958200000000011
 21
2.917000000000002
 31
0
  0
LINE
  8
0
 62
7
 10
4.958200000000011
 20
2.917000000000002
 30
0
 11
4.958200000000011
 21
2.935000000000002
 31
0
  0
LINE
  8
0
 62
7
 10
4.958200000000011
 20
2.935000000000002
 30
0
 11
4.952800000000011
 21
2.947000000000003
 31
0
  0
LINE
  8
0
 62
7
 10
4.952800000000011
 20
2.947000000000003
 30
0
 11
4.944700000000012
 21
2.956000000000003
 31
0
  0
LINE
  8
0
 62
7
 10
4.944700000000012
 20
2.956000000000003
 30
0
 11
4.931200000000011
 21
2.962000000000002
 31
0
  0
LINE
  8
0
 62
7
 10
5.001400000000012
 20
2.890000000000002
 30
0
 11
5.001400000000012
 21
3.010000000000002
 31
0
  0
LINE
  8
0
 62
7
 10
5.001400000000012
 20
3.010000000000002
 30
0
 11
5.052700000000012
 21
3.010000000000002
 31
0
  0
LINE
  8
0
 62
7
 10
5.052700000000012
 20
3.010000000000002
 30
0
 11
5.063500000000012
 21
3.007000000000002
 31
0
  0
LINE
  8
0
 62
7
 10
5.063500000000012
 20
3.007000000000002
 30
0
 11
5.07160000000001
 21
3.001000000000003
 31
0
  0
LINE
  8
0
 62
7
 10
5.07160000000001
 20
3.001000000000003
 30
0
 11
5.074300000000011
 21
2.995000000000003
 31
0
  0
LINE
  8
0
 62
7
 10
5.074300000000011
 20
2.995000000000003
 30
0
 11
5.077000000000012
 21
2.986000000000003
 31
0
  0
LINE
  8
0
 62
7
 10
5.077000000000012
 20
2.986000000000003
 30
0
 11
5.077000000000012
 21
2.974000000000004
 31
0
  0
LINE
  8
0
 62
7
 10
5.077000000000012
 20
2.974000000000004
 30
0
 11
5.074300000000011
 21
2.965000000000003
 31
0
  0
LINE
  8
0
 62
7
 10
5.074300000000011
 20
2.965000000000003
 30
0
 11
5.07160000000001
 21
2.959000000000003
 31
0
  0
LINE
  8
0
 62
7
 10
5.07160000000001
 20
2.959000000000003
 30
0
 11
5.063500000000012
 21
2.953000000000002
 31
0
  0
LINE
  8
0
 62
7
 10
5.063500000000012
 20
2.953000000000002
 30
0
 11
5.052700000000012
 21
2.950000000000003
 31
0
  0
LINE
  8
0
 62
7
 10
5.052700000000012
 20
2.950000000000003
 30
0
 11
5.044600000000012
 21
2.950000000000003
 31
0
  0
LINE
  8
0
 62
7
 10
5.044600000000012
 20
2.950000000000003
 30
0
 11
5.077000000000012
 21
2.890000000000002
 31
0
  0
LINE
  8
0
 62
7
 10
5.044600000000012
 20
2.950000000000003
 30
0
 11
5.001400000000012
 21
2.950000000000003
 31
0
  0
LINE
  8
0
 62
7
 10
5.098600000000013
 20
2.992000000000003
 30
0
 11
5.104000000000012
 21
3.001000000000003
 31
0
  0
LINE
  8
0
 62
7
 10
5.104000000000012
 20
3.001000000000003
 30
0
 11
5.112100000000012
 21
3.007000000000002
 31
0
  0
LINE
  8
0
 62
7
 10
5.112100000000012
 20
3.007000000000002
 30
0
 11
5.122900000000013
 21
3.010000000000002
 31
0
  0
LINE
  8
0
 62
7
 10
5.122900000000013
 20
3.010000000000002
 30
0
 11
5.139100000000012
 21
3.010000000000002
 31
0
  0
LINE
  8
0
 62
7
 10
5.139100000000012
 20
3.010000000000002
 30
0
 11
5.147200000000012
 21
3.007000000000002
 31
0
  0
LINE
  8
0
 62
7
 10
5.147200000000012
 20
3.007000000000002
 30
0
 11
5.155300000000011
 21
3.001000000000003
 31
0
  0
LINE
  8
0
 62
7
 10
5.155300000000011
 20
3.001000000000003
 30
0
 11
5.160700000000013
 21
2.992000000000003
 31
0
  0
LINE
  8
0
 62
7
 10
5.160700000000013
 20
2.992000000000003
 30
0
 11
5.163400000000012
 21
2.980000000000002
 31
0
  0
LINE
  8
0
 62
7
 10
5.163400000000012
 20
2.980000000000002
 30
0
 11
5.163400000000012
 21
2.971000000000004
 31
0
  0
LINE
  8
0
 62
7
 10
5.163400000000012
 20
2.971000000000004
 30
0
 11
5.160700000000013
 21
2.962000000000002
 31
0
  0
LINE
  8
0
 62
7
 10
5.160700000000013
 20
2.962000000000002
 30
0
 11
5.155300000000011
 21
2.956000000000003
 31
0
  0
LINE
  8
0
 62
7
 10
5.155300000000011
 20
2.956000000000003
 30
0
 11
5.141800000000011
 21
2.950000000000003
 31
0
  0
LINE
  8
0
 62
7
 10
5.122900000000013
 20
2.950000000000003
 30
0
 11
5.141800000000011
 21
2.950000000000003
 31
0
  0
LINE
  8
0
 62
7
 10
5.141800000000011
 20
2.950000000000003
 30
0
 11
5.155300000000011
 21
2.944000000000004
 31
0
  0
LINE
  8
0
 62
7
 10
5.155300000000011
 20
2.944000000000004
 30
0
 11
5.160700000000013
 21
2.938000000000002
 31
0
  0
LINE
  8
0
 62
7
 10
5.160700000000013
 20
2.938000000000002
 30
0
 11
5.163400000000012
 21
2.929000000000003
 31
0
  0
LINE
  8
0
 62
7
 10
5.163400000000012
 20
2.929000000000003
 30
0
 11
5.163400000000012
 21
2.920000000000003
 31
0
  0
LINE
  8
0
 62
7
 10
5.163400000000012
 20
2.920000000000003
 30
0
 11
5.160700000000013
 21
2.908000000000002
 31
0
  0
LINE
  8
0
 62
7
 10
5.160700000000013
 20
2.908000000000002
 30
0
 11
5.155300000000011
 21
2.899000000000004
 31
0
  0
LINE
  8
0
 62
7
 10
5.155300000000011
 20
2.899000000000004
 30
0
 11
5.147200000000012
 21
2.893000000000002
 31
0
  0
LINE
  8
0
 62
7
 10
5.147200000000012
 20
2.893000000000002
 30
0
 11
5.139100000000012
 21
2.890000000000002
 31
0
  0
LINE
  8
0
 62
7
 10
5.139100000000012
 20
2.890000000000002
 30
0
 11
5.122900000000013
 21
2.890000000000002
 31
0
  0
LINE
  8
0
 62
7
 10
5.122900000000013
 20
2.890000000000002
 30
0
 11
5.112100000000012
 21
2.893000000000002
 31
0
  0
LINE
  8
0
 62
7
 10
5.112100000000012
 20
2.893000000000002
 30
0
 11
5.104000000000012
 21
2.899000000000004
 31
0
  0
LINE
  8
0
 62
7
 10
5.104000000000012
 20
2.899000000000004
 30
0
 11
5.098600000000013
 21
2.908000000000002
 31
0
  0
LINE
  8
0
 62
7
 10
6.875000000000012
 20
2.890000000000002
 30
0
 11
6.875000000000012
 21
2.990000000000002
 31
0
  0
LINE
  8
0
 62
7
 10
6.875000000000012
 20
2.990000000000002
 30
0
 11
6.938000000000011
 21
2.890000000000002
 31
0
  0
LINE
  8
0
 62
7
 10
6.938000000000011
 20
2.890000000000002
 30
0
 11
6.938000000000011
 21
2.990000000000002
 31
0
  0
LINE
  8
0
 62
7
 10
7.019000000000012
 20
2.890000000000002
 30
0
 11
6.965000000000011
 21
2.890000000000002
 31
0
  0
LINE
  8
0
 62
7
 10
6.965000000000011
 20
2.890000000000002
 30
0
 11
6.965000000000011
 21
2.990000000000002
 31
0
  0
LINE
  8
0
 62
7
 10
7.046000000000013
 20
2.940000000000003
 30
0
 11
7.082000000000012
 21
2.940000000000003
 31
0
  0
LINE
  8
0
 62
7
 10
7.082000000000012
 20
2.940000000000003
 30
0
 11
7.086500000000012
 21
2.940000000000003
 31
0
  0
LINE
  8
0
 62
7
 10
7.086500000000012
 20
2.940000000000003
 30
0
 11
7.095500000000012
 21
2.935000000000002
 31
0
  0
LINE
  8
0
 62
7
 10
7.095500000000012
 20
2.935000000000002
 30
0
 11
7.100000000000012
 21
2.930000000000002
 31
0
  0
LINE
  8
0
 62
7
 10
7.100000000000012
 20
2.930000000000002
 30
0
 11
7.104500000000012
 21
2.920000000000003
 31
0
  0
LINE
  8
0
 62
7
 10
7.104500000000012
 20
2.920000000000003
 30
0
 11
7.104500000000012
 21
2.910000000000002
 31
0
  0
LINE
  8
0
 62
7
 10
7.104500000000012
 20
2.910000000000002
 30
0
 11
7.100000000000012
 21
2.900000000000003
 31
0
  0
LINE
  8
0
 62
7
 10
7.100000000000012
 20
2.900000000000003
 30
0
 11
7.095500000000012
 21
2.895000000000003
 31
0
  0
LINE
  8
0
 62
7
 10
7.095500000000012
 20
2.895000000000003
 30
0
 11
7.086500000000012
 21
2.890000000000002
 31
0
  0
LINE
  8
0
 62
7
 10
7.086500000000012
 20
2.890000000000002
 30
0
 11
7.046000000000013
 21
2.890000000000002
 31
0
  0
LINE
  8
0
 62
7
 10
7.046000000000013
 20
2.890000000000002
 30
0
 11
7.046000000000013
 21
2.940000000000003
 31
0
  0
LINE
  8
0
 62
7
 10
7.046000000000013
 20
2.990000000000002
 30
0
 11
7.079750000000011
 21
2.990000000000002
 31
0
  0
LINE
  8
0
 62
7
 10
7.079750000000011
 20
2.990000000000002
 30
0
 11
7.091000000000013
 21
2.987500000000002
 31
0
  0
LINE
  8
0
 62
7
 10
7.091000000000013
 20
2.987500000000002
 30
0
 11
7.097750000000011
 21
2.980000000000002
 31
0
  0
LINE
  8
0
 62
7
 10
7.097750000000011
 20
2.980000000000002
 30
0
 11
7.100000000000012
 21
2.970000000000002
 31
0
  0
LINE
  8
0
 62
7
 10
7.100000000000012
 20
2.970000000000002
 30
0
 11
7.100000000000012
 21
2.960000000000003
 31
0
  0
LINE
  8
0
 62
7
 10
7.100000000000012
 20
2.960000000000003
 30
0
 11
7.095500000000012
 21
2.950000000000003
 31
0
  0
LINE
  8
0
 62
7
 10
7.095500000000012
 20
2.950000000000003
 30
0
 11
7.088750000000012
 21
2.942500000000003
 31
0
  0
LINE
  8
0
 62
7
 10
7.088750000000012
 20
2.942500000000003
 30
0
 11
7.082000000000012
 21
2.940000000000003
 31
0
  0
LINE
  8
0
 62
7
 10
7.046000000000013
 20
2.940000000000003
 30
0
 11
7.046000000000013
 21
2.990000000000002
 31
0
  0
LINE
  8
0
 62
7
 10
7.246250000000011
 20
2.942500000000003
 30
0
 11
7.239500000000013
 21
2.952500000000002
 31
0
  0
LINE
  8
0
 62
7
 10
7.239500000000013
 20
2.952500000000002
 30
0
 11
7.232750000000012
 21
2.957500000000003
 31
0
  0
LINE
  8
0
 62
7
 10
7.232750000000012
 20
2.957500000000003
 30
0
 11
7.226000000000012
 21
2.960000000000003
 31
0
  0
LINE
  8
0
 62
7
 10
7.226000000000012
 20
2.960000000000003
 30
0
 11
7.217000000000012
 21
2.960000000000003
 31
0
  0
LINE
  8
0
 62
7
 10
7.217000000000012
 20
2.960000000000003
 30
0
 11
7.210250000000011
 21
2.957500000000003
 31
0
  0
LINE
  8
0
 62
7
 10
7.210250000000011
 20
2.957500000000003
 30
0
 11
7.203500000000012
 21
2.952500000000002
 31
0
  0
LINE
  8
0
 62
7
 10
7.203500000000012
 20
2.952500000000002
 30
0
 11
7.196750000000012
 21
2.942500000000003
 31
0
  0
LINE
  8
0
 62
7
 10
7.196750000000012
 20
2.942500000000003
 30
0
 11
7.194500000000012
 21
2.935000000000002
 31
0
  0
LINE
  8
0
 62
7
 10
7.194500000000012
 20
2.935000000000002
 30
0
 11
7.194500000000012
 21
2.915000000000003
 31
0
  0
LINE
  8
0
 62
7
 10
7.194500000000012
 20
2.915000000000003
 30
0
 11
7.196750000000012
 21
2.907500000000002
 31
0
  0
LINE
  8
0
 62
7
 10
7.196750000000012
 20
2.907500000000002
 30
0
 11
7.203500000000012
 21
2.897500000000003
 31
0
  0
LINE
  8
0
 62
7
 10
7.203500000000012
 20
2.897500000000003
 30
0
 11
7.210250000000011
 21
2.892500000000002
 31
0
  0
LINE
  8
0
 62
7
 10
7.210250000000011
 20
2.892500000000002
 30
0
 11
7.217000000000012
 21
2.890000000000002
 31
0
  0
LINE
  8
0
 62
7
 10
7.217000000000012
 20
2.890000000000002
 30
0
 11
7.226000000000012
 21
2.890000000000002
 31
0
  0
LINE
  8
0
 62
7
 10
7.226000000000012
 20
2.890000000000002
 30
0
 11
7.232750000000012
 21
2.892500000000002
 31
0
  0
LINE
  8
0
 62
7
 10
7.232750000000012
 20
2.892500000000002
 30
0
 11
7.239500000000013
 21
2.897500000000003
 31
0
  0
LINE
  8
0
 62
7
 10
7.239500000000013
 20
2.897500000000003
 30
0
 11
7.246250000000011
 21
2.907500000000002
 31
0
  0
LINE
  8
0
 62
7
 10
7.318250000000012
 20
2.935000000000002
 30
0
 11
7.316000000000013
 21
2.942500000000003
 31
0
  0
LINE
  8
0
 62
7
 10
7.316000000000013
 20
2.942500000000003
 30
0
 11
7.309250000000012
 21
2.952500000000002
 31
0
  0
LINE
  8
0
 62
7
 10
7.309250000000012
 20
2.952500000000002
 30
0
 11
7.302500000000011
 21
2.957500000000003
 31
0
  0
LINE
  8
0
 62
7
 10
7.302500000000011
 20
2.957500000000003
 30
0
 11
7.295750000000012
 21
2.960000000000003
 31
0
  0
LINE
  8
0
 62
7
 10
7.295750000000012
 20
2.960000000000003
 30
0
 11
7.286750000000011
 21
2.960000000000003
 31
0
  0
LINE
  8
0
 62
7
 10
7.286750000000011
 20
2.960000000000003
 30
0
 11
7.280000000000012
 21
2.957500000000003
 31
0
  0
LINE
  8
0
 62
7
 10
7.280000000000012
 20
2.957500000000003
 30
0
 11
7.273250000000012
 21
2.952500000000002
 31
0
  0
LINE
  8
0
 62
7
 10
7.273250000000012
 20
2.952500000000002
 30
0
 11
7.266500000000011
 21
2.942500000000003
 31
0
  0
LINE
  8
0
 62
7
 10
7.266500000000011
 20
2.942500000000003
 30
0
 11
7.264250000000011
 21
2.935000000000002
 31
0
  0
LINE
  8
0
 62
7
 10
7.264250000000011
 20
2.935000000000002
 30
0
 11
7.264250000000011
 21
2.915000000000003
 31
0
  0
LINE
  8
0
 62
7
 10
7.264250000000011
 20
2.915000000000003
 30
0
 11
7.266500000000011
 21
2.907500000000002
 31
0
  0
LINE
  8
0
 62
7
 10
7.266500000000011
 20
2.907500000000002
 30
0
 11
7.273250000000012
 21
2.897500000000003
 31
0
  0
LINE
  8
0
 62
7
 10
7.273250000000012
 20
2.897500000000003
 30
0
 11
7.280000000000012
 21
2.892500000000002
 31
0
  0
LINE
  8
0
 62
7
 10
7.280000000000012
 20
2.892500000000002
 30
0
 11
7.286750000000011
 21
2.890000000000002
 31
0
  0
LINE
  8
0
 62
7
 10
7.286750000000011
 20
2.890000000000002
 30
0
 11
7.295750000000012
 21
2.890000000000002
 31
0
  0
LINE
  8
0
 62
7
 10
7.295750000000012
 20
2.890000000000002
 30
0
 11
7.302500000000011
 21
2.892500000000002
 31
0
  0
LINE
  8
0
 62
7
 10
7.302500000000011
 20
2.892500000000002
 30
0
 11
7.309250000000012
 21
2.897500000000003
 31
0
  0
LINE
  8
0
 62
7
 10
7.309250000000012
 20
2.897500000000003
 30
0
 11
7.316000000000013
 21
2.907500000000002
 31
0
  0
LINE
  8
0
 62
7
 10
7.316000000000013
 20
2.907500000000002
 30
0
 11
7.318250000000012
 21
2.915000000000003
 31
0
  0
LINE
  8
0
 62
7
 10
7.318250000000012
 20
2.960000000000003
 30
0
 11
7.318250000000012
 21
2.935000000000002
 31
0
  0
LINE
  8
0
 62
7
 10
7.318250000000012
 20
2.892500000000002
 30
0
 11
7.320500000000012
 21
2.890000000000002
 31
0
  0
LINE
  8
0
 62
7
 10
7.320500000000012
 20
2.890000000000002
 30
0
 11
7.322750000000011
 21
2.890000000000002
 31
0
  0
LINE
  8
0
 62
7
 10
7.318250000000012
 20
2.915000000000003
 30
0
 11
7.318250000000012
 21
2.892500000000002
 31
0
  0
LINE
  8
0
 62
7
 10
7.318250000000012
 20
2.935000000000002
 30
0
 11
7.318250000000012
 21
2.915000000000003
 31
0
  0
LINE
  8
0
 62
7
 10
7.340750000000013
 20
2.890000000000002
 30
0
 11
7.340750000000013
 21
2.892500000000002
 31
0
  0
LINE
  8
0
 62
7
 10
7.340750000000013
 20
2.892500000000002
 30
0
 11
7.343000000000011
 21
2.892500000000002
 31
0
  0
LINE
  8
0
 62
7
 10
7.343000000000011
 20
2.892500000000002
 30
0
 11
7.343000000000011
 21
2.890000000000002
 31
0
  0
LINE
  8
0
 62
7
 10
7.343000000000011
 20
2.890000000000002
 30
0
 11
7.340750000000013
 21
2.890000000000002
 31
0
  0
LINE
  8
0
 62
7
 10
7.466750000000012
 20
2.990000000000002
 30
0
 11
7.475750000000012
 21
2.990000000000002
 31
0
  0
LINE
  8
0
 62
7
 10
7.475750000000012
 20
2.990000000000002
 30
0
 11
7.482500000000012
 21
2.987500000000002
 31
0
  0
LINE
  8
0
 62
7
 10
7.482500000000012
 20
2.987500000000002
 30
0
 11
7.487000000000013
 21
2.982500000000003
 31
0
  0
LINE
  8
0
 62
7
 10
7.487000000000013
 20
2.982500000000003
 30
0
 11
7.491500000000011
 21
2.975000000000003
 31
0
  0
LINE
  8
0
 62
7
 10
7.491500000000011
 20
2.975000000000003
 30
0
 11
7.491500000000011
 21
2.965000000000003
 31
0
  0
LINE
  8
0
 62
7
 10
7.491500000000011
 20
2.965000000000003
 30
0
 11
7.489250000000012
 21
2.960000000000003
 31
0
  0
LINE
  8
0
 62
7
 10
7.489250000000012
 20
2.960000000000003
 30
0
 11
7.482500000000012
 21
2.952500000000002
 31
0
  0
LINE
  8
0
 62
7
 10
7.482500000000012
 20
2.952500000000002
 30
0
 11
7.475750000000012
 21
2.950000000000003
 31
0
  0
LINE
  8
0
 62
7
 10
7.475750000000012
 20
2.950000000000003
 30
0
 11
7.466750000000012
 21
2.950000000000003
 31
0
  0
LINE
  8
0
 62
7
 10
7.466750000000012
 20
2.950000000000003
 30
0
 11
7.460000000000012
 21
2.952500000000002
 31
0
  0
LINE
  8
0
 62
7
 10
7.460000000000012
 20
2.952500000000002
 30
0
 11
7.453250000000013
 21
2.960000000000003
 31
0
  0
LINE
  8
0
 62
7
 10
7.453250000000013
 20
2.960000000000003
 30
0
 11
7.451000000000012
 21
2.965000000000003
 31
0
  0
LINE
  8
0
 62
7
 10
7.451000000000012
 20
2.965000000000003
 30
0
 11
7.451000000000012
 21
2.975000000000003
 31
0
  0
LINE
  8
0
 62
7
 10
7.451000000000012
 20
2.975000000000003
 30
0
 11
7.455500000000011
 21
2.982500000000003
 31
0
  0
LINE
  8
0
 62
7
 10
7.455500000000011
 20
2.982500000000003
 30
0
 11
7.460000000000012
 21
2.987500000000002
 31
0
  0
LINE
  8
0
 62
7
 10
7.460000000000012
 20
2.987500000000002
 30
0
 11
7.466750000000012
 21
2.990000000000002
 31
0
  0
LINE
  8
0
 62
7
 10
7.466750000000012
 20
2.950000000000003
 30
0
 11
7.455500000000011
 21
2.945000000000003
 31
0
  0
LINE
  8
0
 62
7
 10
7.455500000000011
 20
2.945000000000003
 30
0
 11
7.448750000000011
 21
2.937500000000003
 31
0
  0
LINE
  8
0
 62
7
 10
7.448750000000011
 20
2.937500000000003
 30
0
 11
7.444250000000011
 21
2.927500000000002
 31
0
  0
LINE
  8
0
 62
7
 10
7.444250000000011
 20
2.927500000000002
 30
0
 11
7.444250000000011
 21
2.912500000000003
 31
0
  0
LINE
  8
0
 62
7
 10
7.444250000000011
 20
2.912500000000003
 30
0
 11
7.448750000000011
 21
2.902500000000003
 31
0
  0
LINE
  8
0
 62
7
 10
7.448750000000011
 20
2.902500000000003
 30
0
 11
7.455500000000011
 21
2.895000000000003
 31
0
  0
LINE
  8
0
 62
7
 10
7.455500000000011
 20
2.895000000000003
 30
0
 11
7.464500000000013
 21
2.890000000000002
 31
0
  0
LINE
  8
0
 62
7
 10
7.464500000000013
 20
2.890000000000002
 30
0
 11
7.478000000000012
 21
2.890000000000002
 31
0
  0
LINE
  8
0
 62
7
 10
7.478000000000012
 20
2.890000000000002
 30
0
 11
7.487000000000013
 21
2.895000000000003
 31
0
  0
LINE
  8
0
 62
7
 10
7.487000000000013
 20
2.895000000000003
 30
0
 11
7.493750000000012
 21
2.902500000000003
 31
0
  0
LINE
  8
0
 62
7
 10
7.493750000000012
 20
2.902500000000003
 30
0
 11
7.498250000000012
 21
2.912500000000003
 31
0
  0
LINE
  8
0
 62
7
 10
7.498250000000012
 20
2.912500000000003
 30
0
 11
7.498250000000012
 21
2.927500000000002
 31
0
  0
LINE
  8
0
 62
7
 10
7.498250000000012
 20
2.927500000000002
 30
0
 11
7.493750000000012
 21
2.937500000000003
 31
0
  0
LINE
  8
0
 62
7
 10
7.493750000000012
 20
2.937500000000003
 30
0
 11
7.487000000000013
 21
2.945000000000003
 31
0
  0
LINE
  8
0
 62
7
 10
7.487000000000013
 20
2.945000000000003
 30
0
 11
7.475750000000012
 21
2.950000000000003
 31
0
  0
LINE
  8
0
 62
7
 10
7.583750000000011
 20
2.990000000000002
 30
0
 11
7.534250000000012
 21
2.990000000000002
 31
0
  0
LINE
  8
0
 62
7
 10
7.534250000000012
 20
2.990000000000002
 30
0
 11
7.534250000000012
 21
2.940000000000003
 31
0
  0
LINE
  8
0
 62
7
 10
7.534250000000012
 20
2.940000000000003
 30
0
 11
7.538750000000012
 21
2.947500000000002
 31
0
  0
LINE
  8
0
 62
7
 10
7.538750000000012
 20
2.947500000000002
 30
0
 11
7.545500000000011
 21
2.952500000000002
 31
0
  0
LINE
  8
0
 62
7
 10
7.545500000000011
 20
2.952500000000002
 30
0
 11
7.554500000000012
 21
2.955000000000002
 31
0
  0
LINE
  8
0
 62
7
 10
7.554500000000012
 20
2.955000000000002
 30
0
 11
7.568000000000011
 21
2.955000000000002
 31
0
  0
LINE
  8
0
 62
7
 10
7.568000000000011
 20
2.955000000000002
 30
0
 11
7.574750000000012
 21
2.952500000000002
 31
0
  0
LINE
  8
0
 62
7
 10
7.574750000000012
 20
2.952500000000002
 30
0
 11
7.581500000000012
 21
2.947500000000002
 31
0
  0
LINE
  8
0
 62
7
 10
7.581500000000012
 20
2.947500000000002
 30
0
 11
7.586000000000012
 21
2.940000000000003
 31
0
  0
LINE
  8
0
 62
7
 10
7.586000000000012
 20
2.940000000000003
 30
0
 11
7.588250000000013
 21
2.930000000000002
 31
0
  0
LINE
  8
0
 62
7
 10
7.588250000000013
 20
2.930000000000002
 30
0
 11
7.588250000000013
 21
2.915000000000003
 31
0
  0
LINE
  8
0
 62
7
 10
7.588250000000013
 20
2.915000000000003
 30
0
 11
7.586000000000012
 21
2.905000000000002
 31
0
  0
LINE
  8
0
 62
7
 10
7.586000000000012
 20
2.905000000000002
 30
0
 11
7.581500000000012
 21
2.897500000000003
 31
0
  0
LINE
  8
0
 62
7
 10
7.581500000000012
 20
2.897500000000003
 30
0
 11
7.574750000000012
 21
2.892500000000002
 31
0
  0
LINE
  8
0
 62
7
 10
7.574750000000012
 20
2.892500000000002
 30
0
 11
7.568000000000011
 21
2.890000000000002
 31
0
  0
LINE
  8
0
 62
7
 10
7.568000000000011
 20
2.890000000000002
 30
0
 11
7.554500000000012
 21
2.890000000000002
 31
0
  0
LINE
  8
0
 62
7
 10
7.554500000000012
 20
2.890000000000002
 30
0
 11
7.545500000000011
 21
2.892500000000002
 31
0
  0
LINE
  8
0
 62
7
 10
7.545500000000011
 20
2.892500000000002
 30
0
 11
7.538750000000012
 21
2.897500000000003
 31
0
  0
LINE
  8
0
 62
7
 10
7.538750000000012
 20
2.897500000000003
 30
0
 11
7.534250000000012
 21
2.905000000000002
 31
0
  0
LINE
  8
0
 62
7
 10
7.739000000000011
 20
2.942500000000003
 30
0
 11
7.732250000000012
 21
2.952500000000002
 31
0
  0
LINE
  8
0
 62
7
 10
7.732250000000012
 20
2.952500000000002
 30
0
 11
7.725500000000011
 21
2.957500000000003
 31
0
  0
LINE
  8
0
 62
7
 10
7.725500000000011
 20
2.957500000000003
 30
0
 11
7.718750000000012
 21
2.960000000000003
 31
0
  0
LINE
  8
0
 62
7
 10
7.718750000000012
 20
2.960000000000003
 30
0
 11
7.709750000000013
 21
2.960000000000003
 31
0
  0
LINE
  8
0
 62
7
 10
7.709750000000013
 20
2.960000000000003
 30
0
 11
7.703000000000012
 21
2.957500000000003
 31
0
  0
LINE
  8
0
 62
7
 10
7.703000000000012
 20
2.957500000000003
 30
0
 11
7.696250000000011
 21
2.952500000000002
 31
0
  0
LINE
  8
0
 62
7
 10
7.696250000000011
 20
2.952500000000002
 30
0
 11
7.689500000000013
 21
2.942500000000003
 31
0
  0
LINE
  8
0
 62
7
 10
7.689500000000013
 20
2.942500000000003
 30
0
 11
7.687250000000012
 21
2.935000000000002
 31
0
  0
LINE
  8
0
 62
7
 10
7.687250000000012
 20
2.935000000000002
 30
0
 11
7.687250000000012
 21
2.915000000000003
 31
0
  0
LINE
  8
0
 62
7
 10
7.687250000000012
 20
2.915000000000003
 30
0
 11
7.689500000000013
 21
2.907500000000002
 31
0
  0
LINE
  8
0
 62
7
 10
7.689500000000013
 20
2.907500000000002
 30
0
 11
7.696250000000011
 21
2.897500000000003
 31
0
  0
LINE
  8
0
 62
7
 10
7.696250000000011
 20
2.897500000000003
 30
0
 11
7.703000000000012
 21
2.892500000000002
 31
0
  0
LINE
  8
0
 62
7
 10
7.703000000000012
 20
2.892500000000002
 30
0
 11
7.709750000000013
 21
2.890000000000002
 31
0
  0
LINE
  8
0
 62
7
 10
7.709750000000013
 20
2.890000000000002
 30
0
 11
7.718750000000012
 21
2.890000000000002
 31
0
  0
LINE
  8
0
 62
7
 10
7.718750000000012
 20
2.890000000000002
 30
0
 11
7.725500000000011
 21
2.892500000000002
 31
0
  0
LINE
  8
0
 62
7
 10
7.725500000000011
 20
2.892500000000002
 30
0
 11
7.732250000000012
 21
2.897500000000003
 31
0
  0
LINE
  8
0
 62
7
 10
7.732250000000012
 20
2.897500000000003
 30
0
 11
7.739000000000011
 21
2.907500000000002
 31
0
  0
LINE
  8
0
 62
7
 10
7.797500000000011
 20
2.935000000000002
 30
0
 11
7.797500000000011
 21
2.890000000000002
 31
0
  0
LINE
  8
0
 62
7
 10
7.757000000000012
 20
2.960000000000003
 30
0
 11
7.757000000000012
 21
2.935000000000002
 31
0
  0
LINE
  8
0
 62
7
 10
7.757000000000012
 20
2.890000000000002
 30
0
 11
7.757000000000012
 21
2.935000000000002
 31
0
  0
LINE
  8
0
 62
7
 10
7.757000000000012
 20
2.935000000000002
 30
0
 11
7.759250000000012
 21
2.947500000000002
 31
0
  0
LINE
  8
0
 62
7
 10
7.759250000000012
 20
2.947500000000002
 30
0
 11
7.761500000000011
 21
2.952500000000002
 31
0
  0
LINE
  8
0
 62
7
 10
7.761500000000011
 20
2.952500000000002
 30
0
 11
7.766000000000012
 21
2.957500000000003
 31
0
  0
LINE
  8
0
 62
7
 10
7.766000000000012
 20
2.957500000000003
 30
0
 11
7.772750000000011
 21
2.960000000000003
 31
0
  0
LINE
  8
0
 62
7
 10
7.772750000000011
 20
2.960000000000003
 30
0
 11
7.781750000000011
 21
2.960000000000003
 31
0
  0
LINE
  8
0
 62
7
 10
7.781750000000011
 20
2.960000000000003
 30
0
 11
7.788500000000012
 21
2.957500000000003
 31
0
  0
LINE
  8
0
 62
7
 10
7.788500000000012
 20
2.957500000000003
 30
0
 11
7.793000000000011
 21
2.952500000000002
 31
0
  0
LINE
  8
0
 62
7
 10
7.793000000000011
 20
2.952500000000002
 30
0
 11
7.795250000000012
 21
2.947500000000002
 31
0
  0
LINE
  8
0
 62
7
 10
7.795250000000012
 20
2.947500000000002
 30
0
 11
7.797500000000011
 21
2.935000000000002
 31
0
  0
LINE
  8
0
 62
7
 10
7.797500000000011
 20
2.935000000000002
 30
0
 11
7.799750000000012
 21
2.947500000000002
 31
0
  0
LINE
  8
0
 62
7
 10
7.799750000000012
 20
2.947500000000002
 30
0
 11
7.802000000000013
 21
2.952500000000002
 31
0
  0
LINE
  8
0
 62
7
 10
7.802000000000013
 20
2.952500000000002
 30
0
 11
7.806500000000011
 21
2.957500000000003
 31
0
  0
LINE
  8
0
 62
7
 10
7.806500000000011
 20
2.957500000000003
 30
0
 11
7.813250000000012
 21
2.960000000000003
 31
0
  0
LINE
  8
0
 62
7
 10
7.813250000000012
 20
2.960000000000003
 30
0
 11
7.822250000000013
 21
2.960000000000003
 31
0
  0
LINE
  8
0
 62
7
 10
7.822250000000013
 20
2.960000000000003
 30
0
 11
7.829000000000011
 21
2.957500000000003
 31
0
  0
LINE
  8
0
 62
7
 10
7.833500000000012
 20
2.952500000000002
 30
0
 11
7.829000000000011
 21
2.957500000000003
 31
0
  0
LINE
  8
0
 62
7
 10
7.829000000000011
 20
2.957500000000003
 30
0
 11
7.833500000000012
 21
2.952500000000002
 31
0
  0
LINE
  8
0
 62
7
 10
7.833500000000012
 20
2.952500000000002
 30
0
 11
7.835750000000012
 21
2.947500000000002
 31
0
  0
LINE
  8
0
 62
7
 10
7.835750000000012
 20
2.947500000000002
 30
0
 11
7.838000000000012
 21
2.935000000000002
 31
0
  0
LINE
  8
0
 62
7
 10
7.838000000000012
 20
2.935000000000002
 30
0
 11
7.838000000000012
 21
2.890000000000002
 31
0
  0
ARC
  8
0
 62
7
 10
6.460110953823532
 20
3.535110953823532
 30
0
 40
0.5180000000000068
 50
359.9877274393384
 51
90.01227256101666
  0
ARC
  8
0
 62
7
 10
5.504889046176481
 20
3.535110953823522
 30
0
 40
0.5180000000000068
 50
89.98772743933856
 51
180.0122725620563
  0
CIRCLE
  8
0
 62
7
 10
4.986889058059452
 20
3.250000000000002
 30
0
 40
0.05999999999999961
  0
DIMENSION
  8
0
  6
CONTINUOUS
 62
7
  2
*D1
  3
DMST_1
 10
7.425000000000011
 20
11.4598365155
 30
0
 11
6.017171394566531
 21
11.4598365155
 31
0
 12
0
 22
0
 32
0
 70
0
 13
4.540000000000012
 23
11.2
 33
0
 14
7.425000000000011
 24
11.2
 34
0
 53
0
  0
DIMENSION
  8
0
  6
CONTINUOUS
 62
7
  2
*D2
  3
DMST_2
 10
4.047702362885381
 20
3.25
 30
0
 11
4.047702362885381
 21
3.85446553781299
 31
0
 12
0
 22
0
 32
0
 70
0
 13
4.365000000000012
 23
4.500000000000003
 33
0
 14
4.365000000000012
 24
3.250000000000001
 34
0
 50
90
 53
0
  0
DIMENSION
  8
0
  6
CONTINUOUS
 62
7
  2
*D3
  3
DMST_2
 10
4.540000000000012
 20
5.439950041304741
 30
0
 11
5.967625003832421
 21
5.439950041304741
 31
0
 12
0
 22
0
 32
0
 70
0
 13
7.425000000000011
 23
5.019999999999999
 33
0
 14
4.540000000000012
 24
5.019999999999999
 34
0
 53
0
  0
DIMENSION
  8
0
  6
CONTINUOUS
 62
7
  2
*D4
  3
DMST_2
 10
7.986640426247691
 20
4.500000000000002
 30
0
 11
7.986640426247691
 21
3.95355831928122
 31
0
 12
0
 22
0
 32
0
 70
0
 13
7.600000000000012
 23
3.350000000000001
 33
0
 14
7.600000000000012
 24
4.500000000000003
 34
0
 50
90
 53
0
  0
INSERT
  8
0
  2
*D0
 10
0
 20
0
 30
0
  0
ENDSEC
  0
EOF
