  0
SECTION
  2
HEADER
  9
$ACADVER
  1
AC1009
  9
$INSBASE
 10
0
 20
0
  9
$EXTMIN
 10
0.3789162352092421
 20
2.890000000000001
  9
$EXTMAX
 10
8.249999999999998
 20
11.5909847090217
  9
$LIMMIN
 10
0.3789162352092421
 20
2.890000000000001
  9
$LIMMAX
 10
8.249999999999998
 20
11.5909847090217
  9
$VIEWCTR
 10
10
 20
10
  9
$VIEWSIZE
 40
10
  9
$SNAPMODE
 70
0
  9
$SNAPUNIT
 10
1
 20
1
  9
$SNAPBASE
 10
0
 20
0
  9
$SNAPANG
 50
0
  9
$SNAPSTYLE
 70
0
  9
$SNAPISOPAIR
 70
0
  9
$GRIDMODE
 70
0
  9
$GRIDUNIT
 10
0
 20
0
  9
$ORTHOMODE
 70
0
  9
$REGENMODE
 70
1
  9
$FILLMODE
 70
1
  9
$QTEXTMODE
 70
0
  9
$DRAGMODE
 70
2
  9
$LTSCALE
 40
1
  9
$OSMODE
 70
0
  9
$ATTMODE
 70
1
  9
$TEXTSIZE
 40
3.5
  9
$TRACEWID
 40
0.5
  9
$TEXTSTYLE
  7
STANDARD
  9
$CLAYER
  8
0
  9
$CELTYPE
  6
BYLAYER
  9
$CECOLOR
 62
256
  9
$DIMSCALE
 40
1
  9
$DIMASZ
 40
0.18
  9
$DIMEXO
 40
0.0625
  9
$DIMDLI
 40
0.38
  9
$DIMRND
 40
0
  9
$DIMDLE
 40
0
  9
$DIMEXE
 40
0.18
  9
$DIMTP
 40
0
  9
$DIMTM
 40
0
  9
$DIMTXT
 40
0.18
  9
$DIMCEN
 40
0.09
  9
$DIMTSZ
 40
0
  9
$DIMTOL
 70
0
  9
$DIMLIM
 70
0
  9
$DIMTIH
 70
1
  9
$DIMTOH
 70
1
  9
$DIMSE1
 70
0
  9
$DIMSE2
 70
0
  9
$DIMTAD
 70
0
  9
$DIMZIN
 70
0
  9
$DIMBLK
  1

  9
$DIMASO
 70
1
  9
$DIMSHO
 70
1
  9
$DIMPOST
  1

  9
$DIMAPOST
  1

  9
$DIMALT
 70
0
  9
$DIMALTD
 70
2
  9
$DIMALTF
 40
25.4
  9
$DIMLFAC
 40
1
  9
$DIMTOFL
 70
0
  9
$DIMTVP
 40
0
  9
$DIMTIX
 70
0
  9
$DIMSOXD
 70
0
  9
$DIMSAH
 70
0
  9
$DIMBLK1
  1

  9
$DIMBLK2
  1

  9
$DIMSTYLE
  2
*UNNAMED
  9
$DIMCLRD
 70
0
  9
$DIMCLRE
 70
0
  9
$DIMCLRT
 70
0
  9
$DIMTFAC
 40
1
  9
$DIMGAP
 40
0.09
  9
$LUNITS
 70
2
  9
$LUPREC
 70
4
  9
$AXISMODE
 70
0
  9
$AXISUNIT
 10
0
 20
0
  9
$SKETCHINC
 40
0.1
  9
$FILLETRAD
 40
2
  9
$AUNITS
 70
0
  9
$AUPREC
 70
0
  9
$MENU
  1
ACAD
  9
$ELEVATION
 40
0
  9
$THICKNESS
 40
0
  9
$VIEWDIR
 10
0
 20
0
 30
1
  9
$LIMCHECK
 70
0
  9
$BLIPMODE
 70
1
  9
$CHAMFERA
 40
0
  9
$CHAMFERB
 40
0
  9
$FASTZOOM
 70
1
  9
$SKPOLY
 70
0
  9
$ANGBASE
 50
0
  9
$ANGDIR
 70
0
  9
$PDMODE
 70
0
  9
$PDSIZE
 40
0
  9
$PLINEWID
 40
0
  9
$COORDS
 70
2
  0
ENDSEC
  0
SECTION
  2
TABLES
  0
TABLE
  2
DIMSTYLE
 70
2
  0
DIMSTYLE
  2
DMST_1
 70
0
  3

  4

  5

  6

  7

 40
1
 41
0.1
 42
0
 43
0.7
 44
0.2
 45
0
 46
0
 47
0
 48
0
140
0.1
141
0
142
0.1
143
25.4
144
1
145
0
146
1
147
0.2
 71
0
 72
0
 73
0
 74
0
 75
0
 76
0
 77
0
 78
9
170
0
171
2
172
0
173
0
174
0
175
0
176
7
177
7
178
7
  0
DIMSTYLE
  2
DMST_2
 70
0
  3

  4

  5

  6

  7

 40
1
 41
0.1
 42
0
 43
0.7
 44
0.2
 45
0
 46
0
 47
0
 48
0
140
0.1
141
0
142
0.1
143
25.4
144
1
145
0
146
1
147
0.25
 71
0
 72
0
 73
0
 74
0
 75
0
 76
0
 77
0
 78
9
170
0
171
2
172
0
173
0
174
0
175
0
176
7
177
7
178
7
  0
ENDTAB
  0
TABLE
  2
LTYPE
 70
9
  0
LTYPE
  2
CONTINUOUS
 70
64
  3
Solid line
 72
65
 73
0
 40
0
  0
LTYPE
  2
BORDER
 70
64
  3
__ __ . __ __ .
 72
65
 73
6
 40
0.4007032431786309
 49
0.1144866409081803
 49
-0.05724332045409013
 49
0.1144866409081803
 49
-0.05724332045409013
 49
0
 49
-0.05724332045409013
  0
LTYPE
  2
CENTER
 70
64
  3
____ _ ____ _
 72
65
 73
4
 40
0.4579465636327211
 49
0.2862166022704506
 49
-0.05724332045409013
 49
0.05724332045409013
 49
-0.05724332045409013
  0
LTYPE
  2
DASHDOT
 70
64
  3
__ . __ . __ .
 72
65
 73
4
 40
0.2289732818163605
 49
0.1144866409081803
 49
-0.05724332045409013
 49
0
 49
-0.05724332045409013
  0
LTYPE
  2
DASHED
 70
64
  3
__ __ __ __ __
 72
65
 73
2
 40
0.1717299613622704
 49
0.1144866409081803
 49
-0.05724332045409013
  0
LTYPE
  2
DIVIDE
 70
64
  3
__ . . __ . . 
 72
65
 73
6
 40
0.2862166022704506
 49
0.1144866409081803
 49
-0.05724332045409013
 49
0
 49
-0.05724332045409013
 49
0
 49
-0.05724332045409013
  0
LTYPE
  2
DOT
 70
64
  3
..............
 72
65
 73
4
 40
0.1144866409081803
 49
0
 49
-0.05724332045409013
 49
0
 49
-0.05724332045409013
  0
LTYPE
  2
HIDDEN
 70
64
  3
_ _ _ _ _ _ _
 72
65
 73
2
 40
0.0858649806811352
 49
0.05724332045409013
 49
-0.02862166022704507
  0
LTYPE
  2
PHANTOM
 70
64
  3
_____ _ _ _____ _ _ 
 72
65
 73
6
 40
0.5724332045409013
 49
0.2862166022704506
 49
-0.05724332045409013
 49
0.05724332045409013
 49
-0.05724332045409013
 49
0.05724332045409013
 49
-0.05724332045409013
  0
ENDTAB
  0
TABLE
  2
LAYER
 70
2
  0
LAYER
  2
0
 70
0
 62
7
  6
CONTINUOUS
  0
ENDTAB
  0
TABLE
  2
STYLE
 70
4
  0
STYLE
  2
STANDARD
 70
0
 40
0
 41
1
 50
0
 71
0
 42
3.5
  3
txt
  4

  0
STYLE
  2
SIMPLEX
 70
0
 40
0
 41
1
 50
0
 71
0
 42
3.5
  3
simplex
  4

  0
STYLE
  2
COMPLEX
 70
0
 40
0
 41
1
 50
0
 71
0
 42
3.5
  3
complex
  4

  0
STYLE
  2
ITALIC
 70
0
 40
0
 41
1
 50
0
 71
0
 42
3.5
  3
italic
  4

  0
ENDTAB
  0
TABLE
  2
VIEW
 70
0
  0
ENDTAB
  0
ENDSEC
  0
SECTION
  2
BLOCKS
  0
BLOCK
  8
0
  2
*X0
 70
1
 10
0
 20
0
 30
0
  0
LINE
  8
0
 62
7
 10
1.099999999999999
 20
7.994291116568837
 30
0
 11
1.20570888343116
 21
8.099999999999998
 31
0
  0
LINE
  8
0
 62
7
 10
1.267840917787124
 20
7.949999999999998
 30
0
 11
1.274999999999998
 21
7.95715908221287
 31
0
  0
LINE
  8
0
 62
7
 10
1.161774900609143
 20
7.949999999999999
 30
0
 11
1.274999999999999
 21
8.063225099390854
 31
0
  0
ENDBLK
  8
0
  0
BLOCK
  8
0
  2
*X1
 70
1
 10
0
 20
0
 30
0
  0
LINE
  8
0
 62
7
 10
1.099999999999998
 20
10.75200756319636
 30
0
 11
1.197992436803626
 21
10.85
 31
0
  0
LINE
  8
0
 62
7
 10
1.099999999999998
 20
10.5398755288404
 30
0
 11
1.274999999999999
 21
10.7148755288404
 31
0
  0
LINE
  8
0
 62
7
 10
1.099999999999998
 20
10.32774349448444
 30
0
 11
1.274999999999999
 21
10.50274349448444
 31
0
  0
LINE
  8
0
 62
7
 10
1.099999999999998
 20
10.11561146012847
 30
0
 11
1.274999999999999
 21
10.29061146012847
 31
0
  0
LINE
  8
0
 62
7
 10
1.099999999999998
 20
9.90347942577251
 30
0
 11
1.274999999999999
 21
10.07847942577251
 31
0
  0
LINE
  8
0
 62
7
 10
1.099999999999998
 20
9.691347391416546
 30
0
 11
1.274999999999999
 21
9.866347391416546
 31
0
  0
LINE
  8
0
 62
7
 10
1.099999999999998
 20
9.479215357060582
 30
0
 11
1.274999999999999
 21
9.654215357060583
 31
0
  0
LINE
  8
0
 62
7
 10
1.099999999999998
 20
9.267083322704618
 30
0
 11
1.274999999999999
 21
9.442083322704619
 31
0
  0
LINE
  8
0
 62
7
 10
1.099999999999998
 20
9.054951288348654
 30
0
 11
1.274999999999999
 21
9.229951288348655
 31
0
  0
LINE
  8
0
 62
7
 10
1.099999999999998
 20
8.84281925399269
 30
0
 11
1.274999999999999
 21
9.017819253992691
 31
0
  0
LINE
  8
0
 62
7
 10
1.099999999999998
 20
8.630687219636727
 30
0
 11
1.274999999999999
 21
8.805687219636727
 31
0
  0
LINE
  8
0
 62
7
 10
1.099999999999998
 20
8.418555185280763
 30
0
 11
1.274999999999999
 21
8.593555185280763
 31
0
  0
LINE
  8
0
 62
7
 10
1.193576849075197
 20
8.299999999999997
 30
0
 11
1.274999999999999
 21
8.3814231509248
 31
0
  0
LINE
  8
0
 62
7
 10
1.099999999999998
 20
10.64594154601838
 30
0
 11
1.274999999999998
 21
10.82094154601838
 31
0
  0
LINE
  8
0
 62
7
 10
1.099999999999998
 20
10.43380951166242
 30
0
 11
1.274999999999998
 21
10.60880951166242
 31
0
  0
LINE
  8
0
 62
7
 10
1.099999999999998
 20
10.22167747730646
 30
0
 11
1.274999999999998
 21
10.39667747730645
 31
0
  0
LINE
  8
0
 62
7
 10
1.099999999999998
 20
10.00954544295049
 30
0
 11
1.274999999999998
 21
10.18454544295049
 31
0
  0
LINE
  8
0
 62
7
 10
1.099999999999998
 20
9.797413408594528
 30
0
 11
1.274999999999998
 21
9.972413408594527
 31
0
  0
LINE
  8
0
 62
7
 10
1.099999999999998
 20
9.585281374238564
 30
0
 11
1.274999999999998
 21
9.760281374238563
 31
0
  0
LINE
  8
0
 62
7
 10
1.099999999999998
 20
9.3731493398826
 30
0
 11
1.274999999999998
 21
9.548149339882599
 31
0
  0
LINE
  8
0
 62
7
 10
1.099999999999998
 20
9.161017305526636
 30
0
 11
1.274999999999998
 21
9.336017305526635
 31
0
  0
LINE
  8
0
 62
7
 10
1.099999999999998
 20
8.948885271170672
 30
0
 11
1.274999999999998
 21
9.123885271170671
 31
0
  0
LINE
  8
0
 62
7
 10
1.099999999999998
 20
8.736753236814709
 30
0
 11
1.274999999999998
 21
8.911753236814707
 31
0
  0
LINE
  8
0
 62
7
 10
1.099999999999998
 20
8.524621202458745
 30
0
 11
1.274999999999998
 21
8.699621202458744
 31
0
  0
LINE
  8
0
 62
7
 10
1.099999999999998
 20
8.312489168102781
 30
0
 11
1.274999999999998
 21
8.48748916810278
 31
0
  0
ENDBLK
  8
0
  0
BLOCK
  8
0
  2
*X2
 70
1
 10
0
 20
0
 30
0
  0
LINE
  8
0
 62
7
 10
1.099999999999998
 20
11.1762716319083
 30
0
 11
1.123728368091698
 21
11.2
 31
0
  0
LINE
  8
0
 62
7
 10
1.185860402447664
 20
11.05
 30
0
 11
1.274999999999999
 21
11.13913959755233
 31
0
  0
LINE
  8
0
 62
7
 10
1.099999999999999
 20
11.07020561473032
 30
0
 11
1.229794385269681
 21
11.2
 31
0
  0
ENDBLK
  8
0
  0
BLOCK
  8
0
  2
*X3
 70
1
 10
0
 20
0
 30
0
  0
LINE
  8
0
 62
7
 10
4.284999999999997
 20
7.99731060122937
 30
0
 11
4.387689398770624
 21
8.099999999999998
 31
0
  0
LINE
  8
0
 62
7
 10
4.449821433126589
 20
7.949999999999998
 30
0
 11
4.459999999999997
 21
7.960178566873407
 31
0
  0
LINE
  8
0
 62
7
 10
4.343755415948607
 20
7.949999999999998
 30
0
 11
4.459999999999998
 21
8.06624458405139
 31
0
  0
ENDBLK
  8
0
  0
BLOCK
  8
0
  2
*X4
 70
1
 10
0
 20
0
 30
0
  0
LINE
  8
0
 62
7
 10
4.284999999999997
 20
10.7550270478569
 30
0
 11
4.379972952143091
 21
10.85
 31
0
  0
LINE
  8
0
 62
7
 10
4.284999999999997
 20
10.54289501350094
 30
0
 11
4.459999999999997
 21
10.71789501350094
 31
0
  0
LINE
  8
0
 62
7
 10
4.284999999999997
 20
10.33076297914497
 30
0
 11
4.459999999999997
 21
10.50576297914497
 31
0
  0
LINE
  8
0
 62
7
 10
4.284999999999997
 20
10.11863094478901
 30
0
 11
4.459999999999997
 21
10.29363094478901
 31
0
  0
LINE
  8
0
 62
7
 10
4.284999999999997
 20
9.906498910433045
 30
0
 11
4.459999999999997
 21
10.08149891043305
 31
0
  0
LINE
  8
0
 62
7
 10
4.284999999999997
 20
9.694366876077082
 30
0
 11
4.459999999999997
 21
9.869366876077082
 31
0
  0
LINE
  8
0
 62
7
 10
4.284999999999997
 20
9.482234841721118
 30
0
 11
4.459999999999997
 21
9.657234841721118
 31
0
  0
LINE
  8
0
 62
7
 10
4.284999999999997
 20
9.270102807365154
 30
0
 11
4.459999999999997
 21
9.445102807365155
 31
0
  0
LINE
  8
0
 62
7
 10
4.284999999999997
 20
9.05797077300919
 30
0
 11
4.459999999999997
 21
9.232970773009191
 31
0
  0
LINE
  8
0
 62
7
 10
4.284999999999997
 20
8.845838738653226
 30
0
 11
4.459999999999997
 21
9.020838738653227
 31
0
  0
LINE
  8
0
 62
7
 10
4.284999999999997
 20
8.633706704297262
 30
0
 11
4.459999999999997
 21
8.808706704297263
 31
0
  0
LINE
  8
0
 62
7
 10
4.284999999999997
 20
8.421574669941299
 30
0
 11
4.459999999999997
 21
8.596574669941299
 31
0
  0
LINE
  8
0
 62
7
 10
4.375557364414659
 20
8.299999999999997
 30
0
 11
4.459999999999997
 21
8.384442635585335
 31
0
  0
LINE
  8
0
 62
7
 10
4.284999999999997
 20
10.64896103067892
 30
0
 11
4.459999999999998
 21
10.82396103067892
 31
0
  0
LINE
  8
0
 62
7
 10
4.284999999999997
 20
10.43682899632296
 30
0
 11
4.459999999999998
 21
10.61182899632296
 31
0
  0
LINE
  8
0
 62
7
 10
4.284999999999997
 20
10.22469696196699
 30
0
 11
4.459999999999998
 21
10.39969696196699
 31
0
  0
LINE
  8
0
 62
7
 10
4.284999999999997
 20
10.01256492761103
 30
0
 11
4.459999999999998
 21
10.18756492761103
 31
0
  0
LINE
  8
0
 62
7
 10
4.284999999999997
 20
9.800432893255064
 30
0
 11
4.459999999999998
 21
9.975432893255064
 31
0
  0
LINE
  8
0
 62
7
 10
4.284999999999997
 20
9.5883008588991
 30
0
 11
4.459999999999998
 21
9.7633008588991
 31
0
  0
LINE
  8
0
 62
7
 10
4.284999999999997
 20
9.376168824543136
 30
0
 11
4.459999999999998
 21
9.551168824543137
 31
0
  0
LINE
  8
0
 62
7
 10
4.284999999999997
 20
9.164036790187172
 30
0
 11
4.459999999999998
 21
9.339036790187173
 31
0
  0
LINE
  8
0
 62
7
 10
4.284999999999997
 20
8.951904755831208
 30
0
 11
4.459999999999998
 21
9.126904755831209
 31
0
  0
LINE
  8
0
 62
7
 10
4.284999999999997
 20
8.739772721475244
 30
0
 11
4.459999999999998
 21
8.914772721475245
 31
0
  0
LINE
  8
0
 62
7
 10
4.284999999999997
 20
8.52764068711928
 30
0
 11
4.459999999999998
 21
8.702640687119281
 31
0
  0
LINE
  8
0
 62
7
 10
4.284999999999997
 20
8.315508652763317
 30
0
 11
4.459999999999998
 21
8.490508652763317
 31
0
  0
ENDBLK
  8
0
  0
BLOCK
  8
0
  2
*X5
 70
1
 10
0
 20
0
 30
0
  0
LINE
  8
0
 62
7
 10
4.284999999999997
 20
11.17929111656883
 30
0
 11
4.305708883431162
 21
11.2
 31
0
  0
LINE
  8
0
 62
7
 10
4.367840917787128
 20
11.05
 30
0
 11
4.459999999999996
 21
11.14215908221287
 31
0
  0
LINE
  8
0
 62
7
 10
4.284999999999997
 20
11.07322509939085
 30
0
 11
4.411774900609145
 21
11.2
 31
0
  0
ENDBLK
  8
0
  0
BLOCK
  8
0
  2
*X6
 70
1
 10
0
 20
0
 30
0
  0
LINE
  8
0
 62
7
  6
DASHED
 10
0.950000000000002
 20
8.268555185280768
 30
0
 11
0.9814448147192318
 21
8.299999999999997
 31
0
  0
LINE
  8
0
 62
7
  6
DASHED
 10
0.9935768490751964
 20
8.099999999999998
 30
0
 11
1.193576849075196
 21
8.299999999999997
 31
0
  0
LINE
  8
0
 62
7
  6
DASHED
 10
1.205708883431161
 20
8.099999999999998
 30
0
 11
1.40570888343116
 21
8.299999999999997
 31
0
  0
LINE
  8
0
 62
7
  6
DASHED
 10
1.417840917787125
 20
8.099999999999998
 30
0
 11
1.617840917787125
 21
8.299999999999997
 31
0
  0
LINE
  8
0
 62
7
  6
DASHED
 10
1.629972952143089
 20
8.099999999999998
 30
0
 11
1.829972952143089
 21
8.299999999999997
 31
0
  0
LINE
  8
0
 62
7
  6
DASHED
 10
1.842104986499054
 20
8.099999999999998
 30
0
 11
2.042104986499053
 21
8.299999999999997
 31
0
  0
LINE
  8
0
 62
7
  6
DASHED
 10
2.054237020855018
 20
8.099999999999998
 30
0
 11
2.254237020855018
 21
8.299999999999997
 31
0
  0
LINE
  8
0
 62
7
  6
DASHED
 10
2.266369055210982
 20
8.099999999999998
 30
0
 11
2.466369055210982
 21
8.299999999999997
 31
0
  0
LINE
  8
0
 62
7
  6
DASHED
 10
2.478501089566946
 20
8.099999999999998
 30
0
 11
2.678501089566946
 21
8.299999999999997
 31
0
  0
LINE
  8
0
 62
7
  6
DASHED
 10
2.690633123922911
 20
8.099999999999998
 30
0
 11
2.89063312392291
 21
8.299999999999997
 31
0
  0
LINE
  8
0
 62
7
  6
DASHED
 10
2.902765158278875
 20
8.099999999999998
 30
0
 11
3.102765158278875
 21
8.299999999999997
 31
0
  0
LINE
  8
0
 62
7
  6
DASHED
 10
3.114897192634839
 20
8.099999999999998
 30
0
 11
3.314897192634839
 21
8.299999999999997
 31
0
  0
LINE
  8
0
 62
7
  6
DASHED
 10
3.327029226990804
 20
8.099999999999998
 30
0
 11
3.527029226990803
 21
8.299999999999997
 31
0
  0
LINE
  8
0
 62
7
  6
DASHED
 10
3.539161261346768
 20
8.099999999999998
 30
0
 11
3.739161261346768
 21
8.299999999999997
 31
0
  0
LINE
  8
0
 62
7
  6
DASHED
 10
3.751293295702732
 20
8.099999999999998
 30
0
 11
3.951293295702732
 21
8.299999999999997
 31
0
  0
LINE
  8
0
 62
7
  6
DASHED
 10
3.963425330058696
 20
8.099999999999998
 30
0
 11
4.163425330058696
 21
8.299999999999997
 31
0
  0
LINE
  8
0
 62
7
  6
DASHED
 10
4.175557364414661
 20
8.099999999999998
 30
0
 11
4.37555736441466
 21
8.299999999999997
 31
0
  0
LINE
  8
0
 62
7
  6
DASHED
 10
4.387689398770624
 20
8.099999999999998
 30
0
 11
4.587689398770624
 21
8.299999999999997
 31
0
  0
LINE
  8
0
 62
7
  6
DASHED
 10
4.599821433126588
 20
8.099999999999998
 30
0
 11
4.609999999999999
 21
8.110178566873408
 31
0
  0
LINE
  8
0
 62
7
 10
0.950000000000002
 20
8.162489168102784
 30
0
 11
1.087510831897213
 21
8.299999999999997
 31
0
  0
LINE
  8
0
 62
7
 10
1.099642866253178
 20
8.099999999999998
 30
0
 11
1.299642866253178
 21
8.299999999999997
 31
0
  0
LINE
  8
0
 62
7
 10
1.311774900609142
 20
8.099999999999998
 30
0
 11
1.511774900609142
 21
8.299999999999997
 31
0
  0
LINE
  8
0
 62
7
 10
1.523906934965106
 20
8.099999999999998
 30
0
 11
1.723906934965106
 21
8.299999999999997
 31
0
  0
LINE
  8
0
 62
7
 10
1.736038969321071
 20
8.099999999999998
 30
0
 11
1.93603896932107
 21
8.299999999999997
 31
0
  0
LINE
  8
0
 62
7
 10
1.948171003677035
 20
8.099999999999998
 30
0
 11
2.148171003677035
 21
8.299999999999997
 31
0
  0
LINE
  8
0
 62
7
 10
2.160303038032999
 20
8.099999999999998
 30
0
 11
2.360303038032999
 21
8.299999999999997
 31
0
  0
LINE
  8
0
 62
7
 10
2.372435072388964
 20
8.099999999999998
 30
0
 11
2.572435072388963
 21
8.299999999999997
 31
0
  0
LINE
  8
0
 62
7
 10
2.584567106744928
 20
8.099999999999998
 30
0
 11
2.784567106744928
 21
8.299999999999997
 31
0
  0
LINE
  8
0
 62
7
 10
2.796699141100892
 20
8.099999999999998
 30
0
 11
2.996699141100892
 21
8.299999999999997
 31
0
  0
LINE
  8
0
 62
7
 10
3.008831175456856
 20
8.099999999999998
 30
0
 11
3.208831175456856
 21
8.299999999999997
 31
0
  0
LINE
  8
0
 62
7
 10
3.220963209812821
 20
8.099999999999998
 30
0
 11
3.42096320981282
 21
8.299999999999997
 31
0
  0
LINE
  8
0
 62
7
 10
3.433095244168785
 20
8.099999999999998
 30
0
 11
3.633095244168785
 21
8.299999999999997
 31
0
  0
LINE
  8
0
 62
7
 10
3.645227278524749
 20
8.099999999999998
 30
0
 11
3.845227278524749
 21
8.299999999999997
 31
0
  0
LINE
  8
0
 62
7
 10
3.857359312880714
 20
8.099999999999998
 30
0
 11
4.057359312880713
 21
8.299999999999997
 31
0
  0
LINE
  8
0
 62
7
 10
4.069491347236678
 20
8.099999999999998
 30
0
 11
4.269491347236677
 21
8.299999999999997
 31
0
  0
LINE
  8
0
 62
7
 10
4.281623381592642
 20
8.099999999999998
 30
0
 11
4.481623381592641
 21
8.299999999999997
 31
0
  0
LINE
  8
0
 62
7
 10
4.493755415948606
 20
8.099999999999998
 30
0
 11
4.609999999999998
 21
8.216244584051388
 31
0
  0
ENDBLK
  8
0
  0
BLOCK
  8
0
  2
*X7
 70
1
 10
0
 20
0
 30
0
  0
LINE
  8
0
 62
7
  6
DASHED
 10
0.9500000000000028
 20
11.0262716319083
 30
0
 11
0.9737283680916993
 21
11.05
 31
0
  0
LINE
  8
0
 62
7
  6
DASHED
 10
0.985860402447662
 20
10.85
 30
0
 11
1.185860402447664
 21
11.05
 31
0
  0
LINE
  8
0
 62
7
  6
DASHED
 10
1.197992436803626
 20
10.85
 30
0
 11
1.397992436803628
 21
11.05
 31
0
  0
LINE
  8
0
 62
7
  6
DASHED
 10
1.410124471159591
 20
10.85
 30
0
 11
1.610124471159592
 21
11.05
 31
0
  0
LINE
  8
0
 62
7
  6
DASHED
 10
1.622256505515555
 20
10.85
 30
0
 11
1.822256505515556
 21
11.05
 31
0
  0
LINE
  8
0
 62
7
  6
DASHED
 10
1.834388539871519
 20
10.85
 30
0
 11
2.034388539871521
 21
11.05
 31
0
  0
LINE
  8
0
 62
7
  6
DASHED
 10
2.046520574227483
 20
10.85
 30
0
 11
2.246520574227485
 21
11.05
 31
0
  0
LINE
  8
0
 62
7
  6
DASHED
 10
2.258652608583448
 20
10.85
 30
0
 11
2.458652608583449
 21
11.05
 31
0
  0
LINE
  8
0
 62
7
  6
DASHED
 10
2.470784642939412
 20
10.85
 30
0
 11
2.670784642939414
 21
11.05
 31
0
  0
LINE
  8
0
 62
7
  6
DASHED
 10
2.682916677295376
 20
10.85
 30
0
 11
2.882916677295378
 21
11.05
 31
0
  0
LINE
  8
0
 62
7
  6
DASHED
 10
2.895048711651341
 20
10.85
 30
0
 11
3.095048711651342
 21
11.05
 31
0
  0
LINE
  8
0
 62
7
  6
DASHED
 10
3.107180746007305
 20
10.85
 30
0
 11
3.307180746007306
 21
11.05
 31
0
  0
LINE
  8
0
 62
7
  6
DASHED
 10
3.319312780363269
 20
10.85
 30
0
 11
3.519312780363271
 21
11.05
 31
0
  0
LINE
  8
0
 62
7
  6
DASHED
 10
3.531444814719233
 20
10.85
 30
0
 11
3.731444814719235
 21
11.05
 31
0
  0
LINE
  8
0
 62
7
  6
DASHED
 10
3.743576849075198
 20
10.85
 30
0
 11
3.943576849075199
 21
11.05
 31
0
  0
LINE
  8
0
 62
7
  6
DASHED
 10
3.955708883431162
 20
10.85
 30
0
 11
4.155708883431164
 21
11.05
 31
0
  0
LINE
  8
0
 62
7
  6
DASHED
 10
4.167840917787126
 20
10.85
 30
0
 11
4.367840917787127
 21
11.05
 31
0
  0
LINE
  8
0
 62
7
  6
DASHED
 10
4.37997295214309
 20
10.85
 30
0
 11
4.579972952143091
 21
11.05
 31
0
  0
LINE
  8
0
 62
7
  6
DASHED
 10
4.592104986499054
 20
10.85
 30
0
 11
4.609999999999998
 21
10.86789501350094
 31
0
  0
LINE
  8
0
 62
7
 10
0.9500000000000011
 20
10.92020561473032
 30
0
 11
1.079794385269681
 21
11.05
 31
0
  0
LINE
  8
0
 62
7
 10
1.091926419625646
 20
10.85
 30
0
 11
1.291926419625645
 21
11.05
 31
0
  0
LINE
  8
0
 62
7
 10
1.30405845398161
 20
10.85
 30
0
 11
1.504058453981609
 21
11.05
 31
0
  0
LINE
  8
0
 62
7
 10
1.516190488337575
 20
10.85
 30
0
 11
1.716190488337574
 21
11.05
 31
0
  0
LINE
  8
0
 62
7
 10
1.728322522693539
 20
10.85
 30
0
 11
1.928322522693538
 21
11.05
 31
0
  0
LINE
  8
0
 62
7
 10
1.940454557049503
 20
10.85
 30
0
 11
2.140454557049502
 21
11.05
 31
0
  0
LINE
  8
0
 62
7
 10
2.152586591405468
 20
10.85
 30
0
 11
2.352586591405466
 21
11.05
 31
0
  0
LINE
  8
0
 62
7
 10
2.364718625761432
 20
10.85
 30
0
 11
2.564718625761431
 21
11.05
 31
0
  0
LINE
  8
0
 62
7
 10
2.576850660117396
 20
10.85
 30
0
 11
2.776850660117395
 21
11.05
 31
0
  0
LINE
  8
0
 62
7
 10
2.78898269447336
 20
10.85
 30
0
 11
2.988982694473359
 21
11.05
 31
0
  0
LINE
  8
0
 62
7
 10
3.001114728829325
 20
10.85
 30
0
 11
3.201114728829324
 21
11.05
 31
0
  0
LINE
  8
0
 62
7
 10
3.213246763185289
 20
10.85
 30
0
 11
3.413246763185288
 21
11.05
 31
0
  0
LINE
  8
0
 62
7
 10
3.425378797541253
 20
10.85
 30
0
 11
3.625378797541252
 21
11.05
 31
0
  0
LINE
  8
0
 62
7
 10
3.637510831897218
 20
10.85
 30
0
 11
3.837510831897216
 21
11.05
 31
0
  0
LINE
  8
0
 62
7
 10
3.849642866253182
 20
10.85
 30
0
 11
4.049642866253181
 21
11.05
 31
0
  0
LINE
  8
0
 62
7
 10
4.061774900609146
 20
10.85
 30
0
 11
4.261774900609145
 21
11.05
 31
0
  0
LINE
  8
0
 62
7
 10
4.27390693496511
 20
10.85
 30
0
 11
4.473906934965108
 21
11.05
 31
0
  0
LINE
  8
0
 62
7
 10
4.486038969321074
 20
10.85
 30
0
 11
4.609999999999996
 21
10.97396103067892
 31
0
  0
ENDBLK
  8
0
  0
BLOCK
  8
0
  2
*X8
 70
1
 10
0
 20
0
 30
0
  0
LINE
  8
0
 62
7
 10
7.959999999999998
 20
8.066066017177979
 30
0
 11
7.993933982822015
 21
8.099999999999998
 31
0
  0
LINE
  8
0
 62
7
 10
8.056066017177983
 20
7.949999999999998
 30
0
 11
8.199999999999998
 21
8.093933982822014
 31
0
  0
LINE
  8
0
 62
7
 10
7.959999999999997
 20
7.959999999999996
 30
0
 11
8.099999999999998
 21
8.099999999999998
 31
0
  0
LINE
  8
0
 62
7
 10
8.162132034355965
 20
7.949999999999999
 30
0
 11
8.199999999999998
 21
7.987867965644032
 31
0
  0
ENDBLK
  8
0
  0
BLOCK
  8
0
  2
*X9
 70
1
 10
0
 20
0
 30
0
  0
LINE
  8
0
 62
7
 10
7.959999999999997
 20
10.82378246380551
 30
0
 11
7.986217536194484
 21
10.85
 31
0
  0
LINE
  8
0
 62
7
 10
7.959999999999997
 20
10.61165042944955
 30
0
 11
8.198349570550448
 21
10.85
 31
0
  0
LINE
  8
0
 62
7
 10
7.959999999999997
 20
10.39951839509358
 30
0
 11
8.199999999999998
 21
10.63951839509358
 31
0
  0
LINE
  8
0
 62
7
 10
7.959999999999997
 20
10.18738636073762
 30
0
 11
8.199999999999998
 21
10.42738636073762
 31
0
  0
LINE
  8
0
 62
7
 10
7.959999999999997
 20
9.975254326381656
 30
0
 11
8.199999999999998
 21
10.21525432638166
 31
0
  0
LINE
  8
0
 62
7
 10
7.959999999999997
 20
9.763122292025692
 30
0
 11
8.199999999999998
 21
10.00312229202569
 31
0
  0
LINE
  8
0
 62
7
 10
7.959999999999997
 20
9.550990257669728
 30
0
 11
8.199999999999998
 21
9.790990257669728
 31
0
  0
LINE
  8
0
 62
7
 10
7.959999999999997
 20
9.338858223313764
 30
0
 11
8.199999999999998
 21
9.578858223313764
 31
0
  0
LINE
  8
0
 62
7
 10
7.959999999999997
 20
9.1267261889578
 30
0
 11
8.199999999999998
 21
9.3667261889578
 31
0
  0
LINE
  8
0
 62
7
 10
7.959999999999997
 20
8.914594154601836
 30
0
 11
8.199999999999998
 21
9.154594154601837
 31
0
  0
LINE
  8
0
 62
7
 10
7.959999999999997
 20
8.702462120245873
 30
0
 11
8.199999999999998
 21
8.942462120245873
 31
0
  0
LINE
  8
0
 62
7
 10
7.959999999999997
 20
8.490330085889909
 30
0
 11
8.199999999999998
 21
8.730330085889909
 31
0
  0
LINE
  8
0
 62
7
 10
7.98180194846605
 20
8.299999999999997
 30
0
 11
8.199999999999998
 21
8.518198051533945
 31
0
  0
LINE
  8
0
 62
7
 10
8.193933982822013
 20
8.299999999999997
 30
0
 11
8.199999999999998
 21
8.306066017177981
 31
0
  0
LINE
  8
0
 62
7
 10
7.959999999999997
 20
10.71771644662753
 30
0
 11
8.092283553372464
 21
10.85
 31
0
  0
LINE
  8
0
 62
7
 10
7.959999999999997
 20
10.50558441227156
 30
0
 11
8.199999999999998
 21
10.74558441227156
 31
0
  0
LINE
  8
0
 62
7
 10
7.959999999999997
 20
10.2934523779156
 30
0
 11
8.199999999999998
 21
10.5334523779156
 31
0
  0
LINE
  8
0
 62
7
 10
7.959999999999997
 20
10.08132034355964
 30
0
 11
8.199999999999998
 21
10.32132034355963
 31
0
  0
LINE
  8
0
 62
7
 10
7.959999999999997
 20
9.869188309203672
 30
0
 11
8.199999999999998
 21
10.10918830920367
 31
0
  0
LINE
  8
0
 62
7
 10
7.959999999999997
 20
9.657056274847708
 30
0
 11
8.199999999999998
 21
9.897056274847706
 31
0
  0
LINE
  8
0
 62
7
 10
7.959999999999997
 20
9.444924240491744
 30
0
 11
8.199999999999998
 21
9.684924240491743
 31
0
  0
LINE
  8
0
 62
7
 10
7.959999999999997
 20
9.23279220613578
 30
0
 11
8.199999999999998
 21
9.472792206135779
 31
0
  0
LINE
  8
0
 62
7
 10
7.959999999999997
 20
9.020660171779816
 30
0
 11
8.199999999999998
 21
9.260660171779815
 31
0
  0
LINE
  8
0
 62
7
 10
7.959999999999997
 20
8.808528137423853
 30
0
 11
8.199999999999998
 21
9.048528137423851
 31
0
  0
LINE
  8
0
 62
7
 10
7.959999999999997
 20
8.596396103067889
 30
0
 11
8.199999999999998
 21
8.836396103067887
 31
0
  0
LINE
  8
0
 62
7
 10
7.959999999999997
 20
8.384264068711925
 30
0
 11
8.199999999999998
 21
8.624264068711923
 31
0
  0
LINE
  8
0
 62
7
 10
8.087867965644033
 20
8.299999999999995
 30
0
 11
8.199999999999998
 21
8.41213203435596
 31
0
  0
ENDBLK
  8
0
  0
BLOCK
  8
0
  2
*X10
 70
1
 10
0
 20
0
 30
0
  0
LINE
  8
0
 62
7
 10
7.97408550183852
 20
11.05
 30
0
 11
8.12408550183852
 21
11.2
 31
0
  0
LINE
  8
0
 62
7
 10
8.186217536194484
 20
11.05
 30
0
 11
8.199999999999998
 21
11.06378246380551
 31
0
  0
LINE
  8
0
 62
7
 10
7.959999999999998
 20
11.14198051533946
 30
0
 11
8.018019484660535
 21
11.2
 31
0
  0
LINE
  8
0
 62
7
 10
8.0801515190165
 20
11.05
 30
0
 11
8.199999999999996
 21
11.16984848098349
 31
0
  0
ENDBLK
  8
0
  0
BLOCK
  8
0
  2
*X11
 70
1
 10
0
 20
0
 30
0
  0
LINE
  8
0
 62
7
  6
DASHED
 10
6.559999999999995
 20
8.150990257669726
 30
0
 11
6.709009742330265
 21
8.299999999999995
 31
0
  0
LINE
  8
0
 62
7
  6
DASHED
 10
6.721141776686231
 20
8.099999999999998
 30
0
 11
6.859999999999996
 21
8.238858223313763
 31
0
  0
LINE
  8
0
 62
7
 10
6.559999999999995
 20
8.257056274847708
 30
0
 11
6.602943725152285
 21
8.299999999999995
 31
0
  0
LINE
  8
0
 62
7
 10
6.61507575950825
 20
8.099999999999998
 30
0
 11
6.815075759508249
 21
8.299999999999995
 31
0
  0
LINE
  8
0
 62
7
 10
6.827207793864214
 20
8.099999999999998
 30
0
 11
6.859999999999996
 21
8.132792206135781
 31
0
  0
ENDBLK
  8
0
  0
BLOCK
  8
0
  2
*X12
 70
1
 10
0
 20
0
 30
0
  0
LINE
  8
0
 62
7
  6
DASHED
 10
6.559999999999995
 20
10.90870670429726
 30
0
 11
6.701293295702733
 21
11.05
 31
0
  0
LINE
  8
0
 62
7
  6
DASHED
 10
6.713425330058697
 20
10.85
 30
0
 11
6.859999999999995
 21
10.9965746699413
 31
0
  0
LINE
  8
0
 62
7
 10
6.559999999999995
 20
11.01477272147524
 30
0
 11
6.595227278524753
 21
11.05
 31
0
  0
LINE
  8
0
 62
7
 10
6.607359312880718
 20
10.85
 30
0
 11
6.807359312880717
 21
11.05
 31
0
  0
LINE
  8
0
 62
7
 10
6.819491347236681
 20
10.85
 30
0
 11
6.859999999999994
 21
10.89050865276331
 31
0
  0
ENDBLK
  8
0
  0
BLOCK
  8
0
  2
*X13
 70
1
 10
0
 20
0
 30
0
  0
LINE
  8
0
 62
7
  6
DASHED
 10
7.959999999999997
 20
11.03591449816148
 30
0
 11
7.97408550183852
 21
11.05
 31
0
  0
LINE
  8
0
 62
7
  6
DASHED
 10
7.986217536194484
 20
10.85
 30
0
 11
8.186217536194484
 21
11.05
 31
0
  0
LINE
  8
0
 62
7
  6
DASHED
 10
8.198349570550448
 20
10.85
 30
0
 11
8.199999999999996
 21
10.85165042944955
 31
0
  0
LINE
  8
0
 62
7
 10
7.959999999999996
 20
10.9298484809835
 30
0
 11
8.0801515190165
 21
11.05
 31
0
  0
LINE
  8
0
 62
7
 10
8.092283553372464
 20
10.85
 30
0
 11
8.199999999999996
 21
10.95771644662753
 31
0
  0
ENDBLK
  8
0
  0
BLOCK
  8
0
  2
*X14
 70
1
 10
0
 20
0
 30
0
  0
LINE
  8
0
 62
7
  6
DASHED
 10
7.959999999999998
 20
8.278198051533943
 30
0
 11
7.98180194846605
 21
8.299999999999997
 31
0
  0
LINE
  8
0
 62
7
  6
DASHED
 10
7.993933982822015
 20
8.099999999999998
 30
0
 11
8.193933982822013
 21
8.299999999999997
 31
0
  0
LINE
  8
0
 62
7
 10
7.959999999999997
 20
8.172132034355959
 30
0
 11
8.087867965644033
 21
8.299999999999995
 31
0
  0
LINE
  8
0
 62
7
 10
8.099999999999998
 20
8.099999999999998
 30
0
 11
8.199999999999998
 21
8.199999999999998
 31
0
  0
ENDBLK
  8
0
  0
BLOCK
  8
0
  2
*X15
 70
1
 10
0
 20
0
 30
0
  0
LINE
  8
0
 62
7
 10
1.099999999999998
 20
5.024442635585336
 30
0
 11
1.195557364414659
 21
5.119999999999997
 31
0
  0
LINE
  8
0
 62
7
 10
0.9350000000000021
 20
4.85944263558534
 30
0
 11
1.04555736441466
 21
4.969999999999998
 31
0
  0
LINE
  8
0
 62
7
 10
1.017689398770629
 20
4.730000000000002
 30
0
 11
1.274999999999998
 21
4.987310601229371
 31
0
  0
LINE
  8
0
 62
7
 10
1.229821433126594
 20
4.730000000000002
 30
0
 11
1.469821433126588
 21
4.969999999999997
 31
0
  0
LINE
  8
0
 62
7
 10
1.441953467482558
 20
4.730000000000002
 30
0
 11
1.681953467482552
 21
4.969999999999997
 31
0
  0
LINE
  8
0
 62
7
 10
1.654085501838522
 20
4.730000000000002
 30
0
 11
1.894085501838516
 21
4.969999999999997
 31
0
  0
LINE
  8
0
 62
7
 10
1.866217536194486
 20
4.730000000000002
 30
0
 11
2.10621753619448
 21
4.969999999999997
 31
0
  0
LINE
  8
0
 62
7
 10
2.078349570550451
 20
4.730000000000002
 30
0
 11
2.318349570550445
 21
4.969999999999997
 31
0
  0
LINE
  8
0
 62
7
 10
2.290481604906415
 20
4.730000000000002
 30
0
 11
2.530481604906409
 21
4.969999999999997
 31
0
  0
LINE
  8
0
 62
7
 10
2.502613639262379
 20
4.730000000000002
 30
0
 11
2.742613639262373
 21
4.969999999999997
 31
0
  0
LINE
  8
0
 62
7
 10
2.714745673618344
 20
4.730000000000002
 30
0
 11
2.954745673618338
 21
4.969999999999997
 31
0
  0
LINE
  8
0
 62
7
 10
2.926877707974308
 20
4.730000000000002
 30
0
 11
3.166877707974302
 21
4.969999999999997
 31
0
  0
LINE
  8
0
 62
7
 10
3.139009742330272
 20
4.730000000000002
 30
0
 11
3.379009742330266
 21
4.969999999999997
 31
0
  0
LINE
  8
0
 62
7
 10
3.351141776686236
 20
4.730000000000002
 30
0
 11
3.59114177668623
 21
4.969999999999997
 31
0
  0
LINE
  8
0
 62
7
 10
3.563273811042201
 20
4.730000000000002
 30
0
 11
3.803273811042195
 21
4.969999999999997
 31
0
  0
LINE
  8
0
 62
7
 10
3.775405845398165
 20
4.730000000000002
 30
0
 11
4.015405845398159
 21
4.969999999999997
 31
0
  0
LINE
  8
0
 62
7
 10
4.284999999999997
 20
5.027462120245871
 30
0
 11
4.377537879754123
 21
5.119999999999997
 31
0
  0
LINE
  8
0
 62
7
 10
3.987537879754129
 20
4.730000000000002
 30
0
 11
4.227537879754123
 21
4.969999999999997
 31
0
  0
LINE
  8
0
 62
7
 10
4.199669914110093
 20
4.730000000000002
 30
0
 11
4.459999999999998
 21
4.990330085889909
 31
0
  0
LINE
  8
0
 62
7
 10
4.411801948466057
 20
4.730000000000002
 30
0
 11
4.609999999999998
 21
4.928198051533943
 31
0
  0
LINE
  8
0
 62
7
 10
0.9350000000000016
 20
4.965508652763321
 30
0
 11
0.9394913472366775
 21
4.969999999999998
 31
0
  0
LINE
  8
0
 62
7
 10
0.9350000000000016
 20
4.753376618407358
 30
0
 11
1.274999999999998
 21
5.093376618407354
 31
0
  0
LINE
  8
0
 62
7
 10
1.123755415948611
 20
4.730000000000001
 30
0
 11
1.363755415948606
 21
4.969999999999998
 31
0
  0
LINE
  8
0
 62
7
 10
1.335887450304575
 20
4.730000000000001
 30
0
 11
1.57588745030457
 21
4.969999999999998
 31
0
  0
LINE
  8
0
 62
7
 10
1.548019484660539
 20
4.730000000000001
 30
0
 11
1.788019484660535
 21
4.969999999999998
 31
0
  0
LINE
  8
0
 62
7
 10
1.760151519016504
 20
4.730000000000001
 30
0
 11
2.000151519016499
 21
4.969999999999998
 31
0
  0
LINE
  8
0
 62
7
 10
1.972283553372468
 20
4.730000000000001
 30
0
 11
2.212283553372463
 21
4.969999999999998
 31
0
  0
LINE
  8
0
 62
7
 10
2.184415587728432
 20
4.730000000000001
 30
0
 11
2.424415587728427
 21
4.969999999999998
 31
0
  0
LINE
  8
0
 62
7
 10
2.396547622084396
 20
4.730000000000001
 30
0
 11
2.636547622084392
 21
4.969999999999998
 31
0
  0
LINE
  8
0
 62
7
 10
2.608679656440361
 20
4.730000000000001
 30
0
 11
2.848679656440356
 21
4.969999999999998
 31
0
  0
LINE
  8
0
 62
7
 10
2.820811690796325
 20
4.730000000000001
 30
0
 11
3.06081169079632
 21
4.969999999999998
 31
0
  0
LINE
  8
0
 62
7
 10
3.032943725152289
 20
4.730000000000001
 30
0
 11
3.272943725152285
 21
4.969999999999998
 31
0
  0
LINE
  8
0
 62
7
 10
3.245075759508254
 20
4.730000000000001
 30
0
 11
3.485075759508249
 21
4.969999999999998
 31
0
  0
LINE
  8
0
 62
7
 10
3.457207793864218
 20
4.730000000000001
 30
0
 11
3.697207793864213
 21
4.969999999999998
 31
0
  0
LINE
  8
0
 62
7
 10
3.669339828220182
 20
4.730000000000001
 30
0
 11
3.909339828220177
 21
4.969999999999998
 31
0
  0
LINE
  8
0
 62
7
 10
3.881471862576146
 20
4.730000000000001
 30
0
 11
4.121471862576142
 21
4.969999999999998
 31
0
  0
LINE
  8
0
 62
7
 10
4.093603896932111
 20
4.730000000000001
 30
0
 11
4.459999999999997
 21
5.09639610306789
 31
0
  0
LINE
  8
0
 62
7
 10
4.305735931288075
 20
4.730000000000001
 30
0
 11
4.545735931288071
 21
4.969999999999998
 31
0
  0
LINE
  8
0
 62
7
 10
4.517867965644038
 20
4.730000000000001
 30
0
 11
4.609999999999998
 21
4.822132034355961
 31
0
  0
ENDBLK
  8
0
  0
BLOCK
  8
0
  2
*X16
 70
1
 10
0
 20
0
 30
0
  0
LINE
  8
0
 62
7
 10
0.9350000000000014
 20
4.647310601229375
 30
0
 11
0.9776893987706283
 21
4.690000000000001
 31
0
  0
LINE
  8
0
 62
7
 10
0.9498214331265915
 20
4.450000000000001
 30
0
 11
1.189821433126593
 21
4.690000000000001
 31
0
  0
LINE
  8
0
 62
7
 10
1.099999999999998
 20
4.388046532517443
 30
0
 11
1.401953467482557
 21
4.690000000000001
 31
0
  0
LINE
  8
0
 62
7
 10
1.37408550183852
 20
4.450000000000001
 30
0
 11
1.614085501838521
 21
4.690000000000001
 31
0
  0
LINE
  8
0
 62
7
 10
1.099999999999998
 20
4.175914498161479
 30
0
 11
1.274999999999999
 21
4.35091449816148
 31
0
  0
LINE
  8
0
 62
7
 10
1.586217536194484
 20
4.450000000000001
 30
0
 11
1.826217536194485
 21
4.690000000000001
 31
0
  0
LINE
  8
0
 62
7
 10
1.099999999999998
 20
3.963782463805515
 30
0
 11
1.274999999999999
 21
4.138782463805516
 31
0
  0
LINE
  8
0
 62
7
 10
1.798349570550448
 20
4.450000000000001
 30
0
 11
2.03834957055045
 21
4.690000000000001
 31
0
  0
LINE
  8
0
 62
7
 10
1.099999999999998
 20
3.751650429449551
 30
0
 11
1.274999999999999
 21
3.926650429449551
 31
0
  0
LINE
  8
0
 62
7
 10
2.010481604906412
 20
4.450000000000001
 30
0
 11
2.250481604906414
 21
4.690000000000001
 31
0
  0
LINE
  8
0
 62
7
 10
1.099999999999998
 20
3.539518395093586
 30
0
 11
1.274999999999999
 21
3.714518395093587
 31
0
  0
LINE
  8
0
 62
7
 10
2.222613639262377
 20
4.450000000000001
 30
0
 11
2.462613639262378
 21
4.690000000000001
 31
0
  0
LINE
  8
0
 62
7
 10
1.122613639262376
 20
3.35
 30
0
 11
1.274999999999999
 21
3.502386360737623
 31
0
  0
LINE
  8
0
 62
7
 10
2.434745673618341
 20
4.450000000000001
 30
0
 11
2.674745673618343
 21
4.690000000000001
 31
0
  0
LINE
  8
0
 62
7
 10
2.646877707974305
 20
4.450000000000001
 30
0
 11
2.886877707974307
 21
4.690000000000001
 31
0
  0
LINE
  8
0
 62
7
 10
2.85900974233027
 20
4.450000000000001
 30
0
 11
3.099009742330271
 21
4.690000000000001
 31
0
  0
LINE
  8
0
 62
7
 10
3.071141776686234
 20
4.450000000000001
 30
0
 11
3.311141776686235
 21
4.690000000000001
 31
0
  0
LINE
  8
0
 62
7
 10
3.283273811042198
 20
4.450000000000001
 30
0
 11
3.5232738110422
 21
4.690000000000001
 31
0
  0
LINE
  8
0
 62
7
 10
3.495405845398162
 20
4.450000000000001
 30
0
 11
3.735405845398164
 21
4.690000000000001
 31
0
  0
LINE
  8
0
 62
7
 10
3.707537879754127
 20
4.450000000000001
 30
0
 11
3.947537879754128
 21
4.690000000000001
 31
0
  0
LINE
  8
0
 62
7
 10
3.919669914110091
 20
4.450000000000001
 30
0
 11
4.159669914110093
 21
4.690000000000001
 31
0
  0
LINE
  8
0
 62
7
 10
4.131801948466055
 20
4.450000000000001
 30
0
 11
4.371801948466056
 21
4.690000000000001
 31
0
  0
LINE
  8
0
 62
7
 10
4.284999999999997
 20
4.391066017177977
 30
0
 11
4.58393398282202
 21
4.690000000000001
 31
0
  0
LINE
  8
0
 62
7
 10
4.556066017177984
 20
4.450000000000001
 30
0
 11
4.609999999999998
 21
4.503933982822015
 31
0
  0
LINE
  8
0
 62
7
 10
4.284999999999997
 20
4.178933982822013
 30
0
 11
4.459999999999998
 21
4.353933982822015
 31
0
  0
LINE
  8
0
 62
7
 10
4.284999999999997
 20
3.966801948466049
 30
0
 11
4.459999999999998
 21
4.141801948466052
 31
0
  0
LINE
  8
0
 62
7
 10
4.284999999999997
 20
3.754669914110085
 30
0
 11
4.459999999999998
 21
3.929669914110087
 31
0
  0
LINE
  8
0
 62
7
 10
4.284999999999997
 20
3.54253787975412
 30
0
 11
4.459999999999998
 21
3.717537879754123
 31
0
  0
LINE
  8
0
 62
7
 10
4.284999999999997
 20
3.330405845398157
 30
0
 11
4.459999999999998
 21
3.505405845398159
 31
0
  0
LINE
  8
0
 62
7
 10
4.416726188957804
 20
3.25
 30
0
 11
4.459999999999998
 21
3.293273811042194
 31
0
  0
LINE
  8
0
 62
7
 10
0.9350000000000018
 20
4.541244584051393
 30
0
 11
1.083755415948612
 21
4.690000000000002
 31
0
  0
LINE
  8
0
 62
7
 10
1.055887450304573
 20
4.450000000000001
 30
0
 11
1.295887450304576
 21
4.690000000000002
 31
0
  0
LINE
  8
0
 62
7
 10
1.099999999999998
 20
4.281980515339461
 30
0
 11
1.50801948466054
 21
4.690000000000002
 31
0
  0
LINE
  8
0
 62
7
 10
1.480151519016502
 20
4.45
 30
0
 11
1.720151519016504
 21
4.690000000000002
 31
0
  0
LINE
  8
0
 62
7
 10
1.099999999999998
 20
4.069848480983497
 30
0
 11
1.274999999999998
 21
4.244848480983496
 31
0
  0
LINE
  8
0
 62
7
 10
1.692283553372466
 20
4.45
 30
0
 11
1.932283553372469
 21
4.690000000000002
 31
0
  0
LINE
  8
0
 62
7
 10
1.099999999999998
 20
3.857716446627533
 30
0
 11
1.274999999999998
 21
4.032716446627532
 31
0
  0
LINE
  8
0
 62
7
 10
1.904415587728431
 20
4.45
 30
0
 11
2.144415587728433
 21
4.690000000000002
 31
0
  0
LINE
  8
0
 62
7
 10
1.099999999999998
 20
3.645584412271568
 30
0
 11
1.274999999999998
 21
3.820584412271568
 31
0
  0
LINE
  8
0
 62
7
 10
2.116547622084395
 20
4.45
 30
0
 11
2.356547622084397
 21
4.690000000000002
 31
0
  0
LINE
  8
0
 62
7
 10
1.099999999999998
 20
3.433452377915604
 30
0
 11
1.274999999999998
 21
3.608452377915604
 31
0
  0
LINE
  8
0
 62
7
 10
2.328679656440359
 20
4.45
 30
0
 11
2.568679656440362
 21
4.690000000000002
 31
0
  0
LINE
  8
0
 62
7
 10
1.228679656440357
 20
3.35
 30
0
 11
1.274999999999998
 21
3.39632034355964
 31
0
  0
LINE
  8
0
 62
7
 10
2.540811690796323
 20
4.45
 30
0
 11
2.780811690796326
 21
4.690000000000002
 31
0
  0
LINE
  8
0
 62
7
 10
2.752943725152288
 20
4.45
 30
0
 11
2.99294372515229
 21
4.690000000000002
 31
0
  0
LINE
  8
0
 62
7
 10
2.965075759508252
 20
4.45
 30
0
 11
3.205075759508254
 21
4.690000000000002
 31
0
  0
LINE
  8
0
 62
7
 10
3.177207793864216
 20
4.45
 30
0
 11
3.417207793864219
 21
4.690000000000002
 31
0
  0
LINE
  8
0
 62
7
 10
3.389339828220181
 20
4.45
 30
0
 11
3.629339828220183
 21
4.690000000000002
 31
0
  0
LINE
  8
0
 62
7
 10
3.601471862576145
 20
4.45
 30
0
 11
3.841471862576147
 21
4.690000000000002
 31
0
  0
LINE
  8
0
 62
7
 10
3.813603896932109
 20
4.45
 30
0
 11
4.053603896932112
 21
4.690000000000002
 31
0
  0
LINE
  8
0
 62
7
 10
4.025735931288073
 20
4.45
 30
0
 11
4.265735931288075
 21
4.690000000000002
 31
0
  0
LINE
  8
0
 62
7
 10
4.237867965644037
 20
4.45
 30
0
 11
4.477867965644039
 21
4.690000000000002
 31
0
  0
LINE
  8
0
 62
7
 10
4.284999999999996
 20
4.284999999999995
 30
0
 11
4.609999999999998
 21
4.609999999999997
 31
0
  0
LINE
  8
0
 62
7
 10
4.284999999999996
 20
4.072867965644031
 30
0
 11
4.459999999999998
 21
4.247867965644033
 31
0
  0
LINE
  8
0
 62
7
 10
4.284999999999996
 20
3.860735931288067
 30
0
 11
4.459999999999998
 21
4.035735931288069
 31
0
  0
LINE
  8
0
 62
7
 10
4.284999999999996
 20
3.648603896932103
 30
0
 11
4.459999999999998
 21
3.823603896932105
 31
0
  0
LINE
  8
0
 62
7
 10
4.284999999999996
 20
3.436471862576139
 30
0
 11
4.459999999999998
 21
3.611471862576141
 31
0
  0
LINE
  8
0
 62
7
 10
4.310660171779822
 20
3.25
 30
0
 11
4.459999999999998
 21
3.399339828220176
 31
0
  0
ENDBLK
  8
0
  0
BLOCK
  8
0
  2
*D0
 70
1
 10
0
 20
0
 30
0
  0
LINE
  8
0
 62
7
 10
0.508916235209242
 20
10.20165633044628
 30
0
 11
0.508916235209242
 21
11.05
 31
0
  0
LINE
  8
0
 62
7
 10
0.508916235209242
 20
8.299999999999997
 30
0
 11
0.508916235209242
 21
9.12165633044628
 31
0
  0
LINE
  8
0
 62
7
 10
0.9500000000000017
 20
11.05
 30
0
 11
0.458916235209242
 21
11.05
 31
0
  0
LINE
  8
0
 62
7
 10
0.9500000000000017
 20
8.299999999999997
 30
0
 11
0.458916235209242
 21
8.299999999999997
 31
0
  0
LINE
  8
0
 62
7
 10
0.4735608961499146
 20
8.335355339059324
 30
0
 11
0.5442715742685694
 21
8.26464466094067
 31
0
  0
LINE
  8
0
 62
7
 10
0.5442715742685694
 20
11.01464466094067
 30
0
 11
0.4735608961499146
 21
11.08535533905933
 31
0
  0
TEXT
  8
0
 62
7
 10
0.478916235209242
 20
9.524156330446282
 30
0
 40
0.1
  1
2,75
 50
90
 41
0.9
  0
TEXT
  8
0
 62
7
 10
0.638916235209242
 20
9.321656330446281
 30
0
 40
0.1
  1
(260-280)
 50
90
 41
0.9
  0
ENDBLK
  8
0
  0
BLOCK
  8
0
  2
*D1
 70
1
 10
0
 20
0
 30
0
  0
LINE
  8
0
 62
7
 10
3.1038418105945
 20
11.5359847090217
 30
0
 11
4.284999999999997
 21
11.5359847090217
 31
0
  0
LINE
  8
0
 62
7
 10
1.274999999999998
 20
11.5359847090217
 30
0
 11
2.4588418105945
 21
11.5359847090217
 31
0
  0
LINE
  8
0
 62
7
 10
4.284999999999997
 20
11.2
 30
0
 11
4.284999999999997
 21
11.5859847090217
 31
0
  0
LINE
  8
0
 62
7
 10
1.274999999999998
 20
11.2
 30
0
 11
1.274999999999998
 21
11.5859847090217
 31
0
  0
LINE
  8
0
 62
7
 10
1.310355339059325
 20
11.57134004808103
 30
0
 11
1.239644660940671
 21
11.50062936996237
 31
0
  0
LINE
  8
0
 62
7
 10
4.24964466094067
 20
11.50062936996237
 30
0
 11
4.320355339059325
 21
11.57134004808103
 31
0
  0
TEXT
  8
0
 62
7
 10
2.6588418105945
 20
11.4909847090217
 30
0
 40
0.1
  1
3,01
 41
0.9
  0
ENDBLK
  8
0
  0
BLOCK
  8
0
  2
*D2
 70
1
 10
0
 20
0
 30
0
  0
LINE
  8
0
 62
7
 10
4.76981844944081
 20
4.23328365298359
 30
0
 11
4.76981844944081
 21
4.450000000000001
 31
0
  0
LINE
  8
0
 62
7
 10
4.76981844944081
 20
3.25
 30
0
 11
4.76981844944081
 21
3.57828365298359
 31
0
  0
LINE
  8
0
 62
7
 10
4.459999999999997
 20
4.450000000000001
 30
0
 11
4.81981844944081
 21
4.450000000000001
 31
0
  0
LINE
  8
0
 62
7
 10
4.459999999999997
 20
3.25
 30
0
 11
4.81981844944081
 21
3.25
 31
0
  0
LINE
  8
0
 62
7
 10
4.734463110381482
 20
3.285355339059327
 30
0
 11
4.805173788500137
 21
3.214644660940673
 31
0
  0
LINE
  8
0
 62
7
 10
4.805173788500137
 20
4.414644660940674
 30
0
 11
4.734463110381482
 21
4.485355339059328
 31
0
  0
TEXT
  8
0
 62
7
 10
4.81481844944081
 20
3.82828365298359
 30
0
 40
0.1
  1
1,2
 50
90
 41
0.9
  0
ENDBLK
  8
0
  0
BLOCK
  8
0
  2
*D3
 70
1
 10
0
 20
0
 30
0
  0
LINE
  8
0
 62
7
 10
3.20008545335837
 20
5.40870204280929
 30
0
 11
4.284999999999997
 21
5.40870204280929
 31
0
  0
LINE
  8
0
 62
7
 10
1.274999999999998
 20
5.40870204280929
 30
0
 11
2.45508545335837
 21
5.40870204280929
 31
0
  0
LINE
  8
0
 62
7
 10
4.284999999999997
 20
4.969999999999998
 30
0
 11
4.284999999999997
 21
5.45870204280929
 31
0
  0
LINE
  8
0
 62
7
 10
1.274999999999998
 20
4.969999999999998
 30
0
 11
1.274999999999998
 21
5.45870204280929
 31
0
  0
LINE
  8
0
 62
7
 10
4.249644660940669
 20
5.373346703749963
 30
0
 11
4.320355339059324
 21
5.444057381868618
 31
0
  0
LINE
  8
0
 62
7
 10
1.310355339059325
 20
5.444057381868618
 30
0
 11
1.239644660940671
 21
5.373346703749963
 31
0
  0
TEXT
  8
0
 62
7
 10
2.70508545335837
 20
5.36370204280929
 30
0
 40
0.1
  1
3,01
 41
0.9
  0
ENDBLK
  8
0
  0
BLOCK
  8
0
  2
*D4
 70
1
 10
0
 20
0
 30
0
  0
LINE
  8
0
 62
7
 10
0.700377886220461
 20
4.24140547436552
 30
0
 11
0.700377886220461
 21
4.450000000000001
 31
0
  0
LINE
  8
0
 62
7
 10
0.700377886220461
 20
3.35
 30
0
 11
0.700377886220461
 21
3.61640547436552
 31
0
  0
LINE
  8
0
 62
7
 10
1.099999999999998
 20
4.450000000000001
 30
0
 11
0.650377886220461
 21
4.450000000000001
 31
0
  0
LINE
  8
0
 62
7
 10
1.099999999999998
 20
3.35
 30
0
 11
0.650377886220461
 21
3.35
 31
0
  0
LINE
  8
0
 62
7
 10
0.7357332252797885
 20
4.414644660940674
 30
0
 11
0.6650225471611336
 21
4.485355339059328
 31
0
  0
LINE
  8
0
 62
7
 10
0.6650225471611336
 20
3.385355339059327
 30
0
 11
0.7357332252797885
 21
3.314644660940673
 31
0
  0
TEXT
  8
0
 62
7
 10
0.7453778862204611
 20
3.86640547436552
 30
0
 40
0.1
  1
1,1
 50
90
 41
0.9
  0
ENDBLK
  8
0
  0
ENDSEC
  0
SECTION
  2
ENTITIES
  0
INSERT
  8
0
  2
*X0
 10
0
 20
0
 30
0
  0
INSERT
  8
0
  2
*X1
 10
0
 20
0
 30
0
  0
INSERT
  8
0
  2
*X2
 10
0
 20
0
 30
0
  0
INSERT
  8
0
  2
*X3
 10
0
 20
0
 30
0
  0
INSERT
  8
0
  2
*X4
 10
0
 20
0
 30
0
  0
INSERT
  8
0
  2
*X5
 10
0
 20
0
 30
0
  0
INSERT
  8
0
  2
*X6
 10
0
 20
0
 30
0
  0
INSERT
  8
0
  2
*X7
 10
0
 20
0
 30
0
  0
INSERT
  8
0
  2
*X8
 10
0
 20
0
 30
0
  0
INSERT
  8
0
  2
*X9
 10
0
 20
0
 30
0
  0
INSERT
  8
0
  2
*X10
 10
0
 20
0
 30
0
  0
INSERT
  8
0
  2
*X11
 10
0
 20
0
 30
0
  0
INSERT
  8
0
  2
*X12
 10
0
 20
0
 30
0
  0
INSERT
  8
0
  2
*X13
 10
0
 20
0
 30
0
  0
INSERT
  8
0
  2
*X14
 10
0
 20
0
 30
0
  0
INSERT
  8
0
  2
*X15
 10
0
 20
0
 30
0
  0
INSERT
  8
0
  2
*X16
 10
0
 20
0
 30
0
  0
LINE
  8
0
 62
7
 10
2.239999999999998
 20
3.385000000000001
 30
0
 11
2.239999999999998
 21
3.444340211322816
 31
0
  0
LINE
  8
0
 62
7
 10
2.239999999999998
 20
3.444340211322816
 30
0
 11
2.363786208059168
 21
3.546361811371581
 31
0
  0
LINE
  8
0
 62
7
 10
3.259205889060658
 20
3.485000000000001
 30
0
 11
3.269418677191716
 21
3.489300695506699
 31
0
  0
LINE
  8
0
 62
7
 10
3.269418677191716
 20
3.489300695506699
 30
0
 11
3.319999999999998
 21
3.448784184173078
 31
0
  0
LINE
  8
0
 62
7
 10
3.319999999999998
 20
3.448784184173078
 30
0
 11
3.319999999999998
 21
3.250000000000001
 31
0
  0
LINE
  8
0
 62
7
 10
4.229999999999998
 20
3.250000000000001
 30
0
 11
4.229999999999998
 21
3.611069053728221
 31
0
  0
LINE
  8
0
 62
7
 10
3.319999999999998
 20
3.250000000000001
 30
0
 11
4.229999999999998
 21
3.250000000000001
 31
0
  0
LINE
  8
0
 62
7
 10
4.229999999999998
 20
3.520605887586589
 30
0
 11
4.229999999999998
 21
3.991464460940778
 31
0
  0
LINE
  8
0
 62
7
 10
3.319999999999998
 20
3.448784184173078
 30
0
 11
3.342843611433008
 21
3.430486057707811
 31
0
  0
LINE
  8
0
 62
7
 10
3.342843611433008
 20
3.430486057707811
 30
0
 11
4.229999999999998
 21
3.520605887586589
 31
0
  0
LINE
  8
0
 62
7
 10
4.229999999999998
 20
3.893809995592358
 30
0
 11
4.229999999999998
 21
4.395000000000001
 31
0
  0
LINE
  8
0
 62
7
 10
4.229999999999998
 20
4.395000000000001
 30
0
 11
4.088842003702626
 21
4.395000000000001
 31
0
  0
LINE
  8
0
 62
7
 10
3.039355211083957
 20
3.485000000000001
 30
0
 11
3.259205889060658
 21
3.485000000000001
 31
0
  0
LINE
  8
0
 62
7
 10
3.269418677191716
 20
3.489300695506699
 30
0
 11
4.229999999999998
 21
3.893809995592358
 31
0
  0
LINE
  8
0
 62
7
 10
4.226222804593328
 20
4.395000000000001
 30
0
 11
3.610710665110648
 21
4.395000000000001
 31
0
  0
LINE
  8
0
 62
7
 10
2.967341123386246
 20
3.485000000000001
 30
0
 11
3.176736011974658
 21
3.485000000000001
 31
0
  0
LINE
  8
0
 62
7
 10
3.176736011974658
 20
3.485000000000001
 30
0
 11
4.226222804593328
 21
4.395000000000001
 31
0
  0
LINE
  8
0
 62
7
 10
3.720932129136827
 20
4.395000000000001
 30
0
 11
3.278789920688265
 21
4.395000000000001
 31
0
  0
LINE
  8
0
 62
7
 10
2.875804971477937
 20
3.485000000000001
 30
0
 11
3.077562587412427
 21
3.485000000000001
 31
0
  0
LINE
  8
0
 62
7
 10
3.077562587412427
 20
3.485000000000001
 30
0
 11
3.720932129136827
 21
4.395000000000001
 31
0
  0
LINE
  8
0
 62
7
 10
3.37721996275407
 20
4.395000000000001
 30
0
 11
2.955042640703647
 21
4.395000000000001
 31
0
  0
LINE
  8
0
 62
7
 10
2.780951332005657
 20
3.485000000000001
 30
0
 11
2.974235013543739
 21
3.485000000000001
 31
0
  0
LINE
  8
0
 62
7
 10
2.974235013543739
 20
3.485000000000001
 30
0
 11
3.37721996275407
 21
4.395000000000001
 31
0
  0
LINE
  8
0
 62
7
 10
3.046674804191407
 20
4.395000000000001
 30
0
 11
2.623525188996149
 21
4.395000000000001
 31
0
  0
LINE
  8
0
 62
7
 10
2.68380757019926
 20
3.485000000000001
 30
0
 11
2.872583495493427
 21
3.485000000000001
 31
0
  0
LINE
  8
0
 62
7
 10
2.872583495493427
 20
3.485000000000001
 30
0
 11
3.046674804191407
 21
4.395000000000001
 31
0
  0
LINE
  8
0
 62
7
 10
2.713722447099817
 20
4.395000000000001
 30
0
 11
2.283274595175781
 21
4.395000000000001
 31
0
  0
LINE
  8
0
 62
7
 10
2.584090073555168
 20
3.485000000000001
 30
0
 11
2.774004828302927
 21
3.485000000000001
 31
0
  0
LINE
  8
0
 62
7
 10
2.774004828302927
 20
3.485000000000001
 30
0
 11
2.713722447099817
 21
4.395000000000001
 31
0
  0
LINE
  8
0
 62
7
 10
2.378064472762808
 20
4.395000000000001
 30
0
 11
1.934865767333498
 21
4.395000000000001
 31
0
  0
LINE
  8
0
 62
7
 10
2.481968171557948
 20
3.485000000000001
 30
0
 11
2.678879951142198
 21
3.485000000000001
 31
0
  0
LINE
  8
0
 62
7
 10
2.678879951142198
 20
3.485000000000001
 30
0
 11
2.378064472762808
 21
4.395000000000001
 31
0
  0
LINE
  8
0
 62
7
 10
2.039879038009907
 20
4.395000000000001
 30
0
 11
1.514626042940176
 21
4.395000000000001
 31
0
  0
LINE
  8
0
 62
7
 10
2.380527180935036
 20
3.485000000000001
 30
0
 11
2.586981442234368
 21
3.485000000000001
 31
0
  0
LINE
  8
0
 62
7
 10
2.586981442234368
 20
3.485000000000001
 30
0
 11
2.039879038009907
 21
4.395000000000001
 31
0
  0
LINE
  8
0
 62
7
 10
1.6388595544084
 20
4.395000000000001
 30
0
 11
1.329999999999998
 21
4.395000000000001
 31
0
  0
LINE
  8
0
 62
7
 10
1.329999999999998
 20
4.395000000000001
 30
0
 11
1.329999999999998
 21
4.028059173431521
 31
0
  0
LINE
  8
0
 62
7
 10
2.289484885523778
 20
3.485000000000001
 30
0
 11
2.504760692403246
 21
3.485000000000001
 31
0
  0
LINE
  8
0
 62
7
 10
2.504760692403246
 20
3.485000000000001
 30
0
 11
1.6388595544084
 21
4.395000000000001
 31
0
  0
LINE
  8
0
 62
7
 10
1.329999999999998
 20
4.131474815363361
 30
0
 11
1.329999999999998
 21
3.64320643890095
 31
0
  0
LINE
  8
0
 62
7
 10
2.363786208059168
 20
3.546361811371581
 30
0
 11
1.329999999999998
 21
4.131474815363361
 31
0
  0
LINE
  8
0
 62
7
 10
1.329999999999998
 20
3.73606442842696
 30
0
 11
1.329999999999998
 21
3.385000000000001
 31
0
  0
LINE
  8
0
 62
7
 10
2.239999999999998
 20
3.444340211322816
 30
0
 11
2.239999999999998
 21
3.504918541674061
 31
0
  0
LINE
  8
0
 62
7
 10
2.239999999999998
 20
3.504918541674061
 30
0
 11
1.329999999999998
 21
3.73606442842696
 31
0
  0
LINE
  8
0
 62
7
 10
1.729731919537919
 20
3.400000000000001
 30
0
 11
1.729731919537919
 21
3.484999999990292
 31
0
  0
LINE
  8
0
 62
7
 10
1.729731919537919
 20
3.400000000000001
 30
0
 11
1.624076820276217
 21
3.461
 31
0
  0
LINE
  8
0
 62
7
 10
1.624076820276217
 20
3.461
 30
0
 11
1.83538701879962
 21
3.461
 31
0
  0
LINE
  8
0
 62
7
 10
1.83538701879962
 20
3.461
 30
0
 11
1.729731919537919
 21
3.400000000000001
 31
0
  0
LINE
  8
0
 62
7
 10
2.240000000004378
 20
3.99526808046208
 30
0
 11
3.319999999990287
 21
3.99526808046208
 31
0
  0
LINE
  8
0
 62
7
 10
3.830268080462076
 20
3.484999999997781
 30
0
 11
3.830268080462076
 21
3.250000000000001
 31
0
  0
LINE
  8
0
 62
7
 10
3.319999999999995
 20
8.596800069999997
 30
0
 11
4.230000529999996
 21
8.596800069999997
 31
0
  0
LINE
  8
0
 62
7
 10
4.230000529999996
 20
8.596800069999997
 30
0
 11
4.230000529999996
 21
8.531800069999996
 31
0
  0
LINE
  8
0
 62
7
 10
3.319999999999995
 20
8.531800069999996
 30
0
 11
3.319999999999995
 21
8.596800069999997
 31
0
  0
LINE
  8
0
 62
7
 10
4.230000529999996
 20
8.531800069999996
 30
0
 11
3.319999999999995
 21
8.531800069999996
 31
0
  0
LINE
  8
0
 62
7
 10
3.189513009999995
 20
8.793200059999995
 30
0
 11
4.230000009999996
 21
8.793200059999995
 31
0
  0
LINE
  8
0
 62
7
 10
4.230000009999996
 20
8.728200059999997
 30
0
 11
3.189513009999995
 21
8.728200059999997
 31
0
  0
LINE
  8
0
 62
7
 10
4.230000009999996
 20
8.793200059999995
 30
0
 11
4.230000009999996
 21
8.728200059999997
 31
0
  0
LINE
  8
0
 62
7
 10
3.189513009999995
 20
8.728200059999997
 30
0
 11
3.189513009999995
 21
8.793200059999995
 31
0
  0
LINE
  8
0
 62
7
 10
4.230000029999996
 20
8.924600059999996
 30
0
 11
3.039354169999995
 21
8.924600059999996
 31
0
  0
LINE
  8
0
 62
7
 10
3.039354169999995
 20
8.989600059999995
 30
0
 11
4.230000029999996
 21
8.989600059999995
 31
0
  0
LINE
  8
0
 62
7
 10
4.230000029999996
 20
8.989600059999995
 30
0
 11
4.230000029999996
 21
8.924600059999996
 31
0
  0
LINE
  8
0
 62
7
 10
3.039354169999995
 20
8.924600059999996
 30
0
 11
3.039354169999995
 21
8.989600059999995
 31
0
  0
LINE
  8
0
 62
7
 10
4.226221919999996
 20
9.121000049999996
 30
0
 11
2.967340239999995
 21
9.121000049999996
 31
0
  0
LINE
  8
0
 62
7
 10
2.967340239999995
 20
9.186000049999995
 30
0
 11
4.226221919999996
 21
9.186000049999995
 31
0
  0
LINE
  8
0
 62
7
 10
4.226221919999996
 20
9.186000049999995
 30
0
 11
4.226221919999996
 21
9.121000049999996
 31
0
  0
LINE
  8
0
 62
7
 10
2.967340239999995
 20
9.121000049999996
 30
0
 11
2.967340239999995
 21
9.186000049999995
 31
0
  0
LINE
  8
0
 62
7
 10
3.720931389999997
 20
9.317400049999994
 30
0
 11
2.875804439999997
 21
9.317400049999994
 31
0
  0
LINE
  8
0
 62
7
 10
2.875804439999997
 20
9.382400049999996
 30
0
 11
3.720931389999997
 21
9.382400049999996
 31
0
  0
LINE
  8
0
 62
7
 10
3.720931389999997
 20
9.382400049999996
 30
0
 11
3.720931389999997
 21
9.317400049999994
 31
0
  0
LINE
  8
0
 62
7
 10
2.875804439999997
 20
9.317400049999994
 30
0
 11
2.875804439999997
 21
9.382400049999996
 31
0
  0
LINE
  8
0
 62
7
 10
3.377219309999996
 20
9.513800039999996
 30
0
 11
2.780950929999994
 21
9.513800039999996
 31
0
  0
LINE
  8
0
 62
7
 10
2.780950929999994
 20
9.578800039999996
 30
0
 11
3.377219309999996
 21
9.578800039999996
 31
0
  0
LINE
  8
0
 62
7
 10
3.377219309999996
 20
9.578800039999996
 30
0
 11
3.377219309999996
 21
9.513800039999996
 31
0
  0
LINE
  8
0
 62
7
 10
2.780950929999994
 20
9.513800039999996
 30
0
 11
2.780950929999994
 21
9.578800039999996
 31
0
  0
LINE
  8
0
 62
7
 10
3.046674729999995
 20
9.710200029999998
 30
0
 11
2.623524169999996
 21
9.710200029999998
 31
0
  0
LINE
  8
0
 62
7
 10
2.623524169999996
 20
9.775200029999997
 30
0
 11
3.046674729999995
 21
9.775200029999997
 31
0
  0
LINE
  8
0
 62
7
 10
3.046674729999995
 20
9.775200029999997
 30
0
 11
3.046674729999995
 21
9.710200029999998
 31
0
  0
LINE
  8
0
 62
7
 10
2.623524169999996
 20
9.710200029999998
 30
0
 11
2.623524169999996
 21
9.775200029999997
 31
0
  0
LINE
  8
0
 62
7
 10
2.774004059999996
 20
9.906600029999996
 30
0
 11
2.283273919999996
 21
9.906600029999996
 31
0
  0
LINE
  8
0
 62
7
 10
2.283273919999996
 20
9.971600029999998
 30
0
 11
2.774004059999996
 21
9.971600029999998
 31
0
  0
LINE
  8
0
 62
7
 10
2.774004059999996
 20
9.971600029999998
 30
0
 11
2.774004059999996
 21
9.906600029999996
 31
0
  0
LINE
  8
0
 62
7
 10
2.283273919999996
 20
9.906600029999996
 30
0
 11
2.283273919999996
 21
9.971600029999998
 31
0
  0
LINE
  8
0
 62
7
 10
2.678879389999994
 20
10.10300002
 30
0
 11
1.934865719999996
 21
10.10300002
 31
0
  0
LINE
  8
0
 62
7
 10
1.934865719999996
 20
10.16800002
 30
0
 11
2.678879389999994
 21
10.16800002
 31
0
  0
LINE
  8
0
 62
7
 10
2.678879389999994
 20
10.16800002
 30
0
 11
2.678879389999994
 21
10.10300002
 31
0
  0
LINE
  8
0
 62
7
 10
1.934865719999996
 20
10.10300002
 30
0
 11
1.934865719999996
 21
10.16800002
 31
0
  0
LINE
  8
0
 62
7
 10
2.586981199999995
 20
10.29940002
 30
0
 11
1.514625239999996
 21
10.29940002
 31
0
  0
LINE
  8
0
 62
7
 10
1.514625239999996
 20
10.36440002
 30
0
 11
2.586981199999995
 21
10.36440002
 31
0
  0
LINE
  8
0
 62
7
 10
2.586981199999995
 20
10.36440002
 30
0
 11
2.586981199999995
 21
10.29940002
 31
0
  0
LINE
  8
0
 62
7
 10
1.514625239999996
 20
10.29940002
 30
0
 11
1.514625239999996
 21
10.36440002
 31
0
  0
LINE
  8
0
 62
7
 10
2.504759369999996
 20
10.49580001
 30
0
 11
1.329999999999995
 21
10.49580001
 31
0
  0
LINE
  8
0
 62
7
 10
1.329999999999995
 20
10.56080001
 30
0
 11
2.504759369999996
 21
10.56080001
 31
0
  0
LINE
  8
0
 62
7
 10
2.504759369999996
 20
10.56080001
 30
0
 11
2.504759369999996
 21
10.49580001
 31
0
  0
LINE
  8
0
 62
7
 10
1.329999999999995
 20
10.49580001
 30
0
 11
1.329999999999995
 21
10.56080001
 31
0
  0
LINE
  8
0
 62
7
 10
1.329999999999995
 20
10.7572
 30
0
 11
2.363785549999997
 21
10.7572
 31
0
  0
LINE
  8
0
 62
7
 10
2.363785549999997
 20
10.6922
 30
0
 11
1.329999999999995
 21
10.6922
 31
0
  0
LINE
  8
0
 62
7
 10
2.363785549999997
 20
10.7572
 30
0
 11
2.363785549999997
 21
10.6922
 31
0
  0
LINE
  8
0
 62
7
 10
1.329999999999995
 20
10.6922
 30
0
 11
1.329999999999995
 21
10.7572
 31
0
  0
LINE
  8
0
 62
7
  6
DASHED
 10
1.329999999999995
 20
10.95359999999999
 30
0
 11
2.239999999999995
 21
10.95359999999999
 31
0
  0
LINE
  8
0
 62
7
  6
DASHED
 10
2.239999999999995
 20
10.95359999999999
 30
0
 11
2.239999999999995
 21
10.88859999999999
 31
0
  0
LINE
  8
0
 62
7
  6
DASHED
 10
1.329999999999995
 20
10.88859999999999
 30
0
 11
1.329999999999995
 21
10.95359999999999
 31
0
  0
LINE
  8
0
 62
7
  6
DASHED
 10
2.239999999999995
 20
10.88859999999999
 30
0
 11
1.329999999999995
 21
10.88859999999999
 31
0
  0
LINE
  8
0
 62
7
 10
6.759999879999995
 20
8.596800069999997
 30
0
 11
7.12106903
 21
8.596800069999997
 31
0
  0
LINE
  8
0
 62
7
 10
7.12106903
 20
8.531800069999996
 30
0
 11
6.759999879999995
 21
8.531800069999996
 31
0
  0
LINE
  8
0
 62
7
 10
6.759999879999995
 20
8.531800069999996
 30
0
 11
6.759999879999995
 21
8.596800069999997
 31
0
  0
LINE
  8
0
 62
7
 10
7.12106903
 20
8.596800069999997
 30
0
 11
7.12106903
 21
8.531800069999996
 31
0
  0
LINE
  8
0
 62
7
 10
7.501464539999998
 20
8.728200059999997
 30
0
 11
6.940486139999997
 21
8.728200059999997
 31
0
  0
LINE
  8
0
 62
7
 10
6.940486139999997
 20
8.793200059999995
 30
0
 11
7.501464539999998
 21
8.793200059999995
 31
0
  0
LINE
  8
0
 62
7
 10
6.940486139999997
 20
8.728200059999997
 30
0
 11
6.940486139999997
 21
8.793200059999995
 31
0
  0
LINE
  8
0
 62
7
 10
7.501464539999998
 20
8.793200059999995
 30
0
 11
7.501464539999998
 21
8.728200059999997
 31
0
  0
LINE
  8
0
 62
7
 10
6.994999999999997
 20
8.989600059999995
 30
0
 11
7.904999999999998
 21
8.989600059999995
 31
0
  0
LINE
  8
0
 62
7
 10
7.904999999999998
 20
8.924600059999996
 30
0
 11
6.994999999999997
 21
8.924600059999996
 31
0
  0
LINE
  8
0
 62
7
 10
6.994999999999997
 20
8.924600059999996
 30
0
 11
6.994999999999997
 21
8.989600059999995
 31
0
  0
LINE
  8
0
 62
7
 10
7.904999999999998
 20
8.989600059999995
 30
0
 11
7.904999999999998
 21
8.924600059999996
 31
0
  0
LINE
  8
0
 62
7
 10
6.994999879999996
 20
9.186000049999995
 30
0
 11
7.905000149999997
 21
9.186000049999995
 31
0
  0
LINE
  8
0
 62
7
 10
6.994999879999996
 20
9.121000049999996
 30
0
 11
6.994999879999996
 21
9.186000049999995
 31
0
  0
LINE
  8
0
 62
7
 10
7.905000149999997
 20
9.186000049999995
 30
0
 11
7.905000149999997
 21
9.121000049999996
 31
0
  0
LINE
  8
0
 62
7
 10
7.905000149999997
 20
9.121000049999996
 30
0
 11
6.994999879999996
 21
9.121000049999996
 31
0
  0
LINE
  8
0
 62
7
 10
6.994999919999998
 20
9.382400049999998
 30
0
 11
7.905000149999997
 21
9.382400049999998
 31
0
  0
LINE
  8
0
 62
7
 10
6.994999919999998
 20
9.317400049999996
 30
0
 11
6.994999919999998
 21
9.382400049999998
 31
0
  0
LINE
  8
0
 62
7
 10
7.905000149999997
 20
9.382400049999998
 30
0
 11
7.905000149999997
 21
9.317400049999996
 31
0
  0
LINE
  8
0
 62
7
 10
7.905000149999997
 20
9.317400049999996
 30
0
 11
6.994999919999998
 21
9.317400049999996
 31
0
  0
LINE
  8
0
 62
7
 10
6.99499977
 20
9.578800039999997
 30
0
 11
7.905000149999997
 21
9.578800039999997
 31
0
  0
LINE
  8
0
 62
7
 10
6.99499977
 20
9.513800039999996
 30
0
 11
6.99499977
 21
9.578800039999997
 31
0
  0
LINE
  8
0
 62
7
 10
7.905000149999997
 20
9.578800039999997
 30
0
 11
7.905000149999997
 21
9.513800039999996
 31
0
  0
LINE
  8
0
 62
7
 10
7.905000149999997
 20
9.513800039999996
 30
0
 11
6.99499977
 21
9.513800039999996
 31
0
  0
LINE
  8
0
 62
7
 10
6.994999809999998
 20
9.775200029999997
 30
0
 11
7.904999999999998
 21
9.775200029999997
 31
0
  0
LINE
  8
0
 62
7
 10
6.994999809999998
 20
9.710200029999998
 30
0
 11
6.994999809999998
 21
9.775200029999997
 31
0
  0
LINE
  8
0
 62
7
 10
7.904999999999998
 20
9.775200029999997
 30
0
 11
7.904999999999998
 21
9.710200029999998
 31
0
  0
LINE
  8
0
 62
7
 10
7.904999999999998
 20
9.710200029999998
 30
0
 11
6.994999809999998
 21
9.710200029999998
 31
0
  0
LINE
  8
0
 62
7
 10
6.994999619999999
 20
9.971600029999998
 30
0
 11
7.904999999999998
 21
9.971600029999998
 31
0
  0
LINE
  8
0
 62
7
 10
6.994999619999999
 20
9.906600029999996
 30
0
 11
6.994999619999999
 21
9.971600029999998
 31
0
  0
LINE
  8
0
 62
7
 10
7.904999999999998
 20
9.971600029999998
 30
0
 11
7.904999999999998
 21
9.906600029999996
 31
0
  0
LINE
  8
0
 62
7
 10
7.904999999999998
 20
9.906600029999996
 30
0
 11
6.994999619999999
 21
9.906600029999996
 31
0
  0
LINE
  8
0
 62
7
 10
6.99499977
 20
10.16800002
 30
0
 11
7.904999999999998
 21
10.16800002
 31
0
  0
LINE
  8
0
 62
7
 10
6.99499977
 20
10.10300002
 30
0
 11
6.99499977
 21
10.16800002
 31
0
  0
LINE
  8
0
 62
7
 10
7.904999999999998
 20
10.16800002
 30
0
 11
7.904999999999998
 21
10.10300002
 31
0
  0
LINE
  8
0
 62
7
 10
7.904999999999998
 20
10.10300002
 30
0
 11
6.99499977
 21
10.10300002
 31
0
  0
LINE
  8
0
 62
7
 10
6.994999879999996
 20
10.36440002
 30
0
 11
7.904999839999997
 21
10.36440002
 31
0
  0
LINE
  8
0
 62
7
 10
6.994999879999996
 20
10.29940002
 30
0
 11
6.994999879999996
 21
10.36440002
 31
0
  0
LINE
  8
0
 62
7
 10
7.904999839999997
 20
10.36440002
 30
0
 11
7.904999839999997
 21
10.29940002
 31
0
  0
LINE
  8
0
 62
7
 10
7.904999839999997
 20
10.29940002
 30
0
 11
6.994999879999996
 21
10.29940002
 31
0
  0
LINE
  8
0
 62
7
 10
6.994999729999996
 20
10.56080001
 30
0
 11
7.904999839999997
 21
10.56080001
 31
0
  0
LINE
  8
0
 62
7
 10
7.904999839999997
 20
10.49580001
 30
0
 11
6.994999729999996
 21
10.49580001
 31
0
  0
LINE
  8
0
 62
7
 10
6.994999729999996
 20
10.49580001
 30
0
 11
6.994999729999996
 21
10.56080001
 31
0
  0
LINE
  8
0
 62
7
 10
7.904999839999997
 20
10.56080001
 30
0
 11
7.904999839999997
 21
10.49580001
 31
0
  0
LINE
  8
0
 62
7
 10
7.641474609999998
 20
10.6922
 30
0
 11
6.929665719999997
 21
10.6922
 31
0
  0
LINE
  8
0
 62
7
 10
6.929665719999997
 20
10.7572
 30
0
 11
7.641474609999998
 21
10.7572
 31
0
  0
LINE
  8
0
 62
7
 10
6.929665719999997
 20
10.6922
 30
0
 11
6.929665719999997
 21
10.7572
 31
0
  0
LINE
  8
0
 62
7
 10
7.641474609999998
 20
10.7572
 30
0
 11
7.641474609999998
 21
10.6922
 31
0
  0
LINE
  8
0
 62
7
 10
6.894999729999997
 20
10.9536
 30
0
 11
7.246063759999998
 21
10.9536
 31
0
  0
LINE
  8
0
 62
7
 10
7.246063759999998
 20
10.8886
 30
0
 11
6.894999729999997
 21
10.8886
 31
0
  0
LINE
  8
0
 62
7
 10
6.894999729999997
 20
10.8886
 30
0
 11
6.894999729999997
 21
10.9536
 31
0
  0
LINE
  8
0
 62
7
 10
7.246063759999998
 20
10.9536
 30
0
 11
7.246063759999998
 21
10.8886
 31
0
  0
LINE
  8
0
 62
7
 10
0.9500000000000018
 20
8.099999999999998
 30
0
 11
1.099999999999998
 21
8.099999999999998
 31
0
  0
LINE
  8
0
 62
7
 10
0.9500000000000018
 20
8.299999999999997
 30
0
 11
1.099999999999998
 21
8.299999999999997
 31
0
  0
LINE
  8
0
 62
7
 10
0.9500000000000018
 20
10.85
 30
0
 11
1.099999999999998
 21
10.85
 31
0
  0
LINE
  8
0
 62
7
 10
0.9500000000000018
 20
11.05
 30
0
 11
1.099999999999998
 21
11.05
 31
0
  0
LINE
  8
0
 62
7
 10
1.099999999999998
 20
7.949999999999998
 30
0
 11
1.099999999999998
 21
8.099999999999998
 31
0
  0
LINE
  8
0
 62
7
 10
1.099999999999998
 20
8.099999999999998
 30
0
 11
1.274999999999998
 21
8.099999999999998
 31
0
  0
LINE
  8
0
 62
7
 10
1.099999999999998
 20
8.299999999999997
 30
0
 11
1.099999999999998
 21
8.399999999999997
 31
0
  0
LINE
  8
0
 62
7
 10
1.099999999999998
 20
8.299999999999997
 30
0
 11
1.274999999999998
 21
8.299999999999997
 31
0
  0
LINE
  8
0
 62
7
 10
1.099999999999998
 20
10.85
 30
0
 11
1.274999999999998
 21
10.85
 31
0
  0
LINE
  8
0
 62
7
 10
1.099999999999998
 20
11.05
 30
0
 11
1.099999999999998
 21
11.15
 31
0
  0
LINE
  8
0
 62
7
 10
1.099999999999998
 20
11.05
 30
0
 11
1.274999999999998
 21
11.05
 31
0
  0
LINE
  8
0
 62
7
 10
1.274999999999998
 20
7.949999999999998
 30
0
 11
1.274999999999998
 21
8.099999999999998
 31
0
  0
LINE
  8
0
 62
7
 10
1.274999999999998
 20
8.099999999999998
 30
0
 11
4.284999999999997
 21
8.099999999999998
 31
0
  0
LINE
  8
0
 62
7
 10
1.274999999999998
 20
8.299999999999997
 30
0
 11
1.274999999999998
 21
8.399999999999997
 31
0
  0
LINE
  8
0
 62
7
 10
1.274999999999998
 20
8.299999999999997
 30
0
 11
4.284999999999997
 21
8.299999999999997
 31
0
  0
LINE
  8
0
 62
7
 10
1.274999999999998
 20
10.85
 30
0
 11
4.284999999999997
 21
10.85
 31
0
  0
LINE
  8
0
 62
7
 10
1.274999999999998
 20
11.05
 30
0
 11
1.274999999999998
 21
11.15
 31
0
  0
LINE
  8
0
 62
7
 10
1.274999999999998
 20
11.05
 30
0
 11
4.284999999999997
 21
11.05
 31
0
  0
LINE
  8
0
 62
7
 10
4.284999999999997
 20
7.949999999999998
 30
0
 11
4.284999999999997
 21
8.099999999999998
 31
0
  0
LINE
  8
0
 62
7
 10
4.284999999999997
 20
8.099999999999998
 30
0
 11
4.459999999999997
 21
8.099999999999998
 31
0
  0
LINE
  8
0
 62
7
 10
4.284999999999997
 20
8.299999999999997
 30
0
 11
4.284999999999997
 21
8.399999999999997
 31
0
  0
LINE
  8
0
 62
7
 10
4.284999999999997
 20
8.299999999999997
 30
0
 11
4.459999999999997
 21
8.299999999999997
 31
0
  0
LINE
  8
0
 62
7
 10
4.284999999999997
 20
10.85
 30
0
 11
4.459999999999997
 21
10.85
 31
0
  0
LINE
  8
0
 62
7
 10
4.284999999999997
 20
11.05
 30
0
 11
4.284999999999997
 21
11.15
 31
0
  0
LINE
  8
0
 62
7
 10
4.284999999999997
 20
11.05
 30
0
 11
4.459999999999997
 21
11.05
 31
0
  0
LINE
  8
0
 62
7
 10
4.459999999999997
 20
7.949999999999998
 30
0
 11
4.459999999999997
 21
8.099999999999998
 31
0
  0
LINE
  8
0
 62
7
 10
4.459999999999997
 20
8.099999999999998
 30
0
 11
4.609999999999998
 21
8.099999999999998
 31
0
  0
LINE
  8
0
 62
7
 10
4.459999999999997
 20
8.299999999999997
 30
0
 11
4.459999999999997
 21
8.399999999999997
 31
0
  0
LINE
  8
0
 62
7
 10
4.459999999999997
 20
8.299999999999997
 30
0
 11
4.609999999999998
 21
8.299999999999997
 31
0
  0
LINE
  8
0
 62
7
 10
4.459999999999997
 20
10.85
 30
0
 11
4.609999999999998
 21
10.85
 31
0
  0
LINE
  8
0
 62
7
 10
4.459999999999997
 20
11.05
 30
0
 11
4.459999999999997
 21
11.15
 31
0
  0
LINE
  8
0
 62
7
 10
4.459999999999997
 20
11.05
 30
0
 11
4.609999999999998
 21
11.05
 31
0
  0
LINE
  8
0
 62
7
  6
DASHDOT
 10
0.9500000000000018
 20
8.049999999999997
 30
0
 11
0.9500000000000018
 21
8.099999999999998
 31
0
  0
LINE
  8
0
 62
7
  6
DASHDOT
 10
0.9500000000000018
 20
10.8
 30
0
 11
0.9500000000000018
 21
10.85
 31
0
  0
LINE
  8
0
 62
7
  6
DASHDOT
 10
4.609999999999998
 20
8.049999999999997
 30
0
 11
4.609999999999998
 21
8.099999999999998
 31
0
  0
LINE
  8
0
 62
7
  6
DASHDOT
 10
4.609999999999998
 20
10.8
 30
0
 11
4.609999999999998
 21
10.85
 31
0
  0
LINE
  8
0
 62
7
  6
DASHDOT
 10
1.050000000000002
 20
11.2
 30
0
 11
1.099999999999998
 21
11.2
 31
0
  0
LINE
  8
0
 62
7
  6
DASHDOT
 10
1.050000000000002
 20
7.949999999999998
 30
0
 11
1.099999999999998
 21
7.949999999999998
 31
0
  0
LINE
  8
0
 62
7
  6
DASHDOT
 10
4.234999999999998
 20
11.2
 30
0
 11
4.284999999999997
 21
11.2
 31
0
  0
LINE
  8
0
 62
7
  6
DASHDOT
 10
4.234999999999998
 20
7.949999999999998
 30
0
 11
4.284999999999997
 21
7.949999999999998
 31
0
  0
LINE
  8
0
 62
7
 10
0.9500000000000018
 20
8.399999999999997
 30
0
 11
1.099999999999998
 21
8.399999999999997
 31
0
  0
LINE
  8
0
 62
7
 10
1.099999999999998
 20
8.399999999999997
 30
0
 11
1.099999999999998
 21
10.85
 31
0
  0
LINE
  8
0
 62
7
  6
DASHDOT
 10
0.9500000000000018
 20
8.399999999999997
 30
0
 11
0.9500000000000018
 21
8.449999999999998
 31
0
  0
LINE
  8
0
 62
7
 10
1.274999999999998
 20
8.399999999999997
 30
0
 11
4.284999999999997
 21
8.399999999999997
 31
0
  0
LINE
  8
0
 62
7
 10
1.274999999999998
 20
8.399999999999997
 30
0
 11
1.274999999999998
 21
10.85
 31
0
  0
LINE
  8
0
 62
7
 10
4.284999999999997
 20
8.399999999999997
 30
0
 11
4.284999999999997
 21
10.85
 31
0
  0
LINE
  8
0
 62
7
 10
4.459999999999997
 20
8.399999999999997
 30
0
 11
4.609999999999998
 21
8.399999999999997
 31
0
  0
LINE
  8
0
 62
7
 10
4.459999999999997
 20
8.399999999999997
 30
0
 11
4.459999999999997
 21
10.85
 31
0
  0
LINE
  8
0
 62
7
  6
DASHDOT
 10
4.609999999999998
 20
8.399999999999997
 30
0
 11
4.609999999999998
 21
8.449999999999998
 31
0
  0
LINE
  8
0
 62
7
 10
0.9500000000000018
 20
11.15
 30
0
 11
1.099999999999998
 21
11.15
 31
0
  0
LINE
  8
0
 62
7
 10
1.099999999999998
 20
11.15
 30
0
 11
1.099999999999998
 21
11.2
 31
0
  0
LINE
  8
0
 62
7
  6
DASHDOT
 10
0.9500000000000018
 20
11.15
 30
0
 11
0.9500000000000018
 21
11.2
 31
0
  0
LINE
  8
0
 62
7
 10
1.274999999999998
 20
11.15
 30
0
 11
4.284999999999997
 21
11.15
 31
0
  0
LINE
  8
0
 62
7
 10
1.274999999999998
 20
11.15
 30
0
 11
1.274999999999998
 21
11.2
 31
0
  0
LINE
  8
0
 62
7
 10
4.284999999999997
 20
11.15
 30
0
 11
4.284999999999997
 21
11.2
 31
0
  0
LINE
  8
0
 62
7
 10
4.459999999999997
 20
11.15
 30
0
 11
4.609999999999998
 21
11.15
 31
0
  0
LINE
  8
0
 62
7
 10
4.459999999999997
 20
11.15
 30
0
 11
4.459999999999997
 21
11.2
 31
0
  0
LINE
  8
0
 62
7
  6
DASHDOT
 10
4.609999999999998
 20
11.15
 30
0
 11
4.609999999999998
 21
11.2
 31
0
  0
LINE
  8
0
 62
7
  6
DASHDOT
 10
4.609999999999998
 20
8.099999999999998
 30
0
 11
4.609999999999998
 21
8.299999999999997
 31
0
  0
LINE
  8
0
 62
7
  6
DASHDOT
 10
4.609999999999998
 20
8.299999999999997
 30
0
 11
4.609999999999998
 21
8.399999999999997
 31
0
  0
LINE
  8
0
 62
7
  6
DASHDOT
 10
4.284999999999997
 20
7.949999999999998
 30
0
 11
4.459999999999997
 21
7.949999999999998
 31
0
  0
LINE
  8
0
 62
7
  6
DASHDOT
 10
4.459999999999997
 20
7.949999999999998
 30
0
 11
4.509999999999997
 21
7.949999999999998
 31
0
  0
LINE
  8
0
 62
7
  6
DASHDOT
 10
0.9500000000000018
 20
8.099999999999998
 30
0
 11
0.9500000000000018
 21
8.299999999999997
 31
0
  0
LINE
  8
0
 62
7
  6
DASHDOT
 10
0.9500000000000018
 20
8.299999999999997
 30
0
 11
0.9500000000000018
 21
8.399999999999997
 31
0
  0
LINE
  8
0
 62
7
  6
DASHDOT
 10
1.099999999999998
 20
7.949999999999998
 30
0
 11
1.274999999999998
 21
7.949999999999998
 31
0
  0
LINE
  8
0
 62
7
  6
DASHDOT
 10
1.274999999999998
 20
7.949999999999998
 30
0
 11
1.324999999999998
 21
7.949999999999998
 31
0
  0
LINE
  8
0
 62
7
  6
DASHDOT
 10
0.9500000000000018
 20
10.85
 30
0
 11
0.9500000000000018
 21
11.05
 31
0
  0
LINE
  8
0
 62
7
  6
DASHDOT
 10
0.9500000000000018
 20
11.05
 30
0
 11
0.9500000000000018
 21
11.15
 31
0
  0
LINE
  8
0
 62
7
  6
DASHDOT
 10
1.099999999999998
 20
11.2
 30
0
 11
1.274999999999998
 21
11.2
 31
0
  0
LINE
  8
0
 62
7
  6
DASHDOT
 10
1.274999999999998
 20
11.2
 30
0
 11
1.324999999999998
 21
11.2
 31
0
  0
LINE
  8
0
 62
7
  6
DASHDOT
 10
4.609999999999998
 20
10.85
 30
0
 11
4.609999999999998
 21
11.05
 31
0
  0
LINE
  8
0
 62
7
  6
DASHDOT
 10
4.609999999999998
 20
11.05
 30
0
 11
4.609999999999998
 21
11.15
 31
0
  0
LINE
  8
0
 62
7
  6
DASHDOT
 10
4.284999999999997
 20
11.2
 30
0
 11
4.459999999999997
 21
11.2
 31
0
  0
LINE
  8
0
 62
7
  6
DASHDOT
 10
4.459999999999997
 20
11.2
 30
0
 11
4.509999999999997
 21
11.2
 31
0
  0
LINE
  8
0
 62
7
 10
8.199999999999998
 20
8.099999999999998
 30
0
 11
8.199999999999998
 21
7.949999999999998
 31
0
  0
LINE
  8
0
 62
7
 10
7.959999999999997
 20
11.05
 30
0
 11
7.959999999999997
 21
11.2
 31
0
  0
LINE
  8
0
 62
7
 10
7.959999999999997
 20
11.05
 30
0
 11
8.199999999999998
 21
11.05
 31
0
  0
LINE
  8
0
 62
7
 10
8.199999999999998
 20
11.2
 30
0
 11
8.199999999999998
 21
11.05
 31
0
  0
LINE
  8
0
 62
7
 10
7.959999999999997
 20
10.85
 30
0
 11
7.959999999999997
 21
11.05
 31
0
  0
LINE
  8
0
 62
7
 10
7.959999999999997
 20
10.85
 30
0
 11
8.199999999999998
 21
10.85
 31
0
  0
LINE
  8
0
 62
7
 10
8.199999999999998
 20
11.05
 30
0
 11
8.199999999999998
 21
10.85
 31
0
  0
LINE
  8
0
 62
7
 10
7.959999999999997
 20
8.299999999999997
 30
0
 11
7.959999999999997
 21
10.85
 31
0
  0
LINE
  8
0
 62
7
 10
7.959999999999997
 20
8.299999999999997
 30
0
 11
8.199999999999998
 21
8.299999999999997
 31
0
  0
LINE
  8
0
 62
7
 10
8.199999999999998
 20
10.85
 30
0
 11
8.199999999999998
 21
8.299999999999997
 31
0
  0
LINE
  8
0
 62
7
 10
7.959999999999997
 20
8.099999999999998
 30
0
 11
7.959999999999997
 21
8.299999999999997
 31
0
  0
LINE
  8
0
 62
7
 10
7.959999999999997
 20
8.099999999999998
 30
0
 11
8.199999999999998
 21
8.099999999999998
 31
0
  0
LINE
  8
0
 62
7
 10
8.199999999999998
 20
8.299999999999997
 30
0
 11
8.199999999999998
 21
8.099999999999998
 31
0
  0
LINE
  8
0
 62
7
 10
7.959999999999997
 20
7.949999999999998
 30
0
 11
7.959999999999997
 21
8.099999999999998
 31
0
  0
LINE
  8
0
 62
7
 10
6.859999999999996
 20
10.85
 30
0
 11
6.859999999999996
 21
11.05
 31
0
  0
LINE
  8
0
 62
7
 10
6.559999999999995
 20
10.85
 30
0
 11
6.859999999999996
 21
10.85
 31
0
  0
LINE
  8
0
 62
7
 10
6.559999999999995
 20
11.05
 30
0
 11
6.859999999999996
 21
11.05
 31
0
  0
LINE
  8
0
 62
7
 10
6.559999999999995
 20
8.299999999999997
 30
0
 11
6.859999999999996
 21
8.299999999999997
 31
0
  0
LINE
  8
0
 62
7
 10
6.859999999999996
 20
8.099999999999998
 30
0
 11
6.859999999999996
 21
8.299999999999997
 31
0
  0
LINE
  8
0
 62
7
 10
6.559999999999995
 20
8.099999999999998
 30
0
 11
6.859999999999996
 21
8.099999999999998
 31
0
  0
LINE
  8
0
 62
7
  6
DASHDOT
 10
8.199999999999998
 20
11.2
 30
0
 11
8.249999999999998
 21
11.2
 31
0
  0
LINE
  8
0
 62
7
  6
DASHDOT
 10
6.559999999999995
 20
11.15
 30
0
 11
6.559999999999995
 21
11.2
 31
0
  0
LINE
  8
0
 62
7
  6
DASHDOT
 10
6.559999999999995
 20
8.099999999999998
 30
0
 11
6.559999999999995
 21
8.049999999999997
 31
0
  0
LINE
  8
0
 62
7
  6
DASHDOT
 10
8.199999999999998
 20
7.949999999999998
 30
0
 11
8.249999999999998
 21
7.949999999999998
 31
0
  0
LINE
  8
0
 62
7
 10
6.559999999999995
 20
8.399999999999997
 30
0
 11
6.859999999999996
 21
8.399999999999997
 31
0
  0
LINE
  8
0
 62
7
  6
DASHDOT
 10
6.559999999999995
 20
8.449999999999998
 30
0
 11
6.559999999999995
 21
8.399999999999997
 31
0
  0
LINE
  8
0
 62
7
 10
6.559999999999995
 20
11.15
 30
0
 11
6.859999999999996
 21
11.15
 31
0
  0
LINE
  8
0
 62
7
  6
DASHDOT
 10
6.559999999999995
 20
11.05
 30
0
 11
6.559999999999995
 21
11.15
 31
0
  0
LINE
  8
0
 62
7
  6
DASHDOT
 10
6.559999999999995
 20
8.399999999999997
 30
0
 11
6.559999999999995
 21
8.299999999999997
 31
0
  0
LINE
  8
0
 62
7
  6
DASHDOT
 10
6.559999999999995
 20
8.299999999999997
 30
0
 11
6.559999999999995
 21
8.099999999999998
 31
0
  0
LINE
  8
0
 62
7
  6
DASHDOT
 10
7.959999999999997
 20
7.949999999999998
 30
0
 11
8.199999999999998
 21
7.949999999999998
 31
0
  0
LINE
  8
0
 62
7
  6
DASHDOT
 10
7.909999999999997
 20
7.949999999999998
 30
0
 11
7.959999999999997
 21
7.949999999999998
 31
0
  0
LINE
  8
0
 62
7
  6
DASHDOT
 10
7.909999999999997
 20
11.2
 30
0
 11
7.959999999999997
 21
11.2
 31
0
  0
LINE
  8
0
 62
7
  6
DASHDOT
 10
7.959999999999997
 20
11.2
 30
0
 11
8.199999999999998
 21
11.2
 31
0
  0
LINE
  8
0
 62
7
  6
DASHDOT
 10
6.559999999999995
 20
10.8
 30
0
 11
6.559999999999995
 21
10.85
 31
0
  0
LINE
  8
0
 62
7
  6
DASHDOT
 10
6.559999999999995
 20
10.85
 30
0
 11
6.559999999999995
 21
11.05
 31
0
  0
LINE
  8
0
 62
7
  6
DASHED
 10
6.859999999999996
 20
11.05
 30
0
 11
7.959999999999997
 21
11.05
 31
0
  0
LINE
  8
0
 62
7
  6
DASHED
 10
6.859999999999996
 20
10.85
 30
0
 11
7.959999999999997
 21
10.85
 31
0
  0
LINE
  8
0
 62
7
  6
DASHED
 10
6.859999999999996
 20
8.299999999999997
 30
0
 11
7.959999999999997
 21
8.299999999999997
 31
0
  0
LINE
  8
0
 62
7
  6
DASHED
 10
6.859999999999996
 20
8.099999999999998
 30
0
 11
7.959999999999997
 21
8.099999999999998
 31
0
  0
LINE
  8
0
 62
7
 10
4.459999999999997
 20
4.969999999999998
 30
0
 11
4.609999999999998
 21
4.969999999999998
 31
0
  0
LINE
  8
0
 62
7
 10
4.459999999999997
 20
5.119999999999997
 30
0
 11
4.459999999999997
 21
4.969999999999998
 31
0
  0
LINE
  8
0
 62
7
 10
4.284999999999997
 20
4.969999999999998
 30
0
 11
4.284999999999997
 21
5.119999999999997
 31
0
  0
LINE
  8
0
 62
7
 10
1.274999999999998
 20
4.969999999999998
 30
0
 11
4.284999999999997
 21
4.969999999999998
 31
0
  0
LINE
  8
0
 62
7
 10
1.274999999999998
 20
5.119999999999997
 30
0
 11
1.274999999999998
 21
4.969999999999998
 31
0
  0
LINE
  8
0
 62
7
 10
1.099999999999998
 20
4.969999999999998
 30
0
 11
1.099999999999998
 21
5.119999999999997
 31
0
  0
LINE
  8
0
 62
7
 10
0.9350000000000019
 20
4.969999999999998
 30
0
 11
1.099999999999998
 21
4.969999999999998
 31
0
  0
LINE
  8
0
 62
7
 10
0.9350000000000019
 20
4.730000000000001
 30
0
 11
4.609999999999998
 21
4.730000000000001
 31
0
  0
LINE
  8
0
 62
7
 10
0.9350000000000019
 20
4.690000000000001
 30
0
 11
4.609999999999998
 21
4.690000000000001
 31
0
  0
LINE
  8
0
 62
7
 10
4.459999999999997
 20
4.450000000000001
 30
0
 11
4.609999999999998
 21
4.450000000000001
 31
0
  0
LINE
  8
0
 62
7
 10
4.284999999999997
 20
3.35
 30
0
 11
4.284999999999997
 21
3.25
 31
0
  0
LINE
  8
0
 62
7
 10
4.284999999999997
 20
3.25
 30
0
 11
4.459999999999997
 21
3.25
 31
0
  0
LINE
  8
0
 62
7
 10
4.459999999999997
 20
3.25
 30
0
 11
4.459999999999997
 21
4.450000000000001
 31
0
  0
LINE
  8
0
 62
7
 10
1.274999999999998
 20
4.450000000000001
 30
0
 11
4.284999999999997
 21
4.450000000000001
 31
0
  0
LINE
  8
0
 62
7
 10
1.274999999999998
 20
3.4
 30
0
 11
1.274999999999998
 21
4.450000000000001
 31
0
  0
LINE
  8
0
 62
7
 10
1.099999999999998
 20
4.450000000000001
 30
0
 11
1.099999999999998
 21
3.35
 31
0
  0
LINE
  8
0
 62
7
 10
0.9350000000000019
 20
4.450000000000001
 30
0
 11
1.099999999999998
 21
4.450000000000001
 31
0
  0
LINE
  8
0
 62
7
 10
1.099999999999998
 20
3.35
 30
0
 11
1.274999999999998
 21
3.35
 31
0
  0
LINE
  8
0
 62
7
 10
4.284999999999997
 20
3.4
 30
0
 11
1.274999999999998
 21
3.4
 31
0
  0
LINE
  8
0
 62
7
 10
4.284999999999997
 20
4.450000000000001
 30
0
 11
4.284999999999997
 21
3.4
 31
0
  0
LINE
  8
0
 62
7
 10
1.274999999999998
 20
3.35
 30
0
 11
1.274999999999998
 21
3.4
 31
0
  0
LINE
  8
0
 62
7
  6
DASHDOT
 10
4.284999999999997
 20
3.35
 30
0
 11
1.274999999999998
 21
3.35
 31
0
  0
LINE
  8
0
 62
7
 10
4.284999999999997
 20
3.4
 30
0
 11
4.284999999999997
 21
3.35
 31
0
  0
LINE
  8
0
 62
7
  6
DASHDOT
 10
4.459999999999997
 20
5.119999999999997
 30
0
 11
4.509999999999997
 21
5.119999999999997
 31
0
  0
LINE
  8
0
 62
7
  6
DASHDOT
 10
1.274999999999998
 20
5.119999999999997
 30
0
 11
1.324999999999998
 21
5.119999999999997
 31
0
  0
LINE
  8
0
 62
7
  6
DASHDOT
 10
4.609999999999998
 20
4.969999999999998
 30
0
 11
4.609999999999998
 21
5.019999999999998
 31
0
  0
LINE
  8
0
 62
7
  6
DASHDOT
 10
0.9350000000000019
 20
4.969999999999998
 30
0
 11
0.9350000000000019
 21
5.019999999999998
 31
0
  0
LINE
  8
0
 62
7
  6
DASHDOT
 10
0.9350000000000019
 20
4.730000000000001
 30
0
 11
0.9350000000000019
 21
4.969999999999998
 31
0
  0
LINE
  8
0
 62
7
  6
DASHDOT
 10
0.9350000000000019
 20
4.400000000000001
 30
0
 11
0.9350000000000019
 21
4.450000000000001
 31
0
  0
LINE
  8
0
 62
7
  6
DASHDOT
 10
4.284999999999997
 20
5.119999999999997
 30
0
 11
4.459999999999997
 21
5.119999999999997
 31
0
  0
LINE
  8
0
 62
7
  6
DASHDOT
 10
4.234999999999998
 20
5.119999999999997
 30
0
 11
4.284999999999997
 21
5.119999999999997
 31
0
  0
LINE
  8
0
 62
7
  6
DASHDOT
 10
4.609999999999998
 20
4.730000000000001
 30
0
 11
4.609999999999998
 21
4.969999999999998
 31
0
  0
LINE
  8
0
 62
7
  6
DASHDOT
 10
4.609999999999998
 20
4.400000000000001
 30
0
 11
4.609999999999998
 21
4.450000000000001
 31
0
  0
LINE
  8
0
 62
7
  6
DASHDOT
 10
0.9350000000000019
 20
4.690000000000001
 30
0
 11
0.9350000000000019
 21
4.730000000000001
 31
0
  0
LINE
  8
0
 62
7
  6
DASHDOT
 10
4.609999999999998
 20
4.690000000000001
 30
0
 11
4.609999999999998
 21
4.730000000000001
 31
0
  0
LINE
  8
0
 62
7
  6
DASHDOT
 10
0.9350000000000019
 20
4.450000000000001
 30
0
 11
0.9350000000000019
 21
4.690000000000001
 31
0
  0
LINE
  8
0
 62
7
  6
DASHDOT
 10
4.609999999999998
 20
4.450000000000001
 30
0
 11
4.609999999999998
 21
4.690000000000001
 31
0
  0
LINE
  8
0
 62
7
  6
DASHDOT
 10
1.050000000000002
 20
5.119999999999997
 30
0
 11
1.099999999999998
 21
5.119999999999997
 31
0
  0
LINE
  8
0
 62
7
  6
DASHDOT
 10
1.099999999999998
 20
5.119999999999997
 30
0
 11
1.274999999999998
 21
5.119999999999997
 31
0
  0
LINE
  8
0
 62
7
 10
1.97997165318231
 20
4.11739779935275
 30
0
 11
1.97997165318231
 21
4.23739779935275
 31
0
  0
LINE
  8
0
 62
7
 10
2.05557165318231
 20
4.23739779935275
 30
0
 11
2.00157165318231
 21
4.177397799352749
 31
0
  0
LINE
  8
0
 62
7
 10
2.00157165318231
 20
4.177397799352749
 30
0
 11
2.05557165318231
 21
4.11739779935275
 31
0
  0
LINE
  8
0
 62
7
 10
2.00157165318231
 20
4.177397799352749
 30
0
 11
1.97997165318231
 21
4.15339779935275
 31
0
  0
LINE
  8
0
 62
7
 10
2.16357165318231
 20
4.23739779935275
 30
0
 11
2.08797165318231
 21
4.23739779935275
 31
0
  0
LINE
  8
0
 62
7
 10
2.08797165318231
 20
4.23739779935275
 30
0
 11
2.08797165318231
 21
4.177397799352749
 31
0
  0
LINE
  8
0
 62
7
 10
2.08797165318231
 20
4.11739779935275
 30
0
 11
2.16357165318231
 21
4.11739779935275
 31
0
  0
LINE
  8
0
 62
7
 10
2.15277165318231
 20
4.177397799352749
 30
0
 11
2.08797165318231
 21
4.177397799352749
 31
0
  0
LINE
  8
0
 62
7
 10
2.08797165318231
 20
4.177397799352749
 30
0
 11
2.08797165318231
 21
4.11739779935275
 31
0
  0
LINE
  8
0
 62
7
 10
2.19597165318231
 20
4.11739779935275
 30
0
 11
2.19597165318231
 21
4.23739779935275
 31
0
  0
LINE
  8
0
 62
7
 10
2.19597165318231
 20
4.23739779935275
 30
0
 11
2.27157165318231
 21
4.11739779935275
 31
0
  0
LINE
  8
0
 62
7
 10
2.27157165318231
 20
4.11739779935275
 30
0
 11
2.27157165318231
 21
4.23739779935275
 31
0
  0
LINE
  8
0
 62
7
 10
2.30397165318231
 20
4.11739779935275
 30
0
 11
2.30397165318231
 21
4.23739779935275
 31
0
  0
LINE
  8
0
 62
7
 10
2.30397165318231
 20
4.23739779935275
 30
0
 11
2.37957165318231
 21
4.11739779935275
 31
0
  0
LINE
  8
0
 62
7
 10
2.37957165318231
 20
4.11739779935275
 30
0
 11
2.37957165318231
 21
4.23739779935275
 31
0
  0
LINE
  8
0
 62
7
 10
2.48757165318231
 20
4.20139779935275
 30
0
 11
2.48487165318231
 21
4.21339779935275
 31
0
  0
LINE
  8
0
 62
7
 10
2.48487165318231
 20
4.21339779935275
 30
0
 11
2.47947165318231
 21
4.22239779935275
 31
0
  0
LINE
  8
0
 62
7
 10
2.47947165318231
 20
4.22239779935275
 30
0
 11
2.47407165318231
 21
4.22839779935275
 31
0
  0
LINE
  8
0
 62
7
 10
2.47407165318231
 20
4.22839779935275
 30
0
 11
2.46597165318231
 21
4.23439779935275
 31
0
  0
LINE
  8
0
 62
7
 10
2.46597165318231
 20
4.23439779935275
 30
0
 11
2.45787165318231
 21
4.23739779935275
 31
0
  0
LINE
  8
0
 62
7
 10
2.45787165318231
 20
4.23739779935275
 30
0
 11
2.441671653182311
 21
4.23739779935275
 31
0
  0
LINE
  8
0
 62
7
 10
2.441671653182311
 20
4.23739779935275
 30
0
 11
2.43357165318231
 21
4.23439779935275
 31
0
  0
LINE
  8
0
 62
7
 10
2.43357165318231
 20
4.23439779935275
 30
0
 11
2.42547165318231
 21
4.22839779935275
 31
0
  0
LINE
  8
0
 62
7
 10
2.42547165318231
 20
4.22839779935275
 30
0
 11
2.42007165318231
 21
4.22239779935275
 31
0
  0
LINE
  8
0
 62
7
 10
2.42007165318231
 20
4.22239779935275
 30
0
 11
2.41467165318231
 21
4.21339779935275
 31
0
  0
LINE
  8
0
 62
7
 10
2.41467165318231
 20
4.21339779935275
 30
0
 11
2.41197165318231
 21
4.20139779935275
 31
0
  0
LINE
  8
0
 62
7
 10
2.41197165318231
 20
4.20139779935275
 30
0
 11
2.41197165318231
 21
4.15339779935275
 31
0
  0
LINE
  8
0
 62
7
 10
2.41197165318231
 20
4.15339779935275
 30
0
 11
2.41467165318231
 21
4.14139779935275
 31
0
  0
LINE
  8
0
 62
7
 10
2.41467165318231
 20
4.14139779935275
 30
0
 11
2.42007165318231
 21
4.13239779935275
 31
0
  0
LINE
  8
0
 62
7
 10
2.42007165318231
 20
4.13239779935275
 30
0
 11
2.42547165318231
 21
4.12639779935275
 31
0
  0
LINE
  8
0
 62
7
 10
2.42547165318231
 20
4.12639779935275
 30
0
 11
2.43357165318231
 21
4.120397799352751
 31
0
  0
LINE
  8
0
 62
7
 10
2.43357165318231
 20
4.120397799352751
 30
0
 11
2.441671653182311
 21
4.11739779935275
 31
0
  0
LINE
  8
0
 62
7
 10
2.441671653182311
 20
4.11739779935275
 30
0
 11
2.45787165318231
 21
4.11739779935275
 31
0
  0
LINE
  8
0
 62
7
 10
2.45787165318231
 20
4.11739779935275
 30
0
 11
2.46597165318231
 21
4.120397799352751
 31
0
  0
LINE
  8
0
 62
7
 10
2.46597165318231
 20
4.120397799352751
 30
0
 11
2.47407165318231
 21
4.12639779935275
 31
0
  0
LINE
  8
0
 62
7
 10
2.47407165318231
 20
4.12639779935275
 30
0
 11
2.47947165318231
 21
4.13239779935275
 31
0
  0
LINE
  8
0
 62
7
 10
2.47947165318231
 20
4.13239779935275
 30
0
 11
2.48487165318231
 21
4.14139779935275
 31
0
  0
LINE
  8
0
 62
7
 10
2.48487165318231
 20
4.14139779935275
 30
0
 11
2.48757165318231
 21
4.15339779935275
 31
0
  0
LINE
  8
0
 62
7
 10
2.48757165318231
 20
4.15339779935275
 30
0
 11
2.48757165318231
 21
4.177397799352749
 31
0
  0
LINE
  8
0
 62
7
 10
2.48757165318231
 20
4.177397799352749
 30
0
 11
2.45517165318231
 21
4.177397799352749
 31
0
  0
LINE
  8
0
 62
7
 10
2.56587165318231
 20
4.23739779935275
 30
0
 11
2.54967165318231
 21
4.23739779935275
 31
0
  0
LINE
  8
0
 62
7
 10
2.54967165318231
 20
4.23739779935275
 30
0
 11
2.54157165318231
 21
4.23439779935275
 31
0
  0
LINE
  8
0
 62
7
 10
2.54157165318231
 20
4.23439779935275
 30
0
 11
2.53347165318231
 21
4.22839779935275
 31
0
  0
LINE
  8
0
 62
7
 10
2.53347165318231
 20
4.22839779935275
 30
0
 11
2.52807165318231
 21
4.22239779935275
 31
0
  0
LINE
  8
0
 62
7
 10
2.52807165318231
 20
4.22239779935275
 30
0
 11
2.52267165318231
 21
4.21339779935275
 31
0
  0
LINE
  8
0
 62
7
 10
2.52267165318231
 20
4.21339779935275
 30
0
 11
2.51997165318231
 21
4.20139779935275
 31
0
  0
LINE
  8
0
 62
7
 10
2.51997165318231
 20
4.20139779935275
 30
0
 11
2.51997165318231
 21
4.15339779935275
 31
0
  0
LINE
  8
0
 62
7
 10
2.51997165318231
 20
4.15339779935275
 30
0
 11
2.52267165318231
 21
4.14139779935275
 31
0
  0
LINE
  8
0
 62
7
 10
2.52267165318231
 20
4.14139779935275
 30
0
 11
2.52807165318231
 21
4.13239779935275
 31
0
  0
LINE
  8
0
 62
7
 10
2.52807165318231
 20
4.13239779935275
 30
0
 11
2.53347165318231
 21
4.12639779935275
 31
0
  0
LINE
  8
0
 62
7
 10
2.53347165318231
 20
4.12639779935275
 30
0
 11
2.54157165318231
 21
4.120397799352751
 31
0
  0
LINE
  8
0
 62
7
 10
2.54157165318231
 20
4.120397799352751
 30
0
 11
2.54967165318231
 21
4.11739779935275
 31
0
  0
LINE
  8
0
 62
7
 10
2.54967165318231
 20
4.11739779935275
 30
0
 11
2.56587165318231
 21
4.11739779935275
 31
0
  0
LINE
  8
0
 62
7
 10
2.56587165318231
 20
4.11739779935275
 30
0
 11
2.57397165318231
 21
4.120397799352751
 31
0
  0
LINE
  8
0
 62
7
 10
2.57397165318231
 20
4.120397799352751
 30
0
 11
2.58207165318231
 21
4.12639779935275
 31
0
  0
LINE
  8
0
 62
7
 10
2.58207165318231
 20
4.12639779935275
 30
0
 11
2.58747165318231
 21
4.13239779935275
 31
0
  0
LINE
  8
0
 62
7
 10
2.58747165318231
 20
4.13239779935275
 30
0
 11
2.592871653182311
 21
4.14139779935275
 31
0
  0
LINE
  8
0
 62
7
 10
2.592871653182311
 20
4.14139779935275
 30
0
 11
2.59557165318231
 21
4.15339779935275
 31
0
  0
LINE
  8
0
 62
7
 10
2.59557165318231
 20
4.15339779935275
 30
0
 11
2.59557165318231
 21
4.20139779935275
 31
0
  0
LINE
  8
0
 62
7
 10
2.59557165318231
 20
4.20139779935275
 30
0
 11
2.592871653182311
 21
4.21339779935275
 31
0
  0
LINE
  8
0
 62
7
 10
2.592871653182311
 20
4.21339779935275
 30
0
 11
2.58747165318231
 21
4.22239779935275
 31
0
  0
LINE
  8
0
 62
7
 10
2.58747165318231
 20
4.22239779935275
 30
0
 11
2.58207165318231
 21
4.22839779935275
 31
0
  0
LINE
  8
0
 62
7
 10
2.58207165318231
 20
4.22839779935275
 30
0
 11
2.57397165318231
 21
4.23439779935275
 31
0
  0
LINE
  8
0
 62
7
 10
2.57397165318231
 20
4.23439779935275
 30
0
 11
2.56587165318231
 21
4.23739779935275
 31
0
  0
LINE
  8
0
 62
7
 10
2.617171653182311
 20
4.23739779935275
 30
0
 11
2.654971653182312
 21
4.23739779935275
 31
0
  0
LINE
  8
0
 62
7
 10
2.654971653182312
 20
4.23739779935275
 30
0
 11
2.654971653182312
 21
4.11739779935275
 31
0
  0
LINE
  8
0
 62
7
 10
2.654971653182312
 20
4.23739779935275
 30
0
 11
2.69277165318231
 21
4.23739779935275
 31
0
  0
LINE
  8
0
 62
7
 10
2.72517165318231
 20
4.23739779935275
 30
0
 11
2.762971653182312
 21
4.23739779935275
 31
0
  0
LINE
  8
0
 62
7
 10
2.762971653182312
 20
4.23739779935275
 30
0
 11
2.762971653182312
 21
4.11739779935275
 31
0
  0
LINE
  8
0
 62
7
 10
2.762971653182312
 20
4.23739779935275
 30
0
 11
2.80077165318231
 21
4.23739779935275
 31
0
  0
LINE
  8
0
 62
7
 10
2.91957165318231
 20
4.15939779935275
 30
0
 11
2.97357165318231
 21
4.15939779935275
 31
0
  0
LINE
  8
0
 62
7
 10
3.08157165318231
 20
4.23739779935275
 30
0
 11
3.119371653182311
 21
4.23739779935275
 31
0
  0
LINE
  8
0
 62
7
 10
3.119371653182311
 20
4.23739779935275
 30
0
 11
3.119371653182311
 21
4.11739779935275
 31
0
  0
LINE
  8
0
 62
7
 10
3.119371653182311
 20
4.23739779935275
 30
0
 11
3.15717165318231
 21
4.23739779935275
 31
0
  0
LINE
  8
0
 62
7
 10
3.18957165318231
 20
4.11739779935275
 30
0
 11
3.18957165318231
 21
4.23739779935275
 31
0
  0
LINE
  8
0
 62
7
 10
3.18957165318231
 20
4.23739779935275
 30
0
 11
3.24087165318231
 21
4.23739779935275
 31
0
  0
LINE
  8
0
 62
7
 10
3.24087165318231
 20
4.23739779935275
 30
0
 11
3.251671653182311
 21
4.23439779935275
 31
0
  0
LINE
  8
0
 62
7
 10
3.251671653182311
 20
4.23439779935275
 30
0
 11
3.259771653182311
 21
4.22839779935275
 31
0
  0
LINE
  8
0
 62
7
 10
3.259771653182311
 20
4.22839779935275
 30
0
 11
3.262471653182311
 21
4.22239779935275
 31
0
  0
LINE
  8
0
 62
7
 10
3.262471653182311
 20
4.22239779935275
 30
0
 11
3.26517165318231
 21
4.21339779935275
 31
0
  0
LINE
  8
0
 62
7
 10
3.26517165318231
 20
4.21339779935275
 30
0
 11
3.26517165318231
 21
4.20139779935275
 31
0
  0
LINE
  8
0
 62
7
 10
3.26517165318231
 20
4.20139779935275
 30
0
 11
3.262471653182311
 21
4.19239779935275
 31
0
  0
LINE
  8
0
 62
7
 10
3.262471653182311
 20
4.19239779935275
 30
0
 11
3.259771653182311
 21
4.18639779935275
 31
0
  0
LINE
  8
0
 62
7
 10
3.259771653182311
 20
4.18639779935275
 30
0
 11
3.251671653182311
 21
4.18039779935275
 31
0
  0
LINE
  8
0
 62
7
 10
3.251671653182311
 20
4.18039779935275
 30
0
 11
3.24087165318231
 21
4.177397799352749
 31
0
  0
LINE
  8
0
 62
7
 10
3.24087165318231
 20
4.177397799352749
 30
0
 11
3.23277165318231
 21
4.177397799352749
 31
0
  0
LINE
  8
0
 62
7
 10
3.23277165318231
 20
4.177397799352749
 30
0
 11
3.26517165318231
 21
4.11739779935275
 31
0
  0
LINE
  8
0
 62
7
 10
3.23277165318231
 20
4.177397799352749
 30
0
 11
3.18957165318231
 21
4.177397799352749
 31
0
  0
LINE
  8
0
 62
7
 10
3.362371653182311
 20
4.23739779935275
 30
0
 11
3.286771653182312
 21
4.23739779935275
 31
0
  0
LINE
  8
0
 62
7
 10
3.286771653182312
 20
4.23739779935275
 30
0
 11
3.286771653182312
 21
4.177397799352749
 31
0
  0
LINE
  8
0
 62
7
 10
3.286771653182312
 20
4.11739779935275
 30
0
 11
3.362371653182311
 21
4.11739779935275
 31
0
  0
LINE
  8
0
 62
7
 10
3.351571653182311
 20
4.177397799352749
 30
0
 11
3.286771653182312
 21
4.177397799352749
 31
0
  0
LINE
  8
0
 62
7
 10
3.286771653182312
 20
4.177397799352749
 30
0
 11
3.286771653182312
 21
4.11739779935275
 31
0
  0
LINE
  8
0
 62
7
 10
3.39477165318231
 20
4.11739779935275
 30
0
 11
3.39477165318231
 21
4.177397799352749
 31
0
  0
LINE
  8
0
 62
7
 10
3.39477165318231
 20
4.23739779935275
 30
0
 11
3.446071653182312
 21
4.23739779935275
 31
0
  0
LINE
  8
0
 62
7
 10
3.446071653182312
 20
4.23739779935275
 30
0
 11
3.456871653182311
 21
4.23439779935275
 31
0
  0
LINE
  8
0
 62
7
 10
3.456871653182311
 20
4.23439779935275
 30
0
 11
3.464971653182311
 21
4.22839779935275
 31
0
  0
LINE
  8
0
 62
7
 10
3.464971653182311
 20
4.22839779935275
 30
0
 11
3.46767165318231
 21
4.22239779935275
 31
0
  0
LINE
  8
0
 62
7
 10
3.46767165318231
 20
4.22239779935275
 30
0
 11
3.470371653182311
 21
4.21339779935275
 31
0
  0
LINE
  8
0
 62
7
 10
3.470371653182311
 20
4.21339779935275
 30
0
 11
3.470371653182311
 21
4.20139779935275
 31
0
  0
LINE
  8
0
 62
7
 10
3.470371653182311
 20
4.20139779935275
 30
0
 11
3.46767165318231
 21
4.19239779935275
 31
0
  0
LINE
  8
0
 62
7
 10
3.46767165318231
 20
4.19239779935275
 30
0
 11
3.464971653182311
 21
4.18639779935275
 31
0
  0
LINE
  8
0
 62
7
 10
3.464971653182311
 20
4.18639779935275
 30
0
 11
3.456871653182311
 21
4.18039779935275
 31
0
  0
LINE
  8
0
 62
7
 10
3.456871653182311
 20
4.18039779935275
 30
0
 11
3.446071653182312
 21
4.177397799352749
 31
0
  0
LINE
  8
0
 62
7
 10
3.446071653182312
 20
4.177397799352749
 30
0
 11
3.39477165318231
 21
4.177397799352749
 31
0
  0
LINE
  8
0
 62
7
 10
3.39477165318231
 20
4.177397799352749
 30
0
 11
3.39477165318231
 21
4.23739779935275
 31
0
  0
LINE
  8
0
 62
7
 10
3.491971653182311
 20
4.11739779935275
 30
0
 11
3.491971653182311
 21
4.177397799352749
 31
0
  0
LINE
  8
0
 62
7
 10
3.491971653182311
 20
4.23739779935275
 30
0
 11
3.543271653182311
 21
4.23739779935275
 31
0
  0
LINE
  8
0
 62
7
 10
3.543271653182311
 20
4.23739779935275
 30
0
 11
3.554071653182311
 21
4.23439779935275
 31
0
  0
LINE
  8
0
 62
7
 10
3.554071653182311
 20
4.23439779935275
 30
0
 11
3.562171653182311
 21
4.22839779935275
 31
0
  0
LINE
  8
0
 62
7
 10
3.562171653182311
 20
4.22839779935275
 30
0
 11
3.564871653182311
 21
4.22239779935275
 31
0
  0
LINE
  8
0
 62
7
 10
3.564871653182311
 20
4.22239779935275
 30
0
 11
3.56757165318231
 21
4.21339779935275
 31
0
  0
LINE
  8
0
 62
7
 10
3.56757165318231
 20
4.21339779935275
 30
0
 11
3.56757165318231
 21
4.20139779935275
 31
0
  0
LINE
  8
0
 62
7
 10
3.56757165318231
 20
4.20139779935275
 30
0
 11
3.564871653182311
 21
4.19239779935275
 31
0
  0
LINE
  8
0
 62
7
 10
3.564871653182311
 20
4.19239779935275
 30
0
 11
3.562171653182311
 21
4.18639779935275
 31
0
  0
LINE
  8
0
 62
7
 10
3.562171653182311
 20
4.18639779935275
 30
0
 11
3.554071653182311
 21
4.18039779935275
 31
0
  0
LINE
  8
0
 62
7
 10
3.554071653182311
 20
4.18039779935275
 30
0
 11
3.543271653182311
 21
4.177397799352749
 31
0
  0
LINE
  8
0
 62
7
 10
3.543271653182311
 20
4.177397799352749
 30
0
 11
3.491971653182311
 21
4.177397799352749
 31
0
  0
LINE
  8
0
 62
7
 10
3.491971653182311
 20
4.177397799352749
 30
0
 11
3.491971653182311
 21
4.23739779935275
 31
0
  0
LINE
  8
0
 62
7
 10
3.664771653182311
 20
4.23739779935275
 30
0
 11
3.589171653182312
 21
4.23739779935275
 31
0
  0
LINE
  8
0
 62
7
 10
3.589171653182312
 20
4.23739779935275
 30
0
 11
3.589171653182312
 21
4.177397799352749
 31
0
  0
LINE
  8
0
 62
7
 10
3.589171653182312
 20
4.11739779935275
 30
0
 11
3.664771653182311
 21
4.11739779935275
 31
0
  0
LINE
  8
0
 62
7
 10
3.653971653182311
 20
4.177397799352749
 30
0
 11
3.589171653182312
 21
4.177397799352749
 31
0
  0
LINE
  8
0
 62
7
 10
3.589171653182312
 20
4.177397799352749
 30
0
 11
3.589171653182312
 21
4.11739779935275
 31
0
  0
LINE
  8
0
 62
7
 10
0.625
 20
2.890000000000001
 30
0
 11
0.625
 21
3.010000000000001
 31
0
  0
LINE
  8
0
 62
7
 10
0.7006000000000001
 20
3.010000000000001
 30
0
 11
0.6466000000000002
 21
2.950000000000001
 31
0
  0
LINE
  8
0
 62
7
 10
0.6466000000000002
 20
2.950000000000001
 30
0
 11
0.7006000000000001
 21
2.890000000000001
 31
0
  0
LINE
  8
0
 62
7
 10
0.6466000000000002
 20
2.950000000000001
 30
0
 11
0.625
 21
2.926000000000001
 31
0
  0
LINE
  8
0
 62
7
 10
0.7330000000000001
 20
2.992000000000001
 30
0
 11
0.7384000000000002
 21
3.001000000000001
 31
0
  0
LINE
  8
0
 62
7
 10
0.7384000000000002
 20
3.001000000000001
 30
0
 11
0.7465000000000001
 21
3.007000000000001
 31
0
  0
LINE
  8
0
 62
7
 10
0.7465000000000001
 20
3.007000000000001
 30
0
 11
0.7573000000000001
 21
3.010000000000001
 31
0
  0
LINE
  8
0
 62
7
 10
0.7573000000000001
 20
3.010000000000001
 30
0
 11
0.7735000000000002
 21
3.010000000000001
 31
0
  0
LINE
  8
0
 62
7
 10
0.7735000000000002
 20
3.010000000000001
 30
0
 11
0.7843000000000001
 21
3.007000000000001
 31
0
  0
LINE
  8
0
 62
7
 10
0.7843000000000001
 20
3.007000000000001
 30
0
 11
0.7924000000000002
 21
3.001000000000001
 31
0
  0
LINE
  8
0
 62
7
 10
0.7924000000000002
 20
3.001000000000001
 30
0
 11
0.7978000000000001
 21
2.992000000000001
 31
0
  0
LINE
  8
0
 62
7
 10
0.7978000000000001
 20
2.992000000000001
 30
0
 11
0.7978000000000001
 21
2.980000000000001
 31
0
  0
LINE
  8
0
 62
7
 10
0.7978000000000001
 20
2.980000000000001
 30
0
 11
0.7924000000000002
 21
2.968000000000002
 31
0
  0
LINE
  8
0
 62
7
 10
0.7924000000000002
 20
2.968000000000002
 30
0
 11
0.7330000000000001
 21
2.890000000000001
 31
0
  0
LINE
  8
0
 62
7
 10
0.7330000000000001
 20
2.890000000000001
 30
0
 11
0.7978000000000001
 21
2.890000000000001
 31
0
  0
LINE
  8
0
 62
7
 10
0.8302000000000002
 20
3.010000000000001
 30
0
 11
0.8680000000000002
 21
2.890000000000001
 31
0
  0
LINE
  8
0
 62
7
 10
0.8680000000000002
 20
2.890000000000001
 30
0
 11
0.9058000000000002
 21
3.010000000000001
 31
0
  0
LINE
  8
0
 62
7
 10
0.9382000000000001
 20
2.992000000000001
 30
0
 11
0.9436000000000002
 21
3.001000000000001
 31
0
  0
LINE
  8
0
 62
7
 10
0.9436000000000002
 20
3.001000000000001
 30
0
 11
0.9517000000000002
 21
3.007000000000001
 31
0
  0
LINE
  8
0
 62
7
 10
0.9517000000000002
 20
3.007000000000001
 30
0
 11
0.9625
 21
3.010000000000001
 31
0
  0
LINE
  8
0
 62
7
 10
0.9625
 20
3.010000000000001
 30
0
 11
0.9787000000000001
 21
3.010000000000001
 31
0
  0
LINE
  8
0
 62
7
 10
0.9787000000000001
 20
3.010000000000001
 30
0
 11
0.9868000000000001
 21
3.007000000000001
 31
0
  0
LINE
  8
0
 62
7
 10
0.9868000000000001
 20
3.007000000000001
 30
0
 11
0.9949000000000002
 21
3.001000000000001
 31
0
  0
LINE
  8
0
 62
7
 10
0.9949000000000002
 20
3.001000000000001
 30
0
 11
1.0003
 21
2.992000000000001
 31
0
  0
LINE
  8
0
 62
7
 10
1.0003
 20
2.992000000000001
 30
0
 11
1.003
 21
2.980000000000001
 31
0
  0
LINE
  8
0
 62
7
 10
1.003
 20
2.980000000000001
 30
0
 11
1.003
 21
2.971000000000001
 31
0
  0
LINE
  8
0
 62
7
 10
1.003
 20
2.971000000000001
 30
0
 11
1.0003
 21
2.962000000000001
 31
0
  0
LINE
  8
0
 62
7
 10
1.0003
 20
2.962000000000001
 30
0
 11
0.9949000000000002
 21
2.956000000000001
 31
0
  0
LINE
  8
0
 62
7
 10
0.9949000000000002
 20
2.956000000000001
 30
0
 11
0.9814000000000003
 21
2.950000000000001
 31
0
  0
LINE
  8
0
 62
7
 10
0.9625
 20
2.950000000000001
 30
0
 11
0.9814000000000003
 21
2.950000000000001
 31
0
  0
LINE
  8
0
 62
7
 10
0.9814000000000003
 20
2.950000000000001
 30
0
 11
0.9949000000000002
 21
2.944000000000001
 31
0
  0
LINE
  8
0
 62
7
 10
0.9949000000000002
 20
2.944000000000001
 30
0
 11
1.0003
 21
2.938000000000001
 31
0
  0
LINE
  8
0
 62
7
 10
1.0003
 20
2.938000000000001
 30
0
 11
1.003
 21
2.929000000000001
 31
0
  0
LINE
  8
0
 62
7
 10
1.003
 20
2.929000000000001
 30
0
 11
1.003
 21
2.920000000000001
 31
0
  0
LINE
  8
0
 62
7
 10
1.003
 20
2.920000000000001
 30
0
 11
1.0003
 21
2.908000000000001
 31
0
  0
LINE
  8
0
 62
7
 10
1.0003
 20
2.908000000000001
 30
0
 11
0.9949000000000002
 21
2.899000000000001
 31
0
  0
LINE
  8
0
 62
7
 10
0.9949000000000002
 20
2.899000000000001
 30
0
 11
0.9868000000000001
 21
2.893000000000002
 31
0
  0
LINE
  8
0
 62
7
 10
0.9868000000000001
 20
2.893000000000002
 30
0
 11
0.9787000000000001
 21
2.890000000000001
 31
0
  0
LINE
  8
0
 62
7
 10
0.9787000000000001
 20
2.890000000000001
 30
0
 11
0.9625
 21
2.890000000000001
 31
0
  0
LINE
  8
0
 62
7
 10
0.9625
 20
2.890000000000001
 30
0
 11
0.9517000000000002
 21
2.893000000000002
 31
0
  0
LINE
  8
0
 62
7
 10
0.9517000000000002
 20
2.893000000000002
 30
0
 11
0.9436000000000002
 21
2.899000000000001
 31
0
  0
LINE
  8
0
 62
7
 10
0.9436000000000002
 20
2.899000000000001
 30
0
 11
0.9382000000000001
 21
2.908000000000001
 31
0
  0
LINE
  8
0
 62
7
 10
1.0354
 20
2.980000000000001
 30
0
 11
1.0381
 21
2.992000000000001
 31
0
  0
LINE
  8
0
 62
7
 10
1.0381
 20
2.992000000000001
 30
0
 11
1.0435
 21
3.001000000000001
 31
0
  0
LINE
  8
0
 62
7
 10
1.0435
 20
3.001000000000001
 30
0
 11
1.0516
 21
3.007000000000001
 31
0
  0
LINE
  8
0
 62
7
 10
1.0516
 20
3.007000000000001
 30
0
 11
1.0597
 21
3.010000000000001
 31
0
  0
LINE
  8
0
 62
7
 10
1.0597
 20
3.010000000000001
 30
0
 11
1.0759
 21
3.010000000000001
 31
0
  0
LINE
  8
0
 62
7
 10
1.0759
 20
3.010000000000001
 30
0
 11
1.084
 21
3.007000000000001
 31
0
  0
LINE
  8
0
 62
7
 10
1.084
 20
3.007000000000001
 30
0
 11
1.0921
 21
3.001000000000001
 31
0
  0
LINE
  8
0
 62
7
 10
1.0921
 20
3.001000000000001
 30
0
 11
1.0975
 21
2.992000000000001
 31
0
  0
LINE
  8
0
 62
7
 10
1.0975
 20
2.992000000000001
 30
0
 11
1.1002
 21
2.980000000000001
 31
0
  0
LINE
  8
0
 62
7
 10
1.1002
 20
2.980000000000001
 30
0
 11
1.1002
 21
2.920000000000001
 31
0
  0
LINE
  8
0
 62
7
 10
1.1002
 20
2.920000000000001
 30
0
 11
1.0975
 21
2.908000000000001
 31
0
  0
LINE
  8
0
 62
7
 10
1.0975
 20
2.908000000000001
 30
0
 11
1.0921
 21
2.899000000000001
 31
0
  0
LINE
  8
0
 62
7
 10
1.0921
 20
2.899000000000001
 30
0
 11
1.084
 21
2.893000000000002
 31
0
  0
LINE
  8
0
 62
7
 10
1.084
 20
2.893000000000002
 30
0
 11
1.0759
 21
2.890000000000001
 31
0
  0
LINE
  8
0
 62
7
 10
1.0759
 20
2.890000000000001
 30
0
 11
1.0597
 21
2.890000000000001
 31
0
  0
LINE
  8
0
 62
7
 10
1.0597
 20
2.890000000000001
 30
0
 11
1.0516
 21
2.893000000000002
 31
0
  0
LINE
  8
0
 62
7
 10
1.0516
 20
2.893000000000002
 30
0
 11
1.0435
 21
2.899000000000001
 31
0
  0
LINE
  8
0
 62
7
 10
1.0435
 20
2.899000000000001
 30
0
 11
1.0381
 21
2.908000000000001
 31
0
  0
LINE
  8
0
 62
7
 10
1.0381
 20
2.908000000000001
 30
0
 11
1.0354
 21
2.920000000000001
 31
0
  0
LINE
  8
0
 62
7
 10
1.0354
 20
2.920000000000001
 30
0
 11
1.0354
 21
2.980000000000001
 31
0
  0
LINE
  8
0
 62
7
 10
1.1326
 20
2.974000000000001
 30
0
 11
1.165
 21
3.010000000000001
 31
0
  0
LINE
  8
0
 62
7
 10
1.165
 20
3.010000000000001
 30
0
 11
1.165
 21
2.890000000000001
 31
0
  0
LINE
  8
0
 62
7
 10
1.2622
 20
2.890000000000001
 30
0
 11
1.1974
 21
2.890000000000001
 31
0
  0
LINE
  8
0
 62
7
 10
1.1974
 20
2.890000000000001
 30
0
 11
1.1974
 21
3.010000000000001
 31
0
  0
LINE
  8
0
 62
7
 10
1.2946
 20
2.992000000000001
 30
0
 11
1.3
 21
3.001000000000001
 31
0
  0
LINE
  8
0
 62
7
 10
1.3
 20
3.001000000000001
 30
0
 11
1.3081
 21
3.007000000000001
 31
0
  0
LINE
  8
0
 62
7
 10
1.3081
 20
3.007000000000001
 30
0
 11
1.3189
 21
3.010000000000001
 31
0
  0
LINE
  8
0
 62
7
 10
1.3189
 20
3.010000000000001
 30
0
 11
1.3351
 21
3.010000000000001
 31
0
  0
LINE
  8
0
 62
7
 10
1.3351
 20
3.010000000000001
 30
0
 11
1.3432
 21
3.007000000000001
 31
0
  0
LINE
  8
0
 62
7
 10
1.3432
 20
3.007000000000001
 30
0
 11
1.3513
 21
3.001000000000001
 31
0
  0
LINE
  8
0
 62
7
 10
1.3513
 20
3.001000000000001
 30
0
 11
1.3567
 21
2.992000000000001
 31
0
  0
LINE
  8
0
 62
7
 10
1.3567
 20
2.992000000000001
 30
0
 11
1.3594
 21
2.980000000000001
 31
0
  0
LINE
  8
0
 62
7
 10
1.3594
 20
2.980000000000001
 30
0
 11
1.3594
 21
2.971000000000001
 31
0
  0
LINE
  8
0
 62
7
 10
1.3594
 20
2.971000000000001
 30
0
 11
1.3567
 21
2.962000000000001
 31
0
  0
LINE
  8
0
 62
7
 10
1.3567
 20
2.962000000000001
 30
0
 11
1.3513
 21
2.956000000000001
 31
0
  0
LINE
  8
0
 62
7
 10
1.3513
 20
2.956000000000001
 30
0
 11
1.3378
 21
2.950000000000001
 31
0
  0
LINE
  8
0
 62
7
 10
1.3189
 20
2.950000000000001
 30
0
 11
1.3378
 21
2.950000000000001
 31
0
  0
LINE
  8
0
 62
7
 10
1.3378
 20
2.950000000000001
 30
0
 11
1.3513
 21
2.944000000000001
 31
0
  0
LINE
  8
0
 62
7
 10
1.3513
 20
2.944000000000001
 30
0
 11
1.3567
 21
2.938000000000001
 31
0
  0
LINE
  8
0
 62
7
 10
1.3567
 20
2.938000000000001
 30
0
 11
1.3594
 21
2.929000000000001
 31
0
  0
LINE
  8
0
 62
7
 10
1.3594
 20
2.929000000000001
 30
0
 11
1.3594
 21
2.920000000000001
 31
0
  0
LINE
  8
0
 62
7
 10
1.3594
 20
2.920000000000001
 30
0
 11
1.3567
 21
2.908000000000001
 31
0
  0
LINE
  8
0
 62
7
 10
1.3567
 20
2.908000000000001
 30
0
 11
1.3513
 21
2.899000000000001
 31
0
  0
LINE
  8
0
 62
7
 10
1.3513
 20
2.899000000000001
 30
0
 11
1.3432
 21
2.893000000000002
 31
0
  0
LINE
  8
0
 62
7
 10
1.3432
 20
2.893000000000002
 30
0
 11
1.3351
 21
2.890000000000001
 31
0
  0
LINE
  8
0
 62
7
 10
1.3351
 20
2.890000000000001
 30
0
 11
1.3189
 21
2.890000000000001
 31
0
  0
LINE
  8
0
 62
7
 10
1.3189
 20
2.890000000000001
 30
0
 11
1.3081
 21
2.893000000000002
 31
0
  0
LINE
  8
0
 62
7
 10
1.3081
 20
2.893000000000002
 30
0
 11
1.3
 21
2.899000000000001
 31
0
  0
LINE
  8
0
 62
7
 10
1.3
 20
2.899000000000001
 30
0
 11
1.2946
 21
2.908000000000001
 31
0
  0
LINE
  8
0
 62
7
 10
3.125
 20
2.890000000000001
 30
0
 11
3.125
 21
2.990000000000001
 31
0
  0
LINE
  8
0
 62
7
 10
3.125
 20
2.990000000000001
 30
0
 11
3.188
 21
2.890000000000001
 31
0
  0
LINE
  8
0
 62
7
 10
3.188
 20
2.890000000000001
 30
0
 11
3.188
 21
2.990000000000001
 31
0
  0
LINE
  8
0
 62
7
 10
3.269
 20
2.890000000000001
 30
0
 11
3.215
 21
2.890000000000001
 31
0
  0
LINE
  8
0
 62
7
 10
3.215
 20
2.890000000000001
 30
0
 11
3.215
 21
2.990000000000001
 31
0
  0
LINE
  8
0
 62
7
 10
3.296
 20
2.940000000000001
 30
0
 11
3.332
 21
2.940000000000001
 31
0
  0
LINE
  8
0
 62
7
 10
3.332
 20
2.940000000000001
 30
0
 11
3.3365
 21
2.940000000000001
 31
0
  0
LINE
  8
0
 62
7
 10
3.3365
 20
2.940000000000001
 30
0
 11
3.3455
 21
2.935000000000001
 31
0
  0
LINE
  8
0
 62
7
 10
3.3455
 20
2.935000000000001
 30
0
 11
3.35
 21
2.930000000000001
 31
0
  0
LINE
  8
0
 62
7
 10
3.35
 20
2.930000000000001
 30
0
 11
3.3545
 21
2.920000000000001
 31
0
  0
LINE
  8
0
 62
7
 10
3.3545
 20
2.920000000000001
 30
0
 11
3.3545
 21
2.910000000000001
 31
0
  0
LINE
  8
0
 62
7
 10
3.3545
 20
2.910000000000001
 30
0
 11
3.35
 21
2.900000000000001
 31
0
  0
LINE
  8
0
 62
7
 10
3.35
 20
2.900000000000001
 30
0
 11
3.3455
 21
2.895000000000001
 31
0
  0
LINE
  8
0
 62
7
 10
3.3455
 20
2.895000000000001
 30
0
 11
3.3365
 21
2.890000000000001
 31
0
  0
LINE
  8
0
 62
7
 10
3.3365
 20
2.890000000000001
 30
0
 11
3.296
 21
2.890000000000001
 31
0
  0
LINE
  8
0
 62
7
 10
3.296
 20
2.890000000000001
 30
0
 11
3.296
 21
2.940000000000001
 31
0
  0
LINE
  8
0
 62
7
 10
3.296
 20
2.990000000000001
 30
0
 11
3.32975
 21
2.990000000000001
 31
0
  0
LINE
  8
0
 62
7
 10
3.32975
 20
2.990000000000001
 30
0
 11
3.341000000000001
 21
2.987500000000001
 31
0
  0
LINE
  8
0
 62
7
 10
3.341000000000001
 20
2.987500000000001
 30
0
 11
3.34775
 21
2.980000000000001
 31
0
  0
LINE
  8
0
 62
7
 10
3.34775
 20
2.980000000000001
 30
0
 11
3.35
 21
2.970000000000001
 31
0
  0
LINE
  8
0
 62
7
 10
3.35
 20
2.970000000000001
 30
0
 11
3.35
 21
2.960000000000001
 31
0
  0
LINE
  8
0
 62
7
 10
3.35
 20
2.960000000000001
 30
0
 11
3.3455
 21
2.950000000000001
 31
0
  0
LINE
  8
0
 62
7
 10
3.3455
 20
2.950000000000001
 30
0
 11
3.338750000000001
 21
2.942500000000001
 31
0
  0
LINE
  8
0
 62
7
 10
3.338750000000001
 20
2.942500000000001
 30
0
 11
3.332
 21
2.940000000000001
 31
0
  0
LINE
  8
0
 62
7
 10
3.296
 20
2.940000000000001
 30
0
 11
3.296
 21
2.990000000000001
 31
0
  0
LINE
  8
0
 62
7
 10
3.49625
 20
2.942500000000001
 30
0
 11
3.4895
 21
2.952500000000001
 31
0
  0
LINE
  8
0
 62
7
 10
3.4895
 20
2.952500000000001
 30
0
 11
3.48275
 21
2.957500000000001
 31
0
  0
LINE
  8
0
 62
7
 10
3.48275
 20
2.957500000000001
 30
0
 11
3.476
 21
2.960000000000001
 31
0
  0
LINE
  8
0
 62
7
 10
3.476
 20
2.960000000000001
 30
0
 11
3.467000000000001
 21
2.960000000000001
 31
0
  0
LINE
  8
0
 62
7
 10
3.467000000000001
 20
2.960000000000001
 30
0
 11
3.46025
 21
2.957500000000001
 31
0
  0
LINE
  8
0
 62
7
 10
3.46025
 20
2.957500000000001
 30
0
 11
3.4535
 21
2.952500000000001
 31
0
  0
LINE
  8
0
 62
7
 10
3.4535
 20
2.952500000000001
 30
0
 11
3.44675
 21
2.942500000000001
 31
0
  0
LINE
  8
0
 62
7
 10
3.44675
 20
2.942500000000001
 30
0
 11
3.4445
 21
2.935000000000001
 31
0
  0
LINE
  8
0
 62
7
 10
3.4445
 20
2.935000000000001
 30
0
 11
3.4445
 21
2.915000000000001
 31
0
  0
LINE
  8
0
 62
7
 10
3.4445
 20
2.915000000000001
 30
0
 11
3.44675
 21
2.907500000000001
 31
0
  0
LINE
  8
0
 62
7
 10
3.44675
 20
2.907500000000001
 30
0
 11
3.4535
 21
2.897500000000001
 31
0
  0
LINE
  8
0
 62
7
 10
3.4535
 20
2.897500000000001
 30
0
 11
3.46025
 21
2.892500000000001
 31
0
  0
LINE
  8
0
 62
7
 10
3.46025
 20
2.892500000000001
 30
0
 11
3.467000000000001
 21
2.890000000000001
 31
0
  0
LINE
  8
0
 62
7
 10
3.467000000000001
 20
2.890000000000001
 30
0
 11
3.476
 21
2.890000000000001
 31
0
  0
LINE
  8
0
 62
7
 10
3.476
 20
2.890000000000001
 30
0
 11
3.48275
 21
2.892500000000001
 31
0
  0
LINE
  8
0
 62
7
 10
3.48275
 20
2.892500000000001
 30
0
 11
3.4895
 21
2.897500000000001
 31
0
  0
LINE
  8
0
 62
7
 10
3.4895
 20
2.897500000000001
 30
0
 11
3.49625
 21
2.907500000000001
 31
0
  0
LINE
  8
0
 62
7
 10
3.56825
 20
2.935000000000001
 30
0
 11
3.566000000000001
 21
2.942500000000001
 31
0
  0
LINE
  8
0
 62
7
 10
3.566000000000001
 20
2.942500000000001
 30
0
 11
3.55925
 21
2.952500000000001
 31
0
  0
LINE
  8
0
 62
7
 10
3.55925
 20
2.952500000000001
 30
0
 11
3.5525
 21
2.957500000000001
 31
0
  0
LINE
  8
0
 62
7
 10
3.5525
 20
2.957500000000001
 30
0
 11
3.54575
 21
2.960000000000001
 31
0
  0
LINE
  8
0
 62
7
 10
3.54575
 20
2.960000000000001
 30
0
 11
3.53675
 21
2.960000000000001
 31
0
  0
LINE
  8
0
 62
7
 10
3.53675
 20
2.960000000000001
 30
0
 11
3.530000000000001
 21
2.957500000000001
 31
0
  0
LINE
  8
0
 62
7
 10
3.530000000000001
 20
2.957500000000001
 30
0
 11
3.52325
 21
2.952500000000001
 31
0
  0
LINE
  8
0
 62
7
 10
3.52325
 20
2.952500000000001
 30
0
 11
3.5165
 21
2.942500000000001
 31
0
  0
LINE
  8
0
 62
7
 10
3.5165
 20
2.942500000000001
 30
0
 11
3.51425
 21
2.935000000000001
 31
0
  0
LINE
  8
0
 62
7
 10
3.51425
 20
2.935000000000001
 30
0
 11
3.51425
 21
2.915000000000001
 31
0
  0
LINE
  8
0
 62
7
 10
3.51425
 20
2.915000000000001
 30
0
 11
3.5165
 21
2.907500000000001
 31
0
  0
LINE
  8
0
 62
7
 10
3.5165
 20
2.907500000000001
 30
0
 11
3.52325
 21
2.897500000000001
 31
0
  0
LINE
  8
0
 62
7
 10
3.52325
 20
2.897500000000001
 30
0
 11
3.530000000000001
 21
2.892500000000001
 31
0
  0
LINE
  8
0
 62
7
 10
3.530000000000001
 20
2.892500000000001
 30
0
 11
3.53675
 21
2.890000000000001
 31
0
  0
LINE
  8
0
 62
7
 10
3.53675
 20
2.890000000000001
 30
0
 11
3.54575
 21
2.890000000000001
 31
0
  0
LINE
  8
0
 62
7
 10
3.54575
 20
2.890000000000001
 30
0
 11
3.5525
 21
2.892500000000001
 31
0
  0
LINE
  8
0
 62
7
 10
3.5525
 20
2.892500000000001
 30
0
 11
3.55925
 21
2.897500000000001
 31
0
  0
LINE
  8
0
 62
7
 10
3.55925
 20
2.897500000000001
 30
0
 11
3.566000000000001
 21
2.907500000000001
 31
0
  0
LINE
  8
0
 62
7
 10
3.566000000000001
 20
2.907500000000001
 30
0
 11
3.56825
 21
2.915000000000001
 31
0
  0
LINE
  8
0
 62
7
 10
3.56825
 20
2.960000000000001
 30
0
 11
3.56825
 21
2.935000000000001
 31
0
  0
LINE
  8
0
 62
7
 10
3.56825
 20
2.892500000000001
 30
0
 11
3.5705
 21
2.890000000000001
 31
0
  0
LINE
  8
0
 62
7
 10
3.5705
 20
2.890000000000001
 30
0
 11
3.57275
 21
2.890000000000001
 31
0
  0
LINE
  8
0
 62
7
 10
3.56825
 20
2.915000000000001
 30
0
 11
3.56825
 21
2.892500000000001
 31
0
  0
LINE
  8
0
 62
7
 10
3.56825
 20
2.935000000000001
 30
0
 11
3.56825
 21
2.915000000000001
 31
0
  0
LINE
  8
0
 62
7
 10
3.59075
 20
2.890000000000001
 30
0
 11
3.59075
 21
2.892500000000001
 31
0
  0
LINE
  8
0
 62
7
 10
3.59075
 20
2.892500000000001
 30
0
 11
3.593
 21
2.892500000000001
 31
0
  0
LINE
  8
0
 62
7
 10
3.593
 20
2.892500000000001
 30
0
 11
3.593
 21
2.890000000000001
 31
0
  0
LINE
  8
0
 62
7
 10
3.593
 20
2.890000000000001
 30
0
 11
3.59075
 21
2.890000000000001
 31
0
  0
LINE
  8
0
 62
7
 10
3.716750000000001
 20
2.990000000000001
 30
0
 11
3.72575
 21
2.990000000000001
 31
0
  0
LINE
  8
0
 62
7
 10
3.72575
 20
2.990000000000001
 30
0
 11
3.7325
 21
2.987500000000001
 31
0
  0
LINE
  8
0
 62
7
 10
3.7325
 20
2.987500000000001
 30
0
 11
3.737
 21
2.982500000000001
 31
0
  0
LINE
  8
0
 62
7
 10
3.737
 20
2.982500000000001
 30
0
 11
3.7415
 21
2.975000000000001
 31
0
  0
LINE
  8
0
 62
7
 10
3.7415
 20
2.975000000000001
 30
0
 11
3.7415
 21
2.965000000000001
 31
0
  0
LINE
  8
0
 62
7
 10
3.7415
 20
2.965000000000001
 30
0
 11
3.73925
 21
2.960000000000001
 31
0
  0
LINE
  8
0
 62
7
 10
3.73925
 20
2.960000000000001
 30
0
 11
3.7325
 21
2.952500000000001
 31
0
  0
LINE
  8
0
 62
7
 10
3.7325
 20
2.952500000000001
 30
0
 11
3.72575
 21
2.950000000000001
 31
0
  0
LINE
  8
0
 62
7
 10
3.72575
 20
2.950000000000001
 30
0
 11
3.716750000000001
 21
2.950000000000001
 31
0
  0
LINE
  8
0
 62
7
 10
3.716750000000001
 20
2.950000000000001
 30
0
 11
3.71
 21
2.952500000000001
 31
0
  0
LINE
  8
0
 62
7
 10
3.71
 20
2.952500000000001
 30
0
 11
3.70325
 21
2.960000000000001
 31
0
  0
LINE
  8
0
 62
7
 10
3.70325
 20
2.960000000000001
 30
0
 11
3.701
 21
2.965000000000001
 31
0
  0
LINE
  8
0
 62
7
 10
3.701
 20
2.965000000000001
 30
0
 11
3.701
 21
2.975000000000001
 31
0
  0
LINE
  8
0
 62
7
 10
3.701
 20
2.975000000000001
 30
0
 11
3.7055
 21
2.982500000000001
 31
0
  0
LINE
  8
0
 62
7
 10
3.7055
 20
2.982500000000001
 30
0
 11
3.71
 21
2.987500000000001
 31
0
  0
LINE
  8
0
 62
7
 10
3.71
 20
2.987500000000001
 30
0
 11
3.716750000000001
 21
2.990000000000001
 31
0
  0
LINE
  8
0
 62
7
 10
3.716750000000001
 20
2.950000000000001
 30
0
 11
3.7055
 21
2.945000000000001
 31
0
  0
LINE
  8
0
 62
7
 10
3.7055
 20
2.945000000000001
 30
0
 11
3.69875
 21
2.937500000000001
 31
0
  0
LINE
  8
0
 62
7
 10
3.69875
 20
2.937500000000001
 30
0
 11
3.69425
 21
2.927500000000001
 31
0
  0
LINE
  8
0
 62
7
 10
3.69425
 20
2.927500000000001
 30
0
 11
3.69425
 21
2.912500000000001
 31
0
  0
LINE
  8
0
 62
7
 10
3.69425
 20
2.912500000000001
 30
0
 11
3.69875
 21
2.902500000000001
 31
0
  0
LINE
  8
0
 62
7
 10
3.69875
 20
2.902500000000001
 30
0
 11
3.7055
 21
2.895000000000001
 31
0
  0
LINE
  8
0
 62
7
 10
3.7055
 20
2.895000000000001
 30
0
 11
3.714500000000001
 21
2.890000000000001
 31
0
  0
LINE
  8
0
 62
7
 10
3.714500000000001
 20
2.890000000000001
 30
0
 11
3.728
 21
2.890000000000001
 31
0
  0
LINE
  8
0
 62
7
 10
3.728
 20
2.890000000000001
 30
0
 11
3.737
 21
2.895000000000001
 31
0
  0
LINE
  8
0
 62
7
 10
3.737
 20
2.895000000000001
 30
0
 11
3.74375
 21
2.902500000000001
 31
0
  0
LINE
  8
0
 62
7
 10
3.74375
 20
2.902500000000001
 30
0
 11
3.748250000000001
 21
2.912500000000001
 31
0
  0
LINE
  8
0
 62
7
 10
3.748250000000001
 20
2.912500000000001
 30
0
 11
3.748250000000001
 21
2.927500000000001
 31
0
  0
LINE
  8
0
 62
7
 10
3.748250000000001
 20
2.927500000000001
 30
0
 11
3.74375
 21
2.937500000000001
 31
0
  0
LINE
  8
0
 62
7
 10
3.74375
 20
2.937500000000001
 30
0
 11
3.737
 21
2.945000000000001
 31
0
  0
LINE
  8
0
 62
7
 10
3.737
 20
2.945000000000001
 30
0
 11
3.72575
 21
2.950000000000001
 31
0
  0
LINE
  8
0
 62
7
 10
3.83375
 20
2.990000000000001
 30
0
 11
3.78425
 21
2.990000000000001
 31
0
  0
LINE
  8
0
 62
7
 10
3.78425
 20
2.990000000000001
 30
0
 11
3.78425
 21
2.940000000000001
 31
0
  0
LINE
  8
0
 62
7
 10
3.78425
 20
2.940000000000001
 30
0
 11
3.78875
 21
2.947500000000001
 31
0
  0
LINE
  8
0
 62
7
 10
3.78875
 20
2.947500000000001
 30
0
 11
3.7955
 21
2.952500000000001
 31
0
  0
LINE
  8
0
 62
7
 10
3.7955
 20
2.952500000000001
 30
0
 11
3.8045
 21
2.955000000000001
 31
0
  0
LINE
  8
0
 62
7
 10
3.8045
 20
2.955000000000001
 30
0
 11
3.818
 21
2.955000000000001
 31
0
  0
LINE
  8
0
 62
7
 10
3.818
 20
2.955000000000001
 30
0
 11
3.82475
 21
2.952500000000001
 31
0
  0
LINE
  8
0
 62
7
 10
3.82475
 20
2.952500000000001
 30
0
 11
3.8315
 21
2.947500000000001
 31
0
  0
LINE
  8
0
 62
7
 10
3.8315
 20
2.947500000000001
 30
0
 11
3.836
 21
2.940000000000001
 31
0
  0
LINE
  8
0
 62
7
 10
3.836
 20
2.940000000000001
 30
0
 11
3.83825
 21
2.930000000000001
 31
0
  0
LINE
  8
0
 62
7
 10
3.83825
 20
2.930000000000001
 30
0
 11
3.83825
 21
2.915000000000001
 31
0
  0
LINE
  8
0
 62
7
 10
3.83825
 20
2.915000000000001
 30
0
 11
3.836
 21
2.905000000000001
 31
0
  0
LINE
  8
0
 62
7
 10
3.836
 20
2.905000000000001
 30
0
 11
3.8315
 21
2.897500000000001
 31
0
  0
LINE
  8
0
 62
7
 10
3.8315
 20
2.897500000000001
 30
0
 11
3.82475
 21
2.892500000000001
 31
0
  0
LINE
  8
0
 62
7
 10
3.82475
 20
2.892500000000001
 30
0
 11
3.818
 21
2.890000000000001
 31
0
  0
LINE
  8
0
 62
7
 10
3.818
 20
2.890000000000001
 30
0
 11
3.8045
 21
2.890000000000001
 31
0
  0
LINE
  8
0
 62
7
 10
3.8045
 20
2.890000000000001
 30
0
 11
3.7955
 21
2.892500000000001
 31
0
  0
LINE
  8
0
 62
7
 10
3.7955
 20
2.892500000000001
 30
0
 11
3.78875
 21
2.897500000000001
 31
0
  0
LINE
  8
0
 62
7
 10
3.78875
 20
2.897500000000001
 30
0
 11
3.78425
 21
2.905000000000001
 31
0
  0
LINE
  8
0
 62
7
 10
3.989
 20
2.942500000000001
 30
0
 11
3.98225
 21
2.952500000000001
 31
0
  0
LINE
  8
0
 62
7
 10
3.98225
 20
2.952500000000001
 30
0
 11
3.9755
 21
2.957500000000001
 31
0
  0
LINE
  8
0
 62
7
 10
3.9755
 20
2.957500000000001
 30
0
 11
3.96875
 21
2.960000000000001
 31
0
  0
LINE
  8
0
 62
7
 10
3.96875
 20
2.960000000000001
 30
0
 11
3.959750000000001
 21
2.960000000000001
 31
0
  0
LINE
  8
0
 62
7
 10
3.959750000000001
 20
2.960000000000001
 30
0
 11
3.953
 21
2.957500000000001
 31
0
  0
LINE
  8
0
 62
7
 10
3.953
 20
2.957500000000001
 30
0
 11
3.94625
 21
2.952500000000001
 31
0
  0
LINE
  8
0
 62
7
 10
3.94625
 20
2.952500000000001
 30
0
 11
3.939500000000001
 21
2.942500000000001
 31
0
  0
LINE
  8
0
 62
7
 10
3.939500000000001
 20
2.942500000000001
 30
0
 11
3.937250000000001
 21
2.935000000000001
 31
0
  0
LINE
  8
0
 62
7
 10
3.937250000000001
 20
2.935000000000001
 30
0
 11
3.937250000000001
 21
2.915000000000001
 31
0
  0
LINE
  8
0
 62
7
 10
3.937250000000001
 20
2.915000000000001
 30
0
 11
3.939500000000001
 21
2.907500000000001
 31
0
  0
LINE
  8
0
 62
7
 10
3.939500000000001
 20
2.907500000000001
 30
0
 11
3.94625
 21
2.897500000000001
 31
0
  0
LINE
  8
0
 62
7
 10
3.94625
 20
2.897500000000001
 30
0
 11
3.953
 21
2.892500000000001
 31
0
  0
LINE
  8
0
 62
7
 10
3.953
 20
2.892500000000001
 30
0
 11
3.959750000000001
 21
2.890000000000001
 31
0
  0
LINE
  8
0
 62
7
 10
3.959750000000001
 20
2.890000000000001
 30
0
 11
3.96875
 21
2.890000000000001
 31
0
  0
LINE
  8
0
 62
7
 10
3.96875
 20
2.890000000000001
 30
0
 11
3.9755
 21
2.892500000000001
 31
0
  0
LINE
  8
0
 62
7
 10
3.9755
 20
2.892500000000001
 30
0
 11
3.98225
 21
2.897500000000001
 31
0
  0
LINE
  8
0
 62
7
 10
3.98225
 20
2.897500000000001
 30
0
 11
3.989
 21
2.907500000000001
 31
0
  0
LINE
  8
0
 62
7
 10
4.0475
 20
2.935000000000001
 30
0
 11
4.0475
 21
2.890000000000001
 31
0
  0
LINE
  8
0
 62
7
 10
4.007000000000001
 20
2.960000000000001
 30
0
 11
4.007000000000001
 21
2.935000000000001
 31
0
  0
LINE
  8
0
 62
7
 10
4.007000000000001
 20
2.890000000000001
 30
0
 11
4.007000000000001
 21
2.935000000000001
 31
0
  0
LINE
  8
0
 62
7
 10
4.007000000000001
 20
2.935000000000001
 30
0
 11
4.009250000000001
 21
2.947500000000001
 31
0
  0
LINE
  8
0
 62
7
 10
4.009250000000001
 20
2.947500000000001
 30
0
 11
4.011500000000001
 21
2.952500000000001
 31
0
  0
LINE
  8
0
 62
7
 10
4.011500000000001
 20
2.952500000000001
 30
0
 11
4.016000000000001
 21
2.957500000000001
 31
0
  0
LINE
  8
0
 62
7
 10
4.016000000000001
 20
2.957500000000001
 30
0
 11
4.02275
 21
2.960000000000001
 31
0
  0
LINE
  8
0
 62
7
 10
4.02275
 20
2.960000000000001
 30
0
 11
4.031750000000001
 21
2.960000000000001
 31
0
  0
LINE
  8
0
 62
7
 10
4.031750000000001
 20
2.960000000000001
 30
0
 11
4.0385
 21
2.957500000000001
 31
0
  0
LINE
  8
0
 62
7
 10
4.0385
 20
2.957500000000001
 30
0
 11
4.043
 21
2.952500000000001
 31
0
  0
LINE
  8
0
 62
7
 10
4.043
 20
2.952500000000001
 30
0
 11
4.04525
 21
2.947500000000001
 31
0
  0
LINE
  8
0
 62
7
 10
4.04525
 20
2.947500000000001
 30
0
 11
4.0475
 21
2.935000000000001
 31
0
  0
LINE
  8
0
 62
7
 10
4.0475
 20
2.935000000000001
 30
0
 11
4.04975
 21
2.947500000000001
 31
0
  0
LINE
  8
0
 62
7
 10
4.04975
 20
2.947500000000001
 30
0
 11
4.052
 21
2.952500000000001
 31
0
  0
LINE
  8
0
 62
7
 10
4.052
 20
2.952500000000001
 30
0
 11
4.0565
 21
2.957500000000001
 31
0
  0
LINE
  8
0
 62
7
 10
4.0565
 20
2.957500000000001
 30
0
 11
4.06325
 21
2.960000000000001
 31
0
  0
LINE
  8
0
 62
7
 10
4.06325
 20
2.960000000000001
 30
0
 11
4.07225
 21
2.960000000000001
 31
0
  0
LINE
  8
0
 62
7
 10
4.07225
 20
2.960000000000001
 30
0
 11
4.079
 21
2.957500000000001
 31
0
  0
LINE
  8
0
 62
7
 10
4.0835
 20
2.952500000000001
 30
0
 11
4.079
 21
2.957500000000001
 31
0
  0
LINE
  8
0
 62
7
 10
4.079
 20
2.957500000000001
 30
0
 11
4.0835
 21
2.952500000000001
 31
0
  0
LINE
  8
0
 62
7
 10
4.0835
 20
2.952500000000001
 30
0
 11
4.08575
 21
2.947500000000001
 31
0
  0
LINE
  8
0
 62
7
 10
4.08575
 20
2.947500000000001
 30
0
 11
4.088
 21
2.935000000000001
 31
0
  0
LINE
  8
0
 62
7
 10
4.088
 20
2.935000000000001
 30
0
 11
4.088
 21
2.890000000000001
 31
0
  0
ARC
  8
0
 62
7
 10
2.239731849042879
 20
3.485268150957119
 30
0
 40
0.5100000000000033
 50
89.96987466848203
 51
180.0301253321165
  0
ARC
  8
0
 62
7
 10
3.320268150957118
 20
3.485268150957119
 30
0
 40
0.5099999999999991
 50
359.9698746687249
 51
90.03012533211695
  0
CIRCLE
  8
0
 62
7
 10
3.830268080462076
 20
3.250000000000001
 30
0
 40
0.06000000000000005
  0
DIMENSION
  8
0
  6
CONTINUOUS
 62
7
  2
*D1
  3
DMST_1
 10
4.284999999999997
 20
11.5359847090217
 30
0
 11
2.7813418105945
 21
11.5359847090217
 31
0
 12
0
 22
0
 32
0
 70
0
 13
1.274999999999998
 23
11.2
 33
0
 14
4.284999999999997
 24
11.2
 34
0
 53
0
  0
DIMENSION
  8
0
  6
CONTINUOUS
 62
7
  2
*D2
  3
DMST_2
 10
4.76981844944081
 20
4.450000000000001
 30
0
 11
4.76981844944081
 21
3.90578365298359
 31
0
 12
0
 22
0
 32
0
 70
0
 13
4.459999999999997
 23
3.25
 33
0
 14
4.459999999999997
 24
4.450000000000001
 34
0
 50
90
 53
0
  0
DIMENSION
  8
0
  6
CONTINUOUS
 62
7
  2
*D3
  3
DMST_2
 10
4.284999999999997
 20
5.40870204280929
 30
0
 11
2.82758545335837
 21
5.40870204280929
 31
0
 12
0
 22
0
 32
0
 70
0
 13
1.274999999999998
 23
4.969999999999998
 33
0
 14
4.284999999999997
 24
4.969999999999998
 34
0
 53
0
  0
DIMENSION
  8
0
  6
CONTINUOUS
 62
7
  2
*D4
  3
DMST_2
 10
0.700377886220461
 20
4.450000000000001
 30
0
 11
0.700377886220461
 21
3.92890547436552
 31
0
 12
0
 22
0
 32
0
 70
0
 13
1.099999999999998
 23
3.35
 33
0
 14
1.099999999999998
 24
4.450000000000001
 34
0
 50
90
 53
0
  0
INSERT
  8
0
  2
*D0
 10
0
 20
0
 30
0
  0
ENDSEC
  0
EOF
