  0
SECTION
  2
HEADER
  9
$ACADVER
  1
AC1009
  9
$INSBASE
 10
0
 20
0
  9
$EXTMIN
 10
0.45
 20
2.890000000000001
  9
$EXTMAX
 10
8.25827170839718
 20
11.5522447357066
  9
$LIMMIN
 10
0.45
 20
2.890000000000001
  9
$LIMMAX
 10
8.25827170839718
 20
11.5522447357066
  9
$VIEWCTR
 10
10
 20
10
  9
$VIEWSIZE
 40
10
  9
$SNAPMODE
 70
0
  9
$SNAPUNIT
 10
1
 20
1
  9
$SNAPBASE
 10
0
 20
0
  9
$SNAPANG
 50
0
  9
$SNAPSTYLE
 70
0
  9
$SNAPISOPAIR
 70
0
  9
$GRIDMODE
 70
0
  9
$GRIDUNIT
 10
0
 20
0
  9
$ORTHOMODE
 70
0
  9
$REGENMODE
 70
1
  9
$FILLMODE
 70
1
  9
$QTEXTMODE
 70
0
  9
$DRAGMODE
 70
2
  9
$LTSCALE
 40
1
  9
$OSMODE
 70
0
  9
$ATTMODE
 70
1
  9
$TEXTSIZE
 40
3.5
  9
$TRACEWID
 40
0.5
  9
$TEXTSTYLE
  7
STANDARD
  9
$CLAYER
  8
0
  9
$CELTYPE
  6
BYLAYER
  9
$CECOLOR
 62
256
  9
$DIMSCALE
 40
1
  9
$DIMASZ
 40
0.18
  9
$DIMEXO
 40
0.0625
  9
$DIMDLI
 40
0.38
  9
$DIMRND
 40
0
  9
$DIMDLE
 40
0
  9
$DIMEXE
 40
0.18
  9
$DIMTP
 40
0
  9
$DIMTM
 40
0
  9
$DIMTXT
 40
0.18
  9
$DIMCEN
 40
0.09
  9
$DIMTSZ
 40
0
  9
$DIMTOL
 70
0
  9
$DIMLIM
 70
0
  9
$DIMTIH
 70
1
  9
$DIMTOH
 70
1
  9
$DIMSE1
 70
0
  9
$DIMSE2
 70
0
  9
$DIMTAD
 70
0
  9
$DIMZIN
 70
0
  9
$DIMBLK
  1

  9
$DIMASO
 70
1
  9
$DIMSHO
 70
1
  9
$DIMPOST
  1

  9
$DIMAPOST
  1

  9
$DIMALT
 70
0
  9
$DIMALTD
 70
2
  9
$DIMALTF
 40
25.4
  9
$DIMLFAC
 40
1
  9
$DIMTOFL
 70
0
  9
$DIMTVP
 40
0
  9
$DIMTIX
 70
0
  9
$DIMSOXD
 70
0
  9
$DIMSAH
 70
0
  9
$DIMBLK1
  1

  9
$DIMBLK2
  1

  9
$DIMSTYLE
  2
*UNNAMED
  9
$DIMCLRD
 70
0
  9
$DIMCLRE
 70
0
  9
$DIMCLRT
 70
0
  9
$DIMTFAC
 40
1
  9
$DIMGAP
 40
0.09
  9
$LUNITS
 70
2
  9
$LUPREC
 70
4
  9
$AXISMODE
 70
0
  9
$AXISUNIT
 10
0
 20
0
  9
$SKETCHINC
 40
0.1
  9
$FILLETRAD
 40
2
  9
$AUNITS
 70
0
  9
$AUPREC
 70
0
  9
$MENU
  1
ACAD
  9
$ELEVATION
 40
0
  9
$THICKNESS
 40
0
  9
$VIEWDIR
 10
0
 20
0
 30
1
  9
$LIMCHECK
 70
0
  9
$BLIPMODE
 70
1
  9
$CHAMFERA
 40
0
  9
$CHAMFERB
 40
0
  9
$FASTZOOM
 70
1
  9
$SKPOLY
 70
0
  9
$ANGBASE
 50
0
  9
$ANGDIR
 70
0
  9
$PDMODE
 70
0
  9
$PDSIZE
 40
0
  9
$PLINEWID
 40
0
  9
$COORDS
 70
2
  0
ENDSEC
  0
SECTION
  2
TABLES
  0
TABLE
  2
DIMSTYLE
 70
2
  0
DIMSTYLE
  2
DMST_1
 70
0
  3

  4

  5

  6

  7

 40
1
 41
0.1
 42
0
 43
0.7
 44
0.2
 45
0
 46
0
 47
0
 48
0
140
0.1
141
0
142
0.1
143
25.4
144
1
145
0
146
1
147
0.2
 71
0
 72
0
 73
0
 74
0
 75
0
 76
0
 77
0
 78
9
170
0
171
2
172
0
173
0
174
0
175
0
176
7
177
7
178
7
  0
DIMSTYLE
  2
DMST_2
 70
0
  3

  4

  5

  6

  7

 40
1
 41
0.1
 42
0
 43
0.7
 44
0.2
 45
0
 46
0
 47
0
 48
0
140
0.1
141
0
142
0.1
143
25.4
144
1
145
0
146
1
147
0.25
 71
0
 72
0
 73
0
 74
0
 75
0
 76
0
 77
0
 78
9
170
0
171
2
172
0
173
0
174
0
175
0
176
7
177
7
178
7
  0
ENDTAB
  0
TABLE
  2
LTYPE
 70
9
  0
LTYPE
  2
CONTINUOUS
 70
64
  3
Solid line
 72
65
 73
0
 40
0
  0
LTYPE
  2
BORDER
 70
64
  3
__ __ . __ __ .
 72
65
 73
6
 40
0.3989191654601723
 49
0.1139769044171921
 49
-0.05698845220859605
 49
0.1139769044171921
 49
-0.05698845220859605
 49
0
 49
-0.05698845220859605
  0
LTYPE
  2
CENTER
 70
64
  3
____ _ ____ _
 72
65
 73
4
 40
0.4559076176687684
 49
0.2849422610429802
 49
-0.05698845220859605
 49
0.05698845220859605
 49
-0.05698845220859605
  0
LTYPE
  2
DASHDOT
 70
64
  3
__ . __ . __ .
 72
65
 73
4
 40
0.2279538088343842
 49
0.1139769044171921
 49
-0.05698845220859605
 49
0
 49
-0.05698845220859605
  0
LTYPE
  2
DASHED
 70
64
  3
__ __ __ __ __
 72
65
 73
2
 40
0.1709653566257881
 49
0.1139769044171921
 49
-0.05698845220859605
  0
LTYPE
  2
DIVIDE
 70
64
  3
__ . . __ . . 
 72
65
 73
6
 40
0.2849422610429802
 49
0.1139769044171921
 49
-0.05698845220859605
 49
0
 49
-0.05698845220859605
 49
0
 49
-0.05698845220859605
  0
LTYPE
  2
DOT
 70
64
  3
..............
 72
65
 73
4
 40
0.1139769044171921
 49
0
 49
-0.05698845220859605
 49
0
 49
-0.05698845220859605
  0
LTYPE
  2
HIDDEN
 70
64
  3
_ _ _ _ _ _ _
 72
65
 73
2
 40
0.08548267831289406
 49
0.05698845220859605
 49
-0.02849422610429802
  0
LTYPE
  2
PHANTOM
 70
64
  3
_____ _ _ _____ _ _ 
 72
65
 73
6
 40
0.5698845220859604
 49
0.2849422610429802
 49
-0.05698845220859605
 49
0.05698845220859605
 49
-0.05698845220859605
 49
0.05698845220859605
 49
-0.05698845220859605
  0
ENDTAB
  0
TABLE
  2
LAYER
 70
2
  0
LAYER
  2
0
 70
0
 62
7
  6
CONTINUOUS
  0
ENDTAB
  0
TABLE
  2
STYLE
 70
4
  0
STYLE
  2
STANDARD
 70
0
 40
0
 41
1
 50
0
 71
0
 42
3.5
  3
txt
  4

  0
STYLE
  2
SIMPLEX
 70
0
 40
0
 41
1
 50
0
 71
0
 42
3.5
  3
simplex
  4

  0
STYLE
  2
COMPLEX
 70
0
 40
0
 41
1
 50
0
 71
0
 42
3.5
  3
complex
  4

  0
STYLE
  2
ITALIC
 70
0
 40
0
 41
1
 50
0
 71
0
 42
3.5
  3
italic
  4

  0
ENDTAB
  0
TABLE
  2
VIEW
 70
0
  0
ENDTAB
  0
ENDSEC
  0
SECTION
  2
BLOCKS
  0
BLOCK
  8
0
  2
*X0
 70
1
 10
0
 20
0
 30
0
  0
LINE
  8
0
 62
7
 10
7.425000000000002
 20
7.955330085889912
 30
0
 11
7.569669914110088
 21
8.099999999999998
 31
0
  0
LINE
  8
0
 62
7
 10
7.425000000000002
 20
8.061396103067892
 30
0
 11
7.463603896932105
 21
8.099999999999998
 31
0
  0
LINE
  8
0
 62
7
 10
7.525735931288072
 20
7.949999999999998
 30
0
 11
7.600000000000001
 21
8.024264068711929
 31
0
  0
ENDBLK
  8
0
  0
BLOCK
  8
0
  2
*X1
 70
1
 10
0
 20
0
 30
0
  0
LINE
  8
0
 62
7
 10
7.425000000000002
 20
10.71304653251744
 30
0
 11
7.561953467482555
 21
10.85
 31
0
  0
LINE
  8
0
 62
7
 10
7.425000000000002
 20
10.50091449816148
 30
0
 11
7.600000000000002
 21
10.67591449816148
 31
0
  0
LINE
  8
0
 62
7
 10
7.425000000000002
 20
10.28878246380551
 30
0
 11
7.600000000000002
 21
10.46378246380551
 31
0
  0
LINE
  8
0
 62
7
 10
7.425000000000002
 20
10.07665042944955
 30
0
 11
7.600000000000002
 21
10.25165042944955
 31
0
  0
LINE
  8
0
 62
7
 10
7.425000000000002
 20
9.864518395093587
 30
0
 11
7.600000000000002
 21
10.03951839509359
 31
0
  0
LINE
  8
0
 62
7
 10
7.425000000000002
 20
9.652386360737623
 30
0
 11
7.600000000000002
 21
9.827386360737622
 31
0
  0
LINE
  8
0
 62
7
 10
7.425000000000002
 20
9.440254326381659
 30
0
 11
7.600000000000002
 21
9.615254326381658
 31
0
  0
LINE
  8
0
 62
7
 10
7.425000000000002
 20
9.228122292025695
 30
0
 11
7.600000000000002
 21
9.403122292025694
 31
0
  0
LINE
  8
0
 62
7
 10
7.425000000000002
 20
9.015990257669731
 30
0
 11
7.600000000000002
 21
9.19099025766973
 31
0
  0
LINE
  8
0
 62
7
 10
7.425000000000002
 20
8.803858223313767
 30
0
 11
7.600000000000002
 21
8.978858223313766
 31
0
  0
LINE
  8
0
 62
7
 10
7.425000000000002
 20
8.591726188957804
 30
0
 11
7.600000000000002
 21
8.766726188957803
 31
0
  0
LINE
  8
0
 62
7
 10
7.425000000000002
 20
8.37959415460184
 30
0
 11
7.600000000000002
 21
8.554594154601839
 31
0
  0
LINE
  8
0
 62
7
 10
7.557537879754123
 20
8.299999999999995
 30
0
 11
7.600000000000002
 21
8.342462120245875
 31
0
  0
LINE
  8
0
 62
7
 10
7.425000000000002
 20
10.81911254969542
 30
0
 11
7.455887450304571
 21
10.85
 31
0
  0
LINE
  8
0
 62
7
 10
7.425000000000002
 20
10.60698051533946
 30
0
 11
7.600000000000002
 21
10.78198051533946
 31
0
  0
LINE
  8
0
 62
7
 10
7.425000000000002
 20
10.3948484809835
 30
0
 11
7.600000000000002
 21
10.5698484809835
 31
0
  0
LINE
  8
0
 62
7
 10
7.425000000000002
 20
10.18271644662753
 30
0
 11
7.600000000000002
 21
10.35771644662753
 31
0
  0
LINE
  8
0
 62
7
 10
7.425000000000002
 20
9.970584412271569
 30
0
 11
7.600000000000002
 21
10.14558441227157
 31
0
  0
LINE
  8
0
 62
7
 10
7.425000000000002
 20
9.758452377915605
 30
0
 11
7.600000000000002
 21
9.933452377915604
 31
0
  0
LINE
  8
0
 62
7
 10
7.425000000000002
 20
9.546320343559641
 30
0
 11
7.600000000000002
 21
9.72132034355964
 31
0
  0
LINE
  8
0
 62
7
 10
7.425000000000002
 20
9.334188309203677
 30
0
 11
7.600000000000002
 21
9.509188309203676
 31
0
  0
LINE
  8
0
 62
7
 10
7.425000000000002
 20
9.122056274847713
 30
0
 11
7.600000000000002
 21
9.297056274847712
 31
0
  0
LINE
  8
0
 62
7
 10
7.425000000000002
 20
8.909924240491749
 30
0
 11
7.600000000000002
 21
9.084924240491748
 31
0
  0
LINE
  8
0
 62
7
 10
7.425000000000002
 20
8.697792206135786
 30
0
 11
7.600000000000002
 21
8.872792206135784
 31
0
  0
LINE
  8
0
 62
7
 10
7.425000000000002
 20
8.485660171779822
 30
0
 11
7.600000000000002
 21
8.660660171779821
 31
0
  0
LINE
  8
0
 62
7
 10
7.451471862576141
 20
8.299999999999997
 30
0
 11
7.600000000000002
 21
8.448528137423857
 31
0
  0
ENDBLK
  8
0
  0
BLOCK
  8
0
  2
*X2
 70
1
 10
0
 20
0
 30
0
  0
LINE
  8
0
 62
7
 10
7.425000000000002
 20
11.13731060122938
 30
0
 11
7.487689398770626
 21
11.2
 31
0
  0
LINE
  8
0
 62
7
 10
7.549821433126593
 20
11.05
 30
0
 11
7.600000000000002
 21
11.10017856687341
 31
0
  0
LINE
  8
0
 62
7
 10
7.44375541594861
 20
11.05
 30
0
 11
7.593755415948609
 21
11.2
 31
0
  0
ENDBLK
  8
0
  0
BLOCK
  8
0
  2
*X3
 70
1
 10
0
 20
0
 30
0
  0
LINE
  8
0
 62
7
 10
4.240000000000001
 20
7.952310601229374
 30
0
 11
4.387689398770624
 21
8.099999999999998
 31
0
  0
LINE
  8
0
 62
7
 10
4.240000000000001
 20
8.058376618407356
 30
0
 11
4.281623381592643
 21
8.1
 31
0
  0
LINE
  8
0
 62
7
 10
4.343755415948607
 20
7.949999999999998
 30
0
 11
4.415000000000003
 21
8.021244584051395
 31
0
  0
ENDBLK
  8
0
  0
BLOCK
  8
0
  2
*X4
 70
1
 10
0
 20
0
 30
0
  0
LINE
  8
0
 62
7
 10
4.24
 20
10.7100270478569
 30
0
 11
4.379972952143091
 21
10.85
 31
0
  0
LINE
  8
0
 62
7
 10
4.24
 20
10.49789501350094
 30
0
 11
4.415000000000003
 21
10.67289501350094
 31
0
  0
LINE
  8
0
 62
7
 10
4.24
 20
10.28576297914498
 30
0
 11
4.415000000000003
 21
10.46076297914498
 31
0
  0
LINE
  8
0
 62
7
 10
4.24
 20
10.07363094478901
 30
0
 11
4.415000000000003
 21
10.24863094478902
 31
0
  0
LINE
  8
0
 62
7
 10
4.24
 20
9.861498910433049
 30
0
 11
4.415000000000003
 21
10.03649891043305
 31
0
  0
LINE
  8
0
 62
7
 10
4.24
 20
9.649366876077085
 30
0
 11
4.415000000000003
 21
9.824366876077088
 31
0
  0
LINE
  8
0
 62
7
 10
4.24
 20
9.437234841721121
 30
0
 11
4.415000000000003
 21
9.612234841721124
 31
0
  0
LINE
  8
0
 62
7
 10
4.24
 20
9.225102807365158
 30
0
 11
4.415000000000003
 21
9.40010280736516
 31
0
  0
LINE
  8
0
 62
7
 10
4.24
 20
9.012970773009194
 30
0
 11
4.415000000000003
 21
9.187970773009196
 31
0
  0
LINE
  8
0
 62
7
 10
4.24
 20
8.80083873865323
 30
0
 11
4.415000000000003
 21
8.975838738653232
 31
0
  0
LINE
  8
0
 62
7
 10
4.24
 20
8.588706704297266
 30
0
 11
4.415000000000003
 21
8.763706704297269
 31
0
  0
LINE
  8
0
 62
7
 10
4.24
 20
8.376574669941302
 30
0
 11
4.415000000000003
 21
8.551574669941305
 31
0
  0
LINE
  8
0
 62
7
 10
4.375557364414659
 20
8.299999999999997
 30
0
 11
4.415000000000003
 21
8.339442635585341
 31
0
  0
LINE
  8
0
 62
7
 10
4.240000000000002
 20
10.81609306503489
 30
0
 11
4.273906934965108
 21
10.85
 31
0
  0
LINE
  8
0
 62
7
 10
4.240000000000002
 20
10.60396103067892
 30
0
 11
4.415000000000002
 21
10.77896103067892
 31
0
  0
LINE
  8
0
 62
7
 10
4.240000000000002
 20
10.39182899632296
 30
0
 11
4.415000000000002
 21
10.56682899632296
 31
0
  0
LINE
  8
0
 62
7
 10
4.240000000000002
 20
10.179696961967
 30
0
 11
4.415000000000002
 21
10.354696961967
 31
0
  0
LINE
  8
0
 62
7
 10
4.240000000000002
 20
9.967564927611033
 30
0
 11
4.415000000000002
 21
10.14256492761103
 31
0
  0
LINE
  8
0
 62
7
 10
4.240000000000002
 20
9.755432893255069
 30
0
 11
4.415000000000002
 21
9.930432893255068
 31
0
  0
LINE
  8
0
 62
7
 10
4.240000000000002
 20
9.543300858899105
 30
0
 11
4.415000000000002
 21
9.718300858899104
 31
0
  0
LINE
  8
0
 62
7
 10
4.240000000000002
 20
9.331168824543141
 30
0
 11
4.415000000000002
 21
9.50616882454314
 31
0
  0
LINE
  8
0
 62
7
 10
4.240000000000002
 20
9.119036790187177
 30
0
 11
4.415000000000002
 21
9.294036790187176
 31
0
  0
LINE
  8
0
 62
7
 10
4.240000000000002
 20
8.906904755831214
 30
0
 11
4.415000000000002
 21
9.081904755831212
 31
0
  0
LINE
  8
0
 62
7
 10
4.240000000000002
 20
8.69477272147525
 30
0
 11
4.415000000000002
 21
8.869772721475249
 31
0
  0
LINE
  8
0
 62
7
 10
4.240000000000002
 20
8.482640687119286
 30
0
 11
4.415000000000002
 21
8.657640687119285
 31
0
  0
LINE
  8
0
 62
7
 10
4.269491347236678
 20
8.299999999999997
 30
0
 11
4.415000000000002
 21
8.445508652763321
 31
0
  0
ENDBLK
  8
0
  0
BLOCK
  8
0
  2
*X5
 70
1
 10
0
 20
0
 30
0
  0
LINE
  8
0
 62
7
 10
4.240000000000002
 20
11.13429111656884
 30
0
 11
4.305708883431162
 21
11.2
 31
0
  0
LINE
  8
0
 62
7
 10
4.367840917787128
 20
11.05
 30
0
 11
4.415000000000002
 21
11.09715908221287
 31
0
  0
LINE
  8
0
 62
7
 10
4.261774900609146
 20
11.05
 30
0
 11
4.411774900609145
 21
11.2
 31
0
  0
ENDBLK
  8
0
  0
BLOCK
  8
0
  2
*X6
 70
1
 10
0
 20
0
 30
0
  0
LINE
  8
0
 62
7
  6
DASHED
 10
4.090000000000001
 20
8.226574669941302
 30
0
 11
4.163425330058701
 21
8.299999999999995
 31
0
  0
LINE
  8
0
 62
7
  6
DASHED
 10
4.175557364414667
 20
8.099999999999998
 30
0
 11
4.375557364414665
 21
8.299999999999995
 31
0
  0
LINE
  8
0
 62
7
  6
DASHED
 10
4.387689398770631
 20
8.099999999999998
 30
0
 11
4.587689398770629
 21
8.299999999999995
 31
0
  0
LINE
  8
0
 62
7
  6
DASHED
 10
4.599821433126595
 20
8.099999999999998
 30
0
 11
4.799821433126593
 21
8.299999999999995
 31
0
  0
LINE
  8
0
 62
7
  6
DASHED
 10
4.811953467482558
 20
8.099999999999998
 30
0
 11
5.011953467482557
 21
8.299999999999995
 31
0
  0
LINE
  8
0
 62
7
  6
DASHED
 10
5.024085501838522
 20
8.099999999999998
 30
0
 11
5.224085501838521
 21
8.299999999999995
 31
0
  0
LINE
  8
0
 62
7
  6
DASHED
 10
5.236217536194486
 20
8.099999999999998
 30
0
 11
5.436217536194484
 21
8.299999999999995
 31
0
  0
LINE
  8
0
 62
7
  6
DASHED
 10
5.44834957055045
 20
8.099999999999998
 30
0
 11
5.648349570550448
 21
8.299999999999995
 31
0
  0
LINE
  8
0
 62
7
  6
DASHED
 10
5.660481604906414
 20
8.099999999999998
 30
0
 11
5.860481604906412
 21
8.299999999999995
 31
0
  0
LINE
  8
0
 62
7
  6
DASHED
 10
5.872613639262378
 20
8.099999999999998
 30
0
 11
6.072613639262376
 21
8.299999999999995
 31
0
  0
LINE
  8
0
 62
7
  6
DASHED
 10
6.084745673618341
 20
8.099999999999998
 30
0
 11
6.28474567361834
 21
8.299999999999995
 31
0
  0
LINE
  8
0
 62
7
  6
DASHED
 10
6.296877707974305
 20
8.099999999999998
 30
0
 11
6.496877707974304
 21
8.299999999999995
 31
0
  0
LINE
  8
0
 62
7
  6
DASHED
 10
6.509009742330269
 20
8.099999999999998
 30
0
 11
6.709009742330267
 21
8.299999999999995
 31
0
  0
LINE
  8
0
 62
7
  6
DASHED
 10
6.721141776686233
 20
8.099999999999998
 30
0
 11
6.921141776686231
 21
8.299999999999995
 31
0
  0
LINE
  8
0
 62
7
  6
DASHED
 10
6.933273811042197
 20
8.099999999999998
 30
0
 11
7.133273811042195
 21
8.299999999999995
 31
0
  0
LINE
  8
0
 62
7
  6
DASHED
 10
7.145405845398161
 20
8.099999999999998
 30
0
 11
7.345405845398159
 21
8.299999999999995
 31
0
  0
LINE
  8
0
 62
7
  6
DASHED
 10
7.357537879754124
 20
8.099999999999998
 30
0
 11
7.557537879754123
 21
8.299999999999995
 31
0
  0
LINE
  8
0
 62
7
  6
DASHED
 10
7.569669914110088
 20
8.099999999999998
 30
0
 11
7.750000000000002
 21
8.280330085889913
 31
0
  0
LINE
  8
0
 62
7
 10
4.090000000000002
 20
8.120508652763322
 30
0
 11
4.269491347236682
 21
8.299999999999995
 31
0
  0
LINE
  8
0
 62
7
 10
4.28162338159265
 20
8.099999999999998
 30
0
 11
4.481623381592646
 21
8.299999999999995
 31
0
  0
LINE
  8
0
 62
7
 10
4.493755415948613
 20
8.099999999999998
 30
0
 11
4.69375541594861
 21
8.299999999999995
 31
0
  0
LINE
  8
0
 62
7
 10
4.705887450304577
 20
8.099999999999998
 30
0
 11
4.905887450304574
 21
8.299999999999995
 31
0
  0
LINE
  8
0
 62
7
 10
4.918019484660541
 20
8.099999999999998
 30
0
 11
5.118019484660538
 21
8.299999999999995
 31
0
  0
LINE
  8
0
 62
7
 10
5.130151519016505
 20
8.099999999999998
 30
0
 11
5.330151519016502
 21
8.299999999999995
 31
0
  0
LINE
  8
0
 62
7
 10
5.342283553372469
 20
8.099999999999998
 30
0
 11
5.542283553372465
 21
8.299999999999995
 31
0
  0
LINE
  8
0
 62
7
 10
5.554415587728433
 20
8.099999999999998
 30
0
 11
5.754415587728429
 21
8.299999999999995
 31
0
  0
LINE
  8
0
 62
7
 10
5.766547622084397
 20
8.099999999999998
 30
0
 11
5.966547622084393
 21
8.299999999999995
 31
0
  0
LINE
  8
0
 62
7
 10
5.97867965644036
 20
8.099999999999998
 30
0
 11
6.178679656440357
 21
8.299999999999995
 31
0
  0
LINE
  8
0
 62
7
 10
6.190811690796324
 20
8.099999999999998
 30
0
 11
6.390811690796321
 21
8.299999999999995
 31
0
  0
LINE
  8
0
 62
7
 10
6.402943725152288
 20
8.099999999999998
 30
0
 11
6.602943725152285
 21
8.299999999999995
 31
0
  0
LINE
  8
0
 62
7
 10
6.615075759508252
 20
8.099999999999998
 30
0
 11
6.815075759508249
 21
8.299999999999995
 31
0
  0
LINE
  8
0
 62
7
 10
6.827207793864216
 20
8.099999999999998
 30
0
 11
7.027207793864212
 21
8.299999999999995
 31
0
  0
LINE
  8
0
 62
7
 10
7.03933982822018
 20
8.099999999999998
 30
0
 11
7.239339828220176
 21
8.299999999999995
 31
0
  0
LINE
  8
0
 62
7
 10
7.251471862576143
 20
8.099999999999998
 30
0
 11
7.45147186257614
 21
8.299999999999995
 31
0
  0
LINE
  8
0
 62
7
 10
7.463603896932107
 20
8.099999999999998
 30
0
 11
7.663603896932104
 21
8.299999999999995
 31
0
  0
LINE
  8
0
 62
7
 10
7.675735931288071
 20
8.099999999999998
 30
0
 11
7.750000000000003
 21
8.174264068711929
 31
0
  0
ENDBLK
  8
0
  0
BLOCK
  8
0
  2
*X7
 70
1
 10
0
 20
0
 30
0
  0
LINE
  8
0
 62
7
  6
DASHED
 10
4.090000000000001
 20
10.98429111656884
 30
0
 11
4.15570888343117
 21
11.05
 31
0
  0
LINE
  8
0
 62
7
  6
DASHED
 10
4.167840917787133
 20
10.85
 30
0
 11
4.367840917787134
 21
11.05
 31
0
  0
LINE
  8
0
 62
7
  6
DASHED
 10
4.379972952143097
 20
10.85
 30
0
 11
4.579972952143097
 21
11.05
 31
0
  0
LINE
  8
0
 62
7
  6
DASHED
 10
4.592104986499061
 20
10.85
 30
0
 11
4.792104986499061
 21
11.05
 31
0
  0
LINE
  8
0
 62
7
  6
DASHED
 10
4.804237020855025
 20
10.85
 30
0
 11
5.004237020855025
 21
11.05
 31
0
  0
LINE
  8
0
 62
7
  6
DASHED
 10
5.016369055210989
 20
10.85
 30
0
 11
5.216369055210989
 21
11.05
 31
0
  0
LINE
  8
0
 62
7
  6
DASHED
 10
5.228501089566953
 20
10.85
 30
0
 11
5.428501089566953
 21
11.05
 31
0
  0
LINE
  8
0
 62
7
  6
DASHED
 10
5.440633123922916
 20
10.85
 30
0
 11
5.640633123922917
 21
11.05
 31
0
  0
LINE
  8
0
 62
7
  6
DASHED
 10
5.65276515827888
 20
10.85
 30
0
 11
5.85276515827888
 21
11.05
 31
0
  0
LINE
  8
0
 62
7
  6
DASHED
 10
5.864897192634844
 20
10.85
 30
0
 11
6.064897192634844
 21
11.05
 31
0
  0
LINE
  8
0
 62
7
  6
DASHED
 10
6.077029226990808
 20
10.85
 30
0
 11
6.277029226990808
 21
11.05
 31
0
  0
LINE
  8
0
 62
7
  6
DASHED
 10
6.289161261346772
 20
10.85
 30
0
 11
6.489161261346772
 21
11.05
 31
0
  0
LINE
  8
0
 62
7
  6
DASHED
 10
6.501293295702736
 20
10.85
 30
0
 11
6.701293295702736
 21
11.05
 31
0
  0
LINE
  8
0
 62
7
  6
DASHED
 10
6.713425330058699
 20
10.85
 30
0
 11
6.9134253300587
 21
11.05
 31
0
  0
LINE
  8
0
 62
7
  6
DASHED
 10
6.925557364414663
 20
10.85
 30
0
 11
7.125557364414663
 21
11.05
 31
0
  0
LINE
  8
0
 62
7
  6
DASHED
 10
7.137689398770627
 20
10.85
 30
0
 11
7.337689398770627
 21
11.05
 31
0
  0
LINE
  8
0
 62
7
  6
DASHED
 10
7.349821433126591
 20
10.85
 30
0
 11
7.549821433126591
 21
11.05
 31
0
  0
LINE
  8
0
 62
7
  6
DASHED
 10
7.561953467482555
 20
10.85
 30
0
 11
7.75
 21
11.03804653251744
 31
0
  0
LINE
  8
0
 62
7
 10
4.090000000000002
 20
10.87822509939086
 30
0
 11
4.261774900609151
 21
11.05
 31
0
  0
LINE
  8
0
 62
7
 10
4.273906934965116
 20
10.85
 30
0
 11
4.473906934965115
 21
11.05
 31
0
  0
LINE
  8
0
 62
7
 10
4.48603896932108
 20
10.85
 30
0
 11
4.686038969321078
 21
11.05
 31
0
  0
LINE
  8
0
 62
7
 10
4.698171003677044
 20
10.85
 30
0
 11
4.898171003677042
 21
11.05
 31
0
  0
LINE
  8
0
 62
7
 10
4.910303038033008
 20
10.85
 30
0
 11
5.110303038033006
 21
11.05
 31
0
  0
LINE
  8
0
 62
7
 10
5.122435072388972
 20
10.85
 30
0
 11
5.32243507238897
 21
11.05
 31
0
  0
LINE
  8
0
 62
7
 10
5.334567106744935
 20
10.85
 30
0
 11
5.534567106744934
 21
11.05
 31
0
  0
LINE
  8
0
 62
7
 10
5.546699141100899
 20
10.85
 30
0
 11
5.746699141100898
 21
11.05
 31
0
  0
LINE
  8
0
 62
7
 10
5.758831175456863
 20
10.85
 30
0
 11
5.958831175456861
 21
11.05
 31
0
  0
LINE
  8
0
 62
7
 10
5.970963209812827
 20
10.85
 30
0
 11
6.170963209812825
 21
11.05
 31
0
  0
LINE
  8
0
 62
7
 10
6.183095244168791
 20
10.85
 30
0
 11
6.383095244168789
 21
11.05
 31
0
  0
LINE
  8
0
 62
7
 10
6.395227278524755
 20
10.85
 30
0
 11
6.595227278524753
 21
11.05
 31
0
  0
LINE
  8
0
 62
7
 10
6.607359312880718
 20
10.85
 30
0
 11
6.807359312880717
 21
11.05
 31
0
  0
LINE
  8
0
 62
7
 10
6.819491347236682
 20
10.85
 30
0
 11
7.019491347236681
 21
11.05
 31
0
  0
LINE
  8
0
 62
7
 10
7.031623381592646
 20
10.85
 30
0
 11
7.231623381592645
 21
11.05
 31
0
  0
LINE
  8
0
 62
7
 10
7.24375541594861
 20
10.85
 30
0
 11
7.443755415948608
 21
11.05
 31
0
  0
LINE
  8
0
 62
7
 10
7.455887450304574
 20
10.85
 30
0
 11
7.655887450304572
 21
11.05
 31
0
  0
LINE
  8
0
 62
7
 10
7.668019484660538
 20
10.85
 30
0
 11
7.750000000000001
 21
10.93198051533946
 31
0
  0
ENDBLK
  8
0
  0
BLOCK
  8
0
  2
*X8
 70
1
 10
0
 20
0
 30
0
  0
LINE
  8
0
 62
7
 10
0.5
 20
8.03068721963673
 30
0
 11
0.5693127803632674
 21
8.099999999999998
 31
0
  0
LINE
  8
0
 62
7
 10
0.6314448147192331
 20
7.949999999999998
 30
0
 11
0.739999999999998
 21
8.058555185280763
 31
0
  0
LINE
  8
0
 62
7
 10
0.5253787975412521
 20
7.949999999999999
 30
0
 11
0.6753787975412497
 21
8.099999999999998
 31
0
  0
LINE
  8
0
 62
7
 10
0.7375108318972163
 20
7.949999999999999
 30
0
 11
0.7399999999999984
 21
7.952489168102781
 31
0
  0
ENDBLK
  8
0
  0
BLOCK
  8
0
  2
*X9
 70
1
 10
0
 20
0
 30
0
  0
LINE
  8
0
 62
7
 10
0.5000000000000004
 20
10.78840366626426
 30
0
 11
0.561596333735733
 21
10.85
 31
0
  0
LINE
  8
0
 62
7
 10
0.5000000000000004
 20
10.5762716319083
 30
0
 11
0.7399999999999984
 21
10.81627163190829
 31
0
  0
LINE
  8
0
 62
7
 10
0.5000000000000004
 20
10.36413959755233
 30
0
 11
0.7399999999999984
 21
10.60413959755233
 31
0
  0
LINE
  8
0
 62
7
 10
0.5000000000000004
 20
10.15200756319637
 30
0
 11
0.7399999999999984
 21
10.39200756319637
 31
0
  0
LINE
  8
0
 62
7
 10
0.5000000000000004
 20
9.939875528840407
 30
0
 11
0.7399999999999984
 21
10.1798755288404
 31
0
  0
LINE
  8
0
 62
7
 10
0.5000000000000004
 20
9.727743494484443
 30
0
 11
0.7399999999999984
 21
9.96774349448444
 31
0
  0
LINE
  8
0
 62
7
 10
0.5000000000000004
 20
9.515611460128479
 30
0
 11
0.7399999999999984
 21
9.755611460128476
 31
0
  0
LINE
  8
0
 62
7
 10
0.5000000000000004
 20
9.303479425772515
 30
0
 11
0.7399999999999984
 21
9.543479425772512
 31
0
  0
LINE
  8
0
 62
7
 10
0.5000000000000004
 20
9.091347391416551
 30
0
 11
0.7399999999999984
 21
9.331347391416548
 31
0
  0
LINE
  8
0
 62
7
 10
0.5000000000000004
 20
8.879215357060588
 30
0
 11
0.7399999999999984
 21
9.119215357060584
 31
0
  0
LINE
  8
0
 62
7
 10
0.5000000000000004
 20
8.667083322704624
 30
0
 11
0.7399999999999984
 21
8.90708332270462
 31
0
  0
LINE
  8
0
 62
7
 10
0.5000000000000004
 20
8.45495128834866
 30
0
 11
0.7399999999999984
 21
8.694951288348657
 31
0
  0
LINE
  8
0
 62
7
 10
0.5571807460073019
 20
8.299999999999995
 30
0
 11
0.7399999999999984
 21
8.482819253992693
 31
0
  0
LINE
  8
0
 62
7
 10
0.5
 20
10.68233764908628
 30
0
 11
0.6676623509137176
 21
10.85
 31
0
  0
LINE
  8
0
 62
7
 10
0.5
 20
10.47020561473031
 30
0
 11
0.739999999999998
 21
10.71020561473031
 31
0
  0
LINE
  8
0
 62
7
 10
0.5
 20
10.25807358037435
 30
0
 11
0.739999999999998
 21
10.49807358037435
 31
0
  0
LINE
  8
0
 62
7
 10
0.5
 20
10.04594154601839
 30
0
 11
0.739999999999998
 21
10.28594154601839
 31
0
  0
LINE
  8
0
 62
7
 10
0.5
 20
9.833809511662423
 30
0
 11
0.739999999999998
 21
10.07380951166242
 31
0
  0
LINE
  8
0
 62
7
 10
0.5
 20
9.621677477306459
 30
0
 11
0.739999999999998
 21
9.861677477306458
 31
0
  0
LINE
  8
0
 62
7
 10
0.5
 20
9.409545442950495
 30
0
 11
0.739999999999998
 21
9.649545442950494
 31
0
  0
LINE
  8
0
 62
7
 10
0.5
 20
9.197413408594532
 30
0
 11
0.739999999999998
 21
9.43741340859453
 31
0
  0
LINE
  8
0
 62
7
 10
0.5
 20
8.985281374238568
 30
0
 11
0.739999999999998
 21
9.225281374238566
 31
0
  0
LINE
  8
0
 62
7
 10
0.5
 20
8.773149339882604
 30
0
 11
0.739999999999998
 21
9.013149339882602
 31
0
  0
LINE
  8
0
 62
7
 10
0.5
 20
8.56101730552664
 30
0
 11
0.739999999999998
 21
8.801017305526639
 31
0
  0
LINE
  8
0
 62
7
 10
0.5
 20
8.348885271170676
 30
0
 11
0.739999999999998
 21
8.588885271170675
 31
0
  0
LINE
  8
0
 62
7
 10
0.6632467631852861
 20
8.299999999999997
 30
0
 11
0.739999999999998
 21
8.376753236814711
 31
0
  0
ENDBLK
  8
0
  0
BLOCK
  8
0
  2
*X10
 70
1
 10
0
 20
0
 30
0
  0
LINE
  8
0
 62
7
 10
0.549464299379772
 20
11.05
 30
0
 11
0.6994642993797706
 21
11.2
 31
0
  0
LINE
  8
0
 62
7
 10
0.5
 20
11.10660171779821
 30
0
 11
0.5933982822017896
 21
11.2
 31
0
  0
LINE
  8
0
 62
7
 10
0.655530316557754
 20
11.05
 30
0
 11
0.7399999999999975
 21
11.13446968344224
 31
0
  0
ENDBLK
  8
0
  0
BLOCK
  8
0
  2
*X11
 70
1
 10
0
 20
0
 30
0
  0
LINE
  8
0
 62
7
  6
DASHED
 10
1.842104986499053
 20
8.099999999999996
 30
0
 11
2.042104986499052
 21
8.299999999999997
 31
0
  0
LINE
  8
0
 62
7
  6
DASHED
 10
2.054237020855017
 20
8.099999999999996
 30
0
 11
2.140000000000001
 21
8.185762979144981
 31
0
  0
LINE
  8
0
 62
7
 10
1.840000000000003
 20
8.203961030678929
 30
0
 11
1.936038969321071
 21
8.299999999999997
 31
0
  0
LINE
  8
0
 62
7
 10
1.948171003677037
 20
8.099999999999998
 30
0
 11
2.140000000000002
 21
8.291828996322964
 31
0
  0
ENDBLK
  8
0
  0
BLOCK
  8
0
  2
*X12
 70
1
 10
0
 20
0
 30
0
  0
LINE
  8
0
 62
7
  6
DASHED
 10
1.840000000000002
 20
10.85561146012848
 30
0
 11
2.034388539871522
 21
11.05
 31
0
  0
LINE
  8
0
 62
7
  6
DASHED
 10
2.046520574227484
 20
10.85
 30
0
 11
2.140000000000002
 21
10.94347942577252
 31
0
  0
LINE
  8
0
 62
7
 10
1.840000000000003
 20
10.96167747730646
 30
0
 11
1.92832252269354
 21
11.05
 31
0
  0
LINE
  8
0
 62
7
 10
1.940454557049503
 20
10.85
 30
0
 11
2.140000000000001
 21
11.0495454429505
 31
0
  0
ENDBLK
  8
0
  0
BLOCK
  8
0
  2
*X13
 70
1
 10
0
 20
0
 30
0
  0
LINE
  8
0
 62
7
  6
DASHED
 10
0.4999999999999991
 20
11.00053570062023
 30
0
 11
0.5494642993797729
 21
11.05
 31
0
  0
LINE
  8
0
 62
7
  6
DASHED
 10
0.5615963337357348
 20
10.85
 30
0
 11
0.7399999999999984
 21
11.02840366626426
 31
0
  0
LINE
  8
0
 62
7
 10
0.5000000000000009
 20
10.89446968344225
 30
0
 11
0.655530316557754
 21
11.05
 31
0
  0
LINE
  8
0
 62
7
 10
0.6676623509137176
 20
10.85
 30
0
 11
0.7399999999999975
 21
10.92233764908628
 31
0
  0
ENDBLK
  8
0
  0
BLOCK
  8
0
  2
*X14
 70
1
 10
0
 20
0
 30
0
  0
LINE
  8
0
 62
7
  6
DASHED
 10
0.5
 20
8.242819253992694
 30
0
 11
0.5571807460073019
 21
8.299999999999995
 31
0
  0
LINE
  8
0
 62
7
  6
DASHED
 10
0.5693127803632687
 20
8.099999999999998
 30
0
 11
0.739999999999998
 21
8.270687219636727
 31
0
  0
LINE
  8
0
 62
7
 10
0.5
 20
8.136753236814712
 30
0
 11
0.6632467631852856
 21
8.299999999999997
 31
0
  0
LINE
  8
0
 62
7
 10
0.6753787975412497
 20
8.099999999999998
 30
0
 11
0.7399999999999989
 21
8.164621202458747
 31
0
  0
ENDBLK
  8
0
  0
BLOCK
  8
0
  2
*X15
 70
1
 10
0
 20
0
 30
0
  0
LINE
  8
0
 62
7
 10
4.240000000000001
 20
4.982462120245875
 30
0
 11
4.377537879754123
 21
5.119999999999997
 31
0
  0
LINE
  8
0
 62
7
 10
4.090000000000002
 20
4.832462120245876
 30
0
 11
4.227537879754124
 21
4.969999999999998
 31
0
  0
LINE
  8
0
 62
7
 10
4.199669914110098
 20
4.730000000000001
 30
0
 11
4.439669914110093
 21
4.969999999999997
 31
0
  0
LINE
  8
0
 62
7
 10
4.411801948466062
 20
4.730000000000001
 30
0
 11
4.651801948466057
 21
4.969999999999997
 31
0
  0
LINE
  8
0
 62
7
 10
4.623933982822026
 20
4.730000000000001
 30
0
 11
4.86393398282202
 21
4.969999999999997
 31
0
  0
LINE
  8
0
 62
7
 10
4.836066017177989
 20
4.730000000000001
 30
0
 11
5.076066017177984
 21
4.969999999999997
 31
0
  0
LINE
  8
0
 62
7
 10
5.048198051533953
 20
4.730000000000001
 30
0
 11
5.288198051533948
 21
4.969999999999997
 31
0
  0
LINE
  8
0
 62
7
 10
5.260330085889917
 20
4.730000000000001
 30
0
 11
5.500330085889912
 21
4.969999999999997
 31
0
  0
LINE
  8
0
 62
7
 10
5.472462120245881
 20
4.730000000000001
 30
0
 11
5.712462120245876
 21
4.969999999999997
 31
0
  0
LINE
  8
0
 62
7
 10
5.684594154601845
 20
4.730000000000001
 30
0
 11
5.92459415460184
 21
4.969999999999997
 31
0
  0
LINE
  8
0
 62
7
 10
5.896726188957809
 20
4.730000000000001
 30
0
 11
6.136726188957804
 21
4.969999999999997
 31
0
  0
LINE
  8
0
 62
7
 10
6.108858223313772
 20
4.730000000000001
 30
0
 11
6.348858223313767
 21
4.969999999999997
 31
0
  0
LINE
  8
0
 62
7
 10
6.320990257669736
 20
4.730000000000001
 30
0
 11
6.560990257669731
 21
4.969999999999997
 31
0
  0
LINE
  8
0
 62
7
 10
6.5331222920257
 20
4.730000000000001
 30
0
 11
6.773122292025695
 21
4.969999999999997
 31
0
  0
LINE
  8
0
 62
7
 10
6.745254326381664
 20
4.730000000000001
 30
0
 11
6.985254326381659
 21
4.969999999999997
 31
0
  0
LINE
  8
0
 62
7
 10
6.957386360737628
 20
4.730000000000001
 30
0
 11
7.197386360737623
 21
4.969999999999997
 31
0
  0
LINE
  8
0
 62
7
 10
7.425000000000002
 20
4.985481604906413
 30
0
 11
7.559518395093587
 21
5.119999999999997
 31
0
  0
LINE
  8
0
 62
7
 10
7.169518395093592
 20
4.730000000000001
 30
0
 11
7.409518395093587
 21
4.969999999999997
 31
0
  0
LINE
  8
0
 62
7
 10
7.381650429449556
 20
4.730000000000001
 30
0
 11
7.621650429449552
 21
4.969999999999998
 31
0
  0
LINE
  8
0
 62
7
 10
7.593782463805519
 20
4.730000000000001
 30
0
 11
7.765
 21
4.901217536194482
 31
0
  0
LINE
  8
0
 62
7
 10
4.240000000000002
 20
5.088528137423858
 30
0
 11
4.271471862576141
 21
5.119999999999997
 31
0
  0
LINE
  8
0
 62
7
 10
4.090000000000001
 20
4.938528137423857
 30
0
 11
4.121471862576142
 21
4.969999999999998
 31
0
  0
LINE
  8
0
 62
7
 10
4.093603896932117
 20
4.730000000000002
 30
0
 11
4.415000000000003
 21
5.051396103067895
 31
0
  0
LINE
  8
0
 62
7
 10
4.305735931288081
 20
4.730000000000002
 30
0
 11
4.545735931288077
 21
4.969999999999999
 31
0
  0
LINE
  8
0
 62
7
 10
4.517867965644045
 20
4.730000000000002
 30
0
 11
4.75786796564404
 21
4.969999999999999
 31
0
  0
LINE
  8
0
 62
7
 10
4.730000000000008
 20
4.730000000000002
 30
0
 11
4.970000000000004
 21
4.969999999999999
 31
0
  0
LINE
  8
0
 62
7
 10
4.942132034355972
 20
4.730000000000002
 30
0
 11
5.182132034355968
 21
4.969999999999999
 31
0
  0
LINE
  8
0
 62
7
 10
5.154264068711936
 20
4.730000000000002
 30
0
 11
5.394264068711932
 21
4.969999999999999
 31
0
  0
LINE
  8
0
 62
7
 10
5.3663961030679
 20
4.730000000000002
 30
0
 11
5.606396103067896
 21
4.969999999999999
 31
0
  0
LINE
  8
0
 62
7
 10
5.578528137423864
 20
4.730000000000002
 30
0
 11
5.81852813742386
 21
4.969999999999999
 31
0
  0
LINE
  8
0
 62
7
 10
5.790660171779828
 20
4.730000000000002
 30
0
 11
6.030660171779823
 21
4.969999999999999
 31
0
  0
LINE
  8
0
 62
7
 10
6.002792206135791
 20
4.730000000000002
 30
0
 11
6.242792206135787
 21
4.969999999999999
 31
0
  0
LINE
  8
0
 62
7
 10
6.214924240491755
 20
4.730000000000002
 30
0
 11
6.454924240491751
 21
4.969999999999999
 31
0
  0
LINE
  8
0
 62
7
 10
6.427056274847719
 20
4.730000000000002
 30
0
 11
6.667056274847715
 21
4.969999999999999
 31
0
  0
LINE
  8
0
 62
7
 10
6.639188309203683
 20
4.730000000000002
 30
0
 11
6.879188309203679
 21
4.969999999999999
 31
0
  0
LINE
  8
0
 62
7
 10
6.851320343559647
 20
4.730000000000002
 30
0
 11
7.091320343559643
 21
4.969999999999999
 31
0
  0
LINE
  8
0
 62
7
 10
7.425000000000002
 20
5.091547622084395
 30
0
 11
7.453452377915605
 21
5.119999999999997
 31
0
  0
LINE
  8
0
 62
7
 10
7.063452377915611
 20
4.730000000000002
 30
0
 11
7.303452377915606
 21
4.969999999999999
 31
0
  0
LINE
  8
0
 62
7
 10
7.275584412271574
 20
4.730000000000002
 30
0
 11
7.600000000000001
 21
5.05441558772843
 31
0
  0
LINE
  8
0
 62
7
 10
7.487716446627538
 20
4.730000000000002
 30
0
 11
7.727716446627534
 21
4.969999999999997
 31
0
  0
LINE
  8
0
 62
7
 10
7.699848480983502
 20
4.730000000000002
 30
0
 11
7.765000000000001
 21
4.795151519016501
 31
0
  0
ENDBLK
  8
0
  0
BLOCK
  8
0
  2
*X16
 70
1
 10
0
 20
0
 30
0
  0
LINE
  8
0
 62
7
 10
4.090000000000002
 20
4.620330085889911
 30
0
 11
4.159669914110099
 21
4.690000000000002
 31
0
  0
LINE
  8
0
 62
7
 10
4.131801948466055
 20
4.450000000000001
 30
0
 11
4.371801948466063
 21
4.690000000000002
 31
0
  0
LINE
  8
0
 62
7
 10
4.240000000000001
 20
4.346066017177983
 30
0
 11
4.583933982822026
 21
4.690000000000002
 31
0
  0
LINE
  8
0
 62
7
 10
4.556066017177989
 20
4.450000000000001
 30
0
 11
4.79606601717799
 21
4.690000000000002
 31
0
  0
LINE
  8
0
 62
7
 10
4.240000000000001
 20
4.133933982822019
 30
0
 11
4.415000000000001
 21
4.308933982822018
 31
0
  0
LINE
  8
0
 62
7
 10
4.768198051533953
 20
4.450000000000001
 30
0
 11
5.008198051533954
 21
4.690000000000002
 31
0
  0
LINE
  8
0
 62
7
 10
4.240000000000001
 20
3.921801948466055
 30
0
 11
4.415000000000001
 21
4.096801948466054
 31
0
  0
LINE
  8
0
 62
7
 10
4.980330085889917
 20
4.450000000000001
 30
0
 11
5.220330085889918
 21
4.690000000000002
 31
0
  0
LINE
  8
0
 62
7
 10
4.240000000000001
 20
3.709669914110091
 30
0
 11
4.415000000000001
 21
3.88466991411009
 31
0
  0
LINE
  8
0
 62
7
 10
5.192462120245881
 20
4.450000000000001
 30
0
 11
5.432462120245882
 21
4.690000000000002
 31
0
  0
LINE
  8
0
 62
7
 10
4.240000000000001
 20
3.497537879754126
 30
0
 11
4.415000000000001
 21
3.672537879754126
 31
0
  0
LINE
  8
0
 62
7
 10
5.404594154601845
 20
4.450000000000001
 30
0
 11
5.644594154601846
 21
4.690000000000002
 31
0
  0
LINE
  8
0
 62
7
 10
4.240000000000001
 20
3.285405845398162
 30
0
 11
4.415000000000001
 21
3.460405845398161
 31
0
  0
LINE
  8
0
 62
7
 10
5.616726188957808
 20
4.450000000000001
 30
0
 11
5.856726188957809
 21
4.690000000000002
 31
0
  0
LINE
  8
0
 62
7
 10
5.828858223313772
 20
4.450000000000001
 30
0
 11
6.068858223313773
 21
4.690000000000002
 31
0
  0
LINE
  8
0
 62
7
 10
6.040990257669736
 20
4.450000000000001
 30
0
 11
6.280990257669737
 21
4.690000000000002
 31
0
  0
LINE
  8
0
 62
7
 10
6.2531222920257
 20
4.450000000000001
 30
0
 11
6.493122292025701
 21
4.690000000000002
 31
0
  0
LINE
  8
0
 62
7
 10
6.465254326381664
 20
4.450000000000001
 30
0
 11
6.705254326381665
 21
4.690000000000002
 31
0
  0
LINE
  8
0
 62
7
 10
6.677386360737628
 20
4.450000000000001
 30
0
 11
6.917386360737629
 21
4.690000000000002
 31
0
  0
LINE
  8
0
 62
7
 10
6.889518395093591
 20
4.450000000000001
 30
0
 11
7.129518395093593
 21
4.690000000000002
 31
0
  0
LINE
  8
0
 62
7
 10
7.101650429449555
 20
4.450000000000001
 30
0
 11
7.341650429449556
 21
4.690000000000002
 31
0
  0
LINE
  8
0
 62
7
 10
7.313782463805519
 20
4.450000000000001
 30
0
 11
7.55378246380552
 21
4.690000000000002
 31
0
  0
LINE
  8
0
 62
7
 10
7.425000000000002
 20
4.34908550183852
 30
0
 11
7.765000000000001
 21
4.689085501838518
 31
0
  0
LINE
  8
0
 62
7
 10
7.738046532517447
 20
4.450000000000001
 30
0
 11
7.765000000000001
 21
4.476953467482554
 31
0
  0
LINE
  8
0
 62
7
 10
7.425000000000002
 20
4.136953467482556
 30
0
 11
7.600000000000001
 21
4.311953467482555
 31
0
  0
LINE
  8
0
 62
7
 10
7.425000000000002
 20
3.924821433126592
 30
0
 11
7.600000000000001
 21
4.099821433126591
 31
0
  0
LINE
  8
0
 62
7
 10
7.425000000000002
 20
3.712689398770628
 30
0
 11
7.600000000000001
 21
3.887689398770627
 31
0
  0
LINE
  8
0
 62
7
 10
7.425000000000002
 20
3.500557364414663
 30
0
 11
7.600000000000001
 21
3.675557364414662
 31
0
  0
LINE
  8
0
 62
7
 10
7.486574669941303
 20
3.35
 30
0
 11
7.600000000000001
 21
3.463425330058698
 31
0
  0
LINE
  8
0
 62
7
 10
4.090000000000001
 20
4.514264068711928
 30
0
 11
4.265735931288081
 21
4.690000000000002
 31
0
  0
LINE
  8
0
 62
7
 10
4.237867965644038
 20
4.450000000000001
 30
0
 11
4.477867965644045
 21
4.690000000000002
 31
0
  0
LINE
  8
0
 62
7
 10
4.450000000000008
 20
4.450000000000002
 30
0
 11
4.690000000000008
 21
4.690000000000002
 31
0
  0
LINE
  8
0
 62
7
 10
4.240000000000001
 20
4.24
 30
0
 11
4.415000000000003
 21
4.415000000000001
 31
0
  0
LINE
  8
0
 62
7
 10
4.662132034355972
 20
4.450000000000002
 30
0
 11
4.902132034355972
 21
4.690000000000002
 31
0
  0
LINE
  8
0
 62
7
 10
4.240000000000001
 20
4.027867965644036
 30
0
 11
4.415000000000003
 21
4.202867965644037
 31
0
  0
LINE
  8
0
 62
7
 10
4.874264068711936
 20
4.450000000000002
 30
0
 11
5.114264068711936
 21
4.690000000000002
 31
0
  0
LINE
  8
0
 62
7
 10
4.240000000000001
 20
3.815735931288073
 30
0
 11
4.415000000000003
 21
3.990735931288073
 31
0
  0
LINE
  8
0
 62
7
 10
5.0863961030679
 20
4.450000000000002
 30
0
 11
5.3263961030679
 21
4.690000000000002
 31
0
  0
LINE
  8
0
 62
7
 10
4.240000000000001
 20
3.603603896932108
 30
0
 11
4.415000000000003
 21
3.778603896932109
 31
0
  0
LINE
  8
0
 62
7
 10
5.298528137423864
 20
4.450000000000002
 30
0
 11
5.538528137423864
 21
4.690000000000002
 31
0
  0
LINE
  8
0
 62
7
 10
4.240000000000001
 20
3.391471862576144
 30
0
 11
4.415000000000003
 21
3.566471862576145
 31
0
  0
LINE
  8
0
 62
7
 10
5.510660171779827
 20
4.450000000000002
 30
0
 11
5.750660171779828
 21
4.690000000000002
 31
0
  0
LINE
  8
0
 62
7
 10
4.310660171779822
 20
3.25
 30
0
 11
4.415000000000003
 21
3.354339828220181
 31
0
  0
LINE
  8
0
 62
7
 10
5.722792206135791
 20
4.450000000000002
 30
0
 11
5.962792206135791
 21
4.690000000000002
 31
0
  0
LINE
  8
0
 62
7
 10
5.934924240491755
 20
4.450000000000002
 30
0
 11
6.174924240491755
 21
4.690000000000002
 31
0
  0
LINE
  8
0
 62
7
 10
6.147056274847719
 20
4.450000000000002
 30
0
 11
6.387056274847719
 21
4.690000000000002
 31
0
  0
LINE
  8
0
 62
7
 10
6.359188309203683
 20
4.450000000000002
 30
0
 11
6.599188309203683
 21
4.690000000000002
 31
0
  0
LINE
  8
0
 62
7
 10
6.571320343559647
 20
4.450000000000002
 30
0
 11
6.811320343559647
 21
4.690000000000002
 31
0
  0
LINE
  8
0
 62
7
 10
6.78345237791561
 20
4.450000000000002
 30
0
 11
7.023452377915611
 21
4.690000000000002
 31
0
  0
LINE
  8
0
 62
7
 10
6.995584412271574
 20
4.450000000000002
 30
0
 11
7.235584412271574
 21
4.690000000000002
 31
0
  0
LINE
  8
0
 62
7
 10
7.207716446627538
 20
4.450000000000002
 30
0
 11
7.447716446627538
 21
4.690000000000002
 31
0
  0
LINE
  8
0
 62
7
 10
7.419848480983502
 20
4.450000000000002
 30
0
 11
7.659848480983502
 21
4.690000000000002
 31
0
  0
LINE
  8
0
 62
7
 10
7.631980515339466
 20
4.450000000000001
 30
0
 11
7.765000000000001
 21
4.583019484660536
 31
0
  0
LINE
  8
0
 62
7
 10
7.425000000000002
 20
4.243019484660537
 30
0
 11
7.600000000000001
 21
4.418019484660537
 31
0
  0
LINE
  8
0
 62
7
 10
7.425000000000002
 20
4.030887450304573
 30
0
 11
7.600000000000001
 21
4.205887450304573
 31
0
  0
LINE
  8
0
 62
7
 10
7.425000000000002
 20
3.818755415948609
 30
0
 11
7.600000000000001
 21
3.993755415948609
 31
0
  0
LINE
  8
0
 62
7
 10
7.425000000000002
 20
3.606623381592645
 30
0
 11
7.600000000000001
 21
3.781623381592645
 31
0
  0
LINE
  8
0
 62
7
 10
7.425000000000001
 20
3.394491347236679
 30
0
 11
7.600000000000001
 21
3.56949134723668
 31
0
  0
LINE
  8
0
 62
7
 10
7.592640687119285
 20
3.35
 30
0
 11
7.600000000000001
 21
3.357359312880716
 31
0
  0
ENDBLK
  8
0
  0
BLOCK
  8
0
  2
*D0
 70
1
 10
0
 20
0
 30
0
  0
LINE
  8
0
 62
7
 10
8.128271708397181
 20
10.24573110032363
 30
0
 11
8.128271708397181
 21
11.05
 31
0
  0
LINE
  8
0
 62
7
 10
8.128271708397181
 20
8.299999999999999
 30
0
 11
8.128271708397181
 21
9.165731100323631
 31
0
  0
LINE
  8
0
 62
7
 10
7.750000000000002
 20
11.05
 30
0
 11
8.178271708397181
 21
11.05
 31
0
  0
LINE
  8
0
 62
7
 10
7.750000000000002
 20
8.299999999999999
 30
0
 11
8.178271708397181
 21
8.299999999999999
 31
0
  0
LINE
  8
0
 62
7
 10
8.092916369337853
 20
8.335355339059326
 30
0
 11
8.163627047456508
 21
8.264644660940672
 31
0
  0
LINE
  8
0
 62
7
 10
8.163627047456508
 20
11.01464466094067
 30
0
 11
8.092916369337853
 21
11.08535533905933
 31
0
  0
TEXT
  8
0
 62
7
 10
8.098271708397181
 20
9.568231100323633
 30
0
 40
0.1
  1
2,75
 50
90
 41
0.9
  0
TEXT
  8
0
 62
7
 10
8.258271708397181
 20
9.365731100323632
 30
0
 40
0.1
  1
(260-280)
 50
90
 41
0.9
  0
ENDBLK
  8
0
  0
BLOCK
  8
0
  2
*D1
 70
1
 10
0
 20
0
 30
0
  0
LINE
  8
0
 62
7
 10
6.15426765230225
 20
11.4972447357066
 30
0
 11
7.425000000000002
 21
11.4972447357066
 31
0
  0
LINE
  8
0
 62
7
 10
4.415000000000002
 20
11.4972447357066
 30
0
 11
5.509267652302251
 21
11.4972447357066
 31
0
  0
LINE
  8
0
 62
7
 10
7.425000000000002
 20
11.2
 30
0
 11
7.425000000000002
 21
11.5472447357066
 31
0
  0
LINE
  8
0
 62
7
 10
4.415000000000002
 20
11.2
 30
0
 11
4.415000000000002
 21
11.5472447357066
 31
0
  0
LINE
  8
0
 62
7
 10
7.389644660940675
 20
11.46188939664727
 30
0
 11
7.46035533905933
 21
11.53260007476593
 31
0
  0
LINE
  8
0
 62
7
 10
4.450355339059329
 20
11.53260007476593
 30
0
 11
4.379644660940675
 21
11.46188939664727
 31
0
  0
TEXT
  8
0
 62
7
 10
5.709267652302251
 20
11.4522447357066
 30
0
 40
0.1
  1
3,01
 41
0.9
  0
ENDBLK
  8
0
  0
BLOCK
  8
0
  2
*D2
 70
1
 10
0
 20
0
 30
0
  0
LINE
  8
0
 62
7
 10
3.84787671379093
 20
4.20179409924488
 30
0
 11
3.84787671379093
 21
4.450000000000001
 31
0
  0
LINE
  8
0
 62
7
 10
3.84787671379093
 20
3.25
 30
0
 11
3.84787671379093
 21
3.54679409924488
 31
0
  0
LINE
  8
0
 62
7
 10
4.240000000000001
 20
4.450000000000001
 30
0
 11
3.79787671379093
 21
4.450000000000001
 31
0
  0
LINE
  8
0
 62
7
 10
4.240000000000001
 20
3.25
 30
0
 11
3.79787671379093
 21
3.25
 31
0
  0
LINE
  8
0
 62
7
 10
3.812521374731603
 20
3.285355339059327
 30
0
 11
3.883232052850258
 21
3.214644660940673
 31
0
  0
LINE
  8
0
 62
7
 10
3.883232052850258
 20
4.414644660940674
 30
0
 11
3.812521374731603
 21
4.485355339059328
 31
0
  0
TEXT
  8
0
 62
7
 10
3.89287671379093
 20
3.79679409924488
 30
0
 40
0.1
  1
1,2
 50
90
 41
0.9
  0
ENDBLK
  8
0
  0
BLOCK
  8
0
  2
*D3
 70
1
 10
0
 20
0
 30
0
  0
LINE
  8
0
 62
7
 10
6.288432722420921
 20
5.34117103559871
 30
0
 11
7.425000000000001
 21
5.34117103559871
 31
0
  0
LINE
  8
0
 62
7
 10
4.415000000000001
 20
5.34117103559871
 30
0
 11
5.54343272242092
 21
5.34117103559871
 31
0
  0
LINE
  8
0
 62
7
 10
7.425000000000001
 20
4.969999999999998
 30
0
 11
7.425000000000001
 21
5.39117103559871
 31
0
  0
LINE
  8
0
 62
7
 10
4.415000000000001
 20
4.969999999999998
 30
0
 11
4.415000000000001
 21
5.39117103559871
 31
0
  0
LINE
  8
0
 62
7
 10
4.450355339059328
 20
5.376526374658037
 30
0
 11
4.379644660940674
 21
5.305815696539383
 31
0
  0
LINE
  8
0
 62
7
 10
7.389644660940673
 20
5.305815696539383
 30
0
 11
7.460355339059328
 21
5.376526374658037
 31
0
  0
TEXT
  8
0
 62
7
 10
5.793432722420921
 20
5.29617103559871
 30
0
 40
0.1
  1
3,01
 41
0.9
  0
ENDBLK
  8
0
  0
BLOCK
  8
0
  2
*D4
 70
1
 10
0
 20
0
 30
0
  0
LINE
  8
0
 62
7
 10
7.97196514960538
 20
4.22286484358145
 30
0
 11
7.97196514960538
 21
4.450000000000001
 31
0
  0
LINE
  8
0
 62
7
 10
7.97196514960538
 20
3.35
 30
0
 11
7.97196514960538
 21
3.59786484358145
 31
0
  0
LINE
  8
0
 62
7
 10
7.600000000000001
 20
4.450000000000001
 30
0
 11
8.02196514960538
 21
4.450000000000001
 31
0
  0
LINE
  8
0
 62
7
 10
7.600000000000001
 20
3.35
 30
0
 11
8.02196514960538
 21
3.35
 31
0
  0
LINE
  8
0
 62
7
 10
8.007320488664707
 20
4.414644660940674
 30
0
 11
7.936609810546052
 21
4.485355339059328
 31
0
  0
LINE
  8
0
 62
7
 10
7.936609810546052
 20
3.385355339059327
 30
0
 11
8.007320488664707
 21
3.314644660940673
 31
0
  0
TEXT
  8
0
 62
7
 10
8.01696514960538
 20
3.84786484358145
 30
0
 40
0.1
  1
1,1
 50
90
 41
0.9
  0
ENDBLK
  8
0
  0
ENDSEC
  0
SECTION
  2
ENTITIES
  0
INSERT
  8
0
  2
*X0
 10
0
 20
0
 30
0
  0
INSERT
  8
0
  2
*X1
 10
0
 20
0
 30
0
  0
INSERT
  8
0
  2
*X2
 10
0
 20
0
 30
0
  0
INSERT
  8
0
  2
*X3
 10
0
 20
0
 30
0
  0
INSERT
  8
0
  2
*X4
 10
0
 20
0
 30
0
  0
INSERT
  8
0
  2
*X5
 10
0
 20
0
 30
0
  0
INSERT
  8
0
  2
*X6
 10
0
 20
0
 30
0
  0
INSERT
  8
0
  2
*X7
 10
0
 20
0
 30
0
  0
INSERT
  8
0
  2
*X8
 10
0
 20
0
 30
0
  0
INSERT
  8
0
  2
*X9
 10
0
 20
0
 30
0
  0
INSERT
  8
0
  2
*X10
 10
0
 20
0
 30
0
  0
INSERT
  8
0
  2
*X11
 10
0
 20
0
 30
0
  0
INSERT
  8
0
  2
*X12
 10
0
 20
0
 30
0
  0
INSERT
  8
0
  2
*X13
 10
0
 20
0
 30
0
  0
INSERT
  8
0
  2
*X14
 10
0
 20
0
 30
0
  0
INSERT
  8
0
  2
*X15
 10
0
 20
0
 30
0
  0
INSERT
  8
0
  2
*X16
 10
0
 20
0
 30
0
  0
LINE
  8
0
 62
7
 10
6.46
 20
3.444340211322816
 30
0
 11
6.460000000000001
 21
3.385000000000001
 31
0
  0
LINE
  8
0
 62
7
 10
6.336213791940832
 20
3.546361811371581
 30
0
 11
6.46
 21
3.444340211322816
 31
0
  0
LINE
  8
0
 62
7
 10
5.430581322808283
 20
3.489300695506699
 30
0
 11
5.440794110939341
 21
3.485000000000001
 31
0
  0
LINE
  8
0
 62
7
 10
5.380000000000002
 20
3.448784184173078
 30
0
 11
5.430581322808283
 21
3.489300695506699
 31
0
  0
LINE
  8
0
 62
7
 10
5.380000000000002
 20
3.250000000000001
 30
0
 11
5.380000000000002
 21
3.448784184173078
 31
0
  0
LINE
  8
0
 62
7
 10
4.470000000000002
 20
3.611069053728221
 30
0
 11
4.470000000000002
 21
3.250000000000001
 31
0
  0
LINE
  8
0
 62
7
 10
4.470000000000002
 20
3.250000000000001
 30
0
 11
5.380000000000002
 21
3.250000000000001
 31
0
  0
LINE
  8
0
 62
7
 10
4.470000000000002
 20
3.991464460940778
 30
0
 11
4.470000000000002
 21
3.520605887586589
 31
0
  0
LINE
  8
0
 62
7
 10
5.357156388566991
 20
3.430486057707811
 30
0
 11
5.380000000000002
 21
3.448784184173078
 31
0
  0
LINE
  8
0
 62
7
 10
4.470000000000002
 20
3.520605887586589
 30
0
 11
5.357156388566991
 21
3.430486057707811
 31
0
  0
LINE
  8
0
 62
7
 10
4.470000000000002
 20
4.395000000000001
 30
0
 11
4.470000000000002
 21
3.893809995592358
 31
0
  0
LINE
  8
0
 62
7
 10
4.611157996297371
 20
4.395000000000001
 30
0
 11
4.470000000000002
 21
4.395000000000001
 31
0
  0
LINE
  8
0
 62
7
 10
5.440794110939341
 20
3.485000000000001
 30
0
 11
5.660644788916041
 21
3.485000000000001
 31
0
  0
LINE
  8
0
 62
7
 10
4.470000000000002
 20
3.893809995592358
 30
0
 11
5.430581322808283
 21
3.489300695506699
 31
0
  0
LINE
  8
0
 62
7
 10
5.089289334889349
 20
4.395000000000001
 30
0
 11
4.473777195406669
 21
4.395000000000001
 31
0
  0
LINE
  8
0
 62
7
 10
5.523263988025342
 20
3.485000000000001
 30
0
 11
5.732658876613751
 21
3.485000000000001
 31
0
  0
LINE
  8
0
 62
7
 10
4.473777195406669
 20
4.395000000000001
 30
0
 11
5.523263988025342
 21
3.485000000000001
 31
0
  0
LINE
  8
0
 62
7
 10
5.421210079311733
 20
4.395000000000001
 30
0
 11
4.979067870863172
 21
4.395000000000001
 31
0
  0
LINE
  8
0
 62
7
 10
5.622437412587573
 20
3.485000000000001
 30
0
 11
5.824195028522059
 21
3.485000000000001
 31
0
  0
LINE
  8
0
 62
7
 10
4.979067870863172
 20
4.395000000000001
 30
0
 11
5.622437412587573
 21
3.485000000000001
 31
0
  0
LINE
  8
0
 62
7
 10
5.744957359296351
 20
4.395000000000001
 30
0
 11
5.322780037245929
 21
4.395000000000001
 31
0
  0
LINE
  8
0
 62
7
 10
5.725764986456261
 20
3.485000000000001
 30
0
 11
5.919048667994341
 21
3.485000000000001
 31
0
  0
LINE
  8
0
 62
7
 10
5.322780037245929
 20
4.395000000000001
 30
0
 11
5.725764986456261
 21
3.485000000000001
 31
0
  0
LINE
  8
0
 62
7
 10
6.076474811003849
 20
4.395000000000001
 30
0
 11
5.653325195808591
 21
4.395000000000001
 31
0
  0
LINE
  8
0
 62
7
 10
5.827416504506569
 20
3.485000000000001
 30
0
 11
6.016192429800741
 21
3.485000000000001
 31
0
  0
LINE
  8
0
 62
7
 10
5.653325195808591
 20
4.395000000000001
 30
0
 11
5.827416504506569
 21
3.485000000000001
 31
0
  0
LINE
  8
0
 62
7
 10
6.41672540482422
 20
4.395000000000001
 30
0
 11
5.98627755290018
 21
4.395000000000001
 31
0
  0
LINE
  8
0
 62
7
 10
5.925995171697072
 20
3.485000000000001
 30
0
 11
6.115909926444831
 21
3.485000000000001
 31
0
  0
LINE
  8
0
 62
7
 10
5.98627755290018
 20
4.395000000000001
 30
0
 11
5.925995171697072
 21
3.485000000000001
 31
0
  0
LINE
  8
0
 62
7
 10
6.765134232666501
 20
4.395000000000001
 30
0
 11
6.321935527237191
 21
4.395000000000001
 31
0
  0
LINE
  8
0
 62
7
 10
6.021120048857801
 20
3.485000000000001
 30
0
 11
6.218031828442053
 21
3.485000000000001
 31
0
  0
LINE
  8
0
 62
7
 10
6.321935527237191
 20
4.395000000000001
 30
0
 11
6.021120048857801
 21
3.485000000000001
 31
0
  0
LINE
  8
0
 62
7
 10
7.185373957059823
 20
4.395000000000001
 30
0
 11
6.660120961990092
 21
4.395000000000001
 31
0
  0
LINE
  8
0
 62
7
 10
6.113018557765631
 20
3.485000000000001
 30
0
 11
6.319472819064963
 21
3.485000000000001
 31
0
  0
LINE
  8
0
 62
7
 10
6.660120961990092
 20
4.395000000000001
 30
0
 11
6.113018557765631
 21
3.485000000000001
 31
0
  0
LINE
  8
0
 62
7
 10
7.370000000000002
 20
4.395000000000001
 30
0
 11
7.061140445591601
 21
4.395000000000001
 31
0
  0
LINE
  8
0
 62
7
 10
7.370000000000002
 20
4.028059173431521
 30
0
 11
7.370000000000002
 21
4.395000000000001
 31
0
  0
LINE
  8
0
 62
7
 10
6.195239307596752
 20
3.485000000000001
 30
0
 11
6.410515114476222
 21
3.485000000000001
 31
0
  0
LINE
  8
0
 62
7
 10
7.061140445591601
 20
4.395000000000001
 30
0
 11
6.195239307596752
 21
3.485000000000001
 31
0
  0
LINE
  8
0
 62
7
 10
7.370000000000002
 20
3.64320643890095
 30
0
 11
7.370000000000002
 21
4.131474815363361
 31
0
  0
LINE
  8
0
 62
7
 10
7.370000000000002
 20
4.131474815363361
 30
0
 11
6.336213791940832
 21
3.546361811371581
 31
0
  0
LINE
  8
0
 62
7
 10
7.370000000000002
 20
3.385000000000001
 30
0
 11
7.370000000000002
 21
3.73606442842696
 31
0
  0
LINE
  8
0
 62
7
 10
6.460000000000001
 20
3.504918541674061
 30
0
 11
6.46
 21
3.444340211322816
 31
0
  0
LINE
  8
0
 62
7
 10
7.370000000000002
 20
3.73606442842696
 30
0
 11
6.460000000000001
 21
3.504918541674061
 31
0
  0
LINE
  8
0
 62
7
 10
6.970268080462083
 20
3.484999999990292
 30
0
 11
6.970268080462083
 21
3.400000000000001
 31
0
  0
LINE
  8
0
 62
7
 10
7.075923179723779
 20
3.461
 30
0
 11
6.970268080462083
 21
3.400000000000001
 31
0
  0
LINE
  8
0
 62
7
 10
6.86461298120038
 20
3.461
 30
0
 11
7.075923179723779
 21
3.461
 31
0
  0
LINE
  8
0
 62
7
 10
6.970268080462083
 20
3.400000000000001
 30
0
 11
6.86461298120038
 21
3.461
 31
0
  0
LINE
  8
0
 62
7
 10
5.380000000009712
 20
3.99526808046208
 30
0
 11
6.459999999995621
 21
3.99526808046208
 31
0
  0
LINE
  8
0
 62
7
 10
4.869731919537921
 20
3.250000000000001
 30
0
 11
4.869731919537921
 21
3.484999999997781
 31
0
  0
LINE
  8
0
 62
7
 10
4.469999470000002
 20
8.596800069999997
 30
0
 11
5.380000000000003
 21
8.596800069999997
 31
0
  0
LINE
  8
0
 62
7
 10
4.469999470000002
 20
8.531800069999996
 30
0
 11
4.469999470000002
 21
8.596800069999997
 31
0
  0
LINE
  8
0
 62
7
 10
5.380000000000003
 20
8.596800069999997
 30
0
 11
5.380000000000003
 21
8.531800069999996
 31
0
  0
LINE
  8
0
 62
7
 10
5.380000000000003
 20
8.531800069999996
 30
0
 11
4.469999470000002
 21
8.531800069999996
 31
0
  0
LINE
  8
0
 62
7
 10
4.469999990000002
 20
8.793200059999995
 30
0
 11
5.510486990000004
 21
8.793200059999995
 31
0
  0
LINE
  8
0
 62
7
 10
5.510486990000004
 20
8.728200059999997
 30
0
 11
4.469999990000002
 21
8.728200059999997
 31
0
  0
LINE
  8
0
 62
7
 10
4.469999990000002
 20
8.728200059999997
 30
0
 11
4.469999990000002
 21
8.793200059999995
 31
0
  0
LINE
  8
0
 62
7
 10
5.510486990000004
 20
8.793200059999995
 30
0
 11
5.510486990000004
 21
8.728200059999997
 31
0
  0
LINE
  8
0
 62
7
 10
5.660645830000004
 20
8.924600059999996
 30
0
 11
4.469999970000003
 21
8.924600059999996
 31
0
  0
LINE
  8
0
 62
7
 10
4.469999970000003
 20
8.989600059999995
 30
0
 11
5.660645830000004
 21
8.989600059999995
 31
0
  0
LINE
  8
0
 62
7
 10
4.469999970000003
 20
8.924600059999996
 30
0
 11
4.469999970000003
 21
8.989600059999995
 31
0
  0
LINE
  8
0
 62
7
 10
5.660645830000004
 20
8.989600059999995
 30
0
 11
5.660645830000004
 21
8.924600059999996
 31
0
  0
LINE
  8
0
 62
7
 10
5.732659760000002
 20
9.121000049999996
 30
0
 11
4.473778080000002
 21
9.121000049999996
 31
0
  0
LINE
  8
0
 62
7
 10
4.473778080000002
 20
9.186000049999995
 30
0
 11
5.732659760000002
 21
9.186000049999995
 31
0
  0
LINE
  8
0
 62
7
 10
4.473778080000002
 20
9.121000049999996
 30
0
 11
4.473778080000002
 21
9.186000049999995
 31
0
  0
LINE
  8
0
 62
7
 10
5.732659760000002
 20
9.186000049999995
 30
0
 11
5.732659760000002
 21
9.121000049999996
 31
0
  0
LINE
  8
0
 62
7
 10
5.824195560000002
 20
9.317400049999994
 30
0
 11
4.979068610000002
 21
9.317400049999994
 31
0
  0
LINE
  8
0
 62
7
 10
4.979068610000002
 20
9.382400049999996
 30
0
 11
5.824195560000002
 21
9.382400049999996
 31
0
  0
LINE
  8
0
 62
7
 10
4.979068610000002
 20
9.317400049999994
 30
0
 11
4.979068610000002
 21
9.382400049999996
 31
0
  0
LINE
  8
0
 62
7
 10
5.824195560000002
 20
9.382400049999996
 30
0
 11
5.824195560000002
 21
9.317400049999994
 31
0
  0
LINE
  8
0
 62
7
 10
5.919049070000003
 20
9.513800039999996
 30
0
 11
5.322780690000002
 21
9.513800039999996
 31
0
  0
LINE
  8
0
 62
7
 10
5.322780690000002
 20
9.578800039999996
 30
0
 11
5.919049070000003
 21
9.578800039999996
 31
0
  0
LINE
  8
0
 62
7
 10
5.322780690000002
 20
9.513800039999996
 30
0
 11
5.322780690000002
 21
9.578800039999996
 31
0
  0
LINE
  8
0
 62
7
 10
5.919049070000003
 20
9.578800039999996
 30
0
 11
5.919049070000003
 21
9.513800039999996
 31
0
  0
LINE
  8
0
 62
7
 10
6.076475830000003
 20
9.710200029999998
 30
0
 11
5.653325270000004
 21
9.710200029999998
 31
0
  0
LINE
  8
0
 62
7
 10
5.653325270000004
 20
9.775200029999997
 30
0
 11
6.076475830000003
 21
9.775200029999997
 31
0
  0
LINE
  8
0
 62
7
 10
5.653325270000004
 20
9.710200029999998
 30
0
 11
5.653325270000004
 21
9.775200029999997
 31
0
  0
LINE
  8
0
 62
7
 10
6.076475830000003
 20
9.775200029999997
 30
0
 11
6.076475830000003
 21
9.710200029999998
 31
0
  0
LINE
  8
0
 62
7
 10
6.416726080000003
 20
9.906600029999996
 30
0
 11
5.925995940000002
 21
9.906600029999996
 31
0
  0
LINE
  8
0
 62
7
 10
5.925995940000002
 20
9.971600029999998
 30
0
 11
6.416726080000003
 21
9.971600029999998
 31
0
  0
LINE
  8
0
 62
7
 10
5.925995940000002
 20
9.906600029999996
 30
0
 11
5.925995940000002
 21
9.971600029999998
 31
0
  0
LINE
  8
0
 62
7
 10
6.416726080000003
 20
9.971600029999998
 30
0
 11
6.416726080000003
 21
9.906600029999996
 31
0
  0
LINE
  8
0
 62
7
 10
6.765134280000002
 20
10.10300002
 30
0
 11
6.021120610000004
 21
10.10300002
 31
0
  0
LINE
  8
0
 62
7
 10
6.021120610000004
 20
10.16800002
 30
0
 11
6.765134280000002
 21
10.16800002
 31
0
  0
LINE
  8
0
 62
7
 10
6.021120610000004
 20
10.10300002
 30
0
 11
6.021120610000004
 21
10.16800002
 31
0
  0
LINE
  8
0
 62
7
 10
6.765134280000002
 20
10.16800002
 30
0
 11
6.765134280000002
 21
10.10300002
 31
0
  0
LINE
  8
0
 62
7
 10
7.185374760000002
 20
10.29940002
 30
0
 11
6.113018800000003
 21
10.29940002
 31
0
  0
LINE
  8
0
 62
7
 10
6.113018800000003
 20
10.36440002
 30
0
 11
7.185374760000002
 21
10.36440002
 31
0
  0
LINE
  8
0
 62
7
 10
6.113018800000003
 20
10.29940002
 30
0
 11
6.113018800000003
 21
10.36440002
 31
0
  0
LINE
  8
0
 62
7
 10
7.185374760000002
 20
10.36440002
 30
0
 11
7.185374760000002
 21
10.29940002
 31
0
  0
LINE
  8
0
 62
7
 10
7.370000000000002
 20
10.49580001
 30
0
 11
6.195240630000003
 21
10.49580001
 31
0
  0
LINE
  8
0
 62
7
 10
6.195240630000003
 20
10.56080001
 30
0
 11
7.370000000000002
 21
10.56080001
 31
0
  0
LINE
  8
0
 62
7
 10
6.195240630000003
 20
10.49580001
 30
0
 11
6.195240630000003
 21
10.56080001
 31
0
  0
LINE
  8
0
 62
7
 10
7.370000000000002
 20
10.56080001
 30
0
 11
7.370000000000002
 21
10.49580001
 31
0
  0
LINE
  8
0
 62
7
 10
6.336214450000002
 20
10.7572
 30
0
 11
7.370000000000002
 21
10.7572
 31
0
  0
LINE
  8
0
 62
7
 10
7.370000000000002
 20
10.6922
 30
0
 11
6.336214450000002
 21
10.6922
 31
0
  0
LINE
  8
0
 62
7
 10
6.336214450000002
 20
10.6922
 30
0
 11
6.336214450000002
 21
10.7572
 31
0
  0
LINE
  8
0
 62
7
 10
7.370000000000002
 20
10.7572
 30
0
 11
7.370000000000002
 21
10.6922
 31
0
  0
LINE
  8
0
 62
7
  6
DASHED
 10
6.460000000000003
 20
10.95359999999999
 30
0
 11
7.370000000000002
 21
10.95359999999999
 31
0
  0
LINE
  8
0
 62
7
  6
DASHED
 10
6.460000000000003
 20
10.88859999999999
 30
0
 11
6.460000000000003
 21
10.95359999999999
 31
0
  0
LINE
  8
0
 62
7
  6
DASHED
 10
7.370000000000002
 20
10.95359999999999
 30
0
 11
7.370000000000002
 21
10.88859999999999
 31
0
  0
LINE
  8
0
 62
7
  6
DASHED
 10
7.370000000000002
 20
10.88859999999999
 30
0
 11
6.460000000000003
 21
10.88859999999999
 31
0
  0
LINE
  8
0
 62
7
 10
1.57893097
 20
8.596800069999997
 30
0
 11
1.940000120000003
 21
8.596800069999997
 31
0
  0
LINE
  8
0
 62
7
 10
1.940000120000003
 20
8.531800069999996
 30
0
 11
1.57893097
 21
8.531800069999996
 31
0
  0
LINE
  8
0
 62
7
 10
1.940000120000003
 20
8.596800069999997
 30
0
 11
1.940000120000003
 21
8.531800069999996
 31
0
  0
LINE
  8
0
 62
7
 10
1.57893097
 20
8.531800069999996
 30
0
 11
1.57893097
 21
8.596800069999997
 31
0
  0
LINE
  8
0
 62
7
 10
1.759513860000001
 20
8.728200059999997
 30
0
 11
1.198535460000001
 21
8.728200059999997
 31
0
  0
LINE
  8
0
 62
7
 10
1.198535460000001
 20
8.793200059999995
 30
0
 11
1.759513860000001
 21
8.793200059999995
 31
0
  0
LINE
  8
0
 62
7
 10
1.759513860000001
 20
8.793200059999995
 30
0
 11
1.759513860000001
 21
8.728200059999997
 31
0
  0
LINE
  8
0
 62
7
 10
1.198535460000001
 20
8.728200059999997
 30
0
 11
1.198535460000001
 21
8.793200059999995
 31
0
  0
LINE
  8
0
 62
7
 10
0.7950000000000018
 20
8.989600059999995
 30
0
 11
1.705000000000002
 21
8.989600059999995
 31
0
  0
LINE
  8
0
 62
7
 10
1.705000000000002
 20
8.924600059999996
 30
0
 11
0.7950000000000018
 21
8.924600059999996
 31
0
  0
LINE
  8
0
 62
7
 10
1.705000000000002
 20
8.989600059999995
 30
0
 11
1.705000000000002
 21
8.924600059999996
 31
0
  0
LINE
  8
0
 62
7
 10
0.7950000000000018
 20
8.924600059999996
 30
0
 11
0.7950000000000018
 21
8.989600059999995
 31
0
  0
LINE
  8
0
 62
7
 10
0.7949998500000022
 20
9.186000049999995
 30
0
 11
1.705000120000003
 21
9.186000049999995
 31
0
  0
LINE
  8
0
 62
7
 10
1.705000120000003
 20
9.186000049999995
 30
0
 11
1.705000120000003
 21
9.121000049999996
 31
0
  0
LINE
  8
0
 62
7
 10
0.7949998500000022
 20
9.121000049999996
 30
0
 11
0.7949998500000022
 21
9.186000049999995
 31
0
  0
LINE
  8
0
 62
7
 10
1.705000120000003
 20
9.121000049999996
 30
0
 11
0.7949998500000022
 21
9.121000049999996
 31
0
  0
LINE
  8
0
 62
7
 10
0.7949998500000022
 20
9.382400049999998
 30
0
 11
1.70500008
 21
9.382400049999998
 31
0
  0
LINE
  8
0
 62
7
 10
1.70500008
 20
9.382400049999998
 30
0
 11
1.70500008
 21
9.317400049999996
 31
0
  0
LINE
  8
0
 62
7
 10
0.7949998500000022
 20
9.317400049999996
 30
0
 11
0.7949998500000022
 21
9.382400049999998
 31
0
  0
LINE
  8
0
 62
7
 10
1.70500008
 20
9.317400049999996
 30
0
 11
0.7949998500000022
 21
9.317400049999996
 31
0
  0
LINE
  8
0
 62
7
 10
0.7949998500000022
 20
9.578800039999997
 30
0
 11
1.70500023
 21
9.578800039999997
 31
0
  0
LINE
  8
0
 62
7
 10
1.70500023
 20
9.578800039999997
 30
0
 11
1.70500023
 21
9.513800039999996
 31
0
  0
LINE
  8
0
 62
7
 10
0.7949998500000022
 20
9.513800039999996
 30
0
 11
0.7949998500000022
 21
9.578800039999997
 31
0
  0
LINE
  8
0
 62
7
 10
1.70500023
 20
9.513800039999996
 30
0
 11
0.7949998500000022
 21
9.513800039999996
 31
0
  0
LINE
  8
0
 62
7
 10
0.7950000000000018
 20
9.775200029999997
 30
0
 11
1.705000190000001
 21
9.775200029999997
 31
0
  0
LINE
  8
0
 62
7
 10
1.705000190000001
 20
9.775200029999997
 30
0
 11
1.705000190000001
 21
9.710200029999998
 31
0
  0
LINE
  8
0
 62
7
 10
0.7950000000000018
 20
9.710200029999998
 30
0
 11
0.7950000000000018
 21
9.775200029999997
 31
0
  0
LINE
  8
0
 62
7
 10
1.705000190000001
 20
9.710200029999998
 30
0
 11
0.7950000000000018
 21
9.710200029999998
 31
0
  0
LINE
  8
0
 62
7
 10
0.7950000000000018
 20
9.971600029999998
 30
0
 11
1.70500038
 21
9.971600029999998
 31
0
  0
LINE
  8
0
 62
7
 10
1.70500038
 20
9.971600029999998
 30
0
 11
1.70500038
 21
9.906600029999996
 31
0
  0
LINE
  8
0
 62
7
 10
0.7950000000000018
 20
9.906600029999996
 30
0
 11
0.7950000000000018
 21
9.971600029999998
 31
0
  0
LINE
  8
0
 62
7
 10
1.70500038
 20
9.906600029999996
 30
0
 11
0.7950000000000018
 21
9.906600029999996
 31
0
  0
LINE
  8
0
 62
7
 10
0.7950000000000018
 20
10.16800002
 30
0
 11
1.70500023
 21
10.16800002
 31
0
  0
LINE
  8
0
 62
7
 10
1.70500023
 20
10.16800002
 30
0
 11
1.70500023
 21
10.10300002
 31
0
  0
LINE
  8
0
 62
7
 10
0.7950000000000018
 20
10.10300002
 30
0
 11
0.7950000000000018
 21
10.16800002
 31
0
  0
LINE
  8
0
 62
7
 10
1.70500023
 20
10.10300002
 30
0
 11
0.7950000000000018
 21
10.10300002
 31
0
  0
LINE
  8
0
 62
7
 10
0.7950001600000015
 20
10.36440002
 30
0
 11
1.705000120000003
 21
10.36440002
 31
0
  0
LINE
  8
0
 62
7
 10
1.705000120000003
 20
10.36440002
 30
0
 11
1.705000120000003
 21
10.29940002
 31
0
  0
LINE
  8
0
 62
7
 10
0.7950001600000015
 20
10.29940002
 30
0
 11
0.7950001600000015
 21
10.36440002
 31
0
  0
LINE
  8
0
 62
7
 10
1.705000120000003
 20
10.29940002
 30
0
 11
0.7950001600000015
 21
10.29940002
 31
0
  0
LINE
  8
0
 62
7
 10
0.7950001600000015
 20
10.56080001
 30
0
 11
1.705000270000002
 21
10.56080001
 31
0
  0
LINE
  8
0
 62
7
 10
1.705000270000002
 20
10.49580001
 30
0
 11
0.7950001600000015
 21
10.49580001
 31
0
  0
LINE
  8
0
 62
7
 10
1.705000270000002
 20
10.56080001
 30
0
 11
1.705000270000002
 21
10.49580001
 31
0
  0
LINE
  8
0
 62
7
 10
0.7950001600000015
 20
10.49580001
 30
0
 11
0.7950001600000015
 21
10.56080001
 31
0
  0
LINE
  8
0
 62
7
 10
1.770334280000001
 20
10.6922
 30
0
 11
1.058525390000001
 21
10.6922
 31
0
  0
LINE
  8
0
 62
7
 10
1.058525390000001
 20
10.7572
 30
0
 11
1.770334280000001
 21
10.7572
 31
0
  0
LINE
  8
0
 62
7
 10
1.770334280000001
 20
10.7572
 30
0
 11
1.770334280000001
 21
10.6922
 31
0
  0
LINE
  8
0
 62
7
 10
1.058525390000001
 20
10.6922
 30
0
 11
1.058525390000001
 21
10.7572
 31
0
  0
LINE
  8
0
 62
7
 10
1.453936240000001
 20
10.9536
 30
0
 11
1.805000270000002
 21
10.9536
 31
0
  0
LINE
  8
0
 62
7
 10
1.805000270000002
 20
10.8886
 30
0
 11
1.453936240000001
 21
10.8886
 31
0
  0
LINE
  8
0
 62
7
 10
1.805000270000002
 20
10.9536
 30
0
 11
1.805000270000002
 21
10.8886
 31
0
  0
LINE
  8
0
 62
7
 10
1.453936240000001
 20
10.8886
 30
0
 11
1.453936240000001
 21
10.9536
 31
0
  0
LINE
  8
0
 62
7
 10
7.600000000000001
 20
8.099999999999998
 30
0
 11
7.750000000000002
 21
8.099999999999998
 31
0
  0
LINE
  8
0
 62
7
 10
7.600000000000001
 20
8.299999999999997
 30
0
 11
7.750000000000002
 21
8.299999999999997
 31
0
  0
LINE
  8
0
 62
7
 10
7.600000000000001
 20
10.85
 30
0
 11
7.750000000000002
 21
10.85
 31
0
  0
LINE
  8
0
 62
7
 10
7.600000000000001
 20
11.05
 30
0
 11
7.750000000000002
 21
11.05
 31
0
  0
LINE
  8
0
 62
7
 10
7.600000000000001
 20
8.099999999999998
 30
0
 11
7.600000000000001
 21
7.949999999999998
 31
0
  0
LINE
  8
0
 62
7
 10
7.425000000000002
 20
8.099999999999998
 30
0
 11
7.600000000000001
 21
8.099999999999998
 31
0
  0
LINE
  8
0
 62
7
 10
7.600000000000001
 20
8.399999999999997
 30
0
 11
7.600000000000001
 21
8.299999999999997
 31
0
  0
LINE
  8
0
 62
7
 10
7.425000000000002
 20
8.299999999999997
 30
0
 11
7.600000000000001
 21
8.299999999999997
 31
0
  0
LINE
  8
0
 62
7
 10
7.425000000000002
 20
10.85
 30
0
 11
7.600000000000001
 21
10.85
 31
0
  0
LINE
  8
0
 62
7
 10
7.600000000000001
 20
11.15
 30
0
 11
7.600000000000001
 21
11.05
 31
0
  0
LINE
  8
0
 62
7
 10
7.425000000000002
 20
11.05
 30
0
 11
7.600000000000001
 21
11.05
 31
0
  0
LINE
  8
0
 62
7
 10
7.425000000000002
 20
8.099999999999998
 30
0
 11
7.425000000000002
 21
7.949999999999998
 31
0
  0
LINE
  8
0
 62
7
 10
4.415000000000002
 20
8.099999999999998
 30
0
 11
7.425000000000002
 21
8.099999999999998
 31
0
  0
LINE
  8
0
 62
7
 10
7.425000000000002
 20
8.399999999999997
 30
0
 11
7.425000000000002
 21
8.299999999999997
 31
0
  0
LINE
  8
0
 62
7
 10
4.415000000000002
 20
8.299999999999997
 30
0
 11
7.425000000000002
 21
8.299999999999997
 31
0
  0
LINE
  8
0
 62
7
 10
4.415000000000002
 20
10.85
 30
0
 11
7.425000000000002
 21
10.85
 31
0
  0
LINE
  8
0
 62
7
 10
7.425000000000002
 20
11.15
 30
0
 11
7.425000000000002
 21
11.05
 31
0
  0
LINE
  8
0
 62
7
 10
4.415000000000002
 20
11.05
 30
0
 11
7.425000000000002
 21
11.05
 31
0
  0
LINE
  8
0
 62
7
 10
4.415000000000002
 20
8.099999999999998
 30
0
 11
4.415000000000002
 21
7.949999999999998
 31
0
  0
LINE
  8
0
 62
7
 10
4.240000000000001
 20
8.099999999999998
 30
0
 11
4.415000000000002
 21
8.099999999999998
 31
0
  0
LINE
  8
0
 62
7
 10
4.415000000000002
 20
8.399999999999997
 30
0
 11
4.415000000000002
 21
8.299999999999997
 31
0
  0
LINE
  8
0
 62
7
 10
4.240000000000001
 20
8.299999999999997
 30
0
 11
4.415000000000002
 21
8.299999999999997
 31
0
  0
LINE
  8
0
 62
7
 10
4.240000000000001
 20
10.85
 30
0
 11
4.415000000000002
 21
10.85
 31
0
  0
LINE
  8
0
 62
7
 10
4.415000000000002
 20
11.15
 30
0
 11
4.415000000000002
 21
11.05
 31
0
  0
LINE
  8
0
 62
7
 10
4.240000000000001
 20
11.05
 30
0
 11
4.415000000000002
 21
11.05
 31
0
  0
LINE
  8
0
 62
7
 10
4.240000000000001
 20
8.099999999999998
 30
0
 11
4.240000000000001
 21
7.949999999999998
 31
0
  0
LINE
  8
0
 62
7
 10
4.090000000000002
 20
8.099999999999998
 30
0
 11
4.240000000000001
 21
8.099999999999998
 31
0
  0
LINE
  8
0
 62
7
 10
4.240000000000001
 20
8.399999999999997
 30
0
 11
4.240000000000001
 21
8.299999999999997
 31
0
  0
LINE
  8
0
 62
7
 10
4.090000000000002
 20
8.299999999999997
 30
0
 11
4.240000000000001
 21
8.299999999999997
 31
0
  0
LINE
  8
0
 62
7
 10
4.090000000000002
 20
10.85
 30
0
 11
4.240000000000001
 21
10.85
 31
0
  0
LINE
  8
0
 62
7
 10
4.240000000000001
 20
11.15
 30
0
 11
4.240000000000001
 21
11.05
 31
0
  0
LINE
  8
0
 62
7
 10
4.090000000000002
 20
11.05
 30
0
 11
4.240000000000001
 21
11.05
 31
0
  0
LINE
  8
0
 62
7
  6
DASHDOT
 10
7.750000000000002
 20
8.099999999999998
 30
0
 11
7.750000000000002
 21
8.049999999999997
 31
0
  0
LINE
  8
0
 62
7
  6
DASHDOT
 10
7.750000000000002
 20
10.85
 30
0
 11
7.750000000000002
 21
10.8
 31
0
  0
LINE
  8
0
 62
7
  6
DASHDOT
 10
4.090000000000002
 20
8.099999999999998
 30
0
 11
4.090000000000002
 21
8.049999999999997
 31
0
  0
LINE
  8
0
 62
7
  6
DASHDOT
 10
4.090000000000002
 20
10.85
 30
0
 11
4.090000000000002
 21
10.8
 31
0
  0
LINE
  8
0
 62
7
  6
DASHDOT
 10
7.600000000000001
 20
11.2
 30
0
 11
7.650000000000002
 21
11.2
 31
0
  0
LINE
  8
0
 62
7
  6
DASHDOT
 10
7.600000000000001
 20
7.949999999999998
 30
0
 11
7.650000000000002
 21
7.949999999999998
 31
0
  0
LINE
  8
0
 62
7
  6
DASHDOT
 10
4.415000000000002
 20
11.2
 30
0
 11
4.465000000000002
 21
11.2
 31
0
  0
LINE
  8
0
 62
7
  6
DASHDOT
 10
4.415000000000002
 20
7.949999999999998
 30
0
 11
4.465000000000002
 21
7.949999999999998
 31
0
  0
LINE
  8
0
 62
7
 10
7.600000000000001
 20
8.399999999999997
 30
0
 11
7.750000000000002
 21
8.399999999999997
 31
0
  0
LINE
  8
0
 62
7
 10
7.600000000000001
 20
10.85
 30
0
 11
7.600000000000001
 21
8.399999999999997
 31
0
  0
LINE
  8
0
 62
7
  6
DASHDOT
 10
7.750000000000002
 20
8.449999999999998
 30
0
 11
7.750000000000002
 21
8.399999999999997
 31
0
  0
LINE
  8
0
 62
7
 10
4.415000000000002
 20
8.399999999999997
 30
0
 11
7.425000000000002
 21
8.399999999999997
 31
0
  0
LINE
  8
0
 62
7
 10
7.425000000000002
 20
10.85
 30
0
 11
7.425000000000002
 21
8.399999999999997
 31
0
  0
LINE
  8
0
 62
7
 10
4.415000000000002
 20
10.85
 30
0
 11
4.415000000000002
 21
8.399999999999997
 31
0
  0
LINE
  8
0
 62
7
 10
4.090000000000002
 20
8.399999999999997
 30
0
 11
4.240000000000001
 21
8.399999999999997
 31
0
  0
LINE
  8
0
 62
7
 10
4.240000000000001
 20
10.85
 30
0
 11
4.240000000000001
 21
8.399999999999997
 31
0
  0
LINE
  8
0
 62
7
  6
DASHDOT
 10
4.090000000000002
 20
8.449999999999998
 30
0
 11
4.090000000000002
 21
8.399999999999997
 31
0
  0
LINE
  8
0
 62
7
 10
7.600000000000001
 20
11.15
 30
0
 11
7.750000000000002
 21
11.15
 31
0
  0
LINE
  8
0
 62
7
 10
7.600000000000001
 20
11.2
 30
0
 11
7.600000000000001
 21
11.15
 31
0
  0
LINE
  8
0
 62
7
  6
DASHDOT
 10
7.750000000000002
 20
11.2
 30
0
 11
7.750000000000002
 21
11.15
 31
0
  0
LINE
  8
0
 62
7
 10
4.415000000000002
 20
11.15
 30
0
 11
7.425000000000002
 21
11.15
 31
0
  0
LINE
  8
0
 62
7
 10
7.425000000000002
 20
11.2
 30
0
 11
7.425000000000002
 21
11.15
 31
0
  0
LINE
  8
0
 62
7
 10
4.415000000000002
 20
11.2
 30
0
 11
4.415000000000002
 21
11.15
 31
0
  0
LINE
  8
0
 62
7
 10
4.090000000000002
 20
11.15
 30
0
 11
4.240000000000001
 21
11.15
 31
0
  0
LINE
  8
0
 62
7
 10
4.240000000000001
 20
11.2
 30
0
 11
4.240000000000001
 21
11.15
 31
0
  0
LINE
  8
0
 62
7
  6
DASHDOT
 10
4.090000000000002
 20
11.2
 30
0
 11
4.090000000000002
 21
11.15
 31
0
  0
LINE
  8
0
 62
7
  6
DASHDOT
 10
4.090000000000002
 20
8.299999999999997
 30
0
 11
4.090000000000002
 21
8.099999999999998
 31
0
  0
LINE
  8
0
 62
7
  6
DASHDOT
 10
4.090000000000002
 20
8.399999999999997
 30
0
 11
4.090000000000002
 21
8.299999999999997
 31
0
  0
LINE
  8
0
 62
7
  6
DASHDOT
 10
4.240000000000001
 20
7.949999999999998
 30
0
 11
4.415000000000002
 21
7.949999999999998
 31
0
  0
LINE
  8
0
 62
7
  6
DASHDOT
 10
4.190000000000001
 20
7.949999999999998
 30
0
 11
4.240000000000001
 21
7.949999999999998
 31
0
  0
LINE
  8
0
 62
7
  6
DASHDOT
 10
7.750000000000002
 20
8.299999999999997
 30
0
 11
7.750000000000002
 21
8.099999999999998
 31
0
  0
LINE
  8
0
 62
7
  6
DASHDOT
 10
7.750000000000002
 20
8.399999999999997
 30
0
 11
7.750000000000002
 21
8.299999999999997
 31
0
  0
LINE
  8
0
 62
7
  6
DASHDOT
 10
7.425000000000002
 20
7.949999999999998
 30
0
 11
7.600000000000001
 21
7.949999999999998
 31
0
  0
LINE
  8
0
 62
7
  6
DASHDOT
 10
7.375000000000002
 20
7.949999999999998
 30
0
 11
7.425000000000002
 21
7.949999999999998
 31
0
  0
LINE
  8
0
 62
7
  6
DASHDOT
 10
7.750000000000002
 20
11.05
 30
0
 11
7.750000000000002
 21
10.85
 31
0
  0
LINE
  8
0
 62
7
  6
DASHDOT
 10
7.750000000000002
 20
11.15
 30
0
 11
7.750000000000002
 21
11.05
 31
0
  0
LINE
  8
0
 62
7
  6
DASHDOT
 10
7.425000000000002
 20
11.2
 30
0
 11
7.600000000000001
 21
11.2
 31
0
  0
LINE
  8
0
 62
7
  6
DASHDOT
 10
7.375000000000002
 20
11.2
 30
0
 11
7.425000000000002
 21
11.2
 31
0
  0
LINE
  8
0
 62
7
  6
DASHDOT
 10
4.090000000000002
 20
11.05
 30
0
 11
4.090000000000002
 21
10.85
 31
0
  0
LINE
  8
0
 62
7
  6
DASHDOT
 10
4.090000000000002
 20
11.15
 30
0
 11
4.090000000000002
 21
11.05
 31
0
  0
LINE
  8
0
 62
7
  6
DASHDOT
 10
4.240000000000001
 20
11.2
 30
0
 11
4.415000000000002
 21
11.2
 31
0
  0
LINE
  8
0
 62
7
  6
DASHDOT
 10
4.190000000000001
 20
11.2
 30
0
 11
4.240000000000001
 21
11.2
 31
0
  0
LINE
  8
0
 62
7
 10
0.5
 20
7.949999999999998
 30
0
 11
0.5
 21
8.099999999999998
 31
0
  0
LINE
  8
0
 62
7
 10
0.7399999999999982
 20
11.2
 30
0
 11
0.7399999999999982
 21
11.05
 31
0
  0
LINE
  8
0
 62
7
 10
0.5
 20
11.05
 30
0
 11
0.7399999999999982
 21
11.05
 31
0
  0
LINE
  8
0
 62
7
 10
0.5
 20
11.05
 30
0
 11
0.5
 21
11.2
 31
0
  0
LINE
  8
0
 62
7
 10
0.7399999999999982
 20
11.05
 30
0
 11
0.7399999999999982
 21
10.85
 31
0
  0
LINE
  8
0
 62
7
 10
0.5
 20
10.85
 30
0
 11
0.7399999999999982
 21
10.85
 31
0
  0
LINE
  8
0
 62
7
 10
0.5
 20
10.85
 30
0
 11
0.5
 21
11.05
 31
0
  0
LINE
  8
0
 62
7
 10
0.7399999999999982
 20
10.85
 30
0
 11
0.7399999999999982
 21
8.299999999999997
 31
0
  0
LINE
  8
0
 62
7
 10
0.5
 20
8.299999999999997
 30
0
 11
0.7399999999999982
 21
8.299999999999997
 31
0
  0
LINE
  8
0
 62
7
 10
0.5
 20
8.299999999999997
 30
0
 11
0.5
 21
10.85
 31
0
  0
LINE
  8
0
 62
7
 10
0.7399999999999982
 20
8.299999999999997
 30
0
 11
0.7399999999999982
 21
8.099999999999998
 31
0
  0
LINE
  8
0
 62
7
 10
0.5
 20
8.099999999999998
 30
0
 11
0.7399999999999982
 21
8.099999999999998
 31
0
  0
LINE
  8
0
 62
7
 10
0.5
 20
8.099999999999998
 30
0
 11
0.5
 21
8.299999999999997
 31
0
  0
LINE
  8
0
 62
7
 10
0.7399999999999982
 20
8.099999999999998
 30
0
 11
0.7399999999999982
 21
7.949999999999998
 31
0
  0
LINE
  8
0
 62
7
 10
1.840000000000002
 20
11.05
 30
0
 11
1.840000000000002
 21
10.85
 31
0
  0
LINE
  8
0
 62
7
 10
1.840000000000002
 20
10.85
 30
0
 11
2.140000000000002
 21
10.85
 31
0
  0
LINE
  8
0
 62
7
 10
1.840000000000002
 20
11.05
 30
0
 11
2.140000000000002
 21
11.05
 31
0
  0
LINE
  8
0
 62
7
 10
1.840000000000002
 20
8.299999999999997
 30
0
 11
2.140000000000002
 21
8.299999999999997
 31
0
  0
LINE
  8
0
 62
7
 10
1.840000000000002
 20
8.299999999999997
 30
0
 11
1.840000000000002
 21
8.099999999999998
 31
0
  0
LINE
  8
0
 62
7
 10
1.840000000000002
 20
8.099999999999998
 30
0
 11
2.140000000000002
 21
8.099999999999998
 31
0
  0
LINE
  8
0
 62
7
  6
DASHDOT
 10
0.45
 20
11.2
 30
0
 11
0.5
 21
11.2
 31
0
  0
LINE
  8
0
 62
7
  6
DASHDOT
 10
2.140000000000002
 20
11.2
 30
0
 11
2.140000000000002
 21
11.15
 31
0
  0
LINE
  8
0
 62
7
  6
DASHDOT
 10
2.140000000000002
 20
8.049999999999997
 30
0
 11
2.140000000000002
 21
8.099999999999998
 31
0
  0
LINE
  8
0
 62
7
  6
DASHDOT
 10
0.45
 20
7.949999999999998
 30
0
 11
0.5
 21
7.949999999999998
 31
0
  0
LINE
  8
0
 62
7
 10
1.840000000000002
 20
8.399999999999997
 30
0
 11
2.140000000000002
 21
8.399999999999997
 31
0
  0
LINE
  8
0
 62
7
  6
DASHDOT
 10
2.140000000000002
 20
8.399999999999997
 30
0
 11
2.140000000000002
 21
8.449999999999998
 31
0
  0
LINE
  8
0
 62
7
 10
1.840000000000002
 20
11.15
 30
0
 11
2.140000000000002
 21
11.15
 31
0
  0
LINE
  8
0
 62
7
  6
DASHDOT
 10
2.140000000000002
 20
11.15
 30
0
 11
2.140000000000002
 21
11.05
 31
0
  0
LINE
  8
0
 62
7
  6
DASHDOT
 10
2.140000000000002
 20
8.299999999999997
 30
0
 11
2.140000000000002
 21
8.399999999999997
 31
0
  0
LINE
  8
0
 62
7
  6
DASHDOT
 10
2.140000000000002
 20
8.099999999999998
 30
0
 11
2.140000000000002
 21
8.299999999999997
 31
0
  0
LINE
  8
0
 62
7
  6
DASHDOT
 10
0.5
 20
7.949999999999998
 30
0
 11
0.7399999999999982
 21
7.949999999999998
 31
0
  0
LINE
  8
0
 62
7
  6
DASHDOT
 10
0.7399999999999982
 20
7.949999999999998
 30
0
 11
0.7900000000000018
 21
7.949999999999998
 31
0
  0
LINE
  8
0
 62
7
  6
DASHDOT
 10
0.7399999999999982
 20
11.2
 30
0
 11
0.7900000000000018
 21
11.2
 31
0
  0
LINE
  8
0
 62
7
  6
DASHDOT
 10
0.5
 20
11.2
 30
0
 11
0.7399999999999982
 21
11.2
 31
0
  0
LINE
  8
0
 62
7
  6
DASHDOT
 10
2.140000000000002
 20
10.85
 30
0
 11
2.140000000000002
 21
10.8
 31
0
  0
LINE
  8
0
 62
7
  6
DASHDOT
 10
2.140000000000002
 20
11.05
 30
0
 11
2.140000000000002
 21
10.85
 31
0
  0
LINE
  8
0
 62
7
  6
DASHED
 10
0.7399999999999982
 20
11.05
 30
0
 11
1.840000000000002
 21
11.05
 31
0
  0
LINE
  8
0
 62
7
  6
DASHED
 10
0.7399999999999982
 20
10.85
 30
0
 11
1.840000000000002
 21
10.85
 31
0
  0
LINE
  8
0
 62
7
  6
DASHED
 10
0.7399999999999982
 20
8.299999999999997
 30
0
 11
1.840000000000002
 21
8.299999999999997
 31
0
  0
LINE
  8
0
 62
7
  6
DASHED
 10
0.7399999999999982
 20
8.099999999999998
 30
0
 11
1.840000000000002
 21
8.099999999999998
 31
0
  0
LINE
  8
0
 62
7
 10
4.090000000000002
 20
4.969999999999998
 30
0
 11
4.240000000000001
 21
4.969999999999998
 31
0
  0
LINE
  8
0
 62
7
 10
4.240000000000001
 20
4.969999999999998
 30
0
 11
4.240000000000001
 21
5.119999999999997
 31
0
  0
LINE
  8
0
 62
7
 10
4.415000000000002
 20
5.119999999999997
 30
0
 11
4.415000000000002
 21
4.969999999999998
 31
0
  0
LINE
  8
0
 62
7
 10
4.415000000000002
 20
4.969999999999998
 30
0
 11
7.425000000000002
 21
4.969999999999998
 31
0
  0
LINE
  8
0
 62
7
 10
7.425000000000002
 20
4.969999999999998
 30
0
 11
7.425000000000002
 21
5.119999999999997
 31
0
  0
LINE
  8
0
 62
7
 10
7.600000000000001
 20
5.119999999999997
 30
0
 11
7.600000000000001
 21
4.969999999999998
 31
0
  0
LINE
  8
0
 62
7
 10
7.600000000000001
 20
4.969999999999998
 30
0
 11
7.765000000000001
 21
4.969999999999998
 31
0
  0
LINE
  8
0
 62
7
 10
4.090000000000002
 20
4.730000000000001
 30
0
 11
7.765000000000001
 21
4.730000000000001
 31
0
  0
LINE
  8
0
 62
7
 10
4.090000000000002
 20
4.690000000000001
 30
0
 11
7.765000000000001
 21
4.690000000000001
 31
0
  0
LINE
  8
0
 62
7
 10
4.090000000000002
 20
4.450000000000001
 30
0
 11
4.240000000000001
 21
4.450000000000001
 31
0
  0
LINE
  8
0
 62
7
 10
4.415000000000002
 20
3.25
 30
0
 11
4.415000000000002
 21
3.35
 31
0
  0
LINE
  8
0
 62
7
 10
4.240000000000001
 20
3.25
 30
0
 11
4.415000000000002
 21
3.25
 31
0
  0
LINE
  8
0
 62
7
 10
4.240000000000001
 20
4.450000000000001
 30
0
 11
4.240000000000001
 21
3.25
 31
0
  0
LINE
  8
0
 62
7
 10
4.415000000000002
 20
4.450000000000001
 30
0
 11
7.425000000000002
 21
4.450000000000001
 31
0
  0
LINE
  8
0
 62
7
 10
7.425000000000002
 20
4.450000000000001
 30
0
 11
7.425000000000002
 21
3.4
 31
0
  0
LINE
  8
0
 62
7
 10
7.600000000000001
 20
3.35
 30
0
 11
7.600000000000001
 21
4.450000000000001
 31
0
  0
LINE
  8
0
 62
7
 10
7.600000000000001
 20
4.450000000000001
 30
0
 11
7.765000000000001
 21
4.450000000000001
 31
0
  0
LINE
  8
0
 62
7
 10
7.425000000000002
 20
3.35
 30
0
 11
7.600000000000001
 21
3.35
 31
0
  0
LINE
  8
0
 62
7
 10
7.425000000000002
 20
3.4
 30
0
 11
4.415000000000002
 21
3.4
 31
0
  0
LINE
  8
0
 62
7
 10
4.415000000000002
 20
3.4
 30
0
 11
4.415000000000002
 21
4.450000000000001
 31
0
  0
LINE
  8
0
 62
7
 10
7.425000000000002
 20
3.4
 30
0
 11
7.425000000000002
 21
3.35
 31
0
  0
LINE
  8
0
 62
7
  6
DASHDOT
 10
7.425000000000002
 20
3.35
 30
0
 11
4.415000000000002
 21
3.35
 31
0
  0
LINE
  8
0
 62
7
 10
4.415000000000002
 20
3.35
 30
0
 11
4.415000000000002
 21
3.4
 31
0
  0
LINE
  8
0
 62
7
  6
DASHDOT
 10
4.190000000000001
 20
5.119999999999997
 30
0
 11
4.240000000000001
 21
5.119999999999997
 31
0
  0
LINE
  8
0
 62
7
  6
DASHDOT
 10
7.375000000000002
 20
5.119999999999997
 30
0
 11
7.425000000000002
 21
5.119999999999997
 31
0
  0
LINE
  8
0
 62
7
  6
DASHDOT
 10
4.090000000000002
 20
5.019999999999998
 30
0
 11
4.090000000000002
 21
4.969999999999998
 31
0
  0
LINE
  8
0
 62
7
  6
DASHDOT
 10
7.765000000000001
 20
5.019999999999998
 30
0
 11
7.765000000000001
 21
4.969999999999998
 31
0
  0
LINE
  8
0
 62
7
  6
DASHDOT
 10
7.765000000000001
 20
4.969999999999998
 30
0
 11
7.765000000000001
 21
4.730000000000001
 31
0
  0
LINE
  8
0
 62
7
  6
DASHDOT
 10
7.765000000000001
 20
4.450000000000001
 30
0
 11
7.765000000000001
 21
4.400000000000001
 31
0
  0
LINE
  8
0
 62
7
  6
DASHDOT
 10
4.240000000000001
 20
5.119999999999997
 30
0
 11
4.415000000000002
 21
5.119999999999997
 31
0
  0
LINE
  8
0
 62
7
  6
DASHDOT
 10
4.415000000000002
 20
5.119999999999997
 30
0
 11
4.465000000000002
 21
5.119999999999997
 31
0
  0
LINE
  8
0
 62
7
  6
DASHDOT
 10
4.090000000000002
 20
4.969999999999998
 30
0
 11
4.090000000000002
 21
4.730000000000001
 31
0
  0
LINE
  8
0
 62
7
  6
DASHDOT
 10
4.090000000000002
 20
4.450000000000001
 30
0
 11
4.090000000000002
 21
4.400000000000001
 31
0
  0
LINE
  8
0
 62
7
  6
DASHDOT
 10
7.765000000000001
 20
4.730000000000001
 30
0
 11
7.765000000000001
 21
4.690000000000001
 31
0
  0
LINE
  8
0
 62
7
  6
DASHDOT
 10
4.090000000000002
 20
4.730000000000001
 30
0
 11
4.090000000000002
 21
4.690000000000001
 31
0
  0
LINE
  8
0
 62
7
  6
DASHDOT
 10
7.765000000000001
 20
4.690000000000001
 30
0
 11
7.765000000000001
 21
4.450000000000001
 31
0
  0
LINE
  8
0
 62
7
  6
DASHDOT
 10
4.090000000000002
 20
4.690000000000001
 30
0
 11
4.090000000000002
 21
4.450000000000001
 31
0
  0
LINE
  8
0
 62
7
  6
DASHDOT
 10
7.600000000000001
 20
5.119999999999997
 30
0
 11
7.650000000000002
 21
5.119999999999997
 31
0
  0
LINE
  8
0
 62
7
  6
DASHDOT
 10
7.425000000000002
 20
5.119999999999997
 30
0
 11
7.600000000000001
 21
5.119999999999997
 31
0
  0
LINE
  8
0
 62
7
 10
5.06289125943905
 20
4.1363616828479
 30
0
 11
5.06289125943905
 21
4.2563616828479
 31
0
  0
LINE
  8
0
 62
7
 10
5.138491259439051
 20
4.2563616828479
 30
0
 11
5.084491259439051
 21
4.1963616828479
 31
0
  0
LINE
  8
0
 62
7
 10
5.084491259439051
 20
4.1963616828479
 30
0
 11
5.138491259439051
 21
4.1363616828479
 31
0
  0
LINE
  8
0
 62
7
 10
5.084491259439051
 20
4.1963616828479
 30
0
 11
5.06289125943905
 21
4.1723616828479
 31
0
  0
LINE
  8
0
 62
7
 10
5.24649125943905
 20
4.2563616828479
 30
0
 11
5.17089125943905
 21
4.2563616828479
 31
0
  0
LINE
  8
0
 62
7
 10
5.17089125943905
 20
4.2563616828479
 30
0
 11
5.17089125943905
 21
4.1963616828479
 31
0
  0
LINE
  8
0
 62
7
 10
5.17089125943905
 20
4.1363616828479
 30
0
 11
5.24649125943905
 21
4.1363616828479
 31
0
  0
LINE
  8
0
 62
7
 10
5.235691259439051
 20
4.1963616828479
 30
0
 11
5.17089125943905
 21
4.1963616828479
 31
0
  0
LINE
  8
0
 62
7
 10
5.17089125943905
 20
4.1963616828479
 30
0
 11
5.17089125943905
 21
4.1363616828479
 31
0
  0
LINE
  8
0
 62
7
 10
5.27889125943905
 20
4.1363616828479
 30
0
 11
5.27889125943905
 21
4.2563616828479
 31
0
  0
LINE
  8
0
 62
7
 10
5.27889125943905
 20
4.2563616828479
 30
0
 11
5.35449125943905
 21
4.1363616828479
 31
0
  0
LINE
  8
0
 62
7
 10
5.35449125943905
 20
4.1363616828479
 30
0
 11
5.35449125943905
 21
4.2563616828479
 31
0
  0
LINE
  8
0
 62
7
 10
5.38689125943905
 20
4.1363616828479
 30
0
 11
5.38689125943905
 21
4.2563616828479
 31
0
  0
LINE
  8
0
 62
7
 10
5.38689125943905
 20
4.2563616828479
 30
0
 11
5.462491259439051
 21
4.1363616828479
 31
0
  0
LINE
  8
0
 62
7
 10
5.462491259439051
 20
4.1363616828479
 30
0
 11
5.462491259439051
 21
4.2563616828479
 31
0
  0
LINE
  8
0
 62
7
 10
5.57049125943905
 20
4.2203616828479
 30
0
 11
5.56779125943905
 21
4.2323616828479
 31
0
  0
LINE
  8
0
 62
7
 10
5.56779125943905
 20
4.2323616828479
 30
0
 11
5.56239125943905
 21
4.2413616828479
 31
0
  0
LINE
  8
0
 62
7
 10
5.56239125943905
 20
4.2413616828479
 30
0
 11
5.556991259439051
 21
4.247361682847901
 31
0
  0
LINE
  8
0
 62
7
 10
5.556991259439051
 20
4.247361682847901
 30
0
 11
5.548891259439051
 21
4.2533616828479
 31
0
  0
LINE
  8
0
 62
7
 10
5.548891259439051
 20
4.2533616828479
 30
0
 11
5.54079125943905
 21
4.2563616828479
 31
0
  0
LINE
  8
0
 62
7
 10
5.54079125943905
 20
4.2563616828479
 30
0
 11
5.52459125943905
 21
4.2563616828479
 31
0
  0
LINE
  8
0
 62
7
 10
5.52459125943905
 20
4.2563616828479
 30
0
 11
5.51649125943905
 21
4.2533616828479
 31
0
  0
LINE
  8
0
 62
7
 10
5.51649125943905
 20
4.2533616828479
 30
0
 11
5.50839125943905
 21
4.247361682847901
 31
0
  0
LINE
  8
0
 62
7
 10
5.50839125943905
 20
4.247361682847901
 30
0
 11
5.50299125943905
 21
4.2413616828479
 31
0
  0
LINE
  8
0
 62
7
 10
5.50299125943905
 20
4.2413616828479
 30
0
 11
5.49759125943905
 21
4.2323616828479
 31
0
  0
LINE
  8
0
 62
7
 10
5.49759125943905
 20
4.2323616828479
 30
0
 11
5.49489125943905
 21
4.2203616828479
 31
0
  0
LINE
  8
0
 62
7
 10
5.49489125943905
 20
4.2203616828479
 30
0
 11
5.49489125943905
 21
4.1723616828479
 31
0
  0
LINE
  8
0
 62
7
 10
5.49489125943905
 20
4.1723616828479
 30
0
 11
5.49759125943905
 21
4.1603616828479
 31
0
  0
LINE
  8
0
 62
7
 10
5.49759125943905
 20
4.1603616828479
 30
0
 11
5.50299125943905
 21
4.151361682847901
 31
0
  0
LINE
  8
0
 62
7
 10
5.50299125943905
 20
4.151361682847901
 30
0
 11
5.50839125943905
 21
4.1453616828479
 31
0
  0
LINE
  8
0
 62
7
 10
5.50839125943905
 20
4.1453616828479
 30
0
 11
5.51649125943905
 21
4.139361682847901
 31
0
  0
LINE
  8
0
 62
7
 10
5.51649125943905
 20
4.139361682847901
 30
0
 11
5.52459125943905
 21
4.1363616828479
 31
0
  0
LINE
  8
0
 62
7
 10
5.52459125943905
 20
4.1363616828479
 30
0
 11
5.54079125943905
 21
4.1363616828479
 31
0
  0
LINE
  8
0
 62
7
 10
5.54079125943905
 20
4.1363616828479
 30
0
 11
5.548891259439051
 21
4.139361682847901
 31
0
  0
LINE
  8
0
 62
7
 10
5.548891259439051
 20
4.139361682847901
 30
0
 11
5.556991259439051
 21
4.1453616828479
 31
0
  0
LINE
  8
0
 62
7
 10
5.556991259439051
 20
4.1453616828479
 30
0
 11
5.56239125943905
 21
4.151361682847901
 31
0
  0
LINE
  8
0
 62
7
 10
5.56239125943905
 20
4.151361682847901
 30
0
 11
5.56779125943905
 21
4.1603616828479
 31
0
  0
LINE
  8
0
 62
7
 10
5.56779125943905
 20
4.1603616828479
 30
0
 11
5.57049125943905
 21
4.1723616828479
 31
0
  0
LINE
  8
0
 62
7
 10
5.57049125943905
 20
4.1723616828479
 30
0
 11
5.57049125943905
 21
4.1963616828479
 31
0
  0
LINE
  8
0
 62
7
 10
5.57049125943905
 20
4.1963616828479
 30
0
 11
5.53809125943905
 21
4.1963616828479
 31
0
  0
LINE
  8
0
 62
7
 10
5.64879125943905
 20
4.2563616828479
 30
0
 11
5.632591259439049
 21
4.2563616828479
 31
0
  0
LINE
  8
0
 62
7
 10
5.632591259439049
 20
4.2563616828479
 30
0
 11
5.624491259439051
 21
4.2533616828479
 31
0
  0
LINE
  8
0
 62
7
 10
5.624491259439051
 20
4.2533616828479
 30
0
 11
5.616391259439051
 21
4.247361682847901
 31
0
  0
LINE
  8
0
 62
7
 10
5.616391259439051
 20
4.247361682847901
 30
0
 11
5.610991259439051
 21
4.2413616828479
 31
0
  0
LINE
  8
0
 62
7
 10
5.610991259439051
 20
4.2413616828479
 30
0
 11
5.605591259439051
 21
4.2323616828479
 31
0
  0
LINE
  8
0
 62
7
 10
5.605591259439051
 20
4.2323616828479
 30
0
 11
5.60289125943905
 21
4.2203616828479
 31
0
  0
LINE
  8
0
 62
7
 10
5.60289125943905
 20
4.2203616828479
 30
0
 11
5.60289125943905
 21
4.1723616828479
 31
0
  0
LINE
  8
0
 62
7
 10
5.60289125943905
 20
4.1723616828479
 30
0
 11
5.605591259439051
 21
4.1603616828479
 31
0
  0
LINE
  8
0
 62
7
 10
5.605591259439051
 20
4.1603616828479
 30
0
 11
5.610991259439051
 21
4.151361682847901
 31
0
  0
LINE
  8
0
 62
7
 10
5.610991259439051
 20
4.151361682847901
 30
0
 11
5.616391259439051
 21
4.1453616828479
 31
0
  0
LINE
  8
0
 62
7
 10
5.616391259439051
 20
4.1453616828479
 30
0
 11
5.624491259439051
 21
4.139361682847901
 31
0
  0
LINE
  8
0
 62
7
 10
5.624491259439051
 20
4.139361682847901
 30
0
 11
5.632591259439049
 21
4.1363616828479
 31
0
  0
LINE
  8
0
 62
7
 10
5.632591259439049
 20
4.1363616828479
 30
0
 11
5.64879125943905
 21
4.1363616828479
 31
0
  0
LINE
  8
0
 62
7
 10
5.64879125943905
 20
4.1363616828479
 30
0
 11
5.65689125943905
 21
4.139361682847901
 31
0
  0
LINE
  8
0
 62
7
 10
5.65689125943905
 20
4.139361682847901
 30
0
 11
5.66499125943905
 21
4.1453616828479
 31
0
  0
LINE
  8
0
 62
7
 10
5.66499125943905
 20
4.1453616828479
 30
0
 11
5.67039125943905
 21
4.151361682847901
 31
0
  0
LINE
  8
0
 62
7
 10
5.67039125943905
 20
4.151361682847901
 30
0
 11
5.675791259439049
 21
4.1603616828479
 31
0
  0
LINE
  8
0
 62
7
 10
5.675791259439049
 20
4.1603616828479
 30
0
 11
5.678491259439051
 21
4.1723616828479
 31
0
  0
LINE
  8
0
 62
7
 10
5.678491259439051
 20
4.1723616828479
 30
0
 11
5.678491259439051
 21
4.2203616828479
 31
0
  0
LINE
  8
0
 62
7
 10
5.678491259439051
 20
4.2203616828479
 30
0
 11
5.675791259439049
 21
4.2323616828479
 31
0
  0
LINE
  8
0
 62
7
 10
5.675791259439049
 20
4.2323616828479
 30
0
 11
5.67039125943905
 21
4.2413616828479
 31
0
  0
LINE
  8
0
 62
7
 10
5.67039125943905
 20
4.2413616828479
 30
0
 11
5.66499125943905
 21
4.247361682847901
 31
0
  0
LINE
  8
0
 62
7
 10
5.66499125943905
 20
4.247361682847901
 30
0
 11
5.65689125943905
 21
4.2533616828479
 31
0
  0
LINE
  8
0
 62
7
 10
5.65689125943905
 20
4.2533616828479
 30
0
 11
5.64879125943905
 21
4.2563616828479
 31
0
  0
LINE
  8
0
 62
7
 10
5.700091259439051
 20
4.2563616828479
 30
0
 11
5.737891259439052
 21
4.2563616828479
 31
0
  0
LINE
  8
0
 62
7
 10
5.737891259439052
 20
4.2563616828479
 30
0
 11
5.737891259439052
 21
4.1363616828479
 31
0
  0
LINE
  8
0
 62
7
 10
5.737891259439052
 20
4.2563616828479
 30
0
 11
5.775691259439051
 21
4.2563616828479
 31
0
  0
LINE
  8
0
 62
7
 10
5.808091259439052
 20
4.2563616828479
 30
0
 11
5.845891259439051
 21
4.2563616828479
 31
0
  0
LINE
  8
0
 62
7
 10
5.845891259439051
 20
4.2563616828479
 30
0
 11
5.845891259439051
 21
4.1363616828479
 31
0
  0
LINE
  8
0
 62
7
 10
5.845891259439051
 20
4.2563616828479
 30
0
 11
5.88369125943905
 21
4.2563616828479
 31
0
  0
LINE
  8
0
 62
7
 10
6.002491259439051
 20
4.1783616828479
 30
0
 11
6.05649125943905
 21
4.1783616828479
 31
0
  0
LINE
  8
0
 62
7
 10
6.164491259439052
 20
4.2563616828479
 30
0
 11
6.202291259439051
 21
4.2563616828479
 31
0
  0
LINE
  8
0
 62
7
 10
6.202291259439051
 20
4.2563616828479
 30
0
 11
6.202291259439051
 21
4.1363616828479
 31
0
  0
LINE
  8
0
 62
7
 10
6.202291259439051
 20
4.2563616828479
 30
0
 11
6.240091259439051
 21
4.2563616828479
 31
0
  0
LINE
  8
0
 62
7
 10
6.27249125943905
 20
4.1363616828479
 30
0
 11
6.27249125943905
 21
4.2563616828479
 31
0
  0
LINE
  8
0
 62
7
 10
6.27249125943905
 20
4.2563616828479
 30
0
 11
6.323791259439051
 21
4.2563616828479
 31
0
  0
LINE
  8
0
 62
7
 10
6.323791259439051
 20
4.2563616828479
 30
0
 11
6.334591259439051
 21
4.2533616828479
 31
0
  0
LINE
  8
0
 62
7
 10
6.334591259439051
 20
4.2533616828479
 30
0
 11
6.342691259439051
 21
4.247361682847901
 31
0
  0
LINE
  8
0
 62
7
 10
6.342691259439051
 20
4.247361682847901
 30
0
 11
6.34539125943905
 21
4.2413616828479
 31
0
  0
LINE
  8
0
 62
7
 10
6.34539125943905
 20
4.2413616828479
 30
0
 11
6.348091259439052
 21
4.2323616828479
 31
0
  0
LINE
  8
0
 62
7
 10
6.348091259439052
 20
4.2323616828479
 30
0
 11
6.348091259439052
 21
4.2203616828479
 31
0
  0
LINE
  8
0
 62
7
 10
6.348091259439052
 20
4.2203616828479
 30
0
 11
6.34539125943905
 21
4.2113616828479
 31
0
  0
LINE
  8
0
 62
7
 10
6.34539125943905
 20
4.2113616828479
 30
0
 11
6.342691259439051
 21
4.2053616828479
 31
0
  0
LINE
  8
0
 62
7
 10
6.342691259439051
 20
4.2053616828479
 30
0
 11
6.334591259439051
 21
4.199361682847901
 31
0
  0
LINE
  8
0
 62
7
 10
6.334591259439051
 20
4.199361682847901
 30
0
 11
6.323791259439051
 21
4.1963616828479
 31
0
  0
LINE
  8
0
 62
7
 10
6.323791259439051
 20
4.1963616828479
 30
0
 11
6.31569125943905
 21
4.1963616828479
 31
0
  0
LINE
  8
0
 62
7
 10
6.31569125943905
 20
4.1963616828479
 30
0
 11
6.348091259439052
 21
4.1363616828479
 31
0
  0
LINE
  8
0
 62
7
 10
6.31569125943905
 20
4.1963616828479
 30
0
 11
6.27249125943905
 21
4.1963616828479
 31
0
  0
LINE
  8
0
 62
7
 10
6.445291259439052
 20
4.2563616828479
 30
0
 11
6.369691259439051
 21
4.2563616828479
 31
0
  0
LINE
  8
0
 62
7
 10
6.369691259439051
 20
4.2563616828479
 30
0
 11
6.369691259439051
 21
4.1963616828479
 31
0
  0
LINE
  8
0
 62
7
 10
6.369691259439051
 20
4.1363616828479
 30
0
 11
6.445291259439052
 21
4.1363616828479
 31
0
  0
LINE
  8
0
 62
7
 10
6.434491259439051
 20
4.1963616828479
 30
0
 11
6.369691259439051
 21
4.1963616828479
 31
0
  0
LINE
  8
0
 62
7
 10
6.369691259439051
 20
4.1963616828479
 30
0
 11
6.369691259439051
 21
4.1363616828479
 31
0
  0
LINE
  8
0
 62
7
 10
6.477691259439052
 20
4.1363616828479
 30
0
 11
6.477691259439052
 21
4.1963616828479
 31
0
  0
LINE
  8
0
 62
7
 10
6.477691259439052
 20
4.2563616828479
 30
0
 11
6.528991259439052
 21
4.2563616828479
 31
0
  0
LINE
  8
0
 62
7
 10
6.528991259439052
 20
4.2563616828479
 30
0
 11
6.539791259439053
 21
4.2533616828479
 31
0
  0
LINE
  8
0
 62
7
 10
6.539791259439053
 20
4.2533616828479
 30
0
 11
6.547891259439051
 21
4.247361682847901
 31
0
  0
LINE
  8
0
 62
7
 10
6.547891259439051
 20
4.247361682847901
 30
0
 11
6.550591259439051
 21
4.2413616828479
 31
0
  0
LINE
  8
0
 62
7
 10
6.550591259439051
 20
4.2413616828479
 30
0
 11
6.553291259439053
 21
4.2323616828479
 31
0
  0
LINE
  8
0
 62
7
 10
6.553291259439053
 20
4.2323616828479
 30
0
 11
6.553291259439053
 21
4.2203616828479
 31
0
  0
LINE
  8
0
 62
7
 10
6.553291259439053
 20
4.2203616828479
 30
0
 11
6.550591259439051
 21
4.2113616828479
 31
0
  0
LINE
  8
0
 62
7
 10
6.550591259439051
 20
4.2113616828479
 30
0
 11
6.547891259439051
 21
4.2053616828479
 31
0
  0
LINE
  8
0
 62
7
 10
6.547891259439051
 20
4.2053616828479
 30
0
 11
6.539791259439053
 21
4.199361682847901
 31
0
  0
LINE
  8
0
 62
7
 10
6.539791259439053
 20
4.199361682847901
 30
0
 11
6.528991259439052
 21
4.1963616828479
 31
0
  0
LINE
  8
0
 62
7
 10
6.528991259439052
 20
4.1963616828479
 30
0
 11
6.477691259439052
 21
4.1963616828479
 31
0
  0
LINE
  8
0
 62
7
 10
6.477691259439052
 20
4.1963616828479
 30
0
 11
6.477691259439052
 21
4.2563616828479
 31
0
  0
LINE
  8
0
 62
7
 10
6.574891259439051
 20
4.1363616828479
 30
0
 11
6.574891259439051
 21
4.1963616828479
 31
0
  0
LINE
  8
0
 62
7
 10
6.574891259439051
 20
4.2563616828479
 30
0
 11
6.626191259439051
 21
4.2563616828479
 31
0
  0
LINE
  8
0
 62
7
 10
6.626191259439051
 20
4.2563616828479
 30
0
 11
6.636991259439052
 21
4.2533616828479
 31
0
  0
LINE
  8
0
 62
7
 10
6.636991259439052
 20
4.2533616828479
 30
0
 11
6.645091259439051
 21
4.247361682847901
 31
0
  0
LINE
  8
0
 62
7
 10
6.645091259439051
 20
4.247361682847901
 30
0
 11
6.64779125943905
 21
4.2413616828479
 31
0
  0
LINE
  8
0
 62
7
 10
6.64779125943905
 20
4.2413616828479
 30
0
 11
6.65049125943905
 21
4.2323616828479
 31
0
  0
LINE
  8
0
 62
7
 10
6.65049125943905
 20
4.2323616828479
 30
0
 11
6.65049125943905
 21
4.2203616828479
 31
0
  0
LINE
  8
0
 62
7
 10
6.65049125943905
 20
4.2203616828479
 30
0
 11
6.64779125943905
 21
4.2113616828479
 31
0
  0
LINE
  8
0
 62
7
 10
6.64779125943905
 20
4.2113616828479
 30
0
 11
6.645091259439051
 21
4.2053616828479
 31
0
  0
LINE
  8
0
 62
7
 10
6.645091259439051
 20
4.2053616828479
 30
0
 11
6.636991259439052
 21
4.199361682847901
 31
0
  0
LINE
  8
0
 62
7
 10
6.636991259439052
 20
4.199361682847901
 30
0
 11
6.626191259439051
 21
4.1963616828479
 31
0
  0
LINE
  8
0
 62
7
 10
6.626191259439051
 20
4.1963616828479
 30
0
 11
6.574891259439051
 21
4.1963616828479
 31
0
  0
LINE
  8
0
 62
7
 10
6.574891259439051
 20
4.1963616828479
 30
0
 11
6.574891259439051
 21
4.2563616828479
 31
0
  0
LINE
  8
0
 62
7
 10
6.747691259439051
 20
4.2563616828479
 30
0
 11
6.67209125943905
 21
4.2563616828479
 31
0
  0
LINE
  8
0
 62
7
 10
6.67209125943905
 20
4.2563616828479
 30
0
 11
6.67209125943905
 21
4.1963616828479
 31
0
  0
LINE
  8
0
 62
7
 10
6.67209125943905
 20
4.1363616828479
 30
0
 11
6.747691259439051
 21
4.1363616828479
 31
0
  0
LINE
  8
0
 62
7
 10
6.736891259439052
 20
4.1963616828479
 30
0
 11
6.67209125943905
 21
4.1963616828479
 31
0
  0
LINE
  8
0
 62
7
 10
6.67209125943905
 20
4.1963616828479
 30
0
 11
6.67209125943905
 21
4.1363616828479
 31
0
  0
LINE
  8
0
 62
7
 10
4.375
 20
2.890000000000001
 30
0
 11
4.375
 21
3.010000000000001
 31
0
  0
LINE
  8
0
 62
7
 10
4.450600000000001
 20
3.010000000000001
 30
0
 11
4.3966
 21
2.950000000000001
 31
0
  0
LINE
  8
0
 62
7
 10
4.3966
 20
2.950000000000001
 30
0
 11
4.450600000000001
 21
2.890000000000001
 31
0
  0
LINE
  8
0
 62
7
 10
4.3966
 20
2.950000000000001
 30
0
 11
4.375
 21
2.926000000000001
 31
0
  0
LINE
  8
0
 62
7
 10
4.483
 20
2.992000000000001
 30
0
 11
4.4884
 21
3.001000000000001
 31
0
  0
LINE
  8
0
 62
7
 10
4.4884
 20
3.001000000000001
 30
0
 11
4.4965
 21
3.007000000000001
 31
0
  0
LINE
  8
0
 62
7
 10
4.4965
 20
3.007000000000001
 30
0
 11
4.5073
 21
3.010000000000001
 31
0
  0
LINE
  8
0
 62
7
 10
4.5073
 20
3.010000000000001
 30
0
 11
4.5235
 21
3.010000000000001
 31
0
  0
LINE
  8
0
 62
7
 10
4.5235
 20
3.010000000000001
 30
0
 11
4.534300000000001
 21
3.007000000000001
 31
0
  0
LINE
  8
0
 62
7
 10
4.534300000000001
 20
3.007000000000001
 30
0
 11
4.5424
 21
3.001000000000001
 31
0
  0
LINE
  8
0
 62
7
 10
4.5424
 20
3.001000000000001
 30
0
 11
4.5478
 21
2.992000000000001
 31
0
  0
LINE
  8
0
 62
7
 10
4.5478
 20
2.992000000000001
 30
0
 11
4.5478
 21
2.980000000000001
 31
0
  0
LINE
  8
0
 62
7
 10
4.5478
 20
2.980000000000001
 30
0
 11
4.5424
 21
2.968000000000002
 31
0
  0
LINE
  8
0
 62
7
 10
4.5424
 20
2.968000000000002
 30
0
 11
4.483
 21
2.890000000000001
 31
0
  0
LINE
  8
0
 62
7
 10
4.483
 20
2.890000000000001
 30
0
 11
4.5478
 21
2.890000000000001
 31
0
  0
LINE
  8
0
 62
7
 10
4.5802
 20
3.010000000000001
 30
0
 11
4.618
 21
2.890000000000001
 31
0
  0
LINE
  8
0
 62
7
 10
4.618
 20
2.890000000000001
 30
0
 11
4.6558
 21
3.010000000000001
 31
0
  0
LINE
  8
0
 62
7
 10
4.6882
 20
2.992000000000001
 30
0
 11
4.693600000000001
 21
3.001000000000001
 31
0
  0
LINE
  8
0
 62
7
 10
4.693600000000001
 20
3.001000000000001
 30
0
 11
4.7017
 21
3.007000000000001
 31
0
  0
LINE
  8
0
 62
7
 10
4.7017
 20
3.007000000000001
 30
0
 11
4.7125
 21
3.010000000000001
 31
0
  0
LINE
  8
0
 62
7
 10
4.7125
 20
3.010000000000001
 30
0
 11
4.7287
 21
3.010000000000001
 31
0
  0
LINE
  8
0
 62
7
 10
4.7287
 20
3.010000000000001
 30
0
 11
4.736800000000001
 21
3.007000000000001
 31
0
  0
LINE
  8
0
 62
7
 10
4.736800000000001
 20
3.007000000000001
 30
0
 11
4.7449
 21
3.001000000000001
 31
0
  0
LINE
  8
0
 62
7
 10
4.7449
 20
3.001000000000001
 30
0
 11
4.750299999999999
 21
2.992000000000001
 31
0
  0
LINE
  8
0
 62
7
 10
4.750299999999999
 20
2.992000000000001
 30
0
 11
4.753
 21
2.980000000000001
 31
0
  0
LINE
  8
0
 62
7
 10
4.753
 20
2.980000000000001
 30
0
 11
4.753
 21
2.971000000000001
 31
0
  0
LINE
  8
0
 62
7
 10
4.753
 20
2.971000000000001
 30
0
 11
4.750299999999999
 21
2.962000000000001
 31
0
  0
LINE
  8
0
 62
7
 10
4.750299999999999
 20
2.962000000000001
 30
0
 11
4.7449
 21
2.956000000000001
 31
0
  0
LINE
  8
0
 62
7
 10
4.7449
 20
2.956000000000001
 30
0
 11
4.7314
 21
2.950000000000001
 31
0
  0
LINE
  8
0
 62
7
 10
4.7125
 20
2.950000000000001
 30
0
 11
4.7314
 21
2.950000000000001
 31
0
  0
LINE
  8
0
 62
7
 10
4.7314
 20
2.950000000000001
 30
0
 11
4.7449
 21
2.944000000000001
 31
0
  0
LINE
  8
0
 62
7
 10
4.7449
 20
2.944000000000001
 30
0
 11
4.750299999999999
 21
2.938000000000001
 31
0
  0
LINE
  8
0
 62
7
 10
4.750299999999999
 20
2.938000000000001
 30
0
 11
4.753
 21
2.929000000000001
 31
0
  0
LINE
  8
0
 62
7
 10
4.753
 20
2.929000000000001
 30
0
 11
4.753
 21
2.920000000000001
 31
0
  0
LINE
  8
0
 62
7
 10
4.753
 20
2.920000000000001
 30
0
 11
4.750299999999999
 21
2.908000000000001
 31
0
  0
LINE
  8
0
 62
7
 10
4.750299999999999
 20
2.908000000000001
 30
0
 11
4.7449
 21
2.899000000000001
 31
0
  0
LINE
  8
0
 62
7
 10
4.7449
 20
2.899000000000001
 30
0
 11
4.736800000000001
 21
2.893000000000002
 31
0
  0
LINE
  8
0
 62
7
 10
4.736800000000001
 20
2.893000000000002
 30
0
 11
4.7287
 21
2.890000000000001
 31
0
  0
LINE
  8
0
 62
7
 10
4.7287
 20
2.890000000000001
 30
0
 11
4.7125
 21
2.890000000000001
 31
0
  0
LINE
  8
0
 62
7
 10
4.7125
 20
2.890000000000001
 30
0
 11
4.7017
 21
2.893000000000002
 31
0
  0
LINE
  8
0
 62
7
 10
4.7017
 20
2.893000000000002
 30
0
 11
4.693600000000001
 21
2.899000000000001
 31
0
  0
LINE
  8
0
 62
7
 10
4.693600000000001
 20
2.899000000000001
 30
0
 11
4.6882
 21
2.908000000000001
 31
0
  0
LINE
  8
0
 62
7
 10
4.785400000000001
 20
2.980000000000001
 30
0
 11
4.788099999999999
 21
2.992000000000001
 31
0
  0
LINE
  8
0
 62
7
 10
4.788099999999999
 20
2.992000000000001
 30
0
 11
4.793500000000001
 21
3.001000000000001
 31
0
  0
LINE
  8
0
 62
7
 10
4.793500000000001
 20
3.001000000000001
 30
0
 11
4.801600000000001
 21
3.007000000000001
 31
0
  0
LINE
  8
0
 62
7
 10
4.801600000000001
 20
3.007000000000001
 30
0
 11
4.809700000000001
 21
3.010000000000001
 31
0
  0
LINE
  8
0
 62
7
 10
4.809700000000001
 20
3.010000000000001
 30
0
 11
4.825900000000001
 21
3.010000000000001
 31
0
  0
LINE
  8
0
 62
7
 10
4.825900000000001
 20
3.010000000000001
 30
0
 11
4.834000000000001
 21
3.007000000000001
 31
0
  0
LINE
  8
0
 62
7
 10
4.834000000000001
 20
3.007000000000001
 30
0
 11
4.842099999999999
 21
3.001000000000001
 31
0
  0
LINE
  8
0
 62
7
 10
4.842099999999999
 20
3.001000000000001
 30
0
 11
4.8475
 21
2.992000000000001
 31
0
  0
LINE
  8
0
 62
7
 10
4.8475
 20
2.992000000000001
 30
0
 11
4.850200000000001
 21
2.980000000000001
 31
0
  0
LINE
  8
0
 62
7
 10
4.850200000000001
 20
2.980000000000001
 30
0
 11
4.850200000000001
 21
2.920000000000001
 31
0
  0
LINE
  8
0
 62
7
 10
4.850200000000001
 20
2.920000000000001
 30
0
 11
4.8475
 21
2.908000000000001
 31
0
  0
LINE
  8
0
 62
7
 10
4.8475
 20
2.908000000000001
 30
0
 11
4.842099999999999
 21
2.899000000000001
 31
0
  0
LINE
  8
0
 62
7
 10
4.842099999999999
 20
2.899000000000001
 30
0
 11
4.834000000000001
 21
2.893000000000002
 31
0
  0
LINE
  8
0
 62
7
 10
4.834000000000001
 20
2.893000000000002
 30
0
 11
4.825900000000001
 21
2.890000000000001
 31
0
  0
LINE
  8
0
 62
7
 10
4.825900000000001
 20
2.890000000000001
 30
0
 11
4.809700000000001
 21
2.890000000000001
 31
0
  0
LINE
  8
0
 62
7
 10
4.809700000000001
 20
2.890000000000001
 30
0
 11
4.801600000000001
 21
2.893000000000002
 31
0
  0
LINE
  8
0
 62
7
 10
4.801600000000001
 20
2.893000000000002
 30
0
 11
4.793500000000001
 21
2.899000000000001
 31
0
  0
LINE
  8
0
 62
7
 10
4.793500000000001
 20
2.899000000000001
 30
0
 11
4.788099999999999
 21
2.908000000000001
 31
0
  0
LINE
  8
0
 62
7
 10
4.788099999999999
 20
2.908000000000001
 30
0
 11
4.785400000000001
 21
2.920000000000001
 31
0
  0
LINE
  8
0
 62
7
 10
4.785400000000001
 20
2.920000000000001
 30
0
 11
4.785400000000001
 21
2.980000000000001
 31
0
  0
LINE
  8
0
 62
7
 10
4.882600000000001
 20
2.974000000000001
 30
0
 11
4.915
 21
3.010000000000001
 31
0
  0
LINE
  8
0
 62
7
 10
4.915
 20
3.010000000000001
 30
0
 11
4.915
 21
2.890000000000001
 31
0
  0
LINE
  8
0
 62
7
 10
4.9474
 20
2.890000000000001
 30
0
 11
4.9474
 21
3.010000000000001
 31
0
  0
LINE
  8
0
 62
7
 10
4.9474
 20
3.010000000000001
 30
0
 11
4.9987
 21
3.010000000000001
 31
0
  0
LINE
  8
0
 62
7
 10
4.9987
 20
3.010000000000001
 30
0
 11
5.0095
 21
3.007000000000001
 31
0
  0
LINE
  8
0
 62
7
 10
5.0095
 20
3.007000000000001
 30
0
 11
5.017600000000001
 21
3.001000000000001
 31
0
  0
LINE
  8
0
 62
7
 10
5.017600000000001
 20
3.001000000000001
 30
0
 11
5.0203
 21
2.995000000000001
 31
0
  0
LINE
  8
0
 62
7
 10
5.0203
 20
2.995000000000001
 30
0
 11
5.023000000000001
 21
2.986000000000001
 31
0
  0
LINE
  8
0
 62
7
 10
5.023000000000001
 20
2.986000000000001
 30
0
 11
5.023000000000001
 21
2.974000000000001
 31
0
  0
LINE
  8
0
 62
7
 10
5.023000000000001
 20
2.974000000000001
 30
0
 11
5.0203
 21
2.965000000000001
 31
0
  0
LINE
  8
0
 62
7
 10
5.0203
 20
2.965000000000001
 30
0
 11
5.017600000000001
 21
2.959000000000001
 31
0
  0
LINE
  8
0
 62
7
 10
5.017600000000001
 20
2.959000000000001
 30
0
 11
5.0095
 21
2.953000000000002
 31
0
  0
LINE
  8
0
 62
7
 10
5.0095
 20
2.953000000000002
 30
0
 11
4.9987
 21
2.950000000000001
 31
0
  0
LINE
  8
0
 62
7
 10
4.9987
 20
2.950000000000001
 30
0
 11
4.990599999999999
 21
2.950000000000001
 31
0
  0
LINE
  8
0
 62
7
 10
4.990599999999999
 20
2.950000000000001
 30
0
 11
5.023000000000001
 21
2.890000000000001
 31
0
  0
LINE
  8
0
 62
7
 10
4.990599999999999
 20
2.950000000000001
 30
0
 11
4.9474
 21
2.950000000000001
 31
0
  0
LINE
  8
0
 62
7
 10
5.0446
 20
2.992000000000001
 30
0
 11
5.050000000000001
 21
3.001000000000001
 31
0
  0
LINE
  8
0
 62
7
 10
5.050000000000001
 20
3.001000000000001
 30
0
 11
5.058100000000002
 21
3.007000000000001
 31
0
  0
LINE
  8
0
 62
7
 10
5.058100000000002
 20
3.007000000000001
 30
0
 11
5.068900000000002
 21
3.010000000000001
 31
0
  0
LINE
  8
0
 62
7
 10
5.068900000000002
 20
3.010000000000001
 30
0
 11
5.085100000000001
 21
3.010000000000001
 31
0
  0
LINE
  8
0
 62
7
 10
5.085100000000001
 20
3.010000000000001
 30
0
 11
5.093200000000001
 21
3.007000000000001
 31
0
  0
LINE
  8
0
 62
7
 10
5.093200000000001
 20
3.007000000000001
 30
0
 11
5.101300000000002
 21
3.001000000000001
 31
0
  0
LINE
  8
0
 62
7
 10
5.101300000000002
 20
3.001000000000001
 30
0
 11
5.106700000000001
 21
2.992000000000001
 31
0
  0
LINE
  8
0
 62
7
 10
5.106700000000001
 20
2.992000000000001
 30
0
 11
5.109400000000002
 21
2.980000000000001
 31
0
  0
LINE
  8
0
 62
7
 10
5.109400000000002
 20
2.980000000000001
 30
0
 11
5.109400000000002
 21
2.971000000000001
 31
0
  0
LINE
  8
0
 62
7
 10
5.109400000000002
 20
2.971000000000001
 30
0
 11
5.106700000000001
 21
2.962000000000001
 31
0
  0
LINE
  8
0
 62
7
 10
5.106700000000001
 20
2.962000000000001
 30
0
 11
5.101300000000002
 21
2.956000000000001
 31
0
  0
LINE
  8
0
 62
7
 10
5.101300000000002
 20
2.956000000000001
 30
0
 11
5.0878
 21
2.950000000000001
 31
0
  0
LINE
  8
0
 62
7
 10
5.068900000000002
 20
2.950000000000001
 30
0
 11
5.0878
 21
2.950000000000001
 31
0
  0
LINE
  8
0
 62
7
 10
5.0878
 20
2.950000000000001
 30
0
 11
5.101300000000002
 21
2.944000000000001
 31
0
  0
LINE
  8
0
 62
7
 10
5.101300000000002
 20
2.944000000000001
 30
0
 11
5.106700000000001
 21
2.938000000000001
 31
0
  0
LINE
  8
0
 62
7
 10
5.106700000000001
 20
2.938000000000001
 30
0
 11
5.109400000000002
 21
2.929000000000001
 31
0
  0
LINE
  8
0
 62
7
 10
5.109400000000002
 20
2.929000000000001
 30
0
 11
5.109400000000002
 21
2.920000000000001
 31
0
  0
LINE
  8
0
 62
7
 10
5.109400000000002
 20
2.920000000000001
 30
0
 11
5.106700000000001
 21
2.908000000000001
 31
0
  0
LINE
  8
0
 62
7
 10
5.106700000000001
 20
2.908000000000001
 30
0
 11
5.101300000000002
 21
2.899000000000001
 31
0
  0
LINE
  8
0
 62
7
 10
5.101300000000002
 20
2.899000000000001
 30
0
 11
5.093200000000001
 21
2.893000000000002
 31
0
  0
LINE
  8
0
 62
7
 10
5.093200000000001
 20
2.893000000000002
 30
0
 11
5.085100000000001
 21
2.890000000000001
 31
0
  0
LINE
  8
0
 62
7
 10
5.085100000000001
 20
2.890000000000001
 30
0
 11
5.068900000000002
 21
2.890000000000001
 31
0
  0
LINE
  8
0
 62
7
 10
5.068900000000002
 20
2.890000000000001
 30
0
 11
5.058100000000002
 21
2.893000000000002
 31
0
  0
LINE
  8
0
 62
7
 10
5.058100000000002
 20
2.893000000000002
 30
0
 11
5.050000000000001
 21
2.899000000000001
 31
0
  0
LINE
  8
0
 62
7
 10
5.050000000000001
 20
2.899000000000001
 30
0
 11
5.0446
 21
2.908000000000001
 31
0
  0
LINE
  8
0
 62
7
 10
6.875
 20
2.890000000000001
 30
0
 11
6.875
 21
2.990000000000001
 31
0
  0
LINE
  8
0
 62
7
 10
6.875
 20
2.990000000000001
 30
0
 11
6.938000000000001
 21
2.890000000000001
 31
0
  0
LINE
  8
0
 62
7
 10
6.938000000000001
 20
2.890000000000001
 30
0
 11
6.938000000000001
 21
2.990000000000001
 31
0
  0
LINE
  8
0
 62
7
 10
7.019000000000002
 20
2.890000000000001
 30
0
 11
6.965000000000001
 21
2.890000000000001
 31
0
  0
LINE
  8
0
 62
7
 10
6.965000000000001
 20
2.890000000000001
 30
0
 11
6.965000000000001
 21
2.990000000000001
 31
0
  0
LINE
  8
0
 62
7
 10
7.046000000000001
 20
2.940000000000001
 30
0
 11
7.082000000000001
 21
2.940000000000001
 31
0
  0
LINE
  8
0
 62
7
 10
7.082000000000001
 20
2.940000000000001
 30
0
 11
7.086500000000001
 21
2.940000000000001
 31
0
  0
LINE
  8
0
 62
7
 10
7.086500000000001
 20
2.940000000000001
 30
0
 11
7.095500000000001
 21
2.935000000000001
 31
0
  0
LINE
  8
0
 62
7
 10
7.095500000000001
 20
2.935000000000001
 30
0
 11
7.100000000000001
 21
2.930000000000001
 31
0
  0
LINE
  8
0
 62
7
 10
7.100000000000001
 20
2.930000000000001
 30
0
 11
7.104500000000001
 21
2.920000000000001
 31
0
  0
LINE
  8
0
 62
7
 10
7.104500000000001
 20
2.920000000000001
 30
0
 11
7.104500000000001
 21
2.910000000000001
 31
0
  0
LINE
  8
0
 62
7
 10
7.104500000000001
 20
2.910000000000001
 30
0
 11
7.100000000000001
 21
2.900000000000001
 31
0
  0
LINE
  8
0
 62
7
 10
7.100000000000001
 20
2.900000000000001
 30
0
 11
7.095500000000001
 21
2.895000000000001
 31
0
  0
LINE
  8
0
 62
7
 10
7.095500000000001
 20
2.895000000000001
 30
0
 11
7.086500000000001
 21
2.890000000000001
 31
0
  0
LINE
  8
0
 62
7
 10
7.086500000000001
 20
2.890000000000001
 30
0
 11
7.046000000000001
 21
2.890000000000001
 31
0
  0
LINE
  8
0
 62
7
 10
7.046000000000001
 20
2.890000000000001
 30
0
 11
7.046000000000001
 21
2.940000000000001
 31
0
  0
LINE
  8
0
 62
7
 10
7.046000000000001
 20
2.990000000000001
 30
0
 11
7.079750000000001
 21
2.990000000000001
 31
0
  0
LINE
  8
0
 62
7
 10
7.079750000000001
 20
2.990000000000001
 30
0
 11
7.091
 21
2.987500000000001
 31
0
  0
LINE
  8
0
 62
7
 10
7.091
 20
2.987500000000001
 30
0
 11
7.097750000000001
 21
2.980000000000001
 31
0
  0
LINE
  8
0
 62
7
 10
7.097750000000001
 20
2.980000000000001
 30
0
 11
7.100000000000001
 21
2.970000000000001
 31
0
  0
LINE
  8
0
 62
7
 10
7.100000000000001
 20
2.970000000000001
 30
0
 11
7.100000000000001
 21
2.960000000000001
 31
0
  0
LINE
  8
0
 62
7
 10
7.100000000000001
 20
2.960000000000001
 30
0
 11
7.095500000000001
 21
2.950000000000001
 31
0
  0
LINE
  8
0
 62
7
 10
7.095500000000001
 20
2.950000000000001
 30
0
 11
7.088750000000001
 21
2.942500000000001
 31
0
  0
LINE
  8
0
 62
7
 10
7.088750000000001
 20
2.942500000000001
 30
0
 11
7.082000000000001
 21
2.940000000000001
 31
0
  0
LINE
  8
0
 62
7
 10
7.046000000000001
 20
2.940000000000001
 30
0
 11
7.046000000000001
 21
2.990000000000001
 31
0
  0
LINE
  8
0
 62
7
 10
7.246250000000001
 20
2.942500000000001
 30
0
 11
7.2395
 21
2.952500000000001
 31
0
  0
LINE
  8
0
 62
7
 10
7.2395
 20
2.952500000000001
 30
0
 11
7.232750000000002
 21
2.957500000000001
 31
0
  0
LINE
  8
0
 62
7
 10
7.232750000000002
 20
2.957500000000001
 30
0
 11
7.226000000000001
 21
2.960000000000001
 31
0
  0
LINE
  8
0
 62
7
 10
7.226000000000001
 20
2.960000000000001
 30
0
 11
7.217000000000001
 21
2.960000000000001
 31
0
  0
LINE
  8
0
 62
7
 10
7.217000000000001
 20
2.960000000000001
 30
0
 11
7.210250000000001
 21
2.957500000000001
 31
0
  0
LINE
  8
0
 62
7
 10
7.210250000000001
 20
2.957500000000001
 30
0
 11
7.2035
 21
2.952500000000001
 31
0
  0
LINE
  8
0
 62
7
 10
7.2035
 20
2.952500000000001
 30
0
 11
7.196750000000002
 21
2.942500000000001
 31
0
  0
LINE
  8
0
 62
7
 10
7.196750000000002
 20
2.942500000000001
 30
0
 11
7.194500000000001
 21
2.935000000000001
 31
0
  0
LINE
  8
0
 62
7
 10
7.194500000000001
 20
2.935000000000001
 30
0
 11
7.194500000000001
 21
2.915000000000001
 31
0
  0
LINE
  8
0
 62
7
 10
7.194500000000001
 20
2.915000000000001
 30
0
 11
7.196750000000002
 21
2.907500000000001
 31
0
  0
LINE
  8
0
 62
7
 10
7.196750000000002
 20
2.907500000000001
 30
0
 11
7.2035
 21
2.897500000000001
 31
0
  0
LINE
  8
0
 62
7
 10
7.2035
 20
2.897500000000001
 30
0
 11
7.210250000000001
 21
2.892500000000001
 31
0
  0
LINE
  8
0
 62
7
 10
7.210250000000001
 20
2.892500000000001
 30
0
 11
7.217000000000001
 21
2.890000000000001
 31
0
  0
LINE
  8
0
 62
7
 10
7.217000000000001
 20
2.890000000000001
 30
0
 11
7.226000000000001
 21
2.890000000000001
 31
0
  0
LINE
  8
0
 62
7
 10
7.226000000000001
 20
2.890000000000001
 30
0
 11
7.232750000000002
 21
2.892500000000001
 31
0
  0
LINE
  8
0
 62
7
 10
7.232750000000002
 20
2.892500000000001
 30
0
 11
7.2395
 21
2.897500000000001
 31
0
  0
LINE
  8
0
 62
7
 10
7.2395
 20
2.897500000000001
 30
0
 11
7.246250000000001
 21
2.907500000000001
 31
0
  0
LINE
  8
0
 62
7
 10
7.318250000000001
 20
2.935000000000001
 30
0
 11
7.316
 21
2.942500000000001
 31
0
  0
LINE
  8
0
 62
7
 10
7.316
 20
2.942500000000001
 30
0
 11
7.309250000000002
 21
2.952500000000001
 31
0
  0
LINE
  8
0
 62
7
 10
7.309250000000002
 20
2.952500000000001
 30
0
 11
7.302500000000001
 21
2.957500000000001
 31
0
  0
LINE
  8
0
 62
7
 10
7.302500000000001
 20
2.957500000000001
 30
0
 11
7.29575
 21
2.960000000000001
 31
0
  0
LINE
  8
0
 62
7
 10
7.29575
 20
2.960000000000001
 30
0
 11
7.286750000000001
 21
2.960000000000001
 31
0
  0
LINE
  8
0
 62
7
 10
7.286750000000001
 20
2.960000000000001
 30
0
 11
7.28
 21
2.957500000000001
 31
0
  0
LINE
  8
0
 62
7
 10
7.28
 20
2.957500000000001
 30
0
 11
7.273250000000001
 21
2.952500000000001
 31
0
  0
LINE
  8
0
 62
7
 10
7.273250000000001
 20
2.952500000000001
 30
0
 11
7.266500000000001
 21
2.942500000000001
 31
0
  0
LINE
  8
0
 62
7
 10
7.266500000000001
 20
2.942500000000001
 30
0
 11
7.264250000000001
 21
2.935000000000001
 31
0
  0
LINE
  8
0
 62
7
 10
7.264250000000001
 20
2.935000000000001
 30
0
 11
7.264250000000001
 21
2.915000000000001
 31
0
  0
LINE
  8
0
 62
7
 10
7.264250000000001
 20
2.915000000000001
 30
0
 11
7.266500000000001
 21
2.907500000000001
 31
0
  0
LINE
  8
0
 62
7
 10
7.266500000000001
 20
2.907500000000001
 30
0
 11
7.273250000000001
 21
2.897500000000001
 31
0
  0
LINE
  8
0
 62
7
 10
7.273250000000001
 20
2.897500000000001
 30
0
 11
7.28
 21
2.892500000000001
 31
0
  0
LINE
  8
0
 62
7
 10
7.28
 20
2.892500000000001
 30
0
 11
7.286750000000001
 21
2.890000000000001
 31
0
  0
LINE
  8
0
 62
7
 10
7.286750000000001
 20
2.890000000000001
 30
0
 11
7.29575
 21
2.890000000000001
 31
0
  0
LINE
  8
0
 62
7
 10
7.29575
 20
2.890000000000001
 30
0
 11
7.302500000000001
 21
2.892500000000001
 31
0
  0
LINE
  8
0
 62
7
 10
7.302500000000001
 20
2.892500000000001
 30
0
 11
7.309250000000002
 21
2.897500000000001
 31
0
  0
LINE
  8
0
 62
7
 10
7.309250000000002
 20
2.897500000000001
 30
0
 11
7.316
 21
2.907500000000001
 31
0
  0
LINE
  8
0
 62
7
 10
7.316
 20
2.907500000000001
 30
0
 11
7.318250000000001
 21
2.915000000000001
 31
0
  0
LINE
  8
0
 62
7
 10
7.318250000000001
 20
2.960000000000001
 30
0
 11
7.318250000000001
 21
2.935000000000001
 31
0
  0
LINE
  8
0
 62
7
 10
7.318250000000001
 20
2.892500000000001
 30
0
 11
7.320500000000002
 21
2.890000000000001
 31
0
  0
LINE
  8
0
 62
7
 10
7.320500000000002
 20
2.890000000000001
 30
0
 11
7.322750000000001
 21
2.890000000000001
 31
0
  0
LINE
  8
0
 62
7
 10
7.318250000000001
 20
2.915000000000001
 30
0
 11
7.318250000000001
 21
2.892500000000001
 31
0
  0
LINE
  8
0
 62
7
 10
7.318250000000001
 20
2.935000000000001
 30
0
 11
7.318250000000001
 21
2.915000000000001
 31
0
  0
LINE
  8
0
 62
7
 10
7.34075
 20
2.890000000000001
 30
0
 11
7.34075
 21
2.892500000000001
 31
0
  0
LINE
  8
0
 62
7
 10
7.34075
 20
2.892500000000001
 30
0
 11
7.343000000000001
 21
2.892500000000001
 31
0
  0
LINE
  8
0
 62
7
 10
7.343000000000001
 20
2.892500000000001
 30
0
 11
7.343000000000001
 21
2.890000000000001
 31
0
  0
LINE
  8
0
 62
7
 10
7.343000000000001
 20
2.890000000000001
 30
0
 11
7.34075
 21
2.890000000000001
 31
0
  0
LINE
  8
0
 62
7
 10
7.466750000000001
 20
2.990000000000001
 30
0
 11
7.475750000000001
 21
2.990000000000001
 31
0
  0
LINE
  8
0
 62
7
 10
7.475750000000001
 20
2.990000000000001
 30
0
 11
7.482500000000001
 21
2.987500000000001
 31
0
  0
LINE
  8
0
 62
7
 10
7.482500000000001
 20
2.987500000000001
 30
0
 11
7.487000000000001
 21
2.982500000000001
 31
0
  0
LINE
  8
0
 62
7
 10
7.487000000000001
 20
2.982500000000001
 30
0
 11
7.491500000000001
 21
2.975000000000001
 31
0
  0
LINE
  8
0
 62
7
 10
7.491500000000001
 20
2.975000000000001
 30
0
 11
7.491500000000001
 21
2.965000000000001
 31
0
  0
LINE
  8
0
 62
7
 10
7.491500000000001
 20
2.965000000000001
 30
0
 11
7.489250000000002
 21
2.960000000000001
 31
0
  0
LINE
  8
0
 62
7
 10
7.489250000000002
 20
2.960000000000001
 30
0
 11
7.482500000000001
 21
2.952500000000001
 31
0
  0
LINE
  8
0
 62
7
 10
7.482500000000001
 20
2.952500000000001
 30
0
 11
7.475750000000001
 21
2.950000000000001
 31
0
  0
LINE
  8
0
 62
7
 10
7.475750000000001
 20
2.950000000000001
 30
0
 11
7.466750000000001
 21
2.950000000000001
 31
0
  0
LINE
  8
0
 62
7
 10
7.466750000000001
 20
2.950000000000001
 30
0
 11
7.460000000000001
 21
2.952500000000001
 31
0
  0
LINE
  8
0
 62
7
 10
7.460000000000001
 20
2.952500000000001
 30
0
 11
7.453250000000001
 21
2.960000000000001
 31
0
  0
LINE
  8
0
 62
7
 10
7.453250000000001
 20
2.960000000000001
 30
0
 11
7.451000000000001
 21
2.965000000000001
 31
0
  0
LINE
  8
0
 62
7
 10
7.451000000000001
 20
2.965000000000001
 30
0
 11
7.451000000000001
 21
2.975000000000001
 31
0
  0
LINE
  8
0
 62
7
 10
7.451000000000001
 20
2.975000000000001
 30
0
 11
7.455500000000001
 21
2.982500000000001
 31
0
  0
LINE
  8
0
 62
7
 10
7.455500000000001
 20
2.982500000000001
 30
0
 11
7.460000000000001
 21
2.987500000000001
 31
0
  0
LINE
  8
0
 62
7
 10
7.460000000000001
 20
2.987500000000001
 30
0
 11
7.466750000000001
 21
2.990000000000001
 31
0
  0
LINE
  8
0
 62
7
 10
7.466750000000001
 20
2.950000000000001
 30
0
 11
7.455500000000001
 21
2.945000000000001
 31
0
  0
LINE
  8
0
 62
7
 10
7.455500000000001
 20
2.945000000000001
 30
0
 11
7.44875
 21
2.937500000000001
 31
0
  0
LINE
  8
0
 62
7
 10
7.44875
 20
2.937500000000001
 30
0
 11
7.444250000000001
 21
2.927500000000001
 31
0
  0
LINE
  8
0
 62
7
 10
7.444250000000001
 20
2.927500000000001
 30
0
 11
7.444250000000001
 21
2.912500000000001
 31
0
  0
LINE
  8
0
 62
7
 10
7.444250000000001
 20
2.912500000000001
 30
0
 11
7.44875
 21
2.902500000000001
 31
0
  0
LINE
  8
0
 62
7
 10
7.44875
 20
2.902500000000001
 30
0
 11
7.455500000000001
 21
2.895000000000001
 31
0
  0
LINE
  8
0
 62
7
 10
7.455500000000001
 20
2.895000000000001
 30
0
 11
7.4645
 21
2.890000000000001
 31
0
  0
LINE
  8
0
 62
7
 10
7.4645
 20
2.890000000000001
 30
0
 11
7.478000000000002
 21
2.890000000000001
 31
0
  0
LINE
  8
0
 62
7
 10
7.478000000000002
 20
2.890000000000001
 30
0
 11
7.487000000000001
 21
2.895000000000001
 31
0
  0
LINE
  8
0
 62
7
 10
7.487000000000001
 20
2.895000000000001
 30
0
 11
7.49375
 21
2.902500000000001
 31
0
  0
LINE
  8
0
 62
7
 10
7.49375
 20
2.902500000000001
 30
0
 11
7.498250000000001
 21
2.912500000000001
 31
0
  0
LINE
  8
0
 62
7
 10
7.498250000000001
 20
2.912500000000001
 30
0
 11
7.498250000000001
 21
2.927500000000001
 31
0
  0
LINE
  8
0
 62
7
 10
7.498250000000001
 20
2.927500000000001
 30
0
 11
7.49375
 21
2.937500000000001
 31
0
  0
LINE
  8
0
 62
7
 10
7.49375
 20
2.937500000000001
 30
0
 11
7.487000000000001
 21
2.945000000000001
 31
0
  0
LINE
  8
0
 62
7
 10
7.487000000000001
 20
2.945000000000001
 30
0
 11
7.475750000000001
 21
2.950000000000001
 31
0
  0
LINE
  8
0
 62
7
 10
7.583750000000001
 20
2.990000000000001
 30
0
 11
7.534250000000002
 21
2.990000000000001
 31
0
  0
LINE
  8
0
 62
7
 10
7.534250000000002
 20
2.990000000000001
 30
0
 11
7.534250000000002
 21
2.940000000000001
 31
0
  0
LINE
  8
0
 62
7
 10
7.534250000000002
 20
2.940000000000001
 30
0
 11
7.53875
 21
2.947500000000001
 31
0
  0
LINE
  8
0
 62
7
 10
7.53875
 20
2.947500000000001
 30
0
 11
7.545500000000001
 21
2.952500000000001
 31
0
  0
LINE
  8
0
 62
7
 10
7.545500000000001
 20
2.952500000000001
 30
0
 11
7.554500000000001
 21
2.955000000000001
 31
0
  0
LINE
  8
0
 62
7
 10
7.554500000000001
 20
2.955000000000001
 30
0
 11
7.568000000000001
 21
2.955000000000001
 31
0
  0
LINE
  8
0
 62
7
 10
7.568000000000001
 20
2.955000000000001
 30
0
 11
7.574750000000001
 21
2.952500000000001
 31
0
  0
LINE
  8
0
 62
7
 10
7.574750000000001
 20
2.952500000000001
 30
0
 11
7.581500000000002
 21
2.947500000000001
 31
0
  0
LINE
  8
0
 62
7
 10
7.581500000000002
 20
2.947500000000001
 30
0
 11
7.586
 21
2.940000000000001
 31
0
  0
LINE
  8
0
 62
7
 10
7.586
 20
2.940000000000001
 30
0
 11
7.588250000000001
 21
2.930000000000001
 31
0
  0
LINE
  8
0
 62
7
 10
7.588250000000001
 20
2.930000000000001
 30
0
 11
7.588250000000001
 21
2.915000000000001
 31
0
  0
LINE
  8
0
 62
7
 10
7.588250000000001
 20
2.915000000000001
 30
0
 11
7.586
 21
2.905000000000001
 31
0
  0
LINE
  8
0
 62
7
 10
7.586
 20
2.905000000000001
 30
0
 11
7.581500000000002
 21
2.897500000000001
 31
0
  0
LINE
  8
0
 62
7
 10
7.581500000000002
 20
2.897500000000001
 30
0
 11
7.574750000000001
 21
2.892500000000001
 31
0
  0
LINE
  8
0
 62
7
 10
7.574750000000001
 20
2.892500000000001
 30
0
 11
7.568000000000001
 21
2.890000000000001
 31
0
  0
LINE
  8
0
 62
7
 10
7.568000000000001
 20
2.890000000000001
 30
0
 11
7.554500000000001
 21
2.890000000000001
 31
0
  0
LINE
  8
0
 62
7
 10
7.554500000000001
 20
2.890000000000001
 30
0
 11
7.545500000000001
 21
2.892500000000001
 31
0
  0
LINE
  8
0
 62
7
 10
7.545500000000001
 20
2.892500000000001
 30
0
 11
7.53875
 21
2.897500000000001
 31
0
  0
LINE
  8
0
 62
7
 10
7.53875
 20
2.897500000000001
 30
0
 11
7.534250000000002
 21
2.905000000000001
 31
0
  0
LINE
  8
0
 62
7
 10
7.739000000000002
 20
2.942500000000001
 30
0
 11
7.732250000000001
 21
2.952500000000001
 31
0
  0
LINE
  8
0
 62
7
 10
7.732250000000001
 20
2.952500000000001
 30
0
 11
7.725500000000001
 21
2.957500000000001
 31
0
  0
LINE
  8
0
 62
7
 10
7.725500000000001
 20
2.957500000000001
 30
0
 11
7.71875
 21
2.960000000000001
 31
0
  0
LINE
  8
0
 62
7
 10
7.71875
 20
2.960000000000001
 30
0
 11
7.70975
 21
2.960000000000001
 31
0
  0
LINE
  8
0
 62
7
 10
7.70975
 20
2.960000000000001
 30
0
 11
7.703000000000002
 21
2.957500000000001
 31
0
  0
LINE
  8
0
 62
7
 10
7.703000000000002
 20
2.957500000000001
 30
0
 11
7.696250000000001
 21
2.952500000000001
 31
0
  0
LINE
  8
0
 62
7
 10
7.696250000000001
 20
2.952500000000001
 30
0
 11
7.6895
 21
2.942500000000001
 31
0
  0
LINE
  8
0
 62
7
 10
7.6895
 20
2.942500000000001
 30
0
 11
7.687250000000001
 21
2.935000000000001
 31
0
  0
LINE
  8
0
 62
7
 10
7.687250000000001
 20
2.935000000000001
 30
0
 11
7.687250000000001
 21
2.915000000000001
 31
0
  0
LINE
  8
0
 62
7
 10
7.687250000000001
 20
2.915000000000001
 30
0
 11
7.6895
 21
2.907500000000001
 31
0
  0
LINE
  8
0
 62
7
 10
7.6895
 20
2.907500000000001
 30
0
 11
7.696250000000001
 21
2.897500000000001
 31
0
  0
LINE
  8
0
 62
7
 10
7.696250000000001
 20
2.897500000000001
 30
0
 11
7.703000000000002
 21
2.892500000000001
 31
0
  0
LINE
  8
0
 62
7
 10
7.703000000000002
 20
2.892500000000001
 30
0
 11
7.70975
 21
2.890000000000001
 31
0
  0
LINE
  8
0
 62
7
 10
7.70975
 20
2.890000000000001
 30
0
 11
7.71875
 21
2.890000000000001
 31
0
  0
LINE
  8
0
 62
7
 10
7.71875
 20
2.890000000000001
 30
0
 11
7.725500000000001
 21
2.892500000000001
 31
0
  0
LINE
  8
0
 62
7
 10
7.725500000000001
 20
2.892500000000001
 30
0
 11
7.732250000000001
 21
2.897500000000001
 31
0
  0
LINE
  8
0
 62
7
 10
7.732250000000001
 20
2.897500000000001
 30
0
 11
7.739000000000002
 21
2.907500000000001
 31
0
  0
LINE
  8
0
 62
7
 10
7.797500000000001
 20
2.935000000000001
 30
0
 11
7.797500000000001
 21
2.890000000000001
 31
0
  0
LINE
  8
0
 62
7
 10
7.757000000000001
 20
2.960000000000001
 30
0
 11
7.757000000000001
 21
2.935000000000001
 31
0
  0
LINE
  8
0
 62
7
 10
7.757000000000001
 20
2.890000000000001
 30
0
 11
7.757000000000001
 21
2.935000000000001
 31
0
  0
LINE
  8
0
 62
7
 10
7.757000000000001
 20
2.935000000000001
 30
0
 11
7.759250000000002
 21
2.947500000000001
 31
0
  0
LINE
  8
0
 62
7
 10
7.759250000000002
 20
2.947500000000001
 30
0
 11
7.761500000000002
 21
2.952500000000001
 31
0
  0
LINE
  8
0
 62
7
 10
7.761500000000002
 20
2.952500000000001
 30
0
 11
7.766
 21
2.957500000000001
 31
0
  0
LINE
  8
0
 62
7
 10
7.766
 20
2.957500000000001
 30
0
 11
7.772750000000001
 21
2.960000000000001
 31
0
  0
LINE
  8
0
 62
7
 10
7.772750000000001
 20
2.960000000000001
 30
0
 11
7.781750000000001
 21
2.960000000000001
 31
0
  0
LINE
  8
0
 62
7
 10
7.781750000000001
 20
2.960000000000001
 30
0
 11
7.788500000000001
 21
2.957500000000001
 31
0
  0
LINE
  8
0
 62
7
 10
7.788500000000001
 20
2.957500000000001
 30
0
 11
7.793000000000001
 21
2.952500000000001
 31
0
  0
LINE
  8
0
 62
7
 10
7.793000000000001
 20
2.952500000000001
 30
0
 11
7.795250000000002
 21
2.947500000000001
 31
0
  0
LINE
  8
0
 62
7
 10
7.795250000000002
 20
2.947500000000001
 30
0
 11
7.797500000000001
 21
2.935000000000001
 31
0
  0
LINE
  8
0
 62
7
 10
7.797500000000001
 20
2.935000000000001
 30
0
 11
7.79975
 21
2.947500000000001
 31
0
  0
LINE
  8
0
 62
7
 10
7.79975
 20
2.947500000000001
 30
0
 11
7.802
 21
2.952500000000001
 31
0
  0
LINE
  8
0
 62
7
 10
7.802
 20
2.952500000000001
 30
0
 11
7.806500000000002
 21
2.957500000000001
 31
0
  0
LINE
  8
0
 62
7
 10
7.806500000000002
 20
2.957500000000001
 30
0
 11
7.813250000000001
 21
2.960000000000001
 31
0
  0
LINE
  8
0
 62
7
 10
7.813250000000001
 20
2.960000000000001
 30
0
 11
7.82225
 21
2.960000000000001
 31
0
  0
LINE
  8
0
 62
7
 10
7.82225
 20
2.960000000000001
 30
0
 11
7.829000000000001
 21
2.957500000000001
 31
0
  0
LINE
  8
0
 62
7
 10
7.833500000000001
 20
2.952500000000001
 30
0
 11
7.829000000000001
 21
2.957500000000001
 31
0
  0
LINE
  8
0
 62
7
 10
7.829000000000001
 20
2.957500000000001
 30
0
 11
7.833500000000001
 21
2.952500000000001
 31
0
  0
LINE
  8
0
 62
7
 10
7.833500000000001
 20
2.952500000000001
 30
0
 11
7.835750000000001
 21
2.947500000000001
 31
0
  0
LINE
  8
0
 62
7
 10
7.835750000000001
 20
2.947500000000001
 30
0
 11
7.838000000000001
 21
2.935000000000001
 31
0
  0
LINE
  8
0
 62
7
 10
7.838000000000001
 20
2.935000000000001
 30
0
 11
7.838000000000001
 21
2.890000000000001
 31
0
  0
ARC
  8
0
 62
7
 10
6.460268150957122
 20
3.485268150957119
 30
0
 40
0.5100000000000066
 50
359.9698746678835
 51
90.03012533151812
  0
ARC
  8
0
 62
7
 10
5.379731849042881
 20
3.485268150957119
 30
0
 40
0.5100000000000061
 50
89.969874667883
 51
180.0301253312751
  0
CIRCLE
  8
0
 62
7
 10
4.869731919537921
 20
3.250000000000001
 30
0
 40
0.0600000000000005
  0
DIMENSION
  8
0
  6
CONTINUOUS
 62
7
  2
*D1
  3
DMST_1
 10
4.415000000000002
 20
11.4972447357066
 30
0
 11
5.831767652302251
 21
11.4972447357066
 31
0
 12
0
 22
0
 32
0
 70
0
 13
7.425000000000002
 23
11.2
 33
0
 14
4.415000000000002
 24
11.2
 34
0
 53
0
  0
DIMENSION
  8
0
  6
CONTINUOUS
 62
7
  2
*D2
  3
DMST_2
 10
3.84787671379093
 20
4.450000000000001
 30
0
 11
3.84787671379093
 21
3.87429409924488
 31
0
 12
0
 22
0
 32
0
 70
0
 13
4.240000000000001
 23
3.25
 33
0
 14
4.240000000000001
 24
4.450000000000001
 34
0
 50
90
 53
0
  0
DIMENSION
  8
0
  6
CONTINUOUS
 62
7
  2
*D3
  3
DMST_2
 10
4.415000000000001
 20
5.34117103559871
 30
0
 11
5.91593272242092
 21
5.34117103559871
 31
0
 12
0
 22
0
 32
0
 70
0
 13
7.425000000000002
 23
4.969999999999998
 33
0
 14
4.415000000000002
 24
4.969999999999998
 34
0
 53
0
  0
DIMENSION
  8
0
  6
CONTINUOUS
 62
7
  2
*D4
  3
DMST_2
 10
7.97196514960538
 20
4.450000000000001
 30
0
 11
7.97196514960538
 21
3.91036484358145
 31
0
 12
0
 22
0
 32
0
 70
0
 13
7.600000000000001
 23
3.35
 33
0
 14
7.600000000000001
 24
4.450000000000001
 34
0
 50
90
 53
0
  0
INSERT
  8
0
  2
*D0
 10
0
 20
0
 30
0
  0
ENDSEC
  0
EOF
