  0
SECTION
  2
HEADER
  9
$ACADVER
  1
AC1009
  9
$INSBASE
 10
0
 20
0
  9
$EXTMIN
 10
0.9208188915857898
 20
3.04
  9
$EXTMAX
 10
8.700000000000001
 20
11.7394946736785
  9
$LIMMIN
 10
0.9208188915857898
 20
3.04
  9
$LIMMAX
 10
8.700000000000001
 20
11.7394946736785
  9
$VIEWCTR
 10
10
 20
10
  9
$VIEWSIZE
 40
10
  9
$SNAPMODE
 70
0
  9
$SNAPUNIT
 10
1
 20
1
  9
$SNAPBASE
 10
0
 20
0
  9
$SNAPANG
 50
0
  9
$SNAPSTYLE
 70
0
  9
$SNAPISOPAIR
 70
0
  9
$GRIDMODE
 70
0
  9
$GRIDUNIT
 10
0
 20
0
  9
$ORTHOMODE
 70
0
  9
$REGENMODE
 70
1
  9
$FILLMODE
 70
1
  9
$QTEXTMODE
 70
0
  9
$DRAGMODE
 70
2
  9
$LTSCALE
 40
1
  9
$OSMODE
 70
0
  9
$ATTMODE
 70
1
  9
$TEXTSIZE
 40
3.5
  9
$TRACEWID
 40
0.5
  9
$TEXTSTYLE
  7
STANDARD
  9
$CLAYER
  8
0
  9
$CELTYPE
  6
BYLAYER
  9
$CECOLOR
 62
256
  9
$DIMSCALE
 40
1
  9
$DIMASZ
 40
0.18
  9
$DIMEXO
 40
0.0625
  9
$DIMDLI
 40
0.38
  9
$DIMRND
 40
0
  9
$DIMDLE
 40
0
  9
$DIMEXE
 40
0.18
  9
$DIMTP
 40
0
  9
$DIMTM
 40
0
  9
$DIMTXT
 40
0.18
  9
$DIMCEN
 40
0.09
  9
$DIMTSZ
 40
0
  9
$DIMTOL
 70
0
  9
$DIMLIM
 70
0
  9
$DIMTIH
 70
1
  9
$DIMTOH
 70
1
  9
$DIMSE1
 70
0
  9
$DIMSE2
 70
0
  9
$DIMTAD
 70
0
  9
$DIMZIN
 70
0
  9
$DIMBLK
  1

  9
$DIMASO
 70
1
  9
$DIMSHO
 70
1
  9
$DIMPOST
  1

  9
$DIMAPOST
  1

  9
$DIMALT
 70
0
  9
$DIMALTD
 70
2
  9
$DIMALTF
 40
25.4
  9
$DIMLFAC
 40
1
  9
$DIMTOFL
 70
0
  9
$DIMTVP
 40
0
  9
$DIMTIX
 70
0
  9
$DIMSOXD
 70
0
  9
$DIMSAH
 70
0
  9
$DIMBLK1
  1

  9
$DIMBLK2
  1

  9
$DIMSTYLE
  2
*UNNAMED
  9
$DIMCLRD
 70
0
  9
$DIMCLRE
 70
0
  9
$DIMCLRT
 70
0
  9
$DIMTFAC
 40
1
  9
$DIMGAP
 40
0.09
  9
$LUNITS
 70
2
  9
$LUPREC
 70
4
  9
$AXISMODE
 70
0
  9
$AXISUNIT
 10
0
 20
0
  9
$SKETCHINC
 40
0.1
  9
$FILLETRAD
 40
2
  9
$AUNITS
 70
0
  9
$AUPREC
 70
0
  9
$MENU
  1
ACAD
  9
$ELEVATION
 40
0
  9
$THICKNESS
 40
0
  9
$VIEWDIR
 10
0
 20
0
 30
1
  9
$LIMCHECK
 70
0
  9
$BLIPMODE
 70
1
  9
$CHAMFERA
 40
0
  9
$CHAMFERB
 40
0
  9
$FASTZOOM
 70
1
  9
$SKPOLY
 70
0
  9
$ANGBASE
 50
0
  9
$ANGDIR
 70
0
  9
$PDMODE
 70
0
  9
$PDSIZE
 40
0
  9
$PLINEWID
 40
0
  9
$COORDS
 70
2
  0
ENDSEC
  0
SECTION
  2
TABLES
  0
TABLE
  2
DIMSTYLE
 70
2
  0
DIMSTYLE
  2
DMST_1
 70
0
  3

  4

  5

  6

  7

 40
1
 41
0.1
 42
0
 43
0.7
 44
0.2
 45
0
 46
0
 47
0
 48
0
140
0.1
141
0
142
0.1
143
25.4
144
1
145
0
146
1
147
0.2
 71
0
 72
0
 73
0
 74
0
 75
0
 76
0
 77
0
 78
9
170
0
171
2
172
0
173
0
174
0
175
0
176
7
177
7
178
7
  0
DIMSTYLE
  2
DMST_2
 70
0
  3

  4

  5

  6

  7

 40
1
 41
0.1
 42
0
 43
0.7
 44
0.2
 45
0
 46
0
 47
0
 48
0
140
0.1
141
0
142
0.1
143
25.4
144
1
145
0
146
1
147
0.25
 71
0
 72
0
 73
0
 74
0
 75
0
 76
0
 77
0
 78
9
170
0
171
2
172
0
173
0
174
0
175
0
176
7
177
7
178
7
  0
ENDTAB
  0
TABLE
  2
LTYPE
 70
9
  0
LTYPE
  2
CONTINUOUS
 70
64
  3
Solid line
 72
65
 73
0
 40
0
  0
LTYPE
  2
BORDER
 70
64
  3
__ __ . __ __ .
 72
65
 73
6
 40
0.400634623129931
 49
0.1144670351799803
 49
-0.05723351758999014
 49
0.1144670351799803
 49
-0.05723351758999014
 49
0
 49
-0.05723351758999014
  0
LTYPE
  2
CENTER
 70
64
  3
____ _ ____ _
 72
65
 73
4
 40
0.4578681407199211
 49
0.2861675879499507
 49
-0.05723351758999014
 49
0.05723351758999014
 49
-0.05723351758999014
  0
LTYPE
  2
DASHDOT
 70
64
  3
__ . __ . __ .
 72
65
 73
4
 40
0.2289340703599606
 49
0.1144670351799803
 49
-0.05723351758999014
 49
0
 49
-0.05723351758999014
  0
LTYPE
  2
DASHED
 70
64
  3
__ __ __ __ __
 72
65
 73
2
 40
0.1717005527699704
 49
0.1144670351799803
 49
-0.05723351758999014
  0
LTYPE
  2
DIVIDE
 70
64
  3
__ . . __ . . 
 72
65
 73
6
 40
0.2861675879499507
 49
0.1144670351799803
 49
-0.05723351758999014
 49
0
 49
-0.05723351758999014
 49
0
 49
-0.05723351758999014
  0
LTYPE
  2
DOT
 70
64
  3
..............
 72
65
 73
4
 40
0.1144670351799803
 49
0
 49
-0.05723351758999014
 49
0
 49
-0.05723351758999014
  0
LTYPE
  2
HIDDEN
 70
64
  3
_ _ _ _ _ _ _
 72
65
 73
2
 40
0.08585027638498521
 49
0.05723351758999014
 49
-0.02861675879499507
  0
LTYPE
  2
PHANTOM
 70
64
  3
_____ _ _ _____ _ _ 
 72
65
 73
6
 40
0.5723351758999013
 49
0.2861675879499507
 49
-0.05723351758999014
 49
0.05723351758999014
 49
-0.05723351758999014
 49
0.05723351758999014
 49
-0.05723351758999014
  0
ENDTAB
  0
TABLE
  2
LAYER
 70
2
  0
LAYER
  2
0
 70
0
 62
7
  6
CONTINUOUS
  0
ENDTAB
  0
TABLE
  2
STYLE
 70
4
  0
STYLE
  2
STANDARD
 70
0
 40
0
 41
1
 50
0
 71
0
 42
3.5
  3
txt
  4

  0
STYLE
  2
SIMPLEX
 70
0
 40
0
 41
1
 50
0
 71
0
 42
3.5
  3
simplex
  4

  0
STYLE
  2
COMPLEX
 70
0
 40
0
 41
1
 50
0
 71
0
 42
3.5
  3
complex
  4

  0
STYLE
  2
ITALIC
 70
0
 40
0
 41
1
 50
0
 71
0
 42
3.5
  3
italic
  4

  0
ENDTAB
  0
TABLE
  2
VIEW
 70
0
  0
ENDTAB
  0
ENDSEC
  0
SECTION
  2
BLOCKS
  0
BLOCK
  8
0
  2
*X0
 70
1
 10
0
 20
0
 30
0
  0
LINE
  8
0
 62
7
 10
1.550000000000001
 20
8.232159082212874
 30
0
 11
1.567840917787126
 21
8.249999999999998
 31
0
  0
LINE
  8
0
 62
7
 10
1.629972952143091
 20
8.1
 30
0
 11
1.725
 21
8.195027047856907
 31
0
  0
LINE
  8
0
 62
7
 10
1.55
 20
8.12609306503489
 30
0
 11
1.673906934965107
 21
8.249999999999998
 31
0
  0
ENDBLK
  8
0
  0
BLOCK
  8
0
  2
*X1
 70
1
 10
0
 20
0
 30
0
  0
LINE
  8
0
 62
7
 10
1.550000000000001
 20
10.9898755288404
 30
0
 11
1.560124471159591
 21
11
 31
0
  0
LINE
  8
0
 62
7
 10
1.550000000000001
 20
10.77774349448444
 30
0
 11
1.725
 21
10.95274349448444
 31
0
  0
LINE
  8
0
 62
7
 10
1.550000000000001
 20
10.56561146012848
 30
0
 11
1.725
 21
10.74061146012848
 31
0
  0
LINE
  8
0
 62
7
 10
1.550000000000001
 20
10.35347942577251
 30
0
 11
1.725
 21
10.52847942577251
 31
0
  0
LINE
  8
0
 62
7
 10
1.550000000000001
 20
10.14134739141655
 30
0
 11
1.725
 21
10.31634739141655
 31
0
  0
LINE
  8
0
 62
7
 10
1.550000000000001
 20
9.929215357060585
 30
0
 11
1.725
 21
10.10421535706058
 31
0
  0
LINE
  8
0
 62
7
 10
1.550000000000001
 20
9.717083322704621
 30
0
 11
1.725
 21
9.89208332270462
 31
0
  0
LINE
  8
0
 62
7
 10
1.550000000000001
 20
9.504951288348657
 30
0
 11
1.725
 21
9.679951288348656
 31
0
  0
LINE
  8
0
 62
7
 10
1.550000000000001
 20
9.292819253992693
 30
0
 11
1.725
 21
9.467819253992692
 31
0
  0
LINE
  8
0
 62
7
 10
1.550000000000001
 20
9.080687219636729
 30
0
 11
1.725
 21
9.255687219636728
 31
0
  0
LINE
  8
0
 62
7
 10
1.550000000000001
 20
8.868555185280766
 30
0
 11
1.725
 21
9.043555185280765
 31
0
  0
LINE
  8
0
 62
7
 10
1.550000000000001
 20
8.656423150924802
 30
0
 11
1.725
 21
8.831423150924801
 31
0
  0
LINE
  8
0
 62
7
 10
1.555708883431161
 20
8.449999999999998
 30
0
 11
1.725
 21
8.619291116568837
 31
0
  0
LINE
  8
0
 62
7
 10
1.550000000000001
 20
10.88380951166242
 30
0
 11
1.666190488337573
 21
11
 31
0
  0
LINE
  8
0
 62
7
 10
1.550000000000001
 20
10.67167747730646
 30
0
 11
1.725000000000001
 21
10.84667747730646
 31
0
  0
LINE
  8
0
 62
7
 10
1.550000000000001
 20
10.4595454429505
 30
0
 11
1.725000000000001
 21
10.63454544295049
 31
0
  0
LINE
  8
0
 62
7
 10
1.550000000000001
 20
10.24741340859453
 30
0
 11
1.725000000000001
 21
10.42241340859453
 31
0
  0
LINE
  8
0
 62
7
 10
1.550000000000001
 20
10.03528137423857
 30
0
 11
1.725000000000001
 21
10.21028137423857
 31
0
  0
LINE
  8
0
 62
7
 10
1.550000000000001
 20
9.823149339882605
 30
0
 11
1.725000000000001
 21
9.998149339882602
 31
0
  0
LINE
  8
0
 62
7
 10
1.550000000000001
 20
9.611017305526641
 30
0
 11
1.725000000000001
 21
9.786017305526638
 31
0
  0
LINE
  8
0
 62
7
 10
1.550000000000001
 20
9.398885271170677
 30
0
 11
1.725000000000001
 21
9.573885271170674
 31
0
  0
LINE
  8
0
 62
7
 10
1.550000000000001
 20
9.186753236814713
 30
0
 11
1.725000000000001
 21
9.36175323681471
 31
0
  0
LINE
  8
0
 62
7
 10
1.550000000000001
 20
8.974621202458749
 30
0
 11
1.725000000000001
 21
9.149621202458746
 31
0
  0
LINE
  8
0
 62
7
 10
1.550000000000001
 20
8.762489168102785
 30
0
 11
1.725000000000001
 21
8.937489168102783
 31
0
  0
LINE
  8
0
 62
7
 10
1.550000000000001
 20
8.550357133746822
 30
0
 11
1.725000000000001
 21
8.725357133746819
 31
0
  0
LINE
  8
0
 62
7
 10
1.661774900609142
 20
8.449999999999998
 30
0
 11
1.725000000000001
 21
8.513225099390855
 31
0
  0
ENDBLK
  8
0
  0
BLOCK
  8
0
  2
*X2
 70
1
 10
0
 20
0
 30
0
  0
LINE
  8
0
 62
7
 10
1.55
 20
11.20200756319637
 30
0
 11
1.697992436803628
 21
11.35
 31
0
  0
LINE
  8
0
 62
7
 10
1.55
 20
11.30807358037435
 30
0
 11
1.591926419625646
 21
11.35
 31
0
  0
LINE
  8
0
 62
7
 10
1.65405845398161
 20
11.2
 30
0
 11
1.724999999999999
 21
11.27094154601839
 31
0
  0
ENDBLK
  8
0
  0
BLOCK
  8
0
  2
*X3
 70
1
 10
0
 20
0
 30
0
  0
LINE
  8
0
 62
7
 10
4.859999999999999
 20
8.148046532517444
 30
0
 11
4.961953467482553
 21
8.249999999999996
 31
0
  0
LINE
  8
0
 62
7
 10
5.02408550183852
 20
8.100000000000001
 30
0
 11
5.035
 21
8.110914498161481
 31
0
  0
LINE
  8
0
 62
7
 10
4.918019484660538
 20
8.1
 30
0
 11
5.035000000000001
 21
8.216980515339463
 31
0
  0
ENDBLK
  8
0
  0
BLOCK
  8
0
  2
*X4
 70
1
 10
0
 20
0
 30
0
  0
LINE
  8
0
 62
7
 10
4.859999999999999
 20
10.90576297914498
 30
0
 11
4.95423702085502
 21
11
 31
0
  0
LINE
  8
0
 62
7
 10
4.859999999999999
 20
10.69363094478901
 30
0
 11
5.035000000000001
 21
10.86863094478901
 31
0
  0
LINE
  8
0
 62
7
 10
4.859999999999999
 20
10.48149891043305
 30
0
 11
5.035000000000001
 21
10.65649891043305
 31
0
  0
LINE
  8
0
 62
7
 10
4.859999999999999
 20
10.26936687607708
 30
0
 11
5.035000000000001
 21
10.44436687607709
 31
0
  0
LINE
  8
0
 62
7
 10
4.859999999999999
 20
10.05723484172112
 30
0
 11
5.035000000000001
 21
10.23223484172112
 31
0
  0
LINE
  8
0
 62
7
 10
4.859999999999999
 20
9.845102807365157
 30
0
 11
5.035000000000001
 21
10.02010280736516
 31
0
  0
LINE
  8
0
 62
7
 10
4.859999999999999
 20
9.632970773009193
 30
0
 11
5.035000000000001
 21
9.807970773009194
 31
0
  0
LINE
  8
0
 62
7
 10
4.859999999999999
 20
9.420838738653229
 30
0
 11
5.035000000000001
 21
9.59583873865323
 31
0
  0
LINE
  8
0
 62
7
 10
4.859999999999999
 20
9.208706704297265
 30
0
 11
5.035000000000001
 21
9.383706704297266
 31
0
  0
LINE
  8
0
 62
7
 10
4.859999999999999
 20
8.996574669941301
 30
0
 11
5.035000000000001
 21
9.171574669941302
 31
0
  0
LINE
  8
0
 62
7
 10
4.859999999999999
 20
8.784442635585338
 30
0
 11
5.035000000000001
 21
8.959442635585338
 31
0
  0
LINE
  8
0
 62
7
 10
4.859999999999999
 20
8.572310601229374
 30
0
 11
5.035000000000001
 21
8.747310601229374
 31
0
  0
LINE
  8
0
 62
7
 10
4.949821433126589
 20
8.449999999999999
 30
0
 11
5.035000000000001
 21
8.535178566873411
 31
0
  0
LINE
  8
0
 62
7
 10
4.86
 20
10.79969696196699
 30
0
 11
5.035000000000001
 21
10.97469696196699
 31
0
  0
LINE
  8
0
 62
7
 10
4.86
 20
10.58756492761103
 30
0
 11
5.035000000000001
 21
10.76256492761103
 31
0
  0
LINE
  8
0
 62
7
 10
4.86
 20
10.37543289325507
 30
0
 11
5.035000000000001
 21
10.55043289325507
 31
0
  0
LINE
  8
0
 62
7
 10
4.86
 20
10.1633008588991
 30
0
 11
5.035000000000001
 21
10.3383008588991
 31
0
  0
LINE
  8
0
 62
7
 10
4.86
 20
9.951168824543139
 30
0
 11
5.035000000000001
 21
10.12616882454314
 31
0
  0
LINE
  8
0
 62
7
 10
4.86
 20
9.739036790187175
 30
0
 11
5.035000000000001
 21
9.914036790187176
 31
0
  0
LINE
  8
0
 62
7
 10
4.86
 20
9.526904755831211
 30
0
 11
5.035000000000001
 21
9.701904755831212
 31
0
  0
LINE
  8
0
 62
7
 10
4.86
 20
9.314772721475247
 30
0
 11
5.035000000000001
 21
9.489772721475248
 31
0
  0
LINE
  8
0
 62
7
 10
4.86
 20
9.102640687119283
 30
0
 11
5.035000000000001
 21
9.277640687119284
 31
0
  0
LINE
  8
0
 62
7
 10
4.86
 20
8.890508652763319
 30
0
 11
5.035000000000001
 21
9.06550865276332
 31
0
  0
LINE
  8
0
 62
7
 10
4.86
 20
8.678376618407356
 30
0
 11
5.035000000000001
 21
8.853376618407356
 31
0
  0
LINE
  8
0
 62
7
 10
4.86
 20
8.466244584051392
 30
0
 11
5.035000000000001
 21
8.641244584051393
 31
0
  0
ENDBLK
  8
0
  0
BLOCK
  8
0
  2
*X5
 70
1
 10
0
 20
0
 30
0
  0
LINE
  8
0
 62
7
 10
4.859999999999999
 20
11.33002704785691
 30
0
 11
4.879972952143092
 21
11.35
 31
0
  0
LINE
  8
0
 62
7
 10
4.942104986499055
 20
11.2
 30
0
 11
5.035
 21
11.29289501350094
 31
0
  0
LINE
  8
0
 62
7
 10
4.859999999999999
 20
11.22396103067893
 30
0
 11
4.986038969321076
 21
11.35
 31
0
  0
ENDBLK
  8
0
  0
BLOCK
  8
0
  2
*X6
 70
1
 10
0
 20
0
 30
0
  0
LINE
  8
0
 62
7
  6
DASHED
 10
1.4
 20
8.294291116568838
 30
0
 11
1.555708883431162
 21
8.449999999999998
 31
0
  0
LINE
  8
0
 62
7
  6
DASHED
 10
1.567840917787128
 20
8.249999999999998
 30
0
 11
1.767840917787126
 21
8.449999999999998
 31
0
  0
LINE
  8
0
 62
7
  6
DASHED
 10
1.779972952143093
 20
8.249999999999998
 30
0
 11
1.979972952143091
 21
8.449999999999998
 31
0
  0
LINE
  8
0
 62
7
  6
DASHED
 10
1.992104986499057
 20
8.249999999999998
 30
0
 11
2.192104986499055
 21
8.449999999999998
 31
0
  0
LINE
  8
0
 62
7
  6
DASHED
 10
2.204237020855021
 20
8.249999999999998
 30
0
 11
2.404237020855019
 21
8.449999999999998
 31
0
  0
LINE
  8
0
 62
7
  6
DASHED
 10
2.416369055210986
 20
8.249999999999998
 30
0
 11
2.616369055210984
 21
8.449999999999998
 31
0
  0
LINE
  8
0
 62
7
  6
DASHED
 10
2.62850108956695
 20
8.249999999999998
 30
0
 11
2.828501089566948
 21
8.449999999999998
 31
0
  0
LINE
  8
0
 62
7
  6
DASHED
 10
2.840633123922914
 20
8.249999999999998
 30
0
 11
3.040633123922912
 21
8.449999999999998
 31
0
  0
LINE
  8
0
 62
7
  6
DASHED
 10
3.052765158278878
 20
8.249999999999998
 30
0
 11
3.252765158278876
 21
8.449999999999998
 31
0
  0
LINE
  8
0
 62
7
  6
DASHED
 10
3.264897192634843
 20
8.249999999999998
 30
0
 11
3.464897192634841
 21
8.449999999999998
 31
0
  0
LINE
  8
0
 62
7
  6
DASHED
 10
3.477029226990807
 20
8.249999999999998
 30
0
 11
3.677029226990805
 21
8.449999999999998
 31
0
  0
LINE
  8
0
 62
7
  6
DASHED
 10
3.689161261346771
 20
8.249999999999998
 30
0
 11
3.889161261346769
 21
8.449999999999998
 31
0
  0
LINE
  8
0
 62
7
  6
DASHED
 10
3.901293295702736
 20
8.249999999999998
 30
0
 11
4.101293295702733
 21
8.449999999999998
 31
0
  0
LINE
  8
0
 62
7
  6
DASHED
 10
4.1134253300587
 20
8.249999999999998
 30
0
 11
4.313425330058697
 21
8.449999999999998
 31
0
  0
LINE
  8
0
 62
7
  6
DASHED
 10
4.325557364414664
 20
8.249999999999998
 30
0
 11
4.525557364414661
 21
8.449999999999998
 31
0
  0
LINE
  8
0
 62
7
  6
DASHED
 10
4.537689398770627
 20
8.249999999999998
 30
0
 11
4.737689398770625
 21
8.449999999999998
 31
0
  0
LINE
  8
0
 62
7
  6
DASHED
 10
4.749821433126591
 20
8.249999999999998
 30
0
 11
4.949821433126589
 21
8.449999999999998
 31
0
  0
LINE
  8
0
 62
7
  6
DASHED
 10
4.961953467482555
 20
8.249999999999998
 30
0
 11
5.161953467482553
 21
8.449999999999998
 31
0
  0
LINE
  8
0
 62
7
  6
DASHED
 10
5.174085501838519
 20
8.249999999999998
 30
0
 11
5.185
 21
8.260914498161481
 31
0
  0
LINE
  8
0
 62
7
 10
1.400000000000001
 20
8.400357133746819
 30
0
 11
1.44964286625318
 21
8.449999999999998
 31
0
  0
LINE
  8
0
 62
7
 10
1.461774900609146
 20
8.249999999999998
 30
0
 11
1.661774900609144
 21
8.449999999999998
 31
0
  0
LINE
  8
0
 62
7
 10
1.67390693496511
 20
8.249999999999998
 30
0
 11
1.873906934965108
 21
8.449999999999998
 31
0
  0
LINE
  8
0
 62
7
 10
1.886038969321074
 20
8.249999999999998
 30
0
 11
2.086038969321073
 21
8.449999999999998
 31
0
  0
LINE
  8
0
 62
7
 10
2.098171003677038
 20
8.249999999999998
 30
0
 11
2.298171003677037
 21
8.449999999999998
 31
0
  0
LINE
  8
0
 62
7
 10
2.310303038033003
 20
8.249999999999998
 30
0
 11
2.510303038033001
 21
8.449999999999998
 31
0
  0
LINE
  8
0
 62
7
 10
2.522435072388967
 20
8.249999999999998
 30
0
 11
2.722435072388965
 21
8.449999999999998
 31
0
  0
LINE
  8
0
 62
7
 10
2.734567106744931
 20
8.249999999999998
 30
0
 11
2.93456710674493
 21
8.449999999999998
 31
0
  0
LINE
  8
0
 62
7
 10
2.946699141100896
 20
8.249999999999998
 30
0
 11
3.146699141100894
 21
8.449999999999998
 31
0
  0
LINE
  8
0
 62
7
 10
3.15883117545686
 20
8.249999999999998
 30
0
 11
3.358831175456858
 21
8.449999999999998
 31
0
  0
LINE
  8
0
 62
7
 10
3.370963209812824
 20
8.249999999999998
 30
0
 11
3.570963209812823
 21
8.449999999999998
 31
0
  0
LINE
  8
0
 62
7
 10
3.583095244168788
 20
8.249999999999998
 30
0
 11
3.783095244168787
 21
8.449999999999998
 31
0
  0
LINE
  8
0
 62
7
 10
3.795227278524753
 20
8.249999999999998
 30
0
 11
3.995227278524751
 21
8.449999999999998
 31
0
  0
LINE
  8
0
 62
7
 10
4.007359312880717
 20
8.249999999999998
 30
0
 11
4.207359312880715
 21
8.449999999999998
 31
0
  0
LINE
  8
0
 62
7
 10
4.219491347236681
 20
8.249999999999998
 30
0
 11
4.419491347236679
 21
8.449999999999998
 31
0
  0
LINE
  8
0
 62
7
 10
4.431623381592645
 20
8.249999999999998
 30
0
 11
4.631623381592643
 21
8.449999999999998
 31
0
  0
LINE
  8
0
 62
7
 10
4.643755415948609
 20
8.249999999999998
 30
0
 11
4.843755415948607
 21
8.449999999999998
 31
0
  0
LINE
  8
0
 62
7
 10
4.855887450304572
 20
8.249999999999998
 30
0
 11
5.055887450304571
 21
8.449999999999998
 31
0
  0
LINE
  8
0
 62
7
 10
5.068019484660536
 20
8.249999999999998
 30
0
 11
5.185
 21
8.366980515339463
 31
0
  0
ENDBLK
  8
0
  0
BLOCK
  8
0
  2
*X7
 70
1
 10
0
 20
0
 30
0
  0
LINE
  8
0
 62
7
  6
DASHED
 10
1.4
 20
11.05200756319637
 30
0
 11
1.547992436803629
 21
11.2
 31
0
  0
LINE
  8
0
 62
7
  6
DASHED
 10
1.560124471159594
 20
11
 30
0
 11
1.760124471159593
 21
11.2
 31
0
  0
LINE
  8
0
 62
7
  6
DASHED
 10
1.772256505515558
 20
11
 30
0
 11
1.972256505515557
 21
11.2
 31
0
  0
LINE
  8
0
 62
7
  6
DASHED
 10
1.984388539871523
 20
11
 30
0
 11
2.184388539871521
 21
11.2
 31
0
  0
LINE
  8
0
 62
7
  6
DASHED
 10
2.196520574227487
 20
11
 30
0
 11
2.396520574227486
 21
11.2
 31
0
  0
LINE
  8
0
 62
7
  6
DASHED
 10
2.408652608583451
 20
11
 30
0
 11
2.60865260858345
 21
11.2
 31
0
  0
LINE
  8
0
 62
7
  6
DASHED
 10
2.620784642939415
 20
11
 30
0
 11
2.820784642939414
 21
11.2
 31
0
  0
LINE
  8
0
 62
7
  6
DASHED
 10
2.83291667729538
 20
11
 30
0
 11
3.032916677295379
 21
11.2
 31
0
  0
LINE
  8
0
 62
7
  6
DASHED
 10
3.045048711651344
 20
11
 30
0
 11
3.245048711651343
 21
11.2
 31
0
  0
LINE
  8
0
 62
7
  6
DASHED
 10
3.257180746007308
 20
11
 30
0
 11
3.457180746007307
 21
11.2
 31
0
  0
LINE
  8
0
 62
7
  6
DASHED
 10
3.469312780363273
 20
11
 30
0
 11
3.669312780363271
 21
11.2
 31
0
  0
LINE
  8
0
 62
7
  6
DASHED
 10
3.681444814719237
 20
11
 30
0
 11
3.881444814719236
 21
11.2
 31
0
  0
LINE
  8
0
 62
7
  6
DASHED
 10
3.893576849075201
 20
11
 30
0
 11
4.0935768490752
 21
11.2
 31
0
  0
LINE
  8
0
 62
7
  6
DASHED
 10
4.105708883431165
 20
11
 30
0
 11
4.305708883431164
 21
11.2
 31
0
  0
LINE
  8
0
 62
7
  6
DASHED
 10
4.317840917787129
 20
11
 30
0
 11
4.517840917787128
 21
11.2
 31
0
  0
LINE
  8
0
 62
7
  6
DASHED
 10
4.529972952143093
 20
11
 30
0
 11
4.729972952143092
 21
11.2
 31
0
  0
LINE
  8
0
 62
7
  6
DASHED
 10
4.742104986499057
 20
11
 30
0
 11
4.942104986499055
 21
11.2
 31
0
  0
LINE
  8
0
 62
7
  6
DASHED
 10
4.954237020855021
 20
11
 30
0
 11
5.154237020855019
 21
11.2
 31
0
  0
LINE
  8
0
 62
7
  6
DASHED
 10
5.166369055210985
 20
11
 30
0
 11
5.185000000000001
 21
11.01863094478902
 31
0
  0
LINE
  8
0
 62
7
 10
1.400000000000001
 20
11.15807358037436
 30
0
 11
1.441926419625648
 21
11.2
 31
0
  0
LINE
  8
0
 62
7
 10
1.454058453981613
 20
11
 30
0
 11
1.654058453981612
 21
11.2
 31
0
  0
LINE
  8
0
 62
7
 10
1.666190488337577
 20
11
 30
0
 11
1.866190488337577
 21
11.2
 31
0
  0
LINE
  8
0
 62
7
 10
1.878322522693541
 20
11
 30
0
 11
2.078322522693541
 21
11.2
 31
0
  0
LINE
  8
0
 62
7
 10
2.090454557049505
 20
11
 30
0
 11
2.290454557049505
 21
11.2
 31
0
  0
LINE
  8
0
 62
7
 10
2.30258659140547
 20
11
 30
0
 11
2.502586591405469
 21
11.2
 31
0
  0
LINE
  8
0
 62
7
 10
2.514718625761434
 20
11
 30
0
 11
2.714718625761434
 21
11.2
 31
0
  0
LINE
  8
0
 62
7
 10
2.726850660117398
 20
11
 30
0
 11
2.926850660117398
 21
11.2
 31
0
  0
LINE
  8
0
 62
7
 10
2.938982694473363
 20
11
 30
0
 11
3.138982694473362
 21
11.2
 31
0
  0
LINE
  8
0
 62
7
 10
3.151114728829327
 20
11
 30
0
 11
3.351114728829327
 21
11.2
 31
0
  0
LINE
  8
0
 62
7
 10
3.363246763185291
 20
11
 30
0
 11
3.563246763185291
 21
11.2
 31
0
  0
LINE
  8
0
 62
7
 10
3.575378797541255
 20
11
 30
0
 11
3.775378797541255
 21
11.2
 31
0
  0
LINE
  8
0
 62
7
 10
3.78751083189722
 20
11
 30
0
 11
3.987510831897219
 21
11.2
 31
0
  0
LINE
  8
0
 62
7
 10
3.999642866253184
 20
11
 30
0
 11
4.199642866253184
 21
11.2
 31
0
  0
LINE
  8
0
 62
7
 10
4.211774900609148
 20
11
 30
0
 11
4.411774900609148
 21
11.2
 31
0
  0
LINE
  8
0
 62
7
 10
4.423906934965112
 20
11
 30
0
 11
4.623906934965111
 21
11.2
 31
0
  0
LINE
  8
0
 62
7
 10
4.636038969321076
 20
11
 30
0
 11
4.836038969321075
 21
11.2
 31
0
  0
LINE
  8
0
 62
7
 10
4.84817100367704
 20
11
 30
0
 11
5.048171003677039
 21
11.2
 31
0
  0
LINE
  8
0
 62
7
 10
5.060303038033004
 20
11
 30
0
 11
5.185000000000002
 21
11.124696961967
 31
0
  0
ENDBLK
  8
0
  0
BLOCK
  8
0
  2
*X8
 70
1
 10
0
 20
0
 30
0
  0
LINE
  8
0
 62
7
 10
8.418198051533949
 20
8.1
 30
0
 11
8.568198051533949
 21
8.25
 31
0
  0
LINE
  8
0
 62
7
 10
8.630330085889913
 20
8.1
 30
0
 11
8.650000000000002
 21
8.119669914110089
 31
0
  0
LINE
  8
0
 62
7
 10
8.410000000000002
 20
8.197867965644036
 30
0
 11
8.462132034355966
 21
8.25
 31
0
  0
LINE
  8
0
 62
7
 10
8.524264068711929
 20
8.100000000000001
 30
0
 11
8.65
 21
8.225735931288071
 31
0
  0
ENDBLK
  8
0
  0
BLOCK
  8
0
  2
*X9
 70
1
 10
0
 20
0
 30
0
  0
LINE
  8
0
 62
7
 10
8.410000000000002
 20
10.84951839509359
 30
0
 11
8.560481604906412
 21
11
 31
0
  0
LINE
  8
0
 62
7
 10
8.410000000000002
 20
10.63738636073762
 30
0
 11
8.65
 21
10.87738636073762
 31
0
  0
LINE
  8
0
 62
7
 10
8.410000000000002
 20
10.42525432638166
 30
0
 11
8.65
 21
10.66525432638166
 31
0
  0
LINE
  8
0
 62
7
 10
8.410000000000002
 20
10.2131222920257
 30
0
 11
8.65
 21
10.45312229202569
 31
0
  0
LINE
  8
0
 62
7
 10
8.410000000000002
 20
10.00099025766973
 30
0
 11
8.65
 21
10.24099025766973
 31
0
  0
LINE
  8
0
 62
7
 10
8.410000000000002
 20
9.788858223313769
 30
0
 11
8.65
 21
10.02885822331376
 31
0
  0
LINE
  8
0
 62
7
 10
8.410000000000002
 20
9.576726188957805
 30
0
 11
8.65
 21
9.8167261889578
 31
0
  0
LINE
  8
0
 62
7
 10
8.410000000000002
 20
9.364594154601841
 30
0
 11
8.65
 21
9.604594154601836
 31
0
  0
LINE
  8
0
 62
7
 10
8.410000000000002
 20
9.152462120245877
 30
0
 11
8.65
 21
9.392462120245872
 31
0
  0
LINE
  8
0
 62
7
 10
8.410000000000002
 20
8.940330085889913
 30
0
 11
8.65
 21
9.180330085889908
 31
0
  0
LINE
  8
0
 62
7
 10
8.410000000000002
 20
8.728198051533949
 30
0
 11
8.65
 21
8.968198051533944
 31
0
  0
LINE
  8
0
 62
7
 10
8.410000000000002
 20
8.516066017177986
 30
0
 11
8.65
 21
8.75606601717798
 31
0
  0
LINE
  8
0
 62
7
 10
8.556066017177983
 20
8.449999999999998
 30
0
 11
8.65
 21
8.543933982822017
 31
0
  0
LINE
  8
0
 62
7
 10
8.410000000000002
 20
10.95558441227157
 30
0
 11
8.454415587728429
 21
11
 31
0
  0
LINE
  8
0
 62
7
 10
8.410000000000002
 20
10.7434523779156
 30
0
 11
8.65
 21
10.9834523779156
 31
0
  0
LINE
  8
0
 62
7
 10
8.410000000000002
 20
10.53132034355964
 30
0
 11
8.65
 21
10.77132034355964
 31
0
  0
LINE
  8
0
 62
7
 10
8.410000000000002
 20
10.31918830920367
 30
0
 11
8.65
 21
10.55918830920367
 31
0
  0
LINE
  8
0
 62
7
 10
8.410000000000002
 20
10.10705627484771
 30
0
 11
8.65
 21
10.34705627484771
 31
0
  0
LINE
  8
0
 62
7
 10
8.410000000000002
 20
9.894924240491747
 30
0
 11
8.65
 21
10.13492424049175
 31
0
  0
LINE
  8
0
 62
7
 10
8.410000000000002
 20
9.682792206135783
 30
0
 11
8.65
 21
9.922792206135783
 31
0
  0
LINE
  8
0
 62
7
 10
8.410000000000002
 20
9.470660171779819
 30
0
 11
8.65
 21
9.71066017177982
 31
0
  0
LINE
  8
0
 62
7
 10
8.410000000000002
 20
9.258528137423855
 30
0
 11
8.65
 21
9.498528137423856
 31
0
  0
LINE
  8
0
 62
7
 10
8.410000000000002
 20
9.046396103067892
 30
0
 11
8.65
 21
9.286396103067892
 31
0
  0
LINE
  8
0
 62
7
 10
8.410000000000002
 20
8.834264068711928
 30
0
 11
8.65
 21
9.074264068711928
 31
0
  0
LINE
  8
0
 62
7
 10
8.410000000000002
 20
8.622132034355964
 30
0
 11
8.65
 21
8.862132034355964
 31
0
  0
LINE
  8
0
 62
7
 10
8.449999999999999
 20
8.449999999999998
 30
0
 11
8.65
 21
8.65
 31
0
  0
ENDBLK
  8
0
  0
BLOCK
  8
0
  2
*X10
 70
1
 10
0
 20
0
 30
0
  0
LINE
  8
0
 62
7
 10
8.41
 20
11.27378246380552
 30
0
 11
8.486217536194484
 21
11.35
 31
0
  0
LINE
  8
0
 62
7
 10
8.548349570550448
 20
11.2
 30
0
 11
8.65
 21
11.30165042944955
 31
0
  0
LINE
  8
0
 62
7
 10
8.442283553372469
 20
11.2
 30
0
 11
8.592283553372466
 21
11.35
 31
0
  0
ENDBLK
  8
0
  0
BLOCK
  8
0
  2
*X11
 70
1
 10
0
 20
0
 30
0
  0
LINE
  8
0
 62
7
  6
DASHED
 10
7.010000000000003
 20
8.388858223313768
 30
0
 11
7.071141776686233
 21
8.449999999999998
 31
0
  0
LINE
  8
0
 62
7
  6
DASHED
 10
7.083273811042196
 20
8.249999999999998
 30
0
 11
7.283273811042196
 21
8.449999999999998
 31
0
  0
LINE
  8
0
 62
7
  6
DASHED
 10
7.29540584539816
 20
8.249999999999998
 30
0
 11
7.310000000000001
 21
8.26459415460184
 31
0
  0
LINE
  8
0
 62
7
 10
7.010000000000002
 20
8.282792206135786
 30
0
 11
7.177207793864214
 21
8.449999999999998
 31
0
  0
LINE
  8
0
 62
7
 10
7.189339828220178
 20
8.249999999999998
 30
0
 11
7.310000000000001
 21
8.370660171779821
 31
0
  0
ENDBLK
  8
0
  0
BLOCK
  8
0
  2
*X12
 70
1
 10
0
 20
0
 30
0
  0
LINE
  8
0
 62
7
  6
DASHED
 10
7.010000000000003
 20
11.14657466994131
 30
0
 11
7.063425330058698
 21
11.2
 31
0
  0
LINE
  8
0
 62
7
  6
DASHED
 10
7.075557364414663
 20
11
 30
0
 11
7.275557364414662
 21
11.2
 31
0
  0
LINE
  8
0
 62
7
  6
DASHED
 10
7.287689398770627
 20
11
 30
0
 11
7.310000000000001
 21
11.02231060122937
 31
0
  0
LINE
  8
0
 62
7
 10
7.010000000000002
 20
11.04050865276332
 30
0
 11
7.169491347236681
 21
11.2
 31
0
  0
LINE
  8
0
 62
7
 10
7.181623381592646
 20
11
 30
0
 11
7.310000000000004
 21
11.12837661840736
 31
0
  0
ENDBLK
  8
0
  0
BLOCK
  8
0
  2
*X13
 70
1
 10
0
 20
0
 30
0
  0
LINE
  8
0
 62
7
  6
DASHED
 10
8.410000000000002
 20
11.06165042944956
 30
0
 11
8.548349570550448
 21
11.2
 31
0
  0
LINE
  8
0
 62
7
  6
DASHED
 10
8.560481604906412
 20
11
 30
0
 11
8.65
 21
11.08951839509359
 31
0
  0
LINE
  8
0
 62
7
 10
8.410000000000004
 20
11.16771644662754
 30
0
 11
8.442283553372469
 21
11.2
 31
0
  0
LINE
  8
0
 62
7
 10
8.454415587728432
 20
11
 30
0
 11
8.65
 21
11.19558441227157
 31
0
  0
ENDBLK
  8
0
  0
BLOCK
  8
0
  2
*X14
 70
1
 10
0
 20
0
 30
0
  0
LINE
  8
0
 62
7
  6
DASHED
 10
8.410000000000002
 20
8.303933982822018
 30
0
 11
8.556066017177983
 21
8.449999999999998
 31
0
  0
LINE
  8
0
 62
7
  6
DASHED
 10
8.568198051533949
 20
8.25
 30
0
 11
8.65
 21
8.331801948466051
 31
0
  0
LINE
  8
0
 62
7
 10
8.410000000000002
 20
8.410000000000002
 30
0
 11
8.449999999999999
 21
8.449999999999998
 31
0
  0
LINE
  8
0
 62
7
 10
8.462132034355966
 20
8.25
 30
0
 11
8.65
 21
8.437867965644035
 31
0
  0
ENDBLK
  8
0
  0
BLOCK
  8
0
  2
*X15
 70
1
 10
0
 20
0
 30
0
  0
LINE
  8
0
 62
7
 10
1.55
 20
5.262310601229374
 30
0
 11
1.557689398770623
 21
5.269999999999997
 31
0
  0
LINE
  8
0
 62
7
 10
1.385000000000001
 20
5.097310601229374
 30
0
 11
1.407689398770623
 21
5.119999999999997
 31
0
  0
LINE
  8
0
 62
7
 10
1.385000000000001
 20
4.88517856687341
 30
0
 11
1.725000000000001
 21
5.22517856687341
 31
0
  0
LINE
  8
0
 62
7
 10
1.591953467482558
 20
4.880000000000002
 30
0
 11
1.831953467482553
 21
5.119999999999997
 31
0
  0
LINE
  8
0
 62
7
 10
1.804085501838522
 20
4.880000000000002
 30
0
 11
2.044085501838517
 21
5.119999999999997
 31
0
  0
LINE
  8
0
 62
7
 10
2.016217536194486
 20
4.880000000000002
 30
0
 11
2.256217536194482
 21
5.119999999999997
 31
0
  0
LINE
  8
0
 62
7
 10
2.228349570550451
 20
4.880000000000002
 30
0
 11
2.468349570550446
 21
5.119999999999997
 31
0
  0
LINE
  8
0
 62
7
 10
2.440481604906415
 20
4.880000000000002
 30
0
 11
2.68048160490641
 21
5.119999999999997
 31
0
  0
LINE
  8
0
 62
7
 10
2.652613639262379
 20
4.880000000000002
 30
0
 11
2.892613639262374
 21
5.119999999999997
 31
0
  0
LINE
  8
0
 62
7
 10
2.864745673618343
 20
4.880000000000002
 30
0
 11
3.104745673618339
 21
5.119999999999997
 31
0
  0
LINE
  8
0
 62
7
 10
3.076877707974308
 20
4.880000000000002
 30
0
 11
3.316877707974303
 21
5.119999999999997
 31
0
  0
LINE
  8
0
 62
7
 10
3.289009742330272
 20
4.880000000000002
 30
0
 11
3.529009742330267
 21
5.119999999999997
 31
0
  0
LINE
  8
0
 62
7
 10
3.501141776686236
 20
4.880000000000002
 30
0
 11
3.741141776686232
 21
5.119999999999997
 31
0
  0
LINE
  8
0
 62
7
 10
3.713273811042201
 20
4.880000000000002
 30
0
 11
3.953273811042196
 21
5.119999999999997
 31
0
  0
LINE
  8
0
 62
7
 10
3.925405845398165
 20
4.880000000000002
 30
0
 11
4.16540584539816
 21
5.119999999999997
 31
0
  0
LINE
  8
0
 62
7
 10
4.137537879754129
 20
4.880000000000002
 30
0
 11
4.377537879754124
 21
5.119999999999997
 31
0
  0
LINE
  8
0
 62
7
 10
4.349669914110093
 20
4.880000000000002
 30
0
 11
4.589669914110088
 21
5.119999999999997
 31
0
  0
LINE
  8
0
 62
7
 10
4.86
 20
5.178198051533945
 30
0
 11
4.951801948466052
 21
5.269999999999997
 31
0
  0
LINE
  8
0
 62
7
 10
4.561801948466057
 20
4.880000000000002
 30
0
 11
4.801801948466052
 21
5.119999999999997
 31
0
  0
LINE
  8
0
 62
7
 10
4.773933982822021
 20
4.880000000000002
 30
0
 11
5.035
 21
5.141066017177981
 31
0
  0
LINE
  8
0
 62
7
 10
4.986066017177984
 20
4.880000000000002
 30
0
 11
5.185
 21
5.078933982822017
 31
0
  0
LINE
  8
0
 62
7
 10
1.549999999999999
 20
5.156244584051391
 30
0
 11
1.663755415948605
 21
5.269999999999996
 31
0
  0
LINE
  8
0
 62
7
 10
1.385
 20
4.991244584051392
 30
0
 11
1.513755415948606
 21
5.119999999999997
 31
0
  0
LINE
  8
0
 62
7
 10
1.485887450304576
 20
4.880000000000003
 30
0
 11
1.725887450304572
 21
5.119999999999997
 31
0
  0
LINE
  8
0
 62
7
 10
1.69801948466054
 20
4.880000000000003
 30
0
 11
1.938019484660536
 21
5.119999999999997
 31
0
  0
LINE
  8
0
 62
7
 10
1.910151519016504
 20
4.880000000000003
 30
0
 11
2.150151519016501
 21
5.119999999999997
 31
0
  0
LINE
  8
0
 62
7
 10
2.122283553372469
 20
4.880000000000003
 30
0
 11
2.362283553372465
 21
5.119999999999997
 31
0
  0
LINE
  8
0
 62
7
 10
2.334415587728433
 20
4.880000000000003
 30
0
 11
2.574415587728429
 21
5.119999999999997
 31
0
  0
LINE
  8
0
 62
7
 10
2.546547622084397
 20
4.880000000000003
 30
0
 11
2.786547622084393
 21
5.119999999999997
 31
0
  0
LINE
  8
0
 62
7
 10
2.758679656440362
 20
4.880000000000003
 30
0
 11
2.998679656440358
 21
5.119999999999997
 31
0
  0
LINE
  8
0
 62
7
 10
2.970811690796326
 20
4.880000000000003
 30
0
 11
3.210811690796322
 21
5.119999999999997
 31
0
  0
LINE
  8
0
 62
7
 10
3.18294372515229
 20
4.880000000000003
 30
0
 11
3.422943725152286
 21
5.119999999999997
 31
0
  0
LINE
  8
0
 62
7
 10
3.395075759508254
 20
4.880000000000003
 30
0
 11
3.635075759508251
 21
5.119999999999997
 31
0
  0
LINE
  8
0
 62
7
 10
3.607207793864219
 20
4.880000000000003
 30
0
 11
3.847207793864215
 21
5.119999999999997
 31
0
  0
LINE
  8
0
 62
7
 10
3.819339828220183
 20
4.880000000000003
 30
0
 11
4.059339828220179
 21
5.119999999999997
 31
0
  0
LINE
  8
0
 62
7
 10
4.031471862576147
 20
4.880000000000003
 30
0
 11
4.271471862576143
 21
5.119999999999997
 31
0
  0
LINE
  8
0
 62
7
 10
4.243603896932111
 20
4.880000000000003
 30
0
 11
4.483603896932107
 21
5.119999999999997
 31
0
  0
LINE
  8
0
 62
7
 10
4.455735931288075
 20
4.880000000000003
 30
0
 11
4.695735931288071
 21
5.119999999999997
 31
0
  0
LINE
  8
0
 62
7
 10
4.667867965644039
 20
4.880000000000003
 30
0
 11
5.035
 21
5.247132034355963
 31
0
  0
LINE
  8
0
 62
7
 10
4.880000000000003
 20
4.880000000000003
 30
0
 11
5.119999999999998
 21
5.119999999999997
 31
0
  0
LINE
  8
0
 62
7
 10
5.092132034355966
 20
4.880000000000003
 30
0
 11
5.185
 21
4.972867965644035
 31
0
  0
ENDBLK
  8
0
  0
BLOCK
  8
0
  2
*X16
 70
1
 10
0
 20
0
 30
0
  0
LINE
  8
0
 62
7
 10
1.385
 20
4.673046532517445
 30
0
 11
1.551953467482558
 21
4.840000000000002
 31
0
  0
LINE
  8
0
 62
7
 10
1.52408550183852
 20
4.600000000000001
 30
0
 11
1.764085501838522
 21
4.840000000000002
 31
0
  0
LINE
  8
0
 62
7
 10
1.736217536194486
 20
4.600000000000001
 30
0
 11
1.976217536194486
 21
4.840000000000002
 31
0
  0
LINE
  8
0
 62
7
 10
1.55
 20
4.413782463805516
 30
0
 11
1.725000000000001
 21
4.588782463805517
 31
0
  0
LINE
  8
0
 62
7
 10
1.94834957055045
 20
4.600000000000001
 30
0
 11
2.188349570550451
 21
4.840000000000002
 31
0
  0
LINE
  8
0
 62
7
 10
1.55
 20
4.201650429449552
 30
0
 11
1.725000000000001
 21
4.376650429449553
 31
0
  0
LINE
  8
0
 62
7
 10
2.160481604906414
 20
4.600000000000001
 30
0
 11
2.400481604906415
 21
4.840000000000002
 31
0
  0
LINE
  8
0
 62
7
 10
1.55
 20
3.989518395093588
 30
0
 11
1.725000000000001
 21
4.164518395093589
 31
0
  0
LINE
  8
0
 62
7
 10
2.372613639262378
 20
4.600000000000001
 30
0
 11
2.612613639262379
 21
4.840000000000002
 31
0
  0
LINE
  8
0
 62
7
 10
1.55
 20
3.777386360737624
 30
0
 11
1.725000000000001
 21
3.952386360737625
 31
0
  0
LINE
  8
0
 62
7
 10
2.584745673618343
 20
4.600000000000001
 30
0
 11
2.824745673618343
 21
4.840000000000002
 31
0
  0
LINE
  8
0
 62
7
 10
1.55
 20
3.56525432638166
 30
0
 11
1.725000000000001
 21
3.740254326381661
 31
0
  0
LINE
  8
0
 62
7
 10
2.796877707974307
 20
4.600000000000001
 30
0
 11
3.036877707974308
 21
4.840000000000002
 31
0
  0
LINE
  8
0
 62
7
 10
1.696877707974305
 20
3.500000000000001
 30
0
 11
1.725
 21
3.528122292025696
 31
0
  0
LINE
  8
0
 62
7
 10
3.009009742330271
 20
4.600000000000001
 30
0
 11
3.249009742330272
 21
4.840000000000002
 31
0
  0
LINE
  8
0
 62
7
 10
3.221141776686236
 20
4.600000000000001
 30
0
 11
3.461141776686236
 21
4.840000000000002
 31
0
  0
LINE
  8
0
 62
7
 10
3.4332738110422
 20
4.600000000000001
 30
0
 11
3.673273811042201
 21
4.840000000000002
 31
0
  0
LINE
  8
0
 62
7
 10
3.645405845398164
 20
4.600000000000001
 30
0
 11
3.885405845398165
 21
4.840000000000002
 31
0
  0
LINE
  8
0
 62
7
 10
3.857537879754128
 20
4.600000000000001
 30
0
 11
4.097537879754129
 21
4.840000000000002
 31
0
  0
LINE
  8
0
 62
7
 10
4.069669914110093
 20
4.600000000000001
 30
0
 11
4.309669914110093
 21
4.840000000000002
 31
0
  0
LINE
  8
0
 62
7
 10
4.281801948466057
 20
4.600000000000001
 30
0
 11
4.521801948466057
 21
4.840000000000002
 31
0
  0
LINE
  8
0
 62
7
 10
4.49393398282202
 20
4.600000000000001
 30
0
 11
4.733933982822021
 21
4.840000000000002
 31
0
  0
LINE
  8
0
 62
7
 10
4.706066017177984
 20
4.600000000000001
 30
0
 11
4.946066017177984
 21
4.840000000000002
 31
0
  0
LINE
  8
0
 62
7
 10
4.859999999999999
 20
4.541801948466052
 30
0
 11
5.158198051533948
 21
4.840000000000002
 31
0
  0
LINE
  8
0
 62
7
 10
5.130330085889914
 20
4.600000000000001
 30
0
 11
5.184999999999999
 21
4.654669914110086
 31
0
  0
LINE
  8
0
 62
7
 10
4.859999999999999
 20
4.329669914110088
 30
0
 11
5.035
 21
4.504669914110087
 31
0
  0
LINE
  8
0
 62
7
 10
4.859999999999999
 20
4.117537879754124
 30
0
 11
5.035
 21
4.292537879754123
 31
0
  0
LINE
  8
0
 62
7
 10
4.859999999999999
 20
3.90540584539816
 30
0
 11
5.035
 21
4.080405845398159
 31
0
  0
LINE
  8
0
 62
7
 10
4.859999999999999
 20
3.693273811042196
 30
0
 11
5.035
 21
3.868273811042195
 31
0
  0
LINE
  8
0
 62
7
 10
4.859999999999999
 20
3.481141776686231
 30
0
 11
5.035
 21
3.656141776686231
 31
0
  0
LINE
  8
0
 62
7
 10
4.990990257669734
 20
3.4
 30
0
 11
5.035
 21
3.444009742330267
 31
0
  0
LINE
  8
0
 62
7
 10
1.385
 20
4.779112549695428
 30
0
 11
1.445887450304575
 21
4.840000000000002
 31
0
  0
LINE
  8
0
 62
7
 10
1.418019484660539
 20
4.600000000000001
 30
0
 11
1.65801948466054
 21
4.840000000000002
 31
0
  0
LINE
  8
0
 62
7
 10
1.55
 20
4.519848480983499
 30
0
 11
1.870151519016504
 21
4.840000000000002
 31
0
  0
LINE
  8
0
 62
7
 10
1.842283553372468
 20
4.600000000000001
 30
0
 11
2.082283553372468
 21
4.840000000000002
 31
0
  0
LINE
  8
0
 62
7
 10
1.55
 20
4.307716446627535
 30
0
 11
1.725
 21
4.482716446627534
 31
0
  0
LINE
  8
0
 62
7
 10
2.054415587728432
 20
4.600000000000001
 30
0
 11
2.294415587728432
 21
4.840000000000002
 31
0
  0
LINE
  8
0
 62
7
 10
1.55
 20
4.095584412271571
 30
0
 11
1.725
 21
4.27058441227157
 31
0
  0
LINE
  8
0
 62
7
 10
2.266547622084396
 20
4.600000000000001
 30
0
 11
2.506547622084397
 21
4.840000000000002
 31
0
  0
LINE
  8
0
 62
7
 10
1.55
 20
3.883452377915607
 30
0
 11
1.725
 21
4.058452377915606
 31
0
  0
LINE
  8
0
 62
7
 10
2.47867965644036
 20
4.600000000000001
 30
0
 11
2.718679656440361
 21
4.840000000000002
 31
0
  0
LINE
  8
0
 62
7
 10
1.55
 20
3.671320343559643
 30
0
 11
1.725
 21
3.846320343559642
 31
0
  0
LINE
  8
0
 62
7
 10
2.690811690796325
 20
4.600000000000001
 30
0
 11
2.930811690796325
 21
4.840000000000002
 31
0
  0
LINE
  8
0
 62
7
 10
1.590811690796323
 20
3.500000000000001
 30
0
 11
1.725
 21
3.634188309203678
 31
0
  0
LINE
  8
0
 62
7
 10
2.902943725152289
 20
4.600000000000001
 30
0
 11
3.14294372515229
 21
4.840000000000002
 31
0
  0
LINE
  8
0
 62
7
 10
3.115075759508253
 20
4.600000000000001
 30
0
 11
3.355075759508254
 21
4.840000000000002
 31
0
  0
LINE
  8
0
 62
7
 10
3.327207793864217
 20
4.600000000000001
 30
0
 11
3.567207793864218
 21
4.840000000000002
 31
0
  0
LINE
  8
0
 62
7
 10
3.539339828220182
 20
4.600000000000001
 30
0
 11
3.779339828220182
 21
4.840000000000002
 31
0
  0
LINE
  8
0
 62
7
 10
3.751471862576146
 20
4.600000000000001
 30
0
 11
3.991471862576147
 21
4.840000000000002
 31
0
  0
LINE
  8
0
 62
7
 10
3.96360389693211
 20
4.600000000000001
 30
0
 11
4.203603896932111
 21
4.840000000000002
 31
0
  0
LINE
  8
0
 62
7
 10
4.175735931288075
 20
4.600000000000001
 30
0
 11
4.415735931288075
 21
4.840000000000002
 31
0
  0
LINE
  8
0
 62
7
 10
4.387867965644038
 20
4.600000000000001
 30
0
 11
4.627867965644039
 21
4.840000000000002
 31
0
  0
LINE
  8
0
 62
7
 10
4.600000000000002
 20
4.600000000000001
 30
0
 11
4.840000000000003
 21
4.840000000000002
 31
0
  0
LINE
  8
0
 62
7
 10
4.812132034355966
 20
4.600000000000001
 30
0
 11
5.052132034355966
 21
4.840000000000002
 31
0
  0
LINE
  8
0
 62
7
 10
4.859999999999999
 20
4.435735931288069
 30
0
 11
5.184999999999999
 21
4.76073593128807
 31
0
  0
LINE
  8
0
 62
7
 10
4.859999999999999
 20
4.223603896932105
 30
0
 11
5.035
 21
4.398603896932106
 31
0
  0
LINE
  8
0
 62
7
 10
4.859999999999999
 20
4.011471862576141
 30
0
 11
5.035
 21
4.186471862576142
 31
0
  0
LINE
  8
0
 62
7
 10
4.859999999999999
 20
3.799339828220178
 30
0
 11
5.035
 21
3.974339828220178
 31
0
  0
LINE
  8
0
 62
7
 10
4.859999999999999
 20
3.587207793864213
 30
0
 11
5.035
 21
3.762207793864214
 31
0
  0
LINE
  8
0
 62
7
 10
4.884924240491751
 20
3.400000000000001
 30
0
 11
5.035
 21
3.550075759508249
 31
0
  0
ENDBLK
  8
0
  0
BLOCK
  8
0
  2
*D0
 70
1
 10
0
 20
0
 30
0
  0
LINE
  8
0
 62
7
 10
1.05081889158579
 20
10.4242088052858
 30
0
 11
1.05081889158579
 21
11.2
 31
0
  0
LINE
  8
0
 62
7
 10
1.05081889158579
 20
8.449999999999999
 30
0
 11
1.05081889158579
 21
9.344208805285801
 31
0
  0
LINE
  8
0
 62
7
 10
1.4
 20
11.2
 30
0
 11
1.00081889158579
 21
11.2
 31
0
  0
LINE
  8
0
 62
7
 10
1.4
 20
8.449999999999999
 30
0
 11
1.00081889158579
 21
8.449999999999999
 31
0
  0
LINE
  8
0
 62
7
 10
1.015463552526463
 20
8.485355339059327
 30
0
 11
1.086174230645117
 21
8.414644660940672
 31
0
  0
LINE
  8
0
 62
7
 10
1.086174230645117
 20
11.16464466094067
 30
0
 11
1.015463552526463
 21
11.23535533905933
 31
0
  0
TEXT
  8
0
 62
7
 10
1.02081889158579
 20
9.746708805285802
 30
0
 40
0.1
  1
2,75
 50
90
 41
0.9
  0
TEXT
  8
0
 62
7
 10
1.18081889158579
 20
9.544208805285802
 30
0
 40
0.1
  1
(260-280)
 50
90
 41
0.9
  0
ENDBLK
  8
0
  0
BLOCK
  8
0
  2
*D1
 70
1
 10
0
 20
0
 30
0
  0
LINE
  8
0
 62
7
 10
3.611832241100341
 20
11.6844946736785
 30
0
 11
4.859999999999999
 21
11.6844946736785
 31
0
  0
LINE
  8
0
 62
7
 10
1.725000000000001
 20
11.6844946736785
 30
0
 11
2.966832241100341
 21
11.6844946736785
 31
0
  0
LINE
  8
0
 62
7
 10
4.859999999999999
 20
11.35
 30
0
 11
4.859999999999999
 21
11.7344946736785
 31
0
  0
LINE
  8
0
 62
7
 10
1.725000000000001
 20
11.35
 30
0
 11
1.725000000000001
 21
11.7344946736785
 31
0
  0
LINE
  8
0
 62
7
 10
1.760355339059328
 20
11.71985001273783
 30
0
 11
1.689644660940674
 21
11.64913933461917
 31
0
  0
LINE
  8
0
 62
7
 10
4.824644660940672
 20
11.64913933461917
 30
0
 11
4.895355339059327
 21
11.71985001273783
 31
0
  0
TEXT
  8
0
 62
7
 10
3.166832241100341
 20
11.6394946736785
 30
0
 40
0.1
  1
3,14
 41
0.9
  0
ENDBLK
  8
0
  0
BLOCK
  8
0
  2
*D2
 70
1
 10
0
 20
0
 30
0
  0
LINE
  8
0
 62
7
 10
5.44493768878101
 20
4.372623718985969
 30
0
 11
5.44493768878101
 21
4.600000000000001
 31
0
  0
LINE
  8
0
 62
7
 10
5.44493768878101
 20
3.400000000000001
 30
0
 11
5.44493768878101
 21
3.71762371898597
 31
0
  0
LINE
  8
0
 62
7
 10
5.034999999999999
 20
4.600000000000001
 30
0
 11
5.49493768878101
 21
4.600000000000001
 31
0
  0
LINE
  8
0
 62
7
 10
5.034999999999999
 20
3.400000000000001
 30
0
 11
5.49493768878101
 21
3.400000000000001
 31
0
  0
LINE
  8
0
 62
7
 10
5.409582349721683
 20
3.435355339059328
 30
0
 11
5.480293027840338
 21
3.364644660940673
 31
0
  0
LINE
  8
0
 62
7
 10
5.480293027840338
 20
4.564644660940673
 30
0
 11
5.409582349721683
 21
4.635355339059328
 31
0
  0
TEXT
  8
0
 62
7
 10
5.48993768878101
 20
3.96762371898597
 30
0
 40
0.1
  1
1,2
 50
90
 41
0.9
  0
ENDBLK
  8
0
  0
BLOCK
  8
0
  2
*D3
 70
1
 10
0
 20
0
 30
0
  0
LINE
  8
0
 62
7
 10
3.68552021305287
 20
5.53746595199566
 30
0
 11
4.859999999999999
 21
5.53746595199566
 31
0
  0
LINE
  8
0
 62
7
 10
1.725
 20
5.53746595199566
 30
0
 11
2.94052021305287
 21
5.53746595199566
 31
0
  0
LINE
  8
0
 62
7
 10
4.859999999999999
 20
5.119999999999997
 30
0
 11
4.859999999999999
 21
5.58746595199566
 31
0
  0
LINE
  8
0
 62
7
 10
1.725
 20
5.119999999999997
 30
0
 11
1.725
 21
5.58746595199566
 31
0
  0
LINE
  8
0
 62
7
 10
4.824644660940671
 20
5.502110612936333
 30
0
 11
4.895355339059326
 21
5.572821291054987
 31
0
  0
LINE
  8
0
 62
7
 10
1.760355339059327
 20
5.572821291054987
 30
0
 11
1.689644660940673
 21
5.502110612936333
 31
0
  0
TEXT
  8
0
 62
7
 10
3.19052021305287
 20
5.49246595199566
 30
0
 40
0.1
  1
3,14
 41
0.9
  0
ENDBLK
  8
0
  0
BLOCK
  8
0
  2
*D4
 70
1
 10
0
 20
0
 30
0
  0
LINE
  8
0
 62
7
 10
1.11003882146713
 20
4.3457797330097
 30
0
 11
1.11003882146713
 21
4.600000000000001
 31
0
  0
LINE
  8
0
 62
7
 10
1.11003882146713
 20
3.500000000000001
 30
0
 11
1.11003882146713
 21
3.7207797330097
 31
0
  0
LINE
  8
0
 62
7
 10
1.55
 20
4.600000000000001
 30
0
 11
1.06003882146713
 21
4.600000000000001
 31
0
  0
LINE
  8
0
 62
7
 10
1.55
 20
3.500000000000001
 30
0
 11
1.06003882146713
 21
3.500000000000001
 31
0
  0
LINE
  8
0
 62
7
 10
1.145394160526457
 20
4.564644660940673
 30
0
 11
1.074683482407803
 21
4.635355339059328
 31
0
  0
LINE
  8
0
 62
7
 10
1.074683482407803
 20
3.535355339059328
 30
0
 11
1.145394160526457
 21
3.464644660940674
 31
0
  0
TEXT
  8
0
 62
7
 10
1.15503882146713
 20
3.9707797330097
 30
0
 40
0.1
  1
1,1
 50
90
 41
0.9
  0
ENDBLK
  8
0
  0
ENDSEC
  0
SECTION
  2
ENTITIES
  0
INSERT
  8
0
  2
*X0
 10
0
 20
0
 30
0
  0
INSERT
  8
0
  2
*X1
 10
0
 20
0
 30
0
  0
INSERT
  8
0
  2
*X2
 10
0
 20
0
 30
0
  0
INSERT
  8
0
  2
*X3
 10
0
 20
0
 30
0
  0
INSERT
  8
0
  2
*X4
 10
0
 20
0
 30
0
  0
INSERT
  8
0
  2
*X5
 10
0
 20
0
 30
0
  0
INSERT
  8
0
  2
*X6
 10
0
 20
0
 30
0
  0
INSERT
  8
0
  2
*X7
 10
0
 20
0
 30
0
  0
INSERT
  8
0
  2
*X8
 10
0
 20
0
 30
0
  0
INSERT
  8
0
  2
*X9
 10
0
 20
0
 30
0
  0
INSERT
  8
0
  2
*X10
 10
0
 20
0
 30
0
  0
INSERT
  8
0
  2
*X11
 10
0
 20
0
 30
0
  0
INSERT
  8
0
  2
*X12
 10
0
 20
0
 30
0
  0
INSERT
  8
0
  2
*X13
 10
0
 20
0
 30
0
  0
INSERT
  8
0
  2
*X14
 10
0
 20
0
 30
0
  0
INSERT
  8
0
  2
*X15
 10
0
 20
0
 30
0
  0
INSERT
  8
0
  2
*X16
 10
0
 20
0
 30
0
  0
LINE
  8
0
 62
7
 10
2.689999999999998
 20
3.535000000000001
 30
0
 11
2.689999999999998
 21
3.592499999999999
 31
0
  0
LINE
  8
0
 62
7
 10
2.689999999999998
 20
3.592499999999999
 30
0
 11
2.823327471510611
 21
3.69249560363296
 31
0
  0
LINE
  8
0
 62
7
 10
3.82111237335327
 20
3.635
 30
0
 11
3.830413642021171
 21
3.639142539509136
 31
0
  0
LINE
  8
0
 62
7
 10
3.830413642021171
 20
3.639142539509136
 30
0
 11
3.895
 21
3.595481758766049
 31
0
  0
LINE
  8
0
 62
7
 10
3.895
 20
3.595481758766049
 30
0
 11
3.895
 21
3.400000000000001
 31
0
  0
LINE
  8
0
 62
7
 10
3.895
 20
3.400000000000001
 30
0
 11
4.805
 21
3.4
 31
0
  0
LINE
  8
0
 62
7
 10
4.805
 20
3.4
 30
0
 11
4.805
 21
3.76958346612027
 31
0
  0
LINE
  8
0
 62
7
 10
3.917873406625498
 20
3.580019193252591
 30
0
 11
4.805
 21
3.679024720445101
 31
0
  0
LINE
  8
0
 62
7
 10
3.895
 20
3.595481758766049
 30
0
 11
3.917873406625498
 21
3.580019193252591
 31
0
  0
LINE
  8
0
 62
7
 10
4.805
 20
3.679024720445101
 30
0
 11
4.805
 21
4.171720144625951
 31
0
  0
LINE
  8
0
 62
7
 10
3.830413642021171
 20
3.639142539509136
 30
0
 11
4.805
 21
4.073197574057684
 31
0
  0
LINE
  8
0
 62
7
 10
3.59136228540089
 20
3.635
 30
0
 11
3.82111237335327
 21
3.635
 31
0
  0
LINE
  8
0
 62
7
 10
4.805
 20
4.545000000000001
 30
0
 11
4.601346823498761
 21
4.545000000000001
 31
0
  0
LINE
  8
0
 62
7
 10
4.805
 20
4.073197574057684
 30
0
 11
4.805
 21
4.545000000000001
 31
0
  0
LINE
  8
0
 62
7
 10
3.725815729211229
 20
3.635
 30
0
 11
4.735800267309099
 21
4.545000000000001
 31
0
  0
LINE
  8
0
 62
7
 10
3.504528430947869
 20
3.635
 30
0
 11
3.725815729211229
 21
3.635
 31
0
  0
LINE
  8
0
 62
7
 10
4.735800267309099
 20
4.545000000000001
 30
0
 11
4.142059364338547
 21
4.545000000000001
 31
0
  0
LINE
  8
0
 62
7
 10
3.614417552357398
 20
3.635
 30
0
 11
4.251948485748072
 21
4.545000000000001
 31
0
  0
LINE
  8
0
 62
7
 10
3.400428637086097
 20
3.635
 30
0
 11
3.614417552357398
 21
3.635
 31
0
  0
LINE
  8
0
 62
7
 10
4.251948485748072
 20
4.545000000000001
 30
0
 11
3.81282869647855
 21
4.545000000000001
 31
0
  0
LINE
  8
0
 62
7
 10
3.499239388571439
 20
3.635
 30
0
 11
3.911639447963898
 21
4.545000000000001
 31
0
  0
LINE
  8
0
 62
7
 10
3.294331163626957
 20
3.635
 30
0
 11
3.499239388571439
 21
3.635
 31
0
  0
LINE
  8
0
 62
7
 10
3.911639447963898
 20
4.545000000000001
 30
0
 11
3.480626336089518
 21
4.545000000000001
 31
0
  0
LINE
  8
0
 62
7
 10
3.386197768847149
 20
3.635
 30
0
 11
3.572492941309699
 21
4.545000000000001
 31
0
  0
LINE
  8
0
 62
7
 10
3.186054251427881
 20
3.635
 30
0
 11
3.386197768847149
 21
3.635
 31
0
  0
LINE
  8
0
 62
7
 10
3.572492941309699
 20
4.545000000000001
 30
0
 11
3.140423299881989
 21
4.545000000000001
 31
0
  0
LINE
  8
0
 62
7
 10
3.276167328886149
 20
3.635
 30
0
 11
3.230536377340268
 21
4.545000000000001
 31
0
  0
LINE
  8
0
 62
7
 10
3.075288330071307
 20
3.635
 30
0
 11
3.276167328886149
 21
3.635
 31
0
  0
LINE
  8
0
 62
7
 10
3.230536377340268
 20
4.545000000000001
 30
0
 11
2.79108372904438
 21
4.545000000000001
 31
0
  0
LINE
  8
0
 62
7
 10
3.169575486925739
 20
3.635
 30
0
 11
2.885370885898809
 21
4.545000000000001
 31
0
  0
LINE
  8
0
 62
7
 10
2.962151538968309
 20
3.635
 30
0
 11
3.169575486925739
 21
3.635
 31
0
  0
LINE
  8
0
 62
7
 10
2.885370885898809
 20
4.545000000000001
 30
0
 11
2.433041125229999
 21
4.545000000000001
 31
0
  0
LINE
  8
0
 62
7
 10
3.066259113997049
 20
3.635
 30
0
 11
2.537148700258738
 21
4.545000000000001
 31
0
  0
LINE
  8
0
 62
7
 10
2.848492941624098
 20
3.635
 30
0
 11
3.066259113997049
 21
3.635
 31
0
  0
LINE
  8
0
 62
7
 10
2.537148700258738
 20
4.545000000000001
 30
0
 11
2.033598207355008
 21
4.545000000000001
 31
0
  0
LINE
  8
0
 62
7
 10
2.969304325074098
 20
3.635
 30
0
 11
2.154409590805008
 21
4.545000000000001
 31
0
  0
LINE
  8
0
 62
7
 10
2.744920618195691
 20
3.635
 30
0
 11
2.969304325074098
 21
3.635
 31
0
  0
LINE
  8
0
 62
7
 10
1.78
 20
4.545000000000001
 30
0
 11
1.78
 21
4.226645753480551
 31
0
  0
LINE
  8
0
 62
7
 10
2.154409590805008
 20
4.545000000000001
 30
0
 11
1.78
 21
4.545000000000001
 31
0
  0
LINE
  8
0
 62
7
 10
2.823327471510611
 20
3.69249560363296
 30
0
 11
1.78
 21
4.332216899217991
 31
0
  0
LINE
  8
0
 62
7
 10
1.78
 20
4.332216899217991
 30
0
 11
1.78
 21
3.815436266804192
 31
0
  0
LINE
  8
0
 62
7
 10
2.689999999999998
 20
3.653494756536851
 30
0
 11
1.78
 21
3.908914240921762
 31
0
  0
LINE
  8
0
 62
7
 10
2.689999999999998
 20
3.592499999999999
 30
0
 11
2.689999999999998
 21
3.653494756536851
 31
0
  0
LINE
  8
0
 62
7
 10
1.78
 20
3.908914240921762
 30
0
 11
1.78
 21
3.535000000000001
 31
0
  0
LINE
  8
0
 62
7
 10
4.365720148936407
 20
3.63499987942516
 30
0
 11
4.365720148936407
 21
3.4
 31
0
  0
LINE
  8
0
 62
7
 10
2.690000120541918
 20
4.105720148936411
 30
0
 11
3.89499987941849
 21
4.105720148936411
 31
0
  0
LINE
  8
0
 62
7
 10
2.324934950325287
 20
3.611000000000004
 30
0
 11
2.21927985106359
 21
3.55
 31
0
  0
LINE
  8
0
 62
7
 10
2.113624751801888
 20
3.611000000000004
 30
0
 11
2.324934950325287
 21
3.611000000000004
 31
0
  0
LINE
  8
0
 62
7
 10
2.21927985106359
 20
3.55
 30
0
 11
2.113624751801888
 21
3.611000000000004
 31
0
  0
LINE
  8
0
 62
7
 10
2.21927985106359
 20
3.55
 30
0
 11
2.21927985106359
 21
3.634999879418173
 31
0
  0
LINE
  8
0
 62
7
 10
3.894999919999998
 20
8.746800069999997
 30
0
 11
4.805000090000002
 21
8.746800069999997
 31
0
  0
LINE
  8
0
 62
7
 10
4.805000090000002
 20
8.746800069999997
 30
0
 11
4.805000090000002
 21
8.681800069999996
 31
0
  0
LINE
  8
0
 62
7
 10
3.894999919999998
 20
8.681800069999996
 30
0
 11
3.894999919999998
 21
8.746800069999997
 31
0
  0
LINE
  8
0
 62
7
 10
4.805000090000002
 20
8.681800069999996
 30
0
 11
3.894999919999998
 21
8.681800069999996
 31
0
  0
LINE
  8
0
 62
7
 10
3.742554929999999
 20
8.943200059999995
 30
0
 11
4.80500013
 21
8.943200059999995
 31
0
  0
LINE
  8
0
 62
7
 10
4.80500013
 20
8.878200059999996
 30
0
 11
3.742554929999999
 21
8.878200059999996
 31
0
  0
LINE
  8
0
 62
7
 10
4.80500013
 20
8.943200059999995
 30
0
 11
4.80500013
 21
8.878200059999996
 31
0
  0
LINE
  8
0
 62
7
 10
3.742554929999999
 20
8.878200059999996
 30
0
 11
3.742554929999999
 21
8.943200059999995
 31
0
  0
LINE
  8
0
 62
7
 10
4.80500003
 20
9.074600059999996
 30
0
 11
3.591362149999999
 21
9.074600059999996
 31
0
  0
LINE
  8
0
 62
7
 10
3.591362149999999
 20
9.139600059999996
 30
0
 11
4.80500003
 21
9.139600059999996
 31
0
  0
LINE
  8
0
 62
7
 10
4.80500003
 20
9.139600059999996
 30
0
 11
4.80500003
 21
9.074600059999996
 31
0
  0
LINE
  8
0
 62
7
 10
3.591362149999999
 20
9.074600059999996
 30
0
 11
3.591362149999999
 21
9.139600059999996
 31
0
  0
LINE
  8
0
 62
7
 10
4.735799529999999
 20
9.27100005
 30
0
 11
3.504527579999999
 21
9.27100005
 31
0
  0
LINE
  8
0
 62
7
 10
3.504527579999999
 20
9.336000049999999
 30
0
 11
4.735799529999999
 21
9.336000049999999
 31
0
  0
LINE
  8
0
 62
7
 10
4.735799529999999
 20
9.336000049999999
 30
0
 11
4.735799529999999
 21
9.27100005
 31
0
  0
LINE
  8
0
 62
7
 10
3.504527579999999
 20
9.27100005
 30
0
 11
3.504527579999999
 21
9.336000049999999
 31
0
  0
LINE
  8
0
 62
7
 10
4.25194824
 20
9.467400049999997
 30
0
 11
3.40042831
 21
9.467400049999997
 31
0
  0
LINE
  8
0
 62
7
 10
3.40042831
 20
9.532400049999998
 30
0
 11
4.25194824
 21
9.532400049999998
 31
0
  0
LINE
  8
0
 62
7
 10
4.25194824
 20
9.532400049999998
 30
0
 11
4.25194824
 21
9.467400049999997
 31
0
  0
LINE
  8
0
 62
7
 10
3.40042831
 20
9.467400049999997
 30
0
 11
3.40042831
 21
9.532400049999998
 31
0
  0
LINE
  8
0
 62
7
 10
3.911639399999999
 20
9.663800039999998
 30
0
 11
3.294330899999999
 21
9.663800039999998
 31
0
  0
LINE
  8
0
 62
7
 10
3.294330899999999
 20
9.728800039999998
 30
0
 11
3.911639399999999
 21
9.728800039999998
 31
0
  0
LINE
  8
0
 62
7
 10
3.911639399999999
 20
9.728800039999998
 30
0
 11
3.911639399999999
 21
9.663800039999998
 31
0
  0
LINE
  8
0
 62
7
 10
3.294330899999999
 20
9.663800039999998
 30
0
 11
3.294330899999999
 21
9.728800039999998
 31
0
  0
LINE
  8
0
 62
7
 10
3.57249267
 20
9.860200029999998
 30
0
 11
3.14042221
 21
9.860200029999998
 31
0
  0
LINE
  8
0
 62
7
 10
3.14042221
 20
9.925200029999997
 30
0
 11
3.57249267
 21
9.925200029999997
 31
0
  0
LINE
  8
0
 62
7
 10
3.57249267
 20
9.925200029999997
 30
0
 11
3.57249267
 21
9.860200029999998
 31
0
  0
LINE
  8
0
 62
7
 10
3.14042221
 20
9.860200029999998
 30
0
 11
3.14042221
 21
9.925200029999997
 31
0
  0
LINE
  8
0
 62
7
 10
3.276167139999998
 20
10.05660003
 30
0
 11
2.791082759999998
 21
10.05660003
 31
0
  0
LINE
  8
0
 62
7
 10
2.791082759999998
 20
10.12160003
 30
0
 11
3.276167139999998
 21
10.12160003
 31
0
  0
LINE
  8
0
 62
7
 10
3.276167139999998
 20
10.12160003
 30
0
 11
3.276167139999998
 21
10.05660003
 31
0
  0
LINE
  8
0
 62
7
 10
2.791082759999998
 20
10.05660003
 30
0
 11
2.791082759999998
 21
10.12160003
 31
0
  0
LINE
  8
0
 62
7
 10
3.169575189999999
 20
10.25300002
 30
0
 11
2.433040770000001
 21
10.25300002
 31
0
  0
LINE
  8
0
 62
7
 10
2.433040770000001
 20
10.31800002
 30
0
 11
3.169575189999999
 21
10.31800002
 31
0
  0
LINE
  8
0
 62
7
 10
3.169575189999999
 20
10.31800002
 30
0
 11
3.169575189999999
 21
10.25300002
 31
0
  0
LINE
  8
0
 62
7
 10
2.433040770000001
 20
10.25300002
 30
0
 11
2.433040770000001
 21
10.31800002
 31
0
  0
LINE
  8
0
 62
7
 10
3.066258539999999
 20
10.44940002
 30
0
 11
2.0335971
 21
10.44940002
 31
0
  0
LINE
  8
0
 62
7
 10
2.0335971
 20
10.51440002
 30
0
 11
3.066258539999999
 21
10.51440002
 31
0
  0
LINE
  8
0
 62
7
 10
3.066258539999999
 20
10.51440002
 30
0
 11
3.066258539999999
 21
10.44940002
 31
0
  0
LINE
  8
0
 62
7
 10
2.0335971
 20
10.44940002
 30
0
 11
2.0335971
 21
10.51440002
 31
0
  0
LINE
  8
0
 62
7
 10
2.969304200000001
 20
10.64580001
 30
0
 11
1.78
 21
10.64580001
 31
0
  0
LINE
  8
0
 62
7
 10
1.78
 20
10.71080001
 30
0
 11
2.969304200000001
 21
10.71080001
 31
0
  0
LINE
  8
0
 62
7
 10
2.969304200000001
 20
10.71080001
 30
0
 11
2.969304200000001
 21
10.64580001
 31
0
  0
LINE
  8
0
 62
7
 10
1.78
 20
10.64580001
 30
0
 11
1.78
 21
10.71080001
 31
0
  0
LINE
  8
0
 62
7
 10
1.779999690000001
 20
10.9072
 30
0
 11
2.82332779
 21
10.9072
 31
0
  0
LINE
  8
0
 62
7
 10
2.82332779
 20
10.8422
 30
0
 11
1.779999690000001
 21
10.8422
 31
0
  0
LINE
  8
0
 62
7
 10
2.82332779
 20
10.9072
 30
0
 11
2.82332779
 21
10.8422
 31
0
  0
LINE
  8
0
 62
7
 10
1.779999690000001
 20
10.8422
 30
0
 11
1.779999690000001
 21
10.9072
 31
0
  0
LINE
  8
0
 62
7
  6
DASHED
 10
1.78
 20
11.1036
 30
0
 11
2.6900003
 21
11.1036
 31
0
  0
LINE
  8
0
 62
7
  6
DASHED
 10
2.6900003
 20
11.1036
 30
0
 11
2.6900003
 21
11.0386
 31
0
  0
LINE
  8
0
 62
7
  6
DASHED
 10
1.78
 20
11.0386
 30
0
 11
1.78
 21
11.1036
 31
0
  0
LINE
  8
0
 62
7
  6
DASHED
 10
2.6900003
 20
11.0386
 30
0
 11
1.78
 21
11.0386
 31
0
  0
LINE
  8
0
 62
7
 10
7.209999930000001
 20
8.746800069999997
 30
0
 11
7.579583660000003
 21
8.746800069999997
 31
0
  0
LINE
  8
0
 62
7
 10
7.579583660000003
 20
8.681800069999996
 30
0
 11
7.209999930000001
 21
8.681800069999996
 31
0
  0
LINE
  8
0
 62
7
 10
7.209999930000001
 20
8.681800069999996
 30
0
 11
7.209999930000001
 21
8.746800069999997
 31
0
  0
LINE
  8
0
 62
7
 10
7.579583660000003
 20
8.746800069999997
 30
0
 11
7.579583660000003
 21
8.681800069999996
 31
0
  0
LINE
  8
0
 62
7
 10
7.981720350000002
 20
8.878200059999996
 30
0
 11
7.390019360000003
 21
8.878200059999996
 31
0
  0
LINE
  8
0
 62
7
 10
7.390019360000003
 20
8.943200059999995
 30
0
 11
7.981720350000002
 21
8.943200059999995
 31
0
  0
LINE
  8
0
 62
7
 10
7.390019360000003
 20
8.878200059999996
 30
0
 11
7.390019360000003
 21
8.943200059999995
 31
0
  0
LINE
  8
0
 62
7
 10
7.981720350000002
 20
8.943200059999995
 30
0
 11
7.981720350000002
 21
8.878200059999996
 31
0
  0
LINE
  8
0
 62
7
 10
7.445000030000003
 20
9.139600059999998
 30
0
 11
8.355000150000002
 21
9.139600059999998
 31
0
  0
LINE
  8
0
 62
7
 10
8.355000150000002
 20
9.074600059999998
 30
0
 11
7.445000030000003
 21
9.074600059999998
 31
0
  0
LINE
  8
0
 62
7
 10
7.445000030000003
 20
9.074600059999998
 30
0
 11
7.445000030000003
 21
9.139600059999998
 31
0
  0
LINE
  8
0
 62
7
 10
8.355000150000002
 20
9.139600059999998
 30
0
 11
8.355000150000002
 21
9.074600059999998
 31
0
  0
LINE
  8
0
 62
7
 10
7.445000110000002
 20
9.336000049999999
 30
0
 11
8.355000150000002
 21
9.336000049999999
 31
0
  0
LINE
  8
0
 62
7
 10
7.445000110000002
 20
9.27100005
 30
0
 11
7.445000110000002
 21
9.336000049999999
 31
0
  0
LINE
  8
0
 62
7
 10
8.355000150000002
 20
9.336000049999999
 30
0
 11
8.355000150000002
 21
9.27100005
 31
0
  0
LINE
  8
0
 62
7
 10
8.355000150000002
 20
9.27100005
 30
0
 11
7.445000110000002
 21
9.27100005
 31
0
  0
LINE
  8
0
 62
7
 10
7.445000220000002
 20
9.532400049999998
 30
0
 11
8.355000150000002
 21
9.532400049999998
 31
0
  0
LINE
  8
0
 62
7
 10
7.445000220000002
 20
9.467400049999997
 30
0
 11
7.445000220000002
 21
9.532400049999998
 31
0
  0
LINE
  8
0
 62
7
 10
8.355000150000002
 20
9.532400049999998
 30
0
 11
8.355000150000002
 21
9.467400049999997
 31
0
  0
LINE
  8
0
 62
7
 10
8.355000150000002
 20
9.467400049999997
 30
0
 11
7.445000220000002
 21
9.467400049999997
 31
0
  0
LINE
  8
0
 62
7
 10
7.444999880000002
 20
9.728800039999998
 30
0
 11
8.355000450000004
 21
9.728800039999998
 31
0
  0
LINE
  8
0
 62
7
 10
7.444999880000002
 20
9.663800039999998
 30
0
 11
7.444999880000002
 21
9.728800039999998
 31
0
  0
LINE
  8
0
 62
7
 10
8.355000450000004
 20
9.728800039999998
 30
0
 11
8.355000450000004
 21
9.663800039999998
 31
0
  0
LINE
  8
0
 62
7
 10
8.355000450000004
 20
9.663800039999998
 30
0
 11
7.444999880000002
 21
9.663800039999998
 31
0
  0
LINE
  8
0
 62
7
 10
7.445000190000004
 20
9.925200029999997
 30
0
 11
8.355000150000002
 21
9.925200029999997
 31
0
  0
LINE
  8
0
 62
7
 10
7.445000190000004
 20
9.860200029999998
 30
0
 11
7.445000190000004
 21
9.925200029999997
 31
0
  0
LINE
  8
0
 62
7
 10
8.355000150000002
 20
9.925200029999997
 30
0
 11
8.355000150000002
 21
9.860200029999998
 31
0
  0
LINE
  8
0
 62
7
 10
8.355000150000002
 20
9.860200029999998
 30
0
 11
7.445000190000004
 21
9.860200029999998
 31
0
  0
LINE
  8
0
 62
7
 10
7.445000220000002
 20
10.12160003
 30
0
 11
8.355000000000002
 21
10.12160003
 31
0
  0
LINE
  8
0
 62
7
 10
7.445000220000002
 20
10.05660003
 30
0
 11
7.445000220000002
 21
10.12160003
 31
0
  0
LINE
  8
0
 62
7
 10
8.355000000000002
 20
10.12160003
 30
0
 11
8.355000000000002
 21
10.05660003
 31
0
  0
LINE
  8
0
 62
7
 10
8.355000000000002
 20
10.05660003
 30
0
 11
7.445000220000002
 21
10.05660003
 31
0
  0
LINE
  8
0
 62
7
 10
7.444999960000004
 20
10.31800002
 30
0
 11
8.355000000000002
 21
10.31800002
 31
0
  0
LINE
  8
0
 62
7
 10
7.444999960000004
 20
10.25300002
 30
0
 11
7.444999960000004
 21
10.31800002
 31
0
  0
LINE
  8
0
 62
7
 10
8.355000000000002
 20
10.31800002
 30
0
 11
8.355000000000002
 21
10.25300002
 31
0
  0
LINE
  8
0
 62
7
 10
8.355000000000002
 20
10.25300002
 30
0
 11
7.444999960000004
 21
10.25300002
 31
0
  0
LINE
  8
0
 62
7
 10
7.444999730000003
 20
10.51440002
 30
0
 11
8.355000000000002
 21
10.51440002
 31
0
  0
LINE
  8
0
 62
7
 10
7.444999730000003
 20
10.44940002
 30
0
 11
7.444999730000003
 21
10.51440002
 31
0
  0
LINE
  8
0
 62
7
 10
8.355000000000002
 20
10.51440002
 30
0
 11
8.355000000000002
 21
10.44940002
 31
0
  0
LINE
  8
0
 62
7
 10
8.355000000000002
 20
10.44940002
 30
0
 11
7.444999730000003
 21
10.44940002
 31
0
  0
LINE
  8
0
 62
7
 10
7.445000190000004
 20
10.71080001
 30
0
 11
8.355000000000002
 21
10.71080001
 31
0
  0
LINE
  8
0
 62
7
 10
8.355000000000002
 20
10.64580001
 30
0
 11
7.445000190000004
 21
10.64580001
 31
0
  0
LINE
  8
0
 62
7
 10
7.445000190000004
 20
10.64580001
 30
0
 11
7.445000190000004
 21
10.71080001
 31
0
  0
LINE
  8
0
 62
7
 10
8.355000000000002
 20
10.71080001
 30
0
 11
8.355000000000002
 21
10.64580001
 31
0
  0
LINE
  8
0
 62
7
 10
8.142216870000004
 20
10.8422
 30
0
 11
7.378862720000005
 21
10.8422
 31
0
  0
LINE
  8
0
 62
7
 10
7.378862720000005
 20
10.9072
 30
0
 11
8.142216870000004
 21
10.9072
 31
0
  0
LINE
  8
0
 62
7
 10
7.378862720000005
 20
10.8422
 30
0
 11
7.378862720000005
 21
10.9072
 31
0
  0
LINE
  8
0
 62
7
 10
8.142216870000004
 20
10.9072
 30
0
 11
8.142216870000004
 21
10.8422
 31
0
  0
LINE
  8
0
 62
7
 10
7.345000400000004
 20
11.1036
 30
0
 11
7.718914640000003
 21
11.1036
 31
0
  0
LINE
  8
0
 62
7
 10
7.718914640000003
 20
11.0386
 30
0
 11
7.345000400000004
 21
11.0386
 31
0
  0
LINE
  8
0
 62
7
 10
7.345000400000004
 20
11.0386
 30
0
 11
7.345000400000004
 21
11.1036
 31
0
  0
LINE
  8
0
 62
7
 10
7.718914640000003
 20
11.1036
 30
0
 11
7.718914640000003
 21
11.0386
 31
0
  0
LINE
  8
0
 62
7
 10
1.4
 20
8.249999999999998
 30
0
 11
1.55
 21
8.249999999999998
 31
0
  0
LINE
  8
0
 62
7
 10
1.4
 20
8.449999999999998
 30
0
 11
1.55
 21
8.449999999999998
 31
0
  0
LINE
  8
0
 62
7
 10
1.4
 20
11
 30
0
 11
1.55
 21
11
 31
0
  0
LINE
  8
0
 62
7
 10
1.4
 20
11.2
 30
0
 11
1.55
 21
11.2
 31
0
  0
LINE
  8
0
 62
7
 10
1.55
 20
8.1
 30
0
 11
1.55
 21
8.249999999999998
 31
0
  0
LINE
  8
0
 62
7
 10
1.55
 20
8.249999999999998
 30
0
 11
1.725
 21
8.249999999999998
 31
0
  0
LINE
  8
0
 62
7
 10
1.55
 20
8.449999999999998
 30
0
 11
1.55
 21
8.549999999999997
 31
0
  0
LINE
  8
0
 62
7
 10
1.55
 20
8.449999999999998
 30
0
 11
1.725
 21
8.449999999999998
 31
0
  0
LINE
  8
0
 62
7
 10
1.55
 20
11
 30
0
 11
1.725
 21
11
 31
0
  0
LINE
  8
0
 62
7
 10
1.55
 20
11.2
 30
0
 11
1.55
 21
11.3
 31
0
  0
LINE
  8
0
 62
7
 10
1.55
 20
11.2
 30
0
 11
1.725
 21
11.2
 31
0
  0
LINE
  8
0
 62
7
 10
1.725
 20
8.1
 30
0
 11
1.725
 21
8.249999999999998
 31
0
  0
LINE
  8
0
 62
7
 10
1.725
 20
8.249999999999998
 30
0
 11
4.859999999999999
 21
8.249999999999998
 31
0
  0
LINE
  8
0
 62
7
 10
1.725
 20
8.449999999999998
 30
0
 11
1.725
 21
8.549999999999997
 31
0
  0
LINE
  8
0
 62
7
 10
1.725
 20
8.449999999999998
 30
0
 11
4.859999999999999
 21
8.449999999999998
 31
0
  0
LINE
  8
0
 62
7
 10
1.725
 20
11
 30
0
 11
4.859999999999999
 21
11
 31
0
  0
LINE
  8
0
 62
7
 10
1.725
 20
11.2
 30
0
 11
1.725
 21
11.3
 31
0
  0
LINE
  8
0
 62
7
 10
1.725
 20
11.2
 30
0
 11
4.859999999999999
 21
11.2
 31
0
  0
LINE
  8
0
 62
7
 10
4.859999999999999
 20
8.1
 30
0
 11
4.859999999999999
 21
8.249999999999998
 31
0
  0
LINE
  8
0
 62
7
 10
4.859999999999999
 20
8.249999999999998
 30
0
 11
5.035
 21
8.249999999999998
 31
0
  0
LINE
  8
0
 62
7
 10
4.859999999999999
 20
8.449999999999998
 30
0
 11
4.859999999999999
 21
8.549999999999997
 31
0
  0
LINE
  8
0
 62
7
 10
4.859999999999999
 20
8.449999999999998
 30
0
 11
5.035
 21
8.449999999999998
 31
0
  0
LINE
  8
0
 62
7
 10
4.859999999999999
 20
11
 30
0
 11
5.035
 21
11
 31
0
  0
LINE
  8
0
 62
7
 10
4.859999999999999
 20
11.2
 30
0
 11
4.859999999999999
 21
11.3
 31
0
  0
LINE
  8
0
 62
7
 10
4.859999999999999
 20
11.2
 30
0
 11
5.035
 21
11.2
 31
0
  0
LINE
  8
0
 62
7
 10
5.035
 20
8.1
 30
0
 11
5.035
 21
8.249999999999998
 31
0
  0
LINE
  8
0
 62
7
 10
5.035
 20
8.249999999999998
 30
0
 11
5.185
 21
8.249999999999998
 31
0
  0
LINE
  8
0
 62
7
 10
5.035
 20
8.449999999999998
 30
0
 11
5.035
 21
8.549999999999997
 31
0
  0
LINE
  8
0
 62
7
 10
5.035
 20
8.449999999999998
 30
0
 11
5.185
 21
8.449999999999998
 31
0
  0
LINE
  8
0
 62
7
 10
5.035
 20
11
 30
0
 11
5.185
 21
11
 31
0
  0
LINE
  8
0
 62
7
 10
5.035
 20
11.2
 30
0
 11
5.035
 21
11.3
 31
0
  0
LINE
  8
0
 62
7
 10
5.035
 20
11.2
 30
0
 11
5.185
 21
11.2
 31
0
  0
LINE
  8
0
 62
7
  6
DASHDOT
 10
1.4
 20
8.199999999999998
 30
0
 11
1.4
 21
8.249999999999998
 31
0
  0
LINE
  8
0
 62
7
  6
DASHDOT
 10
1.4
 20
10.95
 30
0
 11
1.4
 21
11
 31
0
  0
LINE
  8
0
 62
7
  6
DASHDOT
 10
5.185
 20
8.199999999999998
 30
0
 11
5.185
 21
8.249999999999998
 31
0
  0
LINE
  8
0
 62
7
  6
DASHDOT
 10
5.185
 20
10.95
 30
0
 11
5.185
 21
11
 31
0
  0
LINE
  8
0
 62
7
  6
DASHDOT
 10
1.5
 20
11.35
 30
0
 11
1.55
 21
11.35
 31
0
  0
LINE
  8
0
 62
7
  6
DASHDOT
 10
1.5
 20
8.1
 30
0
 11
1.55
 21
8.1
 31
0
  0
LINE
  8
0
 62
7
  6
DASHDOT
 10
4.81
 20
11.35
 30
0
 11
4.859999999999999
 21
11.35
 31
0
  0
LINE
  8
0
 62
7
  6
DASHDOT
 10
4.81
 20
8.1
 30
0
 11
4.859999999999999
 21
8.1
 31
0
  0
LINE
  8
0
 62
7
 10
1.4
 20
8.549999999999997
 30
0
 11
1.55
 21
8.549999999999997
 31
0
  0
LINE
  8
0
 62
7
 10
1.55
 20
8.549999999999997
 30
0
 11
1.55
 21
11
 31
0
  0
LINE
  8
0
 62
7
  6
DASHDOT
 10
1.4
 20
8.549999999999997
 30
0
 11
1.4
 21
8.599999999999998
 31
0
  0
LINE
  8
0
 62
7
 10
1.725
 20
8.549999999999997
 30
0
 11
4.859999999999999
 21
8.549999999999997
 31
0
  0
LINE
  8
0
 62
7
 10
1.725
 20
8.549999999999997
 30
0
 11
1.725
 21
11
 31
0
  0
LINE
  8
0
 62
7
 10
4.859999999999999
 20
8.549999999999997
 30
0
 11
4.859999999999999
 21
11
 31
0
  0
LINE
  8
0
 62
7
 10
5.035
 20
8.549999999999997
 30
0
 11
5.185
 21
8.549999999999997
 31
0
  0
LINE
  8
0
 62
7
 10
5.035
 20
8.549999999999997
 30
0
 11
5.035
 21
11
 31
0
  0
LINE
  8
0
 62
7
  6
DASHDOT
 10
5.185
 20
8.549999999999997
 30
0
 11
5.185
 21
8.599999999999998
 31
0
  0
LINE
  8
0
 62
7
 10
1.4
 20
11.3
 30
0
 11
1.55
 21
11.3
 31
0
  0
LINE
  8
0
 62
7
 10
1.55
 20
11.3
 30
0
 11
1.55
 21
11.35
 31
0
  0
LINE
  8
0
 62
7
  6
DASHDOT
 10
1.4
 20
11.3
 30
0
 11
1.4
 21
11.35
 31
0
  0
LINE
  8
0
 62
7
 10
1.725
 20
11.3
 30
0
 11
4.859999999999999
 21
11.3
 31
0
  0
LINE
  8
0
 62
7
 10
1.725
 20
11.3
 30
0
 11
1.725
 21
11.35
 31
0
  0
LINE
  8
0
 62
7
 10
4.859999999999999
 20
11.3
 30
0
 11
4.859999999999999
 21
11.35
 31
0
  0
LINE
  8
0
 62
7
 10
5.035
 20
11.3
 30
0
 11
5.185
 21
11.3
 31
0
  0
LINE
  8
0
 62
7
 10
5.035
 20
11.3
 30
0
 11
5.035
 21
11.35
 31
0
  0
LINE
  8
0
 62
7
  6
DASHDOT
 10
5.185
 20
11.3
 30
0
 11
5.185
 21
11.35
 31
0
  0
LINE
  8
0
 62
7
  6
DASHDOT
 10
5.185
 20
8.249999999999998
 30
0
 11
5.185
 21
8.449999999999998
 31
0
  0
LINE
  8
0
 62
7
  6
DASHDOT
 10
5.185
 20
8.449999999999998
 30
0
 11
5.185
 21
8.549999999999997
 31
0
  0
LINE
  8
0
 62
7
  6
DASHDOT
 10
4.859999999999999
 20
8.1
 30
0
 11
5.035
 21
8.1
 31
0
  0
LINE
  8
0
 62
7
  6
DASHDOT
 10
5.035
 20
8.1
 30
0
 11
5.085
 21
8.1
 31
0
  0
LINE
  8
0
 62
7
  6
DASHDOT
 10
1.4
 20
8.249999999999998
 30
0
 11
1.4
 21
8.449999999999998
 31
0
  0
LINE
  8
0
 62
7
  6
DASHDOT
 10
1.4
 20
8.449999999999998
 30
0
 11
1.4
 21
8.549999999999997
 31
0
  0
LINE
  8
0
 62
7
  6
DASHDOT
 10
1.55
 20
8.1
 30
0
 11
1.725
 21
8.1
 31
0
  0
LINE
  8
0
 62
7
  6
DASHDOT
 10
1.725
 20
8.1
 30
0
 11
1.775
 21
8.1
 31
0
  0
LINE
  8
0
 62
7
  6
DASHDOT
 10
1.4
 20
11
 30
0
 11
1.4
 21
11.2
 31
0
  0
LINE
  8
0
 62
7
  6
DASHDOT
 10
1.4
 20
11.2
 30
0
 11
1.4
 21
11.3
 31
0
  0
LINE
  8
0
 62
7
  6
DASHDOT
 10
1.55
 20
11.35
 30
0
 11
1.725
 21
11.35
 31
0
  0
LINE
  8
0
 62
7
  6
DASHDOT
 10
1.725
 20
11.35
 30
0
 11
1.775
 21
11.35
 31
0
  0
LINE
  8
0
 62
7
  6
DASHDOT
 10
5.185
 20
11
 30
0
 11
5.185
 21
11.2
 31
0
  0
LINE
  8
0
 62
7
  6
DASHDOT
 10
5.185
 20
11.2
 30
0
 11
5.185
 21
11.3
 31
0
  0
LINE
  8
0
 62
7
  6
DASHDOT
 10
4.859999999999999
 20
11.35
 30
0
 11
5.035
 21
11.35
 31
0
  0
LINE
  8
0
 62
7
  6
DASHDOT
 10
5.035
 20
11.35
 30
0
 11
5.085
 21
11.35
 31
0
  0
LINE
  8
0
 62
7
 10
8.65
 20
8.249999999999998
 30
0
 11
8.65
 21
8.1
 31
0
  0
LINE
  8
0
 62
7
 10
8.410000000000002
 20
11.2
 30
0
 11
8.410000000000002
 21
11.35
 31
0
  0
LINE
  8
0
 62
7
 10
8.410000000000002
 20
11.2
 30
0
 11
8.65
 21
11.2
 31
0
  0
LINE
  8
0
 62
7
 10
8.65
 20
11.35
 30
0
 11
8.65
 21
11.2
 31
0
  0
LINE
  8
0
 62
7
 10
8.410000000000002
 20
11
 30
0
 11
8.410000000000002
 21
11.2
 31
0
  0
LINE
  8
0
 62
7
 10
8.410000000000002
 20
11
 30
0
 11
8.65
 21
11
 31
0
  0
LINE
  8
0
 62
7
 10
8.65
 20
11.2
 30
0
 11
8.65
 21
11
 31
0
  0
LINE
  8
0
 62
7
 10
8.410000000000002
 20
8.449999999999998
 30
0
 11
8.410000000000002
 21
11
 31
0
  0
LINE
  8
0
 62
7
 10
8.410000000000002
 20
8.449999999999998
 30
0
 11
8.65
 21
8.449999999999998
 31
0
  0
LINE
  8
0
 62
7
 10
8.65
 20
11
 30
0
 11
8.65
 21
8.449999999999998
 31
0
  0
LINE
  8
0
 62
7
 10
8.410000000000002
 20
8.249999999999998
 30
0
 11
8.410000000000002
 21
8.449999999999998
 31
0
  0
LINE
  8
0
 62
7
 10
8.410000000000002
 20
8.249999999999998
 30
0
 11
8.65
 21
8.249999999999998
 31
0
  0
LINE
  8
0
 62
7
 10
8.65
 20
8.449999999999998
 30
0
 11
8.65
 21
8.249999999999998
 31
0
  0
LINE
  8
0
 62
7
 10
8.410000000000002
 20
8.1
 30
0
 11
8.410000000000002
 21
8.249999999999998
 31
0
  0
LINE
  8
0
 62
7
 10
7.310000000000001
 20
11
 30
0
 11
7.310000000000001
 21
11.2
 31
0
  0
LINE
  8
0
 62
7
 10
7.010000000000002
 20
11
 30
0
 11
7.310000000000001
 21
11
 31
0
  0
LINE
  8
0
 62
7
 10
7.010000000000002
 20
11.2
 30
0
 11
7.310000000000001
 21
11.2
 31
0
  0
LINE
  8
0
 62
7
 10
7.010000000000002
 20
8.449999999999998
 30
0
 11
7.310000000000001
 21
8.449999999999998
 31
0
  0
LINE
  8
0
 62
7
 10
7.310000000000001
 20
8.249999999999998
 30
0
 11
7.310000000000001
 21
8.449999999999998
 31
0
  0
LINE
  8
0
 62
7
 10
7.010000000000002
 20
8.249999999999998
 30
0
 11
7.310000000000001
 21
8.249999999999998
 31
0
  0
LINE
  8
0
 62
7
  6
DASHDOT
 10
8.65
 20
11.35
 30
0
 11
8.700000000000001
 21
11.35
 31
0
  0
LINE
  8
0
 62
7
  6
DASHDOT
 10
7.010000000000002
 20
11.3
 30
0
 11
7.010000000000002
 21
11.35
 31
0
  0
LINE
  8
0
 62
7
  6
DASHDOT
 10
7.010000000000002
 20
8.249999999999998
 30
0
 11
7.010000000000002
 21
8.199999999999998
 31
0
  0
LINE
  8
0
 62
7
  6
DASHDOT
 10
8.65
 20
8.1
 30
0
 11
8.700000000000001
 21
8.1
 31
0
  0
LINE
  8
0
 62
7
 10
7.010000000000002
 20
8.549999999999997
 30
0
 11
7.310000000000001
 21
8.549999999999997
 31
0
  0
LINE
  8
0
 62
7
  6
DASHDOT
 10
7.010000000000002
 20
8.599999999999998
 30
0
 11
7.010000000000002
 21
8.549999999999997
 31
0
  0
LINE
  8
0
 62
7
 10
7.010000000000002
 20
11.3
 30
0
 11
7.310000000000001
 21
11.3
 31
0
  0
LINE
  8
0
 62
7
  6
DASHDOT
 10
7.010000000000002
 20
11.2
 30
0
 11
7.010000000000002
 21
11.3
 31
0
  0
LINE
  8
0
 62
7
  6
DASHDOT
 10
7.010000000000002
 20
8.549999999999997
 30
0
 11
7.010000000000002
 21
8.449999999999998
 31
0
  0
LINE
  8
0
 62
7
  6
DASHDOT
 10
7.010000000000002
 20
8.449999999999998
 30
0
 11
7.010000000000002
 21
8.249999999999998
 31
0
  0
LINE
  8
0
 62
7
  6
DASHDOT
 10
8.410000000000002
 20
8.1
 30
0
 11
8.65
 21
8.1
 31
0
  0
LINE
  8
0
 62
7
  6
DASHDOT
 10
8.360000000000001
 20
8.1
 30
0
 11
8.410000000000002
 21
8.1
 31
0
  0
LINE
  8
0
 62
7
  6
DASHDOT
 10
8.360000000000001
 20
11.35
 30
0
 11
8.410000000000002
 21
11.35
 31
0
  0
LINE
  8
0
 62
7
  6
DASHDOT
 10
8.410000000000002
 20
11.35
 30
0
 11
8.65
 21
11.35
 31
0
  0
LINE
  8
0
 62
7
  6
DASHDOT
 10
7.010000000000002
 20
10.95
 30
0
 11
7.010000000000002
 21
11
 31
0
  0
LINE
  8
0
 62
7
  6
DASHDOT
 10
7.010000000000002
 20
11
 30
0
 11
7.010000000000002
 21
11.2
 31
0
  0
LINE
  8
0
 62
7
  6
DASHED
 10
7.310000000000001
 20
11.2
 30
0
 11
8.410000000000002
 21
11.2
 31
0
  0
LINE
  8
0
 62
7
  6
DASHED
 10
7.310000000000001
 20
11
 30
0
 11
8.410000000000002
 21
11
 31
0
  0
LINE
  8
0
 62
7
  6
DASHED
 10
7.310000000000001
 20
8.449999999999998
 30
0
 11
8.410000000000002
 21
8.449999999999998
 31
0
  0
LINE
  8
0
 62
7
  6
DASHED
 10
7.310000000000001
 20
8.249999999999998
 30
0
 11
8.410000000000002
 21
8.249999999999998
 31
0
  0
LINE
  8
0
 62
7
 10
5.035
 20
5.119999999999997
 30
0
 11
5.185
 21
5.119999999999997
 31
0
  0
LINE
  8
0
 62
7
 10
5.035
 20
5.269999999999997
 30
0
 11
5.035
 21
5.119999999999997
 31
0
  0
LINE
  8
0
 62
7
 10
4.859999999999999
 20
5.119999999999997
 30
0
 11
4.859999999999999
 21
5.269999999999997
 31
0
  0
LINE
  8
0
 62
7
 10
1.725
 20
5.119999999999997
 30
0
 11
4.859999999999999
 21
5.119999999999997
 31
0
  0
LINE
  8
0
 62
7
 10
1.725
 20
5.269999999999997
 30
0
 11
1.725
 21
5.119999999999997
 31
0
  0
LINE
  8
0
 62
7
 10
1.55
 20
5.119999999999997
 30
0
 11
1.55
 21
5.269999999999997
 31
0
  0
LINE
  8
0
 62
7
 10
1.385
 20
5.119999999999997
 30
0
 11
1.55
 21
5.119999999999997
 31
0
  0
LINE
  8
0
 62
7
 10
1.385
 20
4.880000000000002
 30
0
 11
5.185
 21
4.880000000000002
 31
0
  0
LINE
  8
0
 62
7
 10
1.385
 20
4.840000000000002
 30
0
 11
5.185
 21
4.840000000000002
 31
0
  0
LINE
  8
0
 62
7
 10
5.035
 20
4.600000000000001
 30
0
 11
5.185
 21
4.600000000000001
 31
0
  0
LINE
  8
0
 62
7
 10
4.859999999999999
 20
3.500000000000001
 30
0
 11
4.859999999999999
 21
3.400000000000001
 31
0
  0
LINE
  8
0
 62
7
 10
4.859999999999999
 20
3.400000000000001
 30
0
 11
5.035
 21
3.400000000000001
 31
0
  0
LINE
  8
0
 62
7
 10
5.035
 20
3.400000000000001
 30
0
 11
5.035
 21
4.600000000000001
 31
0
  0
LINE
  8
0
 62
7
 10
1.725
 20
4.600000000000001
 30
0
 11
4.859999999999999
 21
4.600000000000001
 31
0
  0
LINE
  8
0
 62
7
 10
1.725
 20
3.550000000000001
 30
0
 11
1.725
 21
4.600000000000001
 31
0
  0
LINE
  8
0
 62
7
 10
1.55
 20
4.600000000000001
 30
0
 11
1.55
 21
3.500000000000001
 31
0
  0
LINE
  8
0
 62
7
 10
1.385
 20
4.600000000000001
 30
0
 11
1.55
 21
4.600000000000001
 31
0
  0
LINE
  8
0
 62
7
 10
1.55
 20
3.500000000000001
 30
0
 11
1.725
 21
3.500000000000001
 31
0
  0
LINE
  8
0
 62
7
 10
4.859999999999999
 20
3.550000000000001
 30
0
 11
1.725
 21
3.550000000000001
 31
0
  0
LINE
  8
0
 62
7
 10
4.859999999999999
 20
4.600000000000001
 30
0
 11
4.859999999999999
 21
3.550000000000001
 31
0
  0
LINE
  8
0
 62
7
 10
1.725
 20
3.500000000000001
 30
0
 11
1.725
 21
3.550000000000001
 31
0
  0
LINE
  8
0
 62
7
  6
DASHDOT
 10
4.859999999999999
 20
3.500000000000001
 30
0
 11
1.725
 21
3.500000000000001
 31
0
  0
LINE
  8
0
 62
7
 10
4.859999999999999
 20
3.550000000000001
 30
0
 11
4.859999999999999
 21
3.500000000000001
 31
0
  0
LINE
  8
0
 62
7
  6
DASHDOT
 10
5.035
 20
5.269999999999997
 30
0
 11
5.085
 21
5.269999999999997
 31
0
  0
LINE
  8
0
 62
7
  6
DASHDOT
 10
1.725
 20
5.269999999999997
 30
0
 11
1.775
 21
5.269999999999997
 31
0
  0
LINE
  8
0
 62
7
  6
DASHDOT
 10
5.185
 20
5.119999999999997
 30
0
 11
5.185
 21
5.169999999999997
 31
0
  0
LINE
  8
0
 62
7
  6
DASHDOT
 10
1.385
 20
5.119999999999997
 30
0
 11
1.385
 21
5.169999999999997
 31
0
  0
LINE
  8
0
 62
7
  6
DASHDOT
 10
1.385
 20
4.880000000000002
 30
0
 11
1.385
 21
5.119999999999997
 31
0
  0
LINE
  8
0
 62
7
  6
DASHDOT
 10
1.385
 20
4.550000000000001
 30
0
 11
1.385
 21
4.600000000000001
 31
0
  0
LINE
  8
0
 62
7
  6
DASHDOT
 10
4.859999999999999
 20
5.269999999999997
 30
0
 11
5.035
 21
5.269999999999997
 31
0
  0
LINE
  8
0
 62
7
  6
DASHDOT
 10
4.81
 20
5.269999999999997
 30
0
 11
4.859999999999999
 21
5.269999999999997
 31
0
  0
LINE
  8
0
 62
7
  6
DASHDOT
 10
5.185
 20
4.880000000000002
 30
0
 11
5.185
 21
5.119999999999997
 31
0
  0
LINE
  8
0
 62
7
  6
DASHDOT
 10
5.185
 20
4.550000000000001
 30
0
 11
5.185
 21
4.600000000000001
 31
0
  0
LINE
  8
0
 62
7
  6
DASHDOT
 10
1.385
 20
4.840000000000002
 30
0
 11
1.385
 21
4.880000000000002
 31
0
  0
LINE
  8
0
 62
7
  6
DASHDOT
 10
5.185
 20
4.840000000000002
 30
0
 11
5.185
 21
4.880000000000002
 31
0
  0
LINE
  8
0
 62
7
  6
DASHDOT
 10
1.385
 20
4.600000000000001
 30
0
 11
1.385
 21
4.840000000000002
 31
0
  0
LINE
  8
0
 62
7
  6
DASHDOT
 10
5.185
 20
4.600000000000001
 30
0
 11
5.185
 21
4.840000000000002
 31
0
  0
LINE
  8
0
 62
7
  6
DASHDOT
 10
1.5
 20
5.269999999999997
 30
0
 11
1.55
 21
5.269999999999997
 31
0
  0
LINE
  8
0
 62
7
  6
DASHDOT
 10
1.55
 20
5.269999999999997
 30
0
 11
1.725
 21
5.269999999999997
 31
0
  0
LINE
  8
0
 62
7
 10
2.483750984358151
 20
4.27379158576052
 30
0
 11
2.483750984358151
 21
4.39379158576052
 31
0
  0
LINE
  8
0
 62
7
 10
2.559350984358151
 20
4.39379158576052
 30
0
 11
2.505350984358151
 21
4.333791585760521
 31
0
  0
LINE
  8
0
 62
7
 10
2.505350984358151
 20
4.333791585760521
 30
0
 11
2.559350984358151
 21
4.27379158576052
 31
0
  0
LINE
  8
0
 62
7
 10
2.505350984358151
 20
4.333791585760521
 30
0
 11
2.483750984358151
 21
4.309791585760521
 31
0
  0
LINE
  8
0
 62
7
 10
2.667350984358151
 20
4.39379158576052
 30
0
 11
2.591750984358151
 21
4.39379158576052
 31
0
  0
LINE
  8
0
 62
7
 10
2.591750984358151
 20
4.39379158576052
 30
0
 11
2.591750984358151
 21
4.333791585760521
 31
0
  0
LINE
  8
0
 62
7
 10
2.591750984358151
 20
4.27379158576052
 30
0
 11
2.667350984358151
 21
4.27379158576052
 31
0
  0
LINE
  8
0
 62
7
 10
2.656550984358151
 20
4.333791585760521
 30
0
 11
2.591750984358151
 21
4.333791585760521
 31
0
  0
LINE
  8
0
 62
7
 10
2.591750984358151
 20
4.333791585760521
 30
0
 11
2.591750984358151
 21
4.27379158576052
 31
0
  0
LINE
  8
0
 62
7
 10
2.699750984358151
 20
4.27379158576052
 30
0
 11
2.699750984358151
 21
4.39379158576052
 31
0
  0
LINE
  8
0
 62
7
 10
2.699750984358151
 20
4.39379158576052
 30
0
 11
2.775350984358151
 21
4.27379158576052
 31
0
  0
LINE
  8
0
 62
7
 10
2.775350984358151
 20
4.27379158576052
 30
0
 11
2.775350984358151
 21
4.39379158576052
 31
0
  0
LINE
  8
0
 62
7
 10
2.807750984358151
 20
4.27379158576052
 30
0
 11
2.807750984358151
 21
4.39379158576052
 31
0
  0
LINE
  8
0
 62
7
 10
2.807750984358151
 20
4.39379158576052
 30
0
 11
2.88335098435815
 21
4.27379158576052
 31
0
  0
LINE
  8
0
 62
7
 10
2.88335098435815
 20
4.27379158576052
 30
0
 11
2.88335098435815
 21
4.39379158576052
 31
0
  0
LINE
  8
0
 62
7
 10
2.991350984358151
 20
4.357791585760522
 30
0
 11
2.988650984358151
 21
4.36979158576052
 31
0
  0
LINE
  8
0
 62
7
 10
2.988650984358151
 20
4.36979158576052
 30
0
 11
2.983250984358151
 21
4.378791585760521
 31
0
  0
LINE
  8
0
 62
7
 10
2.983250984358151
 20
4.378791585760521
 30
0
 11
2.977850984358151
 21
4.38479158576052
 31
0
  0
LINE
  8
0
 62
7
 10
2.977850984358151
 20
4.38479158576052
 30
0
 11
2.969750984358151
 21
4.390791585760521
 31
0
  0
LINE
  8
0
 62
7
 10
2.969750984358151
 20
4.390791585760521
 30
0
 11
2.961650984358151
 21
4.39379158576052
 31
0
  0
LINE
  8
0
 62
7
 10
2.961650984358151
 20
4.39379158576052
 30
0
 11
2.945450984358151
 21
4.39379158576052
 31
0
  0
LINE
  8
0
 62
7
 10
2.945450984358151
 20
4.39379158576052
 30
0
 11
2.937350984358151
 21
4.390791585760521
 31
0
  0
LINE
  8
0
 62
7
 10
2.937350984358151
 20
4.390791585760521
 30
0
 11
2.929250984358151
 21
4.38479158576052
 31
0
  0
LINE
  8
0
 62
7
 10
2.929250984358151
 20
4.38479158576052
 30
0
 11
2.923850984358151
 21
4.378791585760521
 31
0
  0
LINE
  8
0
 62
7
 10
2.923850984358151
 20
4.378791585760521
 30
0
 11
2.918450984358151
 21
4.36979158576052
 31
0
  0
LINE
  8
0
 62
7
 10
2.918450984358151
 20
4.36979158576052
 30
0
 11
2.915750984358151
 21
4.357791585760522
 31
0
  0
LINE
  8
0
 62
7
 10
2.915750984358151
 20
4.357791585760522
 30
0
 11
2.915750984358151
 21
4.309791585760521
 31
0
  0
LINE
  8
0
 62
7
 10
2.915750984358151
 20
4.309791585760521
 30
0
 11
2.918450984358151
 21
4.297791585760521
 31
0
  0
LINE
  8
0
 62
7
 10
2.918450984358151
 20
4.297791585760521
 30
0
 11
2.923850984358151
 21
4.28879158576052
 31
0
  0
LINE
  8
0
 62
7
 10
2.923850984358151
 20
4.28879158576052
 30
0
 11
2.929250984358151
 21
4.282791585760521
 31
0
  0
LINE
  8
0
 62
7
 10
2.929250984358151
 20
4.282791585760521
 30
0
 11
2.937350984358151
 21
4.276791585760519
 31
0
  0
LINE
  8
0
 62
7
 10
2.937350984358151
 20
4.276791585760519
 30
0
 11
2.945450984358151
 21
4.27379158576052
 31
0
  0
LINE
  8
0
 62
7
 10
2.945450984358151
 20
4.27379158576052
 30
0
 11
2.961650984358151
 21
4.27379158576052
 31
0
  0
LINE
  8
0
 62
7
 10
2.961650984358151
 20
4.27379158576052
 30
0
 11
2.969750984358151
 21
4.276791585760519
 31
0
  0
LINE
  8
0
 62
7
 10
2.969750984358151
 20
4.276791585760519
 30
0
 11
2.977850984358151
 21
4.282791585760521
 31
0
  0
LINE
  8
0
 62
7
 10
2.977850984358151
 20
4.282791585760521
 30
0
 11
2.983250984358151
 21
4.28879158576052
 31
0
  0
LINE
  8
0
 62
7
 10
2.983250984358151
 20
4.28879158576052
 30
0
 11
2.988650984358151
 21
4.297791585760521
 31
0
  0
LINE
  8
0
 62
7
 10
2.988650984358151
 20
4.297791585760521
 30
0
 11
2.991350984358151
 21
4.309791585760521
 31
0
  0
LINE
  8
0
 62
7
 10
2.991350984358151
 20
4.309791585760521
 30
0
 11
2.991350984358151
 21
4.333791585760521
 31
0
  0
LINE
  8
0
 62
7
 10
2.991350984358151
 20
4.333791585760521
 30
0
 11
2.95895098435815
 21
4.333791585760521
 31
0
  0
LINE
  8
0
 62
7
 10
3.069650984358151
 20
4.39379158576052
 30
0
 11
3.05345098435815
 21
4.39379158576052
 31
0
  0
LINE
  8
0
 62
7
 10
3.05345098435815
 20
4.39379158576052
 30
0
 11
3.045350984358151
 21
4.390791585760521
 31
0
  0
LINE
  8
0
 62
7
 10
3.045350984358151
 20
4.390791585760521
 30
0
 11
3.037250984358151
 21
4.38479158576052
 31
0
  0
LINE
  8
0
 62
7
 10
3.037250984358151
 20
4.38479158576052
 30
0
 11
3.031850984358152
 21
4.378791585760521
 31
0
  0
LINE
  8
0
 62
7
 10
3.031850984358152
 20
4.378791585760521
 30
0
 11
3.02645098435815
 21
4.36979158576052
 31
0
  0
LINE
  8
0
 62
7
 10
3.02645098435815
 20
4.36979158576052
 30
0
 11
3.023750984358151
 21
4.357791585760522
 31
0
  0
LINE
  8
0
 62
7
 10
3.023750984358151
 20
4.357791585760522
 30
0
 11
3.023750984358151
 21
4.309791585760521
 31
0
  0
LINE
  8
0
 62
7
 10
3.023750984358151
 20
4.309791585760521
 30
0
 11
3.02645098435815
 21
4.297791585760521
 31
0
  0
LINE
  8
0
 62
7
 10
3.02645098435815
 20
4.297791585760521
 30
0
 11
3.031850984358152
 21
4.28879158576052
 31
0
  0
LINE
  8
0
 62
7
 10
3.031850984358152
 20
4.28879158576052
 30
0
 11
3.037250984358151
 21
4.282791585760521
 31
0
  0
LINE
  8
0
 62
7
 10
3.037250984358151
 20
4.282791585760521
 30
0
 11
3.045350984358151
 21
4.276791585760519
 31
0
  0
LINE
  8
0
 62
7
 10
3.045350984358151
 20
4.276791585760519
 30
0
 11
3.05345098435815
 21
4.27379158576052
 31
0
  0
LINE
  8
0
 62
7
 10
3.05345098435815
 20
4.27379158576052
 30
0
 11
3.069650984358151
 21
4.27379158576052
 31
0
  0
LINE
  8
0
 62
7
 10
3.069650984358151
 20
4.27379158576052
 30
0
 11
3.077750984358151
 21
4.276791585760519
 31
0
  0
LINE
  8
0
 62
7
 10
3.077750984358151
 20
4.276791585760519
 30
0
 11
3.085850984358151
 21
4.282791585760521
 31
0
  0
LINE
  8
0
 62
7
 10
3.085850984358151
 20
4.282791585760521
 30
0
 11
3.091250984358151
 21
4.28879158576052
 31
0
  0
LINE
  8
0
 62
7
 10
3.091250984358151
 20
4.28879158576052
 30
0
 11
3.096650984358151
 21
4.297791585760521
 31
0
  0
LINE
  8
0
 62
7
 10
3.096650984358151
 20
4.297791585760521
 30
0
 11
3.099350984358152
 21
4.309791585760521
 31
0
  0
LINE
  8
0
 62
7
 10
3.099350984358152
 20
4.309791585760521
 30
0
 11
3.099350984358152
 21
4.357791585760522
 31
0
  0
LINE
  8
0
 62
7
 10
3.099350984358152
 20
4.357791585760522
 30
0
 11
3.096650984358151
 21
4.36979158576052
 31
0
  0
LINE
  8
0
 62
7
 10
3.096650984358151
 20
4.36979158576052
 30
0
 11
3.091250984358151
 21
4.378791585760521
 31
0
  0
LINE
  8
0
 62
7
 10
3.091250984358151
 20
4.378791585760521
 30
0
 11
3.085850984358151
 21
4.38479158576052
 31
0
  0
LINE
  8
0
 62
7
 10
3.085850984358151
 20
4.38479158576052
 30
0
 11
3.077750984358151
 21
4.390791585760521
 31
0
  0
LINE
  8
0
 62
7
 10
3.077750984358151
 20
4.390791585760521
 30
0
 11
3.069650984358151
 21
4.39379158576052
 31
0
  0
LINE
  8
0
 62
7
 10
3.120950984358151
 20
4.39379158576052
 30
0
 11
3.158750984358151
 21
4.39379158576052
 31
0
  0
LINE
  8
0
 62
7
 10
3.158750984358151
 20
4.39379158576052
 30
0
 11
3.158750984358151
 21
4.27379158576052
 31
0
  0
LINE
  8
0
 62
7
 10
3.158750984358151
 20
4.39379158576052
 30
0
 11
3.196550984358151
 21
4.39379158576052
 31
0
  0
LINE
  8
0
 62
7
 10
3.228950984358152
 20
4.39379158576052
 30
0
 11
3.266750984358151
 21
4.39379158576052
 31
0
  0
LINE
  8
0
 62
7
 10
3.266750984358151
 20
4.39379158576052
 30
0
 11
3.266750984358151
 21
4.27379158576052
 31
0
  0
LINE
  8
0
 62
7
 10
3.266750984358151
 20
4.39379158576052
 30
0
 11
3.304550984358151
 21
4.39379158576052
 31
0
  0
LINE
  8
0
 62
7
 10
3.423350984358151
 20
4.315791585760521
 30
0
 11
3.477350984358151
 21
4.315791585760521
 31
0
  0
LINE
  8
0
 62
7
 10
3.585350984358151
 20
4.39379158576052
 30
0
 11
3.623150984358151
 21
4.39379158576052
 31
0
  0
LINE
  8
0
 62
7
 10
3.623150984358151
 20
4.39379158576052
 30
0
 11
3.623150984358151
 21
4.27379158576052
 31
0
  0
LINE
  8
0
 62
7
 10
3.623150984358151
 20
4.39379158576052
 30
0
 11
3.660950984358152
 21
4.39379158576052
 31
0
  0
LINE
  8
0
 62
7
 10
3.693350984358151
 20
4.27379158576052
 30
0
 11
3.693350984358151
 21
4.39379158576052
 31
0
  0
LINE
  8
0
 62
7
 10
3.693350984358151
 20
4.39379158576052
 30
0
 11
3.744650984358151
 21
4.39379158576052
 31
0
  0
LINE
  8
0
 62
7
 10
3.744650984358151
 20
4.39379158576052
 30
0
 11
3.755450984358151
 21
4.390791585760521
 31
0
  0
LINE
  8
0
 62
7
 10
3.755450984358151
 20
4.390791585760521
 30
0
 11
3.763550984358151
 21
4.38479158576052
 31
0
  0
LINE
  8
0
 62
7
 10
3.763550984358151
 20
4.38479158576052
 30
0
 11
3.766250984358151
 21
4.378791585760521
 31
0
  0
LINE
  8
0
 62
7
 10
3.766250984358151
 20
4.378791585760521
 30
0
 11
3.76895098435815
 21
4.36979158576052
 31
0
  0
LINE
  8
0
 62
7
 10
3.76895098435815
 20
4.36979158576052
 30
0
 11
3.76895098435815
 21
4.357791585760522
 31
0
  0
LINE
  8
0
 62
7
 10
3.76895098435815
 20
4.357791585760522
 30
0
 11
3.766250984358151
 21
4.34879158576052
 31
0
  0
LINE
  8
0
 62
7
 10
3.766250984358151
 20
4.34879158576052
 30
0
 11
3.763550984358151
 21
4.342791585760522
 31
0
  0
LINE
  8
0
 62
7
 10
3.763550984358151
 20
4.342791585760522
 30
0
 11
3.755450984358151
 21
4.33679158576052
 31
0
  0
LINE
  8
0
 62
7
 10
3.755450984358151
 20
4.33679158576052
 30
0
 11
3.744650984358151
 21
4.333791585760521
 31
0
  0
LINE
  8
0
 62
7
 10
3.744650984358151
 20
4.333791585760521
 30
0
 11
3.73655098435815
 21
4.333791585760521
 31
0
  0
LINE
  8
0
 62
7
 10
3.73655098435815
 20
4.333791585760521
 30
0
 11
3.76895098435815
 21
4.27379158576052
 31
0
  0
LINE
  8
0
 62
7
 10
3.73655098435815
 20
4.333791585760521
 30
0
 11
3.693350984358151
 21
4.333791585760521
 31
0
  0
LINE
  8
0
 62
7
 10
3.866150984358152
 20
4.39379158576052
 30
0
 11
3.790550984358152
 21
4.39379158576052
 31
0
  0
LINE
  8
0
 62
7
 10
3.790550984358152
 20
4.39379158576052
 30
0
 11
3.790550984358152
 21
4.333791585760521
 31
0
  0
LINE
  8
0
 62
7
 10
3.790550984358152
 20
4.27379158576052
 30
0
 11
3.866150984358152
 21
4.27379158576052
 31
0
  0
LINE
  8
0
 62
7
 10
3.855350984358151
 20
4.333791585760521
 30
0
 11
3.790550984358152
 21
4.333791585760521
 31
0
  0
LINE
  8
0
 62
7
 10
3.790550984358152
 20
4.333791585760521
 30
0
 11
3.790550984358152
 21
4.27379158576052
 31
0
  0
LINE
  8
0
 62
7
 10
3.898550984358151
 20
4.27379158576052
 30
0
 11
3.898550984358151
 21
4.333791585760521
 31
0
  0
LINE
  8
0
 62
7
 10
3.898550984358151
 20
4.39379158576052
 30
0
 11
3.949850984358151
 21
4.39379158576052
 31
0
  0
LINE
  8
0
 62
7
 10
3.949850984358151
 20
4.39379158576052
 30
0
 11
3.960650984358152
 21
4.390791585760521
 31
0
  0
LINE
  8
0
 62
7
 10
3.960650984358152
 20
4.390791585760521
 30
0
 11
3.968750984358151
 21
4.38479158576052
 31
0
  0
LINE
  8
0
 62
7
 10
3.968750984358151
 20
4.38479158576052
 30
0
 11
3.971450984358151
 21
4.378791585760521
 31
0
  0
LINE
  8
0
 62
7
 10
3.971450984358151
 20
4.378791585760521
 30
0
 11
3.974150984358151
 21
4.36979158576052
 31
0
  0
LINE
  8
0
 62
7
 10
3.974150984358151
 20
4.36979158576052
 30
0
 11
3.974150984358151
 21
4.357791585760522
 31
0
  0
LINE
  8
0
 62
7
 10
3.974150984358151
 20
4.357791585760522
 30
0
 11
3.971450984358151
 21
4.34879158576052
 31
0
  0
LINE
  8
0
 62
7
 10
3.971450984358151
 20
4.34879158576052
 30
0
 11
3.968750984358151
 21
4.342791585760522
 31
0
  0
LINE
  8
0
 62
7
 10
3.968750984358151
 20
4.342791585760522
 30
0
 11
3.960650984358152
 21
4.33679158576052
 31
0
  0
LINE
  8
0
 62
7
 10
3.960650984358152
 20
4.33679158576052
 30
0
 11
3.949850984358151
 21
4.333791585760521
 31
0
  0
LINE
  8
0
 62
7
 10
3.949850984358151
 20
4.333791585760521
 30
0
 11
3.898550984358151
 21
4.333791585760521
 31
0
  0
LINE
  8
0
 62
7
 10
3.898550984358151
 20
4.333791585760521
 30
0
 11
3.898550984358151
 21
4.39379158576052
 31
0
  0
LINE
  8
0
 62
7
 10
3.995750984358152
 20
4.27379158576052
 30
0
 11
3.995750984358152
 21
4.333791585760521
 31
0
  0
LINE
  8
0
 62
7
 10
3.995750984358152
 20
4.39379158576052
 30
0
 11
4.047050984358153
 21
4.39379158576052
 31
0
  0
LINE
  8
0
 62
7
 10
4.047050984358153
 20
4.39379158576052
 30
0
 11
4.057850984358151
 21
4.390791585760521
 31
0
  0
LINE
  8
0
 62
7
 10
4.057850984358151
 20
4.390791585760521
 30
0
 11
4.065950984358151
 21
4.38479158576052
 31
0
  0
LINE
  8
0
 62
7
 10
4.065950984358151
 20
4.38479158576052
 30
0
 11
4.068650984358151
 21
4.378791585760521
 31
0
  0
LINE
  8
0
 62
7
 10
4.068650984358151
 20
4.378791585760521
 30
0
 11
4.071350984358151
 21
4.36979158576052
 31
0
  0
LINE
  8
0
 62
7
 10
4.071350984358151
 20
4.36979158576052
 30
0
 11
4.071350984358151
 21
4.357791585760522
 31
0
  0
LINE
  8
0
 62
7
 10
4.071350984358151
 20
4.357791585760522
 30
0
 11
4.068650984358151
 21
4.34879158576052
 31
0
  0
LINE
  8
0
 62
7
 10
4.068650984358151
 20
4.34879158576052
 30
0
 11
4.065950984358151
 21
4.342791585760522
 31
0
  0
LINE
  8
0
 62
7
 10
4.065950984358151
 20
4.342791585760522
 30
0
 11
4.057850984358151
 21
4.33679158576052
 31
0
  0
LINE
  8
0
 62
7
 10
4.057850984358151
 20
4.33679158576052
 30
0
 11
4.047050984358153
 21
4.333791585760521
 31
0
  0
LINE
  8
0
 62
7
 10
4.047050984358153
 20
4.333791585760521
 30
0
 11
3.995750984358152
 21
4.333791585760521
 31
0
  0
LINE
  8
0
 62
7
 10
3.995750984358152
 20
4.333791585760521
 30
0
 11
3.995750984358152
 21
4.39379158576052
 31
0
  0
LINE
  8
0
 62
7
 10
4.168550984358151
 20
4.39379158576052
 30
0
 11
4.092950984358151
 21
4.39379158576052
 31
0
  0
LINE
  8
0
 62
7
 10
4.092950984358151
 20
4.39379158576052
 30
0
 11
4.092950984358151
 21
4.333791585760521
 31
0
  0
LINE
  8
0
 62
7
 10
4.092950984358151
 20
4.27379158576052
 30
0
 11
4.168550984358151
 21
4.27379158576052
 31
0
  0
LINE
  8
0
 62
7
 10
4.157750984358152
 20
4.333791585760521
 30
0
 11
4.092950984358151
 21
4.333791585760521
 31
0
  0
LINE
  8
0
 62
7
 10
4.092950984358151
 20
4.333791585760521
 30
0
 11
4.092950984358151
 21
4.27379158576052
 31
0
  0
LINE
  8
0
 62
7
 10
1.075
 20
3.04
 30
0
 11
1.075
 21
3.16
 31
0
  0
LINE
  8
0
 62
7
 10
1.1506
 20
3.16
 30
0
 11
1.0966
 21
3.1
 31
0
  0
LINE
  8
0
 62
7
 10
1.0966
 20
3.1
 30
0
 11
1.1506
 21
3.04
 31
0
  0
LINE
  8
0
 62
7
 10
1.0966
 20
3.1
 30
0
 11
1.075
 21
3.076000000000001
 31
0
  0
LINE
  8
0
 62
7
 10
1.183
 20
3.142
 30
0
 11
1.1884
 21
3.151
 31
0
  0
LINE
  8
0
 62
7
 10
1.1884
 20
3.151
 30
0
 11
1.1965
 21
3.157
 31
0
  0
LINE
  8
0
 62
7
 10
1.1965
 20
3.157
 30
0
 11
1.2073
 21
3.16
 31
0
  0
LINE
  8
0
 62
7
 10
1.2073
 20
3.16
 30
0
 11
1.2235
 21
3.16
 31
0
  0
LINE
  8
0
 62
7
 10
1.2235
 20
3.16
 30
0
 11
1.2343
 21
3.157
 31
0
  0
LINE
  8
0
 62
7
 10
1.2343
 20
3.157
 30
0
 11
1.2424
 21
3.151
 31
0
  0
LINE
  8
0
 62
7
 10
1.2424
 20
3.151
 30
0
 11
1.2478
 21
3.142
 31
0
  0
LINE
  8
0
 62
7
 10
1.2478
 20
3.142
 30
0
 11
1.2478
 21
3.13
 31
0
  0
LINE
  8
0
 62
7
 10
1.2478
 20
3.13
 30
0
 11
1.2424
 21
3.118
 31
0
  0
LINE
  8
0
 62
7
 10
1.2424
 20
3.118
 30
0
 11
1.183
 21
3.04
 31
0
  0
LINE
  8
0
 62
7
 10
1.183
 20
3.04
 30
0
 11
1.2478
 21
3.04
 31
0
  0
LINE
  8
0
 62
7
 10
1.2802
 20
3.16
 30
0
 11
1.318
 21
3.04
 31
0
  0
LINE
  8
0
 62
7
 10
1.318
 20
3.04
 30
0
 11
1.3558
 21
3.16
 31
0
  0
LINE
  8
0
 62
7
 10
1.3882
 20
3.142
 30
0
 11
1.3936
 21
3.151
 31
0
  0
LINE
  8
0
 62
7
 10
1.3936
 20
3.151
 30
0
 11
1.4017
 21
3.157
 31
0
  0
LINE
  8
0
 62
7
 10
1.4017
 20
3.157
 30
0
 11
1.4125
 21
3.16
 31
0
  0
LINE
  8
0
 62
7
 10
1.4125
 20
3.16
 30
0
 11
1.4287
 21
3.16
 31
0
  0
LINE
  8
0
 62
7
 10
1.4287
 20
3.16
 30
0
 11
1.4368
 21
3.157
 31
0
  0
LINE
  8
0
 62
7
 10
1.4368
 20
3.157
 30
0
 11
1.4449
 21
3.151
 31
0
  0
LINE
  8
0
 62
7
 10
1.4449
 20
3.151
 30
0
 11
1.4503
 21
3.142
 31
0
  0
LINE
  8
0
 62
7
 10
1.4503
 20
3.142
 30
0
 11
1.453
 21
3.13
 31
0
  0
LINE
  8
0
 62
7
 10
1.453
 20
3.13
 30
0
 11
1.453
 21
3.121
 31
0
  0
LINE
  8
0
 62
7
 10
1.453
 20
3.121
 30
0
 11
1.4503
 21
3.112
 31
0
  0
LINE
  8
0
 62
7
 10
1.4503
 20
3.112
 30
0
 11
1.4449
 21
3.106
 31
0
  0
LINE
  8
0
 62
7
 10
1.4449
 20
3.106
 30
0
 11
1.4314
 21
3.1
 31
0
  0
LINE
  8
0
 62
7
 10
1.4125
 20
3.1
 30
0
 11
1.4314
 21
3.1
 31
0
  0
LINE
  8
0
 62
7
 10
1.4314
 20
3.1
 30
0
 11
1.4449
 21
3.094
 31
0
  0
LINE
  8
0
 62
7
 10
1.4449
 20
3.094
 30
0
 11
1.4503
 21
3.088
 31
0
  0
LINE
  8
0
 62
7
 10
1.4503
 20
3.088
 30
0
 11
1.453
 21
3.079
 31
0
  0
LINE
  8
0
 62
7
 10
1.453
 20
3.079
 30
0
 11
1.453
 21
3.07
 31
0
  0
LINE
  8
0
 62
7
 10
1.453
 20
3.07
 30
0
 11
1.4503
 21
3.058
 31
0
  0
LINE
  8
0
 62
7
 10
1.4503
 20
3.058
 30
0
 11
1.4449
 21
3.049
 31
0
  0
LINE
  8
0
 62
7
 10
1.4449
 20
3.049
 30
0
 11
1.4368
 21
3.043
 31
0
  0
LINE
  8
0
 62
7
 10
1.4368
 20
3.043
 30
0
 11
1.4287
 21
3.04
 31
0
  0
LINE
  8
0
 62
7
 10
1.4287
 20
3.04
 30
0
 11
1.4125
 21
3.04
 31
0
  0
LINE
  8
0
 62
7
 10
1.4125
 20
3.04
 30
0
 11
1.4017
 21
3.043
 31
0
  0
LINE
  8
0
 62
7
 10
1.4017
 20
3.043
 30
0
 11
1.3936
 21
3.049
 31
0
  0
LINE
  8
0
 62
7
 10
1.3936
 20
3.049
 30
0
 11
1.3882
 21
3.058
 31
0
  0
LINE
  8
0
 62
7
 10
1.4854
 20
3.124000000000001
 30
0
 11
1.5178
 21
3.16
 31
0
  0
LINE
  8
0
 62
7
 10
1.5178
 20
3.16
 30
0
 11
1.5178
 21
3.04
 31
0
  0
LINE
  8
0
 62
7
 10
1.5502
 20
3.142
 30
0
 11
1.5556
 21
3.151
 31
0
  0
LINE
  8
0
 62
7
 10
1.5556
 20
3.151
 30
0
 11
1.5637
 21
3.157
 31
0
  0
LINE
  8
0
 62
7
 10
1.5637
 20
3.157
 30
0
 11
1.5745
 21
3.16
 31
0
  0
LINE
  8
0
 62
7
 10
1.5745
 20
3.16
 30
0
 11
1.5907
 21
3.16
 31
0
  0
LINE
  8
0
 62
7
 10
1.5907
 20
3.16
 30
0
 11
1.5988
 21
3.157
 31
0
  0
LINE
  8
0
 62
7
 10
1.5988
 20
3.157
 30
0
 11
1.6069
 21
3.151
 31
0
  0
LINE
  8
0
 62
7
 10
1.6069
 20
3.151
 30
0
 11
1.6123
 21
3.142
 31
0
  0
LINE
  8
0
 62
7
 10
1.6123
 20
3.142
 30
0
 11
1.615
 21
3.13
 31
0
  0
LINE
  8
0
 62
7
 10
1.615
 20
3.13
 30
0
 11
1.615
 21
3.121
 31
0
  0
LINE
  8
0
 62
7
 10
1.615
 20
3.121
 30
0
 11
1.6123
 21
3.112
 31
0
  0
LINE
  8
0
 62
7
 10
1.6123
 20
3.112
 30
0
 11
1.6069
 21
3.106
 31
0
  0
LINE
  8
0
 62
7
 10
1.6069
 20
3.106
 30
0
 11
1.5934
 21
3.1
 31
0
  0
LINE
  8
0
 62
7
 10
1.5745
 20
3.1
 30
0
 11
1.5934
 21
3.1
 31
0
  0
LINE
  8
0
 62
7
 10
1.5934
 20
3.1
 30
0
 11
1.6069
 21
3.094
 31
0
  0
LINE
  8
0
 62
7
 10
1.6069
 20
3.094
 30
0
 11
1.6123
 21
3.088
 31
0
  0
LINE
  8
0
 62
7
 10
1.6123
 20
3.088
 30
0
 11
1.615
 21
3.079
 31
0
  0
LINE
  8
0
 62
7
 10
1.615
 20
3.079
 30
0
 11
1.615
 21
3.07
 31
0
  0
LINE
  8
0
 62
7
 10
1.615
 20
3.07
 30
0
 11
1.6123
 21
3.058
 31
0
  0
LINE
  8
0
 62
7
 10
1.6123
 20
3.058
 30
0
 11
1.6069
 21
3.049
 31
0
  0
LINE
  8
0
 62
7
 10
1.6069
 20
3.049
 30
0
 11
1.5988
 21
3.043
 31
0
  0
LINE
  8
0
 62
7
 10
1.5988
 20
3.043
 30
0
 11
1.5907
 21
3.04
 31
0
  0
LINE
  8
0
 62
7
 10
1.5907
 20
3.04
 30
0
 11
1.5745
 21
3.04
 31
0
  0
LINE
  8
0
 62
7
 10
1.5745
 20
3.04
 30
0
 11
1.5637
 21
3.043
 31
0
  0
LINE
  8
0
 62
7
 10
1.5637
 20
3.043
 30
0
 11
1.5556
 21
3.049
 31
0
  0
LINE
  8
0
 62
7
 10
1.5556
 20
3.049
 30
0
 11
1.5502
 21
3.058
 31
0
  0
LINE
  8
0
 62
7
 10
1.7122
 20
3.04
 30
0
 11
1.6474
 21
3.04
 31
0
  0
LINE
  8
0
 62
7
 10
1.6474
 20
3.04
 30
0
 11
1.6474
 21
3.16
 31
0
  0
LINE
  8
0
 62
7
 10
1.7446
 20
3.142
 30
0
 11
1.75
 21
3.151
 31
0
  0
LINE
  8
0
 62
7
 10
1.75
 20
3.151
 30
0
 11
1.7581
 21
3.157
 31
0
  0
LINE
  8
0
 62
7
 10
1.7581
 20
3.157
 30
0
 11
1.7689
 21
3.16
 31
0
  0
LINE
  8
0
 62
7
 10
1.7689
 20
3.16
 30
0
 11
1.7851
 21
3.16
 31
0
  0
LINE
  8
0
 62
7
 10
1.7851
 20
3.16
 30
0
 11
1.7932
 21
3.157
 31
0
  0
LINE
  8
0
 62
7
 10
1.7932
 20
3.157
 30
0
 11
1.8013
 21
3.151
 31
0
  0
LINE
  8
0
 62
7
 10
1.8013
 20
3.151
 30
0
 11
1.8067
 21
3.142
 31
0
  0
LINE
  8
0
 62
7
 10
1.8067
 20
3.142
 30
0
 11
1.8094
 21
3.13
 31
0
  0
LINE
  8
0
 62
7
 10
1.8094
 20
3.13
 30
0
 11
1.8094
 21
3.121
 31
0
  0
LINE
  8
0
 62
7
 10
1.8094
 20
3.121
 30
0
 11
1.8067
 21
3.112
 31
0
  0
LINE
  8
0
 62
7
 10
1.8067
 20
3.112
 30
0
 11
1.8013
 21
3.106
 31
0
  0
LINE
  8
0
 62
7
 10
1.8013
 20
3.106
 30
0
 11
1.7878
 21
3.1
 31
0
  0
LINE
  8
0
 62
7
 10
1.7689
 20
3.1
 30
0
 11
1.7878
 21
3.1
 31
0
  0
LINE
  8
0
 62
7
 10
1.7878
 20
3.1
 30
0
 11
1.8013
 21
3.094
 31
0
  0
LINE
  8
0
 62
7
 10
1.8013
 20
3.094
 30
0
 11
1.8067
 21
3.088
 31
0
  0
LINE
  8
0
 62
7
 10
1.8067
 20
3.088
 30
0
 11
1.8094
 21
3.079
 31
0
  0
LINE
  8
0
 62
7
 10
1.8094
 20
3.079
 30
0
 11
1.8094
 21
3.07
 31
0
  0
LINE
  8
0
 62
7
 10
1.8094
 20
3.07
 30
0
 11
1.8067
 21
3.058
 31
0
  0
LINE
  8
0
 62
7
 10
1.8067
 20
3.058
 30
0
 11
1.8013
 21
3.049
 31
0
  0
LINE
  8
0
 62
7
 10
1.8013
 20
3.049
 30
0
 11
1.7932
 21
3.043
 31
0
  0
LINE
  8
0
 62
7
 10
1.7932
 20
3.043
 30
0
 11
1.7851
 21
3.04
 31
0
  0
LINE
  8
0
 62
7
 10
1.7851
 20
3.04
 30
0
 11
1.7689
 21
3.04
 31
0
  0
LINE
  8
0
 62
7
 10
1.7689
 20
3.04
 30
0
 11
1.7581
 21
3.043
 31
0
  0
LINE
  8
0
 62
7
 10
1.7581
 20
3.043
 30
0
 11
1.75
 21
3.049
 31
0
  0
LINE
  8
0
 62
7
 10
1.75
 20
3.049
 30
0
 11
1.7446
 21
3.058
 31
0
  0
LINE
  8
0
 62
7
 10
3.575
 20
3.04
 30
0
 11
3.575
 21
3.140000000000001
 31
0
  0
LINE
  8
0
 62
7
 10
3.575
 20
3.140000000000001
 30
0
 11
3.638
 21
3.04
 31
0
  0
LINE
  8
0
 62
7
 10
3.638
 20
3.04
 30
0
 11
3.638
 21
3.140000000000001
 31
0
  0
LINE
  8
0
 62
7
 10
3.719
 20
3.04
 30
0
 11
3.665
 21
3.04
 31
0
  0
LINE
  8
0
 62
7
 10
3.665
 20
3.04
 30
0
 11
3.665
 21
3.140000000000001
 31
0
  0
LINE
  8
0
 62
7
 10
3.746
 20
3.09
 30
0
 11
3.782
 21
3.09
 31
0
  0
LINE
  8
0
 62
7
 10
3.782
 20
3.09
 30
0
 11
3.7865
 21
3.09
 31
0
  0
LINE
  8
0
 62
7
 10
3.7865
 20
3.09
 30
0
 11
3.7955
 21
3.085
 31
0
  0
LINE
  8
0
 62
7
 10
3.7955
 20
3.085
 30
0
 11
3.8
 21
3.08
 31
0
  0
LINE
  8
0
 62
7
 10
3.8
 20
3.08
 30
0
 11
3.8045
 21
3.07
 31
0
  0
LINE
  8
0
 62
7
 10
3.8045
 20
3.07
 30
0
 11
3.8045
 21
3.06
 31
0
  0
LINE
  8
0
 62
7
 10
3.8045
 20
3.06
 30
0
 11
3.8
 21
3.05
 31
0
  0
LINE
  8
0
 62
7
 10
3.8
 20
3.05
 30
0
 11
3.7955
 21
3.045
 31
0
  0
LINE
  8
0
 62
7
 10
3.7955
 20
3.045
 30
0
 11
3.7865
 21
3.04
 31
0
  0
LINE
  8
0
 62
7
 10
3.7865
 20
3.04
 30
0
 11
3.746
 21
3.04
 31
0
  0
LINE
  8
0
 62
7
 10
3.746
 20
3.04
 30
0
 11
3.746
 21
3.09
 31
0
  0
LINE
  8
0
 62
7
 10
3.746
 20
3.140000000000001
 30
0
 11
3.77975
 21
3.140000000000001
 31
0
  0
LINE
  8
0
 62
7
 10
3.77975
 20
3.140000000000001
 30
0
 11
3.791
 21
3.1375
 31
0
  0
LINE
  8
0
 62
7
 10
3.791
 20
3.1375
 30
0
 11
3.79775
 21
3.13
 31
0
  0
LINE
  8
0
 62
7
 10
3.79775
 20
3.13
 30
0
 11
3.8
 21
3.12
 31
0
  0
LINE
  8
0
 62
7
 10
3.8
 20
3.12
 30
0
 11
3.8
 21
3.11
 31
0
  0
LINE
  8
0
 62
7
 10
3.8
 20
3.11
 30
0
 11
3.7955
 21
3.1
 31
0
  0
LINE
  8
0
 62
7
 10
3.7955
 20
3.1
 30
0
 11
3.78875
 21
3.0925
 31
0
  0
LINE
  8
0
 62
7
 10
3.78875
 20
3.0925
 30
0
 11
3.782
 21
3.09
 31
0
  0
LINE
  8
0
 62
7
 10
3.746
 20
3.09
 30
0
 11
3.746
 21
3.140000000000001
 31
0
  0
LINE
  8
0
 62
7
 10
3.94625
 20
3.0925
 30
0
 11
3.939500000000001
 21
3.1025
 31
0
  0
LINE
  8
0
 62
7
 10
3.939500000000001
 20
3.1025
 30
0
 11
3.93275
 21
3.1075
 31
0
  0
LINE
  8
0
 62
7
 10
3.93275
 20
3.1075
 30
0
 11
3.926
 21
3.11
 31
0
  0
LINE
  8
0
 62
7
 10
3.926
 20
3.11
 30
0
 11
3.917
 21
3.11
 31
0
  0
LINE
  8
0
 62
7
 10
3.917
 20
3.11
 30
0
 11
3.91025
 21
3.1075
 31
0
  0
LINE
  8
0
 62
7
 10
3.91025
 20
3.1075
 30
0
 11
3.903500000000001
 21
3.1025
 31
0
  0
LINE
  8
0
 62
7
 10
3.903500000000001
 20
3.1025
 30
0
 11
3.89675
 21
3.0925
 31
0
  0
LINE
  8
0
 62
7
 10
3.89675
 20
3.0925
 30
0
 11
3.8945
 21
3.085
 31
0
  0
LINE
  8
0
 62
7
 10
3.8945
 20
3.085
 30
0
 11
3.8945
 21
3.065
 31
0
  0
LINE
  8
0
 62
7
 10
3.8945
 20
3.065
 30
0
 11
3.89675
 21
3.0575
 31
0
  0
LINE
  8
0
 62
7
 10
3.89675
 20
3.0575
 30
0
 11
3.903500000000001
 21
3.0475
 31
0
  0
LINE
  8
0
 62
7
 10
3.903500000000001
 20
3.0475
 30
0
 11
3.91025
 21
3.0425
 31
0
  0
LINE
  8
0
 62
7
 10
3.91025
 20
3.0425
 30
0
 11
3.917
 21
3.04
 31
0
  0
LINE
  8
0
 62
7
 10
3.917
 20
3.04
 30
0
 11
3.926
 21
3.04
 31
0
  0
LINE
  8
0
 62
7
 10
3.926
 20
3.04
 30
0
 11
3.93275
 21
3.0425
 31
0
  0
LINE
  8
0
 62
7
 10
3.93275
 20
3.0425
 30
0
 11
3.939500000000001
 21
3.0475
 31
0
  0
LINE
  8
0
 62
7
 10
3.939500000000001
 20
3.0475
 30
0
 11
3.94625
 21
3.0575
 31
0
  0
LINE
  8
0
 62
7
 10
4.01825
 20
3.085
 30
0
 11
4.016000000000001
 21
3.0925
 31
0
  0
LINE
  8
0
 62
7
 10
4.016000000000001
 20
3.0925
 30
0
 11
4.009250000000001
 21
3.1025
 31
0
  0
LINE
  8
0
 62
7
 10
4.009250000000001
 20
3.1025
 30
0
 11
4.0025
 21
3.1075
 31
0
  0
LINE
  8
0
 62
7
 10
4.0025
 20
3.1075
 30
0
 11
3.995750000000001
 21
3.11
 31
0
  0
LINE
  8
0
 62
7
 10
3.995750000000001
 20
3.11
 30
0
 11
3.98675
 21
3.11
 31
0
  0
LINE
  8
0
 62
7
 10
3.98675
 20
3.11
 30
0
 11
3.98
 21
3.1075
 31
0
  0
LINE
  8
0
 62
7
 10
3.98
 20
3.1075
 30
0
 11
3.97325
 21
3.1025
 31
0
  0
LINE
  8
0
 62
7
 10
3.97325
 20
3.1025
 30
0
 11
3.9665
 21
3.0925
 31
0
  0
LINE
  8
0
 62
7
 10
3.9665
 20
3.0925
 30
0
 11
3.96425
 21
3.085
 31
0
  0
LINE
  8
0
 62
7
 10
3.96425
 20
3.085
 30
0
 11
3.96425
 21
3.065
 31
0
  0
LINE
  8
0
 62
7
 10
3.96425
 20
3.065
 30
0
 11
3.9665
 21
3.0575
 31
0
  0
LINE
  8
0
 62
7
 10
3.9665
 20
3.0575
 30
0
 11
3.97325
 21
3.0475
 31
0
  0
LINE
  8
0
 62
7
 10
3.97325
 20
3.0475
 30
0
 11
3.98
 21
3.0425
 31
0
  0
LINE
  8
0
 62
7
 10
3.98
 20
3.0425
 30
0
 11
3.98675
 21
3.04
 31
0
  0
LINE
  8
0
 62
7
 10
3.98675
 20
3.04
 30
0
 11
3.995750000000001
 21
3.04
 31
0
  0
LINE
  8
0
 62
7
 10
3.995750000000001
 20
3.04
 30
0
 11
4.0025
 21
3.0425
 31
0
  0
LINE
  8
0
 62
7
 10
4.0025
 20
3.0425
 30
0
 11
4.009250000000001
 21
3.0475
 31
0
  0
LINE
  8
0
 62
7
 10
4.009250000000001
 20
3.0475
 30
0
 11
4.016000000000001
 21
3.0575
 31
0
  0
LINE
  8
0
 62
7
 10
4.016000000000001
 20
3.0575
 30
0
 11
4.01825
 21
3.065
 31
0
  0
LINE
  8
0
 62
7
 10
4.01825
 20
3.11
 30
0
 11
4.01825
 21
3.085
 31
0
  0
LINE
  8
0
 62
7
 10
4.01825
 20
3.0425
 30
0
 11
4.0205
 21
3.04
 31
0
  0
LINE
  8
0
 62
7
 10
4.0205
 20
3.04
 30
0
 11
4.02275
 21
3.04
 31
0
  0
LINE
  8
0
 62
7
 10
4.01825
 20
3.065
 30
0
 11
4.01825
 21
3.0425
 31
0
  0
LINE
  8
0
 62
7
 10
4.01825
 20
3.085
 30
0
 11
4.01825
 21
3.065
 31
0
  0
LINE
  8
0
 62
7
 10
4.04075
 20
3.04
 30
0
 11
4.04075
 21
3.0425
 31
0
  0
LINE
  8
0
 62
7
 10
4.04075
 20
3.0425
 30
0
 11
4.043
 21
3.0425
 31
0
  0
LINE
  8
0
 62
7
 10
4.043
 20
3.0425
 30
0
 11
4.043
 21
3.04
 31
0
  0
LINE
  8
0
 62
7
 10
4.043
 20
3.04
 30
0
 11
4.04075
 21
3.04
 31
0
  0
LINE
  8
0
 62
7
 10
4.16675
 20
3.140000000000001
 30
0
 11
4.17575
 21
3.140000000000001
 31
0
  0
LINE
  8
0
 62
7
 10
4.17575
 20
3.140000000000001
 30
0
 11
4.1825
 21
3.1375
 31
0
  0
LINE
  8
0
 62
7
 10
4.1825
 20
3.1375
 30
0
 11
4.187
 21
3.1325
 31
0
  0
LINE
  8
0
 62
7
 10
4.187
 20
3.1325
 30
0
 11
4.1915
 21
3.125
 31
0
  0
LINE
  8
0
 62
7
 10
4.1915
 20
3.125
 30
0
 11
4.1915
 21
3.115
 31
0
  0
LINE
  8
0
 62
7
 10
4.1915
 20
3.115
 30
0
 11
4.18925
 21
3.11
 31
0
  0
LINE
  8
0
 62
7
 10
4.18925
 20
3.11
 30
0
 11
4.1825
 21
3.1025
 31
0
  0
LINE
  8
0
 62
7
 10
4.1825
 20
3.1025
 30
0
 11
4.17575
 21
3.1
 31
0
  0
LINE
  8
0
 62
7
 10
4.17575
 20
3.1
 30
0
 11
4.16675
 21
3.1
 31
0
  0
LINE
  8
0
 62
7
 10
4.16675
 20
3.1
 30
0
 11
4.16
 21
3.1025
 31
0
  0
LINE
  8
0
 62
7
 10
4.16
 20
3.1025
 30
0
 11
4.15325
 21
3.11
 31
0
  0
LINE
  8
0
 62
7
 10
4.15325
 20
3.11
 30
0
 11
4.151
 21
3.115
 31
0
  0
LINE
  8
0
 62
7
 10
4.151
 20
3.115
 30
0
 11
4.151
 21
3.125
 31
0
  0
LINE
  8
0
 62
7
 10
4.151
 20
3.125
 30
0
 11
4.1555
 21
3.1325
 31
0
  0
LINE
  8
0
 62
7
 10
4.1555
 20
3.1325
 30
0
 11
4.16
 21
3.1375
 31
0
  0
LINE
  8
0
 62
7
 10
4.16
 20
3.1375
 30
0
 11
4.16675
 21
3.140000000000001
 31
0
  0
LINE
  8
0
 62
7
 10
4.16675
 20
3.1
 30
0
 11
4.1555
 21
3.095
 31
0
  0
LINE
  8
0
 62
7
 10
4.1555
 20
3.095
 30
0
 11
4.148750000000001
 21
3.0875
 31
0
  0
LINE
  8
0
 62
7
 10
4.148750000000001
 20
3.0875
 30
0
 11
4.14425
 21
3.077500000000001
 31
0
  0
LINE
  8
0
 62
7
 10
4.14425
 20
3.077500000000001
 30
0
 11
4.14425
 21
3.0625
 31
0
  0
LINE
  8
0
 62
7
 10
4.14425
 20
3.0625
 30
0
 11
4.148750000000001
 21
3.0525
 31
0
  0
LINE
  8
0
 62
7
 10
4.148750000000001
 20
3.0525
 30
0
 11
4.1555
 21
3.045
 31
0
  0
LINE
  8
0
 62
7
 10
4.1555
 20
3.045
 30
0
 11
4.1645
 21
3.04
 31
0
  0
LINE
  8
0
 62
7
 10
4.1645
 20
3.04
 30
0
 11
4.178
 21
3.04
 31
0
  0
LINE
  8
0
 62
7
 10
4.178
 20
3.04
 30
0
 11
4.187
 21
3.045
 31
0
  0
LINE
  8
0
 62
7
 10
4.187
 20
3.045
 30
0
 11
4.193750000000001
 21
3.0525
 31
0
  0
LINE
  8
0
 62
7
 10
4.193750000000001
 20
3.0525
 30
0
 11
4.198250000000001
 21
3.0625
 31
0
  0
LINE
  8
0
 62
7
 10
4.198250000000001
 20
3.0625
 30
0
 11
4.198250000000001
 21
3.077500000000001
 31
0
  0
LINE
  8
0
 62
7
 10
4.198250000000001
 20
3.077500000000001
 30
0
 11
4.193750000000001
 21
3.0875
 31
0
  0
LINE
  8
0
 62
7
 10
4.193750000000001
 20
3.0875
 30
0
 11
4.187
 21
3.095
 31
0
  0
LINE
  8
0
 62
7
 10
4.187
 20
3.095
 30
0
 11
4.17575
 21
3.1
 31
0
  0
LINE
  8
0
 62
7
 10
4.28375
 20
3.140000000000001
 30
0
 11
4.23425
 21
3.140000000000001
 31
0
  0
LINE
  8
0
 62
7
 10
4.23425
 20
3.140000000000001
 30
0
 11
4.23425
 21
3.09
 31
0
  0
LINE
  8
0
 62
7
 10
4.23425
 20
3.09
 30
0
 11
4.23875
 21
3.0975
 31
0
  0
LINE
  8
0
 62
7
 10
4.23875
 20
3.0975
 30
0
 11
4.2455
 21
3.1025
 31
0
  0
LINE
  8
0
 62
7
 10
4.2455
 20
3.1025
 30
0
 11
4.2545
 21
3.105
 31
0
  0
LINE
  8
0
 62
7
 10
4.2545
 20
3.105
 30
0
 11
4.268
 21
3.105
 31
0
  0
LINE
  8
0
 62
7
 10
4.268
 20
3.105
 30
0
 11
4.27475
 21
3.1025
 31
0
  0
LINE
  8
0
 62
7
 10
4.27475
 20
3.1025
 30
0
 11
4.2815
 21
3.0975
 31
0
  0
LINE
  8
0
 62
7
 10
4.2815
 20
3.0975
 30
0
 11
4.286
 21
3.09
 31
0
  0
LINE
  8
0
 62
7
 10
4.286
 20
3.09
 30
0
 11
4.288250000000001
 21
3.08
 31
0
  0
LINE
  8
0
 62
7
 10
4.288250000000001
 20
3.08
 30
0
 11
4.288250000000001
 21
3.065
 31
0
  0
LINE
  8
0
 62
7
 10
4.288250000000001
 20
3.065
 30
0
 11
4.286
 21
3.055
 31
0
  0
LINE
  8
0
 62
7
 10
4.286
 20
3.055
 30
0
 11
4.2815
 21
3.0475
 31
0
  0
LINE
  8
0
 62
7
 10
4.2815
 20
3.0475
 30
0
 11
4.27475
 21
3.0425
 31
0
  0
LINE
  8
0
 62
7
 10
4.27475
 20
3.0425
 30
0
 11
4.268
 21
3.04
 31
0
  0
LINE
  8
0
 62
7
 10
4.268
 20
3.04
 30
0
 11
4.2545
 21
3.04
 31
0
  0
LINE
  8
0
 62
7
 10
4.2545
 20
3.04
 30
0
 11
4.2455
 21
3.0425
 31
0
  0
LINE
  8
0
 62
7
 10
4.2455
 20
3.0425
 30
0
 11
4.23875
 21
3.0475
 31
0
  0
LINE
  8
0
 62
7
 10
4.23875
 20
3.0475
 30
0
 11
4.23425
 21
3.055
 31
0
  0
LINE
  8
0
 62
7
 10
4.439
 20
3.0925
 30
0
 11
4.43225
 21
3.1025
 31
0
  0
LINE
  8
0
 62
7
 10
4.43225
 20
3.1025
 30
0
 11
4.4255
 21
3.1075
 31
0
  0
LINE
  8
0
 62
7
 10
4.4255
 20
3.1075
 30
0
 11
4.41875
 21
3.11
 31
0
  0
LINE
  8
0
 62
7
 10
4.41875
 20
3.11
 30
0
 11
4.409750000000001
 21
3.11
 31
0
  0
LINE
  8
0
 62
7
 10
4.409750000000001
 20
3.11
 30
0
 11
4.403
 21
3.1075
 31
0
  0
LINE
  8
0
 62
7
 10
4.403
 20
3.1075
 30
0
 11
4.39625
 21
3.1025
 31
0
  0
LINE
  8
0
 62
7
 10
4.39625
 20
3.1025
 30
0
 11
4.389500000000001
 21
3.0925
 31
0
  0
LINE
  8
0
 62
7
 10
4.389500000000001
 20
3.0925
 30
0
 11
4.387250000000001
 21
3.085
 31
0
  0
LINE
  8
0
 62
7
 10
4.387250000000001
 20
3.085
 30
0
 11
4.387250000000001
 21
3.065
 31
0
  0
LINE
  8
0
 62
7
 10
4.387250000000001
 20
3.065
 30
0
 11
4.389500000000001
 21
3.0575
 31
0
  0
LINE
  8
0
 62
7
 10
4.389500000000001
 20
3.0575
 30
0
 11
4.39625
 21
3.0475
 31
0
  0
LINE
  8
0
 62
7
 10
4.39625
 20
3.0475
 30
0
 11
4.403
 21
3.0425
 31
0
  0
LINE
  8
0
 62
7
 10
4.403
 20
3.0425
 30
0
 11
4.409750000000001
 21
3.04
 31
0
  0
LINE
  8
0
 62
7
 10
4.409750000000001
 20
3.04
 30
0
 11
4.41875
 21
3.04
 31
0
  0
LINE
  8
0
 62
7
 10
4.41875
 20
3.04
 30
0
 11
4.4255
 21
3.0425
 31
0
  0
LINE
  8
0
 62
7
 10
4.4255
 20
3.0425
 30
0
 11
4.43225
 21
3.0475
 31
0
  0
LINE
  8
0
 62
7
 10
4.43225
 20
3.0475
 30
0
 11
4.439
 21
3.0575
 31
0
  0
LINE
  8
0
 62
7
 10
4.4975
 20
3.085
 30
0
 11
4.4975
 21
3.04
 31
0
  0
LINE
  8
0
 62
7
 10
4.457
 20
3.11
 30
0
 11
4.457
 21
3.085
 31
0
  0
LINE
  8
0
 62
7
 10
4.457
 20
3.04
 30
0
 11
4.457
 21
3.085
 31
0
  0
LINE
  8
0
 62
7
 10
4.457
 20
3.085
 30
0
 11
4.45925
 21
3.0975
 31
0
  0
LINE
  8
0
 62
7
 10
4.45925
 20
3.0975
 30
0
 11
4.4615
 21
3.1025
 31
0
  0
LINE
  8
0
 62
7
 10
4.4615
 20
3.1025
 30
0
 11
4.466
 21
3.1075
 31
0
  0
LINE
  8
0
 62
7
 10
4.466
 20
3.1075
 30
0
 11
4.47275
 21
3.11
 31
0
  0
LINE
  8
0
 62
7
 10
4.47275
 20
3.11
 30
0
 11
4.481750000000001
 21
3.11
 31
0
  0
LINE
  8
0
 62
7
 10
4.481750000000001
 20
3.11
 30
0
 11
4.4885
 21
3.1075
 31
0
  0
LINE
  8
0
 62
7
 10
4.4885
 20
3.1075
 30
0
 11
4.493
 21
3.1025
 31
0
  0
LINE
  8
0
 62
7
 10
4.493
 20
3.1025
 30
0
 11
4.49525
 21
3.0975
 31
0
  0
LINE
  8
0
 62
7
 10
4.49525
 20
3.0975
 30
0
 11
4.4975
 21
3.085
 31
0
  0
LINE
  8
0
 62
7
 10
4.4975
 20
3.085
 30
0
 11
4.499750000000001
 21
3.0975
 31
0
  0
LINE
  8
0
 62
7
 10
4.499750000000001
 20
3.0975
 30
0
 11
4.502000000000001
 21
3.1025
 31
0
  0
LINE
  8
0
 62
7
 10
4.502000000000001
 20
3.1025
 30
0
 11
4.5065
 21
3.1075
 31
0
  0
LINE
  8
0
 62
7
 10
4.5065
 20
3.1075
 30
0
 11
4.51325
 21
3.11
 31
0
  0
LINE
  8
0
 62
7
 10
4.51325
 20
3.11
 30
0
 11
4.522250000000001
 21
3.11
 31
0
  0
LINE
  8
0
 62
7
 10
4.522250000000001
 20
3.11
 30
0
 11
4.529
 21
3.1075
 31
0
  0
LINE
  8
0
 62
7
 10
4.5335
 20
3.1025
 30
0
 11
4.529
 21
3.1075
 31
0
  0
LINE
  8
0
 62
7
 10
4.529
 20
3.1075
 30
0
 11
4.5335
 21
3.1025
 31
0
  0
LINE
  8
0
 62
7
 10
4.5335
 20
3.1025
 30
0
 11
4.53575
 21
3.0975
 31
0
  0
LINE
  8
0
 62
7
 10
4.53575
 20
3.0975
 30
0
 11
4.538
 21
3.085
 31
0
  0
LINE
  8
0
 62
7
 10
4.538
 20
3.085
 30
0
 11
4.538
 21
3.04
 31
0
  0
ARC
  8
0
 62
7
 10
3.89572070168645
 20
3.635720701686461
 30
0
 40
0.469999999999997
 50
359.9121274690592
 51
90.08787253175251
  0
ARC
  8
0
 62
7
 10
2.689279298313539
 20
3.635720701686402
 30
0
 40
0.4699999999999985
 50
89.91212747307266
 51
180.0878725317853
  0
CIRCLE
  8
0
 62
7
 10
4.365720148936407
 20
3.4
 30
0
 40
0.0600000000000005
  0
DIMENSION
  8
0
  6
CONTINUOUS
 62
7
  2
*D1
  3
DMST_1
 10
1.725000000000001
 20
11.6844946736785
 30
0
 11
3.289332241100341
 21
11.6844946736785
 31
0
 12
0
 22
0
 32
0
 70
0
 13
4.859999999999999
 23
11.35
 33
0
 14
1.725
 24
11.35
 34
0
 53
0
  0
DIMENSION
  8
0
  6
CONTINUOUS
 62
7
  2
*D2
  3
DMST_2
 10
5.44493768878101
 20
4.600000000000001
 30
0
 11
5.44493768878101
 21
4.04512371898597
 31
0
 12
0
 22
0
 32
0
 70
0
 13
5.035
 23
3.400000000000001
 33
0
 14
5.035
 24
4.600000000000001
 34
0
 50
90
 53
0
  0
DIMENSION
  8
0
  6
CONTINUOUS
 62
7
  2
*D3
  3
DMST_2
 10
4.859999999999999
 20
5.53746595199566
 30
0
 11
3.31302021305287
 21
5.53746595199566
 31
0
 12
0
 22
0
 32
0
 70
0
 13
1.725
 23
5.119999999999997
 33
0
 14
4.859999999999999
 24
5.119999999999997
 34
0
 53
0
  0
DIMENSION
  8
0
  6
CONTINUOUS
 62
7
  2
*D4
  3
DMST_2
 10
1.11003882146713
 20
3.500000000000001
 30
0
 11
1.11003882146713
 21
4.0332797330097
 31
0
 12
0
 22
0
 32
0
 70
0
 13
1.55
 23
4.600000000000001
 33
0
 14
1.55
 24
3.500000000000001
 34
0
 50
90
 53
0
  0
INSERT
  8
0
  2
*D0
 10
0
 20
0
 30
0
  0
ENDSEC
  0
EOF
