  0
SECTION
  2
HEADER
  9
$ACADVER
  1
AC1009
  9
$INSBASE
 10
0
 20
0
  9
$EXTMIN
 10
0.45
 20
2.890000000000001
  9
$EXTMAX
 10
8.384408740277079
 20
11.5400452897008
  9
$LIMMIN
 10
0.45
 20
2.890000000000001
  9
$LIMMAX
 10
8.384408740277079
 20
11.5400452897008
  9
$VIEWCTR
 10
10
 20
10
  9
$VIEWSIZE
 40
10
  9
$SNAPMODE
 70
0
  9
$SNAPUNIT
 10
1
 20
1
  9
$SNAPBASE
 10
0
 20
0
  9
$SNAPANG
 50
0
  9
$SNAPSTYLE
 70
0
  9
$SNAPISOPAIR
 70
0
  9
$GRIDMODE
 70
0
  9
$GRIDUNIT
 10
0
 20
0
  9
$ORTHOMODE
 70
0
  9
$REGENMODE
 70
1
  9
$FILLMODE
 70
1
  9
$QTEXTMODE
 70
0
  9
$DRAGMODE
 70
2
  9
$LTSCALE
 40
1
  9
$OSMODE
 70
0
  9
$ATTMODE
 70
1
  9
$TEXTSIZE
 40
3.5
  9
$TRACEWID
 40
0.5
  9
$TEXTSTYLE
  7
STANDARD
  9
$CLAYER
  8
0
  9
$CELTYPE
  6
BYLAYER
  9
$CECOLOR
 62
256
  9
$DIMSCALE
 40
1
  9
$DIMASZ
 40
0.18
  9
$DIMEXO
 40
0.0625
  9
$DIMDLI
 40
0.38
  9
$DIMRND
 40
0
  9
$DIMDLE
 40
0
  9
$DIMEXE
 40
0.18
  9
$DIMTP
 40
0
  9
$DIMTM
 40
0
  9
$DIMTXT
 40
0.18
  9
$DIMCEN
 40
0.09
  9
$DIMTSZ
 40
0
  9
$DIMTOL
 70
0
  9
$DIMLIM
 70
0
  9
$DIMTIH
 70
1
  9
$DIMTOH
 70
1
  9
$DIMSE1
 70
0
  9
$DIMSE2
 70
0
  9
$DIMTAD
 70
0
  9
$DIMZIN
 70
0
  9
$DIMBLK
  1

  9
$DIMASO
 70
1
  9
$DIMSHO
 70
1
  9
$DIMPOST
  1

  9
$DIMAPOST
  1

  9
$DIMALT
 70
0
  9
$DIMALTD
 70
2
  9
$DIMALTF
 40
25.4
  9
$DIMLFAC
 40
1
  9
$DIMTOFL
 70
0
  9
$DIMTVP
 40
0
  9
$DIMTIX
 70
0
  9
$DIMSOXD
 70
0
  9
$DIMSAH
 70
0
  9
$DIMBLK1
  1

  9
$DIMBLK2
  1

  9
$DIMSTYLE
  2
*UNNAMED
  9
$DIMCLRD
 70
0
  9
$DIMCLRE
 70
0
  9
$DIMCLRT
 70
0
  9
$DIMTFAC
 40
1
  9
$DIMGAP
 40
0.09
  9
$LUNITS
 70
2
  9
$LUPREC
 70
4
  9
$AXISMODE
 70
0
  9
$AXISUNIT
 10
0
 20
0
  9
$SKETCHINC
 40
0.1
  9
$FILLETRAD
 40
2
  9
$AUNITS
 70
0
  9
$AUPREC
 70
0
  9
$MENU
  1
ACAD
  9
$ELEVATION
 40
0
  9
$THICKNESS
 40
0
  9
$VIEWDIR
 10
0
 20
0
 30
1
  9
$LIMCHECK
 70
0
  9
$BLIPMODE
 70
1
  9
$CHAMFERA
 40
0
  9
$CHAMFERB
 40
0
  9
$FASTZOOM
 70
1
  9
$SKPOLY
 70
0
  9
$ANGBASE
 50
0
  9
$ANGDIR
 70
0
  9
$PDMODE
 70
0
  9
$PDSIZE
 40
0
  9
$PLINEWID
 40
0
  9
$COORDS
 70
2
  0
ENDSEC
  0
SECTION
  2
TABLES
  0
TABLE
  2
DIMSTYLE
 70
2
  0
DIMSTYLE
  2
DMST_1
 70
0
  3

  4

  5

  6

  7

 40
1
 41
0.1
 42
0
 43
0.7
 44
0.2
 45
0
 46
0
 47
0
 48
0
140
0.1
141
0
142
0.1
143
25.4
144
1
145
0
146
1
147
0.25
 71
0
 72
0
 73
0
 74
0
 75
0
 76
0
 77
0
 78
9
170
0
171
2
172
0
173
0
174
0
175
0
176
7
177
7
178
7
  0
DIMSTYLE
  2
DMST_2
 70
0
  3

  4

  5

  6

  7

 40
1
 41
0.1
 42
0
 43
0.7
 44
0.2
 45
0
 46
0
 47
0
 48
0
140
0.1
141
0
142
0.1
143
25.4
144
1
145
0
146
1
147
0.2
 71
0
 72
0
 73
0
 74
0
 75
0
 76
0
 77
0
 78
9
170
0
171
2
172
0
173
0
174
0
175
0
176
7
177
7
178
7
  0
ENDTAB
  0
TABLE
  2
LTYPE
 70
9
  0
LTYPE
  2
CONTINUOUS
 70
64
  3
Solid line
 72
65
 73
0
 40
0
  0
LTYPE
  2
BORDER
 70
64
  3
__ __ . __ __ .
 72
65
 73
6
 40
0.3983573488677999
 49
0.1138163853908
 49
-0.05690819269539999
 49
0.1138163853908
 49
-0.05690819269539999
 49
0
 49
-0.05690819269539999
  0
LTYPE
  2
CENTER
 70
64
  3
____ _ ____ _
 72
65
 73
4
 40
0.4552655415631999
 49
0.284540963477
 49
-0.05690819269539999
 49
0.05690819269539999
 49
-0.05690819269539999
  0
LTYPE
  2
DASHDOT
 70
64
  3
__ . __ . __ .
 72
65
 73
4
 40
0.2276327707816
 49
0.1138163853908
 49
-0.05690819269539999
 49
0
 49
-0.05690819269539999
  0
LTYPE
  2
DASHED
 70
64
  3
__ __ __ __ __
 72
65
 73
2
 40
0.1707245780862
 49
0.1138163853908
 49
-0.05690819269539999
  0
LTYPE
  2
DIVIDE
 70
64
  3
__ . . __ . . 
 72
65
 73
6
 40
0.284540963477
 49
0.1138163853908
 49
-0.05690819269539999
 49
0
 49
-0.05690819269539999
 49
0
 49
-0.05690819269539999
  0
LTYPE
  2
DOT
 70
64
  3
..............
 72
65
 73
4
 40
0.1138163853908
 49
0
 49
-0.05690819269539999
 49
0
 49
-0.05690819269539999
  0
LTYPE
  2
HIDDEN
 70
64
  3
_ _ _ _ _ _ _
 72
65
 73
2
 40
0.08536228904309999
 49
0.05690819269539999
 49
-0.0284540963477
  0
LTYPE
  2
PHANTOM
 70
64
  3
_____ _ _ _____ _ _ 
 72
65
 73
6
 40
0.569081926954
 49
0.284540963477
 49
-0.05690819269539999
 49
0.05690819269539999
 49
-0.05690819269539999
 49
0.05690819269539999
 49
-0.05690819269539999
  0
ENDTAB
  0
TABLE
  2
LAYER
 70
2
  0
LAYER
  2
0
 70
0
 62
7
  6
CONTINUOUS
  0
ENDTAB
  0
TABLE
  2
STYLE
 70
4
  0
STYLE
  2
STANDARD
 70
0
 40
0
 41
1
 50
0
 71
0
 42
3.5
  3
txt
  4

  0
STYLE
  2
SIMPLEX
 70
0
 40
0
 41
1
 50
0
 71
0
 42
3.5
  3
simplex
  4

  0
STYLE
  2
COMPLEX
 70
0
 40
0
 41
1
 50
0
 71
0
 42
3.5
  3
complex
  4

  0
STYLE
  2
ITALIC
 70
0
 40
0
 41
1
 50
0
 71
0
 42
3.5
  3
italic
  4

  0
ENDTAB
  0
TABLE
  2
VIEW
 70
0
  0
ENDTAB
  0
ENDSEC
  0
SECTION
  2
BLOCKS
  0
BLOCK
  8
0
  2
*X0
 70
1
 10
0
 20
0
 30
0
  0
LINE
  8
0
 62
7
  6
DASHED
 10
0.5
 20
8.242819253992694
 30
0
 11
0.5571807460073028
 21
8.299999999999997
 31
0
  0
LINE
  8
0
 62
7
  6
DASHED
 10
0.569312780363266
 20
8.099999999999996
 30
0
 11
0.7399999999999989
 21
8.270687219636727
 31
0
  0
LINE
  8
0
 62
7
 10
0.5
 20
8.136753236814712
 30
0
 11
0.6632467631852856
 21
8.299999999999997
 31
0
  0
LINE
  8
0
 62
7
 10
0.6753787975412489
 20
8.099999999999996
 30
0
 11
0.7399999999999989
 21
8.164621202458747
 31
0
  0
ENDBLK
  8
0
  0
BLOCK
  8
0
  2
*X1
 70
1
 10
0
 20
0
 30
0
  0
LINE
  8
0
 62
7
  6
DASHED
 10
0.4999999999999991
 20
11.00053570062023
 30
0
 11
0.5494642993797729
 21
11.05
 31
0
  0
LINE
  8
0
 62
7
  6
DASHED
 10
0.5615963337357357
 20
10.85
 30
0
 11
0.7399999999999984
 21
11.02840366626426
 31
0
  0
LINE
  8
0
 62
7
 10
0.5000000000000009
 20
10.89446968344225
 30
0
 11
0.6555303165577557
 21
11.05
 31
0
  0
LINE
  8
0
 62
7
 10
0.6676623509137176
 20
10.85
 30
0
 11
0.7399999999999984
 21
10.92233764908628
 31
0
  0
ENDBLK
  8
0
  0
BLOCK
  8
0
  2
*X2
 70
1
 10
0
 20
0
 30
0
  0
LINE
  8
0
 62
7
  6
DASHED
 10
2.340000000000001
 20
10.93134739141655
 30
0
 11
2.45865260858345
 21
11.05
 31
0
  0
LINE
  8
0
 62
7
  6
DASHED
 10
2.470784642939413
 20
10.85
 30
0
 11
2.640000000000002
 21
11.01921535706059
 31
0
  0
LINE
  8
0
 62
7
 10
2.340000000000001
 20
11.03741340859454
 30
0
 11
2.35258659140547
 21
11.05
 31
0
  0
LINE
  8
0
 62
7
 10
2.364718625761432
 20
10.85
 30
0
 11
2.564718625761434
 21
11.05
 31
0
  0
LINE
  8
0
 62
7
 10
2.576850660117397
 20
10.85
 30
0
 11
2.640000000000002
 21
10.91314933988261
 31
0
  0
ENDBLK
  8
0
  0
BLOCK
  8
0
  2
*X3
 70
1
 10
0
 20
0
 30
0
  0
LINE
  8
0
 62
7
  6
DASHED
 10
2.34
 20
8.173630944789016
 30
0
 11
2.466369055210981
 21
8.299999999999997
 31
0
  0
LINE
  8
0
 62
7
  6
DASHED
 10
2.478501089566944
 20
8.099999999999994
 30
0
 11
2.640000000000003
 21
8.261498910433055
 31
0
  0
LINE
  8
0
 62
7
 10
2.340000000000001
 20
8.279696961966998
 30
0
 11
2.360303038032999
 21
8.299999999999997
 31
0
  0
LINE
  8
0
 62
7
 10
2.372435072388963
 20
8.099999999999996
 30
0
 11
2.572435072388964
 21
8.299999999999997
 31
0
  0
LINE
  8
0
 62
7
 10
2.584567106744927
 20
8.099999999999996
 30
0
 11
2.640000000000003
 21
8.155432893255071
 31
0
  0
ENDBLK
  8
0
  0
BLOCK
  8
0
  2
*X4
 70
1
 10
0
 20
0
 30
0
  0
LINE
  8
0
 62
7
 10
0.549464299379772
 20
11.05
 30
0
 11
0.6994642993797715
 21
11.2
 31
0
  0
LINE
  8
0
 62
7
 10
0.5
 20
11.10660171779821
 30
0
 11
0.5933982822017896
 21
11.2
 31
0
  0
LINE
  8
0
 62
7
 10
0.6555303165577557
 20
11.05
 30
0
 11
0.7400000000000002
 21
11.13446968344225
 31
0
  0
ENDBLK
  8
0
  0
BLOCK
  8
0
  2
*X5
 70
1
 10
0
 20
0
 30
0
  0
LINE
  8
0
 62
7
 10
0.5000000000000004
 20
10.78840366626426
 30
0
 11
0.5615963337357339
 21
10.85
 31
0
  0
LINE
  8
0
 62
7
 10
0.5000000000000004
 20
10.5762716319083
 30
0
 11
0.7399999999999993
 21
10.81627163190829
 31
0
  0
LINE
  8
0
 62
7
 10
0.5000000000000004
 20
10.36413959755233
 30
0
 11
0.7399999999999993
 21
10.60413959755233
 31
0
  0
LINE
  8
0
 62
7
 10
0.5000000000000004
 20
10.15200756319637
 30
0
 11
0.7399999999999993
 21
10.39200756319637
 31
0
  0
LINE
  8
0
 62
7
 10
0.5000000000000004
 20
9.939875528840407
 30
0
 11
0.7399999999999993
 21
10.1798755288404
 31
0
  0
LINE
  8
0
 62
7
 10
0.5000000000000004
 20
9.727743494484443
 30
0
 11
0.7399999999999993
 21
9.96774349448444
 31
0
  0
LINE
  8
0
 62
7
 10
0.5000000000000004
 20
9.515611460128479
 30
0
 11
0.7399999999999993
 21
9.755611460128476
 31
0
  0
LINE
  8
0
 62
7
 10
0.5000000000000004
 20
9.303479425772515
 30
0
 11
0.7399999999999993
 21
9.543479425772512
 31
0
  0
LINE
  8
0
 62
7
 10
0.5000000000000004
 20
9.091347391416551
 30
0
 11
0.7399999999999993
 21
9.331347391416548
 31
0
  0
LINE
  8
0
 62
7
 10
0.5000000000000004
 20
8.879215357060588
 30
0
 11
0.7399999999999993
 21
9.119215357060584
 31
0
  0
LINE
  8
0
 62
7
 10
0.5000000000000004
 20
8.667083322704624
 30
0
 11
0.7399999999999993
 21
8.90708332270462
 31
0
  0
LINE
  8
0
 62
7
 10
0.5000000000000004
 20
8.45495128834866
 30
0
 11
0.7399999999999993
 21
8.694951288348657
 31
0
  0
LINE
  8
0
 62
7
 10
0.5571807460073028
 20
8.299999999999997
 30
0
 11
0.7399999999999993
 21
8.482819253992693
 31
0
  0
LINE
  8
0
 62
7
 10
0.5
 20
10.68233764908628
 30
0
 11
0.6676623509137176
 21
10.85
 31
0
  0
LINE
  8
0
 62
7
 10
0.5
 20
10.47020561473031
 30
0
 11
0.7399999999999989
 21
10.71020561473031
 31
0
  0
LINE
  8
0
 62
7
 10
0.5
 20
10.25807358037435
 30
0
 11
0.7399999999999989
 21
10.49807358037435
 31
0
  0
LINE
  8
0
 62
7
 10
0.5
 20
10.04594154601839
 30
0
 11
0.7399999999999989
 21
10.28594154601839
 31
0
  0
LINE
  8
0
 62
7
 10
0.5
 20
9.833809511662423
 30
0
 11
0.7399999999999989
 21
10.07380951166242
 31
0
  0
LINE
  8
0
 62
7
 10
0.5
 20
9.621677477306459
 30
0
 11
0.7399999999999989
 21
9.861677477306458
 31
0
  0
LINE
  8
0
 62
7
 10
0.5
 20
9.409545442950495
 30
0
 11
0.7399999999999989
 21
9.649545442950494
 31
0
  0
LINE
  8
0
 62
7
 10
0.5
 20
9.197413408594532
 30
0
 11
0.7399999999999989
 21
9.43741340859453
 31
0
  0
LINE
  8
0
 62
7
 10
0.5
 20
8.985281374238568
 30
0
 11
0.7399999999999989
 21
9.225281374238566
 31
0
  0
LINE
  8
0
 62
7
 10
0.5
 20
8.773149339882604
 30
0
 11
0.7399999999999989
 21
9.013149339882602
 31
0
  0
LINE
  8
0
 62
7
 10
0.5
 20
8.56101730552664
 30
0
 11
0.7399999999999989
 21
8.801017305526639
 31
0
  0
LINE
  8
0
 62
7
 10
0.5
 20
8.348885271170676
 30
0
 11
0.7399999999999989
 21
8.588885271170675
 31
0
  0
LINE
  8
0
 62
7
 10
0.6632467631852861
 20
8.299999999999997
 30
0
 11
0.7399999999999989
 21
8.376753236814711
 31
0
  0
ENDBLK
  8
0
  0
BLOCK
  8
0
  2
*X6
 70
1
 10
0
 20
0
 30
0
  0
LINE
  8
0
 62
7
 10
0.5
 20
8.03068721963673
 30
0
 11
0.5693127803632656
 21
8.099999999999996
 31
0
  0
LINE
  8
0
 62
7
 10
0.6314448147192304
 20
7.949999999999996
 30
0
 11
0.7399999999999998
 21
8.058555185280765
 31
0
  0
LINE
  8
0
 62
7
 10
0.5253787975412485
 20
7.949999999999996
 30
0
 11
0.6753787975412489
 21
8.099999999999996
 31
0
  0
LINE
  8
0
 62
7
 10
0.7375108318972128
 20
7.949999999999996
 30
0
 11
0.7399999999999993
 21
7.952489168102781
 31
0
  0
ENDBLK
  8
0
  0
BLOCK
  8
0
  2
*X7
 70
1
 10
0
 20
0
 30
0
  0
LINE
  8
0
 62
7
  6
DASHED
 10
5.214999999999999
 20
11.04863094478901
 30
0
 11
5.216369055210992
 21
11.05
 31
0
  0
LINE
  8
0
 62
7
  6
DASHED
 10
5.228501089566954
 20
10.85
 30
0
 11
5.428501089566956
 21
11.05
 31
0
  0
LINE
  8
0
 62
7
  6
DASHED
 10
5.440633123922918
 20
10.85
 30
0
 11
5.64063312392292
 21
11.05
 31
0
  0
LINE
  8
0
 62
7
  6
DASHED
 10
5.652765158278882
 20
10.85
 30
0
 11
5.852765158278884
 21
11.05
 31
0
  0
LINE
  8
0
 62
7
  6
DASHED
 10
5.864897192634846
 20
10.85
 30
0
 11
6.064897192634848
 21
11.05
 31
0
  0
LINE
  8
0
 62
7
  6
DASHED
 10
6.07702922699081
 20
10.85
 30
0
 11
6.277029226990812
 21
11.05
 31
0
  0
LINE
  8
0
 62
7
  6
DASHED
 10
6.289161261346774
 20
10.85
 30
0
 11
6.489161261346776
 21
11.05
 31
0
  0
LINE
  8
0
 62
7
  6
DASHED
 10
6.501293295702737
 20
10.85
 30
0
 11
6.701293295702739
 21
11.05
 31
0
  0
LINE
  8
0
 62
7
  6
DASHED
 10
6.713425330058701
 20
10.85
 30
0
 11
6.913425330058703
 21
11.05
 31
0
  0
LINE
  8
0
 62
7
  6
DASHED
 10
6.925557364414665
 20
10.85
 30
0
 11
7.125557364414667
 21
11.05
 31
0
  0
LINE
  8
0
 62
7
  6
DASHED
 10
7.137689398770629
 20
10.85
 30
0
 11
7.337689398770631
 21
11.05
 31
0
  0
LINE
  8
0
 62
7
  6
DASHED
 10
7.349821433126593
 20
10.85
 30
0
 11
7.549821433126595
 21
11.05
 31
0
  0
LINE
  8
0
 62
7
  6
DASHED
 10
7.561953467482557
 20
10.85
 30
0
 11
7.75
 21
11.03804653251744
 31
0
  0
LINE
  8
0
 62
7
 10
5.215
 20
10.94256492761103
 30
0
 11
5.322435072388972
 21
11.05
 31
0
  0
LINE
  8
0
 62
7
 10
5.334567106744935
 20
10.85
 30
0
 11
5.534567106744936
 21
11.05
 31
0
  0
LINE
  8
0
 62
7
 10
5.546699141100899
 20
10.85
 30
0
 11
5.746699141100899
 21
11.05
 31
0
  0
LINE
  8
0
 62
7
 10
5.758831175456863
 20
10.85
 30
0
 11
5.958831175456863
 21
11.05
 31
0
  0
LINE
  8
0
 62
7
 10
5.970963209812827
 20
10.85
 30
0
 11
6.170963209812827
 21
11.05
 31
0
  0
LINE
  8
0
 62
7
 10
6.183095244168791
 20
10.85
 30
0
 11
6.383095244168791
 21
11.05
 31
0
  0
LINE
  8
0
 62
7
 10
6.395227278524755
 20
10.85
 30
0
 11
6.595227278524755
 21
11.05
 31
0
  0
LINE
  8
0
 62
7
 10
6.607359312880718
 20
10.85
 30
0
 11
6.807359312880719
 21
11.05
 31
0
  0
LINE
  8
0
 62
7
 10
6.819491347236682
 20
10.85
 30
0
 11
7.019491347236682
 21
11.05
 31
0
  0
LINE
  8
0
 62
7
 10
7.031623381592646
 20
10.85
 30
0
 11
7.231623381592646
 21
11.05
 31
0
  0
LINE
  8
0
 62
7
 10
7.24375541594861
 20
10.85
 30
0
 11
7.44375541594861
 21
11.05
 31
0
  0
LINE
  8
0
 62
7
 10
7.455887450304574
 20
10.85
 30
0
 11
7.655887450304574
 21
11.05
 31
0
  0
LINE
  8
0
 62
7
 10
7.668019484660538
 20
10.85
 30
0
 11
7.749999999999999
 21
10.93198051533946
 31
0
  0
ENDBLK
  8
0
  0
BLOCK
  8
0
  2
*X8
 70
1
 10
0
 20
0
 30
0
  0
LINE
  8
0
 62
7
  6
DASHED
 10
5.215
 20
8.290914498161481
 30
0
 11
5.224085501838521
 21
8.299999999999997
 31
0
  0
LINE
  8
0
 62
7
  6
DASHED
 10
5.236217536194484
 20
8.099999999999996
 30
0
 11
5.436217536194485
 21
8.299999999999997
 31
0
  0
LINE
  8
0
 62
7
  6
DASHED
 10
5.448349570550448
 20
8.099999999999996
 30
0
 11
5.648349570550449
 21
8.299999999999997
 31
0
  0
LINE
  8
0
 62
7
  6
DASHED
 10
5.660481604906412
 20
8.099999999999996
 30
0
 11
5.860481604906413
 21
8.299999999999997
 31
0
  0
LINE
  8
0
 62
7
  6
DASHED
 10
5.872613639262376
 20
8.099999999999996
 30
0
 11
6.072613639262377
 21
8.299999999999997
 31
0
  0
LINE
  8
0
 62
7
  6
DASHED
 10
6.08474567361834
 20
8.099999999999996
 30
0
 11
6.284745673618341
 21
8.299999999999997
 31
0
  0
LINE
  8
0
 62
7
  6
DASHED
 10
6.296877707974303
 20
8.099999999999996
 30
0
 11
6.496877707974305
 21
8.299999999999997
 31
0
  0
LINE
  8
0
 62
7
  6
DASHED
 10
6.509009742330267
 20
8.099999999999996
 30
0
 11
6.709009742330268
 21
8.299999999999997
 31
0
  0
LINE
  8
0
 62
7
  6
DASHED
 10
6.721141776686231
 20
8.099999999999996
 30
0
 11
6.921141776686232
 21
8.299999999999997
 31
0
  0
LINE
  8
0
 62
7
  6
DASHED
 10
6.933273811042195
 20
8.099999999999996
 30
0
 11
7.133273811042196
 21
8.299999999999997
 31
0
  0
LINE
  8
0
 62
7
  6
DASHED
 10
7.145405845398159
 20
8.099999999999996
 30
0
 11
7.34540584539816
 21
8.299999999999997
 31
0
  0
LINE
  8
0
 62
7
  6
DASHED
 10
7.357537879754123
 20
8.099999999999996
 30
0
 11
7.557537879754124
 21
8.299999999999997
 31
0
  0
LINE
  8
0
 62
7
  6
DASHED
 10
7.569669914110086
 20
8.099999999999996
 30
0
 11
7.749999999999998
 21
8.28033008588991
 31
0
  0
LINE
  8
0
 62
7
 10
5.214999999999999
 20
8.184848480983497
 30
0
 11
5.330151519016503
 21
8.299999999999997
 31
0
  0
LINE
  8
0
 62
7
 10
5.342283553372468
 20
8.099999999999996
 30
0
 11
5.542283553372467
 21
8.299999999999997
 31
0
  0
LINE
  8
0
 62
7
 10
5.554415587728432
 20
8.099999999999996
 30
0
 11
5.754415587728431
 21
8.299999999999997
 31
0
  0
LINE
  8
0
 62
7
 10
5.766547622084396
 20
8.099999999999996
 30
0
 11
5.966547622084395
 21
8.299999999999997
 31
0
  0
LINE
  8
0
 62
7
 10
5.978679656440359
 20
8.099999999999996
 30
0
 11
6.178679656440359
 21
8.299999999999997
 31
0
  0
LINE
  8
0
 62
7
 10
6.190811690796323
 20
8.099999999999996
 30
0
 11
6.390811690796323
 21
8.299999999999997
 31
0
  0
LINE
  8
0
 62
7
 10
6.402943725152287
 20
8.099999999999996
 30
0
 11
6.602943725152286
 21
8.299999999999997
 31
0
  0
LINE
  8
0
 62
7
 10
6.615075759508251
 20
8.099999999999996
 30
0
 11
6.81507575950825
 21
8.299999999999997
 31
0
  0
LINE
  8
0
 62
7
 10
6.827207793864215
 20
8.099999999999996
 30
0
 11
7.027207793864214
 21
8.299999999999997
 31
0
  0
LINE
  8
0
 62
7
 10
7.039339828220179
 20
8.099999999999996
 30
0
 11
7.239339828220178
 21
8.299999999999997
 31
0
  0
LINE
  8
0
 62
7
 10
7.251471862576143
 20
8.099999999999996
 30
0
 11
7.451471862576142
 21
8.299999999999997
 31
0
  0
LINE
  8
0
 62
7
 10
7.463603896932106
 20
8.099999999999996
 30
0
 11
7.663603896932106
 21
8.299999999999997
 31
0
  0
LINE
  8
0
 62
7
 10
7.67573593128807
 20
8.099999999999996
 30
0
 11
7.75
 21
8.174264068711928
 31
0
  0
ENDBLK
  8
0
  0
BLOCK
  8
0
  2
*X9
 70
1
 10
0
 20
0
 30
0
  0
LINE
  8
0
 62
7
 10
5.365000000000001
 20
11.19863094478902
 30
0
 11
5.366369055210984
 21
11.2
 31
0
  0
LINE
  8
0
 62
7
 10
5.42850108956695
 20
11.05
 30
0
 11
5.540000000000003
 21
11.16149891043305
 31
0
  0
LINE
  8
0
 62
7
 10
5.365
 20
11.09256492761103
 30
0
 11
5.472435072388967
 21
11.2
 31
0
  0
LINE
  8
0
 62
7
 10
5.534567106744932
 20
11.05
 30
0
 11
5.539999999999999
 21
11.05543289325507
 31
0
  0
ENDBLK
  8
0
  0
BLOCK
  8
0
  2
*X10
 70
1
 10
0
 20
0
 30
0
  0
LINE
  8
0
 62
7
 10
5.365
 20
10.77436687607708
 30
0
 11
5.440633123922912
 21
10.85
 31
0
  0
LINE
  8
0
 62
7
 10
5.365
 20
10.56223484172112
 30
0
 11
5.54
 21
10.73723484172112
 31
0
  0
LINE
  8
0
 62
7
 10
5.365
 20
10.35010280736515
 30
0
 11
5.54
 21
10.52510280736515
 31
0
  0
LINE
  8
0
 62
7
 10
5.365
 20
10.13797077300919
 30
0
 11
5.54
 21
10.31297077300919
 31
0
  0
LINE
  8
0
 62
7
 10
5.365
 20
9.925838738653226
 30
0
 11
5.54
 21
10.10083873865323
 31
0
  0
LINE
  8
0
 62
7
 10
5.365
 20
9.713706704297262
 30
0
 11
5.54
 21
9.888706704297263
 31
0
  0
LINE
  8
0
 62
7
 10
5.365
 20
9.501574669941299
 30
0
 11
5.54
 21
9.676574669941299
 31
0
  0
LINE
  8
0
 62
7
 10
5.365
 20
9.289442635585335
 30
0
 11
5.54
 21
9.464442635585335
 31
0
  0
LINE
  8
0
 62
7
 10
5.365
 20
9.077310601229371
 30
0
 11
5.54
 21
9.252310601229372
 31
0
  0
LINE
  8
0
 62
7
 10
5.365
 20
8.865178566873407
 30
0
 11
5.54
 21
9.040178566873408
 31
0
  0
LINE
  8
0
 62
7
 10
5.365
 20
8.653046532517443
 30
0
 11
5.54
 21
8.828046532517444
 31
0
  0
LINE
  8
0
 62
7
 10
5.365
 20
8.440914498161479
 30
0
 11
5.54
 21
8.61591449816148
 31
0
  0
LINE
  8
0
 62
7
 10
5.436217536194482
 20
8.299999999999999
 30
0
 11
5.54
 21
8.403782463805516
 31
0
  0
LINE
  8
0
 62
7
 10
5.365000000000001
 20
10.6683008588991
 30
0
 11
5.540000000000001
 21
10.8433008588991
 31
0
  0
LINE
  8
0
 62
7
 10
5.365000000000001
 20
10.45616882454314
 30
0
 11
5.540000000000001
 21
10.63116882454314
 31
0
  0
LINE
  8
0
 62
7
 10
5.365000000000001
 20
10.24403679018717
 30
0
 11
5.540000000000001
 21
10.41903679018717
 31
0
  0
LINE
  8
0
 62
7
 10
5.365000000000001
 20
10.03190475583121
 30
0
 11
5.540000000000001
 21
10.20690475583121
 31
0
  0
LINE
  8
0
 62
7
 10
5.365000000000001
 20
9.819772721475246
 30
0
 11
5.540000000000001
 21
9.994772721475247
 31
0
  0
LINE
  8
0
 62
7
 10
5.365000000000001
 20
9.607640687119282
 30
0
 11
5.540000000000001
 21
9.782640687119283
 31
0
  0
LINE
  8
0
 62
7
 10
5.365000000000001
 20
9.395508652763318
 30
0
 11
5.540000000000001
 21
9.570508652763319
 31
0
  0
LINE
  8
0
 62
7
 10
5.365000000000001
 20
9.183376618407355
 30
0
 11
5.540000000000001
 21
9.358376618407355
 31
0
  0
LINE
  8
0
 62
7
 10
5.365000000000001
 20
8.971244584051391
 30
0
 11
5.540000000000001
 21
9.146244584051392
 31
0
  0
LINE
  8
0
 62
7
 10
5.365000000000001
 20
8.759112549695427
 30
0
 11
5.540000000000001
 21
8.934112549695428
 31
0
  0
LINE
  8
0
 62
7
 10
5.365000000000001
 20
8.546980515339463
 30
0
 11
5.540000000000001
 21
8.721980515339464
 31
0
  0
LINE
  8
0
 62
7
 10
5.365000000000001
 20
8.334848480983499
 30
0
 11
5.540000000000001
 21
8.5098484809835
 31
0
  0
ENDBLK
  8
0
  0
BLOCK
  8
0
  2
*X11
 70
1
 10
0
 20
0
 30
0
  0
LINE
  8
0
 62
7
 10
5.365
 20
8.016650429449552
 30
0
 11
5.448349570550444
 21
8.099999999999996
 31
0
  0
LINE
  8
0
 62
7
 10
5.510481604906407
 20
7.949999999999996
 30
0
 11
5.540000000000001
 21
7.979518395093589
 31
0
  0
LINE
  8
0
 62
7
 10
5.404415587728425
 20
7.949999999999996
 30
0
 11
5.540000000000003
 21
8.085584412271572
 31
0
  0
ENDBLK
  8
0
  0
BLOCK
  8
0
  2
*X12
 70
1
 10
0
 20
0
 30
0
  0
LINE
  8
0
 62
7
 10
7.425000000000002
 20
11.13731060122938
 30
0
 11
7.487689398770626
 21
11.2
 31
0
  0
LINE
  8
0
 62
7
 10
7.549821433126593
 20
11.05
 30
0
 11
7.600000000000002
 21
11.10017856687341
 31
0
  0
LINE
  8
0
 62
7
 10
7.44375541594861
 20
11.05
 30
0
 11
7.593755415948609
 21
11.2
 31
0
  0
ENDBLK
  8
0
  0
BLOCK
  8
0
  2
*X13
 70
1
 10
0
 20
0
 30
0
  0
LINE
  8
0
 62
7
 10
7.425
 20
10.71304653251744
 30
0
 11
7.561953467482555
 21
10.85
 31
0
  0
LINE
  8
0
 62
7
 10
7.425
 20
10.50091449816148
 30
0
 11
7.600000000000002
 21
10.67591449816148
 31
0
  0
LINE
  8
0
 62
7
 10
7.425
 20
10.28878246380551
 30
0
 11
7.600000000000002
 21
10.46378246380551
 31
0
  0
LINE
  8
0
 62
7
 10
7.425
 20
10.07665042944955
 30
0
 11
7.600000000000002
 21
10.25165042944955
 31
0
  0
LINE
  8
0
 62
7
 10
7.425
 20
9.864518395093585
 30
0
 11
7.600000000000002
 21
10.03951839509359
 31
0
  0
LINE
  8
0
 62
7
 10
7.425
 20
9.652386360737621
 30
0
 11
7.600000000000002
 21
9.827386360737622
 31
0
  0
LINE
  8
0
 62
7
 10
7.425
 20
9.440254326381657
 30
0
 11
7.600000000000002
 21
9.615254326381658
 31
0
  0
LINE
  8
0
 62
7
 10
7.425
 20
9.228122292025693
 30
0
 11
7.600000000000002
 21
9.403122292025694
 31
0
  0
LINE
  8
0
 62
7
 10
7.425
 20
9.01599025766973
 30
0
 11
7.600000000000002
 21
9.19099025766973
 31
0
  0
LINE
  8
0
 62
7
 10
7.425
 20
8.803858223313766
 30
0
 11
7.600000000000002
 21
8.978858223313766
 31
0
  0
LINE
  8
0
 62
7
 10
7.425
 20
8.591726188957802
 30
0
 11
7.600000000000002
 21
8.766726188957803
 31
0
  0
LINE
  8
0
 62
7
 10
7.425
 20
8.379594154601838
 30
0
 11
7.600000000000002
 21
8.554594154601839
 31
0
  0
LINE
  8
0
 62
7
 10
7.557537879754124
 20
8.299999999999997
 30
0
 11
7.600000000000002
 21
8.342462120245875
 31
0
  0
LINE
  8
0
 62
7
 10
7.425000000000001
 20
10.81911254969542
 30
0
 11
7.455887450304573
 21
10.85
 31
0
  0
LINE
  8
0
 62
7
 10
7.425000000000001
 20
10.60698051533946
 30
0
 11
7.600000000000002
 21
10.78198051533946
 31
0
  0
LINE
  8
0
 62
7
 10
7.425000000000001
 20
10.3948484809835
 30
0
 11
7.600000000000002
 21
10.5698484809835
 31
0
  0
LINE
  8
0
 62
7
 10
7.425000000000001
 20
10.18271644662753
 30
0
 11
7.600000000000002
 21
10.35771644662753
 31
0
  0
LINE
  8
0
 62
7
 10
7.425000000000001
 20
9.970584412271569
 30
0
 11
7.600000000000002
 21
10.14558441227157
 31
0
  0
LINE
  8
0
 62
7
 10
7.425000000000001
 20
9.758452377915605
 30
0
 11
7.600000000000002
 21
9.933452377915604
 31
0
  0
LINE
  8
0
 62
7
 10
7.425000000000001
 20
9.546320343559641
 30
0
 11
7.600000000000002
 21
9.72132034355964
 31
0
  0
LINE
  8
0
 62
7
 10
7.425000000000001
 20
9.334188309203677
 30
0
 11
7.600000000000002
 21
9.509188309203676
 31
0
  0
LINE
  8
0
 62
7
 10
7.425000000000001
 20
9.122056274847713
 30
0
 11
7.600000000000002
 21
9.297056274847712
 31
0
  0
LINE
  8
0
 62
7
 10
7.425000000000001
 20
8.909924240491749
 30
0
 11
7.600000000000002
 21
9.084924240491748
 31
0
  0
LINE
  8
0
 62
7
 10
7.425000000000001
 20
8.697792206135786
 30
0
 11
7.600000000000002
 21
8.872792206135784
 31
0
  0
LINE
  8
0
 62
7
 10
7.425000000000001
 20
8.485660171779822
 30
0
 11
7.600000000000002
 21
8.660660171779821
 31
0
  0
LINE
  8
0
 62
7
 10
7.451471862576141
 20
8.299999999999997
 30
0
 11
7.600000000000002
 21
8.448528137423857
 31
0
  0
ENDBLK
  8
0
  0
BLOCK
  8
0
  2
*X14
 70
1
 10
0
 20
0
 30
0
  0
LINE
  8
0
 62
7
 10
7.424999999999999
 20
7.955330085889909
 30
0
 11
7.569669914110086
 21
8.099999999999996
 31
0
  0
LINE
  8
0
 62
7
 10
7.425
 20
8.061396103067892
 30
0
 11
7.463603896932104
 21
8.099999999999994
 31
0
  0
LINE
  8
0
 62
7
 10
7.52573593128807
 20
7.949999999999997
 30
0
 11
7.600000000000001
 21
8.024264068711927
 31
0
  0
ENDBLK
  8
0
  0
BLOCK
  8
0
  2
*X15
 70
1
 10
0
 20
0
 30
0
  0
LINE
  8
0
 62
7
 10
5.365000000000002
 20
5.471066017177984
 30
0
 11
5.513933982822016
 21
5.619999999999997
 31
0
  0
LINE
  8
0
 62
7
 10
5.215
 20
5.321066017177982
 30
0
 11
5.363933982822013
 21
5.469999999999995
 31
0
  0
LINE
  8
0
 62
7
 10
5.336066017177987
 20
5.23
 30
0
 11
5.576066017177983
 21
5.469999999999996
 31
0
  0
LINE
  8
0
 62
7
 10
5.548198051533951
 20
5.23
 30
0
 11
5.788198051533946
 21
5.469999999999996
 31
0
  0
LINE
  8
0
 62
7
 10
5.760330085889914
 20
5.23
 30
0
 11
6.00033008588991
 21
5.469999999999996
 31
0
  0
LINE
  8
0
 62
7
 10
5.972462120245878
 20
5.23
 30
0
 11
6.212462120245874
 21
5.469999999999996
 31
0
  0
LINE
  8
0
 62
7
 10
6.184594154601842
 20
5.23
 30
0
 11
6.424594154601838
 21
5.469999999999996
 31
0
  0
LINE
  8
0
 62
7
 10
6.396726188957806
 20
5.23
 30
0
 11
6.636726188957802
 21
5.469999999999996
 31
0
  0
LINE
  8
0
 62
7
 10
6.60885822331377
 20
5.23
 30
0
 11
6.848858223313766
 21
5.469999999999996
 31
0
  0
LINE
  8
0
 62
7
 10
6.820990257669734
 20
5.23
 30
0
 11
7.060990257669729
 21
5.469999999999996
 31
0
  0
LINE
  8
0
 62
7
 10
7.033122292025697
 20
5.23
 30
0
 11
7.273122292025693
 21
5.469999999999996
 31
0
  0
LINE
  8
0
 62
7
 10
7.245254326381661
 20
5.23
 30
0
 11
7.600000000000002
 21
5.584745673618341
 31
0
  0
LINE
  8
0
 62
7
 10
7.457386360737625
 20
5.23
 30
0
 11
7.69738636073762
 21
5.469999999999995
 31
0
  0
LINE
  8
0
 62
7
 10
7.669518395093589
 20
5.23
 30
0
 11
7.765
 21
5.325481604906411
 31
0
  0
LINE
  8
0
 62
7
 10
5.365000000000002
 20
5.577132034355966
 30
0
 11
5.407867965644034
 21
5.619999999999997
 31
0
  0
LINE
  8
0
 62
7
 10
5.215
 20
5.427132034355964
 30
0
 11
5.257867965644031
 21
5.469999999999995
 31
0
  0
LINE
  8
0
 62
7
 10
5.230000000000005
 20
5.23
 30
0
 11
5.540000000000001
 21
5.54
 31
0
  0
LINE
  8
0
 62
7
 10
5.442132034355969
 20
5.23
 30
0
 11
5.682132034355964
 21
5.469999999999995
 31
0
  0
LINE
  8
0
 62
7
 10
5.654264068711933
 20
5.23
 30
0
 11
5.894264068711927
 21
5.469999999999995
 31
0
  0
LINE
  8
0
 62
7
 10
5.866396103067896
 20
5.23
 30
0
 11
6.106396103067891
 21
5.469999999999995
 31
0
  0
LINE
  8
0
 62
7
 10
6.07852813742386
 20
5.23
 30
0
 11
6.318528137423855
 21
5.469999999999995
 31
0
  0
LINE
  8
0
 62
7
 10
6.290660171779824
 20
5.23
 30
0
 11
6.530660171779819
 21
5.469999999999995
 31
0
  0
LINE
  8
0
 62
7
 10
6.502792206135788
 20
5.23
 30
0
 11
6.742792206135783
 21
5.469999999999995
 31
0
  0
LINE
  8
0
 62
7
 10
6.714924240491752
 20
5.23
 30
0
 11
6.954924240491747
 21
5.469999999999995
 31
0
  0
LINE
  8
0
 62
7
 10
6.927056274847716
 20
5.23
 30
0
 11
7.16705627484771
 21
5.469999999999995
 31
0
  0
LINE
  8
0
 62
7
 10
7.425000000000001
 20
5.515811690796322
 30
0
 11
7.529188309203676
 21
5.619999999999997
 31
0
  0
LINE
  8
0
 62
7
 10
7.139188309203679
 20
5.23
 30
0
 11
7.379188309203674
 21
5.469999999999995
 31
0
  0
LINE
  8
0
 62
7
 10
7.351320343559643
 20
5.23
 30
0
 11
7.600000000000001
 21
5.478679656440359
 31
0
  0
LINE
  8
0
 62
7
 10
7.563452377915607
 20
5.23
 30
0
 11
7.765000000000001
 21
5.431547622084393
 31
0
  0
ENDBLK
  8
0
  0
BLOCK
  8
0
  2
*X16
 70
1
 10
0
 20
0
 30
0
  0
LINE
  8
0
 62
7
 10
5.215
 20
5.108933982822017
 30
0
 11
5.296066017177988
 21
5.190000000000001
 31
0
  0
LINE
  8
0
 62
7
 10
5.268198051533947
 20
4.95
 30
0
 11
5.508198051533951
 21
5.190000000000001
 31
0
  0
LINE
  8
0
 62
7
 10
5.365
 20
4.834669914110088
 30
0
 11
5.720330085889915
 21
5.190000000000001
 31
0
  0
LINE
  8
0
 62
7
 10
5.692462120245878
 20
4.949999999999999
 30
0
 11
5.932462120245879
 21
5.190000000000001
 31
0
  0
LINE
  8
0
 62
7
 10
5.365
 20
4.622537879754124
 30
0
 11
5.540000000000002
 21
4.797537879754124
 31
0
  0
LINE
  8
0
 62
7
 10
5.904594154601842
 20
4.949999999999999
 30
0
 11
6.144594154601843
 21
5.190000000000001
 31
0
  0
LINE
  8
0
 62
7
 10
5.365
 20
4.41040584539816
 30
0
 11
5.540000000000002
 21
4.58540584539816
 31
0
  0
LINE
  8
0
 62
7
 10
6.116726188957806
 20
4.949999999999999
 30
0
 11
6.356726188957807
 21
5.190000000000001
 31
0
  0
LINE
  8
0
 62
7
 10
5.365
 20
4.198273811042196
 30
0
 11
5.540000000000002
 21
4.373273811042196
 31
0
  0
LINE
  8
0
 62
7
 10
6.32885822331377
 20
4.949999999999999
 30
0
 11
6.568858223313771
 21
5.190000000000001
 31
0
  0
LINE
  8
0
 62
7
 10
5.365
 20
3.986141776686232
 30
0
 11
5.540000000000002
 21
4.161141776686232
 31
0
  0
LINE
  8
0
 62
7
 10
6.540990257669733
 20
4.949999999999999
 30
0
 11
6.780990257669735
 21
5.190000000000001
 31
0
  0
LINE
  8
0
 62
7
 10
5.365
 20
3.774009742330268
 30
0
 11
5.540000000000002
 21
3.949009742330269
 31
0
  0
LINE
  8
0
 62
7
 10
6.753122292025697
 20
4.949999999999999
 30
0
 11
6.993122292025698
 21
5.190000000000001
 31
0
  0
LINE
  8
0
 62
7
 10
5.365
 20
3.561877707974304
 30
0
 11
5.540000000000002
 21
3.736877707974305
 31
0
  0
LINE
  8
0
 62
7
 10
6.965254326381661
 20
4.949999999999999
 30
0
 11
7.205254326381662
 21
5.190000000000001
 31
0
  0
LINE
  8
0
 62
7
 10
5.365
 20
3.349745673618339
 30
0
 11
5.540000000000002
 21
3.524745673618341
 31
0
  0
LINE
  8
0
 62
7
 10
7.177386360737625
 20
4.949999999999999
 30
0
 11
7.417386360737626
 21
5.190000000000001
 31
0
  0
LINE
  8
0
 62
7
 10
5.477386360737626
 20
3.25
 30
0
 11
5.54
 21
3.312613639262376
 31
0
  0
LINE
  8
0
 62
7
 10
7.389518395093589
 20
4.949999999999999
 30
0
 11
7.62951839509359
 21
5.190000000000001
 31
0
  0
LINE
  8
0
 62
7
 10
7.601650429449554
 20
4.949999999999999
 30
0
 11
7.764999999999999
 21
5.113349570550445
 31
0
  0
LINE
  8
0
 62
7
 10
7.425000000000001
 20
4.773349570550446
 30
0
 11
7.600000000000001
 21
4.948349570550445
 31
0
  0
LINE
  8
0
 62
7
 10
7.425000000000001
 20
4.561217536194482
 30
0
 11
7.600000000000001
 21
4.736217536194482
 31
0
  0
LINE
  8
0
 62
7
 10
7.425000000000001
 20
4.349085501838518
 30
0
 11
7.600000000000001
 21
4.524085501838518
 31
0
  0
LINE
  8
0
 62
7
 10
7.425000000000001
 20
4.136953467482554
 30
0
 11
7.600000000000001
 21
4.311953467482554
 31
0
  0
LINE
  8
0
 62
7
 10
7.425000000000001
 20
3.92482143312659
 30
0
 11
7.600000000000001
 21
4.09982143312659
 31
0
  0
LINE
  8
0
 62
7
 10
7.425000000000001
 20
3.712689398770626
 30
0
 11
7.600000000000001
 21
3.887689398770626
 31
0
  0
LINE
  8
0
 62
7
 10
7.425000000000001
 20
3.500557364414662
 30
0
 11
7.600000000000001
 21
3.675557364414662
 31
0
  0
LINE
  8
0
 62
7
 10
7.486574669941303
 20
3.35
 30
0
 11
7.600000000000001
 21
3.463425330058697
 31
0
  0
LINE
  8
0
 62
7
 10
5.215
 20
5.002867965644034
 30
0
 11
5.40213203435597
 21
5.19
 31
0
  0
LINE
  8
0
 62
7
 10
5.365
 20
4.940735931288069
 30
0
 11
5.614264068711934
 21
5.19
 31
0
  0
LINE
  8
0
 62
7
 10
5.586396103067898
 20
4.950000000000001
 30
0
 11
5.826396103067898
 21
5.19
 31
0
  0
LINE
  8
0
 62
7
 10
5.365
 20
4.728603896932105
 30
0
 11
5.540000000000001
 21
4.903603896932105
 31
0
  0
LINE
  8
0
 62
7
 10
5.798528137423862
 20
4.950000000000001
 30
0
 11
6.038528137423862
 21
5.19
 31
0
  0
LINE
  8
0
 62
7
 10
5.365
 20
4.516471862576141
 30
0
 11
5.540000000000001
 21
4.691471862576141
 31
0
  0
LINE
  8
0
 62
7
 10
6.010660171779826
 20
4.950000000000001
 30
0
 11
6.250660171779826
 21
5.19
 31
0
  0
LINE
  8
0
 62
7
 10
5.365
 20
4.304339828220177
 30
0
 11
5.540000000000001
 21
4.479339828220177
 31
0
  0
LINE
  8
0
 62
7
 10
6.222792206135789
 20
4.950000000000001
 30
0
 11
6.46279220613579
 21
5.19
 31
0
  0
LINE
  8
0
 62
7
 10
5.365
 20
4.092207793864214
 30
0
 11
5.540000000000001
 21
4.267207793864213
 31
0
  0
LINE
  8
0
 62
7
 10
6.434924240491753
 20
4.950000000000001
 30
0
 11
6.674924240491753
 21
5.19
 31
0
  0
LINE
  8
0
 62
7
 10
5.365
 20
3.88007575950825
 30
0
 11
5.540000000000001
 21
4.05507575950825
 31
0
  0
LINE
  8
0
 62
7
 10
6.647056274847717
 20
4.950000000000001
 30
0
 11
6.887056274847717
 21
5.19
 31
0
  0
LINE
  8
0
 62
7
 10
5.365
 20
3.667943725152286
 30
0
 11
5.540000000000001
 21
3.842943725152286
 31
0
  0
LINE
  8
0
 62
7
 10
6.859188309203681
 20
4.950000000000001
 30
0
 11
7.099188309203681
 21
5.19
 31
0
  0
LINE
  8
0
 62
7
 10
5.365
 20
3.455811690796321
 30
0
 11
5.540000000000001
 21
3.630811690796322
 31
0
  0
LINE
  8
0
 62
7
 10
7.071320343559645
 20
4.950000000000001
 30
0
 11
7.311320343559645
 21
5.19
 31
0
  0
LINE
  8
0
 62
7
 10
5.371320343559644
 20
3.25
 30
0
 11
5.540000000000001
 21
3.418679656440358
 31
0
  0
LINE
  8
0
 62
7
 10
7.283452377915609
 20
4.950000000000001
 30
0
 11
7.523452377915609
 21
5.19
 31
0
  0
LINE
  8
0
 62
7
 10
7.425000000000001
 20
4.879415587728428
 30
0
 11
7.735584412271573
 21
5.19
 31
0
  0
LINE
  8
0
 62
7
 10
7.707716446627535
 20
4.949999999999999
 30
0
 11
7.765
 21
5.007283553372464
 31
0
  0
LINE
  8
0
 62
7
 10
7.425000000000001
 20
4.667283553372464
 30
0
 11
7.600000000000001
 21
4.842283553372464
 31
0
  0
LINE
  8
0
 62
7
 10
7.425000000000001
 20
4.4551515190165
 30
0
 11
7.600000000000001
 21
4.630151519016501
 31
0
  0
LINE
  8
0
 62
7
 10
7.425000000000001
 20
4.243019484660536
 30
0
 11
7.600000000000001
 21
4.418019484660537
 31
0
  0
LINE
  8
0
 62
7
 10
7.425000000000001
 20
4.030887450304572
 30
0
 11
7.600000000000001
 21
4.205887450304573
 31
0
  0
LINE
  8
0
 62
7
 10
7.425000000000001
 20
3.818755415948608
 30
0
 11
7.600000000000001
 21
3.993755415948609
 31
0
  0
LINE
  8
0
 62
7
 10
7.425000000000001
 20
3.606623381592644
 30
0
 11
7.600000000000001
 21
3.781623381592645
 31
0
  0
LINE
  8
0
 62
7
 10
7.425000000000001
 20
3.394491347236679
 30
0
 11
7.600000000000001
 21
3.56949134723668
 31
0
  0
LINE
  8
0
 62
7
 10
7.592640687119285
 20
3.35
 30
0
 11
7.600000000000001
 21
3.357359312880716
 31
0
  0
ENDBLK
  8
0
  0
BLOCK
  8
0
  2
*D0
 70
1
 10
0
 20
0
 30
0
  0
LINE
  8
0
 62
7
 10
7.95599502824619
 20
4.4669769935559
 30
0
 11
7.95599502824619
 21
4.95
 31
0
  0
LINE
  8
0
 62
7
 10
7.95599502824619
 20
3.35
 30
0
 11
7.95599502824619
 21
3.8119769935559
 31
0
  0
LINE
  8
0
 62
7
 10
7.600000000000001
 20
4.95
 30
0
 11
8.00599502824619
 21
4.95
 31
0
  0
LINE
  8
0
 62
7
 10
7.600000000000001
 20
3.35
 30
0
 11
8.00599502824619
 21
3.35
 31
0
  0
LINE
  8
0
 62
7
 10
7.991350367305517
 20
4.914644660940673
 30
0
 11
7.920639689186863
 21
4.985355339059327
 31
0
  0
LINE
  8
0
 62
7
 10
7.920639689186863
 20
3.385355339059327
 30
0
 11
7.991350367305517
 21
3.314644660940673
 31
0
  0
TEXT
  8
0
 62
7
 10
8.000995028246191
 20
4.0619769935559
 30
0
 40
0.1
  1
1,6
 50
90
 41
0.9
  0
ENDBLK
  8
0
  0
BLOCK
  8
0
  2
*D1
 70
1
 10
0
 20
0
 30
0
  0
LINE
  8
0
 62
7
 10
6.859381369017211
 20
5.83813966203941
 30
0
 11
7.425000000000001
 21
5.83813966203941
 31
0
  0
LINE
  8
0
 62
7
 10
5.54
 20
5.83813966203941
 30
0
 11
6.11438136901721
 21
5.83813966203941
 31
0
  0
LINE
  8
0
 62
7
 10
7.425000000000001
 20
5.469999999999995
 30
0
 11
7.425000000000001
 21
5.88813966203941
 31
0
  0
LINE
  8
0
 62
7
 10
5.54
 20
5.469999999999995
 30
0
 11
5.54
 21
5.88813966203941
 31
0
  0
LINE
  8
0
 62
7
 10
5.575355339059327
 20
5.873495001098737
 30
0
 11
5.504644660940673
 21
5.802784322980083
 31
0
  0
LINE
  8
0
 62
7
 10
7.389644660940673
 20
5.802784322980083
 30
0
 11
7.460355339059328
 21
5.873495001098737
 31
0
  0
TEXT
  8
0
 62
7
 10
6.364381369017211
 20
5.79313966203941
 30
0
 40
0.1
  1
1,89
 41
0.9
  0
ENDBLK
  8
0
  0
BLOCK
  8
0
  2
*D2
 70
1
 10
0
 20
0
 30
0
  0
LINE
  8
0
 62
7
 10
5.07515496210187
 20
4.45549954309317
 30
0
 11
5.07515496210187
 21
4.95
 31
0
  0
LINE
  8
0
 62
7
 10
5.07515496210187
 20
3.25
 30
0
 11
5.07515496210187
 21
3.800499543093171
 31
0
  0
LINE
  8
0
 62
7
 10
5.365
 20
4.95
 30
0
 11
5.02515496210187
 21
4.95
 31
0
  0
LINE
  8
0
 62
7
 10
5.365
 20
3.25
 30
0
 11
5.02515496210187
 21
3.25
 31
0
  0
LINE
  8
0
 62
7
 10
5.039799623042542
 20
3.285355339059327
 30
0
 11
5.110510301161197
 21
3.214644660940673
 31
0
  0
LINE
  8
0
 62
7
 10
5.110510301161197
 20
4.914644660940673
 30
0
 11
5.039799623042542
 21
4.985355339059327
 31
0
  0
TEXT
  8
0
 62
7
 10
5.12015496210187
 20
4.050499543093171
 30
0
 40
0.1
  1
1,7
 50
90
 41
0.9
  0
ENDBLK
  8
0
  0
BLOCK
  8
0
  2
*D3
 70
1
 10
0
 20
0
 30
0
  0
LINE
  8
0
 62
7
 10
6.809381369017211
 20
11.4850452897008
 30
0
 11
7.425000000000001
 21
11.4850452897008
 31
0
  0
LINE
  8
0
 62
7
 10
5.54
 20
11.4850452897008
 30
0
 11
6.164381369017211
 21
11.4850452897008
 31
0
  0
LINE
  8
0
 62
7
 10
7.425000000000001
 20
11.2
 30
0
 11
7.425000000000001
 21
11.5350452897008
 31
0
  0
LINE
  8
0
 62
7
 10
5.54
 20
11.2
 30
0
 11
5.54
 21
11.5350452897008
 31
0
  0
LINE
  8
0
 62
7
 10
7.389644660940673
 20
11.44968995064147
 30
0
 11
7.460355339059328
 21
11.52040062876013
 31
0
  0
LINE
  8
0
 62
7
 10
5.575355339059327
 20
11.52040062876013
 30
0
 11
5.504644660940673
 21
11.44968995064147
 31
0
  0
TEXT
  8
0
 62
7
 10
6.364381369017211
 20
11.4400452897008
 30
0
 40
0.1
  1
1,89
 41
0.9
  0
ENDBLK
  8
0
  0
BLOCK
  8
0
  2
*D4
 70
1
 10
0
 20
0
 30
0
  0
LINE
  8
0
 62
7
 10
8.25440874027708
 20
10.24604046797821
 30
0
 11
8.25440874027708
 21
11.05
 31
0
  0
LINE
  8
0
 62
7
 10
8.25440874027708
 20
8.299999999999999
 30
0
 11
8.25440874027708
 21
9.166040467978211
 31
0
  0
LINE
  8
0
 62
7
 10
7.75
 20
11.05
 30
0
 11
8.304408740277081
 21
11.05
 31
0
  0
LINE
  8
0
 62
7
 10
7.75
 20
8.299999999999999
 30
0
 11
8.304408740277081
 21
8.299999999999999
 31
0
  0
LINE
  8
0
 62
7
 10
8.219053401217753
 20
8.335355339059326
 30
0
 11
8.289764079336408
 21
8.264644660940672
 31
0
  0
LINE
  8
0
 62
7
 10
8.289764079336408
 20
11.01464466094067
 30
0
 11
8.219053401217753
 21
11.08535533905933
 31
0
  0
TEXT
  8
0
 62
7
 10
8.224408740277081
 20
9.568540467978213
 30
0
 40
0.1
  1
2,75
 50
90
 41
0.9
  0
TEXT
  8
0
 62
7
 10
8.384408740277081
 20
9.366040467978213
 30
0
 40
0.1
  1
(260-280)
 50
90
 41
0.9
  0
ENDBLK
  8
0
  0
ENDSEC
  0
SECTION
  2
ENTITIES
  0
INSERT
  8
0
  2
*X0
 10
0
 20
0
 30
0
  0
INSERT
  8
0
  2
*X1
 10
0
 20
0
 30
0
  0
INSERT
  8
0
  2
*X2
 10
0
 20
0
 30
0
  0
INSERT
  8
0
  2
*X3
 10
0
 20
0
 30
0
  0
INSERT
  8
0
  2
*X4
 10
0
 20
0
 30
0
  0
INSERT
  8
0
  2
*X5
 10
0
 20
0
 30
0
  0
INSERT
  8
0
  2
*X6
 10
0
 20
0
 30
0
  0
INSERT
  8
0
  2
*X7
 10
0
 20
0
 30
0
  0
INSERT
  8
0
  2
*X8
 10
0
 20
0
 30
0
  0
INSERT
  8
0
  2
*X9
 10
0
 20
0
 30
0
  0
INSERT
  8
0
  2
*X10
 10
0
 20
0
 30
0
  0
INSERT
  8
0
  2
*X11
 10
0
 20
0
 30
0
  0
INSERT
  8
0
  2
*X12
 10
0
 20
0
 30
0
  0
INSERT
  8
0
  2
*X13
 10
0
 20
0
 30
0
  0
INSERT
  8
0
  2
*X14
 10
0
 20
0
 30
0
  0
INSERT
  8
0
  2
*X15
 10
0
 20
0
 30
0
  0
INSERT
  8
0
  2
*X16
 10
0
 20
0
 30
0
  0
LINE
  8
0
 62
7
  6
DASHDOT
 10
7.425000000000002
 20
5.619999999999997
 30
0
 11
7.600000000000001
 21
5.619999999999997
 31
0
  0
LINE
  8
0
 62
7
  6
DASHDOT
 10
7.600000000000001
 20
5.619999999999997
 30
0
 11
7.65
 21
5.619999999999996
 31
0
  0
LINE
  8
0
 62
7
  6
DASHDOT
 10
5.215
 20
5.19
 30
0
 11
5.215
 21
4.95
 31
0
  0
LINE
  8
0
 62
7
  6
DASHDOT
 10
7.765000000000001
 20
5.19
 30
0
 11
7.765000000000001
 21
4.95
 31
0
  0
LINE
  8
0
 62
7
  6
DASHDOT
 10
5.215
 20
5.23
 30
0
 11
5.215
 21
5.19
 31
0
  0
LINE
  8
0
 62
7
  6
DASHDOT
 10
7.765000000000001
 20
5.23
 30
0
 11
7.765000000000001
 21
5.19
 31
0
  0
LINE
  8
0
 62
7
  6
DASHDOT
 10
5.215
 20
4.95
 30
0
 11
5.215
 21
4.9
 31
0
  0
LINE
  8
0
 62
7
  6
DASHDOT
 10
5.215
 20
5.469999999999995
 30
0
 11
5.215
 21
5.23
 31
0
  0
LINE
  8
0
 62
7
  6
DASHDOT
 10
5.540000000000002
 20
5.619999999999997
 30
0
 11
5.59
 21
5.619999999999996
 31
0
  0
LINE
  8
0
 62
7
  6
DASHDOT
 10
5.365000000000002
 20
5.619999999999997
 30
0
 11
5.540000000000002
 21
5.619999999999997
 31
0
  0
LINE
  8
0
 62
7
  6
DASHDOT
 10
7.765000000000001
 20
4.95
 30
0
 11
7.765000000000001
 21
4.9
 31
0
  0
LINE
  8
0
 62
7
  6
DASHDOT
 10
7.765000000000001
 20
5.469999999999995
 30
0
 11
7.765000000000001
 21
5.23
 31
0
  0
LINE
  8
0
 62
7
  6
DASHDOT
 10
7.765000000000001
 20
5.519999999999996
 30
0
 11
7.765000000000001
 21
5.469999999999995
 31
0
  0
LINE
  8
0
 62
7
  6
DASHDOT
 10
5.215
 20
5.519999999999996
 30
0
 11
5.215
 21
5.469999999999995
 31
0
  0
LINE
  8
0
 62
7
  6
DASHDOT
 10
7.375
 20
5.619999999999996
 30
0
 11
7.425000000000002
 21
5.619999999999997
 31
0
  0
LINE
  8
0
 62
7
  6
DASHDOT
 10
5.315
 20
5.619999999999996
 30
0
 11
5.365000000000002
 21
5.619999999999997
 31
0
  0
LINE
  8
0
 62
7
 10
5.54
 20
3.35
 30
0
 11
5.540000000000002
 21
3.400000000000001
 31
0
  0
LINE
  8
0
 62
7
  6
DASHDOT
 10
7.425000000000001
 20
3.35
 30
0
 11
5.54
 21
3.35
 31
0
  0
LINE
  8
0
 62
7
 10
7.425000000000001
 20
3.4
 30
0
 11
7.425000000000001
 21
3.35
 31
0
  0
LINE
  8
0
 62
7
 10
5.540000000000002
 20
3.400000000000001
 30
0
 11
5.54
 21
4.95
 31
0
  0
LINE
  8
0
 62
7
 10
7.425000000000001
 20
3.4
 30
0
 11
5.540000000000002
 21
3.400000000000001
 31
0
  0
LINE
  8
0
 62
7
 10
7.425000000000001
 20
3.35
 30
0
 11
7.600000000000001
 21
3.35
 31
0
  0
LINE
  8
0
 62
7
 10
7.600000000000001
 20
4.95
 30
0
 11
7.765000000000001
 21
4.95
 31
0
  0
LINE
  8
0
 62
7
 10
7.600000000000001
 20
3.35
 30
0
 11
7.600000000000001
 21
4.95
 31
0
  0
LINE
  8
0
 62
7
 10
7.425000000000001
 20
4.95
 30
0
 11
7.425000000000001
 21
3.4
 31
0
  0
LINE
  8
0
 62
7
 10
5.54
 20
4.95
 30
0
 11
7.425000000000001
 21
4.95
 31
0
  0
LINE
  8
0
 62
7
 10
5.365
 20
4.95
 30
0
 11
5.365
 21
3.25
 31
0
  0
LINE
  8
0
 62
7
 10
5.365
 20
3.25
 30
0
 11
5.54
 21
3.25
 31
0
  0
LINE
  8
0
 62
7
 10
5.54
 20
3.25
 30
0
 11
5.54
 21
3.35
 31
0
  0
LINE
  8
0
 62
7
 10
5.215
 20
4.95
 30
0
 11
5.365
 21
4.95
 31
0
  0
LINE
  8
0
 62
7
 10
5.215
 20
5.19
 30
0
 11
7.765000000000001
 21
5.19
 31
0
  0
LINE
  8
0
 62
7
 10
5.215
 20
5.23
 30
0
 11
7.765000000000001
 21
5.23
 31
0
  0
LINE
  8
0
 62
7
 10
7.600000000000001
 20
5.469999999999995
 30
0
 11
7.765000000000001
 21
5.469999999999995
 31
0
  0
LINE
  8
0
 62
7
 10
7.600000000000001
 20
5.619999999999997
 30
0
 11
7.600000000000001
 21
5.469999999999995
 31
0
  0
LINE
  8
0
 62
7
 10
7.425000000000001
 20
5.469999999999995
 30
0
 11
7.425000000000002
 21
5.619999999999997
 31
0
  0
LINE
  8
0
 62
7
 10
5.54
 20
5.469999999999995
 30
0
 11
7.425000000000001
 21
5.469999999999995
 31
0
  0
LINE
  8
0
 62
7
 10
5.540000000000002
 20
5.619999999999997
 30
0
 11
5.54
 21
5.469999999999995
 31
0
  0
LINE
  8
0
 62
7
 10
5.365
 20
5.469999999999995
 30
0
 11
5.365000000000002
 21
5.619999999999997
 31
0
  0
LINE
  8
0
 62
7
 10
5.215
 20
5.469999999999995
 30
0
 11
5.365
 21
5.469999999999995
 31
0
  0
LINE
  8
0
 62
7
  6
DASHED
 10
0.7400000000000001
 20
8.099999999999996
 30
0
 11
2.340000000000001
 21
8.099999999999996
 31
0
  0
LINE
  8
0
 62
7
  6
DASHED
 10
0.7399999999999992
 20
8.299999999999997
 30
0
 11
2.340000000000001
 21
8.299999999999997
 31
0
  0
LINE
  8
0
 62
7
  6
DASHED
 10
0.7399999999999992
 20
10.85
 30
0
 11
2.340000000000001
 21
10.85
 31
0
  0
LINE
  8
0
 62
7
  6
DASHED
 10
0.7399999999999992
 20
11.05
 30
0
 11
2.340000000000001
 21
11.05
 31
0
  0
LINE
  8
0
 62
7
  6
DASHDOT
 10
2.640000000000003
 20
11.05
 30
0
 11
2.640000000000003
 21
10.85
 31
0
  0
LINE
  8
0
 62
7
  6
DASHDOT
 10
2.640000000000003
 20
10.85
 30
0
 11
2.640000000000003
 21
10.8
 31
0
  0
LINE
  8
0
 62
7
  6
DASHDOT
 10
0.5
 20
11.2
 30
0
 11
0.7399999999999992
 21
11.2
 31
0
  0
LINE
  8
0
 62
7
  6
DASHDOT
 10
0.7399999999999992
 20
11.2
 30
0
 11
0.7899999999999991
 21
11.2
 31
0
  0
LINE
  8
0
 62
7
  6
DASHDOT
 10
0.7399999999999992
 20
7.949999999999996
 30
0
 11
0.7899999999999991
 21
7.949999999999996
 31
0
  0
LINE
  8
0
 62
7
  6
DASHDOT
 10
0.5
 20
7.949999999999996
 30
0
 11
0.7399999999999992
 21
7.949999999999996
 31
0
  0
LINE
  8
0
 62
7
  6
DASHDOT
 10
2.640000000000003
 20
8.099999999999996
 30
0
 11
2.640000000000003
 21
8.299999999999997
 31
0
  0
LINE
  8
0
 62
7
  6
DASHDOT
 10
2.640000000000003
 20
8.299999999999997
 30
0
 11
2.639999999999999
 21
8.399999999999997
 31
0
  0
LINE
  8
0
 62
7
  6
DASHDOT
 10
2.639999999999999
 20
11.15
 30
0
 11
2.640000000000003
 21
11.05
 31
0
  0
LINE
  8
0
 62
7
 10
2.339999999999999
 20
11.15
 30
0
 11
2.639999999999999
 21
11.15
 31
0
  0
LINE
  8
0
 62
7
  6
DASHDOT
 10
2.639999999999999
 20
8.399999999999997
 30
0
 11
2.640000000000003
 21
8.449999999999998
 31
0
  0
LINE
  8
0
 62
7
 10
2.339999999999999
 20
8.399999999999997
 30
0
 11
2.639999999999999
 21
8.399999999999997
 31
0
  0
LINE
  8
0
 62
7
  6
DASHDOT
 10
0.45
 20
7.949999999999996
 30
0
 11
0.5
 21
7.949999999999996
 31
0
  0
LINE
  8
0
 62
7
  6
DASHDOT
 10
2.640000000000003
 20
8.049999999999995
 30
0
 11
2.640000000000003
 21
8.099999999999996
 31
0
  0
LINE
  8
0
 62
7
  6
DASHDOT
 10
2.640000000000003
 20
11.2
 30
0
 11
2.639999999999999
 21
11.15
 31
0
  0
LINE
  8
0
 62
7
  6
DASHDOT
 10
0.45
 20
11.2
 30
0
 11
0.5
 21
11.2
 31
0
  0
LINE
  8
0
 62
7
 10
2.340000000000001
 20
8.099999999999996
 30
0
 11
2.640000000000003
 21
8.099999999999996
 31
0
  0
LINE
  8
0
 62
7
 10
2.340000000000001
 20
8.299999999999997
 30
0
 11
2.340000000000001
 21
8.099999999999996
 31
0
  0
LINE
  8
0
 62
7
 10
2.340000000000001
 20
8.299999999999997
 30
0
 11
2.640000000000003
 21
8.299999999999997
 31
0
  0
LINE
  8
0
 62
7
 10
2.340000000000001
 20
11.05
 30
0
 11
2.640000000000003
 21
11.05
 31
0
  0
LINE
  8
0
 62
7
 10
2.340000000000001
 20
10.85
 30
0
 11
2.640000000000003
 21
10.85
 31
0
  0
LINE
  8
0
 62
7
 10
2.340000000000001
 20
11.05
 30
0
 11
2.340000000000001
 21
10.85
 31
0
  0
LINE
  8
0
 62
7
 10
0.7400000000000001
 20
8.099999999999996
 30
0
 11
0.7399999999999992
 21
7.949999999999996
 31
0
  0
LINE
  8
0
 62
7
 10
0.5000000000000009
 20
8.099999999999996
 30
0
 11
0.5
 21
8.299999999999997
 31
0
  0
LINE
  8
0
 62
7
 10
0.5000000000000009
 20
8.099999999999996
 30
0
 11
0.7400000000000001
 21
8.099999999999996
 31
0
  0
LINE
  8
0
 62
7
 10
0.7399999999999992
 20
8.299999999999997
 30
0
 11
0.7400000000000001
 21
8.099999999999996
 31
0
  0
LINE
  8
0
 62
7
 10
0.5
 20
8.299999999999997
 30
0
 11
0.5
 21
10.85
 31
0
  0
LINE
  8
0
 62
7
 10
0.5
 20
8.299999999999997
 30
0
 11
0.7399999999999992
 21
8.299999999999997
 31
0
  0
LINE
  8
0
 62
7
 10
0.7399999999999992
 20
10.85
 30
0
 11
0.7399999999999992
 21
8.299999999999997
 31
0
  0
LINE
  8
0
 62
7
 10
0.5
 20
10.85
 30
0
 11
0.5
 21
11.05
 31
0
  0
LINE
  8
0
 62
7
 10
0.5
 20
10.85
 30
0
 11
0.7399999999999992
 21
10.85
 31
0
  0
LINE
  8
0
 62
7
 10
0.7399999999999992
 20
11.05
 30
0
 11
0.7399999999999992
 21
10.85
 31
0
  0
LINE
  8
0
 62
7
 10
0.5
 20
11.05
 30
0
 11
0.5
 21
11.2
 31
0
  0
LINE
  8
0
 62
7
 10
0.5
 20
11.05
 30
0
 11
0.7399999999999992
 21
11.05
 31
0
  0
LINE
  8
0
 62
7
 10
0.7399999999999992
 20
11.2
 30
0
 11
0.7399999999999992
 21
11.05
 31
0
  0
LINE
  8
0
 62
7
 10
0.5
 20
7.949999999999996
 30
0
 11
0.5000000000000009
 21
8.099999999999996
 31
0
  0
LINE
  8
0
 62
7
  6
DASHDOT
 10
5.315
 20
11.2
 30
0
 11
5.365
 21
11.2
 31
0
  0
LINE
  8
0
 62
7
  6
DASHDOT
 10
5.365
 20
11.2
 30
0
 11
5.54
 21
11.2
 31
0
  0
LINE
  8
0
 62
7
  6
DASHDOT
 10
5.215
 20
11.15
 30
0
 11
5.215
 21
11.05
 31
0
  0
LINE
  8
0
 62
7
  6
DASHDOT
 10
5.215
 20
11.05
 30
0
 11
5.215
 21
10.85
 31
0
  0
LINE
  8
0
 62
7
  6
DASHDOT
 10
7.375
 20
11.2
 30
0
 11
7.425000000000001
 21
11.2
 31
0
  0
LINE
  8
0
 62
7
  6
DASHDOT
 10
7.425000000000001
 20
11.2
 30
0
 11
7.600000000000001
 21
11.2
 31
0
  0
LINE
  8
0
 62
7
  6
DASHDOT
 10
7.75
 20
11.15
 30
0
 11
7.75
 21
11.05
 31
0
  0
LINE
  8
0
 62
7
  6
DASHDOT
 10
7.75
 20
11.05
 30
0
 11
7.75
 21
10.85
 31
0
  0
LINE
  8
0
 62
7
  6
DASHDOT
 10
7.375
 20
7.949999999999996
 30
0
 11
7.425000000000001
 21
7.949999999999996
 31
0
  0
LINE
  8
0
 62
7
  6
DASHDOT
 10
7.425000000000001
 20
7.949999999999996
 30
0
 11
7.600000000000001
 21
7.949999999999996
 31
0
  0
LINE
  8
0
 62
7
  6
DASHDOT
 10
7.75
 20
8.399999999999997
 30
0
 11
7.75
 21
8.299999999999997
 31
0
  0
LINE
  8
0
 62
7
  6
DASHDOT
 10
7.75
 20
8.299999999999997
 30
0
 11
7.75
 21
8.099999999999996
 31
0
  0
LINE
  8
0
 62
7
  6
DASHDOT
 10
5.315
 20
7.949999999999996
 30
0
 11
5.365
 21
7.949999999999996
 31
0
  0
LINE
  8
0
 62
7
  6
DASHDOT
 10
5.365
 20
7.949999999999996
 30
0
 11
5.54
 21
7.949999999999996
 31
0
  0
LINE
  8
0
 62
7
  6
DASHDOT
 10
5.215
 20
8.399999999999997
 30
0
 11
5.215
 21
8.299999999999997
 31
0
  0
LINE
  8
0
 62
7
  6
DASHDOT
 10
5.215
 20
8.299999999999997
 30
0
 11
5.215
 21
8.099999999999996
 31
0
  0
LINE
  8
0
 62
7
  6
DASHDOT
 10
5.215
 20
11.2
 30
0
 11
5.215
 21
11.15
 31
0
  0
LINE
  8
0
 62
7
 10
5.365
 20
11.2
 30
0
 11
5.365
 21
11.15
 31
0
  0
LINE
  8
0
 62
7
 10
5.215
 20
11.15
 30
0
 11
5.365
 21
11.15
 31
0
  0
LINE
  8
0
 62
7
 10
5.54
 20
11.2
 30
0
 11
5.54
 21
11.15
 31
0
  0
LINE
  8
0
 62
7
 10
7.425000000000001
 20
11.2
 30
0
 11
7.425000000000001
 21
11.15
 31
0
  0
LINE
  8
0
 62
7
 10
5.54
 20
11.15
 30
0
 11
7.425000000000001
 21
11.15
 31
0
  0
LINE
  8
0
 62
7
  6
DASHDOT
 10
7.75
 20
11.2
 30
0
 11
7.75
 21
11.15
 31
0
  0
LINE
  8
0
 62
7
 10
7.600000000000001
 20
11.2
 30
0
 11
7.600000000000001
 21
11.15
 31
0
  0
LINE
  8
0
 62
7
 10
7.600000000000001
 20
11.15
 30
0
 11
7.75
 21
11.15
 31
0
  0
LINE
  8
0
 62
7
  6
DASHDOT
 10
5.215
 20
8.449999999999998
 30
0
 11
5.215
 21
8.399999999999997
 31
0
  0
LINE
  8
0
 62
7
 10
5.365
 20
10.85
 30
0
 11
5.365
 21
8.399999999999997
 31
0
  0
LINE
  8
0
 62
7
 10
5.215
 20
8.399999999999997
 30
0
 11
5.365
 21
8.399999999999997
 31
0
  0
LINE
  8
0
 62
7
 10
5.54
 20
10.85
 30
0
 11
5.54
 21
8.399999999999997
 31
0
  0
LINE
  8
0
 62
7
 10
7.425000000000001
 20
10.85
 30
0
 11
7.425000000000001
 21
8.399999999999997
 31
0
  0
LINE
  8
0
 62
7
 10
5.54
 20
8.399999999999997
 30
0
 11
7.425000000000001
 21
8.399999999999997
 31
0
  0
LINE
  8
0
 62
7
  6
DASHDOT
 10
7.75
 20
8.449999999999998
 30
0
 11
7.75
 21
8.399999999999997
 31
0
  0
LINE
  8
0
 62
7
 10
7.600000000000001
 20
10.85
 30
0
 11
7.600000000000001
 21
8.399999999999997
 31
0
  0
LINE
  8
0
 62
7
 10
7.600000000000001
 20
8.399999999999997
 30
0
 11
7.75
 21
8.399999999999997
 31
0
  0
LINE
  8
0
 62
7
  6
DASHDOT
 10
5.54
 20
7.949999999999996
 30
0
 11
5.59
 21
7.949999999999996
 31
0
  0
LINE
  8
0
 62
7
  6
DASHDOT
 10
5.54
 20
11.2
 30
0
 11
5.59
 21
11.2
 31
0
  0
LINE
  8
0
 62
7
  6
DASHDOT
 10
7.600000000000001
 20
7.949999999999996
 30
0
 11
7.65
 21
7.949999999999996
 31
0
  0
LINE
  8
0
 62
7
  6
DASHDOT
 10
7.600000000000001
 20
11.2
 30
0
 11
7.65
 21
11.2
 31
0
  0
LINE
  8
0
 62
7
  6
DASHDOT
 10
5.215
 20
10.85
 30
0
 11
5.215
 21
10.8
 31
0
  0
LINE
  8
0
 62
7
  6
DASHDOT
 10
5.215
 20
8.099999999999996
 30
0
 11
5.215
 21
8.049999999999995
 31
0
  0
LINE
  8
0
 62
7
  6
DASHDOT
 10
7.75
 20
10.85
 30
0
 11
7.75
 21
10.8
 31
0
  0
LINE
  8
0
 62
7
  6
DASHDOT
 10
7.75
 20
8.099999999999996
 30
0
 11
7.75
 21
8.049999999999995
 31
0
  0
LINE
  8
0
 62
7
 10
5.215
 20
11.05
 30
0
 11
5.365
 21
11.05
 31
0
  0
LINE
  8
0
 62
7
 10
5.365
 20
11.15
 30
0
 11
5.365
 21
11.05
 31
0
  0
LINE
  8
0
 62
7
 10
5.215
 20
10.85
 30
0
 11
5.365
 21
10.85
 31
0
  0
LINE
  8
0
 62
7
 10
5.215
 20
8.299999999999997
 30
0
 11
5.365
 21
8.299999999999997
 31
0
  0
LINE
  8
0
 62
7
 10
5.365
 20
8.399999999999997
 30
0
 11
5.365
 21
8.299999999999997
 31
0
  0
LINE
  8
0
 62
7
 10
5.215
 20
8.099999999999996
 30
0
 11
5.365000000000002
 21
8.099999999999996
 31
0
  0
LINE
  8
0
 62
7
 10
5.365000000000002
 20
8.099999999999996
 30
0
 11
5.365
 21
7.949999999999996
 31
0
  0
LINE
  8
0
 62
7
 10
5.365
 20
11.05
 30
0
 11
5.54
 21
11.05
 31
0
  0
LINE
  8
0
 62
7
 10
5.54
 20
11.15
 30
0
 11
5.54
 21
11.05
 31
0
  0
LINE
  8
0
 62
7
 10
5.365
 20
10.85
 30
0
 11
5.54
 21
10.85
 31
0
  0
LINE
  8
0
 62
7
 10
5.365
 20
8.299999999999997
 30
0
 11
5.54
 21
8.299999999999997
 31
0
  0
LINE
  8
0
 62
7
 10
5.54
 20
8.399999999999997
 30
0
 11
5.54
 21
8.299999999999997
 31
0
  0
LINE
  8
0
 62
7
 10
5.365000000000002
 20
8.099999999999996
 30
0
 11
5.540000000000002
 21
8.099999999999996
 31
0
  0
LINE
  8
0
 62
7
 10
5.540000000000002
 20
8.099999999999996
 30
0
 11
5.54
 21
7.949999999999996
 31
0
  0
LINE
  8
0
 62
7
 10
5.54
 20
11.05
 30
0
 11
7.425000000000001
 21
11.05
 31
0
  0
LINE
  8
0
 62
7
 10
7.425000000000001
 20
11.15
 30
0
 11
7.425000000000001
 21
11.05
 31
0
  0
LINE
  8
0
 62
7
 10
5.54
 20
10.85
 30
0
 11
7.425000000000001
 21
10.85
 31
0
  0
LINE
  8
0
 62
7
 10
5.54
 20
8.299999999999997
 30
0
 11
7.425000000000001
 21
8.299999999999997
 31
0
  0
LINE
  8
0
 62
7
 10
7.425000000000001
 20
8.399999999999997
 30
0
 11
7.425000000000001
 21
8.299999999999997
 31
0
  0
LINE
  8
0
 62
7
 10
5.540000000000002
 20
8.099999999999996
 30
0
 11
7.425000000000002
 21
8.099999999999996
 31
0
  0
LINE
  8
0
 62
7
 10
7.425000000000002
 20
8.099999999999996
 30
0
 11
7.425000000000001
 21
7.949999999999996
 31
0
  0
LINE
  8
0
 62
7
 10
7.425000000000001
 20
11.05
 30
0
 11
7.600000000000001
 21
11.05
 31
0
  0
LINE
  8
0
 62
7
 10
7.600000000000001
 20
11.15
 30
0
 11
7.600000000000001
 21
11.05
 31
0
  0
LINE
  8
0
 62
7
 10
7.425000000000001
 20
10.85
 30
0
 11
7.600000000000001
 21
10.85
 31
0
  0
LINE
  8
0
 62
7
 10
7.425000000000001
 20
8.299999999999997
 30
0
 11
7.600000000000001
 21
8.299999999999997
 31
0
  0
LINE
  8
0
 62
7
 10
7.600000000000001
 20
8.399999999999997
 30
0
 11
7.600000000000001
 21
8.299999999999997
 31
0
  0
LINE
  8
0
 62
7
 10
7.425000000000002
 20
8.099999999999996
 30
0
 11
7.600000000000001
 21
8.099999999999996
 31
0
  0
LINE
  8
0
 62
7
 10
7.600000000000001
 20
8.099999999999996
 30
0
 11
7.600000000000001
 21
7.949999999999996
 31
0
  0
LINE
  8
0
 62
7
 10
7.600000000000001
 20
11.05
 30
0
 11
7.75
 21
11.05
 31
0
  0
LINE
  8
0
 62
7
 10
7.600000000000001
 20
10.85
 30
0
 11
7.75
 21
10.85
 31
0
  0
LINE
  8
0
 62
7
 10
7.600000000000001
 20
8.299999999999997
 30
0
 11
7.75
 21
8.299999999999997
 31
0
  0
LINE
  8
0
 62
7
 10
7.600000000000001
 20
8.099999999999996
 30
0
 11
7.75
 21
8.099999999999996
 31
0
  0
LINE
  8
0
 62
7
 10
2.44000052
 20
8.531800069999994
 30
0
 11
2.12000046
 21
8.531800069999994
 31
0
  0
LINE
  8
0
 62
7
 10
2.12000046
 20
8.531800069999994
 30
0
 11
2.12000046
 21
8.596800069999992
 31
0
  0
LINE
  8
0
 62
7
 10
2.44000052
 20
8.596800069999992
 30
0
 11
2.44000052
 21
8.531800069999994
 31
0
  0
LINE
  8
0
 62
7
 10
2.12000046
 20
8.596800069999992
 30
0
 11
2.44000052
 21
8.596800069999992
 31
0
  0
LINE
  8
0
 62
7
 10
1.78847672
 20
8.728200059999997
 30
0
 11
1.78847672
 21
8.793200059999995
 31
0
  0
LINE
  8
0
 62
7
 10
2.2100005
 20
8.793200059999995
 30
0
 11
2.2100005
 21
8.728200059999997
 31
0
  0
LINE
  8
0
 62
7
 10
2.2100005
 20
8.728200059999997
 30
0
 11
1.78847672
 21
8.728200059999997
 31
0
  0
LINE
  8
0
 62
7
 10
1.78847672
 20
8.793200059999995
 30
0
 11
2.2100005
 21
8.793200059999995
 31
0
  0
LINE
  8
0
 62
7
 10
1.448448570000001
 20
8.924600059999992
 30
0
 11
1.448448570000001
 21
8.989600059999992
 31
0
  0
LINE
  8
0
 62
7
 10
2.104077310000002
 20
8.989600059999992
 30
0
 11
2.104077310000002
 21
8.924600059999992
 31
0
  0
LINE
  8
0
 62
7
 10
1.448448570000001
 20
8.989600059999992
 30
0
 11
2.104077310000002
 21
8.989600059999992
 31
0
  0
LINE
  8
0
 62
7
 10
2.104077310000002
 20
8.924600059999992
 30
0
 11
1.448448570000001
 21
8.924600059999992
 31
0
  0
LINE
  8
0
 62
7
 10
1.073095250000001
 20
9.121000049999994
 30
0
 11
1.073095250000001
 21
9.186000049999995
 31
0
  0
LINE
  8
0
 62
7
 10
2.00153016
 20
9.186000049999995
 30
0
 11
2.00153016
 21
9.121000049999994
 31
0
  0
LINE
  8
0
 62
7
 10
1.073095250000001
 20
9.186000049999995
 30
0
 11
2.00153016
 21
9.186000049999995
 31
0
  0
LINE
  8
0
 62
7
 10
2.00153016
 20
9.121000049999994
 30
0
 11
1.073095250000001
 21
9.121000049999994
 31
0
  0
LINE
  8
0
 62
7
 10
0.7950001600000007
 20
9.317400049999994
 30
0
 11
0.7950001600000007
 21
9.382400049999992
 31
0
  0
LINE
  8
0
 62
7
 10
1.905031510000002
 20
9.382400049999992
 30
0
 11
1.905031510000002
 21
9.317400049999994
 31
0
  0
LINE
  8
0
 62
7
 10
0.7950001600000007
 20
9.382400049999992
 30
0
 11
1.905031510000002
 21
9.382400049999992
 31
0
  0
LINE
  8
0
 62
7
 10
1.905031510000002
 20
9.317400049999994
 30
0
 11
0.7950001600000007
 21
9.317400049999994
 31
0
  0
LINE
  8
0
 62
7
 10
0.7949999999999992
 20
9.513800039999992
 30
0
 11
0.7949999999999992
 21
9.578800039999994
 31
0
  0
LINE
  8
0
 62
7
 10
1.759373629999999
 20
9.578800039999994
 30
0
 11
1.759373629999999
 21
9.513800039999992
 31
0
  0
LINE
  8
0
 62
7
 10
1.759373629999999
 20
9.513800039999992
 30
0
 11
0.7949999999999992
 21
9.513800039999992
 31
0
  0
LINE
  8
0
 62
7
 10
0.7949999999999992
 20
9.578800039999994
 30
0
 11
1.759373629999999
 21
9.578800039999994
 31
0
  0
LINE
  8
0
 62
7
 10
1.64500008
 20
9.710200029999996
 30
0
 11
0.7950001600000007
 21
9.710200029999996
 31
0
  0
LINE
  8
0
 62
7
 10
0.7950001600000007
 20
9.710200029999996
 30
0
 11
0.7950001600000007
 21
9.775200029999995
 31
0
  0
LINE
  8
0
 62
7
 10
1.64500008
 20
9.775200029999995
 30
0
 11
1.64500008
 21
9.710200029999996
 31
0
  0
LINE
  8
0
 62
7
 10
0.7950001600000007
 20
9.775200029999995
 30
0
 11
1.64500008
 21
9.775200029999995
 31
0
  0
LINE
  8
0
 62
7
 10
0.7949999999999992
 20
9.906600029999995
 30
0
 11
0.7949999999999992
 21
9.971600029999996
 31
0
  0
LINE
  8
0
 62
7
 10
1.8315297
 20
9.971600029999996
 30
0
 11
1.8315297
 21
9.906600029999995
 31
0
  0
LINE
  8
0
 62
7
 10
1.8315297
 20
9.906600029999995
 30
0
 11
0.7949999999999992
 21
9.906600029999995
 31
0
  0
LINE
  8
0
 62
7
 10
0.7949999999999992
 20
9.971600029999996
 30
0
 11
1.8315297
 21
9.971600029999996
 31
0
  0
LINE
  8
0
 62
7
 10
0.7949997000000013
 20
10.10300001999999
 30
0
 11
0.7949997000000013
 21
10.16800001999999
 31
0
  0
LINE
  8
0
 62
7
 10
1.956724480000001
 20
10.16800001999999
 30
0
 11
1.956724480000001
 21
10.10300001999999
 31
0
  0
LINE
  8
0
 62
7
 10
0.7949997000000013
 20
10.16800001999999
 30
0
 11
1.956724480000001
 21
10.16800001999999
 31
0
  0
LINE
  8
0
 62
7
 10
1.956724480000001
 20
10.10300001999999
 30
0
 11
0.7949997000000013
 21
10.10300001999999
 31
0
  0
LINE
  8
0
 62
7
 10
0.8765545700000014
 20
10.29940001999999
 30
0
 11
0.8765545700000014
 21
10.36440001999999
 31
0
  0
LINE
  8
0
 62
7
 10
2.048359300000001
 20
10.36440001999999
 30
0
 11
2.048359300000001
 21
10.29940001999999
 31
0
  0
LINE
  8
0
 62
7
 10
0.8765545700000014
 20
10.36440001999999
 30
0
 11
2.048359300000001
 21
10.36440001999999
 31
0
  0
LINE
  8
0
 62
7
 10
2.048359300000001
 20
10.29940001999999
 30
0
 11
0.8765545700000014
 21
10.29940001999999
 31
0
  0
LINE
  8
0
 62
7
 10
1.328381199999999
 20
10.49580000999999
 30
0
 11
1.328381199999999
 21
10.56080000999999
 31
0
  0
LINE
  8
0
 62
7
 10
2.15682606
 20
10.56080000999999
 30
0
 11
2.15682606
 21
10.49580000999999
 31
0
  0
LINE
  8
0
 62
7
 10
1.328381199999999
 20
10.56080000999999
 30
0
 11
2.15682606
 21
10.56080000999999
 31
0
  0
LINE
  8
0
 62
7
 10
2.15682606
 20
10.49580000999999
 30
0
 11
1.328381199999999
 21
10.49580000999999
 31
0
  0
LINE
  8
0
 62
7
 10
1.648907170000001
 20
10.69219999999999
 30
0
 11
1.648907170000001
 21
10.75719999999999
 31
0
  0
LINE
  8
0
 62
7
 10
2.26707726
 20
10.75719999999999
 30
0
 11
2.26707726
 21
10.69219999999999
 31
0
  0
LINE
  8
0
 62
7
 10
1.648907170000001
 20
10.75719999999999
 30
0
 11
2.26707726
 21
10.75719999999999
 31
0
  0
LINE
  8
0
 62
7
 10
2.26707726
 20
10.69219999999999
 30
0
 11
1.648907170000001
 21
10.69219999999999
 31
0
  0
LINE
  8
0
 62
7
 10
1.968227390000001
 20
10.88859999999999
 30
0
 11
1.968227390000001
 21
10.95359999999999
 31
0
  0
LINE
  8
0
 62
7
 10
2.30000096
 20
10.95359999999999
 30
0
 11
2.30000096
 21
10.88859999999999
 31
0
  0
LINE
  8
0
 62
7
 10
2.30000096
 20
10.88859999999999
 30
0
 11
1.968227390000001
 21
10.88859999999999
 31
0
  0
LINE
  8
0
 62
7
 10
1.968227390000001
 20
10.95359999999999
 30
0
 11
2.30000096
 21
10.95359999999999
 31
0
  0
LINE
  8
0
 62
7
 10
6.44499977
 20
8.531800069999996
 30
0
 11
5.594998669999999
 21
8.531800069999996
 31
0
  0
LINE
  8
0
 62
7
 10
6.44499977
 20
8.596800069999997
 30
0
 11
6.44499977
 21
8.531800069999996
 31
0
  0
LINE
  8
0
 62
7
 10
5.594998669999999
 20
8.531800069999996
 30
0
 11
5.594998669999999
 21
8.596800069999997
 31
0
  0
LINE
  8
0
 62
7
 10
5.594998669999999
 20
8.596800069999997
 30
0
 11
6.44499977
 21
8.596800069999997
 31
0
  0
LINE
  8
0
 62
7
 10
6.44499977
 20
8.728200059999997
 30
0
 11
5.594999359999998
 21
8.728200059999997
 31
0
  0
LINE
  8
0
 62
7
 10
6.44499977
 20
8.793200059999995
 30
0
 11
6.44499977
 21
8.728200059999997
 31
0
  0
LINE
  8
0
 62
7
 10
5.594999359999998
 20
8.728200059999997
 30
0
 11
5.594999359999998
 21
8.793200059999995
 31
0
  0
LINE
  8
0
 62
7
 10
5.594999359999998
 20
8.793200059999995
 30
0
 11
6.44499977
 21
8.793200059999995
 31
0
  0
LINE
  8
0
 62
7
 10
6.44499977
 20
8.924600059999996
 30
0
 11
5.594999359999998
 21
8.924600059999996
 31
0
  0
LINE
  8
0
 62
7
 10
6.44499977
 20
8.989600059999995
 30
0
 11
6.44499977
 21
8.924600059999996
 31
0
  0
LINE
  8
0
 62
7
 10
5.594999359999998
 20
8.924600059999996
 30
0
 11
5.594999359999998
 21
8.989600059999995
 31
0
  0
LINE
  8
0
 62
7
 10
5.594999359999998
 20
8.989600059999995
 30
0
 11
6.44499977
 21
8.989600059999995
 31
0
  0
LINE
  8
0
 62
7
 10
6.444999849999999
 20
9.121000049999994
 30
0
 11
5.594999700000001
 21
9.121000049999994
 31
0
  0
LINE
  8
0
 62
7
 10
6.444999849999999
 20
9.186000049999995
 30
0
 11
6.444999849999999
 21
9.121000049999994
 31
0
  0
LINE
  8
0
 62
7
 10
5.594999700000001
 20
9.121000049999994
 30
0
 11
5.594999700000001
 21
9.186000049999995
 31
0
  0
LINE
  8
0
 62
7
 10
5.594999700000001
 20
9.186000049999995
 30
0
 11
6.444999849999999
 21
9.186000049999995
 31
0
  0
LINE
  8
0
 62
7
 10
6.444999619999999
 20
9.382400049999996
 30
0
 11
6.444999619999999
 21
9.317400049999994
 31
0
  0
LINE
  8
0
 62
7
 10
5.594999689999999
 20
9.317400049999994
 30
0
 11
5.594999689999999
 21
9.382400049999996
 31
0
  0
LINE
  8
0
 62
7
 10
6.444999619999999
 20
9.317400049999994
 30
0
 11
5.594999689999999
 21
9.317400049999994
 31
0
  0
LINE
  8
0
 62
7
 10
5.594999689999999
 20
9.382400049999996
 30
0
 11
6.444999619999999
 21
9.382400049999996
 31
0
  0
LINE
  8
0
 62
7
 10
6.51194077
 20
9.578800039999997
 30
0
 11
6.51194077
 21
9.513800039999992
 31
0
  0
LINE
  8
0
 62
7
 10
5.75760593
 20
9.513800039999992
 30
0
 11
5.75760593
 21
9.578800039999997
 31
0
  0
LINE
  8
0
 62
7
 10
5.75760593
 20
9.578800039999997
 30
0
 11
6.51194077
 21
9.578800039999997
 31
0
  0
LINE
  8
0
 62
7
 10
6.51194077
 20
9.513800039999992
 30
0
 11
5.75760593
 21
9.513800039999992
 31
0
  0
LINE
  8
0
 62
7
 10
6.632740099999999
 20
9.775200029999995
 30
0
 11
6.632740099999999
 21
9.710200029999996
 31
0
  0
LINE
  8
0
 62
7
 10
6.17398903
 20
9.710200029999996
 30
0
 11
6.17398903
 21
9.775200029999995
 31
0
  0
LINE
  8
0
 62
7
 10
6.17398903
 20
9.775200029999995
 30
0
 11
6.632740099999999
 21
9.775200029999995
 31
0
  0
LINE
  8
0
 62
7
 10
6.632740099999999
 20
9.710200029999996
 30
0
 11
6.17398903
 21
9.710200029999996
 31
0
  0
LINE
  8
0
 62
7
 10
7.041036070000001
 20
9.971600029999996
 30
0
 11
7.041036070000001
 21
9.906600029999995
 31
0
  0
LINE
  8
0
 62
7
 10
6.496832729999999
 20
9.906600029999995
 30
0
 11
6.496832729999999
 21
9.971600029999996
 31
0
  0
LINE
  8
0
 62
7
 10
6.496832729999999
 20
9.971600029999996
 30
0
 11
7.041036070000001
 21
9.971600029999996
 31
0
  0
LINE
  8
0
 62
7
 10
7.041036070000001
 20
9.906600029999995
 30
0
 11
6.496832729999999
 21
9.906600029999995
 31
0
  0
LINE
  8
0
 62
7
 10
7.369999689999999
 20
10.16800001999999
 30
0
 11
7.369999689999999
 21
10.10300001999999
 31
0
  0
LINE
  8
0
 62
7
 10
6.519999690000001
 20
10.10300001999999
 30
0
 11
6.519999690000001
 21
10.16800001999999
 31
0
  0
LINE
  8
0
 62
7
 10
7.369999689999999
 20
10.10300001999999
 30
0
 11
6.519999690000001
 21
10.10300001999999
 31
0
  0
LINE
  8
0
 62
7
 10
6.519999690000001
 20
10.16800001999999
 30
0
 11
7.369999689999999
 21
10.16800001999999
 31
0
  0
LINE
  8
0
 62
7
 10
7.369999689999999
 20
10.29940002
 30
0
 11
6.51999954
 21
10.29940002
 31
0
  0
LINE
  8
0
 62
7
 10
7.369999689999999
 20
10.36440002
 30
0
 11
7.369999689999999
 21
10.29940002
 31
0
  0
LINE
  8
0
 62
7
 10
6.51999954
 20
10.29940002
 30
0
 11
6.51999954
 21
10.36440002
 31
0
  0
LINE
  8
0
 62
7
 10
6.51999954
 20
10.36440002
 30
0
 11
7.369999689999999
 21
10.36440002
 31
0
  0
LINE
  8
0
 62
7
 10
7.369999849999999
 20
10.49580000999999
 30
0
 11
6.519999690000001
 21
10.49580000999999
 31
0
  0
LINE
  8
0
 62
7
 10
7.369999849999999
 20
10.56080000999999
 30
0
 11
7.369999849999999
 21
10.49580000999999
 31
0
  0
LINE
  8
0
 62
7
 10
6.519999690000001
 20
10.49580000999999
 30
0
 11
6.519999690000001
 21
10.56080000999999
 31
0
  0
LINE
  8
0
 62
7
 10
6.519999690000001
 20
10.56080000999999
 30
0
 11
7.369999849999999
 21
10.56080000999999
 31
0
  0
LINE
  8
0
 62
7
 10
7.369999849999999
 20
10.6922
 30
0
 11
6.51999954
 21
10.6922
 31
0
  0
LINE
  8
0
 62
7
 10
7.369999849999999
 20
10.7572
 30
0
 11
7.369999849999999
 21
10.6922
 31
0
  0
LINE
  8
0
 62
7
 10
6.51999954
 20
10.6922
 30
0
 11
6.51999954
 21
10.7572
 31
0
  0
LINE
  8
0
 62
7
 10
6.51999954
 20
10.7572
 30
0
 11
7.369999849999999
 21
10.7572
 31
0
  0
LINE
  8
0
 62
7
  6
DASHED
 10
7.370000000000001
 20
10.88859999999999
 30
0
 11
6.51999954
 21
10.88859999999999
 31
0
  0
LINE
  8
0
 62
7
  6
DASHED
 10
7.370000000000001
 20
10.95359999999999
 30
0
 11
7.370000000000001
 21
10.88859999999999
 31
0
  0
LINE
  8
0
 62
7
  6
DASHED
 10
6.51999954
 20
10.88859999999999
 30
0
 11
6.51999954
 21
10.95359999999999
 31
0
  0
LINE
  8
0
 62
7
  6
DASHED
 10
6.51999954
 20
10.95359999999999
 30
0
 11
7.370000000000001
 21
10.95359999999999
 31
0
  0
LINE
  8
0
 62
7
 10
6.993860673219522
 20
4.044999999990991
 30
0
 11
6.993860673219522
 21
3.4
 31
0
  0
LINE
  8
0
 62
7
 10
7.099515772481223
 20
3.461000000000002
 30
0
 11
6.993860673219522
 21
3.4
 31
0
  0
LINE
  8
0
 62
7
 10
6.888205573957818
 20
3.461000000000002
 30
0
 11
7.099515772481223
 21
3.461000000000002
 31
0
  0
LINE
  8
0
 62
7
 10
6.993860673219522
 20
3.4
 30
0
 11
6.888205573957818
 21
3.461000000000002
 31
0
  0
LINE
  8
0
 62
7
 10
6.445000000009022
 20
4.518860673219521
 30
0
 11
6.520000000019682
 21
4.518860673219521
 31
0
  0
LINE
  8
0
 62
7
 10
5.971139326780482
 20
3.25
 30
0
 11
5.971139326780482
 21
4.044999999971171
 31
0
  0
LINE
  8
0
 62
7
 10
5.595000000000001
 20
3.57
 30
0
 11
5.595000000000001
 21
3.25
 31
0
  0
LINE
  8
0
 62
7
 10
6.445
 20
3.25
 30
0
 11
6.445
 21
3.57
 31
0
  0
LINE
  8
0
 62
7
 10
5.595000000000001
 20
3.25
 30
0
 11
6.445
 21
3.25
 31
0
  0
LINE
  8
0
 62
7
 10
5.595000000000001
 20
3.90152357443545
 30
0
 11
5.595000000000001
 21
3.48
 31
0
  0
LINE
  8
0
 62
7
 10
6.445
 20
3.48
 30
0
 11
6.445
 21
3.678957045864982
 31
0
  0
LINE
  8
0
 62
7
 10
5.595000000000001
 20
3.48
 30
0
 11
6.445
 21
3.48
 31
0
  0
LINE
  8
0
 62
7
 10
5.595000000000001
 20
4.24155157946264
 30
0
 11
5.595000000000001
 21
3.808489440259259
 31
0
  0
LINE
  8
0
 62
7
 10
6.445
 20
3.585922911688781
 30
0
 11
6.445
 21
3.784968852473739
 31
0
  0
LINE
  8
0
 62
7
 10
5.595000000000001
 20
3.808489440259259
 30
0
 11
6.445
 21
3.585922911688781
 31
0
  0
LINE
  8
0
 62
7
 10
5.595000000000001
 20
4.616905287711991
 30
0
 11
5.595000000000001
 21
4.139658279547302
 31
0
  0
LINE
  8
0
 62
7
 10
6.445
 20
3.688470313992581
 30
0
 11
6.445
 21
3.784968852473739
 31
0
  0
LINE
  8
0
 62
7
 10
5.595000000000001
 20
4.139658279547302
 30
0
 11
6.445
 21
3.688470313992581
 31
0
  0
LINE
  8
0
 62
7
 10
5.595000000000001
 20
4.895
 30
0
 11
5.595000000000001
 21
4.49934116854559
 31
0
  0
LINE
  8
0
 62
7
 10
5.865047434734321
 20
4.895
 30
0
 11
5.595000000000001
 21
4.895
 31
0
  0
LINE
  8
0
 62
7
 10
5.595000000000001
 20
4.49934116854559
 30
0
 11
6.445
 21
3.784968852473739
 31
0
  0
LINE
  8
0
 62
7
 10
6.267904068363851
 20
4.895
 30
0
 11
5.757606115506452
 21
4.895
 31
0
  0
LINE
  8
0
 62
7
 10
6.386404435590202
 20
3.930626662762111
 30
0
 11
6.445
 21
3.998723162722682
 31
0
  0
LINE
  8
0
 62
7
 10
5.757606115506452
 20
4.895
 30
0
 11
6.386404435590202
 21
3.930626662762111
 31
0
  0
LINE
  8
0
 62
7
 10
6.632740208713523
 20
4.895
 30
0
 11
6.173988828929892
 21
4.895
 31
0
  0
LINE
  8
0
 62
7
 10
6.427422571947472
 20
4.045000000000001
 30
0
 11
6.484820216911809
 21
4.044999999999999
 31
0
  0
LINE
  8
0
 62
7
 10
6.173988828929892
 20
4.895
 30
0
 11
6.427422571947472
 21
4.045000000000001
 31
0
  0
LINE
  8
0
 62
7
 10
7.041036437118142
 20
4.895
 30
0
 11
6.542607323954622
 21
4.895
 31
0
  0
LINE
  8
0
 62
7
 10
6.542607323954622
 20
4.895
 30
0
 11
6.496832872815141
 21
4.052962241355782
 31
0
  0
LINE
  8
0
 62
7
 10
7.370000000000002
 20
4.895
 30
0
 11
6.942143092784523
 21
4.895
 31
0
  0
LINE
  8
0
 62
7
 10
7.370000000000002
 20
4.67882244231938
 30
0
 11
7.370000000000002
 21
4.895
 31
0
  0
LINE
  8
0
 62
7
 10
6.520000000000002
 20
3.96803931410097
 30
0
 11
6.520000000000002
 21
3.733276015325142
 31
0
  0
LINE
  8
0
 62
7
 10
6.942143092784523
 20
4.895
 30
0
 11
6.52459674273867
 21
3.978133047422132
 31
0
  0
LINE
  8
0
 62
7
 10
7.370000000000002
 20
4.25088817962803
 30
0
 11
7.370000000000002
 21
4.813445433355072
 31
0
  0
LINE
  8
0
 62
7
 10
6.520000000000002
 20
3.867899006360832
 30
0
 11
6.520000000000002
 21
3.64164105556839
 31
0
  0
LINE
  8
0
 62
7
 10
7.370000000000002
 20
4.813445433355072
 30
0
 11
6.520000000000002
 21
3.867899006360832
 31
0
  0
LINE
  8
0
 62
7
 10
7.370000000000002
 20
3.94125817479312
 30
0
 11
7.370000000000002
 21
4.36161915553769
 31
0
  0
LINE
  8
0
 62
7
 10
6.520000000000002
 20
3.75237203147806
 30
0
 11
6.520000000000002
 21
3.533174176370891
 31
0
  0
LINE
  8
0
 62
7
 10
7.370000000000002
 20
4.36161915553769
 30
0
 11
6.520000000000002
 21
3.75237203147806
 31
0
  0
LINE
  8
0
 62
7
 10
7.370000000000002
 20
3.629161762104081
 30
0
 11
7.370000000000002
 21
4.04109308109564
 31
0
  0
LINE
  8
0
 62
7
 10
6.520000000000002
 20
3.633009082673411
 30
0
 11
6.520000000000002
 21
3.422923191665521
 31
0
  0
LINE
  8
0
 62
7
 10
7.370000000000002
 20
4.04109308109564
 30
0
 11
6.520000000000002
 21
3.633009082673411
 31
0
  0
LINE
  8
0
 62
7
 10
7.370000000000002
 20
3.39
 30
0
 11
7.370000000000002
 21
3.72177307710095
 31
0
  0
LINE
  8
0
 62
7
 10
6.520000000000002
 20
3.515534506662379
 30
0
 11
6.520000000000002
 21
3.39
 31
0
  0
LINE
  8
0
 62
7
 10
7.370000000000002
 20
3.72177307710095
 30
0
 11
6.520000000000002
 21
3.515534506662379
 31
0
  0
LINE
  8
0
 62
7
 10
6.445
 20
3.784968852473739
 30
0
 11
6.445
 21
3.998723162722682
 31
0
  0
LINE
  8
0
 62
7
 10
6.445
 20
3.784968852473739
 30
0
 11
6.445
 21
3.790363613907922
 31
0
  0
LINE
  8
0
 62
7
 10
6.445
 20
3.784968852473739
 30
0
 11
6.445
 21
3.902532971640139
 31
0
  0
LINE
  8
0
 62
7
 10
6.445
 20
3.998723162722682
 30
0
 11
6.484820216911809
 21
4.044999999999999
 31
0
  0
LINE
  8
0
 62
7
 10
6.496832872815141
 20
4.052962241355782
 30
0
 11
6.499787102597407
 21
4.044999999999999
 31
0
  0
LINE
  8
0
 62
7
 10
6.52459674273867
 20
3.978133047422132
 30
0
 11
6.520000000000002
 21
3.96803931410097
 31
0
  0
LINE
  8
0
 62
7
 10
6.484820216911809
 20
4.044999999999999
 30
0
 11
6.499787102597407
 21
4.044999999999999
 31
0
  0
LINE
  8
0
 62
7
 10
6.499787102597407
 20
4.044999999999999
 30
0
 11
6.52459674273867
 21
3.978133047422132
 31
0
  0
LINE
  8
0
 62
7
 10
5.648703211974111
 20
4.682332081984899
 30
0
 11
5.648703211974111
 21
4.8023320819849
 31
0
  0
LINE
  8
0
 62
7
 10
5.724303211974111
 20
4.8023320819849
 30
0
 11
5.670303211974112
 21
4.7423320819849
 31
0
  0
LINE
  8
0
 62
7
 10
5.670303211974112
 20
4.7423320819849
 30
0
 11
5.724303211974111
 21
4.682332081984899
 31
0
  0
LINE
  8
0
 62
7
 10
5.670303211974112
 20
4.7423320819849
 30
0
 11
5.648703211974111
 21
4.718332081984901
 31
0
  0
LINE
  8
0
 62
7
 10
5.832303211974113
 20
4.8023320819849
 30
0
 11
5.756703211974111
 21
4.8023320819849
 31
0
  0
LINE
  8
0
 62
7
 10
5.756703211974111
 20
4.8023320819849
 30
0
 11
5.756703211974111
 21
4.7423320819849
 31
0
  0
LINE
  8
0
 62
7
 10
5.756703211974111
 20
4.682332081984899
 30
0
 11
5.832303211974113
 21
4.682332081984899
 31
0
  0
LINE
  8
0
 62
7
 10
5.821503211974112
 20
4.7423320819849
 30
0
 11
5.756703211974111
 21
4.7423320819849
 31
0
  0
LINE
  8
0
 62
7
 10
5.756703211974111
 20
4.7423320819849
 30
0
 11
5.756703211974111
 21
4.682332081984899
 31
0
  0
LINE
  8
0
 62
7
 10
5.864703211974111
 20
4.682332081984899
 30
0
 11
5.864703211974111
 21
4.8023320819849
 31
0
  0
LINE
  8
0
 62
7
 10
5.864703211974111
 20
4.8023320819849
 30
0
 11
5.940303211974111
 21
4.682332081984899
 31
0
  0
LINE
  8
0
 62
7
 10
5.940303211974111
 20
4.682332081984899
 30
0
 11
5.940303211974111
 21
4.8023320819849
 31
0
  0
LINE
  8
0
 62
7
 10
5.972703211974112
 20
4.682332081984899
 30
0
 11
5.972703211974112
 21
4.8023320819849
 31
0
  0
LINE
  8
0
 62
7
 10
5.972703211974112
 20
4.8023320819849
 30
0
 11
6.048303211974112
 21
4.682332081984899
 31
0
  0
LINE
  8
0
 62
7
 10
6.048303211974112
 20
4.682332081984899
 30
0
 11
6.048303211974112
 21
4.8023320819849
 31
0
  0
LINE
  8
0
 62
7
 10
6.156303211974111
 20
4.766332081984901
 30
0
 11
6.153603211974111
 21
4.7783320819849
 31
0
  0
LINE
  8
0
 62
7
 10
6.153603211974111
 20
4.7783320819849
 30
0
 11
6.148203211974111
 21
4.7873320819849
 31
0
  0
LINE
  8
0
 62
7
 10
6.148203211974111
 20
4.7873320819849
 30
0
 11
6.142803211974112
 21
4.793332081984901
 31
0
  0
LINE
  8
0
 62
7
 10
6.142803211974112
 20
4.793332081984901
 30
0
 11
6.134703211974111
 21
4.799332081984899
 31
0
  0
LINE
  8
0
 62
7
 10
6.134703211974111
 20
4.799332081984899
 30
0
 11
6.126603211974111
 21
4.8023320819849
 31
0
  0
LINE
  8
0
 62
7
 10
6.126603211974111
 20
4.8023320819849
 30
0
 11
6.110403211974112
 21
4.8023320819849
 31
0
  0
LINE
  8
0
 62
7
 10
6.110403211974112
 20
4.8023320819849
 30
0
 11
6.102303211974112
 21
4.799332081984899
 31
0
  0
LINE
  8
0
 62
7
 10
6.102303211974112
 20
4.799332081984899
 30
0
 11
6.094203211974111
 21
4.793332081984901
 31
0
  0
LINE
  8
0
 62
7
 10
6.094203211974111
 20
4.793332081984901
 30
0
 11
6.088803211974112
 21
4.7873320819849
 31
0
  0
LINE
  8
0
 62
7
 10
6.088803211974112
 20
4.7873320819849
 30
0
 11
6.083403211974111
 21
4.7783320819849
 31
0
  0
LINE
  8
0
 62
7
 10
6.083403211974111
 20
4.7783320819849
 30
0
 11
6.080703211974111
 21
4.766332081984901
 31
0
  0
LINE
  8
0
 62
7
 10
6.080703211974111
 20
4.766332081984901
 30
0
 11
6.080703211974111
 21
4.718332081984901
 31
0
  0
LINE
  8
0
 62
7
 10
6.080703211974111
 20
4.718332081984901
 30
0
 11
6.083403211974111
 21
4.7063320819849
 31
0
  0
LINE
  8
0
 62
7
 10
6.083403211974111
 20
4.7063320819849
 30
0
 11
6.088803211974112
 21
4.697332081984899
 31
0
  0
LINE
  8
0
 62
7
 10
6.088803211974112
 20
4.697332081984899
 30
0
 11
6.094203211974111
 21
4.691332081984901
 31
0
  0
LINE
  8
0
 62
7
 10
6.094203211974111
 20
4.691332081984901
 30
0
 11
6.102303211974112
 21
4.6853320819849
 31
0
  0
LINE
  8
0
 62
7
 10
6.102303211974112
 20
4.6853320819849
 30
0
 11
6.110403211974112
 21
4.682332081984899
 31
0
  0
LINE
  8
0
 62
7
 10
6.110403211974112
 20
4.682332081984899
 30
0
 11
6.126603211974111
 21
4.682332081984899
 31
0
  0
LINE
  8
0
 62
7
 10
6.126603211974111
 20
4.682332081984899
 30
0
 11
6.134703211974111
 21
4.6853320819849
 31
0
  0
LINE
  8
0
 62
7
 10
6.134703211974111
 20
4.6853320819849
 30
0
 11
6.142803211974112
 21
4.691332081984901
 31
0
  0
LINE
  8
0
 62
7
 10
6.142803211974112
 20
4.691332081984901
 30
0
 11
6.148203211974111
 21
4.697332081984899
 31
0
  0
LINE
  8
0
 62
7
 10
6.148203211974111
 20
4.697332081984899
 30
0
 11
6.153603211974111
 21
4.7063320819849
 31
0
  0
LINE
  8
0
 62
7
 10
6.153603211974111
 20
4.7063320819849
 30
0
 11
6.156303211974111
 21
4.718332081984901
 31
0
  0
LINE
  8
0
 62
7
 10
6.156303211974111
 20
4.718332081984901
 30
0
 11
6.156303211974111
 21
4.7423320819849
 31
0
  0
LINE
  8
0
 62
7
 10
6.156303211974111
 20
4.7423320819849
 30
0
 11
6.123903211974111
 21
4.7423320819849
 31
0
  0
LINE
  8
0
 62
7
 10
6.234603211974111
 20
4.8023320819849
 30
0
 11
6.218403211974111
 21
4.8023320819849
 31
0
  0
LINE
  8
0
 62
7
 10
6.218403211974111
 20
4.8023320819849
 30
0
 11
6.210303211974111
 21
4.799332081984899
 31
0
  0
LINE
  8
0
 62
7
 10
6.210303211974111
 20
4.799332081984899
 30
0
 11
6.202203211974111
 21
4.793332081984901
 31
0
  0
LINE
  8
0
 62
7
 10
6.202203211974111
 20
4.793332081984901
 30
0
 11
6.196803211974111
 21
4.7873320819849
 31
0
  0
LINE
  8
0
 62
7
 10
6.196803211974111
 20
4.7873320819849
 30
0
 11
6.191403211974112
 21
4.7783320819849
 31
0
  0
LINE
  8
0
 62
7
 10
6.191403211974112
 20
4.7783320819849
 30
0
 11
6.188703211974111
 21
4.766332081984901
 31
0
  0
LINE
  8
0
 62
7
 10
6.188703211974111
 20
4.766332081984901
 30
0
 11
6.188703211974111
 21
4.718332081984901
 31
0
  0
LINE
  8
0
 62
7
 10
6.188703211974111
 20
4.718332081984901
 30
0
 11
6.191403211974112
 21
4.7063320819849
 31
0
  0
LINE
  8
0
 62
7
 10
6.191403211974112
 20
4.7063320819849
 30
0
 11
6.196803211974111
 21
4.697332081984899
 31
0
  0
LINE
  8
0
 62
7
 10
6.196803211974111
 20
4.697332081984899
 30
0
 11
6.202203211974111
 21
4.691332081984901
 31
0
  0
LINE
  8
0
 62
7
 10
6.202203211974111
 20
4.691332081984901
 30
0
 11
6.210303211974111
 21
4.6853320819849
 31
0
  0
LINE
  8
0
 62
7
 10
6.210303211974111
 20
4.6853320819849
 30
0
 11
6.218403211974111
 21
4.682332081984899
 31
0
  0
LINE
  8
0
 62
7
 10
6.218403211974111
 20
4.682332081984899
 30
0
 11
6.234603211974111
 21
4.682332081984899
 31
0
  0
LINE
  8
0
 62
7
 10
6.234603211974111
 20
4.682332081984899
 30
0
 11
6.242703211974113
 21
4.6853320819849
 31
0
  0
LINE
  8
0
 62
7
 10
6.242703211974113
 20
4.6853320819849
 30
0
 11
6.250803211974112
 21
4.691332081984901
 31
0
  0
LINE
  8
0
 62
7
 10
6.250803211974112
 20
4.691332081984901
 30
0
 11
6.256203211974112
 21
4.697332081984899
 31
0
  0
LINE
  8
0
 62
7
 10
6.256203211974112
 20
4.697332081984899
 30
0
 11
6.261603211974112
 21
4.7063320819849
 31
0
  0
LINE
  8
0
 62
7
 10
6.261603211974112
 20
4.7063320819849
 30
0
 11
6.264303211974112
 21
4.718332081984901
 31
0
  0
LINE
  8
0
 62
7
 10
6.264303211974112
 20
4.718332081984901
 30
0
 11
6.264303211974112
 21
4.766332081984901
 31
0
  0
LINE
  8
0
 62
7
 10
6.264303211974112
 20
4.766332081984901
 30
0
 11
6.261603211974112
 21
4.7783320819849
 31
0
  0
LINE
  8
0
 62
7
 10
6.261603211974112
 20
4.7783320819849
 30
0
 11
6.256203211974112
 21
4.7873320819849
 31
0
  0
LINE
  8
0
 62
7
 10
6.256203211974112
 20
4.7873320819849
 30
0
 11
6.250803211974112
 21
4.793332081984901
 31
0
  0
LINE
  8
0
 62
7
 10
6.250803211974112
 20
4.793332081984901
 30
0
 11
6.242703211974113
 21
4.799332081984899
 31
0
  0
LINE
  8
0
 62
7
 10
6.242703211974113
 20
4.799332081984899
 30
0
 11
6.234603211974111
 21
4.8023320819849
 31
0
  0
LINE
  8
0
 62
7
 10
6.285903211974111
 20
4.8023320819849
 30
0
 11
6.323703211974112
 21
4.8023320819849
 31
0
  0
LINE
  8
0
 62
7
 10
6.323703211974112
 20
4.8023320819849
 30
0
 11
6.323703211974112
 21
4.682332081984899
 31
0
  0
LINE
  8
0
 62
7
 10
6.323703211974112
 20
4.8023320819849
 30
0
 11
6.361503211974112
 21
4.8023320819849
 31
0
  0
LINE
  8
0
 62
7
 10
6.393903211974112
 20
4.8023320819849
 30
0
 11
6.431703211974112
 21
4.8023320819849
 31
0
  0
LINE
  8
0
 62
7
 10
6.431703211974112
 20
4.8023320819849
 30
0
 11
6.431703211974112
 21
4.682332081984899
 31
0
  0
LINE
  8
0
 62
7
 10
6.431703211974112
 20
4.8023320819849
 30
0
 11
6.469503211974112
 21
4.8023320819849
 31
0
  0
LINE
  8
0
 62
7
 10
6.588303211974112
 20
4.7243320819849
 30
0
 11
6.642303211974111
 21
4.7243320819849
 31
0
  0
LINE
  8
0
 62
7
 10
6.750303211974111
 20
4.8023320819849
 30
0
 11
6.788103211974111
 21
4.8023320819849
 31
0
  0
LINE
  8
0
 62
7
 10
6.788103211974111
 20
4.8023320819849
 30
0
 11
6.788103211974111
 21
4.682332081984899
 31
0
  0
LINE
  8
0
 62
7
 10
6.788103211974111
 20
4.8023320819849
 30
0
 11
6.825903211974111
 21
4.8023320819849
 31
0
  0
LINE
  8
0
 62
7
 10
6.858303211974111
 20
4.682332081984899
 30
0
 11
6.858303211974111
 21
4.8023320819849
 31
0
  0
LINE
  8
0
 62
7
 10
6.858303211974111
 20
4.8023320819849
 30
0
 11
6.909603211974112
 21
4.8023320819849
 31
0
  0
LINE
  8
0
 62
7
 10
6.909603211974112
 20
4.8023320819849
 30
0
 11
6.920403211974111
 21
4.799332081984899
 31
0
  0
LINE
  8
0
 62
7
 10
6.920403211974111
 20
4.799332081984899
 30
0
 11
6.92850321197411
 21
4.793332081984901
 31
0
  0
LINE
  8
0
 62
7
 10
6.92850321197411
 20
4.793332081984901
 30
0
 11
6.931203211974111
 21
4.7873320819849
 31
0
  0
LINE
  8
0
 62
7
 10
6.931203211974111
 20
4.7873320819849
 30
0
 11
6.933903211974112
 21
4.7783320819849
 31
0
  0
LINE
  8
0
 62
7
 10
6.933903211974112
 20
4.7783320819849
 30
0
 11
6.933903211974112
 21
4.766332081984901
 31
0
  0
LINE
  8
0
 62
7
 10
6.933903211974112
 20
4.766332081984901
 30
0
 11
6.931203211974111
 21
4.7573320819849
 31
0
  0
LINE
  8
0
 62
7
 10
6.931203211974111
 20
4.7573320819849
 30
0
 11
6.92850321197411
 21
4.751332081984901
 31
0
  0
LINE
  8
0
 62
7
 10
6.92850321197411
 20
4.751332081984901
 30
0
 11
6.920403211974111
 21
4.7453320819849
 31
0
  0
LINE
  8
0
 62
7
 10
6.920403211974111
 20
4.7453320819849
 30
0
 11
6.909603211974112
 21
4.7423320819849
 31
0
  0
LINE
  8
0
 62
7
 10
6.909603211974112
 20
4.7423320819849
 30
0
 11
6.901503211974111
 21
4.7423320819849
 31
0
  0
LINE
  8
0
 62
7
 10
6.901503211974111
 20
4.7423320819849
 30
0
 11
6.933903211974112
 21
4.682332081984899
 31
0
  0
LINE
  8
0
 62
7
 10
6.901503211974111
 20
4.7423320819849
 30
0
 11
6.858303211974111
 21
4.7423320819849
 31
0
  0
LINE
  8
0
 62
7
 10
7.03110321197411
 20
4.8023320819849
 30
0
 11
6.95550321197411
 21
4.8023320819849
 31
0
  0
LINE
  8
0
 62
7
 10
6.95550321197411
 20
4.8023320819849
 30
0
 11
6.95550321197411
 21
4.7423320819849
 31
0
  0
LINE
  8
0
 62
7
 10
6.95550321197411
 20
4.682332081984899
 30
0
 11
7.03110321197411
 21
4.682332081984899
 31
0
  0
LINE
  8
0
 62
7
 10
7.020303211974111
 20
4.7423320819849
 30
0
 11
6.95550321197411
 21
4.7423320819849
 31
0
  0
LINE
  8
0
 62
7
 10
6.95550321197411
 20
4.7423320819849
 30
0
 11
6.95550321197411
 21
4.682332081984899
 31
0
  0
LINE
  8
0
 62
7
 10
7.063503211974112
 20
4.682332081984899
 30
0
 11
7.063503211974112
 21
4.7423320819849
 31
0
  0
LINE
  8
0
 62
7
 10
7.063503211974112
 20
4.8023320819849
 30
0
 11
7.114803211974112
 21
4.8023320819849
 31
0
  0
LINE
  8
0
 62
7
 10
7.114803211974112
 20
4.8023320819849
 30
0
 11
7.125603211974111
 21
4.799332081984899
 31
0
  0
LINE
  8
0
 62
7
 10
7.125603211974111
 20
4.799332081984899
 30
0
 11
7.133703211974112
 21
4.793332081984901
 31
0
  0
LINE
  8
0
 62
7
 10
7.133703211974112
 20
4.793332081984901
 30
0
 11
7.136403211974112
 21
4.7873320819849
 31
0
  0
LINE
  8
0
 62
7
 10
7.136403211974112
 20
4.7873320819849
 30
0
 11
7.139103211974112
 21
4.7783320819849
 31
0
  0
LINE
  8
0
 62
7
 10
7.139103211974112
 20
4.7783320819849
 30
0
 11
7.139103211974112
 21
4.766332081984901
 31
0
  0
LINE
  8
0
 62
7
 10
7.139103211974112
 20
4.766332081984901
 30
0
 11
7.136403211974112
 21
4.7573320819849
 31
0
  0
LINE
  8
0
 62
7
 10
7.136403211974112
 20
4.7573320819849
 30
0
 11
7.133703211974112
 21
4.751332081984901
 31
0
  0
LINE
  8
0
 62
7
 10
7.133703211974112
 20
4.751332081984901
 30
0
 11
7.125603211974111
 21
4.7453320819849
 31
0
  0
LINE
  8
0
 62
7
 10
7.125603211974111
 20
4.7453320819849
 30
0
 11
7.114803211974112
 21
4.7423320819849
 31
0
  0
LINE
  8
0
 62
7
 10
7.114803211974112
 20
4.7423320819849
 30
0
 11
7.063503211974112
 21
4.7423320819849
 31
0
  0
LINE
  8
0
 62
7
 10
7.063503211974112
 20
4.7423320819849
 30
0
 11
7.063503211974112
 21
4.8023320819849
 31
0
  0
LINE
  8
0
 62
7
 10
7.160703211974111
 20
4.682332081984899
 30
0
 11
7.160703211974111
 21
4.7423320819849
 31
0
  0
LINE
  8
0
 62
7
 10
7.160703211974111
 20
4.8023320819849
 30
0
 11
7.212003211974111
 21
4.8023320819849
 31
0
  0
LINE
  8
0
 62
7
 10
7.212003211974111
 20
4.8023320819849
 30
0
 11
7.222803211974112
 21
4.799332081984899
 31
0
  0
LINE
  8
0
 62
7
 10
7.222803211974112
 20
4.799332081984899
 30
0
 11
7.230903211974111
 21
4.793332081984901
 31
0
  0
LINE
  8
0
 62
7
 10
7.230903211974111
 20
4.793332081984901
 30
0
 11
7.233603211974111
 21
4.7873320819849
 31
0
  0
LINE
  8
0
 62
7
 10
7.233603211974111
 20
4.7873320819849
 30
0
 11
7.236303211974111
 21
4.7783320819849
 31
0
  0
LINE
  8
0
 62
7
 10
7.236303211974111
 20
4.7783320819849
 30
0
 11
7.236303211974111
 21
4.766332081984901
 31
0
  0
LINE
  8
0
 62
7
 10
7.236303211974111
 20
4.766332081984901
 30
0
 11
7.233603211974111
 21
4.7573320819849
 31
0
  0
LINE
  8
0
 62
7
 10
7.233603211974111
 20
4.7573320819849
 30
0
 11
7.230903211974111
 21
4.751332081984901
 31
0
  0
LINE
  8
0
 62
7
 10
7.230903211974111
 20
4.751332081984901
 30
0
 11
7.222803211974112
 21
4.7453320819849
 31
0
  0
LINE
  8
0
 62
7
 10
7.222803211974112
 20
4.7453320819849
 30
0
 11
7.212003211974111
 21
4.7423320819849
 31
0
  0
LINE
  8
0
 62
7
 10
7.212003211974111
 20
4.7423320819849
 30
0
 11
7.160703211974111
 21
4.7423320819849
 31
0
  0
LINE
  8
0
 62
7
 10
7.160703211974111
 20
4.7423320819849
 30
0
 11
7.160703211974111
 21
4.8023320819849
 31
0
  0
LINE
  8
0
 62
7
 10
7.333503211974111
 20
4.8023320819849
 30
0
 11
7.257903211974112
 21
4.8023320819849
 31
0
  0
LINE
  8
0
 62
7
 10
7.257903211974112
 20
4.8023320819849
 30
0
 11
7.257903211974112
 21
4.7423320819849
 31
0
  0
LINE
  8
0
 62
7
 10
7.257903211974112
 20
4.682332081984899
 30
0
 11
7.333503211974111
 21
4.682332081984899
 31
0
  0
LINE
  8
0
 62
7
 10
7.322703211974112
 20
4.7423320819849
 30
0
 11
7.257903211974112
 21
4.7423320819849
 31
0
  0
LINE
  8
0
 62
7
 10
7.257903211974112
 20
4.7423320819849
 30
0
 11
7.257903211974112
 21
4.682332081984899
 31
0
  0
LINE
  8
0
 62
7
 10
4.375
 20
2.890000000000001
 30
0
 11
4.375
 21
3.01
 31
0
  0
LINE
  8
0
 62
7
 10
4.450600000000001
 20
3.01
 30
0
 11
4.3966
 21
2.95
 31
0
  0
LINE
  8
0
 62
7
 10
4.3966
 20
2.95
 30
0
 11
4.450600000000001
 21
2.890000000000001
 31
0
  0
LINE
  8
0
 62
7
 10
4.3966
 20
2.95
 30
0
 11
4.375
 21
2.926
 31
0
  0
LINE
  8
0
 62
7
 10
4.483
 20
3.01
 30
0
 11
4.483
 21
2.95
 31
0
  0
LINE
  8
0
 62
7
 10
4.483
 20
2.95
 30
0
 11
4.558600000000001
 21
2.95
 31
0
  0
LINE
  8
0
 62
7
 10
4.558600000000001
 20
3.01
 30
0
 11
4.558600000000001
 21
2.95
 31
0
  0
LINE
  8
0
 62
7
 10
4.558600000000001
 20
2.95
 30
0
 11
4.558600000000001
 21
2.890000000000001
 31
0
  0
LINE
  8
0
 62
7
 10
4.483
 20
2.95
 30
0
 11
4.483
 21
2.890000000000001
 31
0
  0
LINE
  8
0
 62
7
 10
4.591
 20
3.01
 30
0
 11
4.6207
 21
2.890000000000001
 31
0
  0
LINE
  8
0
 62
7
 10
4.6207
 20
2.890000000000001
 30
0
 11
4.645
 21
3.01
 31
0
  0
LINE
  8
0
 62
7
 10
4.645
 20
3.01
 30
0
 11
4.669300000000002
 21
2.890000000000001
 31
0
  0
LINE
  8
0
 62
7
 10
4.669300000000002
 20
2.890000000000001
 30
0
 11
4.699000000000001
 21
3.01
 31
0
  0
LINE
  8
0
 62
7
 10
4.720600000000001
 20
2.974
 30
0
 11
4.753
 21
3.01
 31
0
  0
LINE
  8
0
 62
7
 10
4.753
 20
3.01
 30
0
 11
4.753
 21
2.890000000000001
 31
0
  0
LINE
  8
0
 62
7
 10
4.8124
 20
3.01
 30
0
 11
4.8232
 21
3.01
 31
0
  0
LINE
  8
0
 62
7
 10
4.8232
 20
3.01
 30
0
 11
4.8313
 21
3.007
 31
0
  0
LINE
  8
0
 62
7
 10
4.8313
 20
3.007
 30
0
 11
4.8367
 21
3.001
 31
0
  0
LINE
  8
0
 62
7
 10
4.8367
 20
3.001
 30
0
 11
4.842099999999999
 21
2.992
 31
0
  0
LINE
  8
0
 62
7
 10
4.842099999999999
 20
2.992
 30
0
 11
4.842099999999999
 21
2.98
 31
0
  0
LINE
  8
0
 62
7
 10
4.842099999999999
 20
2.98
 30
0
 11
4.8394
 21
2.974
 31
0
  0
LINE
  8
0
 62
7
 10
4.8394
 20
2.974
 30
0
 11
4.8313
 21
2.965
 31
0
  0
LINE
  8
0
 62
7
 10
4.8313
 20
2.965
 30
0
 11
4.8232
 21
2.962
 31
0
  0
LINE
  8
0
 62
7
 10
4.8232
 20
2.962
 30
0
 11
4.8124
 21
2.962
 31
0
  0
LINE
  8
0
 62
7
 10
4.8124
 20
2.962
 30
0
 11
4.8043
 21
2.965
 31
0
  0
LINE
  8
0
 62
7
 10
4.8043
 20
2.965
 30
0
 11
4.7962
 21
2.974
 31
0
  0
LINE
  8
0
 62
7
 10
4.7962
 20
2.974
 30
0
 11
4.793500000000001
 21
2.98
 31
0
  0
LINE
  8
0
 62
7
 10
4.793500000000001
 20
2.98
 30
0
 11
4.793500000000001
 21
2.992
 31
0
  0
LINE
  8
0
 62
7
 10
4.793500000000001
 20
2.992
 30
0
 11
4.7989
 21
3.001
 31
0
  0
LINE
  8
0
 62
7
 10
4.7989
 20
3.001
 30
0
 11
4.8043
 21
3.007
 31
0
  0
LINE
  8
0
 62
7
 10
4.8043
 20
3.007
 30
0
 11
4.8124
 21
3.01
 31
0
  0
LINE
  8
0
 62
7
 10
4.8124
 20
2.962
 30
0
 11
4.7989
 21
2.956
 31
0
  0
LINE
  8
0
 62
7
 10
4.7989
 20
2.956
 30
0
 11
4.7908
 21
2.947
 31
0
  0
LINE
  8
0
 62
7
 10
4.7908
 20
2.947
 30
0
 11
4.785400000000001
 21
2.935
 31
0
  0
LINE
  8
0
 62
7
 10
4.785400000000001
 20
2.935
 30
0
 11
4.785400000000001
 21
2.917
 31
0
  0
LINE
  8
0
 62
7
 10
4.785400000000001
 20
2.917
 30
0
 11
4.7908
 21
2.905
 31
0
  0
LINE
  8
0
 62
7
 10
4.7908
 20
2.905
 30
0
 11
4.7989
 21
2.896
 31
0
  0
LINE
  8
0
 62
7
 10
4.7989
 20
2.896
 30
0
 11
4.809700000000001
 21
2.890000000000001
 31
0
  0
LINE
  8
0
 62
7
 10
4.809700000000001
 20
2.890000000000001
 30
0
 11
4.825900000000001
 21
2.890000000000001
 31
0
  0
LINE
  8
0
 62
7
 10
4.825900000000001
 20
2.890000000000001
 30
0
 11
4.8367
 21
2.896
 31
0
  0
LINE
  8
0
 62
7
 10
4.8367
 20
2.896
 30
0
 11
4.8448
 21
2.905
 31
0
  0
LINE
  8
0
 62
7
 10
4.8448
 20
2.905
 30
0
 11
4.850200000000001
 21
2.917
 31
0
  0
LINE
  8
0
 62
7
 10
4.850200000000001
 20
2.917
 30
0
 11
4.850200000000001
 21
2.935
 31
0
  0
LINE
  8
0
 62
7
 10
4.850200000000001
 20
2.935
 30
0
 11
4.8448
 21
2.947
 31
0
  0
LINE
  8
0
 62
7
 10
4.8448
 20
2.947
 30
0
 11
4.8367
 21
2.956
 31
0
  0
LINE
  8
0
 62
7
 10
4.8367
 20
2.956
 30
0
 11
4.8232
 21
2.962
 31
0
  0
LINE
  8
0
 62
7
 10
4.920400000000001
 20
3.01
 30
0
 11
4.9312
 21
3.01
 31
0
  0
LINE
  8
0
 62
7
 10
4.9312
 20
3.01
 30
0
 11
4.939299999999999
 21
3.007
 31
0
  0
LINE
  8
0
 62
7
 10
4.939299999999999
 20
3.007
 30
0
 11
4.944700000000001
 21
3.001
 31
0
  0
LINE
  8
0
 62
7
 10
4.944700000000001
 20
3.001
 30
0
 11
4.950100000000001
 21
2.992
 31
0
  0
LINE
  8
0
 62
7
 10
4.950100000000001
 20
2.992
 30
0
 11
4.950100000000001
 21
2.98
 31
0
  0
LINE
  8
0
 62
7
 10
4.950100000000001
 20
2.98
 30
0
 11
4.9474
 21
2.974
 31
0
  0
LINE
  8
0
 62
7
 10
4.9474
 20
2.974
 30
0
 11
4.939299999999999
 21
2.965
 31
0
  0
LINE
  8
0
 62
7
 10
4.939299999999999
 20
2.965
 30
0
 11
4.9312
 21
2.962
 31
0
  0
LINE
  8
0
 62
7
 10
4.9312
 20
2.962
 30
0
 11
4.920400000000001
 21
2.962
 31
0
  0
LINE
  8
0
 62
7
 10
4.920400000000001
 20
2.962
 30
0
 11
4.912300000000001
 21
2.965
 31
0
  0
LINE
  8
0
 62
7
 10
4.912300000000001
 20
2.965
 30
0
 11
4.9042
 21
2.974
 31
0
  0
LINE
  8
0
 62
7
 10
4.9042
 20
2.974
 30
0
 11
4.9015
 21
2.98
 31
0
  0
LINE
  8
0
 62
7
 10
4.9015
 20
2.98
 30
0
 11
4.9015
 21
2.992
 31
0
  0
LINE
  8
0
 62
7
 10
4.9015
 20
2.992
 30
0
 11
4.9069
 21
3.001
 31
0
  0
LINE
  8
0
 62
7
 10
4.9069
 20
3.001
 30
0
 11
4.912300000000001
 21
3.007
 31
0
  0
LINE
  8
0
 62
7
 10
4.912300000000001
 20
3.007
 30
0
 11
4.920400000000001
 21
3.01
 31
0
  0
LINE
  8
0
 62
7
 10
4.920400000000001
 20
2.962
 30
0
 11
4.9069
 21
2.956
 31
0
  0
LINE
  8
0
 62
7
 10
4.9069
 20
2.956
 30
0
 11
4.8988
 21
2.947
 31
0
  0
LINE
  8
0
 62
7
 10
4.8988
 20
2.947
 30
0
 11
4.8934
 21
2.935
 31
0
  0
LINE
  8
0
 62
7
 10
4.8934
 20
2.935
 30
0
 11
4.8934
 21
2.917
 31
0
  0
LINE
  8
0
 62
7
 10
4.8934
 20
2.917
 30
0
 11
4.8988
 21
2.905
 31
0
  0
LINE
  8
0
 62
7
 10
4.8988
 20
2.905
 30
0
 11
4.9069
 21
2.896
 31
0
  0
LINE
  8
0
 62
7
 10
4.9069
 20
2.896
 30
0
 11
4.9177
 21
2.890000000000001
 31
0
  0
LINE
  8
0
 62
7
 10
4.9177
 20
2.890000000000001
 30
0
 11
4.9339
 21
2.890000000000001
 31
0
  0
LINE
  8
0
 62
7
 10
4.9339
 20
2.890000000000001
 30
0
 11
4.944700000000001
 21
2.896
 31
0
  0
LINE
  8
0
 62
7
 10
4.944700000000001
 20
2.896
 30
0
 11
4.9528
 21
2.905
 31
0
  0
LINE
  8
0
 62
7
 10
4.9528
 20
2.905
 30
0
 11
4.958200000000001
 21
2.917
 31
0
  0
LINE
  8
0
 62
7
 10
4.958200000000001
 20
2.917
 30
0
 11
4.958200000000001
 21
2.935
 31
0
  0
LINE
  8
0
 62
7
 10
4.958200000000001
 20
2.935
 30
0
 11
4.9528
 21
2.947
 31
0
  0
LINE
  8
0
 62
7
 10
4.9528
 20
2.947
 30
0
 11
4.944700000000001
 21
2.956
 31
0
  0
LINE
  8
0
 62
7
 10
4.944700000000001
 20
2.956
 30
0
 11
4.9312
 21
2.962
 31
0
  0
LINE
  8
0
 62
7
 10
5.0014
 20
2.890000000000001
 30
0
 11
5.0014
 21
3.01
 31
0
  0
LINE
  8
0
 62
7
 10
5.0014
 20
3.01
 30
0
 11
5.052700000000001
 21
3.01
 31
0
  0
LINE
  8
0
 62
7
 10
5.052700000000001
 20
3.01
 30
0
 11
5.0635
 21
3.007
 31
0
  0
LINE
  8
0
 62
7
 10
5.0635
 20
3.007
 30
0
 11
5.071600000000001
 21
3.001
 31
0
  0
LINE
  8
0
 62
7
 10
5.071600000000001
 20
3.001
 30
0
 11
5.0743
 21
2.995
 31
0
  0
LINE
  8
0
 62
7
 10
5.0743
 20
2.995
 30
0
 11
5.077000000000001
 21
2.986
 31
0
  0
LINE
  8
0
 62
7
 10
5.077000000000001
 20
2.986
 30
0
 11
5.077000000000001
 21
2.974
 31
0
  0
LINE
  8
0
 62
7
 10
5.077000000000001
 20
2.974
 30
0
 11
5.0743
 21
2.965
 31
0
  0
LINE
  8
0
 62
7
 10
5.0743
 20
2.965
 30
0
 11
5.071600000000001
 21
2.959
 31
0
  0
LINE
  8
0
 62
7
 10
5.071600000000001
 20
2.959
 30
0
 11
5.0635
 21
2.953
 31
0
  0
LINE
  8
0
 62
7
 10
5.0635
 20
2.953
 30
0
 11
5.052700000000001
 21
2.95
 31
0
  0
LINE
  8
0
 62
7
 10
5.052700000000001
 20
2.95
 30
0
 11
5.0446
 21
2.95
 31
0
  0
LINE
  8
0
 62
7
 10
5.0446
 20
2.95
 30
0
 11
5.077000000000001
 21
2.890000000000001
 31
0
  0
LINE
  8
0
 62
7
 10
5.0446
 20
2.95
 30
0
 11
5.0014
 21
2.95
 31
0
  0
LINE
  8
0
 62
7
 10
5.098600000000001
 20
2.992
 30
0
 11
5.104
 21
3.001
 31
0
  0
LINE
  8
0
 62
7
 10
5.104
 20
3.001
 30
0
 11
5.1121
 21
3.007
 31
0
  0
LINE
  8
0
 62
7
 10
5.1121
 20
3.007
 30
0
 11
5.122900000000001
 21
3.01
 31
0
  0
LINE
  8
0
 62
7
 10
5.122900000000001
 20
3.01
 30
0
 11
5.139100000000001
 21
3.01
 31
0
  0
LINE
  8
0
 62
7
 10
5.139100000000001
 20
3.01
 30
0
 11
5.147200000000002
 21
3.007
 31
0
  0
LINE
  8
0
 62
7
 10
5.147200000000002
 20
3.007
 30
0
 11
5.155300000000001
 21
3.001
 31
0
  0
LINE
  8
0
 62
7
 10
5.155300000000001
 20
3.001
 30
0
 11
5.160700000000001
 21
2.992
 31
0
  0
LINE
  8
0
 62
7
 10
5.160700000000001
 20
2.992
 30
0
 11
5.163400000000001
 21
2.98
 31
0
  0
LINE
  8
0
 62
7
 10
5.163400000000001
 20
2.98
 30
0
 11
5.163400000000001
 21
2.971
 31
0
  0
LINE
  8
0
 62
7
 10
5.163400000000001
 20
2.971
 30
0
 11
5.160700000000001
 21
2.962
 31
0
  0
LINE
  8
0
 62
7
 10
5.160700000000001
 20
2.962
 30
0
 11
5.155300000000001
 21
2.956
 31
0
  0
LINE
  8
0
 62
7
 10
5.155300000000001
 20
2.956
 30
0
 11
5.141800000000002
 21
2.95
 31
0
  0
LINE
  8
0
 62
7
 10
5.122900000000001
 20
2.95
 30
0
 11
5.141800000000002
 21
2.95
 31
0
  0
LINE
  8
0
 62
7
 10
5.141800000000002
 20
2.95
 30
0
 11
5.155300000000001
 21
2.944
 31
0
  0
LINE
  8
0
 62
7
 10
5.155300000000001
 20
2.944
 30
0
 11
5.160700000000001
 21
2.938
 31
0
  0
LINE
  8
0
 62
7
 10
5.160700000000001
 20
2.938
 30
0
 11
5.163400000000001
 21
2.929
 31
0
  0
LINE
  8
0
 62
7
 10
5.163400000000001
 20
2.929
 30
0
 11
5.163400000000001
 21
2.92
 31
0
  0
LINE
  8
0
 62
7
 10
5.163400000000001
 20
2.92
 30
0
 11
5.160700000000001
 21
2.908
 31
0
  0
LINE
  8
0
 62
7
 10
5.160700000000001
 20
2.908
 30
0
 11
5.155300000000001
 21
2.899
 31
0
  0
LINE
  8
0
 62
7
 10
5.155300000000001
 20
2.899
 30
0
 11
5.147200000000002
 21
2.893
 31
0
  0
LINE
  8
0
 62
7
 10
5.147200000000002
 20
2.893
 30
0
 11
5.139100000000001
 21
2.890000000000001
 31
0
  0
LINE
  8
0
 62
7
 10
5.139100000000001
 20
2.890000000000001
 30
0
 11
5.122900000000001
 21
2.890000000000001
 31
0
  0
LINE
  8
0
 62
7
 10
5.122900000000001
 20
2.890000000000001
 30
0
 11
5.1121
 21
2.893
 31
0
  0
LINE
  8
0
 62
7
 10
5.1121
 20
2.893
 30
0
 11
5.104
 21
2.899
 31
0
  0
LINE
  8
0
 62
7
 10
5.104
 20
2.899
 30
0
 11
5.098600000000001
 21
2.908
 31
0
  0
LINE
  8
0
 62
7
 10
6.875
 20
2.890000000000001
 30
0
 11
6.875
 21
2.99
 31
0
  0
LINE
  8
0
 62
7
 10
6.875
 20
2.99
 30
0
 11
6.938000000000001
 21
2.890000000000001
 31
0
  0
LINE
  8
0
 62
7
 10
6.938000000000001
 20
2.890000000000001
 30
0
 11
6.938000000000001
 21
2.99
 31
0
  0
LINE
  8
0
 62
7
 10
7.019000000000002
 20
2.890000000000001
 30
0
 11
6.965000000000001
 21
2.890000000000001
 31
0
  0
LINE
  8
0
 62
7
 10
6.965000000000001
 20
2.890000000000001
 30
0
 11
6.965000000000001
 21
2.99
 31
0
  0
LINE
  8
0
 62
7
 10
7.046000000000001
 20
2.94
 30
0
 11
7.082000000000001
 21
2.94
 31
0
  0
LINE
  8
0
 62
7
 10
7.082000000000001
 20
2.94
 30
0
 11
7.086500000000001
 21
2.94
 31
0
  0
LINE
  8
0
 62
7
 10
7.086500000000001
 20
2.94
 30
0
 11
7.095500000000001
 21
2.935
 31
0
  0
LINE
  8
0
 62
7
 10
7.095500000000001
 20
2.935
 30
0
 11
7.100000000000001
 21
2.93
 31
0
  0
LINE
  8
0
 62
7
 10
7.100000000000001
 20
2.93
 30
0
 11
7.104500000000001
 21
2.92
 31
0
  0
LINE
  8
0
 62
7
 10
7.104500000000001
 20
2.92
 30
0
 11
7.104500000000001
 21
2.91
 31
0
  0
LINE
  8
0
 62
7
 10
7.104500000000001
 20
2.91
 30
0
 11
7.100000000000001
 21
2.9
 31
0
  0
LINE
  8
0
 62
7
 10
7.100000000000001
 20
2.9
 30
0
 11
7.095500000000001
 21
2.895
 31
0
  0
LINE
  8
0
 62
7
 10
7.095500000000001
 20
2.895
 30
0
 11
7.086500000000001
 21
2.890000000000001
 31
0
  0
LINE
  8
0
 62
7
 10
7.086500000000001
 20
2.890000000000001
 30
0
 11
7.046000000000001
 21
2.890000000000001
 31
0
  0
LINE
  8
0
 62
7
 10
7.046000000000001
 20
2.890000000000001
 30
0
 11
7.046000000000001
 21
2.94
 31
0
  0
LINE
  8
0
 62
7
 10
7.046000000000001
 20
2.99
 30
0
 11
7.079750000000001
 21
2.99
 31
0
  0
LINE
  8
0
 62
7
 10
7.079750000000001
 20
2.99
 30
0
 11
7.091
 21
2.9875
 31
0
  0
LINE
  8
0
 62
7
 10
7.091
 20
2.9875
 30
0
 11
7.097750000000001
 21
2.98
 31
0
  0
LINE
  8
0
 62
7
 10
7.097750000000001
 20
2.98
 30
0
 11
7.100000000000001
 21
2.97
 31
0
  0
LINE
  8
0
 62
7
 10
7.100000000000001
 20
2.97
 30
0
 11
7.100000000000001
 21
2.96
 31
0
  0
LINE
  8
0
 62
7
 10
7.100000000000001
 20
2.96
 30
0
 11
7.095500000000001
 21
2.95
 31
0
  0
LINE
  8
0
 62
7
 10
7.095500000000001
 20
2.95
 30
0
 11
7.088750000000001
 21
2.9425
 31
0
  0
LINE
  8
0
 62
7
 10
7.088750000000001
 20
2.9425
 30
0
 11
7.082000000000001
 21
2.94
 31
0
  0
LINE
  8
0
 62
7
 10
7.046000000000001
 20
2.94
 30
0
 11
7.046000000000001
 21
2.99
 31
0
  0
LINE
  8
0
 62
7
 10
7.246250000000001
 20
2.9425
 30
0
 11
7.2395
 21
2.952500000000001
 31
0
  0
LINE
  8
0
 62
7
 10
7.2395
 20
2.952500000000001
 30
0
 11
7.232750000000002
 21
2.9575
 31
0
  0
LINE
  8
0
 62
7
 10
7.232750000000002
 20
2.9575
 30
0
 11
7.226000000000001
 21
2.96
 31
0
  0
LINE
  8
0
 62
7
 10
7.226000000000001
 20
2.96
 30
0
 11
7.217000000000001
 21
2.96
 31
0
  0
LINE
  8
0
 62
7
 10
7.217000000000001
 20
2.96
 30
0
 11
7.210250000000001
 21
2.9575
 31
0
  0
LINE
  8
0
 62
7
 10
7.210250000000001
 20
2.9575
 30
0
 11
7.2035
 21
2.952500000000001
 31
0
  0
LINE
  8
0
 62
7
 10
7.2035
 20
2.952500000000001
 30
0
 11
7.196750000000002
 21
2.9425
 31
0
  0
LINE
  8
0
 62
7
 10
7.196750000000002
 20
2.9425
 30
0
 11
7.194500000000001
 21
2.935
 31
0
  0
LINE
  8
0
 62
7
 10
7.194500000000001
 20
2.935
 30
0
 11
7.194500000000001
 21
2.915
 31
0
  0
LINE
  8
0
 62
7
 10
7.194500000000001
 20
2.915
 30
0
 11
7.196750000000002
 21
2.9075
 31
0
  0
LINE
  8
0
 62
7
 10
7.196750000000002
 20
2.9075
 30
0
 11
7.2035
 21
2.8975
 31
0
  0
LINE
  8
0
 62
7
 10
7.2035
 20
2.8975
 30
0
 11
7.210250000000001
 21
2.8925
 31
0
  0
LINE
  8
0
 62
7
 10
7.210250000000001
 20
2.8925
 30
0
 11
7.217000000000001
 21
2.890000000000001
 31
0
  0
LINE
  8
0
 62
7
 10
7.217000000000001
 20
2.890000000000001
 30
0
 11
7.226000000000001
 21
2.890000000000001
 31
0
  0
LINE
  8
0
 62
7
 10
7.226000000000001
 20
2.890000000000001
 30
0
 11
7.232750000000002
 21
2.8925
 31
0
  0
LINE
  8
0
 62
7
 10
7.232750000000002
 20
2.8925
 30
0
 11
7.2395
 21
2.8975
 31
0
  0
LINE
  8
0
 62
7
 10
7.2395
 20
2.8975
 30
0
 11
7.246250000000001
 21
2.9075
 31
0
  0
LINE
  8
0
 62
7
 10
7.318250000000001
 20
2.935
 30
0
 11
7.316
 21
2.9425
 31
0
  0
LINE
  8
0
 62
7
 10
7.316
 20
2.9425
 30
0
 11
7.309250000000002
 21
2.952500000000001
 31
0
  0
LINE
  8
0
 62
7
 10
7.309250000000002
 20
2.952500000000001
 30
0
 11
7.302500000000001
 21
2.9575
 31
0
  0
LINE
  8
0
 62
7
 10
7.302500000000001
 20
2.9575
 30
0
 11
7.29575
 21
2.96
 31
0
  0
LINE
  8
0
 62
7
 10
7.29575
 20
2.96
 30
0
 11
7.286750000000001
 21
2.96
 31
0
  0
LINE
  8
0
 62
7
 10
7.286750000000001
 20
2.96
 30
0
 11
7.28
 21
2.9575
 31
0
  0
LINE
  8
0
 62
7
 10
7.28
 20
2.9575
 30
0
 11
7.273250000000001
 21
2.952500000000001
 31
0
  0
LINE
  8
0
 62
7
 10
7.273250000000001
 20
2.952500000000001
 30
0
 11
7.266500000000001
 21
2.9425
 31
0
  0
LINE
  8
0
 62
7
 10
7.266500000000001
 20
2.9425
 30
0
 11
7.264250000000001
 21
2.935
 31
0
  0
LINE
  8
0
 62
7
 10
7.264250000000001
 20
2.935
 30
0
 11
7.264250000000001
 21
2.915
 31
0
  0
LINE
  8
0
 62
7
 10
7.264250000000001
 20
2.915
 30
0
 11
7.266500000000001
 21
2.9075
 31
0
  0
LINE
  8
0
 62
7
 10
7.266500000000001
 20
2.9075
 30
0
 11
7.273250000000001
 21
2.8975
 31
0
  0
LINE
  8
0
 62
7
 10
7.273250000000001
 20
2.8975
 30
0
 11
7.28
 21
2.8925
 31
0
  0
LINE
  8
0
 62
7
 10
7.28
 20
2.8925
 30
0
 11
7.286750000000001
 21
2.890000000000001
 31
0
  0
LINE
  8
0
 62
7
 10
7.286750000000001
 20
2.890000000000001
 30
0
 11
7.29575
 21
2.890000000000001
 31
0
  0
LINE
  8
0
 62
7
 10
7.29575
 20
2.890000000000001
 30
0
 11
7.302500000000001
 21
2.8925
 31
0
  0
LINE
  8
0
 62
7
 10
7.302500000000001
 20
2.8925
 30
0
 11
7.309250000000002
 21
2.8975
 31
0
  0
LINE
  8
0
 62
7
 10
7.309250000000002
 20
2.8975
 30
0
 11
7.316
 21
2.9075
 31
0
  0
LINE
  8
0
 62
7
 10
7.316
 20
2.9075
 30
0
 11
7.318250000000001
 21
2.915
 31
0
  0
LINE
  8
0
 62
7
 10
7.318250000000001
 20
2.96
 30
0
 11
7.318250000000001
 21
2.935
 31
0
  0
LINE
  8
0
 62
7
 10
7.318250000000001
 20
2.8925
 30
0
 11
7.320500000000002
 21
2.890000000000001
 31
0
  0
LINE
  8
0
 62
7
 10
7.320500000000002
 20
2.890000000000001
 30
0
 11
7.322750000000001
 21
2.890000000000001
 31
0
  0
LINE
  8
0
 62
7
 10
7.318250000000001
 20
2.915
 30
0
 11
7.318250000000001
 21
2.8925
 31
0
  0
LINE
  8
0
 62
7
 10
7.318250000000001
 20
2.935
 30
0
 11
7.318250000000001
 21
2.915
 31
0
  0
LINE
  8
0
 62
7
 10
7.34075
 20
2.890000000000001
 30
0
 11
7.34075
 21
2.8925
 31
0
  0
LINE
  8
0
 62
7
 10
7.34075
 20
2.8925
 30
0
 11
7.343000000000001
 21
2.8925
 31
0
  0
LINE
  8
0
 62
7
 10
7.343000000000001
 20
2.8925
 30
0
 11
7.343000000000001
 21
2.890000000000001
 31
0
  0
LINE
  8
0
 62
7
 10
7.343000000000001
 20
2.890000000000001
 30
0
 11
7.34075
 21
2.890000000000001
 31
0
  0
LINE
  8
0
 62
7
 10
7.466750000000001
 20
2.99
 30
0
 11
7.475750000000001
 21
2.99
 31
0
  0
LINE
  8
0
 62
7
 10
7.475750000000001
 20
2.99
 30
0
 11
7.482500000000001
 21
2.9875
 31
0
  0
LINE
  8
0
 62
7
 10
7.482500000000001
 20
2.9875
 30
0
 11
7.487000000000001
 21
2.9825
 31
0
  0
LINE
  8
0
 62
7
 10
7.487000000000001
 20
2.9825
 30
0
 11
7.491500000000001
 21
2.975
 31
0
  0
LINE
  8
0
 62
7
 10
7.491500000000001
 20
2.975
 30
0
 11
7.491500000000001
 21
2.965
 31
0
  0
LINE
  8
0
 62
7
 10
7.491500000000001
 20
2.965
 30
0
 11
7.489250000000002
 21
2.96
 31
0
  0
LINE
  8
0
 62
7
 10
7.489250000000002
 20
2.96
 30
0
 11
7.482500000000001
 21
2.952500000000001
 31
0
  0
LINE
  8
0
 62
7
 10
7.482500000000001
 20
2.952500000000001
 30
0
 11
7.475750000000001
 21
2.95
 31
0
  0
LINE
  8
0
 62
7
 10
7.475750000000001
 20
2.95
 30
0
 11
7.466750000000001
 21
2.95
 31
0
  0
LINE
  8
0
 62
7
 10
7.466750000000001
 20
2.95
 30
0
 11
7.460000000000001
 21
2.952500000000001
 31
0
  0
LINE
  8
0
 62
7
 10
7.460000000000001
 20
2.952500000000001
 30
0
 11
7.453250000000001
 21
2.96
 31
0
  0
LINE
  8
0
 62
7
 10
7.453250000000001
 20
2.96
 30
0
 11
7.451000000000001
 21
2.965
 31
0
  0
LINE
  8
0
 62
7
 10
7.451000000000001
 20
2.965
 30
0
 11
7.451000000000001
 21
2.975
 31
0
  0
LINE
  8
0
 62
7
 10
7.451000000000001
 20
2.975
 30
0
 11
7.455500000000001
 21
2.9825
 31
0
  0
LINE
  8
0
 62
7
 10
7.455500000000001
 20
2.9825
 30
0
 11
7.460000000000001
 21
2.9875
 31
0
  0
LINE
  8
0
 62
7
 10
7.460000000000001
 20
2.9875
 30
0
 11
7.466750000000001
 21
2.99
 31
0
  0
LINE
  8
0
 62
7
 10
7.466750000000001
 20
2.95
 30
0
 11
7.455500000000001
 21
2.945
 31
0
  0
LINE
  8
0
 62
7
 10
7.455500000000001
 20
2.945
 30
0
 11
7.44875
 21
2.9375
 31
0
  0
LINE
  8
0
 62
7
 10
7.44875
 20
2.9375
 30
0
 11
7.444250000000001
 21
2.9275
 31
0
  0
LINE
  8
0
 62
7
 10
7.444250000000001
 20
2.9275
 30
0
 11
7.444250000000001
 21
2.9125
 31
0
  0
LINE
  8
0
 62
7
 10
7.444250000000001
 20
2.9125
 30
0
 11
7.44875
 21
2.9025
 31
0
  0
LINE
  8
0
 62
7
 10
7.44875
 20
2.9025
 30
0
 11
7.455500000000001
 21
2.895
 31
0
  0
LINE
  8
0
 62
7
 10
7.455500000000001
 20
2.895
 30
0
 11
7.4645
 21
2.890000000000001
 31
0
  0
LINE
  8
0
 62
7
 10
7.4645
 20
2.890000000000001
 30
0
 11
7.478000000000002
 21
2.890000000000001
 31
0
  0
LINE
  8
0
 62
7
 10
7.478000000000002
 20
2.890000000000001
 30
0
 11
7.487000000000001
 21
2.895
 31
0
  0
LINE
  8
0
 62
7
 10
7.487000000000001
 20
2.895
 30
0
 11
7.49375
 21
2.9025
 31
0
  0
LINE
  8
0
 62
7
 10
7.49375
 20
2.9025
 30
0
 11
7.498250000000001
 21
2.9125
 31
0
  0
LINE
  8
0
 62
7
 10
7.498250000000001
 20
2.9125
 30
0
 11
7.498250000000001
 21
2.9275
 31
0
  0
LINE
  8
0
 62
7
 10
7.498250000000001
 20
2.9275
 30
0
 11
7.49375
 21
2.9375
 31
0
  0
LINE
  8
0
 62
7
 10
7.49375
 20
2.9375
 30
0
 11
7.487000000000001
 21
2.945
 31
0
  0
LINE
  8
0
 62
7
 10
7.487000000000001
 20
2.945
 30
0
 11
7.475750000000001
 21
2.95
 31
0
  0
LINE
  8
0
 62
7
 10
7.534250000000002
 20
2.965
 30
0
 11
7.536500000000001
 21
2.975
 31
0
  0
LINE
  8
0
 62
7
 10
7.536500000000001
 20
2.975
 30
0
 11
7.541
 21
2.9825
 31
0
  0
LINE
  8
0
 62
7
 10
7.541
 20
2.9825
 30
0
 11
7.547750000000001
 21
2.9875
 31
0
  0
LINE
  8
0
 62
7
 10
7.547750000000001
 20
2.9875
 30
0
 11
7.554500000000001
 21
2.99
 31
0
  0
LINE
  8
0
 62
7
 10
7.554500000000001
 20
2.99
 30
0
 11
7.568000000000001
 21
2.99
 31
0
  0
LINE
  8
0
 62
7
 10
7.568000000000001
 20
2.99
 30
0
 11
7.574750000000001
 21
2.9875
 31
0
  0
LINE
  8
0
 62
7
 10
7.574750000000001
 20
2.9875
 30
0
 11
7.581500000000002
 21
2.9825
 31
0
  0
LINE
  8
0
 62
7
 10
7.581500000000002
 20
2.9825
 30
0
 11
7.586
 21
2.975
 31
0
  0
LINE
  8
0
 62
7
 10
7.586
 20
2.975
 30
0
 11
7.588250000000001
 21
2.965
 31
0
  0
LINE
  8
0
 62
7
 10
7.588250000000001
 20
2.965
 30
0
 11
7.588250000000001
 21
2.915
 31
0
  0
LINE
  8
0
 62
7
 10
7.588250000000001
 20
2.915
 30
0
 11
7.586
 21
2.905
 31
0
  0
LINE
  8
0
 62
7
 10
7.586
 20
2.905
 30
0
 11
7.581500000000002
 21
2.8975
 31
0
  0
LINE
  8
0
 62
7
 10
7.581500000000002
 20
2.8975
 30
0
 11
7.574750000000001
 21
2.8925
 31
0
  0
LINE
  8
0
 62
7
 10
7.574750000000001
 20
2.8925
 30
0
 11
7.568000000000001
 21
2.890000000000001
 31
0
  0
LINE
  8
0
 62
7
 10
7.568000000000001
 20
2.890000000000001
 30
0
 11
7.554500000000001
 21
2.890000000000001
 31
0
  0
LINE
  8
0
 62
7
 10
7.554500000000001
 20
2.890000000000001
 30
0
 11
7.547750000000001
 21
2.8925
 31
0
  0
LINE
  8
0
 62
7
 10
7.547750000000001
 20
2.8925
 30
0
 11
7.541
 21
2.8975
 31
0
  0
LINE
  8
0
 62
7
 10
7.541
 20
2.8975
 30
0
 11
7.536500000000001
 21
2.905
 31
0
  0
LINE
  8
0
 62
7
 10
7.536500000000001
 20
2.905
 30
0
 11
7.534250000000002
 21
2.915
 31
0
  0
LINE
  8
0
 62
7
 10
7.534250000000002
 20
2.915
 30
0
 11
7.534250000000002
 21
2.965
 31
0
  0
LINE
  8
0
 62
7
 10
7.739000000000002
 20
2.9425
 30
0
 11
7.732250000000001
 21
2.952500000000001
 31
0
  0
LINE
  8
0
 62
7
 10
7.732250000000001
 20
2.952500000000001
 30
0
 11
7.725500000000001
 21
2.9575
 31
0
  0
LINE
  8
0
 62
7
 10
7.725500000000001
 20
2.9575
 30
0
 11
7.71875
 21
2.96
 31
0
  0
LINE
  8
0
 62
7
 10
7.71875
 20
2.96
 30
0
 11
7.70975
 21
2.96
 31
0
  0
LINE
  8
0
 62
7
 10
7.70975
 20
2.96
 30
0
 11
7.703000000000002
 21
2.9575
 31
0
  0
LINE
  8
0
 62
7
 10
7.703000000000002
 20
2.9575
 30
0
 11
7.696250000000001
 21
2.952500000000001
 31
0
  0
LINE
  8
0
 62
7
 10
7.696250000000001
 20
2.952500000000001
 30
0
 11
7.6895
 21
2.9425
 31
0
  0
LINE
  8
0
 62
7
 10
7.6895
 20
2.9425
 30
0
 11
7.687250000000001
 21
2.935
 31
0
  0
LINE
  8
0
 62
7
 10
7.687250000000001
 20
2.935
 30
0
 11
7.687250000000001
 21
2.915
 31
0
  0
LINE
  8
0
 62
7
 10
7.687250000000001
 20
2.915
 30
0
 11
7.6895
 21
2.9075
 31
0
  0
LINE
  8
0
 62
7
 10
7.6895
 20
2.9075
 30
0
 11
7.696250000000001
 21
2.8975
 31
0
  0
LINE
  8
0
 62
7
 10
7.696250000000001
 20
2.8975
 30
0
 11
7.703000000000002
 21
2.8925
 31
0
  0
LINE
  8
0
 62
7
 10
7.703000000000002
 20
2.8925
 30
0
 11
7.70975
 21
2.890000000000001
 31
0
  0
LINE
  8
0
 62
7
 10
7.70975
 20
2.890000000000001
 30
0
 11
7.71875
 21
2.890000000000001
 31
0
  0
LINE
  8
0
 62
7
 10
7.71875
 20
2.890000000000001
 30
0
 11
7.725500000000001
 21
2.8925
 31
0
  0
LINE
  8
0
 62
7
 10
7.725500000000001
 20
2.8925
 30
0
 11
7.732250000000001
 21
2.8975
 31
0
  0
LINE
  8
0
 62
7
 10
7.732250000000001
 20
2.8975
 30
0
 11
7.739000000000002
 21
2.9075
 31
0
  0
LINE
  8
0
 62
7
 10
7.797500000000001
 20
2.935
 30
0
 11
7.797500000000001
 21
2.890000000000001
 31
0
  0
LINE
  8
0
 62
7
 10
7.757000000000001
 20
2.96
 30
0
 11
7.757000000000001
 21
2.935
 31
0
  0
LINE
  8
0
 62
7
 10
7.757000000000001
 20
2.890000000000001
 30
0
 11
7.757000000000001
 21
2.935
 31
0
  0
LINE
  8
0
 62
7
 10
7.757000000000001
 20
2.935
 30
0
 11
7.759250000000002
 21
2.9475
 31
0
  0
LINE
  8
0
 62
7
 10
7.759250000000002
 20
2.9475
 30
0
 11
7.761500000000002
 21
2.952500000000001
 31
0
  0
LINE
  8
0
 62
7
 10
7.761500000000002
 20
2.952500000000001
 30
0
 11
7.766
 21
2.9575
 31
0
  0
LINE
  8
0
 62
7
 10
7.766
 20
2.9575
 30
0
 11
7.772750000000001
 21
2.96
 31
0
  0
LINE
  8
0
 62
7
 10
7.772750000000001
 20
2.96
 30
0
 11
7.781750000000001
 21
2.96
 31
0
  0
LINE
  8
0
 62
7
 10
7.781750000000001
 20
2.96
 30
0
 11
7.788500000000001
 21
2.9575
 31
0
  0
LINE
  8
0
 62
7
 10
7.788500000000001
 20
2.9575
 30
0
 11
7.793000000000001
 21
2.952500000000001
 31
0
  0
LINE
  8
0
 62
7
 10
7.793000000000001
 20
2.952500000000001
 30
0
 11
7.795250000000002
 21
2.9475
 31
0
  0
LINE
  8
0
 62
7
 10
7.795250000000002
 20
2.9475
 30
0
 11
7.797500000000001
 21
2.935
 31
0
  0
LINE
  8
0
 62
7
 10
7.797500000000001
 20
2.935
 30
0
 11
7.79975
 21
2.9475
 31
0
  0
LINE
  8
0
 62
7
 10
7.79975
 20
2.9475
 30
0
 11
7.802
 21
2.952500000000001
 31
0
  0
LINE
  8
0
 62
7
 10
7.802
 20
2.952500000000001
 30
0
 11
7.806500000000002
 21
2.9575
 31
0
  0
LINE
  8
0
 62
7
 10
7.806500000000002
 20
2.9575
 30
0
 11
7.813250000000001
 21
2.96
 31
0
  0
LINE
  8
0
 62
7
 10
7.813250000000001
 20
2.96
 30
0
 11
7.82225
 21
2.96
 31
0
  0
LINE
  8
0
 62
7
 10
7.82225
 20
2.96
 30
0
 11
7.829000000000001
 21
2.9575
 31
0
  0
LINE
  8
0
 62
7
 10
7.833500000000001
 20
2.952500000000001
 30
0
 11
7.829000000000001
 21
2.9575
 31
0
  0
LINE
  8
0
 62
7
 10
7.829000000000001
 20
2.9575
 30
0
 11
7.833500000000001
 21
2.952500000000001
 31
0
  0
LINE
  8
0
 62
7
 10
7.833500000000001
 20
2.952500000000001
 30
0
 11
7.835750000000001
 21
2.9475
 31
0
  0
LINE
  8
0
 62
7
 10
7.835750000000001
 20
2.9475
 30
0
 11
7.838000000000001
 21
2.935
 31
0
  0
LINE
  8
0
 62
7
 10
7.838000000000001
 20
2.935
 30
0
 11
7.838000000000001
 21
2.890000000000001
 31
0
  0
ARC
  8
0
 62
7
 10
6.520861457690959
 20
4.04586145769091
 30
0
 40
0.4730000000000047
 50
359.8956492225768
 51
90.10435077395368
  0
ARC
  8
0
 62
7
 10
6.444138542309002
 20
4.04586145769096
 30
0
 40
0.4730000000000032
 50
89.89564922256457
 51
180.10435077983
  0
CIRCLE
  8
0
 62
7
 10
5.971139326780482
 20
3.25
 30
0
 40
0.0600000000000005
  0
DIMENSION
  8
0
  6
CONTINUOUS
 62
7
  2
*D0
  3
DMST_1
 10
7.95599502824619
 20
3.35
 30
0
 11
7.95599502824619
 21
4.1394769935559
 31
0
 12
0
 22
0
 32
0
 70
0
 13
7.600000000000001
 23
4.95
 33
0
 14
7.600000000000001
 24
3.35
 34
0
 50
90
 53
0
  0
DIMENSION
  8
0
  6
CONTINUOUS
 62
7
  2
*D1
  3
DMST_1
 10
7.425000000000001
 20
5.83813966203941
 30
0
 11
6.486881369017211
 21
5.83813966203941
 31
0
 12
0
 22
0
 32
0
 70
0
 13
5.54
 23
5.469999999999995
 33
0
 14
7.425000000000001
 24
5.469999999999995
 34
0
 53
0
  0
DIMENSION
  8
0
  6
CONTINUOUS
 62
7
  2
*D2
  3
DMST_1
 10
5.07515496210187
 20
4.95
 30
0
 11
5.07515496210187
 21
4.12799954309317
 31
0
 12
0
 22
0
 32
0
 70
0
 13
5.365
 23
3.25
 33
0
 14
5.365
 24
4.95
 34
0
 50
90
 53
0
  0
DIMENSION
  8
0
  6
CONTINUOUS
 62
7
  2
*D3
  3
DMST_2
 10
7.425000000000001
 20
11.4850452897008
 30
0
 11
6.486881369017211
 21
11.4850452897008
 31
0
 12
0
 22
0
 32
0
 70
0
 13
5.54
 23
11.2
 33
0
 14
7.425000000000001
 24
11.2
 34
0
 53
0
  0
INSERT
  8
0
  2
*D4
 10
0
 20
0
 30
0
  0
ENDSEC
  0
EOF
