  0
SECTION
  2
HEADER
  9
$ACADVER
  1
AC1009
  9
$INSBASE
 10
0
 20
0
  9
$EXTMIN
 10
0.4475043121558001
 20
2.88
  9
$EXTMAX
 10
8.249999999999998
 20
11.6211327542156
  9
$LIMMIN
 10
0.4475043121558001
 20
2.88
  9
$LIMMAX
 10
8.249999999999998
 20
11.6211327542156
  9
$VIEWCTR
 10
10
 20
10
  9
$VIEWSIZE
 40
10
  9
$SNAPMODE
 70
0
  9
$SNAPUNIT
 10
1
 20
1
  9
$SNAPBASE
 10
0
 20
0
  9
$SNAPANG
 50
0
  9
$SNAPSTYLE
 70
0
  9
$SNAPISOPAIR
 70
0
  9
$GRIDMODE
 70
0
  9
$GRIDUNIT
 10
0
 20
0
  9
$ORTHOMODE
 70
0
  9
$REGENMODE
 70
1
  9
$FILLMODE
 70
1
  9
$QTEXTMODE
 70
0
  9
$DRAGMODE
 70
2
  9
$LTSCALE
 40
1
  9
$OSMODE
 70
0
  9
$ATTMODE
 70
1
  9
$TEXTSIZE
 40
3.5
  9
$TRACEWID
 40
0.5
  9
$TEXTSTYLE
  7
STANDARD
  9
$CLAYER
  8
0
  9
$CELTYPE
  6
BYLAYER
  9
$CECOLOR
 62
256
  9
$DIMSCALE
 40
1
  9
$DIMASZ
 40
0.18
  9
$DIMEXO
 40
0.0625
  9
$DIMDLI
 40
0.38
  9
$DIMRND
 40
0
  9
$DIMDLE
 40
0
  9
$DIMEXE
 40
0.18
  9
$DIMTP
 40
0
  9
$DIMTM
 40
0
  9
$DIMTXT
 40
0.18
  9
$DIMCEN
 40
0.09
  9
$DIMTSZ
 40
0
  9
$DIMTOL
 70
0
  9
$DIMLIM
 70
0
  9
$DIMTIH
 70
1
  9
$DIMTOH
 70
1
  9
$DIMSE1
 70
0
  9
$DIMSE2
 70
0
  9
$DIMTAD
 70
0
  9
$DIMZIN
 70
0
  9
$DIMBLK
  1

  9
$DIMASO
 70
1
  9
$DIMSHO
 70
1
  9
$DIMPOST
  1

  9
$DIMAPOST
  1

  9
$DIMALT
 70
0
  9
$DIMALTD
 70
2
  9
$DIMALTF
 40
25.4
  9
$DIMLFAC
 40
1
  9
$DIMTOFL
 70
0
  9
$DIMTVP
 40
0
  9
$DIMTIX
 70
0
  9
$DIMSOXD
 70
0
  9
$DIMSAH
 70
0
  9
$DIMBLK1
  1

  9
$DIMBLK2
  1

  9
$DIMSTYLE
  2
*UNNAMED
  9
$DIMCLRD
 70
0
  9
$DIMCLRE
 70
0
  9
$DIMCLRT
 70
0
  9
$DIMTFAC
 40
1
  9
$DIMGAP
 40
0.09
  9
$LUNITS
 70
2
  9
$LUPREC
 70
4
  9
$AXISMODE
 70
0
  9
$AXISUNIT
 10
0
 20
0
  9
$SKETCHINC
 40
0.1
  9
$FILLETRAD
 40
2
  9
$AUNITS
 70
0
  9
$AUPREC
 70
0
  9
$MENU
  1
ACAD
  9
$ELEVATION
 40
0
  9
$THICKNESS
 40
0
  9
$VIEWDIR
 10
0
 20
0
 30
1
  9
$LIMCHECK
 70
0
  9
$BLIPMODE
 70
1
  9
$CHAMFERA
 40
0
  9
$CHAMFERB
 40
0
  9
$FASTZOOM
 70
1
  9
$SKPOLY
 70
0
  9
$ANGBASE
 50
0
  9
$ANGDIR
 70
0
  9
$PDMODE
 70
0
  9
$PDSIZE
 40
0
  9
$PLINEWID
 40
0
  9
$COORDS
 70
2
  0
ENDSEC
  0
SECTION
  2
TABLES
  0
TABLE
  2
DIMSTYLE
 70
2
  0
DIMSTYLE
  2
DMST_1
 70
0
  3

  4

  5

  6

  7

 40
1
 41
0.1
 42
0
 43
0.7
 44
0.2
 45
0
 46
0
 47
0
 48
0
140
0.1
141
0
142
0.1
143
25.4
144
1
145
0
146
1
147
0.25
 71
0
 72
0
 73
0
 74
0
 75
0
 76
0
 77
0
 78
9
170
0
171
2
172
0
173
0
174
0
175
0
176
7
177
7
178
7
  0
DIMSTYLE
  2
DMST_2
 70
0
  3

  4

  5

  6

  7

 40
1
 41
0.1
 42
0
 43
0.7
 44
0.2
 45
0
 46
0
 47
0
 48
0
140
0.1
141
0
142
0.1
143
25.4
144
1
145
0
146
1
147
0.2
 71
0
 72
0
 73
0
 74
0
 75
0
 76
0
 77
0
 78
9
170
0
171
2
172
0
173
0
174
0
175
0
176
7
177
7
178
7
  0
ENDTAB
  0
TABLE
  2
LTYPE
 70
9
  0
LTYPE
  2
CONTINUOUS
 70
64
  3
Solid line
 72
65
 73
0
 40
0
  0
LTYPE
  2
BORDER
 70
64
  3
__ __ . __ __ .
 72
65
 73
6
 40
0.4025521663125605
 49
0.1150149046607316
 49
-0.05750745233036578
 49
0.1150149046607316
 49
-0.05750745233036578
 49
0
 49
-0.05750745233036578
  0
LTYPE
  2
CENTER
 70
64
  3
____ _ ____ _
 72
65
 73
4
 40
0.4600596186429263
 49
0.2875372616518289
 49
-0.05750745233036578
 49
0.05750745233036578
 49
-0.05750745233036578
  0
LTYPE
  2
DASHDOT
 70
64
  3
__ . __ . __ .
 72
65
 73
4
 40
0.2300298093214631
 49
0.1150149046607316
 49
-0.05750745233036578
 49
0
 49
-0.05750745233036578
  0
LTYPE
  2
DASHED
 70
64
  3
__ __ __ __ __
 72
65
 73
2
 40
0.1725223569910974
 49
0.1150149046607316
 49
-0.05750745233036578
  0
LTYPE
  2
DIVIDE
 70
64
  3
__ . . __ . . 
 72
65
 73
6
 40
0.2875372616518289
 49
0.1150149046607316
 49
-0.05750745233036578
 49
0
 49
-0.05750745233036578
 49
0
 49
-0.05750745233036578
  0
LTYPE
  2
DOT
 70
64
  3
..............
 72
65
 73
4
 40
0.1150149046607316
 49
0
 49
-0.05750745233036578
 49
0
 49
-0.05750745233036578
  0
LTYPE
  2
HIDDEN
 70
64
  3
_ _ _ _ _ _ _
 72
65
 73
2
 40
0.08626117849554868
 49
0.05750745233036578
 49
-0.02875372616518289
  0
LTYPE
  2
PHANTOM
 70
64
  3
_____ _ _ _____ _ _ 
 72
65
 73
6
 40
0.5750745233036578
 49
0.2875372616518289
 49
-0.05750745233036578
 49
0.05750745233036578
 49
-0.05750745233036578
 49
0.05750745233036578
 49
-0.05750745233036578
  0
ENDTAB
  0
TABLE
  2
LAYER
 70
2
  0
LAYER
  2
0
 70
0
 62
7
  6
CONTINUOUS
  0
ENDTAB
  0
TABLE
  2
STYLE
 70
4
  0
STYLE
  2
STANDARD
 70
0
 40
0
 41
1
 50
0
 71
0
 42
3.5
  3
txt
  4

  0
STYLE
  2
SIMPLEX
 70
0
 40
0
 41
1
 50
0
 71
0
 42
3.5
  3
simplex
  4

  0
STYLE
  2
COMPLEX
 70
0
 40
0
 41
1
 50
0
 71
0
 42
3.5
  3
complex
  4

  0
STYLE
  2
ITALIC
 70
0
 40
0
 41
1
 50
0
 71
0
 42
3.5
  3
italic
  4

  0
ENDTAB
  0
TABLE
  2
VIEW
 70
0
  0
ENDTAB
  0
ENDSEC
  0
SECTION
  2
BLOCKS
  0
BLOCK
  8
0
  2
*X0
 70
1
 10
0
 20
0
 30
0
  0
LINE
  8
0
 62
7
  6
DASHED
 10
7.96
 20
8.278198051533945
 30
0
 11
7.981801948466053
 21
8.299999999999999
 31
0
  0
LINE
  8
0
 62
7
  6
DASHED
 10
7.993933982822019
 20
8.1
 30
0
 11
8.193933982822017
 21
8.299999999999999
 31
0
  0
LINE
  8
0
 62
7
 10
7.960000000000001
 20
8.172132034355965
 30
0
 11
8.087867965644037
 21
8.299999999999999
 31
0
  0
LINE
  8
0
 62
7
 10
8.100000000000001
 20
8.1
 30
0
 11
8.200000000000001
 21
8.199999999999999
 31
0
  0
ENDBLK
  8
0
  0
BLOCK
  8
0
  2
*X1
 70
1
 10
0
 20
0
 30
0
  0
LINE
  8
0
 62
7
  6
DASHED
 10
7.959999999999999
 20
11.03591449816148
 30
0
 11
7.974085501838521
 21
11.05
 31
0
  0
LINE
  8
0
 62
7
  6
DASHED
 10
7.986217536194484
 20
10.85
 30
0
 11
8.186217536194485
 21
11.05
 31
0
  0
LINE
  8
0
 62
7
  6
DASHED
 10
8.198349570550448
 20
10.85
 30
0
 11
8.199999999999998
 21
10.85165042944955
 31
0
  0
LINE
  8
0
 62
7
 10
7.96
 20
10.9298484809835
 30
0
 11
8.080151519016503
 21
11.05
 31
0
  0
LINE
  8
0
 62
7
 10
8.092283553372466
 20
10.85
 30
0
 11
8.199999999999999
 21
10.95771644662753
 31
0
  0
ENDBLK
  8
0
  0
BLOCK
  8
0
  2
*X2
 70
1
 10
0
 20
0
 30
0
  0
LINE
  8
0
 62
7
  6
DASHED
 10
6.01
 20
10.99510280736516
 30
0
 11
6.064897192634842
 21
11.05
 31
0
  0
LINE
  8
0
 62
7
  6
DASHED
 10
6.077029226990806
 20
10.85
 30
0
 11
6.277029226990805
 21
11.05
 31
0
  0
LINE
  8
0
 62
7
  6
DASHED
 10
6.28916126134677
 20
10.85
 30
0
 11
6.309999999999999
 21
10.87083873865323
 31
0
  0
LINE
  8
0
 62
7
 10
6.010000000000002
 20
10.88903679018718
 30
0
 11
6.170963209812823
 21
11.05
 31
0
  0
LINE
  8
0
 62
7
 10
6.183095244168788
 20
10.85
 30
0
 11
6.31
 21
10.97690475583121
 31
0
  0
ENDBLK
  8
0
  0
BLOCK
  8
0
  2
*X3
 70
1
 10
0
 20
0
 30
0
  0
LINE
  8
0
 62
7
  6
DASHED
 10
6.010000000000002
 20
8.237386360737625
 30
0
 11
6.072613639262376
 21
8.299999999999999
 31
0
  0
LINE
  8
0
 62
7
  6
DASHED
 10
6.084745673618341
 20
8.100000000000001
 30
0
 11
6.28474567361834
 21
8.299999999999999
 31
0
  0
LINE
  8
0
 62
7
  6
DASHED
 10
6.296877707974305
 20
8.100000000000001
 30
0
 11
6.310000000000002
 21
8.113122292025697
 31
0
  0
LINE
  8
0
 62
7
 10
6.010000000000002
 20
8.131320343559644
 30
0
 11
6.178679656440358
 21
8.299999999999999
 31
0
  0
LINE
  8
0
 62
7
 10
6.190811690796323
 20
8.1
 30
0
 11
6.310000000000001
 21
8.219188309203679
 31
0
  0
ENDBLK
  8
0
  0
BLOCK
  8
0
  2
*X4
 70
1
 10
0
 20
0
 30
0
  0
LINE
  8
0
 62
7
 10
7.974085501838521
 20
11.05
 30
0
 11
8.12408550183852
 21
11.2
 31
0
  0
LINE
  8
0
 62
7
 10
8.186217536194485
 20
11.05
 30
0
 11
8.199999999999999
 21
11.06378246380552
 31
0
  0
LINE
  8
0
 62
7
 10
7.96
 20
11.14198051533946
 30
0
 11
8.018019484660536
 21
11.2
 31
0
  0
LINE
  8
0
 62
7
 10
8.080151519016503
 20
11.05
 30
0
 11
8.199999999999999
 21
11.1698484809835
 31
0
  0
ENDBLK
  8
0
  0
BLOCK
  8
0
  2
*X5
 70
1
 10
0
 20
0
 30
0
  0
LINE
  8
0
 62
7
 10
7.959999999999999
 20
10.82378246380551
 30
0
 11
7.986217536194484
 21
10.85
 31
0
  0
LINE
  8
0
 62
7
 10
7.959999999999999
 20
10.61165042944955
 30
0
 11
8.198349570550448
 21
10.85
 31
0
  0
LINE
  8
0
 62
7
 10
7.959999999999999
 20
10.39951839509358
 30
0
 11
8.199999999999998
 21
10.63951839509358
 31
0
  0
LINE
  8
0
 62
7
 10
7.959999999999999
 20
10.18738636073762
 30
0
 11
8.199999999999998
 21
10.42738636073762
 31
0
  0
LINE
  8
0
 62
7
 10
7.959999999999999
 20
9.975254326381656
 30
0
 11
8.199999999999998
 21
10.21525432638166
 31
0
  0
LINE
  8
0
 62
7
 10
7.959999999999999
 20
9.763122292025692
 30
0
 11
8.199999999999998
 21
10.00312229202569
 31
0
  0
LINE
  8
0
 62
7
 10
7.959999999999999
 20
9.550990257669728
 30
0
 11
8.199999999999998
 21
9.790990257669728
 31
0
  0
LINE
  8
0
 62
7
 10
7.959999999999999
 20
9.338858223313764
 30
0
 11
8.199999999999998
 21
9.578858223313764
 31
0
  0
LINE
  8
0
 62
7
 10
7.959999999999999
 20
9.1267261889578
 30
0
 11
8.199999999999998
 21
9.3667261889578
 31
0
  0
LINE
  8
0
 62
7
 10
7.959999999999999
 20
8.914594154601836
 30
0
 11
8.199999999999998
 21
9.154594154601837
 31
0
  0
LINE
  8
0
 62
7
 10
7.959999999999999
 20
8.702462120245873
 30
0
 11
8.199999999999998
 21
8.942462120245873
 31
0
  0
LINE
  8
0
 62
7
 10
7.959999999999999
 20
8.490330085889909
 30
0
 11
8.199999999999998
 21
8.730330085889909
 31
0
  0
LINE
  8
0
 62
7
 10
7.981801948466053
 20
8.299999999999999
 30
0
 11
8.199999999999998
 21
8.518198051533945
 31
0
  0
LINE
  8
0
 62
7
 10
8.193933982822017
 20
8.299999999999999
 30
0
 11
8.199999999999998
 21
8.306066017177981
 31
0
  0
LINE
  8
0
 62
7
 10
7.960000000000001
 20
10.71771644662753
 30
0
 11
8.092283553372464
 21
10.85
 31
0
  0
LINE
  8
0
 62
7
 10
7.960000000000001
 20
10.50558441227157
 30
0
 11
8.199999999999999
 21
10.74558441227157
 31
0
  0
LINE
  8
0
 62
7
 10
7.960000000000001
 20
10.2934523779156
 30
0
 11
8.199999999999999
 21
10.5334523779156
 31
0
  0
LINE
  8
0
 62
7
 10
7.960000000000001
 20
10.08132034355964
 30
0
 11
8.199999999999999
 21
10.32132034355964
 31
0
  0
LINE
  8
0
 62
7
 10
7.960000000000001
 20
9.869188309203674
 30
0
 11
8.199999999999999
 21
10.10918830920367
 31
0
  0
LINE
  8
0
 62
7
 10
7.960000000000001
 20
9.65705627484771
 30
0
 11
8.199999999999999
 21
9.89705627484771
 31
0
  0
LINE
  8
0
 62
7
 10
7.960000000000001
 20
9.444924240491746
 30
0
 11
8.199999999999999
 21
9.684924240491746
 31
0
  0
LINE
  8
0
 62
7
 10
7.960000000000001
 20
9.232792206135782
 30
0
 11
8.199999999999999
 21
9.472792206135782
 31
0
  0
LINE
  8
0
 62
7
 10
7.960000000000001
 20
9.020660171779818
 30
0
 11
8.199999999999999
 21
9.260660171779818
 31
0
  0
LINE
  8
0
 62
7
 10
7.960000000000001
 20
8.808528137423854
 30
0
 11
8.199999999999999
 21
9.048528137423855
 31
0
  0
LINE
  8
0
 62
7
 10
7.960000000000001
 20
8.596396103067891
 30
0
 11
8.199999999999999
 21
8.836396103067891
 31
0
  0
LINE
  8
0
 62
7
 10
7.960000000000001
 20
8.384264068711927
 30
0
 11
8.199999999999999
 21
8.624264068711927
 31
0
  0
LINE
  8
0
 62
7
 10
8.087867965644037
 20
8.299999999999999
 30
0
 11
8.199999999999999
 21
8.412132034355963
 31
0
  0
ENDBLK
  8
0
  0
BLOCK
  8
0
  2
*X6
 70
1
 10
0
 20
0
 30
0
  0
LINE
  8
0
 62
7
 10
7.96
 20
8.066066017177981
 30
0
 11
7.993933982822019
 21
8.1
 31
0
  0
LINE
  8
0
 62
7
 10
8.056066017177983
 20
7.95
 30
0
 11
8.199999999999999
 21
8.093933982822014
 31
0
  0
LINE
  8
0
 62
7
 10
7.96
 20
7.959999999999998
 30
0
 11
8.100000000000001
 21
8.1
 31
0
  0
LINE
  8
0
 62
7
 10
8.162132034355965
 20
7.949999999999999
 30
0
 11
8.199999999999999
 21
7.987867965644034
 31
0
  0
ENDBLK
  8
0
  0
BLOCK
  8
0
  2
*X7
 70
1
 10
0
 20
0
 30
0
  0
LINE
  8
0
 62
7
  6
DASHED
 10
0.9500000000000011
 20
11.0262716319083
 30
0
 11
0.9737283680916997
 21
11.05
 31
0
  0
LINE
  8
0
 62
7
  6
DASHED
 10
0.9858604024476638
 20
10.85
 30
0
 11
1.185860402447664
 21
11.05
 31
0
  0
LINE
  8
0
 62
7
  6
DASHED
 10
1.197992436803628
 20
10.85
 30
0
 11
1.397992436803628
 21
11.05
 31
0
  0
LINE
  8
0
 62
7
  6
DASHED
 10
1.410124471159592
 20
10.85
 30
0
 11
1.610124471159593
 21
11.05
 31
0
  0
LINE
  8
0
 62
7
  6
DASHED
 10
1.622256505515557
 20
10.85
 30
0
 11
1.822256505515557
 21
11.05
 31
0
  0
LINE
  8
0
 62
7
  6
DASHED
 10
1.834388539871521
 20
10.85
 30
0
 11
2.034388539871521
 21
11.05
 31
0
  0
LINE
  8
0
 62
7
  6
DASHED
 10
2.046520574227485
 20
10.85
 30
0
 11
2.246520574227485
 21
11.05
 31
0
  0
LINE
  8
0
 62
7
  6
DASHED
 10
2.25865260858345
 20
10.85
 30
0
 11
2.45865260858345
 21
11.05
 31
0
  0
LINE
  8
0
 62
7
  6
DASHED
 10
2.470784642939414
 20
10.85
 30
0
 11
2.670784642939414
 21
11.05
 31
0
  0
LINE
  8
0
 62
7
  6
DASHED
 10
2.682916677295378
 20
10.85
 30
0
 11
2.882916677295378
 21
11.05
 31
0
  0
LINE
  8
0
 62
7
  6
DASHED
 10
2.895048711651342
 20
10.85
 30
0
 11
3.095048711651343
 21
11.05
 31
0
  0
LINE
  8
0
 62
7
  6
DASHED
 10
3.107180746007307
 20
10.85
 30
0
 11
3.307180746007307
 21
11.05
 31
0
  0
LINE
  8
0
 62
7
  6
DASHED
 10
3.319312780363271
 20
10.85
 30
0
 11
3.519312780363271
 21
11.05
 31
0
  0
LINE
  8
0
 62
7
  6
DASHED
 10
3.531444814719235
 20
10.85
 30
0
 11
3.609999999999999
 21
10.92855518528076
 31
0
  0
LINE
  8
0
 62
7
 10
0.9500000000000002
 20
10.92020561473032
 30
0
 11
1.079794385269682
 21
11.05
 31
0
  0
LINE
  8
0
 62
7
 10
1.091926419625646
 20
10.85
 30
0
 11
1.291926419625646
 21
11.05
 31
0
  0
LINE
  8
0
 62
7
 10
1.30405845398161
 20
10.85
 30
0
 11
1.504058453981611
 21
11.05
 31
0
  0
LINE
  8
0
 62
7
 10
1.516190488337575
 20
10.85
 30
0
 11
1.716190488337575
 21
11.05
 31
0
  0
LINE
  8
0
 62
7
 10
1.728322522693539
 20
10.85
 30
0
 11
1.928322522693539
 21
11.05
 31
0
  0
LINE
  8
0
 62
7
 10
1.940454557049503
 20
10.85
 30
0
 11
2.140454557049503
 21
11.05
 31
0
  0
LINE
  8
0
 62
7
 10
2.152586591405468
 20
10.85
 30
0
 11
2.352586591405468
 21
11.05
 31
0
  0
LINE
  8
0
 62
7
 10
2.364718625761432
 20
10.85
 30
0
 11
2.564718625761432
 21
11.05
 31
0
  0
LINE
  8
0
 62
7
 10
2.576850660117396
 20
10.85
 30
0
 11
2.776850660117396
 21
11.05
 31
0
  0
LINE
  8
0
 62
7
 10
2.78898269447336
 20
10.85
 30
0
 11
2.988982694473361
 21
11.05
 31
0
  0
LINE
  8
0
 62
7
 10
3.001114728829325
 20
10.85
 30
0
 11
3.201114728829325
 21
11.05
 31
0
  0
LINE
  8
0
 62
7
 10
3.213246763185289
 20
10.85
 30
0
 11
3.413246763185289
 21
11.05
 31
0
  0
LINE
  8
0
 62
7
 10
3.425378797541253
 20
10.85
 30
0
 11
3.610000000000002
 21
11.03462120245875
 31
0
  0
ENDBLK
  8
0
  0
BLOCK
  8
0
  2
*X8
 70
1
 10
0
 20
0
 30
0
  0
LINE
  8
0
 62
7
  6
DASHED
 10
0.9500000000000011
 20
8.268555185280768
 30
0
 11
0.9814448147192332
 21
8.299999999999999
 31
0
  0
LINE
  8
0
 62
7
  6
DASHED
 10
0.9935768490751982
 20
8.1
 30
0
 11
1.193576849075197
 21
8.299999999999999
 31
0
  0
LINE
  8
0
 62
7
  6
DASHED
 10
1.205708883431162
 20
8.1
 30
0
 11
1.405708883431162
 21
8.299999999999999
 31
0
  0
LINE
  8
0
 62
7
  6
DASHED
 10
1.417840917787127
 20
8.1
 30
0
 11
1.617840917787126
 21
8.299999999999999
 31
0
  0
LINE
  8
0
 62
7
  6
DASHED
 10
1.629972952143091
 20
8.1
 30
0
 11
1.82997295214309
 21
8.299999999999999
 31
0
  0
LINE
  8
0
 62
7
  6
DASHED
 10
1.842104986499055
 20
8.1
 30
0
 11
2.042104986499055
 21
8.299999999999999
 31
0
  0
LINE
  8
0
 62
7
  6
DASHED
 10
2.05423702085502
 20
8.1
 30
0
 11
2.254237020855019
 21
8.299999999999999
 31
0
  0
LINE
  8
0
 62
7
  6
DASHED
 10
2.266369055210984
 20
8.1
 30
0
 11
2.466369055210983
 21
8.299999999999999
 31
0
  0
LINE
  8
0
 62
7
  6
DASHED
 10
2.478501089566948
 20
8.1
 30
0
 11
2.678501089566947
 21
8.299999999999999
 31
0
  0
LINE
  8
0
 62
7
  6
DASHED
 10
2.690633123922912
 20
8.1
 30
0
 11
2.890633123922912
 21
8.299999999999999
 31
0
  0
LINE
  8
0
 62
7
  6
DASHED
 10
2.902765158278877
 20
8.1
 30
0
 11
3.102765158278876
 21
8.299999999999999
 31
0
  0
LINE
  8
0
 62
7
  6
DASHED
 10
3.114897192634841
 20
8.1
 30
0
 11
3.31489719263484
 21
8.299999999999999
 31
0
  0
LINE
  8
0
 62
7
  6
DASHED
 10
3.327029226990805
 20
8.1
 30
0
 11
3.527029226990805
 21
8.299999999999999
 31
0
  0
LINE
  8
0
 62
7
  6
DASHED
 10
3.53916126134677
 20
8.1
 30
0
 11
3.610000000000002
 21
8.170838738653231
 31
0
  0
LINE
  8
0
 62
7
 10
0.9500000000000015
 20
8.162489168102784
 30
0
 11
1.087510831897215
 21
8.299999999999999
 31
0
  0
LINE
  8
0
 62
7
 10
1.099642866253181
 20
8.100000000000001
 30
0
 11
1.299642866253179
 21
8.299999999999999
 31
0
  0
LINE
  8
0
 62
7
 10
1.311774900609146
 20
8.100000000000001
 30
0
 11
1.511774900609143
 21
8.299999999999999
 31
0
  0
LINE
  8
0
 62
7
 10
1.52390693496511
 20
8.100000000000001
 30
0
 11
1.723906934965107
 21
8.299999999999999
 31
0
  0
LINE
  8
0
 62
7
 10
1.736038969321074
 20
8.100000000000001
 30
0
 11
1.936038969321072
 21
8.299999999999999
 31
0
  0
LINE
  8
0
 62
7
 10
1.948171003677039
 20
8.100000000000001
 30
0
 11
2.148171003677036
 21
8.299999999999999
 31
0
  0
LINE
  8
0
 62
7
 10
2.160303038033003
 20
8.100000000000001
 30
0
 11
2.360303038033
 21
8.299999999999999
 31
0
  0
LINE
  8
0
 62
7
 10
2.372435072388967
 20
8.100000000000001
 30
0
 11
2.572435072388965
 21
8.299999999999999
 31
0
  0
LINE
  8
0
 62
7
 10
2.584567106744931
 20
8.100000000000001
 30
0
 11
2.784567106744929
 21
8.299999999999999
 31
0
  0
LINE
  8
0
 62
7
 10
2.796699141100896
 20
8.100000000000001
 30
0
 11
2.996699141100893
 21
8.299999999999999
 31
0
  0
LINE
  8
0
 62
7
 10
3.00883117545686
 20
8.100000000000001
 30
0
 11
3.208831175456857
 21
8.299999999999999
 31
0
  0
LINE
  8
0
 62
7
 10
3.220963209812824
 20
8.100000000000001
 30
0
 11
3.420963209812822
 21
8.299999999999999
 31
0
  0
LINE
  8
0
 62
7
 10
3.433095244168789
 20
8.100000000000001
 30
0
 11
3.610000000000001
 21
8.276904755831213
 31
0
  0
ENDBLK
  8
0
  0
BLOCK
  8
0
  2
*X9
 70
1
 10
0
 20
0
 30
0
  0
LINE
  8
0
 62
7
 10
3.307180746007306
 20
11.05
 30
0
 11
3.457180746007305
 21
11.2
 31
0
  0
LINE
  8
0
 62
7
 10
3.285000000000001
 20
11.13388527117068
 30
0
 11
3.351114728829324
 21
11.2
 31
0
  0
LINE
  8
0
 62
7
 10
3.41324676318529
 20
11.05
 30
0
 11
3.460000000000002
 21
11.09675323681471
 31
0
  0
ENDBLK
  8
0
  0
BLOCK
  8
0
  2
*X10
 70
1
 10
0
 20
0
 30
0
  0
LINE
  8
0
 62
7
 10
3.285000000000001
 20
10.81568721963673
 30
0
 11
3.31931278036327
 21
10.85
 31
0
  0
LINE
  8
0
 62
7
 10
3.285000000000001
 20
10.60355518528076
 30
0
 11
3.46
 21
10.77855518528076
 31
0
  0
LINE
  8
0
 62
7
 10
3.285000000000001
 20
10.3914231509248
 30
0
 11
3.46
 21
10.5664231509248
 31
0
  0
LINE
  8
0
 62
7
 10
3.285000000000001
 20
10.17929111656883
 30
0
 11
3.46
 21
10.35429111656883
 31
0
  0
LINE
  8
0
 62
7
 10
3.285000000000001
 20
9.96715908221287
 30
0
 11
3.46
 21
10.14215908221287
 31
0
  0
LINE
  8
0
 62
7
 10
3.285000000000001
 20
9.755027047856906
 30
0
 11
3.46
 21
9.930027047856905
 31
0
  0
LINE
  8
0
 62
7
 10
3.285000000000001
 20
9.542895013500942
 30
0
 11
3.46
 21
9.717895013500941
 31
0
  0
LINE
  8
0
 62
7
 10
3.285000000000001
 20
9.330762979144978
 30
0
 11
3.46
 21
9.505762979144977
 31
0
  0
LINE
  8
0
 62
7
 10
3.285000000000001
 20
9.118630944789015
 30
0
 11
3.46
 21
9.293630944789014
 31
0
  0
LINE
  8
0
 62
7
 10
3.285000000000001
 20
8.906498910433051
 30
0
 11
3.46
 21
9.08149891043305
 31
0
  0
LINE
  8
0
 62
7
 10
3.285000000000001
 20
8.694366876077087
 30
0
 11
3.46
 21
8.869366876077086
 31
0
  0
LINE
  8
0
 62
7
 10
3.285000000000001
 20
8.482234841721123
 30
0
 11
3.46
 21
8.657234841721122
 31
0
  0
LINE
  8
0
 62
7
 10
3.314897192634841
 20
8.299999999999999
 30
0
 11
3.46
 21
8.445102807365158
 31
0
  0
LINE
  8
0
 62
7
 10
3.285
 20
10.70962120245874
 30
0
 11
3.425378797541253
 21
10.85
 31
0
  0
LINE
  8
0
 62
7
 10
3.285
 20
10.49748916810278
 30
0
 11
3.460000000000001
 21
10.67248916810278
 31
0
  0
LINE
  8
0
 62
7
 10
3.285
 20
10.28535713374682
 30
0
 11
3.460000000000001
 21
10.46035713374681
 31
0
  0
LINE
  8
0
 62
7
 10
3.285
 20
10.07322509939085
 30
0
 11
3.460000000000001
 21
10.24822509939085
 31
0
  0
LINE
  8
0
 62
7
 10
3.285
 20
9.861093065034888
 30
0
 11
3.460000000000001
 21
10.03609306503489
 31
0
  0
LINE
  8
0
 62
7
 10
3.285
 20
9.648961030678924
 30
0
 11
3.460000000000001
 21
9.823961030678923
 31
0
  0
LINE
  8
0
 62
7
 10
3.285
 20
9.43682899632296
 30
0
 11
3.460000000000001
 21
9.611828996322959
 31
0
  0
LINE
  8
0
 62
7
 10
3.285
 20
9.224696961966997
 30
0
 11
3.460000000000001
 21
9.399696961966995
 31
0
  0
LINE
  8
0
 62
7
 10
3.285
 20
9.012564927611033
 30
0
 11
3.460000000000001
 21
9.187564927611032
 31
0
  0
LINE
  8
0
 62
7
 10
3.285
 20
8.800432893255069
 30
0
 11
3.460000000000001
 21
8.975432893255068
 31
0
  0
LINE
  8
0
 62
7
 10
3.285
 20
8.588300858899105
 30
0
 11
3.460000000000001
 21
8.763300858899104
 31
0
  0
LINE
  8
0
 62
7
 10
3.285
 20
8.376168824543141
 30
0
 11
3.460000000000001
 21
8.55116882454314
 31
0
  0
LINE
  8
0
 62
7
 10
3.420963209812824
 20
8.300000000000001
 30
0
 11
3.460000000000001
 21
8.339036790187176
 31
0
  0
ENDBLK
  8
0
  0
BLOCK
  8
0
  2
*X11
 70
1
 10
0
 20
0
 30
0
  0
LINE
  8
0
 62
7
 10
3.285
 20
8.057970773009195
 30
0
 11
3.327029226990805
 21
8.1
 31
0
  0
LINE
  8
0
 62
7
 10
3.389161261346769
 20
7.949999999999999
 30
0
 11
3.460000000000001
 21
8.020838738653232
 31
0
  0
LINE
  8
0
 62
7
 10
3.285000000000001
 20
7.951904755831213
 30
0
 11
3.433095244168787
 21
8.099999999999998
 31
0
  0
ENDBLK
  8
0
  0
BLOCK
  8
0
  2
*X12
 70
1
 10
0
 20
0
 30
0
  0
LINE
  8
0
 62
7
 10
1.100000000000001
 20
11.1762716319083
 30
0
 11
1.1237283680917
 21
11.2
 31
0
  0
LINE
  8
0
 62
7
 10
1.185860402447664
 20
11.05
 30
0
 11
1.275000000000001
 21
11.13913959755234
 31
0
  0
LINE
  8
0
 62
7
 10
1.100000000000002
 20
11.07020561473032
 30
0
 11
1.229794385269681
 21
11.2
 31
0
  0
ENDBLK
  8
0
  0
BLOCK
  8
0
  2
*X13
 70
1
 10
0
 20
0
 30
0
  0
LINE
  8
0
 62
7
 10
1.100000000000001
 20
10.75200756319637
 30
0
 11
1.197992436803626
 21
10.85
 31
0
  0
LINE
  8
0
 62
7
 10
1.100000000000001
 20
10.5398755288404
 30
0
 11
1.275000000000001
 21
10.7148755288404
 31
0
  0
LINE
  8
0
 62
7
 10
1.100000000000001
 20
10.32774349448444
 30
0
 11
1.275000000000001
 21
10.50274349448444
 31
0
  0
LINE
  8
0
 62
7
 10
1.100000000000001
 20
10.11561146012848
 30
0
 11
1.275000000000001
 21
10.29061146012848
 31
0
  0
LINE
  8
0
 62
7
 10
1.100000000000001
 20
9.903479425772513
 30
0
 11
1.275000000000001
 21
10.07847942577251
 31
0
  0
LINE
  8
0
 62
7
 10
1.100000000000001
 20
9.691347391416549
 30
0
 11
1.275000000000001
 21
9.866347391416548
 31
0
  0
LINE
  8
0
 62
7
 10
1.100000000000001
 20
9.479215357060585
 30
0
 11
1.275000000000001
 21
9.654215357060584
 31
0
  0
LINE
  8
0
 62
7
 10
1.100000000000001
 20
9.267083322704622
 30
0
 11
1.275000000000001
 21
9.442083322704621
 31
0
  0
LINE
  8
0
 62
7
 10
1.100000000000001
 20
9.054951288348658
 30
0
 11
1.275000000000001
 21
9.229951288348657
 31
0
  0
LINE
  8
0
 62
7
 10
1.100000000000001
 20
8.842819253992694
 30
0
 11
1.275000000000001
 21
9.017819253992693
 31
0
  0
LINE
  8
0
 62
7
 10
1.100000000000001
 20
8.63068721963673
 30
0
 11
1.275000000000001
 21
8.805687219636729
 31
0
  0
LINE
  8
0
 62
7
 10
1.100000000000001
 20
8.418555185280766
 30
0
 11
1.275000000000001
 21
8.593555185280765
 31
0
  0
LINE
  8
0
 62
7
 10
1.193576849075199
 20
8.299999999999999
 30
0
 11
1.275000000000001
 21
8.381423150924801
 31
0
  0
LINE
  8
0
 62
7
 10
1.100000000000001
 20
10.64594154601838
 30
0
 11
1.275000000000001
 21
10.82094154601839
 31
0
  0
LINE
  8
0
 62
7
 10
1.100000000000001
 20
10.43380951166242
 30
0
 11
1.275000000000001
 21
10.60880951166242
 31
0
  0
LINE
  8
0
 62
7
 10
1.100000000000001
 20
10.22167747730646
 30
0
 11
1.275000000000001
 21
10.39667747730646
 31
0
  0
LINE
  8
0
 62
7
 10
1.100000000000001
 20
10.00954544295049
 30
0
 11
1.275000000000001
 21
10.1845454429505
 31
0
  0
LINE
  8
0
 62
7
 10
1.100000000000001
 20
9.797413408594529
 30
0
 11
1.275000000000001
 21
9.972413408594532
 31
0
  0
LINE
  8
0
 62
7
 10
1.100000000000001
 20
9.585281374238566
 30
0
 11
1.275000000000001
 21
9.760281374238568
 31
0
  0
LINE
  8
0
 62
7
 10
1.100000000000001
 20
9.373149339882602
 30
0
 11
1.275000000000001
 21
9.548149339882604
 31
0
  0
LINE
  8
0
 62
7
 10
1.100000000000001
 20
9.161017305526638
 30
0
 11
1.275000000000001
 21
9.33601730552664
 31
0
  0
LINE
  8
0
 62
7
 10
1.100000000000001
 20
8.948885271170674
 30
0
 11
1.275000000000001
 21
9.123885271170677
 31
0
  0
LINE
  8
0
 62
7
 10
1.100000000000001
 20
8.73675323681471
 30
0
 11
1.275000000000001
 21
8.911753236814713
 31
0
  0
LINE
  8
0
 62
7
 10
1.100000000000001
 20
8.524621202458746
 30
0
 11
1.275000000000001
 21
8.699621202458749
 31
0
  0
LINE
  8
0
 62
7
 10
1.100000000000001
 20
8.312489168102783
 30
0
 11
1.275000000000001
 21
8.487489168102785
 31
0
  0
ENDBLK
  8
0
  0
BLOCK
  8
0
  2
*X14
 70
1
 10
0
 20
0
 30
0
  0
LINE
  8
0
 62
7
 10
1.100000000000001
 20
7.99429111656884
 30
0
 11
1.205708883431162
 21
8.1
 31
0
  0
LINE
  8
0
 62
7
 10
1.267840917787126
 20
7.949999999999999
 30
0
 11
1.275000000000001
 21
7.957159082212874
 31
0
  0
LINE
  8
0
 62
7
 10
1.161774900609143
 20
7.949999999999999
 30
0
 11
1.275000000000001
 21
8.063225099390856
 31
0
  0
ENDBLK
  8
0
  0
BLOCK
  8
0
  2
*X15
 70
1
 10
0
 20
0
 30
0
  0
LINE
  8
0
 62
7
 10
0.9350000000000009
 20
5.495838738653232
 30
0
 11
0.9491612613467693
 21
5.51
 31
0
  0
LINE
  8
0
 62
7
 10
0.9350000000000009
 20
5.283706704297268
 30
0
 11
1.275000000000001
 21
5.623706704297267
 31
0
  0
LINE
  8
0
 62
7
 10
1.133425330058698
 20
5.270000000000001
 30
0
 11
1.373425330058696
 21
5.51
 31
0
  0
LINE
  8
0
 62
7
 10
1.345557364414662
 20
5.270000000000001
 30
0
 11
1.585557364414661
 21
5.51
 31
0
  0
LINE
  8
0
 62
7
 10
1.557689398770627
 20
5.270000000000001
 30
0
 11
1.797689398770625
 21
5.51
 31
0
  0
LINE
  8
0
 62
7
 10
1.769821433126591
 20
5.270000000000001
 30
0
 11
2.009821433126589
 21
5.51
 31
0
  0
LINE
  8
0
 62
7
 10
1.981953467482555
 20
5.270000000000001
 30
0
 11
2.221953467482554
 21
5.51
 31
0
  0
LINE
  8
0
 62
7
 10
2.194085501838519
 20
5.270000000000001
 30
0
 11
2.434085501838518
 21
5.51
 31
0
  0
LINE
  8
0
 62
7
 10
2.406217536194484
 20
5.270000000000001
 30
0
 11
2.646217536194482
 21
5.51
 31
0
  0
LINE
  8
0
 62
7
 10
2.618349570550448
 20
5.270000000000001
 30
0
 11
2.858349570550446
 21
5.51
 31
0
  0
LINE
  8
0
 62
7
 10
2.830481604906412
 20
5.270000000000001
 30
0
 11
3.070481604906411
 21
5.51
 31
0
  0
LINE
  8
0
 62
7
 10
3.285
 20
5.512386360737624
 30
0
 11
3.432613639262376
 21
5.66
 31
0
  0
LINE
  8
0
 62
7
 10
3.042613639262377
 20
5.270000000000001
 30
0
 11
3.282613639262375
 21
5.51
 31
0
  0
LINE
  8
0
 62
7
 10
3.254745673618341
 20
5.270000000000001
 30
0
 11
3.49474567361834
 21
5.509999999999999
 31
0
  0
LINE
  8
0
 62
7
 10
3.466877707974305
 20
5.270000000000001
 30
0
 11
3.61
 21
5.413122292025697
 31
0
  0
LINE
  8
0
 62
7
 10
1.100000000000001
 20
5.554772721475249
 30
0
 11
1.205227278524751
 21
5.66
 31
0
  0
LINE
  8
0
 62
7
 10
0.9350000000000009
 20
5.38977272147525
 30
0
 11
1.055227278524751
 21
5.51
 31
0
  0
LINE
  8
0
 62
7
 10
1.027359312880717
 20
5.270000000000001
 30
0
 11
1.275
 21
5.517640687119285
 31
0
  0
LINE
  8
0
 62
7
 10
1.239491347236681
 20
5.270000000000001
 30
0
 11
1.47949134723668
 21
5.510000000000002
 31
0
  0
LINE
  8
0
 62
7
 10
1.451623381592645
 20
5.270000000000001
 30
0
 11
1.691623381592644
 21
5.510000000000002
 31
0
  0
LINE
  8
0
 62
7
 10
1.663755415948609
 20
5.270000000000001
 30
0
 11
1.903755415948609
 21
5.510000000000002
 31
0
  0
LINE
  8
0
 62
7
 10
1.875887450304574
 20
5.270000000000001
 30
0
 11
2.115887450304573
 21
5.510000000000002
 31
0
  0
LINE
  8
0
 62
7
 10
2.088019484660538
 20
5.270000000000001
 30
0
 11
2.328019484660537
 21
5.510000000000002
 31
0
  0
LINE
  8
0
 62
7
 10
2.300151519016502
 20
5.270000000000001
 30
0
 11
2.540151519016502
 21
5.510000000000002
 31
0
  0
LINE
  8
0
 62
7
 10
2.512283553372467
 20
5.270000000000001
 30
0
 11
2.752283553372466
 21
5.510000000000002
 31
0
  0
LINE
  8
0
 62
7
 10
2.724415587728431
 20
5.270000000000001
 30
0
 11
2.96441558772843
 21
5.510000000000002
 31
0
  0
LINE
  8
0
 62
7
 10
3.285000000000001
 20
5.618452377915608
 30
0
 11
3.326547622084395
 21
5.66
 31
0
  0
LINE
  8
0
 62
7
 10
2.936547622084395
 20
5.270000000000001
 30
0
 11
3.176547622084394
 21
5.510000000000002
 31
0
  0
LINE
  8
0
 62
7
 10
3.148679656440359
 20
5.270000000000001
 30
0
 11
3.460000000000001
 21
5.581320343559642
 31
0
  0
LINE
  8
0
 62
7
 10
3.360811690796324
 20
5.270000000000001
 30
0
 11
3.600811690796322
 21
5.509999999999999
 31
0
  0
LINE
  8
0
 62
7
 10
3.572943725152288
 20
5.270000000000001
 30
0
 11
3.610000000000001
 21
5.307056274847715
 31
0
  0
ENDBLK
  8
0
  0
BLOCK
  8
0
  2
*X16
 70
1
 10
0
 20
0
 30
0
  0
LINE
  8
0
 62
7
 10
0.9350000000000014
 20
5.071574669941304
 30
0
 11
1.093425330058699
 21
5.230000000000001
 31
0
  0
LINE
  8
0
 62
7
 10
1.065557364414664
 20
4.990000000000002
 30
0
 11
1.305557364414663
 21
5.230000000000001
 31
0
  0
LINE
  8
0
 62
7
 10
1.277689398770628
 20
4.990000000000002
 30
0
 11
1.517689398770627
 21
5.230000000000001
 31
0
  0
LINE
  8
0
 62
7
 10
1.100000000000001
 20
4.812310601229374
 30
0
 11
1.275
 21
4.987310601229373
 31
0
  0
LINE
  8
0
 62
7
 10
1.489821433126592
 20
4.990000000000002
 30
0
 11
1.729821433126592
 21
5.230000000000001
 31
0
  0
LINE
  8
0
 62
7
 10
1.100000000000001
 20
4.60017856687341
 30
0
 11
1.275
 21
4.775178566873409
 31
0
  0
LINE
  8
0
 62
7
 10
1.701953467482557
 20
4.990000000000002
 30
0
 11
1.941953467482556
 21
5.230000000000001
 31
0
  0
LINE
  8
0
 62
7
 10
1.100000000000001
 20
4.388046532517446
 30
0
 11
1.275
 21
4.563046532517445
 31
0
  0
LINE
  8
0
 62
7
 10
1.914085501838521
 20
4.990000000000002
 30
0
 11
2.15408550183852
 21
5.230000000000001
 31
0
  0
LINE
  8
0
 62
7
 10
1.100000000000001
 20
4.175914498161482
 30
0
 11
1.275
 21
4.350914498161481
 31
0
  0
LINE
  8
0
 62
7
 10
2.126217536194485
 20
4.990000000000002
 30
0
 11
2.366217536194485
 21
5.230000000000001
 31
0
  0
LINE
  8
0
 62
7
 10
1.100000000000001
 20
3.963782463805519
 30
0
 11
1.275
 21
4.138782463805518
 31
0
  0
LINE
  8
0
 62
7
 10
2.33834957055045
 20
4.990000000000002
 30
0
 11
2.578349570550449
 21
5.230000000000001
 31
0
  0
LINE
  8
0
 62
7
 10
1.100000000000001
 20
3.751650429449554
 30
0
 11
1.275
 21
3.926650429449554
 31
0
  0
LINE
  8
0
 62
7
 10
2.550481604906414
 20
4.990000000000002
 30
0
 11
2.790481604906413
 21
5.230000000000001
 31
0
  0
LINE
  8
0
 62
7
 10
1.100000000000001
 20
3.53951839509359
 30
0
 11
1.275
 21
3.714518395093589
 31
0
  0
LINE
  8
0
 62
7
 10
2.762613639262378
 20
4.990000000000002
 30
0
 11
3.002613639262377
 21
5.230000000000001
 31
0
  0
LINE
  8
0
 62
7
 10
1.112613639262378
 20
3.340000000000003
 30
0
 11
1.275
 21
3.502386360737625
 31
0
  0
LINE
  8
0
 62
7
 10
2.974745673618342
 20
4.990000000000002
 30
0
 11
3.214745673618342
 21
5.230000000000001
 31
0
  0
LINE
  8
0
 62
7
 10
3.186877707974307
 20
4.990000000000002
 30
0
 11
3.426877707974306
 21
5.230000000000001
 31
0
  0
LINE
  8
0
 62
7
 10
3.285000000000001
 20
4.87599025766973
 30
0
 11
3.610000000000001
 21
5.200990257669733
 31
0
  0
LINE
  8
0
 62
7
 10
3.285000000000001
 20
4.663858223313766
 30
0
 11
3.460000000000001
 21
4.838858223313767
 31
0
  0
LINE
  8
0
 62
7
 10
3.285000000000001
 20
4.451726188957802
 30
0
 11
3.460000000000001
 21
4.626726188957803
 31
0
  0
LINE
  8
0
 62
7
 10
3.285000000000001
 20
4.239594154601838
 30
0
 11
3.460000000000001
 21
4.414594154601839
 31
0
  0
LINE
  8
0
 62
7
 10
3.285000000000001
 20
4.027462120245874
 30
0
 11
3.460000000000001
 21
4.202462120245875
 31
0
  0
LINE
  8
0
 62
7
 10
3.285000000000001
 20
3.815330085889911
 30
0
 11
3.460000000000001
 21
3.990330085889911
 31
0
  0
LINE
  8
0
 62
7
 10
3.285000000000001
 20
3.603198051533946
 30
0
 11
3.460000000000001
 21
3.778198051533947
 31
0
  0
LINE
  8
0
 62
7
 10
3.285000000000001
 20
3.391066017177982
 30
0
 11
3.460000000000001
 21
3.566066017177983
 31
0
  0
LINE
  8
0
 62
7
 10
3.346066017177984
 20
3.240000000000002
 30
0
 11
3.460000000000001
 21
3.353933982822018
 31
0
  0
LINE
  8
0
 62
7
 10
0.9350000000000009
 20
5.177640687119285
 30
0
 11
0.9873593128807165
 21
5.230000000000001
 31
0
  0
LINE
  8
0
 62
7
 10
0.9594913472366815
 20
4.990000000000002
 30
0
 11
1.199491347236681
 21
5.230000000000001
 31
0
  0
LINE
  8
0
 62
7
 10
1.100000000000001
 20
4.918376618407356
 30
0
 11
1.411623381592645
 21
5.230000000000001
 31
0
  0
LINE
  8
0
 62
7
 10
1.38375541594861
 20
4.990000000000001
 30
0
 11
1.623755415948609
 21
5.230000000000001
 31
0
  0
LINE
  8
0
 62
7
 10
1.100000000000001
 20
4.706244584051392
 30
0
 11
1.275000000000001
 21
4.881244584051391
 31
0
  0
LINE
  8
0
 62
7
 10
1.595887450304574
 20
4.990000000000001
 30
0
 11
1.835887450304574
 21
5.230000000000001
 31
0
  0
LINE
  8
0
 62
7
 10
1.100000000000001
 20
4.494112549695428
 30
0
 11
1.275000000000001
 21
4.669112549695427
 31
0
  0
LINE
  8
0
 62
7
 10
1.808019484660538
 20
4.990000000000001
 30
0
 11
2.048019484660538
 21
5.230000000000001
 31
0
  0
LINE
  8
0
 62
7
 10
1.100000000000001
 20
4.281980515339464
 30
0
 11
1.275000000000001
 21
4.456980515339463
 31
0
  0
LINE
  8
0
 62
7
 10
2.020151519016502
 20
4.990000000000001
 30
0
 11
2.260151519016502
 21
5.230000000000001
 31
0
  0
LINE
  8
0
 62
7
 10
1.100000000000001
 20
4.0698484809835
 30
0
 11
1.275000000000001
 21
4.244848480983499
 31
0
  0
LINE
  8
0
 62
7
 10
2.232283553372467
 20
4.990000000000001
 30
0
 11
2.472283553372467
 21
5.230000000000001
 31
0
  0
LINE
  8
0
 62
7
 10
1.100000000000001
 20
3.857716446627537
 30
0
 11
1.275000000000001
 21
4.032716446627536
 31
0
  0
LINE
  8
0
 62
7
 10
2.444415587728431
 20
4.990000000000001
 30
0
 11
2.684415587728431
 21
5.230000000000001
 31
0
  0
LINE
  8
0
 62
7
 10
1.100000000000001
 20
3.645584412271572
 30
0
 11
1.275000000000001
 21
3.820584412271572
 31
0
  0
LINE
  8
0
 62
7
 10
2.656547622084395
 20
4.990000000000001
 30
0
 11
2.896547622084395
 21
5.230000000000001
 31
0
  0
LINE
  8
0
 62
7
 10
1.100000000000001
 20
3.433452377915608
 30
0
 11
1.275000000000001
 21
3.608452377915607
 31
0
  0
LINE
  8
0
 62
7
 10
2.86867965644036
 20
4.990000000000001
 30
0
 11
3.108679656440359
 21
5.230000000000001
 31
0
  0
LINE
  8
0
 62
7
 10
1.21867965644036
 20
3.340000000000002
 30
0
 11
1.275000000000001
 21
3.396320343559643
 31
0
  0
LINE
  8
0
 62
7
 10
3.080811690796324
 20
4.990000000000001
 30
0
 11
3.320811690796324
 21
5.230000000000001
 31
0
  0
LINE
  8
0
 62
7
 10
3.285000000000001
 20
4.982056274847712
 30
0
 11
3.532943725152288
 21
5.230000000000001
 31
0
  0
LINE
  8
0
 62
7
 10
3.505075759508253
 20
4.990000000000002
 30
0
 11
3.610000000000001
 21
5.094924240491751
 31
0
  0
LINE
  8
0
 62
7
 10
3.285000000000001
 20
4.769924240491748
 30
0
 11
3.460000000000001
 21
4.944924240491749
 31
0
  0
LINE
  8
0
 62
7
 10
3.285000000000001
 20
4.557792206135784
 30
0
 11
3.460000000000001
 21
4.732792206135785
 31
0
  0
LINE
  8
0
 62
7
 10
3.285000000000001
 20
4.34566017177982
 30
0
 11
3.460000000000001
 21
4.520660171779821
 31
0
  0
LINE
  8
0
 62
7
 10
3.285000000000001
 20
4.133528137423856
 30
0
 11
3.460000000000001
 21
4.308528137423857
 31
0
  0
LINE
  8
0
 62
7
 10
3.285000000000001
 20
3.921396103067893
 30
0
 11
3.460000000000001
 21
4.096396103067893
 31
0
  0
LINE
  8
0
 62
7
 10
3.285000000000001
 20
3.709264068711928
 30
0
 11
3.460000000000001
 21
3.884264068711929
 31
0
  0
LINE
  8
0
 62
7
 10
3.285000000000001
 20
3.497132034355964
 30
0
 11
3.460000000000001
 21
3.672132034355965
 31
0
  0
LINE
  8
0
 62
7
 10
3.285000000000001
 20
3.285000000000001
 30
0
 11
3.460000000000001
 21
3.460000000000001
 31
0
  0
LINE
  8
0
 62
7
 10
3.452132034355964
 20
3.24
 30
0
 11
3.460000000000001
 21
3.247867965644037
 31
0
  0
ENDBLK
  8
0
  0
BLOCK
  8
0
  2
*D0
 70
1
 10
0
 20
0
 30
0
  0
LINE
  8
0
 62
7
 10
0.8144477970817061
 20
4.527567086810871
 30
0
 11
0.8144477970817061
 21
4.990000000000001
 31
0
  0
LINE
  8
0
 62
7
 10
0.8144477970817061
 20
3.340000000000001
 30
0
 11
0.8144477970817061
 21
3.78256708681087
 31
0
  0
LINE
  8
0
 62
7
 10
1.100000000000001
 20
4.990000000000001
 30
0
 11
0.7644477970817061
 21
4.990000000000001
 31
0
  0
LINE
  8
0
 62
7
 10
1.100000000000001
 20
3.340000000000001
 30
0
 11
0.7644477970817061
 21
3.340000000000001
 31
0
  0
LINE
  8
0
 62
7
 10
0.8498031361410335
 20
4.954644660940674
 30
0
 11
0.7790924580223787
 21
5.025355339059328
 31
0
  0
LINE
  8
0
 62
7
 10
0.7790924580223787
 20
3.375355339059328
 30
0
 11
0.8498031361410335
 21
3.304644660940674
 31
0
  0
TEXT
  8
0
 62
7
 10
0.8594477970817062
 20
4.032567086810871
 30
0
 40
0.1
  1
1,65
 50
90
 41
0.9
  0
ENDBLK
  8
0
  0
BLOCK
  8
0
  2
*D1
 70
1
 10
0
 20
0
 30
0
  0
LINE
  8
0
 62
7
 10
2.67442634133878
 20
5.93214322375517
 30
0
 11
3.285000000000001
 21
5.93214322375517
 31
0
  0
LINE
  8
0
 62
7
 10
1.275000000000001
 20
5.93214322375517
 30
0
 11
1.92942634133878
 21
5.93214322375517
 31
0
  0
LINE
  8
0
 62
7
 10
3.285000000000001
 20
5.51
 30
0
 11
3.285000000000001
 21
5.98214322375517
 31
0
  0
LINE
  8
0
 62
7
 10
1.275000000000001
 20
5.51
 30
0
 11
1.275000000000001
 21
5.98214322375517
 31
0
  0
LINE
  8
0
 62
7
 10
3.249644660940674
 20
5.896787884695843
 30
0
 11
3.320355339059328
 21
5.967498562814497
 31
0
  0
LINE
  8
0
 62
7
 10
1.310355339059328
 20
5.967498562814497
 30
0
 11
1.239644660940673
 21
5.896787884695843
 31
0
  0
TEXT
  8
0
 62
7
 10
2.17942634133878
 20
5.88714322375517
 30
0
 40
0.1
  1
2,01
 41
0.9
  0
ENDBLK
  8
0
  0
BLOCK
  8
0
  2
*D2
 70
1
 10
0
 20
0
 30
0
  0
LINE
  8
0
 62
7
 10
3.86838604723783
 20
4.55389414069153
 30
0
 11
3.86838604723783
 21
4.990000000000001
 31
0
  0
LINE
  8
0
 62
7
 10
3.86838604723783
 20
3.24
 30
0
 11
3.86838604723783
 21
3.80889414069153
 31
0
  0
LINE
  8
0
 62
7
 10
3.460000000000001
 20
4.990000000000001
 30
0
 11
3.91838604723783
 21
4.990000000000001
 31
0
  0
LINE
  8
0
 62
7
 10
3.460000000000001
 20
3.24
 30
0
 11
3.91838604723783
 21
3.24
 31
0
  0
LINE
  8
0
 62
7
 10
3.833030708178503
 20
3.275355339059327
 30
0
 11
3.903741386297158
 21
3.204644660940672
 31
0
  0
LINE
  8
0
 62
7
 10
3.903741386297158
 20
4.954644660940674
 30
0
 11
3.833030708178503
 21
5.025355339059328
 31
0
  0
TEXT
  8
0
 62
7
 10
3.91338604723783
 20
4.05889414069153
 30
0
 40
0.1
  1
1,75
 50
90
 41
0.9
  0
ENDBLK
  8
0
  0
BLOCK
  8
0
  2
*D3
 70
1
 10
0
 20
0
 30
0
  0
LINE
  8
0
 62
7
 10
2.63758986827911
 20
11.5661327542156
 30
0
 11
3.285000000000001
 21
11.5661327542156
 31
0
  0
LINE
  8
0
 62
7
 10
1.275000000000001
 20
11.5661327542156
 30
0
 11
1.99258986827911
 21
11.5661327542156
 31
0
  0
LINE
  8
0
 62
7
 10
3.285000000000001
 20
11.2
 30
0
 11
3.285000000000001
 21
11.6161327542156
 31
0
  0
LINE
  8
0
 62
7
 10
1.275000000000001
 20
11.2
 30
0
 11
1.275000000000001
 21
11.6161327542156
 31
0
  0
LINE
  8
0
 62
7
 10
1.310355339059328
 20
11.60148809327493
 30
0
 11
1.239644660940673
 21
11.53077741515627
 31
0
  0
LINE
  8
0
 62
7
 10
3.249644660940674
 20
11.53077741515627
 30
0
 11
3.320355339059328
 21
11.60148809327493
 31
0
  0
TEXT
  8
0
 62
7
 10
2.19258986827911
 20
11.5211327542156
 30
0
 40
0.1
  1
2,01
 41
0.9
  0
ENDBLK
  8
0
  0
BLOCK
  8
0
  2
*D4
 70
1
 10
0
 20
0
 30
0
  0
LINE
  8
0
 62
7
 10
0.5775043121558
 20
10.26323898256967
 30
0
 11
0.5775043121558
 21
11.05
 31
0
  0
LINE
  8
0
 62
7
 10
0.5775043121558
 20
8.299999999999999
 30
0
 11
0.5775043121558
 21
9.183238982569669
 31
0
  0
LINE
  8
0
 62
7
 10
0.9500000000000011
 20
11.05
 30
0
 11
0.5275043121558
 21
11.05
 31
0
  0
LINE
  8
0
 62
7
 10
0.9500000000000011
 20
8.299999999999999
 30
0
 11
0.5275043121558
 21
8.299999999999999
 31
0
  0
LINE
  8
0
 62
7
 10
0.5421489730964726
 20
8.335355339059326
 30
0
 11
0.6128596512151274
 21
8.264644660940672
 31
0
  0
LINE
  8
0
 62
7
 10
0.6128596512151274
 20
11.01464466094067
 30
0
 11
0.5421489730964726
 21
11.08535533905933
 31
0
  0
TEXT
  8
0
 62
7
 10
0.5475043121558
 20
9.585738982569671
 30
0
 40
0.1
  1
2,75
 50
90
 41
0.9
  0
TEXT
  8
0
 62
7
 10
0.7075043121558
 20
9.38323898256967
 30
0
 40
0.1
  1
(260-280)
 50
90
 41
0.9
  0
ENDBLK
  8
0
  0
ENDSEC
  0
SECTION
  2
ENTITIES
  0
INSERT
  8
0
  2
*X0
 10
0
 20
0
 30
0
  0
INSERT
  8
0
  2
*X1
 10
0
 20
0
 30
0
  0
INSERT
  8
0
  2
*X2
 10
0
 20
0
 30
0
  0
INSERT
  8
0
  2
*X3
 10
0
 20
0
 30
0
  0
INSERT
  8
0
  2
*X4
 10
0
 20
0
 30
0
  0
INSERT
  8
0
  2
*X5
 10
0
 20
0
 30
0
  0
INSERT
  8
0
  2
*X6
 10
0
 20
0
 30
0
  0
INSERT
  8
0
  2
*X7
 10
0
 20
0
 30
0
  0
INSERT
  8
0
  2
*X8
 10
0
 20
0
 30
0
  0
INSERT
  8
0
  2
*X9
 10
0
 20
0
 30
0
  0
INSERT
  8
0
  2
*X10
 10
0
 20
0
 30
0
  0
INSERT
  8
0
  2
*X11
 10
0
 20
0
 30
0
  0
INSERT
  8
0
  2
*X12
 10
0
 20
0
 30
0
  0
INSERT
  8
0
  2
*X13
 10
0
 20
0
 30
0
  0
INSERT
  8
0
  2
*X14
 10
0
 20
0
 30
0
  0
INSERT
  8
0
  2
*X15
 10
0
 20
0
 30
0
  0
INSERT
  8
0
  2
*X16
 10
0
 20
0
 30
0
  0
LINE
  8
0
 62
7
 10
2.214898162213437
 20
3.972570175046736
 30
0
 11
2.259366210666993
 21
4.045000000000001
 31
0
  0
LINE
  8
0
 62
7
 10
2.259366210666993
 20
4.045000000000001
 30
0
 11
2.302870553142434
 21
4.045000000000001
 31
0
  0
LINE
  8
0
 62
7
 10
2.220000000000001
 20
3.9603492641207
 30
0
 11
2.214898162213437
 21
3.972570175046736
 31
0
  0
LINE
  8
0
 62
7
 10
2.259366210666993
 20
4.045000000000001
 30
0
 11
2.271350338134659
 21
4.064519818946121
 31
0
  0
LINE
  8
0
 62
7
 10
2.302870553142434
 20
4.045000000000001
 30
0
 11
2.340000000000001
 21
4.011245957402209
 31
0
  0
LINE
  8
0
 62
7
 10
2.340000000000001
 20
3.91338419310777
 30
0
 11
2.340000000000001
 21
3.796585580625623
 31
0
  0
LINE
  8
0
 62
7
 10
2.340000000000001
 20
4.011245957402209
 30
0
 11
2.340000000000001
 21
3.796585580625623
 31
0
  0
LINE
  8
0
 62
7
 10
3.230000000000001
 20
3.24
 30
0
 11
3.230000000000001
 21
3.56
 31
0
  0
LINE
  8
0
 62
7
 10
2.340000000000001
 20
3.56
 30
0
 11
2.340000000000001
 21
3.24
 31
0
  0
LINE
  8
0
 62
7
 10
2.340000000000001
 20
3.24
 30
0
 11
3.230000000000001
 21
3.24
 31
0
  0
LINE
  8
0
 62
7
 10
3.230000000000001
 20
3.470000000000001
 30
0
 11
3.230000000000001
 21
3.90560372950537
 31
0
  0
LINE
  8
0
 62
7
 10
2.340000000000001
 20
3.675951598267031
 30
0
 11
2.340000000000001
 21
3.470000000000001
 31
0
  0
LINE
  8
0
 62
7
 10
2.340000000000001
 20
3.470000000000001
 30
0
 11
3.230000000000001
 21
3.470000000000001
 31
0
  0
LINE
  8
0
 62
7
 10
3.230000000000001
 20
3.81265579082662
 30
0
 11
3.230000000000001
 21
4.2600892423373
 31
0
  0
LINE
  8
0
 62
7
 10
2.340000000000001
 20
3.79427055996569
 30
0
 11
2.340000000000001
 21
3.583003659588281
 31
0
  0
LINE
  8
0
 62
7
 10
2.340000000000001
 20
3.583003659588281
 30
0
 11
3.230000000000001
 21
3.81265579082662
 31
0
  0
LINE
  8
0
 62
7
 10
3.230000000000001
 20
4.15850722856965
 30
0
 11
3.230000000000001
 21
4.649553085328181
 31
0
  0
LINE
  8
0
 62
7
 10
2.340000000000001
 20
3.796585580625623
 30
0
 11
2.340000000000001
 21
3.692688546198041
 31
0
  0
LINE
  8
0
 62
7
 10
2.340000000000001
 20
3.692688546198041
 30
0
 11
3.230000000000001
 21
4.15850722856965
 31
0
  0
LINE
  8
0
 62
7
 10
3.230000000000001
 20
4.532754472846022
 30
0
 11
3.230000000000001
 21
4.935000000000001
 31
0
  0
LINE
  8
0
 62
7
 10
3.230000000000001
 20
4.935000000000001
 30
0
 11
2.931816495457351
 21
4.935000000000001
 31
0
  0
LINE
  8
0
 62
7
 10
2.340000000000001
 20
3.796585580625623
 30
0
 11
3.230000000000001
 21
4.532754472846022
 31
0
  0
LINE
  8
0
 62
7
 10
3.039087152866511
 20
4.935000000000001
 30
0
 11
2.494118560859571
 21
4.935000000000001
 31
0
  0
LINE
  8
0
 62
7
 10
2.340000000000001
 20
4.011245957402209
 30
0
 11
2.402901024686591
 21
3.95406320768712
 31
0
  0
LINE
  8
0
 62
7
 10
2.402901024686591
 20
3.95406320768712
 30
0
 11
3.039087152866511
 21
4.935000000000001
 31
0
  0
LINE
  8
0
 62
7
 10
2.587058566539301
 20
4.935000000000001
 30
0
 11
2.119176846823732
 21
4.935000000000001
 31
0
  0
LINE
  8
0
 62
7
 10
2.302870553142434
 20
4.045000000000001
 30
0
 11
2.357720616591663
 21
4.045000000000001
 31
0
  0
LINE
  8
0
 62
7
 10
2.357720616591663
 20
4.045000000000001
 30
0
 11
2.587058566539301
 21
4.935000000000001
 31
0
  0
LINE
  8
0
 62
7
 10
2.209404446147651
 20
4.935000000000001
 30
0
 11
1.715586865654242
 21
4.935000000000001
 31
0
  0
LINE
  8
0
 62
7
 10
2.271350338134659
 20
4.064519818946121
 30
0
 11
2.209404446147651
 21
4.935000000000001
 31
0
  0
LINE
  8
0
 62
7
 10
1.8131146227063
 20
4.935000000000001
 30
0
 11
1.330000000000001
 21
4.935000000000001
 31
0
  0
LINE
  8
0
 62
7
 10
1.330000000000001
 20
4.935000000000001
 30
0
 11
1.330000000000001
 21
4.753756862302671
 31
0
  0
LINE
  8
0
 62
7
 10
2.220000000000001
 20
3.724175591143061
 30
0
 11
2.220000000000001
 21
3.9603492641207
 31
0
  0
LINE
  8
0
 62
7
 10
2.214898162213437
 20
3.972570175046736
 30
0
 11
1.8131146227063
 21
4.935000000000001
 31
0
  0
LINE
  8
0
 62
7
 10
1.330000000000001
 20
4.891379261994081
 30
0
 11
1.330000000000001
 21
4.293114041648102
 31
0
  0
LINE
  8
0
 62
7
 10
2.220000000000001
 20
3.63286979632517
 30
0
 11
2.220000000000001
 21
3.86179799083447
 31
0
  0
LINE
  8
0
 62
7
 10
2.220000000000001
 20
3.86179799083447
 30
0
 11
1.330000000000001
 21
4.891379261994081
 31
0
  0
LINE
  8
0
 62
7
 10
1.330000000000001
 20
4.405175342178821
 30
0
 11
1.330000000000001
 21
3.967696527428741
 31
0
  0
LINE
  8
0
 62
7
 10
2.220000000000001
 20
3.52330719032323
 30
0
 11
2.220000000000001
 21
3.744931096855901
 31
0
  0
LINE
  8
0
 62
7
 10
2.220000000000001
 20
3.744931096855901
 30
0
 11
1.330000000000001
 21
4.405175342178821
 31
0
  0
LINE
  8
0
 62
7
 10
1.330000000000001
 20
4.068291985054241
 30
0
 11
1.330000000000001
 21
3.638552325319611
 31
0
  0
LINE
  8
0
 62
7
 10
2.220000000000001
 20
3.412020741712001
 30
0
 11
2.220000000000001
 21
3.623902647948731
 31
0
  0
LINE
  8
0
 62
7
 10
2.220000000000001
 20
3.623902647948731
 30
0
 11
1.330000000000001
 21
4.068291985054241
 31
0
  0
LINE
  8
0
 62
7
 10
1.330000000000001
 20
3.7314219230362
 30
0
 11
1.330000000000001
 21
3.38
 31
0
  0
LINE
  8
0
 62
7
 10
2.220000000000001
 20
3.38
 30
0
 11
2.220000000000001
 21
3.5048903394286
 31
0
  0
LINE
  8
0
 62
7
 10
2.220000000000001
 20
3.5048903394286
 30
0
 11
1.330000000000001
 21
3.7314219230362
 31
0
  0
LINE
  8
0
 62
7
 10
1.76658925913312
 20
3.39
 30
0
 11
1.76658925913312
 21
4.044999972730882
 31
0
  0
LINE
  8
0
 62
7
 10
1.76658925913312
 20
3.39
 30
0
 11
1.660934159871418
 21
3.451000000000001
 31
0
  0
LINE
  8
0
 62
7
  6
PHANTOM
 10
1.660934159871418
 20
3.451000000000001
 30
0
 11
1.872244358394821
 21
3.451000000000001
 31
0
  0
LINE
  8
0
 62
7
  6
PHANTOM
 10
1.872244358394821
 20
3.451000000000001
 30
0
 11
1.76658925913312
 21
3.39
 31
0
  0
LINE
  8
0
 62
7
 10
2.22000002724026
 20
4.498410740866881
 30
0
 11
2.33999997273251
 21
4.498410740866881
 31
0
  0
LINE
  8
0
 62
7
 10
2.793410740866881
 20
4.044999972714581
 30
0
 11
2.793410740866881
 21
3.24
 31
0
  0
LINE
  8
0
 62
7
 10
3.230000690000002
 20
8.596800069999999
 30
0
 11
2.340000459999999
 21
8.596800069999999
 31
0
  0
LINE
  8
0
 62
7
 10
2.340000459999999
 20
8.596800069999999
 30
0
 11
2.340000459999999
 21
8.531800069999997
 31
0
  0
LINE
  8
0
 62
7
 10
3.230000690000002
 20
8.531800069999997
 30
0
 11
3.230000690000002
 21
8.596800069999999
 31
0
  0
LINE
  8
0
 62
7
 10
2.340000459999999
 20
8.531800069999997
 30
0
 11
3.230000690000002
 21
8.531800069999997
 31
0
  0
LINE
  8
0
 62
7
 10
3.230000690000002
 20
8.793200059999998
 30
0
 11
2.34000031
 21
8.793200059999998
 31
0
  0
LINE
  8
0
 62
7
 10
2.34000031
 20
8.793200059999998
 30
0
 11
2.34000031
 21
8.728200059999997
 31
0
  0
LINE
  8
0
 62
7
 10
3.230000690000002
 20
8.728200059999997
 30
0
 11
3.230000690000002
 21
8.793200059999998
 31
0
  0
LINE
  8
0
 62
7
 10
2.34000031
 20
8.728200059999997
 30
0
 11
3.230000690000002
 21
8.728200059999997
 31
0
  0
LINE
  8
0
 62
7
 10
3.230000539999999
 20
8.989600059999999
 30
0
 11
2.340000539999999
 21
8.989600059999999
 31
0
  0
LINE
  8
0
 62
7
 10
2.340000539999999
 20
8.989600059999999
 30
0
 11
2.340000539999999
 21
8.92460006
 31
0
  0
LINE
  8
0
 62
7
 10
3.230000539999999
 20
8.92460006
 30
0
 11
3.230000539999999
 21
8.989600059999999
 31
0
  0
LINE
  8
0
 62
7
 10
2.340000539999999
 20
8.92460006
 30
0
 11
3.230000539999999
 21
8.92460006
 31
0
  0
LINE
  8
0
 62
7
 10
3.23000039
 20
9.186000049999999
 30
0
 11
2.34000039
 21
9.186000049999999
 31
0
  0
LINE
  8
0
 62
7
 10
2.34000039
 20
9.186000049999999
 30
0
 11
2.34000039
 21
9.121000049999999
 31
0
  0
LINE
  8
0
 62
7
 10
3.23000039
 20
9.121000049999999
 30
0
 11
3.23000039
 21
9.186000049999999
 31
0
  0
LINE
  8
0
 62
7
 10
2.34000039
 20
9.121000049999999
 30
0
 11
3.23000039
 21
9.121000049999999
 31
0
  0
LINE
  8
0
 62
7
 10
3.23000039
 20
9.382400049999999
 30
0
 11
2.34000031
 21
9.382400049999999
 31
0
  0
LINE
  8
0
 62
7
 10
2.34000031
 20
9.31740005
 30
0
 11
3.23000039
 21
9.31740005
 31
0
  0
LINE
  8
0
 62
7
 10
2.34000031
 20
9.382400049999999
 30
0
 11
2.34000031
 21
9.31740005
 31
0
  0
LINE
  8
0
 62
7
 10
3.23000039
 20
9.31740005
 30
0
 11
3.23000039
 21
9.382400049999999
 31
0
  0
LINE
  8
0
 62
7
 10
2.2720102
 20
9.513800039999998
 30
0
 11
3.039087299999999
 21
9.513800039999998
 31
0
  0
LINE
  8
0
 62
7
 10
3.039087299999999
 20
9.578800039999997
 30
0
 11
2.2720102
 21
9.578800039999997
 31
0
  0
LINE
  8
0
 62
7
 10
2.2720102
 20
9.578800039999997
 30
0
 11
2.2720102
 21
9.513800039999998
 31
0
  0
LINE
  8
0
 62
7
 10
3.039087299999999
 20
9.513800039999998
 30
0
 11
3.039087299999999
 21
9.578800039999997
 31
0
  0
LINE
  8
0
 62
7
 10
2.11917771
 20
9.710200029999998
 30
0
 11
2.587059099999998
 21
9.710200029999998
 31
0
  0
LINE
  8
0
 62
7
 10
2.587059099999998
 20
9.775200029999997
 30
0
 11
2.11917771
 21
9.775200029999997
 31
0
  0
LINE
  8
0
 62
7
 10
2.11917771
 20
9.775200029999997
 30
0
 11
2.11917771
 21
9.710200029999998
 31
0
  0
LINE
  8
0
 62
7
 10
2.587059099999998
 20
9.710200029999998
 30
0
 11
2.587059099999998
 21
9.775200029999997
 31
0
  0
LINE
  8
0
 62
7
 10
1.715587550000001
 20
9.90660003
 30
0
 11
2.271351169999999
 21
9.90660003
 31
0
  0
LINE
  8
0
 62
7
 10
2.271351169999999
 20
9.971600029999998
 30
0
 11
1.715587550000001
 21
9.971600029999998
 31
0
  0
LINE
  8
0
 62
7
 10
1.715587550000001
 20
9.971600029999998
 30
0
 11
1.715587550000001
 21
9.90660003
 31
0
  0
LINE
  8
0
 62
7
 10
2.271351169999999
 20
9.90660003
 30
0
 11
2.271351169999999
 21
9.971600029999998
 31
0
  0
LINE
  8
0
 62
7
 10
2.22000039
 20
10.16800002
 30
0
 11
1.33000039
 21
10.16800002
 31
0
  0
LINE
  8
0
 62
7
 10
1.33000039
 20
10.10300002
 30
0
 11
2.22000039
 21
10.10300002
 31
0
  0
LINE
  8
0
 62
7
 10
1.33000039
 20
10.16800002
 30
0
 11
1.33000039
 21
10.10300002
 31
0
  0
LINE
  8
0
 62
7
 10
2.22000039
 20
10.10300002
 30
0
 11
2.22000039
 21
10.16800002
 31
0
  0
LINE
  8
0
 62
7
 10
2.22000039
 20
10.36440002
 30
0
 11
1.3300003
 21
10.36440002
 31
0
  0
LINE
  8
0
 62
7
 10
1.3300003
 20
10.36440002
 30
0
 11
1.3300003
 21
10.29940002
 31
0
  0
LINE
  8
0
 62
7
 10
2.22000039
 20
10.29940002
 30
0
 11
2.22000039
 21
10.36440002
 31
0
  0
LINE
  8
0
 62
7
 10
1.3300003
 20
10.29940002
 30
0
 11
2.22000039
 21
10.29940002
 31
0
  0
LINE
  8
0
 62
7
 10
2.220000240000001
 20
10.56080001
 30
0
 11
1.330000459999999
 21
10.56080001
 31
0
  0
LINE
  8
0
 62
7
 10
1.330000459999999
 20
10.56080001
 30
0
 11
1.330000459999999
 21
10.49580001
 31
0
  0
LINE
  8
0
 62
7
 10
2.220000240000001
 20
10.49580001
 30
0
 11
2.220000240000001
 21
10.56080001
 31
0
  0
LINE
  8
0
 62
7
 10
1.330000459999999
 20
10.49580001
 30
0
 11
2.220000240000001
 21
10.49580001
 31
0
  0
LINE
  8
0
 62
7
 10
2.220000619999999
 20
10.7572
 30
0
 11
1.330000129999999
 21
10.7572
 31
0
  0
LINE
  8
0
 62
7
 10
1.330000129999999
 20
10.7572
 30
0
 11
1.330000129999999
 21
10.6922
 31
0
  0
LINE
  8
0
 62
7
 10
2.220000619999999
 20
10.6922
 30
0
 11
2.220000619999999
 21
10.7572
 31
0
  0
LINE
  8
0
 62
7
 10
1.330000129999999
 20
10.6922
 30
0
 11
2.220000619999999
 21
10.6922
 31
0
  0
LINE
  8
0
 62
7
  6
DASHED
 10
2.22000039
 20
10.9536
 30
0
 11
1.330000000000001
 21
10.9536
 31
0
  0
LINE
  8
0
 62
7
  6
DASHED
 10
1.330000000000001
 20
10.9536
 30
0
 11
1.330000000000001
 21
10.8886
 31
0
  0
LINE
  8
0
 62
7
  6
DASHED
 10
2.22000039
 20
10.8886
 30
0
 11
2.22000039
 21
10.9536
 31
0
  0
LINE
  8
0
 62
7
  6
DASHED
 10
1.330000000000001
 20
10.8886
 30
0
 11
2.22000039
 21
10.8886
 31
0
  0
LINE
  8
0
 62
7
 10
6.43999977
 20
8.728200059999997
 30
0
 11
6.875603559999999
 21
8.728200059999997
 31
0
  0
LINE
  8
0
 62
7
 10
6.209999519999998
 20
8.596800069999999
 30
0
 11
6.529999809999999
 21
8.596800069999999
 31
0
  0
LINE
  8
0
 62
7
 10
6.209999519999998
 20
8.531800069999997
 30
0
 11
6.209999519999998
 21
8.596800069999999
 31
0
  0
LINE
  8
0
 62
7
 10
6.529999809999999
 20
8.596800069999999
 30
0
 11
6.529999809999999
 21
8.531800069999997
 31
0
  0
LINE
  8
0
 62
7
 10
6.529999809999999
 20
8.531800069999997
 30
0
 11
6.209999519999998
 21
8.531800069999997
 31
0
  0
LINE
  8
0
 62
7
 10
6.43999977
 20
8.793200059999998
 30
0
 11
6.875603559999999
 21
8.793200059999998
 31
0
  0
LINE
  8
0
 62
7
 10
6.43999977
 20
8.728200059999997
 30
0
 11
6.43999977
 21
8.793200059999998
 31
0
  0
LINE
  8
0
 62
7
 10
6.875603559999999
 20
8.793200059999998
 30
0
 11
6.875603559999999
 21
8.728200059999997
 31
0
  0
LINE
  8
0
 62
7
 10
7.230089029999999
 20
8.92460006
 30
0
 11
6.55300331
 21
8.92460006
 31
0
  0
LINE
  8
0
 62
7
 10
6.55300331
 20
8.989600059999999
 30
0
 11
7.230089029999999
 21
8.989600059999999
 31
0
  0
LINE
  8
0
 62
7
 10
6.55300331
 20
8.92460006
 30
0
 11
6.55300331
 21
8.989600059999999
 31
0
  0
LINE
  8
0
 62
7
 10
7.230089029999999
 20
8.989600059999999
 30
0
 11
7.230089029999999
 21
8.92460006
 31
0
  0
LINE
  8
0
 62
7
 10
7.61955291
 20
9.121000049999999
 30
0
 11
6.662688209999996
 21
9.121000049999999
 31
0
  0
LINE
  8
0
 62
7
 10
6.662688209999996
 20
9.186000049999999
 30
0
 11
7.61955291
 21
9.186000049999999
 31
0
  0
LINE
  8
0
 62
7
 10
6.662688209999996
 20
9.121000049999999
 30
0
 11
6.662688209999996
 21
9.186000049999999
 31
0
  0
LINE
  8
0
 62
7
 10
7.61955291
 20
9.186000049999999
 30
0
 11
7.61955291
 21
9.121000049999999
 31
0
  0
LINE
  8
0
 62
7
 10
7.905
 20
9.31740005
 30
0
 11
6.766585379999999
 21
9.31740005
 31
0
  0
LINE
  8
0
 62
7
 10
6.766585379999999
 20
9.382400049999999
 30
0
 11
7.905
 21
9.382400049999999
 31
0
  0
LINE
  8
0
 62
7
 10
6.766585379999999
 20
9.31740005
 30
0
 11
6.766585379999999
 21
9.382400049999999
 31
0
  0
LINE
  8
0
 62
7
 10
7.905
 20
9.382400049999999
 30
0
 11
7.905
 21
9.31740005
 31
0
  0
LINE
  8
0
 62
7
 10
6.924063029999999
 20
9.578800039999999
 30
0
 11
7.904999839999999
 21
9.578800039999999
 31
0
  0
LINE
  8
0
 62
7
 10
7.904999839999999
 20
9.513800039999998
 30
0
 11
6.924063029999999
 21
9.513800039999998
 31
0
  0
LINE
  8
0
 62
7
 10
6.924063029999999
 20
9.513800039999998
 30
0
 11
6.924063029999999
 21
9.578800039999999
 31
0
  0
LINE
  8
0
 62
7
 10
7.904999839999999
 20
9.578800039999999
 30
0
 11
7.904999839999999
 21
9.513800039999998
 31
0
  0
LINE
  8
0
 62
7
 10
7.014999920000001
 20
9.775200029999999
 30
0
 11
7.905000149999998
 21
9.775200029999999
 31
0
  0
LINE
  8
0
 62
7
 10
7.014999920000001
 20
9.710200029999999
 30
0
 11
7.014999920000001
 21
9.775200029999999
 31
0
  0
LINE
  8
0
 62
7
 10
7.905000149999998
 20
9.775200029999999
 30
0
 11
7.905000149999998
 21
9.710200029999999
 31
0
  0
LINE
  8
0
 62
7
 10
7.905000149999998
 20
9.710200029999999
 30
0
 11
7.014999920000001
 21
9.710200029999999
 31
0
  0
LINE
  8
0
 62
7
 10
6.848012619999999
 20
9.971600029999998
 30
0
 11
7.905
 21
9.971600029999998
 31
0
  0
LINE
  8
0
 62
7
 10
7.905
 20
9.90660003
 30
0
 11
6.848012619999999
 21
9.90660003
 31
0
  0
LINE
  8
0
 62
7
 10
6.848012619999999
 20
9.90660003
 30
0
 11
6.848012619999999
 21
9.971600029999998
 31
0
  0
LINE
  8
0
 62
7
 10
7.905
 20
9.971600029999998
 30
0
 11
7.905
 21
9.90660003
 31
0
  0
LINE
  8
0
 62
7
 10
7.905000299999998
 20
10.10300002
 30
0
 11
6.694175329999999
 21
10.10300002
 31
0
  0
LINE
  8
0
 62
7
 10
6.93034912
 20
10.16800002
 30
0
 11
7.905000299999998
 21
10.16800002
 31
0
  0
LINE
  8
0
 62
7
 10
6.694175329999999
 20
10.16800002
 30
0
 11
6.93034912
 21
10.16800002
 31
0
  0
LINE
  8
0
 62
7
 10
6.694175329999999
 20
10.10300002
 30
0
 11
6.694175329999999
 21
10.16800002
 31
0
  0
LINE
  8
0
 62
7
 10
7.905000299999998
 20
10.16800002
 30
0
 11
7.905000299999998
 21
10.10300002
 31
0
  0
LINE
  8
0
 62
7
 10
7.861378779999997
 20
10.29940002
 30
0
 11
6.60286953
 21
10.29940002
 31
0
  0
LINE
  8
0
 62
7
 10
6.60286953
 20
10.36440002
 30
0
 11
7.861378779999997
 21
10.36440002
 31
0
  0
LINE
  8
0
 62
7
 10
6.60286953
 20
10.29940002
 30
0
 11
6.60286953
 21
10.36440002
 31
0
  0
LINE
  8
0
 62
7
 10
7.861378779999997
 20
10.36440002
 30
0
 11
7.861378779999997
 21
10.29940002
 31
0
  0
LINE
  8
0
 62
7
 10
7.375174859999999
 20
10.49580001
 30
0
 11
6.49330703
 21
10.49580001
 31
0
  0
LINE
  8
0
 62
7
 10
6.49330703
 20
10.56080001
 30
0
 11
7.375174859999999
 21
10.56080001
 31
0
  0
LINE
  8
0
 62
7
 10
6.49330703
 20
10.49580001
 30
0
 11
6.49330703
 21
10.56080001
 31
0
  0
LINE
  8
0
 62
7
 10
7.375174859999999
 20
10.56080001
 30
0
 11
7.375174859999999
 21
10.49580001
 31
0
  0
LINE
  8
0
 62
7
 10
7.03829185
 20
10.6922
 30
0
 11
6.38202034
 21
10.6922
 31
0
  0
LINE
  8
0
 62
7
 10
6.38202034
 20
10.7572
 30
0
 11
7.03829185
 21
10.7572
 31
0
  0
LINE
  8
0
 62
7
 10
6.38202034
 20
10.6922
 30
0
 11
6.38202034
 21
10.7572
 31
0
  0
LINE
  8
0
 62
7
 10
7.03829185
 20
10.7572
 30
0
 11
7.03829185
 21
10.6922
 31
0
  0
LINE
  8
0
 62
7
 10
6.349999479999997
 20
10.9536
 30
0
 11
6.70142173
 21
10.9536
 31
0
  0
LINE
  8
0
 62
7
 10
6.70142173
 20
10.8886
 30
0
 11
6.349999479999997
 21
10.8886
 31
0
  0
LINE
  8
0
 62
7
 10
6.349999479999997
 20
10.8886
 30
0
 11
6.349999479999997
 21
10.9536
 31
0
  0
LINE
  8
0
 62
7
 10
6.70142173
 20
10.9536
 30
0
 11
6.70142173
 21
10.8886
 31
0
  0
LINE
  8
0
 62
7
  6
DASHDOT
 10
1.100000000000001
 20
5.66
 30
0
 11
1.275000000000001
 21
5.66
 31
0
  0
LINE
  8
0
 62
7
  6
DASHDOT
 10
1.050000000000001
 20
5.66
 30
0
 11
1.100000000000001
 21
5.66
 31
0
  0
LINE
  8
0
 62
7
  6
DASHDOT
 10
3.610000000000001
 20
4.990000000000002
 30
0
 11
3.610000000000001
 21
5.230000000000001
 31
0
  0
LINE
  8
0
 62
7
  6
DASHDOT
 10
0.9350000000000011
 20
4.990000000000002
 30
0
 11
0.9350000000000011
 21
5.230000000000001
 31
0
  0
LINE
  8
0
 62
7
  6
DASHDOT
 10
3.610000000000001
 20
5.230000000000001
 30
0
 11
3.610000000000001
 21
5.270000000000001
 31
0
  0
LINE
  8
0
 62
7
  6
DASHDOT
 10
0.9350000000000011
 20
5.230000000000001
 30
0
 11
0.9350000000000011
 21
5.270000000000001
 31
0
  0
LINE
  8
0
 62
7
  6
DASHDOT
 10
3.610000000000001
 20
4.940000000000001
 30
0
 11
3.610000000000001
 21
4.990000000000002
 31
0
  0
LINE
  8
0
 62
7
  6
DASHDOT
 10
3.610000000000001
 20
5.270000000000001
 30
0
 11
3.610000000000001
 21
5.51
 31
0
  0
LINE
  8
0
 62
7
  6
DASHDOT
 10
3.235000000000001
 20
5.66
 30
0
 11
3.285000000000001
 21
5.66
 31
0
  0
LINE
  8
0
 62
7
  6
DASHDOT
 10
3.285000000000001
 20
5.66
 30
0
 11
3.460000000000001
 21
5.66
 31
0
  0
LINE
  8
0
 62
7
  6
DASHDOT
 10
0.9350000000000011
 20
4.940000000000001
 30
0
 11
0.9350000000000011
 21
4.990000000000002
 31
0
  0
LINE
  8
0
 62
7
  6
DASHDOT
 10
0.9350000000000011
 20
5.270000000000001
 30
0
 11
0.9350000000000011
 21
5.51
 31
0
  0
LINE
  8
0
 62
7
  6
DASHDOT
 10
0.9350000000000011
 20
5.51
 30
0
 11
0.9350000000000011
 21
5.56
 31
0
  0
LINE
  8
0
 62
7
  6
DASHDOT
 10
3.610000000000001
 20
5.51
 30
0
 11
3.610000000000001
 21
5.56
 31
0
  0
LINE
  8
0
 62
7
  6
DASHDOT
 10
1.275000000000001
 20
5.66
 30
0
 11
1.325000000000001
 21
5.66
 31
0
  0
LINE
  8
0
 62
7
  6
DASHDOT
 10
3.460000000000001
 20
5.66
 30
0
 11
3.510000000000001
 21
5.66
 31
0
  0
LINE
  8
0
 62
7
 10
3.285000000000001
 20
3.390000000000001
 30
0
 11
3.285000000000001
 21
3.340000000000002
 31
0
  0
LINE
  8
0
 62
7
  6
DASHDOT
 10
3.285000000000001
 20
3.340000000000002
 30
0
 11
1.275000000000001
 21
3.340000000000002
 31
0
  0
LINE
  8
0
 62
7
 10
1.275000000000001
 20
3.340000000000002
 30
0
 11
1.275000000000001
 21
3.390000000000001
 31
0
  0
LINE
  8
0
 62
7
 10
3.285000000000001
 20
4.990000000000002
 30
0
 11
3.285000000000001
 21
3.390000000000001
 31
0
  0
LINE
  8
0
 62
7
 10
3.285000000000001
 20
3.390000000000001
 30
0
 11
1.275000000000001
 21
3.390000000000001
 31
0
  0
LINE
  8
0
 62
7
 10
1.100000000000001
 20
3.340000000000002
 30
0
 11
1.275000000000001
 21
3.340000000000002
 31
0
  0
LINE
  8
0
 62
7
 10
0.9350000000000011
 20
4.990000000000002
 30
0
 11
1.100000000000001
 21
4.990000000000002
 31
0
  0
LINE
  8
0
 62
7
 10
1.100000000000001
 20
4.990000000000002
 30
0
 11
1.100000000000001
 21
3.340000000000002
 31
0
  0
LINE
  8
0
 62
7
 10
1.275000000000001
 20
3.390000000000001
 30
0
 11
1.275000000000001
 21
4.990000000000002
 31
0
  0
LINE
  8
0
 62
7
 10
1.275000000000001
 20
4.990000000000002
 30
0
 11
3.285000000000001
 21
4.990000000000002
 31
0
  0
LINE
  8
0
 62
7
 10
3.460000000000001
 20
3.24
 30
0
 11
3.460000000000001
 21
4.990000000000002
 31
0
  0
LINE
  8
0
 62
7
 10
3.285000000000001
 20
3.240000000000002
 30
0
 11
3.460000000000001
 21
3.24
 31
0
  0
LINE
  8
0
 62
7
 10
3.285000000000001
 20
3.340000000000002
 30
0
 11
3.285000000000001
 21
3.240000000000002
 31
0
  0
LINE
  8
0
 62
7
 10
3.460000000000001
 20
4.990000000000002
 30
0
 11
3.610000000000001
 21
4.990000000000002
 31
0
  0
LINE
  8
0
 62
7
 10
0.9350000000000011
 20
5.230000000000001
 30
0
 11
3.610000000000001
 21
5.230000000000001
 31
0
  0
LINE
  8
0
 62
7
 10
0.9350000000000011
 20
5.270000000000001
 30
0
 11
3.610000000000001
 21
5.270000000000001
 31
0
  0
LINE
  8
0
 62
7
 10
0.9350000000000011
 20
5.51
 30
0
 11
1.100000000000001
 21
5.51
 31
0
  0
LINE
  8
0
 62
7
 10
1.100000000000001
 20
5.51
 30
0
 11
1.100000000000001
 21
5.66
 31
0
  0
LINE
  8
0
 62
7
 10
1.275000000000001
 20
5.66
 30
0
 11
1.275000000000001
 21
5.51
 31
0
  0
LINE
  8
0
 62
7
 10
1.275000000000001
 20
5.51
 30
0
 11
3.285000000000001
 21
5.51
 31
0
  0
LINE
  8
0
 62
7
 10
3.285000000000001
 20
5.51
 30
0
 11
3.285000000000001
 21
5.66
 31
0
  0
LINE
  8
0
 62
7
 10
3.460000000000001
 20
5.66
 30
0
 11
3.460000000000001
 21
5.51
 31
0
  0
LINE
  8
0
 62
7
 10
3.460000000000001
 20
5.51
 30
0
 11
3.610000000000001
 21
5.51
 31
0
  0
LINE
  8
0
 62
7
  6
DASHED
 10
6.310000000000001
 20
8.1
 30
0
 11
7.96
 21
8.1
 31
0
  0
LINE
  8
0
 62
7
  6
DASHED
 10
6.310000000000001
 20
8.299999999999999
 30
0
 11
7.96
 21
8.299999999999999
 31
0
  0
LINE
  8
0
 62
7
  6
DASHED
 10
6.310000000000001
 20
10.85
 30
0
 11
7.96
 21
10.85
 31
0
  0
LINE
  8
0
 62
7
  6
DASHED
 10
6.310000000000001
 20
11.05
 30
0
 11
7.96
 21
11.05
 31
0
  0
LINE
  8
0
 62
7
  6
DASHDOT
 10
6.010000000000002
 20
10.85
 30
0
 11
6.010000000000002
 21
11.05
 31
0
  0
LINE
  8
0
 62
7
  6
DASHDOT
 10
6.010000000000002
 20
10.8
 30
0
 11
6.010000000000002
 21
10.85
 31
0
  0
LINE
  8
0
 62
7
  6
DASHDOT
 10
7.96
 20
11.2
 30
0
 11
8.199999999999999
 21
11.2
 31
0
  0
LINE
  8
0
 62
7
  6
DASHDOT
 10
7.91
 20
11.2
 30
0
 11
7.96
 21
11.2
 31
0
  0
LINE
  8
0
 62
7
  6
DASHDOT
 10
7.91
 20
7.949999999999999
 30
0
 11
7.96
 21
7.949999999999999
 31
0
  0
LINE
  8
0
 62
7
  6
DASHDOT
 10
7.96
 20
7.949999999999999
 30
0
 11
8.199999999999999
 21
7.949999999999999
 31
0
  0
LINE
  8
0
 62
7
  6
DASHDOT
 10
6.010000000000002
 20
8.299999999999999
 30
0
 11
6.010000000000002
 21
8.1
 31
0
  0
LINE
  8
0
 62
7
  6
DASHDOT
 10
6.010000000000002
 20
8.399999999999999
 30
0
 11
6.010000000000002
 21
8.299999999999999
 31
0
  0
LINE
  8
0
 62
7
  6
DASHDOT
 10
6.010000000000002
 20
11.05
 30
0
 11
6.010000000000002
 21
11.15
 31
0
  0
LINE
  8
0
 62
7
 10
6.010000000000002
 20
11.15
 30
0
 11
6.310000000000001
 21
11.15
 31
0
  0
LINE
  8
0
 62
7
  6
DASHDOT
 10
6.010000000000002
 20
8.449999999999999
 30
0
 11
6.010000000000002
 21
8.399999999999999
 31
0
  0
LINE
  8
0
 62
7
 10
6.010000000000002
 20
8.399999999999999
 30
0
 11
6.310000000000001
 21
8.399999999999999
 31
0
  0
LINE
  8
0
 62
7
  6
DASHDOT
 10
8.199999999999999
 20
7.949999999999999
 30
0
 11
8.249999999999998
 21
7.949999999999999
 31
0
  0
LINE
  8
0
 62
7
  6
DASHDOT
 10
6.010000000000002
 20
8.1
 30
0
 11
6.010000000000002
 21
8.049999999999999
 31
0
  0
LINE
  8
0
 62
7
  6
DASHDOT
 10
6.010000000000002
 20
11.15
 30
0
 11
6.010000000000002
 21
11.2
 31
0
  0
LINE
  8
0
 62
7
  6
DASHDOT
 10
8.199999999999999
 20
11.2
 30
0
 11
8.249999999999998
 21
11.2
 31
0
  0
LINE
  8
0
 62
7
 10
6.010000000000002
 20
8.1
 30
0
 11
6.310000000000001
 21
8.1
 31
0
  0
LINE
  8
0
 62
7
 10
6.310000000000001
 20
8.1
 30
0
 11
6.310000000000001
 21
8.299999999999999
 31
0
  0
LINE
  8
0
 62
7
 10
6.010000000000002
 20
8.299999999999999
 30
0
 11
6.310000000000001
 21
8.299999999999999
 31
0
  0
LINE
  8
0
 62
7
 10
6.010000000000002
 20
11.05
 30
0
 11
6.310000000000001
 21
11.05
 31
0
  0
LINE
  8
0
 62
7
 10
6.010000000000002
 20
10.85
 30
0
 11
6.310000000000001
 21
10.85
 31
0
  0
LINE
  8
0
 62
7
 10
6.310000000000001
 20
10.85
 30
0
 11
6.310000000000001
 21
11.05
 31
0
  0
LINE
  8
0
 62
7
 10
7.96
 20
7.949999999999999
 30
0
 11
7.96
 21
8.1
 31
0
  0
LINE
  8
0
 62
7
 10
8.199999999999999
 20
8.299999999999999
 30
0
 11
8.199999999999999
 21
8.1
 31
0
  0
LINE
  8
0
 62
7
 10
7.96
 20
8.1
 30
0
 11
8.199999999999999
 21
8.1
 31
0
  0
LINE
  8
0
 62
7
 10
7.96
 20
8.1
 30
0
 11
7.96
 21
8.299999999999999
 31
0
  0
LINE
  8
0
 62
7
 10
8.199999999999999
 20
10.85
 30
0
 11
8.199999999999999
 21
8.299999999999999
 31
0
  0
LINE
  8
0
 62
7
 10
7.96
 20
8.299999999999999
 30
0
 11
8.199999999999999
 21
8.299999999999999
 31
0
  0
LINE
  8
0
 62
7
 10
7.96
 20
8.299999999999999
 30
0
 11
7.96
 21
10.85
 31
0
  0
LINE
  8
0
 62
7
 10
8.199999999999999
 20
11.05
 30
0
 11
8.199999999999999
 21
10.85
 31
0
  0
LINE
  8
0
 62
7
 10
7.96
 20
10.85
 30
0
 11
8.199999999999999
 21
10.85
 31
0
  0
LINE
  8
0
 62
7
 10
7.96
 20
10.85
 30
0
 11
7.96
 21
11.05
 31
0
  0
LINE
  8
0
 62
7
 10
8.199999999999999
 20
11.2
 30
0
 11
8.199999999999999
 21
11.05
 31
0
  0
LINE
  8
0
 62
7
 10
7.96
 20
11.05
 30
0
 11
8.199999999999999
 21
11.05
 31
0
  0
LINE
  8
0
 62
7
 10
7.96
 20
11.05
 30
0
 11
7.96
 21
11.2
 31
0
  0
LINE
  8
0
 62
7
 10
8.199999999999999
 20
8.1
 30
0
 11
8.199999999999999
 21
7.949999999999999
 31
0
  0
LINE
  8
0
 62
7
  6
DASHDOT
 10
3.460000000000001
 20
11.2
 30
0
 11
3.510000000000001
 21
11.2
 31
0
  0
LINE
  8
0
 62
7
  6
DASHDOT
 10
3.285000000000001
 20
11.2
 30
0
 11
3.460000000000001
 21
11.2
 31
0
  0
LINE
  8
0
 62
7
  6
DASHDOT
 10
3.610000000000001
 20
11.05
 30
0
 11
3.610000000000001
 21
11.15
 31
0
  0
LINE
  8
0
 62
7
  6
DASHDOT
 10
3.610000000000001
 20
10.85
 30
0
 11
3.610000000000001
 21
11.05
 31
0
  0
LINE
  8
0
 62
7
  6
DASHDOT
 10
1.275000000000001
 20
11.2
 30
0
 11
1.325000000000001
 21
11.2
 31
0
  0
LINE
  8
0
 62
7
  6
DASHDOT
 10
1.100000000000001
 20
11.2
 30
0
 11
1.275000000000001
 21
11.2
 31
0
  0
LINE
  8
0
 62
7
  6
DASHDOT
 10
0.9500000000000011
 20
11.05
 30
0
 11
0.9500000000000011
 21
11.15
 31
0
  0
LINE
  8
0
 62
7
  6
DASHDOT
 10
0.9500000000000011
 20
10.85
 30
0
 11
0.9500000000000011
 21
11.05
 31
0
  0
LINE
  8
0
 62
7
  6
DASHDOT
 10
1.275000000000001
 20
7.949999999999999
 30
0
 11
1.325000000000001
 21
7.949999999999999
 31
0
  0
LINE
  8
0
 62
7
  6
DASHDOT
 10
1.100000000000001
 20
7.949999999999999
 30
0
 11
1.275000000000001
 21
7.949999999999999
 31
0
  0
LINE
  8
0
 62
7
  6
DASHDOT
 10
0.9500000000000011
 20
8.299999999999999
 30
0
 11
0.9500000000000011
 21
8.399999999999999
 31
0
  0
LINE
  8
0
 62
7
  6
DASHDOT
 10
0.9500000000000011
 20
8.1
 30
0
 11
0.9500000000000011
 21
8.299999999999999
 31
0
  0
LINE
  8
0
 62
7
  6
DASHDOT
 10
3.460000000000001
 20
7.949999999999999
 30
0
 11
3.510000000000001
 21
7.949999999999999
 31
0
  0
LINE
  8
0
 62
7
  6
DASHDOT
 10
3.285000000000001
 20
7.949999999999999
 30
0
 11
3.460000000000001
 21
7.949999999999999
 31
0
  0
LINE
  8
0
 62
7
  6
DASHDOT
 10
3.610000000000001
 20
8.299999999999999
 30
0
 11
3.610000000000001
 21
8.399999999999999
 31
0
  0
LINE
  8
0
 62
7
  6
DASHDOT
 10
3.610000000000001
 20
8.1
 30
0
 11
3.610000000000001
 21
8.299999999999999
 31
0
  0
LINE
  8
0
 62
7
  6
DASHDOT
 10
3.610000000000001
 20
11.15
 30
0
 11
3.610000000000001
 21
11.2
 31
0
  0
LINE
  8
0
 62
7
 10
3.460000000000001
 20
11.15
 30
0
 11
3.460000000000001
 21
11.2
 31
0
  0
LINE
  8
0
 62
7
 10
3.460000000000001
 20
11.15
 30
0
 11
3.610000000000001
 21
11.15
 31
0
  0
LINE
  8
0
 62
7
 10
3.285000000000001
 20
11.15
 30
0
 11
3.285000000000001
 21
11.2
 31
0
  0
LINE
  8
0
 62
7
 10
1.275000000000001
 20
11.15
 30
0
 11
1.275000000000001
 21
11.2
 31
0
  0
LINE
  8
0
 62
7
 10
1.275000000000001
 20
11.15
 30
0
 11
3.285000000000001
 21
11.15
 31
0
  0
LINE
  8
0
 62
7
  6
DASHDOT
 10
0.9500000000000011
 20
11.15
 30
0
 11
0.9500000000000011
 21
11.2
 31
0
  0
LINE
  8
0
 62
7
 10
1.100000000000001
 20
11.15
 30
0
 11
1.100000000000001
 21
11.2
 31
0
  0
LINE
  8
0
 62
7
 10
0.9500000000000011
 20
11.15
 30
0
 11
1.100000000000001
 21
11.15
 31
0
  0
LINE
  8
0
 62
7
  6
DASHDOT
 10
3.610000000000001
 20
8.399999999999999
 30
0
 11
3.610000000000001
 21
8.449999999999999
 31
0
  0
LINE
  8
0
 62
7
 10
3.460000000000001
 20
8.399999999999999
 30
0
 11
3.460000000000001
 21
10.85
 31
0
  0
LINE
  8
0
 62
7
 10
3.460000000000001
 20
8.399999999999999
 30
0
 11
3.610000000000001
 21
8.399999999999999
 31
0
  0
LINE
  8
0
 62
7
 10
3.285000000000001
 20
8.399999999999999
 30
0
 11
3.285000000000001
 21
10.85
 31
0
  0
LINE
  8
0
 62
7
 10
1.275000000000001
 20
8.399999999999999
 30
0
 11
1.275000000000001
 21
10.85
 31
0
  0
LINE
  8
0
 62
7
 10
1.275000000000001
 20
8.399999999999999
 30
0
 11
3.285000000000001
 21
8.399999999999999
 31
0
  0
LINE
  8
0
 62
7
  6
DASHDOT
 10
0.9500000000000011
 20
8.399999999999999
 30
0
 11
0.9500000000000011
 21
8.449999999999999
 31
0
  0
LINE
  8
0
 62
7
 10
1.100000000000001
 20
8.399999999999999
 30
0
 11
1.100000000000001
 21
10.85
 31
0
  0
LINE
  8
0
 62
7
 10
0.9500000000000011
 20
8.399999999999999
 30
0
 11
1.100000000000001
 21
8.399999999999999
 31
0
  0
LINE
  8
0
 62
7
  6
DASHDOT
 10
3.235000000000001
 20
7.949999999999999
 30
0
 11
3.285000000000001
 21
7.949999999999999
 31
0
  0
LINE
  8
0
 62
7
  6
DASHDOT
 10
3.235000000000001
 20
11.2
 30
0
 11
3.285000000000001
 21
11.2
 31
0
  0
LINE
  8
0
 62
7
  6
DASHDOT
 10
1.050000000000001
 20
7.949999999999999
 30
0
 11
1.100000000000001
 21
7.949999999999999
 31
0
  0
LINE
  8
0
 62
7
  6
DASHDOT
 10
1.050000000000001
 20
11.2
 30
0
 11
1.100000000000001
 21
11.2
 31
0
  0
LINE
  8
0
 62
7
  6
DASHDOT
 10
3.610000000000001
 20
10.8
 30
0
 11
3.610000000000001
 21
10.85
 31
0
  0
LINE
  8
0
 62
7
  6
DASHDOT
 10
3.610000000000001
 20
8.049999999999999
 30
0
 11
3.610000000000001
 21
8.1
 31
0
  0
LINE
  8
0
 62
7
  6
DASHDOT
 10
0.9500000000000011
 20
10.8
 30
0
 11
0.9500000000000011
 21
10.85
 31
0
  0
LINE
  8
0
 62
7
  6
DASHDOT
 10
0.9500000000000011
 20
8.049999999999999
 30
0
 11
0.9500000000000011
 21
8.1
 31
0
  0
LINE
  8
0
 62
7
 10
3.460000000000001
 20
11.05
 30
0
 11
3.610000000000001
 21
11.05
 31
0
  0
LINE
  8
0
 62
7
 10
3.460000000000001
 20
11.05
 30
0
 11
3.460000000000001
 21
11.15
 31
0
  0
LINE
  8
0
 62
7
 10
3.460000000000001
 20
10.85
 30
0
 11
3.610000000000001
 21
10.85
 31
0
  0
LINE
  8
0
 62
7
 10
3.460000000000001
 20
8.299999999999999
 30
0
 11
3.610000000000001
 21
8.299999999999999
 31
0
  0
LINE
  8
0
 62
7
 10
3.460000000000001
 20
8.299999999999999
 30
0
 11
3.460000000000001
 21
8.399999999999999
 31
0
  0
LINE
  8
0
 62
7
 10
3.460000000000001
 20
8.1
 30
0
 11
3.610000000000001
 21
8.1
 31
0
  0
LINE
  8
0
 62
7
 10
3.460000000000001
 20
7.949999999999999
 30
0
 11
3.460000000000001
 21
8.1
 31
0
  0
LINE
  8
0
 62
7
 10
3.285000000000001
 20
11.05
 30
0
 11
3.460000000000001
 21
11.05
 31
0
  0
LINE
  8
0
 62
7
 10
3.285000000000001
 20
11.05
 30
0
 11
3.285000000000001
 21
11.15
 31
0
  0
LINE
  8
0
 62
7
 10
3.285000000000001
 20
10.85
 30
0
 11
3.460000000000001
 21
10.85
 31
0
  0
LINE
  8
0
 62
7
 10
3.285000000000001
 20
8.299999999999999
 30
0
 11
3.460000000000001
 21
8.299999999999999
 31
0
  0
LINE
  8
0
 62
7
 10
3.285000000000001
 20
8.299999999999999
 30
0
 11
3.285000000000001
 21
8.399999999999999
 31
0
  0
LINE
  8
0
 62
7
 10
3.285000000000001
 20
8.1
 30
0
 11
3.460000000000001
 21
8.1
 31
0
  0
LINE
  8
0
 62
7
 10
3.285000000000001
 20
7.949999999999999
 30
0
 11
3.285000000000001
 21
8.1
 31
0
  0
LINE
  8
0
 62
7
 10
1.275000000000001
 20
11.05
 30
0
 11
3.285000000000001
 21
11.05
 31
0
  0
LINE
  8
0
 62
7
 10
1.275000000000001
 20
11.05
 30
0
 11
1.275000000000001
 21
11.15
 31
0
  0
LINE
  8
0
 62
7
 10
1.275000000000001
 20
10.85
 30
0
 11
3.285000000000001
 21
10.85
 31
0
  0
LINE
  8
0
 62
7
 10
1.275000000000001
 20
8.299999999999999
 30
0
 11
3.285000000000001
 21
8.299999999999999
 31
0
  0
LINE
  8
0
 62
7
 10
1.275000000000001
 20
8.299999999999999
 30
0
 11
1.275000000000001
 21
8.399999999999999
 31
0
  0
LINE
  8
0
 62
7
 10
1.275000000000001
 20
8.1
 30
0
 11
3.285000000000001
 21
8.1
 31
0
  0
LINE
  8
0
 62
7
 10
1.275000000000001
 20
7.949999999999999
 30
0
 11
1.275000000000001
 21
8.1
 31
0
  0
LINE
  8
0
 62
7
 10
1.100000000000001
 20
11.05
 30
0
 11
1.275000000000001
 21
11.05
 31
0
  0
LINE
  8
0
 62
7
 10
1.100000000000001
 20
11.05
 30
0
 11
1.100000000000001
 21
11.15
 31
0
  0
LINE
  8
0
 62
7
 10
1.100000000000001
 20
10.85
 30
0
 11
1.275000000000001
 21
10.85
 31
0
  0
LINE
  8
0
 62
7
 10
1.100000000000001
 20
8.299999999999999
 30
0
 11
1.275000000000001
 21
8.299999999999999
 31
0
  0
LINE
  8
0
 62
7
 10
1.100000000000001
 20
8.299999999999999
 30
0
 11
1.100000000000001
 21
8.399999999999999
 31
0
  0
LINE
  8
0
 62
7
 10
1.100000000000001
 20
8.1
 30
0
 11
1.275000000000001
 21
8.1
 31
0
  0
LINE
  8
0
 62
7
 10
1.100000000000001
 20
7.949999999999999
 30
0
 11
1.100000000000001
 21
8.1
 31
0
  0
LINE
  8
0
 62
7
 10
0.9500000000000011
 20
11.05
 30
0
 11
1.100000000000001
 21
11.05
 31
0
  0
LINE
  8
0
 62
7
 10
0.9500000000000011
 20
10.85
 30
0
 11
1.100000000000001
 21
10.85
 31
0
  0
LINE
  8
0
 62
7
 10
0.9500000000000011
 20
8.299999999999999
 30
0
 11
1.100000000000001
 21
8.299999999999999
 31
0
  0
LINE
  8
0
 62
7
 10
0.9500000000000011
 20
8.1
 30
0
 11
1.100000000000001
 21
8.1
 31
0
  0
LINE
  8
0
 62
7
 10
1.43969563319707
 20
4.66179348549367
 30
0
 11
1.43969563319707
 21
4.781793485493671
 31
0
  0
LINE
  8
0
 62
7
 10
1.51529563319707
 20
4.781793485493671
 30
0
 11
1.46129563319707
 21
4.72179348549367
 31
0
  0
LINE
  8
0
 62
7
 10
1.46129563319707
 20
4.72179348549367
 30
0
 11
1.51529563319707
 21
4.66179348549367
 31
0
  0
LINE
  8
0
 62
7
 10
1.46129563319707
 20
4.72179348549367
 30
0
 11
1.43969563319707
 21
4.697793485493672
 31
0
  0
LINE
  8
0
 62
7
 10
1.62329563319707
 20
4.781793485493671
 30
0
 11
1.54769563319707
 21
4.781793485493671
 31
0
  0
LINE
  8
0
 62
7
 10
1.54769563319707
 20
4.781793485493671
 30
0
 11
1.54769563319707
 21
4.72179348549367
 31
0
  0
LINE
  8
0
 62
7
 10
1.54769563319707
 20
4.66179348549367
 30
0
 11
1.62329563319707
 21
4.66179348549367
 31
0
  0
LINE
  8
0
 62
7
 10
1.61249563319707
 20
4.72179348549367
 30
0
 11
1.54769563319707
 21
4.72179348549367
 31
0
  0
LINE
  8
0
 62
7
 10
1.54769563319707
 20
4.72179348549367
 30
0
 11
1.54769563319707
 21
4.66179348549367
 31
0
  0
LINE
  8
0
 62
7
 10
1.65569563319707
 20
4.66179348549367
 30
0
 11
1.65569563319707
 21
4.781793485493671
 31
0
  0
LINE
  8
0
 62
7
 10
1.65569563319707
 20
4.781793485493671
 30
0
 11
1.73129563319707
 21
4.66179348549367
 31
0
  0
LINE
  8
0
 62
7
 10
1.73129563319707
 20
4.66179348549367
 30
0
 11
1.73129563319707
 21
4.781793485493671
 31
0
  0
LINE
  8
0
 62
7
 10
1.76369563319707
 20
4.66179348549367
 30
0
 11
1.76369563319707
 21
4.781793485493671
 31
0
  0
LINE
  8
0
 62
7
 10
1.76369563319707
 20
4.781793485493671
 30
0
 11
1.83929563319707
 21
4.66179348549367
 31
0
  0
LINE
  8
0
 62
7
 10
1.83929563319707
 20
4.66179348549367
 30
0
 11
1.83929563319707
 21
4.781793485493671
 31
0
  0
LINE
  8
0
 62
7
 10
1.94729563319707
 20
4.745793485493671
 30
0
 11
1.94459563319707
 21
4.757793485493671
 31
0
  0
LINE
  8
0
 62
7
 10
1.94459563319707
 20
4.757793485493671
 30
0
 11
1.93919563319707
 21
4.766793485493671
 31
0
  0
LINE
  8
0
 62
7
 10
1.93919563319707
 20
4.766793485493671
 30
0
 11
1.93379563319707
 21
4.772793485493671
 31
0
  0
LINE
  8
0
 62
7
 10
1.93379563319707
 20
4.772793485493671
 30
0
 11
1.92569563319707
 21
4.77879348549367
 31
0
  0
LINE
  8
0
 62
7
 10
1.92569563319707
 20
4.77879348549367
 30
0
 11
1.91759563319707
 21
4.781793485493671
 31
0
  0
LINE
  8
0
 62
7
 10
1.91759563319707
 20
4.781793485493671
 30
0
 11
1.90139563319707
 21
4.781793485493671
 31
0
  0
LINE
  8
0
 62
7
 10
1.90139563319707
 20
4.781793485493671
 30
0
 11
1.89329563319707
 21
4.77879348549367
 31
0
  0
LINE
  8
0
 62
7
 10
1.89329563319707
 20
4.77879348549367
 30
0
 11
1.88519563319707
 21
4.772793485493671
 31
0
  0
LINE
  8
0
 62
7
 10
1.88519563319707
 20
4.772793485493671
 30
0
 11
1.87979563319707
 21
4.766793485493671
 31
0
  0
LINE
  8
0
 62
7
 10
1.87979563319707
 20
4.766793485493671
 30
0
 11
1.87439563319707
 21
4.757793485493671
 31
0
  0
LINE
  8
0
 62
7
 10
1.87439563319707
 20
4.757793485493671
 30
0
 11
1.87169563319707
 21
4.745793485493671
 31
0
  0
LINE
  8
0
 62
7
 10
1.87169563319707
 20
4.745793485493671
 30
0
 11
1.87169563319707
 21
4.697793485493672
 31
0
  0
LINE
  8
0
 62
7
 10
1.87169563319707
 20
4.697793485493672
 30
0
 11
1.87439563319707
 21
4.685793485493671
 31
0
  0
LINE
  8
0
 62
7
 10
1.87439563319707
 20
4.685793485493671
 30
0
 11
1.87979563319707
 21
4.676793485493671
 31
0
  0
LINE
  8
0
 62
7
 10
1.87979563319707
 20
4.676793485493671
 30
0
 11
1.88519563319707
 21
4.670793485493671
 31
0
  0
LINE
  8
0
 62
7
 10
1.88519563319707
 20
4.670793485493671
 30
0
 11
1.89329563319707
 21
4.664793485493671
 31
0
  0
LINE
  8
0
 62
7
 10
1.89329563319707
 20
4.664793485493671
 30
0
 11
1.90139563319707
 21
4.66179348549367
 31
0
  0
LINE
  8
0
 62
7
 10
1.90139563319707
 20
4.66179348549367
 30
0
 11
1.91759563319707
 21
4.66179348549367
 31
0
  0
LINE
  8
0
 62
7
 10
1.91759563319707
 20
4.66179348549367
 30
0
 11
1.92569563319707
 21
4.664793485493671
 31
0
  0
LINE
  8
0
 62
7
 10
1.92569563319707
 20
4.664793485493671
 30
0
 11
1.93379563319707
 21
4.670793485493671
 31
0
  0
LINE
  8
0
 62
7
 10
1.93379563319707
 20
4.670793485493671
 30
0
 11
1.93919563319707
 21
4.676793485493671
 31
0
  0
LINE
  8
0
 62
7
 10
1.93919563319707
 20
4.676793485493671
 30
0
 11
1.94459563319707
 21
4.685793485493671
 31
0
  0
LINE
  8
0
 62
7
 10
1.94459563319707
 20
4.685793485493671
 30
0
 11
1.94729563319707
 21
4.697793485493672
 31
0
  0
LINE
  8
0
 62
7
 10
1.94729563319707
 20
4.697793485493672
 30
0
 11
1.94729563319707
 21
4.72179348549367
 31
0
  0
LINE
  8
0
 62
7
 10
1.94729563319707
 20
4.72179348549367
 30
0
 11
1.91489563319707
 21
4.72179348549367
 31
0
  0
LINE
  8
0
 62
7
 10
2.02559563319707
 20
4.781793485493671
 30
0
 11
2.00939563319707
 21
4.781793485493671
 31
0
  0
LINE
  8
0
 62
7
 10
2.00939563319707
 20
4.781793485493671
 30
0
 11
2.00129563319707
 21
4.77879348549367
 31
0
  0
LINE
  8
0
 62
7
 10
2.00129563319707
 20
4.77879348549367
 30
0
 11
1.99319563319707
 21
4.772793485493671
 31
0
  0
LINE
  8
0
 62
7
 10
1.99319563319707
 20
4.772793485493671
 30
0
 11
1.98779563319707
 21
4.766793485493671
 31
0
  0
LINE
  8
0
 62
7
 10
1.98779563319707
 20
4.766793485493671
 30
0
 11
1.98239563319707
 21
4.757793485493671
 31
0
  0
LINE
  8
0
 62
7
 10
1.98239563319707
 20
4.757793485493671
 30
0
 11
1.97969563319707
 21
4.745793485493671
 31
0
  0
LINE
  8
0
 62
7
 10
1.97969563319707
 20
4.745793485493671
 30
0
 11
1.97969563319707
 21
4.697793485493672
 31
0
  0
LINE
  8
0
 62
7
 10
1.97969563319707
 20
4.697793485493672
 30
0
 11
1.98239563319707
 21
4.685793485493671
 31
0
  0
LINE
  8
0
 62
7
 10
1.98239563319707
 20
4.685793485493671
 30
0
 11
1.98779563319707
 21
4.676793485493671
 31
0
  0
LINE
  8
0
 62
7
 10
1.98779563319707
 20
4.676793485493671
 30
0
 11
1.99319563319707
 21
4.670793485493671
 31
0
  0
LINE
  8
0
 62
7
 10
1.99319563319707
 20
4.670793485493671
 30
0
 11
2.00129563319707
 21
4.664793485493671
 31
0
  0
LINE
  8
0
 62
7
 10
2.00129563319707
 20
4.664793485493671
 30
0
 11
2.00939563319707
 21
4.66179348549367
 31
0
  0
LINE
  8
0
 62
7
 10
2.00939563319707
 20
4.66179348549367
 30
0
 11
2.02559563319707
 21
4.66179348549367
 31
0
  0
LINE
  8
0
 62
7
 10
2.02559563319707
 20
4.66179348549367
 30
0
 11
2.03369563319707
 21
4.664793485493671
 31
0
  0
LINE
  8
0
 62
7
 10
2.03369563319707
 20
4.664793485493671
 30
0
 11
2.04179563319707
 21
4.670793485493671
 31
0
  0
LINE
  8
0
 62
7
 10
2.04179563319707
 20
4.670793485493671
 30
0
 11
2.04719563319707
 21
4.676793485493671
 31
0
  0
LINE
  8
0
 62
7
 10
2.04719563319707
 20
4.676793485493671
 30
0
 11
2.05259563319707
 21
4.685793485493671
 31
0
  0
LINE
  8
0
 62
7
 10
2.05259563319707
 20
4.685793485493671
 30
0
 11
2.05529563319707
 21
4.697793485493672
 31
0
  0
LINE
  8
0
 62
7
 10
2.05529563319707
 20
4.697793485493672
 30
0
 11
2.05529563319707
 21
4.745793485493671
 31
0
  0
LINE
  8
0
 62
7
 10
2.05529563319707
 20
4.745793485493671
 30
0
 11
2.05259563319707
 21
4.757793485493671
 31
0
  0
LINE
  8
0
 62
7
 10
2.05259563319707
 20
4.757793485493671
 30
0
 11
2.04719563319707
 21
4.766793485493671
 31
0
  0
LINE
  8
0
 62
7
 10
2.04719563319707
 20
4.766793485493671
 30
0
 11
2.04179563319707
 21
4.772793485493671
 31
0
  0
LINE
  8
0
 62
7
 10
2.04179563319707
 20
4.772793485493671
 30
0
 11
2.03369563319707
 21
4.77879348549367
 31
0
  0
LINE
  8
0
 62
7
 10
2.03369563319707
 20
4.77879348549367
 30
0
 11
2.02559563319707
 21
4.781793485493671
 31
0
  0
LINE
  8
0
 62
7
 10
2.07689563319707
 20
4.781793485493671
 30
0
 11
2.11469563319707
 21
4.781793485493671
 31
0
  0
LINE
  8
0
 62
7
 10
2.11469563319707
 20
4.781793485493671
 30
0
 11
2.11469563319707
 21
4.66179348549367
 31
0
  0
LINE
  8
0
 62
7
 10
2.11469563319707
 20
4.781793485493671
 30
0
 11
2.15249563319707
 21
4.781793485493671
 31
0
  0
LINE
  8
0
 62
7
 10
2.18489563319707
 20
4.781793485493671
 30
0
 11
2.222695633197071
 21
4.781793485493671
 31
0
  0
LINE
  8
0
 62
7
 10
2.222695633197071
 20
4.781793485493671
 30
0
 11
2.222695633197071
 21
4.66179348549367
 31
0
  0
LINE
  8
0
 62
7
 10
2.222695633197071
 20
4.781793485493671
 30
0
 11
2.26049563319707
 21
4.781793485493671
 31
0
  0
LINE
  8
0
 62
7
 10
2.37929563319707
 20
4.70379348549367
 30
0
 11
2.43329563319707
 21
4.70379348549367
 31
0
  0
LINE
  8
0
 62
7
 10
2.54129563319707
 20
4.781793485493671
 30
0
 11
2.57909563319707
 21
4.781793485493671
 31
0
  0
LINE
  8
0
 62
7
 10
2.57909563319707
 20
4.781793485493671
 30
0
 11
2.57909563319707
 21
4.66179348549367
 31
0
  0
LINE
  8
0
 62
7
 10
2.57909563319707
 20
4.781793485493671
 30
0
 11
2.616895633197071
 21
4.781793485493671
 31
0
  0
LINE
  8
0
 62
7
 10
2.64929563319707
 20
4.66179348549367
 30
0
 11
2.64929563319707
 21
4.781793485493671
 31
0
  0
LINE
  8
0
 62
7
 10
2.64929563319707
 20
4.781793485493671
 30
0
 11
2.70059563319707
 21
4.781793485493671
 31
0
  0
LINE
  8
0
 62
7
 10
2.70059563319707
 20
4.781793485493671
 30
0
 11
2.711395633197071
 21
4.77879348549367
 31
0
  0
LINE
  8
0
 62
7
 10
2.711395633197071
 20
4.77879348549367
 30
0
 11
2.71949563319707
 21
4.772793485493671
 31
0
  0
LINE
  8
0
 62
7
 10
2.71949563319707
 20
4.772793485493671
 30
0
 11
2.72219563319707
 21
4.766793485493671
 31
0
  0
LINE
  8
0
 62
7
 10
2.72219563319707
 20
4.766793485493671
 30
0
 11
2.72489563319707
 21
4.757793485493671
 31
0
  0
LINE
  8
0
 62
7
 10
2.72489563319707
 20
4.757793485493671
 30
0
 11
2.72489563319707
 21
4.745793485493671
 31
0
  0
LINE
  8
0
 62
7
 10
2.72489563319707
 20
4.745793485493671
 30
0
 11
2.72219563319707
 21
4.736793485493671
 31
0
  0
LINE
  8
0
 62
7
 10
2.72219563319707
 20
4.736793485493671
 30
0
 11
2.71949563319707
 21
4.730793485493671
 31
0
  0
LINE
  8
0
 62
7
 10
2.71949563319707
 20
4.730793485493671
 30
0
 11
2.711395633197071
 21
4.72479348549367
 31
0
  0
LINE
  8
0
 62
7
 10
2.711395633197071
 20
4.72479348549367
 30
0
 11
2.70059563319707
 21
4.72179348549367
 31
0
  0
LINE
  8
0
 62
7
 10
2.70059563319707
 20
4.72179348549367
 30
0
 11
2.69249563319707
 21
4.72179348549367
 31
0
  0
LINE
  8
0
 62
7
 10
2.69249563319707
 20
4.72179348549367
 30
0
 11
2.72489563319707
 21
4.66179348549367
 31
0
  0
LINE
  8
0
 62
7
 10
2.69249563319707
 20
4.72179348549367
 30
0
 11
2.64929563319707
 21
4.72179348549367
 31
0
  0
LINE
  8
0
 62
7
 10
2.82209563319707
 20
4.781793485493671
 30
0
 11
2.746495633197071
 21
4.781793485493671
 31
0
  0
LINE
  8
0
 62
7
 10
2.746495633197071
 20
4.781793485493671
 30
0
 11
2.746495633197071
 21
4.72179348549367
 31
0
  0
LINE
  8
0
 62
7
 10
2.746495633197071
 20
4.66179348549367
 30
0
 11
2.82209563319707
 21
4.66179348549367
 31
0
  0
LINE
  8
0
 62
7
 10
2.811295633197071
 20
4.72179348549367
 30
0
 11
2.746495633197071
 21
4.72179348549367
 31
0
  0
LINE
  8
0
 62
7
 10
2.746495633197071
 20
4.72179348549367
 30
0
 11
2.746495633197071
 21
4.66179348549367
 31
0
  0
LINE
  8
0
 62
7
 10
2.85449563319707
 20
4.66179348549367
 30
0
 11
2.85449563319707
 21
4.72179348549367
 31
0
  0
LINE
  8
0
 62
7
 10
2.85449563319707
 20
4.781793485493671
 30
0
 11
2.905795633197072
 21
4.781793485493671
 31
0
  0
LINE
  8
0
 62
7
 10
2.905795633197072
 20
4.781793485493671
 30
0
 11
2.91659563319707
 21
4.77879348549367
 31
0
  0
LINE
  8
0
 62
7
 10
2.91659563319707
 20
4.77879348549367
 30
0
 11
2.92469563319707
 21
4.772793485493671
 31
0
  0
LINE
  8
0
 62
7
 10
2.92469563319707
 20
4.772793485493671
 30
0
 11
2.92739563319707
 21
4.766793485493671
 31
0
  0
LINE
  8
0
 62
7
 10
2.92739563319707
 20
4.766793485493671
 30
0
 11
2.93009563319707
 21
4.757793485493671
 31
0
  0
LINE
  8
0
 62
7
 10
2.93009563319707
 20
4.757793485493671
 30
0
 11
2.93009563319707
 21
4.745793485493671
 31
0
  0
LINE
  8
0
 62
7
 10
2.93009563319707
 20
4.745793485493671
 30
0
 11
2.92739563319707
 21
4.736793485493671
 31
0
  0
LINE
  8
0
 62
7
 10
2.92739563319707
 20
4.736793485493671
 30
0
 11
2.92469563319707
 21
4.730793485493671
 31
0
  0
LINE
  8
0
 62
7
 10
2.92469563319707
 20
4.730793485493671
 30
0
 11
2.91659563319707
 21
4.72479348549367
 31
0
  0
LINE
  8
0
 62
7
 10
2.91659563319707
 20
4.72479348549367
 30
0
 11
2.905795633197072
 21
4.72179348549367
 31
0
  0
LINE
  8
0
 62
7
 10
2.905795633197072
 20
4.72179348549367
 30
0
 11
2.85449563319707
 21
4.72179348549367
 31
0
  0
LINE
  8
0
 62
7
 10
2.85449563319707
 20
4.72179348549367
 30
0
 11
2.85449563319707
 21
4.781793485493671
 31
0
  0
LINE
  8
0
 62
7
 10
2.95169563319707
 20
4.66179348549367
 30
0
 11
2.95169563319707
 21
4.72179348549367
 31
0
  0
LINE
  8
0
 62
7
 10
2.95169563319707
 20
4.781793485493671
 30
0
 11
3.002995633197071
 21
4.781793485493671
 31
0
  0
LINE
  8
0
 62
7
 10
3.002995633197071
 20
4.781793485493671
 30
0
 11
3.013795633197071
 21
4.77879348549367
 31
0
  0
LINE
  8
0
 62
7
 10
3.013795633197071
 20
4.77879348549367
 30
0
 11
3.021895633197071
 21
4.772793485493671
 31
0
  0
LINE
  8
0
 62
7
 10
3.021895633197071
 20
4.772793485493671
 30
0
 11
3.024595633197071
 21
4.766793485493671
 31
0
  0
LINE
  8
0
 62
7
 10
3.024595633197071
 20
4.766793485493671
 30
0
 11
3.02729563319707
 21
4.757793485493671
 31
0
  0
LINE
  8
0
 62
7
 10
3.02729563319707
 20
4.757793485493671
 30
0
 11
3.02729563319707
 21
4.745793485493671
 31
0
  0
LINE
  8
0
 62
7
 10
3.02729563319707
 20
4.745793485493671
 30
0
 11
3.024595633197071
 21
4.736793485493671
 31
0
  0
LINE
  8
0
 62
7
 10
3.024595633197071
 20
4.736793485493671
 30
0
 11
3.021895633197071
 21
4.730793485493671
 31
0
  0
LINE
  8
0
 62
7
 10
3.021895633197071
 20
4.730793485493671
 30
0
 11
3.013795633197071
 21
4.72479348549367
 31
0
  0
LINE
  8
0
 62
7
 10
3.013795633197071
 20
4.72479348549367
 30
0
 11
3.002995633197071
 21
4.72179348549367
 31
0
  0
LINE
  8
0
 62
7
 10
3.002995633197071
 20
4.72179348549367
 30
0
 11
2.95169563319707
 21
4.72179348549367
 31
0
  0
LINE
  8
0
 62
7
 10
2.95169563319707
 20
4.72179348549367
 30
0
 11
2.95169563319707
 21
4.781793485493671
 31
0
  0
LINE
  8
0
 62
7
 10
3.124495633197071
 20
4.781793485493671
 30
0
 11
3.048895633197072
 21
4.781793485493671
 31
0
  0
LINE
  8
0
 62
7
 10
3.048895633197072
 20
4.781793485493671
 30
0
 11
3.048895633197072
 21
4.72179348549367
 31
0
  0
LINE
  8
0
 62
7
 10
3.048895633197072
 20
4.66179348549367
 30
0
 11
3.124495633197071
 21
4.66179348549367
 31
0
  0
LINE
  8
0
 62
7
 10
3.113695633197072
 20
4.72179348549367
 30
0
 11
3.048895633197072
 21
4.72179348549367
 31
0
  0
LINE
  8
0
 62
7
 10
3.048895633197072
 20
4.72179348549367
 30
0
 11
3.048895633197072
 21
4.66179348549367
 31
0
  0
LINE
  8
0
 62
7
 10
0.6250000000000009
 20
2.88
 30
0
 11
0.6250000000000009
 21
3
 31
0
  0
LINE
  8
0
 62
7
 10
0.7006000000000011
 20
3
 30
0
 11
0.646600000000001
 21
2.94
 31
0
  0
LINE
  8
0
 62
7
 10
0.646600000000001
 20
2.94
 30
0
 11
0.7006000000000011
 21
2.88
 31
0
  0
LINE
  8
0
 62
7
 10
0.646600000000001
 20
2.94
 30
0
 11
0.6250000000000009
 21
2.916
 31
0
  0
LINE
  8
0
 62
7
 10
0.733000000000001
 20
3
 30
0
 11
0.733000000000001
 21
2.94
 31
0
  0
LINE
  8
0
 62
7
 10
0.733000000000001
 20
2.94
 30
0
 11
0.8086000000000011
 21
2.94
 31
0
  0
LINE
  8
0
 62
7
 10
0.8086000000000011
 20
3
 30
0
 11
0.8086000000000011
 21
2.94
 31
0
  0
LINE
  8
0
 62
7
 10
0.8086000000000011
 20
2.94
 30
0
 11
0.8086000000000011
 21
2.88
 31
0
  0
LINE
  8
0
 62
7
 10
0.733000000000001
 20
2.94
 30
0
 11
0.733000000000001
 21
2.88
 31
0
  0
LINE
  8
0
 62
7
 10
0.841000000000001
 20
3
 30
0
 11
0.8707000000000011
 21
2.88
 31
0
  0
LINE
  8
0
 62
7
 10
0.8707000000000011
 20
2.88
 30
0
 11
0.895000000000001
 21
3
 31
0
  0
LINE
  8
0
 62
7
 10
0.895000000000001
 20
3
 30
0
 11
0.9193000000000009
 21
2.88
 31
0
  0
LINE
  8
0
 62
7
 10
0.9193000000000009
 20
2.88
 30
0
 11
0.949000000000001
 21
3
 31
0
  0
LINE
  8
0
 62
7
 10
0.970600000000001
 20
2.982
 30
0
 11
0.9760000000000009
 21
2.991
 31
0
  0
LINE
  8
0
 62
7
 10
0.9760000000000009
 20
2.991
 30
0
 11
0.9841000000000011
 21
2.997
 31
0
  0
LINE
  8
0
 62
7
 10
0.9841000000000011
 20
2.997
 30
0
 11
0.9949000000000011
 21
3
 31
0
  0
LINE
  8
0
 62
7
 10
0.9949000000000011
 20
3
 30
0
 11
1.011100000000001
 21
3
 31
0
  0
LINE
  8
0
 62
7
 10
1.011100000000001
 20
3
 30
0
 11
1.021900000000001
 21
2.997
 31
0
  0
LINE
  8
0
 62
7
 10
1.021900000000001
 20
2.997
 30
0
 11
1.030000000000001
 21
2.991
 31
0
  0
LINE
  8
0
 62
7
 10
1.030000000000001
 20
2.991
 30
0
 11
1.035400000000001
 21
2.982
 31
0
  0
LINE
  8
0
 62
7
 10
1.035400000000001
 20
2.982
 30
0
 11
1.035400000000001
 21
2.97
 31
0
  0
LINE
  8
0
 62
7
 10
1.035400000000001
 20
2.97
 30
0
 11
1.030000000000001
 21
2.958
 31
0
  0
LINE
  8
0
 62
7
 10
1.030000000000001
 20
2.958
 30
0
 11
0.970600000000001
 21
2.88
 31
0
  0
LINE
  8
0
 62
7
 10
0.970600000000001
 20
2.88
 30
0
 11
1.035400000000001
 21
2.88
 31
0
  0
LINE
  8
0
 62
7
 10
1.067800000000001
 20
2.97
 30
0
 11
1.070500000000001
 21
2.982
 31
0
  0
LINE
  8
0
 62
7
 10
1.070500000000001
 20
2.982
 30
0
 11
1.075900000000001
 21
2.991
 31
0
  0
LINE
  8
0
 62
7
 10
1.075900000000001
 20
2.991
 30
0
 11
1.084000000000001
 21
2.997
 31
0
  0
LINE
  8
0
 62
7
 10
1.084000000000001
 20
2.997
 30
0
 11
1.092100000000001
 21
3
 31
0
  0
LINE
  8
0
 62
7
 10
1.092100000000001
 20
3
 30
0
 11
1.108300000000001
 21
3
 31
0
  0
LINE
  8
0
 62
7
 10
1.108300000000001
 20
3
 30
0
 11
1.116400000000001
 21
2.997
 31
0
  0
LINE
  8
0
 62
7
 10
1.116400000000001
 20
2.997
 30
0
 11
1.124500000000001
 21
2.991
 31
0
  0
LINE
  8
0
 62
7
 10
1.124500000000001
 20
2.991
 30
0
 11
1.129900000000001
 21
2.982
 31
0
  0
LINE
  8
0
 62
7
 10
1.129900000000001
 20
2.982
 30
0
 11
1.132600000000001
 21
2.97
 31
0
  0
LINE
  8
0
 62
7
 10
1.132600000000001
 20
2.97
 30
0
 11
1.132600000000001
 21
2.91
 31
0
  0
LINE
  8
0
 62
7
 10
1.132600000000001
 20
2.91
 30
0
 11
1.129900000000001
 21
2.898
 31
0
  0
LINE
  8
0
 62
7
 10
1.129900000000001
 20
2.898
 30
0
 11
1.124500000000001
 21
2.889
 31
0
  0
LINE
  8
0
 62
7
 10
1.124500000000001
 20
2.889
 30
0
 11
1.116400000000001
 21
2.883
 31
0
  0
LINE
  8
0
 62
7
 10
1.116400000000001
 20
2.883
 30
0
 11
1.108300000000001
 21
2.88
 31
0
  0
LINE
  8
0
 62
7
 10
1.108300000000001
 20
2.88
 30
0
 11
1.092100000000001
 21
2.88
 31
0
  0
LINE
  8
0
 62
7
 10
1.092100000000001
 20
2.88
 30
0
 11
1.084000000000001
 21
2.883
 31
0
  0
LINE
  8
0
 62
7
 10
1.084000000000001
 20
2.883
 30
0
 11
1.075900000000001
 21
2.889
 31
0
  0
LINE
  8
0
 62
7
 10
1.075900000000001
 20
2.889
 30
0
 11
1.070500000000001
 21
2.898
 31
0
  0
LINE
  8
0
 62
7
 10
1.070500000000001
 20
2.898
 30
0
 11
1.067800000000001
 21
2.91
 31
0
  0
LINE
  8
0
 62
7
 10
1.067800000000001
 20
2.91
 30
0
 11
1.067800000000001
 21
2.97
 31
0
  0
LINE
  8
0
 62
7
 10
1.165000000000001
 20
2.964
 30
0
 11
1.197400000000001
 21
3
 31
0
  0
LINE
  8
0
 62
7
 10
1.197400000000001
 20
3
 30
0
 11
1.197400000000001
 21
2.88
 31
0
  0
LINE
  8
0
 62
7
 10
1.294600000000001
 20
2.88
 30
0
 11
1.229800000000001
 21
2.88
 31
0
  0
LINE
  8
0
 62
7
 10
1.229800000000001
 20
2.88
 30
0
 11
1.229800000000001
 21
3
 31
0
  0
LINE
  8
0
 62
7
 10
1.327000000000001
 20
2.982
 30
0
 11
1.332400000000001
 21
2.991
 31
0
  0
LINE
  8
0
 62
7
 10
1.332400000000001
 20
2.991
 30
0
 11
1.340500000000001
 21
2.997
 31
0
  0
LINE
  8
0
 62
7
 10
1.340500000000001
 20
2.997
 30
0
 11
1.351300000000001
 21
3
 31
0
  0
LINE
  8
0
 62
7
 10
1.351300000000001
 20
3
 30
0
 11
1.367500000000001
 21
3
 31
0
  0
LINE
  8
0
 62
7
 10
1.367500000000001
 20
3
 30
0
 11
1.375600000000001
 21
2.997
 31
0
  0
LINE
  8
0
 62
7
 10
1.375600000000001
 20
2.997
 30
0
 11
1.383700000000001
 21
2.991
 31
0
  0
LINE
  8
0
 62
7
 10
1.383700000000001
 20
2.991
 30
0
 11
1.389100000000001
 21
2.982
 31
0
  0
LINE
  8
0
 62
7
 10
1.389100000000001
 20
2.982
 30
0
 11
1.391800000000001
 21
2.97
 31
0
  0
LINE
  8
0
 62
7
 10
1.391800000000001
 20
2.97
 30
0
 11
1.391800000000001
 21
2.961
 31
0
  0
LINE
  8
0
 62
7
 10
1.391800000000001
 20
2.961
 30
0
 11
1.389100000000001
 21
2.952
 31
0
  0
LINE
  8
0
 62
7
 10
1.389100000000001
 20
2.952
 30
0
 11
1.383700000000001
 21
2.946
 31
0
  0
LINE
  8
0
 62
7
 10
1.383700000000001
 20
2.946
 30
0
 11
1.370200000000001
 21
2.94
 31
0
  0
LINE
  8
0
 62
7
 10
1.351300000000001
 20
2.94
 30
0
 11
1.370200000000001
 21
2.94
 31
0
  0
LINE
  8
0
 62
7
 10
1.370200000000001
 20
2.94
 30
0
 11
1.383700000000001
 21
2.934
 31
0
  0
LINE
  8
0
 62
7
 10
1.383700000000001
 20
2.934
 30
0
 11
1.389100000000001
 21
2.928
 31
0
  0
LINE
  8
0
 62
7
 10
1.389100000000001
 20
2.928
 30
0
 11
1.391800000000001
 21
2.919
 31
0
  0
LINE
  8
0
 62
7
 10
1.391800000000001
 20
2.919
 30
0
 11
1.391800000000001
 21
2.91
 31
0
  0
LINE
  8
0
 62
7
 10
1.391800000000001
 20
2.91
 30
0
 11
1.389100000000001
 21
2.898
 31
0
  0
LINE
  8
0
 62
7
 10
1.389100000000001
 20
2.898
 30
0
 11
1.383700000000001
 21
2.889
 31
0
  0
LINE
  8
0
 62
7
 10
1.383700000000001
 20
2.889
 30
0
 11
1.375600000000001
 21
2.883
 31
0
  0
LINE
  8
0
 62
7
 10
1.375600000000001
 20
2.883
 30
0
 11
1.367500000000001
 21
2.88
 31
0
  0
LINE
  8
0
 62
7
 10
1.367500000000001
 20
2.88
 30
0
 11
1.351300000000001
 21
2.88
 31
0
  0
LINE
  8
0
 62
7
 10
1.351300000000001
 20
2.88
 30
0
 11
1.340500000000001
 21
2.883
 31
0
  0
LINE
  8
0
 62
7
 10
1.340500000000001
 20
2.883
 30
0
 11
1.332400000000001
 21
2.889
 31
0
  0
LINE
  8
0
 62
7
 10
1.332400000000001
 20
2.889
 30
0
 11
1.327000000000001
 21
2.898
 31
0
  0
LINE
  8
0
 62
7
 10
3.125000000000001
 20
2.88
 30
0
 11
3.125000000000001
 21
2.98
 31
0
  0
LINE
  8
0
 62
7
 10
3.125000000000001
 20
2.98
 30
0
 11
3.188000000000001
 21
2.88
 31
0
  0
LINE
  8
0
 62
7
 10
3.188000000000001
 20
2.88
 30
0
 11
3.188000000000001
 21
2.98
 31
0
  0
LINE
  8
0
 62
7
 10
3.269000000000001
 20
2.88
 30
0
 11
3.215000000000002
 21
2.88
 31
0
  0
LINE
  8
0
 62
7
 10
3.215000000000002
 20
2.88
 30
0
 11
3.215000000000002
 21
2.98
 31
0
  0
LINE
  8
0
 62
7
 10
3.296000000000001
 20
2.93
 30
0
 11
3.332000000000001
 21
2.93
 31
0
  0
LINE
  8
0
 62
7
 10
3.332000000000001
 20
2.93
 30
0
 11
3.336500000000001
 21
2.93
 31
0
  0
LINE
  8
0
 62
7
 10
3.336500000000001
 20
2.93
 30
0
 11
3.345500000000001
 21
2.925
 31
0
  0
LINE
  8
0
 62
7
 10
3.345500000000001
 20
2.925
 30
0
 11
3.350000000000001
 21
2.92
 31
0
  0
LINE
  8
0
 62
7
 10
3.350000000000001
 20
2.92
 30
0
 11
3.354500000000001
 21
2.91
 31
0
  0
LINE
  8
0
 62
7
 10
3.354500000000001
 20
2.91
 30
0
 11
3.354500000000001
 21
2.9
 31
0
  0
LINE
  8
0
 62
7
 10
3.354500000000001
 20
2.9
 30
0
 11
3.350000000000001
 21
2.890000000000001
 31
0
  0
LINE
  8
0
 62
7
 10
3.350000000000001
 20
2.890000000000001
 30
0
 11
3.345500000000001
 21
2.885
 31
0
  0
LINE
  8
0
 62
7
 10
3.345500000000001
 20
2.885
 30
0
 11
3.336500000000001
 21
2.88
 31
0
  0
LINE
  8
0
 62
7
 10
3.336500000000001
 20
2.88
 30
0
 11
3.296000000000001
 21
2.88
 31
0
  0
LINE
  8
0
 62
7
 10
3.296000000000001
 20
2.88
 30
0
 11
3.296000000000001
 21
2.93
 31
0
  0
LINE
  8
0
 62
7
 10
3.296000000000001
 20
2.98
 30
0
 11
3.329750000000001
 21
2.98
 31
0
  0
LINE
  8
0
 62
7
 10
3.329750000000001
 20
2.98
 30
0
 11
3.341000000000001
 21
2.9775
 31
0
  0
LINE
  8
0
 62
7
 10
3.341000000000001
 20
2.9775
 30
0
 11
3.347750000000001
 21
2.97
 31
0
  0
LINE
  8
0
 62
7
 10
3.347750000000001
 20
2.97
 30
0
 11
3.350000000000001
 21
2.96
 31
0
  0
LINE
  8
0
 62
7
 10
3.350000000000001
 20
2.96
 30
0
 11
3.350000000000001
 21
2.95
 31
0
  0
LINE
  8
0
 62
7
 10
3.350000000000001
 20
2.95
 30
0
 11
3.345500000000001
 21
2.94
 31
0
  0
LINE
  8
0
 62
7
 10
3.345500000000001
 20
2.94
 30
0
 11
3.338750000000001
 21
2.9325
 31
0
  0
LINE
  8
0
 62
7
 10
3.338750000000001
 20
2.9325
 30
0
 11
3.332000000000001
 21
2.93
 31
0
  0
LINE
  8
0
 62
7
 10
3.296000000000001
 20
2.93
 30
0
 11
3.296000000000001
 21
2.98
 31
0
  0
LINE
  8
0
 62
7
 10
3.496250000000002
 20
2.9325
 30
0
 11
3.489500000000001
 21
2.9425
 31
0
  0
LINE
  8
0
 62
7
 10
3.489500000000001
 20
2.9425
 30
0
 11
3.482750000000001
 21
2.9475
 31
0
  0
LINE
  8
0
 62
7
 10
3.482750000000001
 20
2.9475
 30
0
 11
3.476000000000001
 21
2.95
 31
0
  0
LINE
  8
0
 62
7
 10
3.476000000000001
 20
2.95
 30
0
 11
3.467000000000001
 21
2.95
 31
0
  0
LINE
  8
0
 62
7
 10
3.467000000000001
 20
2.95
 30
0
 11
3.460250000000002
 21
2.9475
 31
0
  0
LINE
  8
0
 62
7
 10
3.460250000000002
 20
2.9475
 30
0
 11
3.453500000000001
 21
2.9425
 31
0
  0
LINE
  8
0
 62
7
 10
3.453500000000001
 20
2.9425
 30
0
 11
3.446750000000002
 21
2.9325
 31
0
  0
LINE
  8
0
 62
7
 10
3.446750000000002
 20
2.9325
 30
0
 11
3.444500000000001
 21
2.925
 31
0
  0
LINE
  8
0
 62
7
 10
3.444500000000001
 20
2.925
 30
0
 11
3.444500000000001
 21
2.905
 31
0
  0
LINE
  8
0
 62
7
 10
3.444500000000001
 20
2.905
 30
0
 11
3.446750000000002
 21
2.8975
 31
0
  0
LINE
  8
0
 62
7
 10
3.446750000000002
 20
2.8975
 30
0
 11
3.453500000000001
 21
2.8875
 31
0
  0
LINE
  8
0
 62
7
 10
3.453500000000001
 20
2.8875
 30
0
 11
3.460250000000002
 21
2.8825
 31
0
  0
LINE
  8
0
 62
7
 10
3.460250000000002
 20
2.8825
 30
0
 11
3.467000000000001
 21
2.88
 31
0
  0
LINE
  8
0
 62
7
 10
3.467000000000001
 20
2.88
 30
0
 11
3.476000000000001
 21
2.88
 31
0
  0
LINE
  8
0
 62
7
 10
3.476000000000001
 20
2.88
 30
0
 11
3.482750000000001
 21
2.8825
 31
0
  0
LINE
  8
0
 62
7
 10
3.482750000000001
 20
2.8825
 30
0
 11
3.489500000000001
 21
2.8875
 31
0
  0
LINE
  8
0
 62
7
 10
3.489500000000001
 20
2.8875
 30
0
 11
3.496250000000002
 21
2.8975
 31
0
  0
LINE
  8
0
 62
7
 10
3.568250000000001
 20
2.925
 30
0
 11
3.566000000000001
 21
2.9325
 31
0
  0
LINE
  8
0
 62
7
 10
3.566000000000001
 20
2.9325
 30
0
 11
3.559250000000002
 21
2.9425
 31
0
  0
LINE
  8
0
 62
7
 10
3.559250000000002
 20
2.9425
 30
0
 11
3.552500000000002
 21
2.9475
 31
0
  0
LINE
  8
0
 62
7
 10
3.552500000000002
 20
2.9475
 30
0
 11
3.545750000000001
 21
2.95
 31
0
  0
LINE
  8
0
 62
7
 10
3.545750000000001
 20
2.95
 30
0
 11
3.536750000000001
 21
2.95
 31
0
  0
LINE
  8
0
 62
7
 10
3.536750000000001
 20
2.95
 30
0
 11
3.530000000000001
 21
2.9475
 31
0
  0
LINE
  8
0
 62
7
 10
3.530000000000001
 20
2.9475
 30
0
 11
3.523250000000001
 21
2.9425
 31
0
  0
LINE
  8
0
 62
7
 10
3.523250000000001
 20
2.9425
 30
0
 11
3.516500000000002
 21
2.9325
 31
0
  0
LINE
  8
0
 62
7
 10
3.516500000000002
 20
2.9325
 30
0
 11
3.514250000000001
 21
2.925
 31
0
  0
LINE
  8
0
 62
7
 10
3.514250000000001
 20
2.925
 30
0
 11
3.514250000000001
 21
2.905
 31
0
  0
LINE
  8
0
 62
7
 10
3.514250000000001
 20
2.905
 30
0
 11
3.516500000000002
 21
2.8975
 31
0
  0
LINE
  8
0
 62
7
 10
3.516500000000002
 20
2.8975
 30
0
 11
3.523250000000001
 21
2.8875
 31
0
  0
LINE
  8
0
 62
7
 10
3.523250000000001
 20
2.8875
 30
0
 11
3.530000000000001
 21
2.8825
 31
0
  0
LINE
  8
0
 62
7
 10
3.530000000000001
 20
2.8825
 30
0
 11
3.536750000000001
 21
2.88
 31
0
  0
LINE
  8
0
 62
7
 10
3.536750000000001
 20
2.88
 30
0
 11
3.545750000000001
 21
2.88
 31
0
  0
LINE
  8
0
 62
7
 10
3.545750000000001
 20
2.88
 30
0
 11
3.552500000000002
 21
2.8825
 31
0
  0
LINE
  8
0
 62
7
 10
3.552500000000002
 20
2.8825
 30
0
 11
3.559250000000002
 21
2.8875
 31
0
  0
LINE
  8
0
 62
7
 10
3.559250000000002
 20
2.8875
 30
0
 11
3.566000000000001
 21
2.8975
 31
0
  0
LINE
  8
0
 62
7
 10
3.566000000000001
 20
2.8975
 30
0
 11
3.568250000000001
 21
2.905
 31
0
  0
LINE
  8
0
 62
7
 10
3.568250000000001
 20
2.95
 30
0
 11
3.568250000000001
 21
2.925
 31
0
  0
LINE
  8
0
 62
7
 10
3.568250000000001
 20
2.8825
 30
0
 11
3.570500000000001
 21
2.88
 31
0
  0
LINE
  8
0
 62
7
 10
3.570500000000001
 20
2.88
 30
0
 11
3.572750000000001
 21
2.88
 31
0
  0
LINE
  8
0
 62
7
 10
3.568250000000001
 20
2.905
 30
0
 11
3.568250000000001
 21
2.8825
 31
0
  0
LINE
  8
0
 62
7
 10
3.568250000000001
 20
2.925
 30
0
 11
3.568250000000001
 21
2.905
 31
0
  0
LINE
  8
0
 62
7
 10
3.590750000000002
 20
2.88
 30
0
 11
3.590750000000002
 21
2.8825
 31
0
  0
LINE
  8
0
 62
7
 10
3.590750000000002
 20
2.8825
 30
0
 11
3.593000000000002
 21
2.8825
 31
0
  0
LINE
  8
0
 62
7
 10
3.593000000000002
 20
2.8825
 30
0
 11
3.593000000000002
 21
2.88
 31
0
  0
LINE
  8
0
 62
7
 10
3.593000000000002
 20
2.88
 30
0
 11
3.590750000000002
 21
2.88
 31
0
  0
LINE
  8
0
 62
7
 10
3.716750000000001
 20
2.98
 30
0
 11
3.725750000000001
 21
2.98
 31
0
  0
LINE
  8
0
 62
7
 10
3.725750000000001
 20
2.98
 30
0
 11
3.732500000000001
 21
2.9775
 31
0
  0
LINE
  8
0
 62
7
 10
3.732500000000001
 20
2.9775
 30
0
 11
3.737000000000001
 21
2.9725
 31
0
  0
LINE
  8
0
 62
7
 10
3.737000000000001
 20
2.9725
 30
0
 11
3.741500000000002
 21
2.965
 31
0
  0
LINE
  8
0
 62
7
 10
3.741500000000002
 20
2.965
 30
0
 11
3.741500000000002
 21
2.955
 31
0
  0
LINE
  8
0
 62
7
 10
3.741500000000002
 20
2.955
 30
0
 11
3.739250000000002
 21
2.95
 31
0
  0
LINE
  8
0
 62
7
 10
3.739250000000002
 20
2.95
 30
0
 11
3.732500000000001
 21
2.9425
 31
0
  0
LINE
  8
0
 62
7
 10
3.732500000000001
 20
2.9425
 30
0
 11
3.725750000000001
 21
2.94
 31
0
  0
LINE
  8
0
 62
7
 10
3.725750000000001
 20
2.94
 30
0
 11
3.716750000000001
 21
2.94
 31
0
  0
LINE
  8
0
 62
7
 10
3.716750000000001
 20
2.94
 30
0
 11
3.710000000000001
 21
2.9425
 31
0
  0
LINE
  8
0
 62
7
 10
3.710000000000001
 20
2.9425
 30
0
 11
3.703250000000001
 21
2.95
 31
0
  0
LINE
  8
0
 62
7
 10
3.703250000000001
 20
2.95
 30
0
 11
3.701000000000001
 21
2.955
 31
0
  0
LINE
  8
0
 62
7
 10
3.701000000000001
 20
2.955
 30
0
 11
3.701000000000001
 21
2.965
 31
0
  0
LINE
  8
0
 62
7
 10
3.701000000000001
 20
2.965
 30
0
 11
3.705500000000002
 21
2.9725
 31
0
  0
LINE
  8
0
 62
7
 10
3.705500000000002
 20
2.9725
 30
0
 11
3.710000000000001
 21
2.9775
 31
0
  0
LINE
  8
0
 62
7
 10
3.710000000000001
 20
2.9775
 30
0
 11
3.716750000000001
 21
2.98
 31
0
  0
LINE
  8
0
 62
7
 10
3.716750000000001
 20
2.94
 30
0
 11
3.705500000000002
 21
2.935
 31
0
  0
LINE
  8
0
 62
7
 10
3.705500000000002
 20
2.935
 30
0
 11
3.698750000000001
 21
2.9275
 31
0
  0
LINE
  8
0
 62
7
 10
3.698750000000001
 20
2.9275
 30
0
 11
3.694250000000002
 21
2.9175
 31
0
  0
LINE
  8
0
 62
7
 10
3.694250000000002
 20
2.9175
 30
0
 11
3.694250000000002
 21
2.9025
 31
0
  0
LINE
  8
0
 62
7
 10
3.694250000000002
 20
2.9025
 30
0
 11
3.698750000000001
 21
2.8925
 31
0
  0
LINE
  8
0
 62
7
 10
3.698750000000001
 20
2.8925
 30
0
 11
3.705500000000002
 21
2.885
 31
0
  0
LINE
  8
0
 62
7
 10
3.705500000000002
 20
2.885
 30
0
 11
3.714500000000001
 21
2.88
 31
0
  0
LINE
  8
0
 62
7
 10
3.714500000000001
 20
2.88
 30
0
 11
3.728000000000002
 21
2.88
 31
0
  0
LINE
  8
0
 62
7
 10
3.728000000000002
 20
2.88
 30
0
 11
3.737000000000001
 21
2.885
 31
0
  0
LINE
  8
0
 62
7
 10
3.737000000000001
 20
2.885
 30
0
 11
3.743750000000001
 21
2.8925
 31
0
  0
LINE
  8
0
 62
7
 10
3.743750000000001
 20
2.8925
 30
0
 11
3.748250000000001
 21
2.9025
 31
0
  0
LINE
  8
0
 62
7
 10
3.748250000000001
 20
2.9025
 30
0
 11
3.748250000000001
 21
2.9175
 31
0
  0
LINE
  8
0
 62
7
 10
3.748250000000001
 20
2.9175
 30
0
 11
3.743750000000001
 21
2.9275
 31
0
  0
LINE
  8
0
 62
7
 10
3.743750000000001
 20
2.9275
 30
0
 11
3.737000000000001
 21
2.935
 31
0
  0
LINE
  8
0
 62
7
 10
3.737000000000001
 20
2.935
 30
0
 11
3.725750000000001
 21
2.94
 31
0
  0
LINE
  8
0
 62
7
 10
3.784250000000002
 20
2.965
 30
0
 11
3.788750000000001
 21
2.9725
 31
0
  0
LINE
  8
0
 62
7
 10
3.788750000000001
 20
2.9725
 30
0
 11
3.795500000000001
 21
2.9775
 31
0
  0
LINE
  8
0
 62
7
 10
3.795500000000001
 20
2.9775
 30
0
 11
3.804500000000001
 21
2.98
 31
0
  0
LINE
  8
0
 62
7
 10
3.804500000000001
 20
2.98
 30
0
 11
3.818000000000001
 21
2.98
 31
0
  0
LINE
  8
0
 62
7
 10
3.818000000000001
 20
2.98
 30
0
 11
3.824750000000001
 21
2.9775
 31
0
  0
LINE
  8
0
 62
7
 10
3.824750000000001
 20
2.9775
 30
0
 11
3.831500000000001
 21
2.9725
 31
0
  0
LINE
  8
0
 62
7
 10
3.831500000000001
 20
2.9725
 30
0
 11
3.836000000000001
 21
2.965
 31
0
  0
LINE
  8
0
 62
7
 10
3.836000000000001
 20
2.965
 30
0
 11
3.838250000000001
 21
2.955
 31
0
  0
LINE
  8
0
 62
7
 10
3.838250000000001
 20
2.955
 30
0
 11
3.838250000000001
 21
2.9475
 31
0
  0
LINE
  8
0
 62
7
 10
3.838250000000001
 20
2.9475
 30
0
 11
3.836000000000001
 21
2.94
 31
0
  0
LINE
  8
0
 62
7
 10
3.836000000000001
 20
2.94
 30
0
 11
3.831500000000001
 21
2.935
 31
0
  0
LINE
  8
0
 62
7
 10
3.831500000000001
 20
2.935
 30
0
 11
3.820250000000001
 21
2.93
 31
0
  0
LINE
  8
0
 62
7
 10
3.804500000000001
 20
2.93
 30
0
 11
3.820250000000001
 21
2.93
 31
0
  0
LINE
  8
0
 62
7
 10
3.820250000000001
 20
2.93
 30
0
 11
3.831500000000001
 21
2.925
 31
0
  0
LINE
  8
0
 62
7
 10
3.831500000000001
 20
2.925
 30
0
 11
3.836000000000001
 21
2.92
 31
0
  0
LINE
  8
0
 62
7
 10
3.836000000000001
 20
2.92
 30
0
 11
3.838250000000001
 21
2.9125
 31
0
  0
LINE
  8
0
 62
7
 10
3.838250000000001
 20
2.9125
 30
0
 11
3.838250000000001
 21
2.905
 31
0
  0
LINE
  8
0
 62
7
 10
3.838250000000001
 20
2.905
 30
0
 11
3.836000000000001
 21
2.895
 31
0
  0
LINE
  8
0
 62
7
 10
3.836000000000001
 20
2.895
 30
0
 11
3.831500000000001
 21
2.8875
 31
0
  0
LINE
  8
0
 62
7
 10
3.831500000000001
 20
2.8875
 30
0
 11
3.824750000000001
 21
2.8825
 31
0
  0
LINE
  8
0
 62
7
 10
3.824750000000001
 20
2.8825
 30
0
 11
3.818000000000001
 21
2.88
 31
0
  0
LINE
  8
0
 62
7
 10
3.818000000000001
 20
2.88
 30
0
 11
3.804500000000001
 21
2.88
 31
0
  0
LINE
  8
0
 62
7
 10
3.804500000000001
 20
2.88
 30
0
 11
3.795500000000001
 21
2.8825
 31
0
  0
LINE
  8
0
 62
7
 10
3.795500000000001
 20
2.8825
 30
0
 11
3.788750000000001
 21
2.8875
 31
0
  0
LINE
  8
0
 62
7
 10
3.788750000000001
 20
2.8875
 30
0
 11
3.784250000000002
 21
2.895
 31
0
  0
LINE
  8
0
 62
7
 10
3.989000000000001
 20
2.9325
 30
0
 11
3.982250000000001
 21
2.9425
 31
0
  0
LINE
  8
0
 62
7
 10
3.982250000000001
 20
2.9425
 30
0
 11
3.975500000000002
 21
2.9475
 31
0
  0
LINE
  8
0
 62
7
 10
3.975500000000002
 20
2.9475
 30
0
 11
3.968750000000001
 21
2.95
 31
0
  0
LINE
  8
0
 62
7
 10
3.968750000000001
 20
2.95
 30
0
 11
3.959750000000001
 21
2.95
 31
0
  0
LINE
  8
0
 62
7
 10
3.959750000000001
 20
2.95
 30
0
 11
3.953000000000002
 21
2.9475
 31
0
  0
LINE
  8
0
 62
7
 10
3.953000000000002
 20
2.9475
 30
0
 11
3.946250000000001
 21
2.9425
 31
0
  0
LINE
  8
0
 62
7
 10
3.946250000000001
 20
2.9425
 30
0
 11
3.939500000000001
 21
2.9325
 31
0
  0
LINE
  8
0
 62
7
 10
3.939500000000001
 20
2.9325
 30
0
 11
3.937250000000001
 21
2.925
 31
0
  0
LINE
  8
0
 62
7
 10
3.937250000000001
 20
2.925
 30
0
 11
3.937250000000001
 21
2.905
 31
0
  0
LINE
  8
0
 62
7
 10
3.937250000000001
 20
2.905
 30
0
 11
3.939500000000001
 21
2.8975
 31
0
  0
LINE
  8
0
 62
7
 10
3.939500000000001
 20
2.8975
 30
0
 11
3.946250000000001
 21
2.8875
 31
0
  0
LINE
  8
0
 62
7
 10
3.946250000000001
 20
2.8875
 30
0
 11
3.953000000000002
 21
2.8825
 31
0
  0
LINE
  8
0
 62
7
 10
3.953000000000002
 20
2.8825
 30
0
 11
3.959750000000001
 21
2.88
 31
0
  0
LINE
  8
0
 62
7
 10
3.959750000000001
 20
2.88
 30
0
 11
3.968750000000001
 21
2.88
 31
0
  0
LINE
  8
0
 62
7
 10
3.968750000000001
 20
2.88
 30
0
 11
3.975500000000002
 21
2.8825
 31
0
  0
LINE
  8
0
 62
7
 10
3.975500000000002
 20
2.8825
 30
0
 11
3.982250000000001
 21
2.8875
 31
0
  0
LINE
  8
0
 62
7
 10
3.982250000000001
 20
2.8875
 30
0
 11
3.989000000000001
 21
2.8975
 31
0
  0
LINE
  8
0
 62
7
 10
4.047500000000001
 20
2.925
 30
0
 11
4.047500000000001
 21
2.88
 31
0
  0
LINE
  8
0
 62
7
 10
4.007000000000001
 20
2.95
 30
0
 11
4.007000000000001
 21
2.925
 31
0
  0
LINE
  8
0
 62
7
 10
4.007000000000001
 20
2.88
 30
0
 11
4.007000000000001
 21
2.925
 31
0
  0
LINE
  8
0
 62
7
 10
4.007000000000001
 20
2.925
 30
0
 11
4.009250000000002
 21
2.9375
 31
0
  0
LINE
  8
0
 62
7
 10
4.009250000000002
 20
2.9375
 30
0
 11
4.011500000000001
 21
2.9425
 31
0
  0
LINE
  8
0
 62
7
 10
4.011500000000001
 20
2.9425
 30
0
 11
4.016000000000001
 21
2.9475
 31
0
  0
LINE
  8
0
 62
7
 10
4.016000000000001
 20
2.9475
 30
0
 11
4.022750000000001
 21
2.95
 31
0
  0
LINE
  8
0
 62
7
 10
4.022750000000001
 20
2.95
 30
0
 11
4.031750000000001
 21
2.95
 31
0
  0
LINE
  8
0
 62
7
 10
4.031750000000001
 20
2.95
 30
0
 11
4.038500000000002
 21
2.9475
 31
0
  0
LINE
  8
0
 62
7
 10
4.038500000000002
 20
2.9475
 30
0
 11
4.043000000000002
 21
2.9425
 31
0
  0
LINE
  8
0
 62
7
 10
4.043000000000002
 20
2.9425
 30
0
 11
4.045250000000001
 21
2.9375
 31
0
  0
LINE
  8
0
 62
7
 10
4.045250000000001
 20
2.9375
 30
0
 11
4.047500000000001
 21
2.925
 31
0
  0
LINE
  8
0
 62
7
 10
4.047500000000001
 20
2.925
 30
0
 11
4.049750000000001
 21
2.9375
 31
0
  0
LINE
  8
0
 62
7
 10
4.049750000000001
 20
2.9375
 30
0
 11
4.052000000000001
 21
2.9425
 31
0
  0
LINE
  8
0
 62
7
 10
4.052000000000001
 20
2.9425
 30
0
 11
4.056500000000002
 21
2.9475
 31
0
  0
LINE
  8
0
 62
7
 10
4.056500000000002
 20
2.9475
 30
0
 11
4.063250000000001
 21
2.95
 31
0
  0
LINE
  8
0
 62
7
 10
4.063250000000001
 20
2.95
 30
0
 11
4.072250000000001
 21
2.95
 31
0
  0
LINE
  8
0
 62
7
 10
4.072250000000001
 20
2.95
 30
0
 11
4.079000000000002
 21
2.9475
 31
0
  0
LINE
  8
0
 62
7
 10
4.083500000000001
 20
2.9425
 30
0
 11
4.079000000000002
 21
2.9475
 31
0
  0
LINE
  8
0
 62
7
 10
4.079000000000002
 20
2.9475
 30
0
 11
4.083500000000001
 21
2.9425
 31
0
  0
LINE
  8
0
 62
7
 10
4.083500000000001
 20
2.9425
 30
0
 11
4.085750000000001
 21
2.9375
 31
0
  0
LINE
  8
0
 62
7
 10
4.085750000000001
 20
2.9375
 30
0
 11
4.088000000000002
 21
2.925
 31
0
  0
LINE
  8
0
 62
7
 10
4.088000000000002
 20
2.925
 30
0
 11
4.088000000000002
 21
2.88
 31
0
  0
ARC
  8
0
 62
7
 10
2.219589072727301
 20
4.045410927272671
 30
0
 40
0.4530000000000016
 50
89.94802215807053
 51
180.0519778455759
  0
ARC
  8
0
 62
7
 10
2.34041092727271
 20
4.045410927272701
 30
0
 40
0.4530000000000027
 50
359.9480221523585
 51
90.05197784537499
  0
CIRCLE
  8
0
 62
7
 10
2.793410740866881
 20
3.24
 30
0
 40
0.06000000000000005
  0
DIMENSION
  8
0
  6
CONTINUOUS
 62
7
  2
*D0
  3
DMST_1
 10
0.8144477970817061
 20
3.340000000000001
 30
0
 11
0.8144477970817061
 21
4.15506708681087
 31
0
 12
0
 22
0
 32
0
 70
0
 13
1.100000000000001
 23
4.990000000000002
 33
0
 14
1.100000000000001
 24
3.340000000000002
 34
0
 50
90
 53
0
  0
DIMENSION
  8
0
  6
CONTINUOUS
 62
7
  2
*D1
  3
DMST_1
 10
3.285000000000001
 20
5.93214322375517
 30
0
 11
2.30192634133878
 21
5.93214322375517
 31
0
 12
0
 22
0
 32
0
 70
0
 13
1.275000000000001
 23
5.51
 33
0
 14
3.285000000000001
 24
5.51
 34
0
 53
0
  0
DIMENSION
  8
0
  6
CONTINUOUS
 62
7
  2
*D2
  3
DMST_1
 10
3.86838604723783
 20
4.990000000000001
 30
0
 11
3.86838604723783
 21
4.18139414069153
 31
0
 12
0
 22
0
 32
0
 70
0
 13
3.460000000000001
 23
3.24
 33
0
 14
3.460000000000001
 24
4.990000000000002
 34
0
 50
90
 53
0
  0
DIMENSION
  8
0
  6
CONTINUOUS
 62
7
  2
*D3
  3
DMST_2
 10
3.285000000000001
 20
11.5661327542156
 30
0
 11
2.31508986827911
 21
11.5661327542156
 31
0
 12
0
 22
0
 32
0
 70
0
 13
1.275000000000001
 23
11.2
 33
0
 14
3.285000000000001
 24
11.2
 34
0
 53
0
  0
INSERT
  8
0
  2
*D4
 10
0
 20
0
 30
0
  0
ENDSEC
  0
EOF
