  0
SECTION
  2
HEADER
  9
$ACADVER
  1
AC1009
  9
$INSBASE
 10
0
 20
0
  9
$EXTMIN
 10
0.45
 20
2.88
  9
$EXTMAX
 10
8.361322256855741
 20
11.6391901141203
  9
$LIMMIN
 10
0.45
 20
2.88
  9
$LIMMAX
 10
8.361322256855741
 20
11.6391901141203
  9
$VIEWCTR
 10
10
 20
10
  9
$VIEWSIZE
 40
10
  9
$SNAPMODE
 70
0
  9
$SNAPUNIT
 10
1
 20
1
  9
$SNAPBASE
 10
0
 20
0
  9
$SNAPANG
 50
0
  9
$SNAPSTYLE
 70
0
  9
$SNAPISOPAIR
 70
0
  9
$GRIDMODE
 70
0
  9
$GRIDUNIT
 10
0
 20
0
  9
$ORTHOMODE
 70
0
  9
$REGENMODE
 70
1
  9
$FILLMODE
 70
1
  9
$QTEXTMODE
 70
0
  9
$DRAGMODE
 70
2
  9
$LTSCALE
 40
1
  9
$OSMODE
 70
0
  9
$ATTMODE
 70
1
  9
$TEXTSIZE
 40
3.5
  9
$TRACEWID
 40
0.5
  9
$TEXTSTYLE
  7
STANDARD
  9
$CLAYER
  8
0
  9
$CELTYPE
  6
BYLAYER
  9
$CECOLOR
 62
256
  9
$DIMSCALE
 40
1
  9
$DIMASZ
 40
0.18
  9
$DIMEXO
 40
0.0625
  9
$DIMDLI
 40
0.38
  9
$DIMRND
 40
0
  9
$DIMDLE
 40
0
  9
$DIMEXE
 40
0.18
  9
$DIMTP
 40
0
  9
$DIMTM
 40
0
  9
$DIMTXT
 40
0.18
  9
$DIMCEN
 40
0.09
  9
$DIMTSZ
 40
0
  9
$DIMTOL
 70
0
  9
$DIMLIM
 70
0
  9
$DIMTIH
 70
1
  9
$DIMTOH
 70
1
  9
$DIMSE1
 70
0
  9
$DIMSE2
 70
0
  9
$DIMTAD
 70
0
  9
$DIMZIN
 70
0
  9
$DIMBLK
  1

  9
$DIMASO
 70
1
  9
$DIMSHO
 70
1
  9
$DIMPOST
  1

  9
$DIMAPOST
  1

  9
$DIMALT
 70
0
  9
$DIMALTD
 70
2
  9
$DIMALTF
 40
25.4
  9
$DIMLFAC
 40
1
  9
$DIMTOFL
 70
0
  9
$DIMTVP
 40
0
  9
$DIMTIX
 70
0
  9
$DIMSOXD
 70
0
  9
$DIMSAH
 70
0
  9
$DIMBLK1
  1

  9
$DIMBLK2
  1

  9
$DIMSTYLE
  2
*UNNAMED
  9
$DIMCLRD
 70
0
  9
$DIMCLRE
 70
0
  9
$DIMCLRT
 70
0
  9
$DIMTFAC
 40
1
  9
$DIMGAP
 40
0.09
  9
$LUNITS
 70
2
  9
$LUPREC
 70
4
  9
$AXISMODE
 70
0
  9
$AXISUNIT
 10
0
 20
0
  9
$SKETCHINC
 40
0.1
  9
$FILLETRAD
 40
2
  9
$AUNITS
 70
0
  9
$AUPREC
 70
0
  9
$MENU
  1
ACAD
  9
$ELEVATION
 40
0
  9
$THICKNESS
 40
0
  9
$VIEWDIR
 10
0
 20
0
 30
1
  9
$LIMCHECK
 70
0
  9
$BLIPMODE
 70
1
  9
$CHAMFERA
 40
0
  9
$CHAMFERB
 40
0
  9
$FASTZOOM
 70
1
  9
$SKPOLY
 70
0
  9
$ANGBASE
 50
0
  9
$ANGDIR
 70
0
  9
$PDMODE
 70
0
  9
$PDSIZE
 40
0
  9
$PLINEWID
 40
0
  9
$COORDS
 70
2
  0
ENDSEC
  0
SECTION
  2
TABLES
  0
TABLE
  2
DIMSTYLE
 70
2
  0
DIMSTYLE
  2
DMST_1
 70
0
  3

  4

  5

  6

  7

 40
1
 41
0.1
 42
0
 43
0.7
 44
0.2
 45
0
 46
0
 47
0
 48
0
140
0.1
141
0
142
0.1
143
25.4
144
1
145
0
146
1
147
0.25
 71
0
 72
0
 73
0
 74
0
 75
0
 76
0
 77
0
 78
9
170
0
171
2
172
0
173
0
174
0
175
0
176
7
177
7
178
7
  0
DIMSTYLE
  2
DMST_2
 70
0
  3

  4

  5

  6

  7

 40
1
 41
0.1
 42
0
 43
0.7
 44
0.2
 45
0
 46
0
 47
0
 48
0
140
0.1
141
0
142
0.1
143
25.4
144
1
145
0
146
1
147
0.2
 71
0
 72
0
 73
0
 74
0
 75
0
 76
0
 77
0
 78
9
170
0
171
2
172
0
173
0
174
0
175
0
176
7
177
7
178
7
  0
ENDTAB
  0
TABLE
  2
LTYPE
 70
9
  0
LTYPE
  2
CONTINUOUS
 70
64
  3
Solid line
 72
65
 73
0
 40
0
  0
LTYPE
  2
BORDER
 70
64
  3
__ __ . __ __ .
 72
65
 73
6
 40
0.4033837552555402
 49
0.1152525015015829
 49
-0.05762625075079145
 49
0.1152525015015829
 49
-0.05762625075079145
 49
0
 49
-0.05762625075079145
  0
LTYPE
  2
CENTER
 70
64
  3
____ _ ____ _
 72
65
 73
4
 40
0.4610100060063316
 49
0.2881312537539573
 49
-0.05762625075079145
 49
0.05762625075079145
 49
-0.05762625075079145
  0
LTYPE
  2
DASHDOT
 70
64
  3
__ . __ . __ .
 72
65
 73
4
 40
0.2305050030031658
 49
0.1152525015015829
 49
-0.05762625075079145
 49
0
 49
-0.05762625075079145
  0
LTYPE
  2
DASHED
 70
64
  3
__ __ __ __ __
 72
65
 73
2
 40
0.1728787522523744
 49
0.1152525015015829
 49
-0.05762625075079145
  0
LTYPE
  2
DIVIDE
 70
64
  3
__ . . __ . . 
 72
65
 73
6
 40
0.2881312537539573
 49
0.1152525015015829
 49
-0.05762625075079145
 49
0
 49
-0.05762625075079145
 49
0
 49
-0.05762625075079145
  0
LTYPE
  2
DOT
 70
64
  3
..............
 72
65
 73
4
 40
0.1152525015015829
 49
0
 49
-0.05762625075079145
 49
0
 49
-0.05762625075079145
  0
LTYPE
  2
HIDDEN
 70
64
  3
_ _ _ _ _ _ _
 72
65
 73
2
 40
0.08643937612618718
 49
0.05762625075079145
 49
-0.02881312537539573
  0
LTYPE
  2
PHANTOM
 70
64
  3
_____ _ _ _____ _ _ 
 72
65
 73
6
 40
0.5762625075079145
 49
0.2881312537539573
 49
-0.05762625075079145
 49
0.05762625075079145
 49
-0.05762625075079145
 49
0.05762625075079145
 49
-0.05762625075079145
  0
ENDTAB
  0
TABLE
  2
LAYER
 70
2
  0
LAYER
  2
0
 70
0
 62
7
  6
CONTINUOUS
  0
ENDTAB
  0
TABLE
  2
STYLE
 70
4
  0
STYLE
  2
STANDARD
 70
0
 40
0
 41
1
 50
0
 71
0
 42
3.5
  3
txt
  4

  0
STYLE
  2
SIMPLEX
 70
0
 40
0
 41
1
 50
0
 71
0
 42
3.5
  3
simplex
  4

  0
STYLE
  2
COMPLEX
 70
0
 40
0
 41
1
 50
0
 71
0
 42
3.5
  3
complex
  4

  0
STYLE
  2
ITALIC
 70
0
 40
0
 41
1
 50
0
 71
0
 42
3.5
  3
italic
  4

  0
ENDTAB
  0
TABLE
  2
VIEW
 70
0
  0
ENDTAB
  0
ENDSEC
  0
SECTION
  2
BLOCKS
  0
BLOCK
  8
0
  2
*X0
 70
1
 10
0
 20
0
 30
0
  0
LINE
  8
0
 62
7
  6
DASHED
 10
0.5
 20
8.242819253992694
 30
0
 11
0.5571807460073046
 21
8.299999999999999
 31
0
  0
LINE
  8
0
 62
7
  6
DASHED
 10
0.5693127803632705
 20
8.1
 30
0
 11
0.7400000000000015
 21
8.270687219636731
 31
0
  0
LINE
  8
0
 62
7
 10
0.5000000000000009
 20
8.136753236814712
 30
0
 11
0.6632467631852874
 21
8.299999999999999
 31
0
  0
LINE
  8
0
 62
7
 10
0.6753787975412524
 20
8.1
 30
0
 11
0.7400000000000007
 21
8.164621202458749
 31
0
  0
ENDBLK
  8
0
  0
BLOCK
  8
0
  2
*X1
 70
1
 10
0
 20
0
 30
0
  0
LINE
  8
0
 62
7
  6
DASHED
 10
0.4999999999999991
 20
11.00053570062023
 30
0
 11
0.5494642993797729
 21
11.05
 31
0
  0
LINE
  8
0
 62
7
  6
DASHED
 10
0.5615963337357357
 20
10.85
 30
0
 11
0.7399999999999993
 21
11.02840366626426
 31
0
  0
LINE
  8
0
 62
7
 10
0.5000000000000009
 20
10.89446968344225
 30
0
 11
0.655530316557754
 21
11.05
 31
0
  0
LINE
  8
0
 62
7
 10
0.6676623509137176
 20
10.85
 30
0
 11
0.7400000000000002
 21
10.92233764908628
 31
0
  0
ENDBLK
  8
0
  0
BLOCK
  8
0
  2
*X2
 70
1
 10
0
 20
0
 30
0
  0
LINE
  8
0
 62
7
  6
DASHED
 10
2.389999999999997
 20
10.98134739141655
 30
0
 11
2.45865260858345
 21
11.05
 31
0
  0
LINE
  8
0
 62
7
  6
DASHED
 10
2.470784642939413
 20
10.85
 30
0
 11
2.670784642939414
 21
11.05
 31
0
  0
LINE
  8
0
 62
7
  6
DASHED
 10
2.682916677295378
 20
10.85
 30
0
 11
2.69
 21
10.85708332270462
 31
0
  0
LINE
  8
0
 62
7
 10
2.389999999999999
 20
10.87528137423857
 30
0
 11
2.564718625761434
 21
11.05
 31
0
  0
LINE
  8
0
 62
7
 10
2.576850660117396
 20
10.85
 30
0
 11
2.689999999999999
 21
10.9631493398826
 31
0
  0
ENDBLK
  8
0
  0
BLOCK
  8
0
  2
*X3
 70
1
 10
0
 20
0
 30
0
  0
LINE
  8
0
 62
7
  6
DASHED
 10
2.39
 20
8.223630944789015
 30
0
 11
2.466369055210984
 21
8.299999999999999
 31
0
  0
LINE
  8
0
 62
7
  6
DASHED
 10
2.478501089566949
 20
8.1
 30
0
 11
2.678501089566948
 21
8.299999999999999
 31
0
  0
LINE
  8
0
 62
7
 10
2.389999999999999
 20
8.117564927611033
 30
0
 11
2.572435072388966
 21
8.299999999999999
 31
0
  0
LINE
  8
0
 62
7
 10
2.584567106744931
 20
8.1
 30
0
 11
2.69
 21
8.205432893255068
 31
0
  0
ENDBLK
  8
0
  0
BLOCK
  8
0
  2
*X4
 70
1
 10
0
 20
0
 30
0
  0
LINE
  8
0
 62
7
 10
0.549464299379772
 20
11.05
 30
0
 11
0.6994642993797706
 21
11.2
 31
0
  0
LINE
  8
0
 62
7
 10
0.5
 20
11.10660171779821
 30
0
 11
0.5933982822017896
 21
11.2
 31
0
  0
LINE
  8
0
 62
7
 10
0.655530316557754
 20
11.05
 30
0
 11
0.7400000000000002
 21
11.13446968344225
 31
0
  0
ENDBLK
  8
0
  0
BLOCK
  8
0
  2
*X5
 70
1
 10
0
 20
0
 30
0
  0
LINE
  8
0
 62
7
 10
0.5000000000000004
 20
10.78840366626426
 30
0
 11
0.5615963337357339
 21
10.85
 31
0
  0
LINE
  8
0
 62
7
 10
0.5000000000000004
 20
10.5762716319083
 30
0
 11
0.7400000000000002
 21
10.8162716319083
 31
0
  0
LINE
  8
0
 62
7
 10
0.5000000000000004
 20
10.36413959755233
 30
0
 11
0.7400000000000002
 21
10.60413959755233
 31
0
  0
LINE
  8
0
 62
7
 10
0.5000000000000004
 20
10.15200756319637
 30
0
 11
0.7400000000000002
 21
10.39200756319637
 31
0
  0
LINE
  8
0
 62
7
 10
0.5000000000000004
 20
9.939875528840407
 30
0
 11
0.7400000000000002
 21
10.17987552884041
 31
0
  0
LINE
  8
0
 62
7
 10
0.5000000000000004
 20
9.727743494484443
 30
0
 11
0.7400000000000002
 21
9.967743494484441
 31
0
  0
LINE
  8
0
 62
7
 10
0.5000000000000004
 20
9.515611460128479
 30
0
 11
0.7400000000000002
 21
9.755611460128478
 31
0
  0
LINE
  8
0
 62
7
 10
0.5000000000000004
 20
9.303479425772515
 30
0
 11
0.7400000000000002
 21
9.543479425772514
 31
0
  0
LINE
  8
0
 62
7
 10
0.5000000000000004
 20
9.091347391416551
 30
0
 11
0.7400000000000002
 21
9.33134739141655
 31
0
  0
LINE
  8
0
 62
7
 10
0.5000000000000004
 20
8.879215357060588
 30
0
 11
0.7400000000000002
 21
9.119215357060586
 31
0
  0
LINE
  8
0
 62
7
 10
0.5000000000000004
 20
8.667083322704624
 30
0
 11
0.7400000000000002
 21
8.907083322704622
 31
0
  0
LINE
  8
0
 62
7
 10
0.5000000000000004
 20
8.45495128834866
 30
0
 11
0.7400000000000002
 21
8.694951288348658
 31
0
  0
LINE
  8
0
 62
7
 10
0.5571807460073046
 20
8.299999999999999
 30
0
 11
0.7400000000000002
 21
8.482819253992695
 31
0
  0
LINE
  8
0
 62
7
 10
0.5
 20
10.68233764908628
 30
0
 11
0.6676623509137176
 21
10.85
 31
0
  0
LINE
  8
0
 62
7
 10
0.5
 20
10.47020561473031
 30
0
 11
0.7399999999999998
 21
10.71020561473031
 31
0
  0
LINE
  8
0
 62
7
 10
0.5
 20
10.25807358037435
 30
0
 11
0.7399999999999998
 21
10.49807358037435
 31
0
  0
LINE
  8
0
 62
7
 10
0.5
 20
10.04594154601839
 30
0
 11
0.7399999999999998
 21
10.28594154601839
 31
0
  0
LINE
  8
0
 62
7
 10
0.5
 20
9.833809511662423
 30
0
 11
0.7399999999999998
 21
10.07380951166242
 31
0
  0
LINE
  8
0
 62
7
 10
0.5
 20
9.621677477306459
 30
0
 11
0.7399999999999998
 21
9.861677477306458
 31
0
  0
LINE
  8
0
 62
7
 10
0.5
 20
9.409545442950495
 30
0
 11
0.7399999999999998
 21
9.649545442950494
 31
0
  0
LINE
  8
0
 62
7
 10
0.5
 20
9.197413408594532
 30
0
 11
0.7399999999999998
 21
9.43741340859453
 31
0
  0
LINE
  8
0
 62
7
 10
0.5
 20
8.985281374238568
 30
0
 11
0.7399999999999998
 21
9.225281374238566
 31
0
  0
LINE
  8
0
 62
7
 10
0.5
 20
8.773149339882604
 30
0
 11
0.7399999999999998
 21
9.013149339882602
 31
0
  0
LINE
  8
0
 62
7
 10
0.5
 20
8.56101730552664
 30
0
 11
0.7399999999999998
 21
8.801017305526639
 31
0
  0
LINE
  8
0
 62
7
 10
0.5
 20
8.348885271170676
 30
0
 11
0.7399999999999998
 21
8.588885271170675
 31
0
  0
LINE
  8
0
 62
7
 10
0.6632467631852879
 20
8.299999999999999
 30
0
 11
0.7399999999999998
 21
8.376753236814711
 31
0
  0
ENDBLK
  8
0
  0
BLOCK
  8
0
  2
*X6
 70
1
 10
0
 20
0
 30
0
  0
LINE
  8
0
 62
7
 10
0.5
 20
8.03068721963673
 30
0
 11
0.5693127803632692
 21
8.1
 31
0
  0
LINE
  8
0
 62
7
 10
0.6314448147192331
 20
7.949999999999999
 30
0
 11
0.7399999999999998
 21
8.058555185280767
 31
0
  0
LINE
  8
0
 62
7
 10
0.5253787975412521
 20
7.949999999999999
 30
0
 11
0.6753787975412524
 21
8.1
 31
0
  0
LINE
  8
0
 62
7
 10
0.7375108318972163
 20
7.949999999999999
 30
0
 11
0.7400000000000002
 21
7.952489168102783
 31
0
  0
ENDBLK
  8
0
  0
BLOCK
  8
0
  2
*X7
 70
1
 10
0
 20
0
 30
0
  0
LINE
  8
0
 62
7
  6
DASHED
 10
5.089999999999997
 20
10.92363094478901
 30
0
 11
5.216369055210991
 21
11.05
 31
0
  0
LINE
  8
0
 62
7
  6
DASHED
 10
5.228501089566954
 20
10.85
 30
0
 11
5.428501089566955
 21
11.05
 31
0
  0
LINE
  8
0
 62
7
  6
DASHED
 10
5.440633123922918
 20
10.85
 30
0
 11
5.640633123922918
 21
11.05
 31
0
  0
LINE
  8
0
 62
7
  6
DASHED
 10
5.652765158278882
 20
10.85
 30
0
 11
5.852765158278882
 21
11.05
 31
0
  0
LINE
  8
0
 62
7
  6
DASHED
 10
5.864897192634846
 20
10.85
 30
0
 11
6.064897192634846
 21
11.05
 31
0
  0
LINE
  8
0
 62
7
  6
DASHED
 10
6.07702922699081
 20
10.85
 30
0
 11
6.27702922699081
 21
11.05
 31
0
  0
LINE
  8
0
 62
7
  6
DASHED
 10
6.289161261346774
 20
10.85
 30
0
 11
6.489161261346774
 21
11.05
 31
0
  0
LINE
  8
0
 62
7
  6
DASHED
 10
6.501293295702737
 20
10.85
 30
0
 11
6.701293295702738
 21
11.05
 31
0
  0
LINE
  8
0
 62
7
  6
DASHED
 10
6.713425330058701
 20
10.85
 30
0
 11
6.913425330058701
 21
11.05
 31
0
  0
LINE
  8
0
 62
7
  6
DASHED
 10
6.925557364414665
 20
10.85
 30
0
 11
7.125557364414665
 21
11.05
 31
0
  0
LINE
  8
0
 62
7
  6
DASHED
 10
7.137689398770629
 20
10.85
 30
0
 11
7.337689398770629
 21
11.05
 31
0
  0
LINE
  8
0
 62
7
  6
DASHED
 10
7.349821433126593
 20
10.85
 30
0
 11
7.549821433126593
 21
11.05
 31
0
  0
LINE
  8
0
 62
7
  6
DASHED
 10
7.561953467482557
 20
10.85
 30
0
 11
7.75
 21
11.03804653251744
 31
0
  0
LINE
  8
0
 62
7
 10
5.089999999999998
 20
11.02969696196699
 30
0
 11
5.110303038033008
 21
11.05
 31
0
  0
LINE
  8
0
 62
7
 10
5.122435072388972
 20
10.85
 30
0
 11
5.322435072388972
 21
11.05
 31
0
  0
LINE
  8
0
 62
7
 10
5.334567106744935
 20
10.85
 30
0
 11
5.534567106744936
 21
11.05
 31
0
  0
LINE
  8
0
 62
7
 10
5.546699141100899
 20
10.85
 30
0
 11
5.746699141100899
 21
11.05
 31
0
  0
LINE
  8
0
 62
7
 10
5.758831175456863
 20
10.85
 30
0
 11
5.958831175456863
 21
11.05
 31
0
  0
LINE
  8
0
 62
7
 10
5.970963209812827
 20
10.85
 30
0
 11
6.170963209812827
 21
11.05
 31
0
  0
LINE
  8
0
 62
7
 10
6.183095244168791
 20
10.85
 30
0
 11
6.383095244168791
 21
11.05
 31
0
  0
LINE
  8
0
 62
7
 10
6.395227278524755
 20
10.85
 30
0
 11
6.595227278524755
 21
11.05
 31
0
  0
LINE
  8
0
 62
7
 10
6.607359312880718
 20
10.85
 30
0
 11
6.807359312880719
 21
11.05
 31
0
  0
LINE
  8
0
 62
7
 10
6.819491347236682
 20
10.85
 30
0
 11
7.019491347236682
 21
11.05
 31
0
  0
LINE
  8
0
 62
7
 10
7.031623381592646
 20
10.85
 30
0
 11
7.231623381592646
 21
11.05
 31
0
  0
LINE
  8
0
 62
7
 10
7.24375541594861
 20
10.85
 30
0
 11
7.44375541594861
 21
11.05
 31
0
  0
LINE
  8
0
 62
7
 10
7.455887450304574
 20
10.85
 30
0
 11
7.655887450304574
 21
11.05
 31
0
  0
LINE
  8
0
 62
7
 10
7.668019484660538
 20
10.85
 30
0
 11
7.749999999999999
 21
10.93198051533946
 31
0
  0
ENDBLK
  8
0
  0
BLOCK
  8
0
  2
*X8
 70
1
 10
0
 20
0
 30
0
  0
LINE
  8
0
 62
7
  6
DASHED
 10
5.090000000000001
 20
8.165914498161481
 30
0
 11
5.224085501838523
 21
8.299999999999999
 31
0
  0
LINE
  8
0
 62
7
  6
DASHED
 10
5.236217536194488
 20
8.1
 30
0
 11
5.436217536194487
 21
8.299999999999999
 31
0
  0
LINE
  8
0
 62
7
  6
DASHED
 10
5.448349570550452
 20
8.1
 30
0
 11
5.648349570550451
 21
8.299999999999999
 31
0
  0
LINE
  8
0
 62
7
  6
DASHED
 10
5.660481604906415
 20
8.1
 30
0
 11
5.860481604906415
 21
8.299999999999999
 31
0
  0
LINE
  8
0
 62
7
  6
DASHED
 10
5.872613639262379
 20
8.1
 30
0
 11
6.072613639262379
 21
8.299999999999999
 31
0
  0
LINE
  8
0
 62
7
  6
DASHED
 10
6.084745673618343
 20
8.1
 30
0
 11
6.284745673618342
 21
8.299999999999999
 31
0
  0
LINE
  8
0
 62
7
  6
DASHED
 10
6.296877707974307
 20
8.1
 30
0
 11
6.496877707974306
 21
8.299999999999999
 31
0
  0
LINE
  8
0
 62
7
  6
DASHED
 10
6.509009742330271
 20
8.1
 30
0
 11
6.70900974233027
 21
8.299999999999999
 31
0
  0
LINE
  8
0
 62
7
  6
DASHED
 10
6.721141776686235
 20
8.1
 30
0
 11
6.921141776686234
 21
8.299999999999999
 31
0
  0
LINE
  8
0
 62
7
  6
DASHED
 10
6.933273811042199
 20
8.1
 30
0
 11
7.133273811042198
 21
8.299999999999999
 31
0
  0
LINE
  8
0
 62
7
  6
DASHED
 10
7.145405845398162
 20
8.1
 30
0
 11
7.345405845398162
 21
8.299999999999999
 31
0
  0
LINE
  8
0
 62
7
  6
DASHED
 10
7.357537879754126
 20
8.1
 30
0
 11
7.557537879754125
 21
8.299999999999999
 31
0
  0
LINE
  8
0
 62
7
  6
DASHED
 10
7.56966991411009
 20
8.1
 30
0
 11
7.75
 21
8.28033008588991
 31
0
  0
LINE
  8
0
 62
7
 10
5.09
 20
8.271980515339463
 30
0
 11
5.11801948466054
 21
8.299999999999999
 31
0
  0
LINE
  8
0
 62
7
 10
5.130151519016508
 20
8.1
 30
0
 11
5.330151519016504
 21
8.299999999999999
 31
0
  0
LINE
  8
0
 62
7
 10
5.342283553372472
 20
8.1
 30
0
 11
5.542283553372468
 21
8.299999999999999
 31
0
  0
LINE
  8
0
 62
7
 10
5.554415587728435
 20
8.1
 30
0
 11
5.754415587728432
 21
8.299999999999999
 31
0
  0
LINE
  8
0
 62
7
 10
5.766547622084399
 20
8.1
 30
0
 11
5.966547622084396
 21
8.299999999999999
 31
0
  0
LINE
  8
0
 62
7
 10
5.978679656440363
 20
8.1
 30
0
 11
6.17867965644036
 21
8.299999999999999
 31
0
  0
LINE
  8
0
 62
7
 10
6.190811690796327
 20
8.1
 30
0
 11
6.390811690796323
 21
8.299999999999999
 31
0
  0
LINE
  8
0
 62
7
 10
6.402943725152291
 20
8.1
 30
0
 11
6.602943725152287
 21
8.299999999999999
 31
0
  0
LINE
  8
0
 62
7
 10
6.615075759508255
 20
8.1
 30
0
 11
6.815075759508251
 21
8.299999999999999
 31
0
  0
LINE
  8
0
 62
7
 10
6.827207793864218
 20
8.1
 30
0
 11
7.027207793864215
 21
8.299999999999999
 31
0
  0
LINE
  8
0
 62
7
 10
7.039339828220182
 20
8.1
 30
0
 11
7.239339828220179
 21
8.299999999999999
 31
0
  0
LINE
  8
0
 62
7
 10
7.251471862576146
 20
8.1
 30
0
 11
7.451471862576143
 21
8.299999999999999
 31
0
  0
LINE
  8
0
 62
7
 10
7.46360389693211
 20
8.1
 30
0
 11
7.663603896932107
 21
8.299999999999999
 31
0
  0
LINE
  8
0
 62
7
 10
7.675735931288074
 20
8.1
 30
0
 11
7.75
 21
8.174264068711928
 31
0
  0
ENDBLK
  8
0
  0
BLOCK
  8
0
  2
*X9
 70
1
 10
0
 20
0
 30
0
  0
LINE
  8
0
 62
7
 10
5.239999999999998
 20
11.07363094478901
 30
0
 11
5.366369055210984
 21
11.2
 31
0
  0
LINE
  8
0
 62
7
 10
5.24
 20
11.179696961967
 30
0
 11
5.260303038033001
 21
11.2
 31
0
  0
LINE
  8
0
 62
7
 10
5.322435072388968
 20
11.05
 30
0
 11
5.414999999999999
 21
11.14256492761103
 31
0
  0
ENDBLK
  8
0
  0
BLOCK
  8
0
  2
*X10
 70
1
 10
0
 20
0
 30
0
  0
LINE
  8
0
 62
7
 10
5.24
 20
10.64936687607708
 30
0
 11
5.415
 21
10.82436687607708
 31
0
  0
LINE
  8
0
 62
7
 10
5.24
 20
10.43723484172112
 30
0
 11
5.415
 21
10.61223484172112
 31
0
  0
LINE
  8
0
 62
7
 10
5.24
 20
10.22510280736516
 30
0
 11
5.415
 21
10.40010280736515
 31
0
  0
LINE
  8
0
 62
7
 10
5.24
 20
10.01297077300919
 30
0
 11
5.415
 21
10.18797077300919
 31
0
  0
LINE
  8
0
 62
7
 10
5.24
 20
9.800838738653228
 30
0
 11
5.415
 21
9.975838738653227
 31
0
  0
LINE
  8
0
 62
7
 10
5.24
 20
9.588706704297264
 30
0
 11
5.415
 21
9.763706704297263
 31
0
  0
LINE
  8
0
 62
7
 10
5.24
 20
9.3765746699413
 30
0
 11
5.415
 21
9.551574669941299
 31
0
  0
LINE
  8
0
 62
7
 10
5.24
 20
9.164442635585337
 30
0
 11
5.415
 21
9.339442635585335
 31
0
  0
LINE
  8
0
 62
7
 10
5.24
 20
8.952310601229373
 30
0
 11
5.415
 21
9.127310601229372
 31
0
  0
LINE
  8
0
 62
7
 10
5.24
 20
8.740178566873409
 30
0
 11
5.415
 21
8.915178566873408
 31
0
  0
LINE
  8
0
 62
7
 10
5.24
 20
8.528046532517445
 30
0
 11
5.415
 21
8.703046532517444
 31
0
  0
LINE
  8
0
 62
7
 10
5.24
 20
8.315914498161481
 30
0
 11
5.415
 21
8.49091449816148
 31
0
  0
LINE
  8
0
 62
7
 10
5.239999999999998
 20
10.75543289325506
 30
0
 11
5.334567106744931
 21
10.85
 31
0
  0
LINE
  8
0
 62
7
 10
5.239999999999998
 20
10.5433008588991
 30
0
 11
5.414999999999999
 21
10.7183008588991
 31
0
  0
LINE
  8
0
 62
7
 10
5.239999999999998
 20
10.33116882454314
 30
0
 11
5.414999999999999
 21
10.50616882454313
 31
0
  0
LINE
  8
0
 62
7
 10
5.239999999999998
 20
10.11903679018717
 30
0
 11
5.414999999999999
 21
10.29403679018717
 31
0
  0
LINE
  8
0
 62
7
 10
5.239999999999998
 20
9.906904755831208
 30
0
 11
5.414999999999999
 21
10.08190475583121
 31
0
  0
LINE
  8
0
 62
7
 10
5.239999999999998
 20
9.694772721475244
 30
0
 11
5.414999999999999
 21
9.869772721475243
 31
0
  0
LINE
  8
0
 62
7
 10
5.239999999999998
 20
9.482640687119281
 30
0
 11
5.414999999999999
 21
9.657640687119279
 31
0
  0
LINE
  8
0
 62
7
 10
5.239999999999998
 20
9.270508652763317
 30
0
 11
5.414999999999999
 21
9.445508652763316
 31
0
  0
LINE
  8
0
 62
7
 10
5.239999999999998
 20
9.058376618407353
 30
0
 11
5.414999999999999
 21
9.233376618407352
 31
0
  0
LINE
  8
0
 62
7
 10
5.239999999999998
 20
8.846244584051389
 30
0
 11
5.414999999999999
 21
9.021244584051388
 31
0
  0
LINE
  8
0
 62
7
 10
5.239999999999998
 20
8.634112549695425
 30
0
 11
5.414999999999999
 21
8.809112549695424
 31
0
  0
LINE
  8
0
 62
7
 10
5.239999999999998
 20
8.421980515339461
 30
0
 11
5.414999999999999
 21
8.59698051533946
 31
0
  0
LINE
  8
0
 62
7
 10
5.330151519016502
 20
8.299999999999999
 30
0
 11
5.414999999999999
 21
8.384848480983496
 31
0
  0
ENDBLK
  8
0
  0
BLOCK
  8
0
  2
*X11
 70
1
 10
0
 20
0
 30
0
  0
LINE
  8
0
 62
7
 10
5.298349570550447
 20
7.949999999999999
 30
0
 11
5.415
 21
8.066650429449552
 31
0
  0
LINE
  8
0
 62
7
 10
5.239999999999998
 20
7.997716446627533
 30
0
 11
5.342283553372466
 21
8.100000000000001
 31
0
  0
LINE
  8
0
 62
7
 10
5.404415587728428
 20
7.949999999999998
 30
0
 11
5.414999999999998
 21
7.960584412271568
 31
0
  0
ENDBLK
  8
0
  0
BLOCK
  8
0
  2
*X12
 70
1
 10
0
 20
0
 30
0
  0
LINE
  8
0
 62
7
 10
7.425000000000002
 20
11.13731060122938
 30
0
 11
7.487689398770626
 21
11.2
 31
0
  0
LINE
  8
0
 62
7
 10
7.549821433126593
 20
11.05
 30
0
 11
7.600000000000002
 21
11.10017856687341
 31
0
  0
LINE
  8
0
 62
7
 10
7.44375541594861
 20
11.05
 30
0
 11
7.593755415948609
 21
11.2
 31
0
  0
ENDBLK
  8
0
  0
BLOCK
  8
0
  2
*X13
 70
1
 10
0
 20
0
 30
0
  0
LINE
  8
0
 62
7
 10
7.425
 20
10.71304653251744
 30
0
 11
7.561953467482555
 21
10.85
 31
0
  0
LINE
  8
0
 62
7
 10
7.425
 20
10.50091449816148
 30
0
 11
7.600000000000002
 21
10.67591449816148
 31
0
  0
LINE
  8
0
 62
7
 10
7.425
 20
10.28878246380551
 30
0
 11
7.600000000000002
 21
10.46378246380551
 31
0
  0
LINE
  8
0
 62
7
 10
7.425
 20
10.07665042944955
 30
0
 11
7.600000000000002
 21
10.25165042944955
 31
0
  0
LINE
  8
0
 62
7
 10
7.425
 20
9.864518395093585
 30
0
 11
7.600000000000002
 21
10.03951839509359
 31
0
  0
LINE
  8
0
 62
7
 10
7.425
 20
9.652386360737621
 30
0
 11
7.600000000000002
 21
9.827386360737622
 31
0
  0
LINE
  8
0
 62
7
 10
7.425
 20
9.440254326381657
 30
0
 11
7.600000000000002
 21
9.615254326381658
 31
0
  0
LINE
  8
0
 62
7
 10
7.425
 20
9.228122292025693
 30
0
 11
7.600000000000002
 21
9.403122292025694
 31
0
  0
LINE
  8
0
 62
7
 10
7.425
 20
9.01599025766973
 30
0
 11
7.600000000000002
 21
9.19099025766973
 31
0
  0
LINE
  8
0
 62
7
 10
7.425
 20
8.803858223313766
 30
0
 11
7.600000000000002
 21
8.978858223313766
 31
0
  0
LINE
  8
0
 62
7
 10
7.425
 20
8.591726188957802
 30
0
 11
7.600000000000002
 21
8.766726188957803
 31
0
  0
LINE
  8
0
 62
7
 10
7.425
 20
8.379594154601838
 30
0
 11
7.600000000000002
 21
8.554594154601839
 31
0
  0
LINE
  8
0
 62
7
 10
7.557537879754125
 20
8.299999999999999
 30
0
 11
7.600000000000002
 21
8.342462120245875
 31
0
  0
LINE
  8
0
 62
7
 10
7.425
 20
10.81911254969542
 30
0
 11
7.455887450304573
 21
10.85
 31
0
  0
LINE
  8
0
 62
7
 10
7.425
 20
10.60698051533946
 30
0
 11
7.600000000000001
 21
10.78198051533946
 31
0
  0
LINE
  8
0
 62
7
 10
7.425
 20
10.39484848098349
 30
0
 11
7.600000000000001
 21
10.56984848098349
 31
0
  0
LINE
  8
0
 62
7
 10
7.425
 20
10.18271644662753
 30
0
 11
7.600000000000001
 21
10.35771644662753
 31
0
  0
LINE
  8
0
 62
7
 10
7.425
 20
9.970584412271567
 30
0
 11
7.600000000000001
 21
10.14558441227157
 31
0
  0
LINE
  8
0
 62
7
 10
7.425
 20
9.758452377915603
 30
0
 11
7.600000000000001
 21
9.933452377915602
 31
0
  0
LINE
  8
0
 62
7
 10
7.425
 20
9.546320343559639
 30
0
 11
7.600000000000001
 21
9.721320343559638
 31
0
  0
LINE
  8
0
 62
7
 10
7.425
 20
9.334188309203675
 30
0
 11
7.600000000000001
 21
9.509188309203674
 31
0
  0
LINE
  8
0
 62
7
 10
7.425
 20
9.122056274847711
 30
0
 11
7.600000000000001
 21
9.29705627484771
 31
0
  0
LINE
  8
0
 62
7
 10
7.425
 20
8.909924240491748
 30
0
 11
7.600000000000001
 21
9.084924240491747
 31
0
  0
LINE
  8
0
 62
7
 10
7.425
 20
8.697792206135784
 30
0
 11
7.600000000000001
 21
8.872792206135783
 31
0
  0
LINE
  8
0
 62
7
 10
7.425
 20
8.48566017177982
 30
0
 11
7.600000000000001
 21
8.660660171779819
 31
0
  0
LINE
  8
0
 62
7
 10
7.451471862576144
 20
8.299999999999999
 30
0
 11
7.600000000000001
 21
8.448528137423855
 31
0
  0
ENDBLK
  8
0
  0
BLOCK
  8
0
  2
*X14
 70
1
 10
0
 20
0
 30
0
  0
LINE
  8
0
 62
7
 10
7.425000000000001
 20
7.955330085889911
 30
0
 11
7.56966991411009
 21
8.1
 31
0
  0
LINE
  8
0
 62
7
 10
7.425
 20
8.061396103067892
 30
0
 11
7.463603896932107
 21
8.099999999999998
 31
0
  0
LINE
  8
0
 62
7
 10
7.525735931288073
 20
7.95
 30
0
 11
7.600000000000001
 21
8.024264068711927
 31
0
  0
ENDBLK
  8
0
  0
BLOCK
  8
0
  2
*X15
 70
1
 10
0
 20
0
 30
0
  0
LINE
  8
0
 62
7
 10
5.239999999999999
 20
5.558198051533946
 30
0
 11
5.341801948466053
 21
5.66
 31
0
  0
LINE
  8
0
 62
7
 10
5.09
 20
5.408198051533947
 30
0
 11
5.191801948466053
 21
5.51
 31
0
  0
LINE
  8
0
 62
7
 10
5.163933982822026
 20
5.270000000000003
 30
0
 11
5.414999999999999
 21
5.521066017177981
 31
0
  0
LINE
  8
0
 62
7
 10
5.376066017177989
 20
5.270000000000003
 30
0
 11
5.616066017177986
 21
5.51
 31
0
  0
LINE
  8
0
 62
7
 10
5.588198051533953
 20
5.270000000000003
 30
0
 11
5.82819805153395
 21
5.51
 31
0
  0
LINE
  8
0
 62
7
 10
5.800330085889917
 20
5.270000000000003
 30
0
 11
6.040330085889914
 21
5.51
 31
0
  0
LINE
  8
0
 62
7
 10
6.012462120245881
 20
5.270000000000003
 30
0
 11
6.252462120245878
 21
5.51
 31
0
  0
LINE
  8
0
 62
7
 10
6.224594154601845
 20
5.270000000000003
 30
0
 11
6.464594154601842
 21
5.51
 31
0
  0
LINE
  8
0
 62
7
 10
6.436726188957809
 20
5.270000000000003
 30
0
 11
6.676726188957805
 21
5.51
 31
0
  0
LINE
  8
0
 62
7
 10
6.648858223313773
 20
5.270000000000003
 30
0
 11
6.888858223313769
 21
5.51
 31
0
  0
LINE
  8
0
 62
7
 10
6.860990257669736
 20
5.270000000000003
 30
0
 11
7.100990257669733
 21
5.51
 31
0
  0
LINE
  8
0
 62
7
 10
7.425000000000001
 20
5.621877707974304
 30
0
 11
7.463122292025698
 21
5.660000000000001
 31
0
  0
LINE
  8
0
 62
7
 10
7.0731222920257
 20
5.270000000000003
 30
0
 11
7.313122292025697
 21
5.51
 31
0
  0
LINE
  8
0
 62
7
 10
7.285254326381664
 20
5.270000000000003
 30
0
 11
7.600000000000001
 21
5.58474567361834
 31
0
  0
LINE
  8
0
 62
7
 10
7.497386360737628
 20
5.270000000000003
 30
0
 11
7.737386360737625
 21
5.51
 31
0
  0
LINE
  8
0
 62
7
 10
7.709518395093592
 20
5.270000000000003
 30
0
 11
7.765000000000001
 21
5.325481604906413
 31
0
  0
LINE
  8
0
 62
7
 10
5.09
 20
5.302132034355964
 30
0
 11
5.414999999999999
 21
5.627132034355963
 31
0
  0
LINE
  8
0
 62
7
 10
5.270000000000005
 20
5.27
 30
0
 11
5.510000000000004
 21
5.51
 31
0
  0
LINE
  8
0
 62
7
 10
5.482132034355969
 20
5.27
 30
0
 11
5.722132034355968
 21
5.51
 31
0
  0
LINE
  8
0
 62
7
 10
5.694264068711933
 20
5.27
 30
0
 11
5.934264068711932
 21
5.51
 31
0
  0
LINE
  8
0
 62
7
 10
5.906396103067896
 20
5.27
 30
0
 11
6.146396103067896
 21
5.51
 31
0
  0
LINE
  8
0
 62
7
 10
6.11852813742386
 20
5.27
 30
0
 11
6.35852813742386
 21
5.51
 31
0
  0
LINE
  8
0
 62
7
 10
6.330660171779824
 20
5.27
 30
0
 11
6.570660171779823
 21
5.51
 31
0
  0
LINE
  8
0
 62
7
 10
6.542792206135788
 20
5.27
 30
0
 11
6.782792206135787
 21
5.51
 31
0
  0
LINE
  8
0
 62
7
 10
6.754924240491752
 20
5.27
 30
0
 11
6.994924240491751
 21
5.51
 31
0
  0
LINE
  8
0
 62
7
 10
6.967056274847716
 20
5.27
 30
0
 11
7.207056274847715
 21
5.51
 31
0
  0
LINE
  8
0
 62
7
 10
7.425000000000001
 20
5.515811690796322
 30
0
 11
7.569188309203678
 21
5.659999999999999
 31
0
  0
LINE
  8
0
 62
7
 10
7.179188309203679
 20
5.27
 30
0
 11
7.419188309203679
 21
5.51
 31
0
  0
LINE
  8
0
 62
7
 10
7.391320343559643
 20
5.27
 30
0
 11
7.631320343559642
 21
5.509999999999999
 31
0
  0
LINE
  8
0
 62
7
 10
7.603452377915607
 20
5.27
 30
0
 11
7.765000000000001
 21
5.431547622084393
 31
0
  0
ENDBLK
  8
0
  0
BLOCK
  8
0
  2
*X16
 70
1
 10
0
 20
0
 30
0
  0
LINE
  8
0
 62
7
 10
5.09
 20
5.196066017177982
 30
0
 11
5.123933982822024
 21
5.23
 31
0
  0
LINE
  8
0
 62
7
 10
5.096066017177985
 20
4.990000000000002
 30
0
 11
5.336066017177988
 21
5.23
 31
0
  0
LINE
  8
0
 62
7
 10
5.239999999999998
 20
4.92180194846605
 30
0
 11
5.548198051533952
 21
5.23
 31
0
  0
LINE
  8
0
 62
7
 10
5.520330085889916
 20
4.990000000000002
 30
0
 11
5.760330085889915
 21
5.23
 31
0
  0
LINE
  8
0
 62
7
 10
5.239999999999998
 20
4.709669914110086
 30
0
 11
5.414999999999999
 21
4.884669914110086
 31
0
  0
LINE
  8
0
 62
7
 10
5.73246212024588
 20
4.990000000000002
 30
0
 11
5.972462120245879
 21
5.23
 31
0
  0
LINE
  8
0
 62
7
 10
5.239999999999998
 20
4.497537879754122
 30
0
 11
5.414999999999999
 21
4.672537879754122
 31
0
  0
LINE
  8
0
 62
7
 10
5.944594154601844
 20
4.990000000000002
 30
0
 11
6.184594154601843
 21
5.23
 31
0
  0
LINE
  8
0
 62
7
 10
5.239999999999998
 20
4.285405845398158
 30
0
 11
5.414999999999999
 21
4.460405845398158
 31
0
  0
LINE
  8
0
 62
7
 10
6.156726188957808
 20
4.990000000000002
 30
0
 11
6.396726188957807
 21
5.23
 31
0
  0
LINE
  8
0
 62
7
 10
5.239999999999998
 20
4.073273811042195
 30
0
 11
5.414999999999999
 21
4.248273811042194
 31
0
  0
LINE
  8
0
 62
7
 10
6.368858223313771
 20
4.990000000000002
 30
0
 11
6.608858223313771
 21
5.23
 31
0
  0
LINE
  8
0
 62
7
 10
5.239999999999998
 20
3.861141776686231
 30
0
 11
5.414999999999999
 21
4.036141776686231
 31
0
  0
LINE
  8
0
 62
7
 10
6.580990257669735
 20
4.990000000000002
 30
0
 11
6.820990257669735
 21
5.23
 31
0
  0
LINE
  8
0
 62
7
 10
5.239999999999998
 20
3.649009742330267
 30
0
 11
5.414999999999999
 21
3.824009742330267
 31
0
  0
LINE
  8
0
 62
7
 10
6.793122292025699
 20
4.990000000000002
 30
0
 11
7.033122292025698
 21
5.23
 31
0
  0
LINE
  8
0
 62
7
 10
5.239999999999998
 20
3.436877707974302
 30
0
 11
5.414999999999999
 21
3.611877707974303
 31
0
  0
LINE
  8
0
 62
7
 10
7.005254326381663
 20
4.990000000000002
 30
0
 11
7.245254326381662
 21
5.23
 31
0
  0
LINE
  8
0
 62
7
 10
5.255254326381661
 20
3.24
 30
0
 11
5.414999999999999
 21
3.399745673618338
 31
0
  0
LINE
  8
0
 62
7
 10
7.217386360737627
 20
4.990000000000002
 30
0
 11
7.457386360737626
 21
5.23
 31
0
  0
LINE
  8
0
 62
7
 10
7.425000000000001
 20
4.985481604906409
 30
0
 11
7.66951839509359
 21
5.23
 31
0
  0
LINE
  8
0
 62
7
 10
7.641650429449557
 20
4.990000000000002
 30
0
 11
7.765000000000001
 21
5.113349570550446
 31
0
  0
LINE
  8
0
 62
7
 10
7.425000000000001
 20
4.773349570550446
 30
0
 11
7.600000000000002
 21
4.948349570550447
 31
0
  0
LINE
  8
0
 62
7
 10
7.425000000000001
 20
4.561217536194482
 30
0
 11
7.600000000000002
 21
4.736217536194483
 31
0
  0
LINE
  8
0
 62
7
 10
7.425000000000001
 20
4.349085501838518
 30
0
 11
7.600000000000002
 21
4.52408550183852
 31
0
  0
LINE
  8
0
 62
7
 10
7.425000000000001
 20
4.136953467482554
 30
0
 11
7.600000000000002
 21
4.311953467482556
 31
0
  0
LINE
  8
0
 62
7
 10
7.425000000000001
 20
3.92482143312659
 30
0
 11
7.600000000000002
 21
4.099821433126592
 31
0
  0
LINE
  8
0
 62
7
 10
7.425000000000001
 20
3.712689398770626
 30
0
 11
7.600000000000002
 21
3.887689398770628
 31
0
  0
LINE
  8
0
 62
7
 10
7.425000000000001
 20
3.500557364414662
 30
0
 11
7.600000000000002
 21
3.675557364414663
 31
0
  0
LINE
  8
0
 62
7
 10
7.476574669941305
 20
3.340000000000002
 30
0
 11
7.600000000000002
 21
3.463425330058699
 31
0
  0
LINE
  8
0
 62
7
 10
5.089999999999999
 20
5.089999999999999
 30
0
 11
5.230000000000008
 21
5.230000000000002
 31
0
  0
LINE
  8
0
 62
7
 10
5.202132034355968
 20
4.990000000000002
 30
0
 11
5.442132034355971
 21
5.230000000000002
 31
0
  0
LINE
  8
0
 62
7
 10
5.239999999999999
 20
4.815735931288069
 30
0
 11
5.654264068711935
 21
5.230000000000002
 31
0
  0
LINE
  8
0
 62
7
 10
5.626396103067899
 20
4.990000000000002
 30
0
 11
5.866396103067899
 21
5.230000000000002
 31
0
  0
LINE
  8
0
 62
7
 10
5.239999999999999
 20
4.603603896932105
 30
0
 11
5.414999999999999
 21
4.778603896932105
 31
0
  0
LINE
  8
0
 62
7
 10
5.838528137423863
 20
4.990000000000002
 30
0
 11
6.078528137423863
 21
5.230000000000002
 31
0
  0
LINE
  8
0
 62
7
 10
5.239999999999999
 20
4.391471862576141
 30
0
 11
5.414999999999999
 21
4.566471862576141
 31
0
  0
LINE
  8
0
 62
7
 10
6.050660171779827
 20
4.990000000000002
 30
0
 11
6.290660171779827
 21
5.230000000000002
 31
0
  0
LINE
  8
0
 62
7
 10
5.239999999999999
 20
4.179339828220177
 30
0
 11
5.414999999999999
 21
4.354339828220177
 31
0
  0
LINE
  8
0
 62
7
 10
6.26279220613579
 20
4.990000000000002
 30
0
 11
6.502792206135791
 21
5.230000000000002
 31
0
  0
LINE
  8
0
 62
7
 10
5.239999999999999
 20
3.967207793864213
 30
0
 11
5.414999999999999
 21
4.142207793864213
 31
0
  0
LINE
  8
0
 62
7
 10
6.474924240491754
 20
4.990000000000002
 30
0
 11
6.714924240491754
 21
5.230000000000002
 31
0
  0
LINE
  8
0
 62
7
 10
5.239999999999999
 20
3.755075759508249
 30
0
 11
5.414999999999999
 21
3.93007575950825
 31
0
  0
LINE
  8
0
 62
7
 10
6.687056274847718
 20
4.990000000000002
 30
0
 11
6.927056274847718
 21
5.230000000000002
 31
0
  0
LINE
  8
0
 62
7
 10
5.239999999999999
 20
3.542943725152285
 30
0
 11
5.414999999999999
 21
3.717943725152285
 31
0
  0
LINE
  8
0
 62
7
 10
6.899188309203682
 20
4.990000000000002
 30
0
 11
7.139188309203682
 21
5.230000000000002
 31
0
  0
LINE
  8
0
 62
7
 10
5.239999999999999
 20
3.33081169079632
 30
0
 11
5.414999999999999
 21
3.505811690796321
 31
0
  0
LINE
  8
0
 62
7
 10
7.111320343559646
 20
4.990000000000002
 30
0
 11
7.351320343559646
 21
5.230000000000002
 31
0
  0
LINE
  8
0
 62
7
 10
5.361320343559646
 20
3.240000000000002
 30
0
 11
5.415000000000001
 21
3.293679656440357
 31
0
  0
LINE
  8
0
 62
7
 10
7.32345237791561
 20
4.990000000000002
 30
0
 11
7.56345237791561
 21
5.230000000000002
 31
0
  0
LINE
  8
0
 62
7
 10
7.425000000000001
 20
4.879415587728427
 30
0
 11
7.765000000000001
 21
5.219415587728428
 31
0
  0
LINE
  8
0
 62
7
 10
7.747716446627538
 20
4.990000000000002
 30
0
 11
7.765000000000001
 21
5.007283553372464
 31
0
  0
LINE
  8
0
 62
7
 10
7.425000000000001
 20
4.667283553372463
 30
0
 11
7.600000000000001
 21
4.842283553372464
 31
0
  0
LINE
  8
0
 62
7
 10
7.425000000000001
 20
4.455151519016499
 30
0
 11
7.600000000000001
 21
4.630151519016501
 31
0
  0
LINE
  8
0
 62
7
 10
7.425000000000001
 20
4.243019484660535
 30
0
 11
7.600000000000001
 21
4.418019484660537
 31
0
  0
LINE
  8
0
 62
7
 10
7.425000000000001
 20
4.030887450304571
 30
0
 11
7.600000000000001
 21
4.205887450304573
 31
0
  0
LINE
  8
0
 62
7
 10
7.425000000000001
 20
3.818755415948607
 30
0
 11
7.600000000000001
 21
3.993755415948609
 31
0
  0
LINE
  8
0
 62
7
 10
7.425000000000001
 20
3.606623381592643
 30
0
 11
7.600000000000001
 21
3.781623381592645
 31
0
  0
LINE
  8
0
 62
7
 10
7.425000000000001
 20
3.394491347236678
 30
0
 11
7.600000000000001
 21
3.56949134723668
 31
0
  0
LINE
  8
0
 62
7
 10
7.582640687119287
 20
3.340000000000002
 30
0
 11
7.600000000000001
 21
3.357359312880716
 31
0
  0
ENDBLK
  8
0
  0
BLOCK
  8
0
  2
*D0
 70
1
 10
0
 20
0
 30
0
  0
LINE
  8
0
 62
7
 10
8.01091545733266
 20
4.586837755067281
 30
0
 11
8.01091545733266
 21
4.990000000000001
 31
0
  0
LINE
  8
0
 62
7
 10
8.01091545733266
 20
3.340000000000001
 30
0
 11
8.01091545733266
 21
3.84183775506728
 31
0
  0
LINE
  8
0
 62
7
 10
7.600000000000001
 20
4.990000000000001
 30
0
 11
8.06091545733266
 21
4.990000000000001
 31
0
  0
LINE
  8
0
 62
7
 10
7.600000000000001
 20
3.340000000000001
 30
0
 11
8.06091545733266
 21
3.340000000000001
 31
0
  0
LINE
  8
0
 62
7
 10
8.046270796391987
 20
4.954644660940674
 30
0
 11
7.975560118273332
 21
5.025355339059328
 31
0
  0
LINE
  8
0
 62
7
 10
7.975560118273332
 20
3.375355339059328
 30
0
 11
8.046270796391987
 21
3.304644660940674
 31
0
  0
TEXT
  8
0
 62
7
 10
8.055915457332659
 20
4.091837755067281
 30
0
 40
0.1
  1
1,65
 50
90
 41
0.9
  0
ENDBLK
  8
0
  0
BLOCK
  8
0
  2
*D1
 70
1
 10
0
 20
0
 30
0
  0
LINE
  8
0
 62
7
 10
6.8405678606711
 20
5.90871502640096
 30
0
 11
7.425000000000001
 21
5.90871502640096
 31
0
  0
LINE
  8
0
 62
7
 10
5.414999999999999
 20
5.90871502640096
 30
0
 11
6.0955678606711
 21
5.90871502640096
 31
0
  0
LINE
  8
0
 62
7
 10
7.425000000000001
 20
5.51
 30
0
 11
7.425000000000001
 21
5.958715026400959
 31
0
  0
LINE
  8
0
 62
7
 10
5.414999999999999
 20
5.51
 30
0
 11
5.414999999999999
 21
5.958715026400959
 31
0
  0
LINE
  8
0
 62
7
 10
5.450355339059326
 20
5.944070365460287
 30
0
 11
5.379644660940672
 21
5.873359687341632
 31
0
  0
LINE
  8
0
 62
7
 10
7.389644660940673
 20
5.873359687341632
 30
0
 11
7.460355339059328
 21
5.944070365460287
 31
0
  0
TEXT
  8
0
 62
7
 10
6.345567860671101
 20
5.86371502640096
 30
0
 40
0.1
  1
2,01
 41
0.9
  0
ENDBLK
  8
0
  0
BLOCK
  8
0
  2
*D2
 70
1
 10
0
 20
0
 30
0
  0
LINE
  8
0
 62
7
 10
4.87011856412877
 20
4.435308080395171
 30
0
 11
4.87011856412877
 21
4.990000000000002
 31
0
  0
LINE
  8
0
 62
7
 10
4.87011856412877
 20
3.24
 30
0
 11
4.87011856412877
 21
3.690308080395171
 31
0
  0
LINE
  8
0
 62
7
 10
5.239999999999999
 20
4.990000000000002
 30
0
 11
4.82011856412877
 21
4.990000000000002
 31
0
  0
LINE
  8
0
 62
7
 10
5.239999999999999
 20
3.24
 30
0
 11
4.82011856412877
 21
3.24
 31
0
  0
LINE
  8
0
 62
7
 10
4.834763225069443
 20
3.275355339059328
 30
0
 11
4.905473903188097
 21
3.204644660940673
 31
0
  0
LINE
  8
0
 62
7
 10
4.905473903188097
 20
4.954644660940675
 30
0
 11
4.834763225069443
 21
5.025355339059329
 31
0
  0
TEXT
  8
0
 62
7
 10
4.91511856412877
 20
3.940308080395171
 30
0
 40
0.1
  1
1,75
 50
90
 41
0.9
  0
ENDBLK
  8
0
  0
BLOCK
  8
0
  2
*D3
 70
1
 10
0
 20
0
 30
0
  0
LINE
  8
0
 62
7
 10
6.81811871061148
 20
11.5841901141203
 30
0
 11
7.425000000000001
 21
11.5841901141203
 31
0
  0
LINE
  8
0
 62
7
 10
5.415
 20
11.5841901141203
 30
0
 11
6.17311871061148
 21
11.5841901141203
 31
0
  0
LINE
  8
0
 62
7
 10
7.425000000000001
 20
11.2
 30
0
 11
7.425000000000001
 21
11.6341901141203
 31
0
  0
LINE
  8
0
 62
7
 10
5.415
 20
11.2
 30
0
 11
5.415
 21
11.6341901141203
 31
0
  0
LINE
  8
0
 62
7
 10
7.389644660940673
 20
11.54883477506097
 30
0
 11
7.460355339059328
 21
11.61954545317963
 31
0
  0
LINE
  8
0
 62
7
 10
5.450355339059327
 20
11.61954545317963
 30
0
 11
5.379644660940673
 21
11.54883477506097
 31
0
  0
TEXT
  8
0
 62
7
 10
6.373118710611481
 20
11.5391901141203
 30
0
 40
0.1
  1
2,01
 41
0.9
  0
ENDBLK
  8
0
  0
BLOCK
  8
0
  2
*D4
 70
1
 10
0
 20
0
 30
0
  0
LINE
  8
0
 62
7
 10
8.231322256855741
 20
10.33338486799525
 30
0
 11
8.231322256855741
 21
11.05
 31
0
  0
LINE
  8
0
 62
7
 10
8.231322256855741
 20
8.299999999999999
 30
0
 11
8.231322256855741
 21
9.25338486799525
 31
0
  0
LINE
  8
0
 62
7
 10
7.75
 20
11.05
 30
0
 11
8.281322256855741
 21
11.05
 31
0
  0
LINE
  8
0
 62
7
 10
7.75
 20
8.299999999999999
 30
0
 11
8.281322256855741
 21
8.299999999999999
 31
0
  0
LINE
  8
0
 62
7
 10
8.195966917796413
 20
8.335355339059326
 30
0
 11
8.266677595915068
 21
8.264644660940672
 31
0
  0
LINE
  8
0
 62
7
 10
8.266677595915068
 20
11.01464466094067
 30
0
 11
8.195966917796413
 21
11.08535533905933
 31
0
  0
TEXT
  8
0
 62
7
 10
8.201322256855741
 20
9.655884867995251
 30
0
 40
0.1
  1
2,75
 50
90
 41
0.9
  0
TEXT
  8
0
 62
7
 10
8.361322256855741
 20
9.453384867995251
 30
0
 40
0.1
  1
(260-280)
 50
90
 41
0.9
  0
ENDBLK
  8
0
  0
ENDSEC
  0
SECTION
  2
ENTITIES
  0
INSERT
  8
0
  2
*X0
 10
0
 20
0
 30
0
  0
INSERT
  8
0
  2
*X1
 10
0
 20
0
 30
0
  0
INSERT
  8
0
  2
*X2
 10
0
 20
0
 30
0
  0
INSERT
  8
0
  2
*X3
 10
0
 20
0
 30
0
  0
INSERT
  8
0
  2
*X4
 10
0
 20
0
 30
0
  0
INSERT
  8
0
  2
*X5
 10
0
 20
0
 30
0
  0
INSERT
  8
0
  2
*X6
 10
0
 20
0
 30
0
  0
INSERT
  8
0
  2
*X7
 10
0
 20
0
 30
0
  0
INSERT
  8
0
  2
*X8
 10
0
 20
0
 30
0
  0
INSERT
  8
0
  2
*X9
 10
0
 20
0
 30
0
  0
INSERT
  8
0
  2
*X10
 10
0
 20
0
 30
0
  0
INSERT
  8
0
  2
*X11
 10
0
 20
0
 30
0
  0
INSERT
  8
0
  2
*X12
 10
0
 20
0
 30
0
  0
INSERT
  8
0
  2
*X13
 10
0
 20
0
 30
0
  0
INSERT
  8
0
  2
*X14
 10
0
 20
0
 30
0
  0
INSERT
  8
0
  2
*X15
 10
0
 20
0
 30
0
  0
INSERT
  8
0
  2
*X16
 10
0
 20
0
 30
0
  0
LINE
  8
0
 62
7
 10
6.440633789333006
 20
4.045000000000001
 30
0
 11
6.485101837786565
 21
3.972570175046736
 31
0
  0
LINE
  8
0
 62
7
 10
6.397129446857567
 20
4.045000000000001
 30
0
 11
6.440633789333006
 21
4.045000000000001
 31
0
  0
LINE
  8
0
 62
7
 10
6.485101837786565
 20
3.972570175046736
 30
0
 11
6.48
 21
3.9603492641207
 31
0
  0
LINE
  8
0
 62
7
 10
6.428649661865342
 20
4.064519818946121
 30
0
 11
6.440633789333006
 21
4.045000000000001
 31
0
  0
LINE
  8
0
 62
7
 10
6.36
 20
4.011245957402209
 30
0
 11
6.397129446857567
 21
4.045000000000001
 31
0
  0
LINE
  8
0
 62
7
 10
6.36
 20
3.796585580625623
 30
0
 11
6.36
 21
3.91338419310777
 31
0
  0
LINE
  8
0
 62
7
 10
6.36
 20
3.796585580625623
 30
0
 11
6.36
 21
4.011245957402209
 31
0
  0
LINE
  8
0
 62
7
 10
5.469999999999999
 20
3.56
 30
0
 11
5.469999999999999
 21
3.24
 31
0
  0
LINE
  8
0
 62
7
 10
6.36
 20
3.24
 30
0
 11
6.36
 21
3.56
 31
0
  0
LINE
  8
0
 62
7
 10
5.469999999999999
 20
3.24
 30
0
 11
6.36
 21
3.24
 31
0
  0
LINE
  8
0
 62
7
 10
5.469999999999999
 20
3.90560372950537
 30
0
 11
5.469999999999999
 21
3.470000000000001
 31
0
  0
LINE
  8
0
 62
7
 10
6.36
 20
3.470000000000001
 30
0
 11
6.36
 21
3.675951598267031
 31
0
  0
LINE
  8
0
 62
7
 10
5.469999999999999
 20
3.470000000000001
 30
0
 11
6.36
 21
3.470000000000001
 31
0
  0
LINE
  8
0
 62
7
 10
5.469999999999999
 20
4.2600892423373
 30
0
 11
5.469999999999999
 21
3.81265579082662
 31
0
  0
LINE
  8
0
 62
7
 10
6.36
 20
3.583003659588281
 30
0
 11
6.36
 21
3.79427055996569
 31
0
  0
LINE
  8
0
 62
7
 10
5.469999999999999
 20
3.81265579082662
 30
0
 11
6.36
 21
3.583003659588281
 31
0
  0
LINE
  8
0
 62
7
 10
5.469999999999999
 20
4.649553085328181
 30
0
 11
5.469999999999999
 21
4.15850722856965
 31
0
  0
LINE
  8
0
 62
7
 10
6.36
 20
3.692688546198041
 30
0
 11
6.36
 21
3.796585580625623
 31
0
  0
LINE
  8
0
 62
7
 10
5.469999999999999
 20
4.15850722856965
 30
0
 11
6.36
 21
3.692688546198041
 31
0
  0
LINE
  8
0
 62
7
 10
5.469999999999999
 20
4.935000000000001
 30
0
 11
5.469999999999999
 21
4.532754472846022
 31
0
  0
LINE
  8
0
 62
7
 10
5.76818350454265
 20
4.935000000000001
 30
0
 11
5.469999999999999
 21
4.935000000000001
 31
0
  0
LINE
  8
0
 62
7
 10
5.469999999999999
 20
4.532754472846022
 30
0
 11
6.36
 21
3.796585580625623
 31
0
  0
LINE
  8
0
 62
7
 10
6.20588143914043
 20
4.935000000000001
 30
0
 11
5.66091284713349
 21
4.935000000000001
 31
0
  0
LINE
  8
0
 62
7
 10
6.29709897531341
 20
3.95406320768712
 30
0
 11
6.36
 21
4.011245957402209
 31
0
  0
LINE
  8
0
 62
7
 10
5.66091284713349
 20
4.935000000000001
 30
0
 11
6.29709897531341
 21
3.95406320768712
 31
0
  0
LINE
  8
0
 62
7
 10
6.580823153176269
 20
4.935000000000001
 30
0
 11
6.1129414334607
 21
4.935000000000001
 31
0
  0
LINE
  8
0
 62
7
 10
6.342279383408339
 20
4.045000000000001
 30
0
 11
6.397129446857567
 21
4.045000000000001
 31
0
  0
LINE
  8
0
 62
7
 10
6.1129414334607
 20
4.935000000000001
 30
0
 11
6.342279383408339
 21
4.045000000000001
 31
0
  0
LINE
  8
0
 62
7
 10
6.984413134345759
 20
4.935000000000001
 30
0
 11
6.490595553852351
 21
4.935000000000001
 31
0
  0
LINE
  8
0
 62
7
 10
6.490595553852351
 20
4.935000000000001
 30
0
 11
6.428649661865342
 21
4.064519818946121
 31
0
  0
LINE
  8
0
 62
7
 10
7.370000000000001
 20
4.935000000000001
 30
0
 11
6.886885377293701
 21
4.935000000000001
 31
0
  0
LINE
  8
0
 62
7
 10
7.370000000000001
 20
4.753756862302671
 30
0
 11
7.370000000000001
 21
4.935000000000001
 31
0
  0
LINE
  8
0
 62
7
 10
6.48
 20
3.9603492641207
 30
0
 11
6.48
 21
3.724175591143061
 31
0
  0
LINE
  8
0
 62
7
 10
6.886885377293701
 20
4.935000000000001
 30
0
 11
6.485101837786565
 21
3.972570175046736
 31
0
  0
LINE
  8
0
 62
7
 10
7.370000000000001
 20
4.293114041648102
 30
0
 11
7.370000000000001
 21
4.891379261994081
 31
0
  0
LINE
  8
0
 62
7
 10
6.48
 20
3.86179799083447
 30
0
 11
6.48
 21
3.63286979632517
 31
0
  0
LINE
  8
0
 62
7
 10
7.370000000000001
 20
4.891379261994081
 30
0
 11
6.48
 21
3.86179799083447
 31
0
  0
LINE
  8
0
 62
7
 10
7.370000000000001
 20
3.967696527428741
 30
0
 11
7.370000000000001
 21
4.405175342178821
 31
0
  0
LINE
  8
0
 62
7
 10
6.48
 20
3.744931096855901
 30
0
 11
6.48
 21
3.52330719032323
 31
0
  0
LINE
  8
0
 62
7
 10
7.370000000000001
 20
4.405175342178821
 30
0
 11
6.48
 21
3.744931096855901
 31
0
  0
LINE
  8
0
 62
7
 10
7.370000000000001
 20
3.638552325319611
 30
0
 11
7.370000000000001
 21
4.068291985054241
 31
0
  0
LINE
  8
0
 62
7
 10
6.48
 20
3.623902647948731
 30
0
 11
6.48
 21
3.412020741712001
 31
0
  0
LINE
  8
0
 62
7
 10
7.370000000000001
 20
4.068291985054241
 30
0
 11
6.48
 21
3.623902647948731
 31
0
  0
LINE
  8
0
 62
7
 10
7.370000000000001
 20
3.38
 30
0
 11
7.370000000000001
 21
3.7314219230362
 31
0
  0
LINE
  8
0
 62
7
 10
6.48
 20
3.5048903394286
 30
0
 11
6.48
 21
3.38
 31
0
  0
LINE
  8
0
 62
7
 10
7.370000000000001
 20
3.7314219230362
 30
0
 11
6.48
 21
3.5048903394286
 31
0
  0
LINE
  8
0
 62
7
 10
6.93341074086688
 20
4.044999972730882
 30
0
 11
6.93341074086688
 21
3.39
 31
0
  0
LINE
  8
0
 62
7
 10
7.039065840128583
 20
3.451000000000001
 30
0
 11
6.93341074086688
 21
3.39
 31
0
  0
LINE
  8
0
 62
7
  6
PHANTOM
 10
6.827755641605179
 20
3.451000000000001
 30
0
 11
7.039065840128583
 21
3.451000000000001
 31
0
  0
LINE
  8
0
 62
7
  6
PHANTOM
 10
6.93341074086688
 20
3.39
 30
0
 11
6.827755641605179
 21
3.451000000000001
 31
0
  0
LINE
  8
0
 62
7
 10
6.360000027267489
 20
4.498410740866881
 30
0
 11
6.479999972759741
 21
4.498410740866881
 31
0
  0
LINE
  8
0
 62
7
 10
5.90658925913312
 20
3.24
 30
0
 11
5.90658925913312
 21
4.044999972714581
 31
0
  0
LINE
  8
0
 62
7
 10
6.35999954
 20
8.596800069999999
 30
0
 11
5.469999310000002
 21
8.596800069999999
 31
0
  0
LINE
  8
0
 62
7
 10
6.35999954
 20
8.531800069999997
 30
0
 11
6.35999954
 21
8.596800069999999
 31
0
  0
LINE
  8
0
 62
7
 10
5.469999310000002
 20
8.596800069999999
 30
0
 11
5.469999310000002
 21
8.531800069999997
 31
0
  0
LINE
  8
0
 62
7
 10
5.469999310000002
 20
8.531800069999997
 30
0
 11
6.35999954
 21
8.531800069999997
 31
0
  0
LINE
  8
0
 62
7
 10
6.35999969
 20
8.793200059999998
 30
0
 11
5.469999310000002
 21
8.793200059999998
 31
0
  0
LINE
  8
0
 62
7
 10
6.35999969
 20
8.728200059999997
 30
0
 11
6.35999969
 21
8.793200059999998
 31
0
  0
LINE
  8
0
 62
7
 10
5.469999310000002
 20
8.793200059999998
 30
0
 11
5.469999310000002
 21
8.728200059999997
 31
0
  0
LINE
  8
0
 62
7
 10
5.469999310000002
 20
8.728200059999997
 30
0
 11
6.35999969
 21
8.728200059999997
 31
0
  0
LINE
  8
0
 62
7
 10
6.359999460000001
 20
8.989600059999999
 30
0
 11
5.46999946
 21
8.989600059999999
 31
0
  0
LINE
  8
0
 62
7
 10
6.359999460000001
 20
8.92460006
 30
0
 11
6.359999460000001
 21
8.989600059999999
 31
0
  0
LINE
  8
0
 62
7
 10
5.46999946
 20
8.989600059999999
 30
0
 11
5.46999946
 21
8.92460006
 31
0
  0
LINE
  8
0
 62
7
 10
5.46999946
 20
8.92460006
 30
0
 11
6.359999460000001
 21
8.92460006
 31
0
  0
LINE
  8
0
 62
7
 10
6.35999961
 20
9.186000049999999
 30
0
 11
5.46999961
 21
9.186000049999999
 31
0
  0
LINE
  8
0
 62
7
 10
6.35999961
 20
9.121000049999999
 30
0
 11
6.35999961
 21
9.186000049999999
 31
0
  0
LINE
  8
0
 62
7
 10
5.46999961
 20
9.186000049999999
 30
0
 11
5.46999961
 21
9.121000049999999
 31
0
  0
LINE
  8
0
 62
7
 10
5.46999961
 20
9.121000049999999
 30
0
 11
6.35999961
 21
9.121000049999999
 31
0
  0
LINE
  8
0
 62
7
 10
6.35999969
 20
9.382400049999999
 30
0
 11
5.46999961
 21
9.382400049999999
 31
0
  0
LINE
  8
0
 62
7
 10
5.46999961
 20
9.31740005
 30
0
 11
6.35999969
 21
9.31740005
 31
0
  0
LINE
  8
0
 62
7
 10
6.35999969
 20
9.31740005
 30
0
 11
6.35999969
 21
9.382400049999999
 31
0
  0
LINE
  8
0
 62
7
 10
5.46999961
 20
9.382400049999999
 30
0
 11
5.46999961
 21
9.31740005
 31
0
  0
LINE
  8
0
 62
7
 10
5.660912700000001
 20
9.513800039999998
 30
0
 11
6.427989800000001
 21
9.513800039999998
 31
0
  0
LINE
  8
0
 62
7
 10
6.427989800000001
 20
9.578800039999997
 30
0
 11
5.660912700000001
 21
9.578800039999997
 31
0
  0
LINE
  8
0
 62
7
 10
6.427989800000001
 20
9.513800039999998
 30
0
 11
6.427989800000001
 21
9.578800039999997
 31
0
  0
LINE
  8
0
 62
7
 10
5.660912700000001
 20
9.578800039999997
 30
0
 11
5.660912700000001
 21
9.513800039999998
 31
0
  0
LINE
  8
0
 62
7
 10
6.1129409
 20
9.710200029999998
 30
0
 11
6.58082229
 21
9.710200029999998
 31
0
  0
LINE
  8
0
 62
7
 10
6.58082229
 20
9.775200029999997
 30
0
 11
6.1129409
 21
9.775200029999997
 31
0
  0
LINE
  8
0
 62
7
 10
6.58082229
 20
9.710200029999998
 30
0
 11
6.58082229
 21
9.775200029999997
 31
0
  0
LINE
  8
0
 62
7
 10
6.1129409
 20
9.775200029999997
 30
0
 11
6.1129409
 21
9.710200029999998
 31
0
  0
LINE
  8
0
 62
7
 10
6.428648830000002
 20
9.90660003
 30
0
 11
6.984412450000001
 21
9.90660003
 31
0
  0
LINE
  8
0
 62
7
 10
6.984412450000001
 20
9.971600029999998
 30
0
 11
6.428648830000002
 21
9.971600029999998
 31
0
  0
LINE
  8
0
 62
7
 10
6.984412450000001
 20
9.90660003
 30
0
 11
6.984412450000001
 21
9.971600029999998
 31
0
  0
LINE
  8
0
 62
7
 10
6.428648830000002
 20
9.971600029999998
 30
0
 11
6.428648830000002
 21
9.90660003
 31
0
  0
LINE
  8
0
 62
7
 10
7.369999610000001
 20
10.16800002
 30
0
 11
6.47999961
 21
10.16800002
 31
0
  0
LINE
  8
0
 62
7
 10
6.47999961
 20
10.10300002
 30
0
 11
7.369999610000001
 21
10.10300002
 31
0
  0
LINE
  8
0
 62
7
 10
7.369999610000001
 20
10.10300002
 30
0
 11
7.369999610000001
 21
10.16800002
 31
0
  0
LINE
  8
0
 62
7
 10
6.47999961
 20
10.16800002
 30
0
 11
6.47999961
 21
10.10300002
 31
0
  0
LINE
  8
0
 62
7
 10
7.3699997
 20
10.36440002
 30
0
 11
6.47999961
 21
10.36440002
 31
0
  0
LINE
  8
0
 62
7
 10
7.3699997
 20
10.29940002
 30
0
 11
7.3699997
 21
10.36440002
 31
0
  0
LINE
  8
0
 62
7
 10
6.47999961
 20
10.36440002
 30
0
 11
6.47999961
 21
10.29940002
 31
0
  0
LINE
  8
0
 62
7
 10
6.47999961
 20
10.29940002
 30
0
 11
7.3699997
 21
10.29940002
 31
0
  0
LINE
  8
0
 62
7
 10
7.369999540000001
 20
10.56080001
 30
0
 11
6.479999760000002
 21
10.56080001
 31
0
  0
LINE
  8
0
 62
7
 10
7.369999540000001
 20
10.49580001
 30
0
 11
7.369999540000001
 21
10.56080001
 31
0
  0
LINE
  8
0
 62
7
 10
6.479999760000002
 20
10.56080001
 30
0
 11
6.479999760000002
 21
10.49580001
 31
0
  0
LINE
  8
0
 62
7
 10
6.479999760000002
 20
10.49580001
 30
0
 11
7.369999540000001
 21
10.49580001
 31
0
  0
LINE
  8
0
 62
7
 10
7.369999870000003
 20
10.7572
 30
0
 11
6.479999380000002
 21
10.7572
 31
0
  0
LINE
  8
0
 62
7
 10
7.369999870000003
 20
10.6922
 30
0
 11
7.369999870000003
 21
10.7572
 31
0
  0
LINE
  8
0
 62
7
 10
6.479999380000002
 20
10.7572
 30
0
 11
6.479999380000002
 21
10.6922
 31
0
  0
LINE
  8
0
 62
7
 10
6.479999380000002
 20
10.6922
 30
0
 11
7.369999870000003
 21
10.6922
 31
0
  0
LINE
  8
0
 62
7
  6
DASHED
 10
7.370000000000001
 20
10.9536
 30
0
 11
6.47999961
 21
10.9536
 31
0
  0
LINE
  8
0
 62
7
  6
DASHED
 10
7.370000000000001
 20
10.8886
 30
0
 11
7.370000000000001
 21
10.9536
 31
0
  0
LINE
  8
0
 62
7
  6
DASHED
 10
6.47999961
 20
10.9536
 30
0
 11
6.47999961
 21
10.8886
 31
0
  0
LINE
  8
0
 62
7
  6
DASHED
 10
6.47999961
 20
10.8886
 30
0
 11
7.370000000000001
 21
10.8886
 31
0
  0
LINE
  8
0
 62
7
 10
1.824396440000002
 20
8.728200059999997
 30
0
 11
2.260000230000001
 21
8.728200059999997
 31
0
  0
LINE
  8
0
 62
7
 10
2.170000190000002
 20
8.596800069999999
 30
0
 11
2.490000480000002
 21
8.596800069999999
 31
0
  0
LINE
  8
0
 62
7
 10
2.490000480000002
 20
8.596800069999999
 30
0
 11
2.490000480000002
 21
8.531800069999997
 31
0
  0
LINE
  8
0
 62
7
 10
2.170000190000002
 20
8.531800069999997
 30
0
 11
2.170000190000002
 21
8.596800069999999
 31
0
  0
LINE
  8
0
 62
7
 10
2.490000480000002
 20
8.531800069999997
 30
0
 11
2.170000190000002
 21
8.531800069999997
 31
0
  0
LINE
  8
0
 62
7
 10
1.824396440000002
 20
8.793200059999998
 30
0
 11
2.260000230000001
 21
8.793200059999998
 31
0
  0
LINE
  8
0
 62
7
 10
2.260000230000001
 20
8.793200059999998
 30
0
 11
2.260000230000001
 21
8.728200059999997
 31
0
  0
LINE
  8
0
 62
7
 10
1.824396440000002
 20
8.728200059999997
 30
0
 11
1.824396440000002
 21
8.793200059999998
 31
0
  0
LINE
  8
0
 62
7
 10
2.146996690000001
 20
8.92460006
 30
0
 11
1.469910970000001
 21
8.92460006
 31
0
  0
LINE
  8
0
 62
7
 10
1.469910970000001
 20
8.989600059999999
 30
0
 11
2.146996690000001
 21
8.989600059999999
 31
0
  0
LINE
  8
0
 62
7
 10
2.146996690000001
 20
8.989600059999999
 30
0
 11
2.146996690000001
 21
8.92460006
 31
0
  0
LINE
  8
0
 62
7
 10
1.469910970000001
 20
8.92460006
 30
0
 11
1.469910970000001
 21
8.989600059999999
 31
0
  0
LINE
  8
0
 62
7
 10
2.037311790000004
 20
9.121000049999999
 30
0
 11
1.080447090000001
 21
9.121000049999999
 31
0
  0
LINE
  8
0
 62
7
 10
1.080447090000001
 20
9.186000049999999
 30
0
 11
2.037311790000004
 21
9.186000049999999
 31
0
  0
LINE
  8
0
 62
7
 10
2.037311790000004
 20
9.186000049999999
 30
0
 11
2.037311790000004
 21
9.121000049999999
 31
0
  0
LINE
  8
0
 62
7
 10
1.080447090000001
 20
9.121000049999999
 30
0
 11
1.080447090000001
 21
9.186000049999999
 31
0
  0
LINE
  8
0
 62
7
 10
1.933414620000002
 20
9.31740005
 30
0
 11
0.795
 21
9.31740005
 31
0
  0
LINE
  8
0
 62
7
 10
0.795
 20
9.382400049999999
 30
0
 11
1.933414620000002
 21
9.382400049999999
 31
0
  0
LINE
  8
0
 62
7
 10
1.933414620000002
 20
9.382400049999999
 30
0
 11
1.933414620000002
 21
9.31740005
 31
0
  0
LINE
  8
0
 62
7
 10
0.795
 20
9.31740005
 30
0
 11
0.795
 21
9.382400049999999
 31
0
  0
LINE
  8
0
 62
7
 10
0.7950001600000025
 20
9.578800039999999
 30
0
 11
1.775936970000002
 21
9.578800039999999
 31
0
  0
LINE
  8
0
 62
7
 10
1.775936970000002
 20
9.513800039999998
 30
0
 11
0.7950001600000025
 21
9.513800039999998
 31
0
  0
LINE
  8
0
 62
7
 10
1.775936970000002
 20
9.578800039999999
 30
0
 11
1.775936970000002
 21
9.513800039999998
 31
0
  0
LINE
  8
0
 62
7
 10
0.7950001600000025
 20
9.513800039999998
 30
0
 11
0.7950001600000025
 21
9.578800039999999
 31
0
  0
LINE
  8
0
 62
7
 10
0.7949998500000004
 20
9.775200029999999
 30
0
 11
1.685000080000001
 21
9.775200029999999
 31
0
  0
LINE
  8
0
 62
7
 10
1.685000080000001
 20
9.775200029999999
 30
0
 11
1.685000080000001
 21
9.710200029999999
 31
0
  0
LINE
  8
0
 62
7
 10
0.7949998500000004
 20
9.710200029999999
 30
0
 11
0.7949998500000004
 21
9.775200029999999
 31
0
  0
LINE
  8
0
 62
7
 10
1.685000080000001
 20
9.710200029999999
 30
0
 11
0.7949998500000004
 21
9.710200029999999
 31
0
  0
LINE
  8
0
 62
7
 10
0.795
 20
9.971600029999998
 30
0
 11
1.851987380000002
 21
9.971600029999998
 31
0
  0
LINE
  8
0
 62
7
 10
1.851987380000002
 20
9.90660003
 30
0
 11
0.795
 21
9.90660003
 31
0
  0
LINE
  8
0
 62
7
 10
1.851987380000002
 20
9.971600029999998
 30
0
 11
1.851987380000002
 21
9.90660003
 31
0
  0
LINE
  8
0
 62
7
 10
0.795
 20
9.90660003
 30
0
 11
0.795
 21
9.971600029999998
 31
0
  0
LINE
  8
0
 62
7
 10
2.005824670000001
 20
10.10300002
 30
0
 11
0.7949997000000013
 21
10.10300002
 31
0
  0
LINE
  8
0
 62
7
 10
0.7949997000000013
 20
10.16800002
 30
0
 11
1.769650880000002
 21
10.16800002
 31
0
  0
LINE
  8
0
 62
7
 10
1.769650880000002
 20
10.16800002
 30
0
 11
2.005824670000001
 21
10.16800002
 31
0
  0
LINE
  8
0
 62
7
 10
2.005824670000001
 20
10.16800002
 30
0
 11
2.005824670000001
 21
10.10300002
 31
0
  0
LINE
  8
0
 62
7
 10
0.7949997000000013
 20
10.10300002
 30
0
 11
0.7949997000000013
 21
10.16800002
 31
0
  0
LINE
  8
0
 62
7
 10
2.097130470000001
 20
10.29940002
 30
0
 11
0.8386212200000011
 21
10.29940002
 31
0
  0
LINE
  8
0
 62
7
 10
0.8386212200000011
 20
10.36440002
 30
0
 11
2.097130470000001
 21
10.36440002
 31
0
  0
LINE
  8
0
 62
7
 10
2.097130470000001
 20
10.36440002
 30
0
 11
2.097130470000001
 21
10.29940002
 31
0
  0
LINE
  8
0
 62
7
 10
0.8386212200000011
 20
10.29940002
 30
0
 11
0.8386212200000011
 21
10.36440002
 31
0
  0
LINE
  8
0
 62
7
 10
2.20669297
 20
10.49580001
 30
0
 11
1.324825140000002
 21
10.49580001
 31
0
  0
LINE
  8
0
 62
7
 10
1.324825140000002
 20
10.56080001
 30
0
 11
2.20669297
 21
10.56080001
 31
0
  0
LINE
  8
0
 62
7
 10
2.20669297
 20
10.56080001
 30
0
 11
2.20669297
 21
10.49580001
 31
0
  0
LINE
  8
0
 62
7
 10
1.324825140000002
 20
10.49580001
 30
0
 11
1.324825140000002
 21
10.56080001
 31
0
  0
LINE
  8
0
 62
7
 10
2.317979660000002
 20
10.6922
 30
0
 11
1.661708150000001
 21
10.6922
 31
0
  0
LINE
  8
0
 62
7
 10
1.661708150000001
 20
10.7572
 30
0
 11
2.317979660000002
 21
10.7572
 31
0
  0
LINE
  8
0
 62
7
 10
2.317979660000002
 20
10.7572
 30
0
 11
2.317979660000002
 21
10.6922
 31
0
  0
LINE
  8
0
 62
7
 10
1.661708150000001
 20
10.6922
 30
0
 11
1.661708150000001
 21
10.7572
 31
0
  0
LINE
  8
0
 62
7
 10
1.998578270000001
 20
10.9536
 30
0
 11
2.350000520000003
 21
10.9536
 31
0
  0
LINE
  8
0
 62
7
 10
2.350000520000003
 20
10.8886
 30
0
 11
1.998578270000001
 21
10.8886
 31
0
  0
LINE
  8
0
 62
7
 10
2.350000520000003
 20
10.9536
 30
0
 11
2.350000520000003
 21
10.8886
 31
0
  0
LINE
  8
0
 62
7
 10
1.998578270000001
 20
10.8886
 30
0
 11
1.998578270000001
 21
10.9536
 31
0
  0
LINE
  8
0
 62
7
  6
DASHDOT
 10
7.425000000000001
 20
5.66
 30
0
 11
7.600000000000001
 21
5.66
 31
0
  0
LINE
  8
0
 62
7
  6
DASHDOT
 10
7.600000000000001
 20
5.66
 30
0
 11
7.65
 21
5.66
 31
0
  0
LINE
  8
0
 62
7
  6
DASHDOT
 10
5.09
 20
5.230000000000001
 30
0
 11
5.09
 21
4.990000000000002
 31
0
  0
LINE
  8
0
 62
7
  6
DASHDOT
 10
7.765000000000001
 20
5.230000000000001
 30
0
 11
7.765000000000001
 21
4.990000000000002
 31
0
  0
LINE
  8
0
 62
7
  6
DASHDOT
 10
5.09
 20
5.270000000000001
 30
0
 11
5.09
 21
5.230000000000001
 31
0
  0
LINE
  8
0
 62
7
  6
DASHDOT
 10
7.765000000000001
 20
5.270000000000001
 30
0
 11
7.765000000000001
 21
5.230000000000001
 31
0
  0
LINE
  8
0
 62
7
  6
DASHDOT
 10
5.09
 20
4.990000000000002
 30
0
 11
5.09
 21
4.940000000000001
 31
0
  0
LINE
  8
0
 62
7
  6
DASHDOT
 10
5.09
 20
5.51
 30
0
 11
5.09
 21
5.270000000000001
 31
0
  0
LINE
  8
0
 62
7
  6
DASHDOT
 10
5.415
 20
5.66
 30
0
 11
5.465
 21
5.66
 31
0
  0
LINE
  8
0
 62
7
  6
DASHDOT
 10
5.24
 20
5.66
 30
0
 11
5.415
 21
5.66
 31
0
  0
LINE
  8
0
 62
7
  6
DASHDOT
 10
7.765000000000001
 20
4.990000000000002
 30
0
 11
7.765000000000001
 21
4.940000000000001
 31
0
  0
LINE
  8
0
 62
7
  6
DASHDOT
 10
7.765000000000001
 20
5.51
 30
0
 11
7.765000000000001
 21
5.270000000000001
 31
0
  0
LINE
  8
0
 62
7
  6
DASHDOT
 10
7.765000000000001
 20
5.56
 30
0
 11
7.765000000000001
 21
5.51
 31
0
  0
LINE
  8
0
 62
7
  6
DASHDOT
 10
5.09
 20
5.56
 30
0
 11
5.09
 21
5.51
 31
0
  0
LINE
  8
0
 62
7
  6
DASHDOT
 10
7.375
 20
5.66
 30
0
 11
7.425000000000001
 21
5.66
 31
0
  0
LINE
  8
0
 62
7
  6
DASHDOT
 10
5.19
 20
5.66
 30
0
 11
5.24
 21
5.66
 31
0
  0
LINE
  8
0
 62
7
 10
5.414999999999999
 20
3.340000000000002
 30
0
 11
5.415
 21
3.390000000000001
 31
0
  0
LINE
  8
0
 62
7
  6
DASHDOT
 10
7.425000000000001
 20
3.340000000000002
 30
0
 11
5.414999999999999
 21
3.340000000000002
 31
0
  0
LINE
  8
0
 62
7
 10
7.425000000000001
 20
3.390000000000001
 30
0
 11
7.425000000000001
 21
3.340000000000002
 31
0
  0
LINE
  8
0
 62
7
 10
5.415
 20
3.390000000000001
 30
0
 11
5.414999999999999
 21
4.990000000000002
 31
0
  0
LINE
  8
0
 62
7
 10
7.425000000000001
 20
3.390000000000001
 30
0
 11
5.415
 21
3.390000000000001
 31
0
  0
LINE
  8
0
 62
7
 10
7.425000000000001
 20
3.340000000000002
 30
0
 11
7.600000000000001
 21
3.340000000000002
 31
0
  0
LINE
  8
0
 62
7
 10
7.600000000000001
 20
4.990000000000002
 30
0
 11
7.765000000000001
 21
4.990000000000002
 31
0
  0
LINE
  8
0
 62
7
 10
7.600000000000001
 20
3.340000000000002
 30
0
 11
7.600000000000001
 21
4.990000000000002
 31
0
  0
LINE
  8
0
 62
7
 10
7.425000000000001
 20
4.990000000000002
 30
0
 11
7.425000000000001
 21
3.390000000000001
 31
0
  0
LINE
  8
0
 62
7
 10
5.414999999999999
 20
4.990000000000002
 30
0
 11
7.425000000000001
 21
4.990000000000002
 31
0
  0
LINE
  8
0
 62
7
 10
5.239999999999999
 20
4.990000000000002
 30
0
 11
5.239999999999999
 21
3.24
 31
0
  0
LINE
  8
0
 62
7
 10
5.239999999999999
 20
3.24
 30
0
 11
5.414999999999999
 21
3.240000000000002
 31
0
  0
LINE
  8
0
 62
7
 10
5.414999999999999
 20
3.240000000000002
 30
0
 11
5.414999999999999
 21
3.340000000000002
 31
0
  0
LINE
  8
0
 62
7
 10
5.09
 20
4.990000000000002
 30
0
 11
5.239999999999999
 21
4.990000000000002
 31
0
  0
LINE
  8
0
 62
7
 10
5.09
 20
5.230000000000001
 30
0
 11
7.765000000000001
 21
5.230000000000001
 31
0
  0
LINE
  8
0
 62
7
 10
5.09
 20
5.270000000000001
 30
0
 11
7.765000000000001
 21
5.270000000000001
 31
0
  0
LINE
  8
0
 62
7
 10
7.600000000000001
 20
5.51
 30
0
 11
7.765000000000001
 21
5.51
 31
0
  0
LINE
  8
0
 62
7
 10
7.600000000000001
 20
5.66
 30
0
 11
7.600000000000001
 21
5.51
 31
0
  0
LINE
  8
0
 62
7
 10
7.425000000000001
 20
5.51
 30
0
 11
7.425000000000001
 21
5.66
 31
0
  0
LINE
  8
0
 62
7
 10
5.414999999999999
 20
5.51
 30
0
 11
7.425000000000001
 21
5.51
 31
0
  0
LINE
  8
0
 62
7
 10
5.415
 20
5.66
 30
0
 11
5.414999999999999
 21
5.51
 31
0
  0
LINE
  8
0
 62
7
 10
5.239999999999999
 20
5.51
 30
0
 11
5.24
 21
5.66
 31
0
  0
LINE
  8
0
 62
7
 10
5.09
 20
5.51
 30
0
 11
5.239999999999999
 21
5.51
 31
0
  0
LINE
  8
0
 62
7
  6
DASHED
 10
0.7400000000000011
 20
8.1
 30
0
 11
2.389999999999999
 21
8.1
 31
0
  0
LINE
  8
0
 62
7
  6
DASHED
 10
0.7400000000000001
 20
8.299999999999999
 30
0
 11
2.389999999999999
 21
8.299999999999999
 31
0
  0
LINE
  8
0
 62
7
  6
DASHED
 10
0.7400000000000001
 20
10.85
 30
0
 11
2.389999999999999
 21
10.85
 31
0
  0
LINE
  8
0
 62
7
  6
DASHED
 10
0.7400000000000001
 20
11.05
 30
0
 11
2.389999999999999
 21
11.05
 31
0
  0
LINE
  8
0
 62
7
  6
DASHDOT
 10
2.69
 20
11.05
 30
0
 11
2.69
 21
10.85
 31
0
  0
LINE
  8
0
 62
7
  6
DASHDOT
 10
2.69
 20
10.85
 30
0
 11
2.69
 21
10.8
 31
0
  0
LINE
  8
0
 62
7
  6
DASHDOT
 10
0.5000000000000009
 20
11.2
 30
0
 11
0.7400000000000011
 21
11.2
 31
0
  0
LINE
  8
0
 62
7
  6
DASHDOT
 10
0.7400000000000011
 20
11.2
 30
0
 11
0.79
 21
11.2
 31
0
  0
LINE
  8
0
 62
7
  6
DASHDOT
 10
0.7400000000000001
 20
7.949999999999999
 30
0
 11
0.79
 21
7.949999999999999
 31
0
  0
LINE
  8
0
 62
7
  6
DASHDOT
 10
0.5
 20
7.949999999999999
 30
0
 11
0.7400000000000001
 21
7.949999999999999
 31
0
  0
LINE
  8
0
 62
7
  6
DASHDOT
 10
2.69
 20
8.1
 30
0
 11
2.69
 21
8.299999999999999
 31
0
  0
LINE
  8
0
 62
7
  6
DASHDOT
 10
2.69
 20
8.299999999999999
 30
0
 11
2.69
 21
8.399999999999999
 31
0
  0
LINE
  8
0
 62
7
  6
DASHDOT
 10
2.69
 20
11.15
 30
0
 11
2.69
 21
11.05
 31
0
  0
LINE
  8
0
 62
7
 10
2.389999999999999
 20
11.15
 30
0
 11
2.69
 21
11.15
 31
0
  0
LINE
  8
0
 62
7
  6
DASHDOT
 10
2.69
 20
8.399999999999999
 30
0
 11
2.69
 21
8.449999999999999
 31
0
  0
LINE
  8
0
 62
7
 10
2.389999999999999
 20
8.399999999999999
 30
0
 11
2.69
 21
8.399999999999999
 31
0
  0
LINE
  8
0
 62
7
  6
DASHDOT
 10
0.45
 20
7.949999999999999
 30
0
 11
0.5
 21
7.949999999999999
 31
0
  0
LINE
  8
0
 62
7
  6
DASHDOT
 10
2.69
 20
8.049999999999999
 30
0
 11
2.69
 21
8.1
 31
0
  0
LINE
  8
0
 62
7
  6
DASHDOT
 10
2.69
 20
11.2
 30
0
 11
2.69
 21
11.15
 31
0
  0
LINE
  8
0
 62
7
  6
DASHDOT
 10
0.45
 20
11.2
 30
0
 11
0.5000000000000009
 21
11.2
 31
0
  0
LINE
  8
0
 62
7
 10
2.389999999999999
 20
8.1
 30
0
 11
2.69
 21
8.1
 31
0
  0
LINE
  8
0
 62
7
 10
2.389999999999999
 20
8.299999999999999
 30
0
 11
2.389999999999999
 21
8.1
 31
0
  0
LINE
  8
0
 62
7
 10
2.389999999999999
 20
8.299999999999999
 30
0
 11
2.69
 21
8.299999999999999
 31
0
  0
LINE
  8
0
 62
7
 10
2.389999999999999
 20
11.05
 30
0
 11
2.69
 21
11.05
 31
0
  0
LINE
  8
0
 62
7
 10
2.389999999999999
 20
10.85
 30
0
 11
2.69
 21
10.85
 31
0
  0
LINE
  8
0
 62
7
 10
2.389999999999999
 20
11.05
 30
0
 11
2.389999999999999
 21
10.85
 31
0
  0
LINE
  8
0
 62
7
 10
0.7400000000000011
 20
8.1
 30
0
 11
0.7400000000000001
 21
7.949999999999999
 31
0
  0
LINE
  8
0
 62
7
 10
0.5000000000000009
 20
8.1
 30
0
 11
0.5
 21
8.299999999999999
 31
0
  0
LINE
  8
0
 62
7
 10
0.5000000000000009
 20
8.1
 30
0
 11
0.7400000000000011
 21
8.1
 31
0
  0
LINE
  8
0
 62
7
 10
0.7400000000000001
 20
8.299999999999999
 30
0
 11
0.7400000000000011
 21
8.1
 31
0
  0
LINE
  8
0
 62
7
 10
0.5
 20
8.299999999999999
 30
0
 11
0.5
 21
10.85
 31
0
  0
LINE
  8
0
 62
7
 10
0.5
 20
8.299999999999999
 30
0
 11
0.7400000000000001
 21
8.299999999999999
 31
0
  0
LINE
  8
0
 62
7
 10
0.7400000000000001
 20
10.85
 30
0
 11
0.7400000000000001
 21
8.299999999999999
 31
0
  0
LINE
  8
0
 62
7
 10
0.5
 20
10.85
 30
0
 11
0.5
 21
11.05
 31
0
  0
LINE
  8
0
 62
7
 10
0.5
 20
10.85
 30
0
 11
0.7400000000000001
 21
10.85
 31
0
  0
LINE
  8
0
 62
7
 10
0.7400000000000001
 20
11.05
 30
0
 11
0.7400000000000001
 21
10.85
 31
0
  0
LINE
  8
0
 62
7
 10
0.5
 20
11.05
 30
0
 11
0.5000000000000009
 21
11.2
 31
0
  0
LINE
  8
0
 62
7
 10
0.5
 20
11.05
 30
0
 11
0.7400000000000001
 21
11.05
 31
0
  0
LINE
  8
0
 62
7
 10
0.7400000000000011
 20
11.2
 30
0
 11
0.7400000000000001
 21
11.05
 31
0
  0
LINE
  8
0
 62
7
 10
0.5
 20
7.949999999999999
 30
0
 11
0.5000000000000009
 21
8.1
 31
0
  0
LINE
  8
0
 62
7
  6
DASHDOT
 10
5.19
 20
11.2
 30
0
 11
5.24
 21
11.2
 31
0
  0
LINE
  8
0
 62
7
  6
DASHDOT
 10
5.24
 20
11.2
 30
0
 11
5.415
 21
11.2
 31
0
  0
LINE
  8
0
 62
7
  6
DASHDOT
 10
5.09
 20
11.15
 30
0
 11
5.09
 21
11.05
 31
0
  0
LINE
  8
0
 62
7
  6
DASHDOT
 10
5.09
 20
11.05
 30
0
 11
5.09
 21
10.85
 31
0
  0
LINE
  8
0
 62
7
  6
DASHDOT
 10
7.375
 20
11.2
 30
0
 11
7.425000000000001
 21
11.2
 31
0
  0
LINE
  8
0
 62
7
  6
DASHDOT
 10
7.425000000000001
 20
11.2
 30
0
 11
7.600000000000001
 21
11.2
 31
0
  0
LINE
  8
0
 62
7
  6
DASHDOT
 10
7.75
 20
11.15
 30
0
 11
7.75
 21
11.05
 31
0
  0
LINE
  8
0
 62
7
  6
DASHDOT
 10
7.75
 20
11.05
 30
0
 11
7.75
 21
10.85
 31
0
  0
LINE
  8
0
 62
7
  6
DASHDOT
 10
7.375
 20
7.949999999999999
 30
0
 11
7.425000000000001
 21
7.949999999999999
 31
0
  0
LINE
  8
0
 62
7
  6
DASHDOT
 10
7.425000000000001
 20
7.949999999999999
 30
0
 11
7.600000000000001
 21
7.949999999999999
 31
0
  0
LINE
  8
0
 62
7
  6
DASHDOT
 10
7.75
 20
8.399999999999999
 30
0
 11
7.75
 21
8.299999999999999
 31
0
  0
LINE
  8
0
 62
7
  6
DASHDOT
 10
7.75
 20
8.299999999999999
 30
0
 11
7.75
 21
8.1
 31
0
  0
LINE
  8
0
 62
7
  6
DASHDOT
 10
5.19
 20
7.949999999999999
 30
0
 11
5.239999999999999
 21
7.949999999999999
 31
0
  0
LINE
  8
0
 62
7
  6
DASHDOT
 10
5.239999999999999
 20
7.949999999999999
 30
0
 11
5.414999999999999
 21
7.949999999999999
 31
0
  0
LINE
  8
0
 62
7
  6
DASHDOT
 10
5.09
 20
8.399999999999999
 30
0
 11
5.09
 21
8.299999999999999
 31
0
  0
LINE
  8
0
 62
7
  6
DASHDOT
 10
5.09
 20
8.299999999999999
 30
0
 11
5.09
 21
8.1
 31
0
  0
LINE
  8
0
 62
7
  6
DASHDOT
 10
5.09
 20
11.2
 30
0
 11
5.09
 21
11.15
 31
0
  0
LINE
  8
0
 62
7
 10
5.24
 20
11.2
 30
0
 11
5.239999999999999
 21
11.15
 31
0
  0
LINE
  8
0
 62
7
 10
5.09
 20
11.15
 30
0
 11
5.239999999999999
 21
11.15
 31
0
  0
LINE
  8
0
 62
7
 10
5.415
 20
11.2
 30
0
 11
5.414999999999999
 21
11.15
 31
0
  0
LINE
  8
0
 62
7
 10
7.425000000000001
 20
11.2
 30
0
 11
7.425000000000001
 21
11.15
 31
0
  0
LINE
  8
0
 62
7
 10
5.414999999999999
 20
11.15
 30
0
 11
7.425000000000001
 21
11.15
 31
0
  0
LINE
  8
0
 62
7
  6
DASHDOT
 10
7.75
 20
11.2
 30
0
 11
7.75
 21
11.15
 31
0
  0
LINE
  8
0
 62
7
 10
7.600000000000001
 20
11.2
 30
0
 11
7.600000000000001
 21
11.15
 31
0
  0
LINE
  8
0
 62
7
 10
7.600000000000001
 20
11.15
 30
0
 11
7.75
 21
11.15
 31
0
  0
LINE
  8
0
 62
7
  6
DASHDOT
 10
5.09
 20
8.449999999999999
 30
0
 11
5.09
 21
8.399999999999999
 31
0
  0
LINE
  8
0
 62
7
 10
5.239999999999999
 20
10.85
 30
0
 11
5.239999999999999
 21
8.399999999999999
 31
0
  0
LINE
  8
0
 62
7
 10
5.09
 20
8.399999999999999
 30
0
 11
5.239999999999999
 21
8.399999999999999
 31
0
  0
LINE
  8
0
 62
7
 10
5.414999999999999
 20
10.85
 30
0
 11
5.414999999999999
 21
8.399999999999999
 31
0
  0
LINE
  8
0
 62
7
 10
7.425000000000001
 20
10.85
 30
0
 11
7.425000000000001
 21
8.399999999999999
 31
0
  0
LINE
  8
0
 62
7
 10
5.414999999999999
 20
8.399999999999999
 30
0
 11
7.425000000000001
 21
8.399999999999999
 31
0
  0
LINE
  8
0
 62
7
  6
DASHDOT
 10
7.75
 20
8.449999999999999
 30
0
 11
7.75
 21
8.399999999999999
 31
0
  0
LINE
  8
0
 62
7
 10
7.600000000000001
 20
10.85
 30
0
 11
7.600000000000001
 21
8.399999999999999
 31
0
  0
LINE
  8
0
 62
7
 10
7.600000000000001
 20
8.399999999999999
 30
0
 11
7.75
 21
8.399999999999999
 31
0
  0
LINE
  8
0
 62
7
  6
DASHDOT
 10
5.414999999999999
 20
7.949999999999999
 30
0
 11
5.465
 21
7.949999999999999
 31
0
  0
LINE
  8
0
 62
7
  6
DASHDOT
 10
5.415
 20
11.2
 30
0
 11
5.465
 21
11.2
 31
0
  0
LINE
  8
0
 62
7
  6
DASHDOT
 10
7.600000000000001
 20
7.949999999999999
 30
0
 11
7.65
 21
7.949999999999999
 31
0
  0
LINE
  8
0
 62
7
  6
DASHDOT
 10
7.600000000000001
 20
11.2
 30
0
 11
7.65
 21
11.2
 31
0
  0
LINE
  8
0
 62
7
  6
DASHDOT
 10
5.09
 20
10.85
 30
0
 11
5.09
 21
10.8
 31
0
  0
LINE
  8
0
 62
7
  6
DASHDOT
 10
5.09
 20
8.1
 30
0
 11
5.09
 21
8.049999999999999
 31
0
  0
LINE
  8
0
 62
7
  6
DASHDOT
 10
7.75
 20
10.85
 30
0
 11
7.75
 21
10.8
 31
0
  0
LINE
  8
0
 62
7
  6
DASHDOT
 10
7.75
 20
8.1
 30
0
 11
7.75
 21
8.049999999999999
 31
0
  0
LINE
  8
0
 62
7
 10
5.09
 20
11.05
 30
0
 11
5.239999999999999
 21
11.05
 31
0
  0
LINE
  8
0
 62
7
 10
5.239999999999999
 20
11.15
 30
0
 11
5.239999999999999
 21
11.05
 31
0
  0
LINE
  8
0
 62
7
 10
5.09
 20
10.85
 30
0
 11
5.239999999999999
 21
10.85
 31
0
  0
LINE
  8
0
 62
7
 10
5.09
 20
8.299999999999999
 30
0
 11
5.239999999999999
 21
8.299999999999999
 31
0
  0
LINE
  8
0
 62
7
 10
5.239999999999999
 20
8.399999999999999
 30
0
 11
5.239999999999999
 21
8.299999999999999
 31
0
  0
LINE
  8
0
 62
7
 10
5.09
 20
8.1
 30
0
 11
5.24
 21
8.1
 31
0
  0
LINE
  8
0
 62
7
 10
5.24
 20
8.1
 30
0
 11
5.239999999999999
 21
7.949999999999999
 31
0
  0
LINE
  8
0
 62
7
 10
5.239999999999999
 20
11.05
 30
0
 11
5.414999999999999
 21
11.05
 31
0
  0
LINE
  8
0
 62
7
 10
5.414999999999999
 20
11.15
 30
0
 11
5.414999999999999
 21
11.05
 31
0
  0
LINE
  8
0
 62
7
 10
5.239999999999999
 20
10.85
 30
0
 11
5.414999999999999
 21
10.85
 31
0
  0
LINE
  8
0
 62
7
 10
5.239999999999999
 20
8.299999999999999
 30
0
 11
5.414999999999999
 21
8.299999999999999
 31
0
  0
LINE
  8
0
 62
7
 10
5.414999999999999
 20
8.399999999999999
 30
0
 11
5.414999999999999
 21
8.299999999999999
 31
0
  0
LINE
  8
0
 62
7
 10
5.24
 20
8.1
 30
0
 11
5.415
 21
8.1
 31
0
  0
LINE
  8
0
 62
7
 10
5.415
 20
8.1
 30
0
 11
5.414999999999999
 21
7.949999999999999
 31
0
  0
LINE
  8
0
 62
7
 10
5.414999999999999
 20
11.05
 30
0
 11
7.425000000000001
 21
11.05
 31
0
  0
LINE
  8
0
 62
7
 10
7.425000000000001
 20
11.15
 30
0
 11
7.425000000000001
 21
11.05
 31
0
  0
LINE
  8
0
 62
7
 10
5.414999999999999
 20
10.85
 30
0
 11
7.425000000000001
 21
10.85
 31
0
  0
LINE
  8
0
 62
7
 10
5.414999999999999
 20
8.299999999999999
 30
0
 11
7.425000000000001
 21
8.299999999999999
 31
0
  0
LINE
  8
0
 62
7
 10
7.425000000000001
 20
8.399999999999999
 30
0
 11
7.425000000000001
 21
8.299999999999999
 31
0
  0
LINE
  8
0
 62
7
 10
5.415
 20
8.1
 30
0
 11
7.425000000000001
 21
8.1
 31
0
  0
LINE
  8
0
 62
7
 10
7.425000000000001
 20
8.1
 30
0
 11
7.425000000000001
 21
7.949999999999999
 31
0
  0
LINE
  8
0
 62
7
 10
7.425000000000001
 20
11.05
 30
0
 11
7.600000000000001
 21
11.05
 31
0
  0
LINE
  8
0
 62
7
 10
7.600000000000001
 20
11.15
 30
0
 11
7.600000000000001
 21
11.05
 31
0
  0
LINE
  8
0
 62
7
 10
7.425000000000001
 20
10.85
 30
0
 11
7.600000000000001
 21
10.85
 31
0
  0
LINE
  8
0
 62
7
 10
7.425000000000001
 20
8.299999999999999
 30
0
 11
7.600000000000001
 21
8.299999999999999
 31
0
  0
LINE
  8
0
 62
7
 10
7.600000000000001
 20
8.399999999999999
 30
0
 11
7.600000000000001
 21
8.299999999999999
 31
0
  0
LINE
  8
0
 62
7
 10
7.425000000000001
 20
8.1
 30
0
 11
7.600000000000001
 21
8.1
 31
0
  0
LINE
  8
0
 62
7
 10
7.600000000000001
 20
8.1
 30
0
 11
7.600000000000001
 21
7.949999999999999
 31
0
  0
LINE
  8
0
 62
7
 10
7.600000000000001
 20
11.05
 30
0
 11
7.75
 21
11.05
 31
0
  0
LINE
  8
0
 62
7
 10
7.600000000000001
 20
10.85
 30
0
 11
7.75
 21
10.85
 31
0
  0
LINE
  8
0
 62
7
 10
7.600000000000001
 20
8.299999999999999
 30
0
 11
7.75
 21
8.299999999999999
 31
0
  0
LINE
  8
0
 62
7
 10
7.600000000000001
 20
8.1
 30
0
 11
7.75
 21
8.1
 31
0
  0
LINE
  8
0
 62
7
 10
5.58596514236644
 20
4.669259247147
 30
0
 11
5.58596514236644
 21
4.789259247147
 31
0
  0
LINE
  8
0
 62
7
 10
5.661565142366441
 20
4.789259247147
 30
0
 11
5.607565142366441
 21
4.729259247147001
 31
0
  0
LINE
  8
0
 62
7
 10
5.607565142366441
 20
4.729259247147001
 30
0
 11
5.661565142366441
 21
4.669259247147
 31
0
  0
LINE
  8
0
 62
7
 10
5.607565142366441
 20
4.729259247147001
 30
0
 11
5.58596514236644
 21
4.705259247147001
 31
0
  0
LINE
  8
0
 62
7
 10
5.76956514236644
 20
4.789259247147
 30
0
 11
5.693965142366441
 21
4.789259247147
 31
0
  0
LINE
  8
0
 62
7
 10
5.693965142366441
 20
4.789259247147
 30
0
 11
5.693965142366441
 21
4.729259247147001
 31
0
  0
LINE
  8
0
 62
7
 10
5.693965142366441
 20
4.669259247147
 30
0
 11
5.76956514236644
 21
4.669259247147
 31
0
  0
LINE
  8
0
 62
7
 10
5.758765142366442
 20
4.729259247147001
 30
0
 11
5.693965142366441
 21
4.729259247147001
 31
0
  0
LINE
  8
0
 62
7
 10
5.693965142366441
 20
4.729259247147001
 30
0
 11
5.693965142366441
 21
4.669259247147
 31
0
  0
LINE
  8
0
 62
7
 10
5.80196514236644
 20
4.669259247147
 30
0
 11
5.80196514236644
 21
4.789259247147
 31
0
  0
LINE
  8
0
 62
7
 10
5.80196514236644
 20
4.789259247147
 30
0
 11
5.877565142366441
 21
4.669259247147
 31
0
  0
LINE
  8
0
 62
7
 10
5.877565142366441
 20
4.669259247147
 30
0
 11
5.877565142366441
 21
4.789259247147
 31
0
  0
LINE
  8
0
 62
7
 10
5.90996514236644
 20
4.669259247147
 30
0
 11
5.90996514236644
 21
4.789259247147
 31
0
  0
LINE
  8
0
 62
7
 10
5.90996514236644
 20
4.789259247147
 30
0
 11
5.985565142366441
 21
4.669259247147
 31
0
  0
LINE
  8
0
 62
7
 10
5.985565142366441
 20
4.669259247147
 30
0
 11
5.985565142366441
 21
4.789259247147
 31
0
  0
LINE
  8
0
 62
7
 10
6.093565142366441
 20
4.753259247147
 30
0
 11
6.090865142366439
 21
4.765259247147
 31
0
  0
LINE
  8
0
 62
7
 10
6.090865142366439
 20
4.765259247147
 30
0
 11
6.085465142366441
 21
4.774259247147
 31
0
  0
LINE
  8
0
 62
7
 10
6.085465142366441
 20
4.774259247147
 30
0
 11
6.080065142366441
 21
4.780259247147
 31
0
  0
LINE
  8
0
 62
7
 10
6.080065142366441
 20
4.780259247147
 30
0
 11
6.071965142366441
 21
4.786259247147
 31
0
  0
LINE
  8
0
 62
7
 10
6.071965142366441
 20
4.786259247147
 30
0
 11
6.06386514236644
 21
4.789259247147
 31
0
  0
LINE
  8
0
 62
7
 10
6.06386514236644
 20
4.789259247147
 30
0
 11
6.047665142366441
 21
4.789259247147
 31
0
  0
LINE
  8
0
 62
7
 10
6.047665142366441
 20
4.789259247147
 30
0
 11
6.039565142366441
 21
4.786259247147
 31
0
  0
LINE
  8
0
 62
7
 10
6.039565142366441
 20
4.786259247147
 30
0
 11
6.031465142366441
 21
4.780259247147
 31
0
  0
LINE
  8
0
 62
7
 10
6.031465142366441
 20
4.780259247147
 30
0
 11
6.026065142366441
 21
4.774259247147
 31
0
  0
LINE
  8
0
 62
7
 10
6.026065142366441
 20
4.774259247147
 30
0
 11
6.020665142366441
 21
4.765259247147
 31
0
  0
LINE
  8
0
 62
7
 10
6.020665142366441
 20
4.765259247147
 30
0
 11
6.017965142366441
 21
4.753259247147
 31
0
  0
LINE
  8
0
 62
7
 10
6.017965142366441
 20
4.753259247147
 30
0
 11
6.017965142366441
 21
4.705259247147001
 31
0
  0
LINE
  8
0
 62
7
 10
6.017965142366441
 20
4.705259247147001
 30
0
 11
6.020665142366441
 21
4.693259247147
 31
0
  0
LINE
  8
0
 62
7
 10
6.020665142366441
 20
4.693259247147
 30
0
 11
6.026065142366441
 21
4.684259247147
 31
0
  0
LINE
  8
0
 62
7
 10
6.026065142366441
 20
4.684259247147
 30
0
 11
6.031465142366441
 21
4.678259247146999
 31
0
  0
LINE
  8
0
 62
7
 10
6.031465142366441
 20
4.678259247146999
 30
0
 11
6.039565142366441
 21
4.672259247147
 31
0
  0
LINE
  8
0
 62
7
 10
6.039565142366441
 20
4.672259247147
 30
0
 11
6.047665142366441
 21
4.669259247147
 31
0
  0
LINE
  8
0
 62
7
 10
6.047665142366441
 20
4.669259247147
 30
0
 11
6.06386514236644
 21
4.669259247147
 31
0
  0
LINE
  8
0
 62
7
 10
6.06386514236644
 20
4.669259247147
 30
0
 11
6.071965142366441
 21
4.672259247147
 31
0
  0
LINE
  8
0
 62
7
 10
6.071965142366441
 20
4.672259247147
 30
0
 11
6.080065142366441
 21
4.678259247146999
 31
0
  0
LINE
  8
0
 62
7
 10
6.080065142366441
 20
4.678259247146999
 30
0
 11
6.085465142366441
 21
4.684259247147
 31
0
  0
LINE
  8
0
 62
7
 10
6.085465142366441
 20
4.684259247147
 30
0
 11
6.090865142366439
 21
4.693259247147
 31
0
  0
LINE
  8
0
 62
7
 10
6.090865142366439
 20
4.693259247147
 30
0
 11
6.093565142366441
 21
4.705259247147001
 31
0
  0
LINE
  8
0
 62
7
 10
6.093565142366441
 20
4.705259247147001
 30
0
 11
6.093565142366441
 21
4.729259247147001
 31
0
  0
LINE
  8
0
 62
7
 10
6.093565142366441
 20
4.729259247147001
 30
0
 11
6.06116514236644
 21
4.729259247147001
 31
0
  0
LINE
  8
0
 62
7
 10
6.171865142366441
 20
4.789259247147
 30
0
 11
6.155665142366441
 21
4.789259247147
 31
0
  0
LINE
  8
0
 62
7
 10
6.155665142366441
 20
4.789259247147
 30
0
 11
6.147565142366441
 21
4.786259247147
 31
0
  0
LINE
  8
0
 62
7
 10
6.147565142366441
 20
4.786259247147
 30
0
 11
6.13946514236644
 21
4.780259247147
 31
0
  0
LINE
  8
0
 62
7
 10
6.13946514236644
 20
4.780259247147
 30
0
 11
6.134065142366441
 21
4.774259247147
 31
0
  0
LINE
  8
0
 62
7
 10
6.134065142366441
 20
4.774259247147
 30
0
 11
6.12866514236644
 21
4.765259247147
 31
0
  0
LINE
  8
0
 62
7
 10
6.12866514236644
 20
4.765259247147
 30
0
 11
6.12596514236644
 21
4.753259247147
 31
0
  0
LINE
  8
0
 62
7
 10
6.12596514236644
 20
4.753259247147
 30
0
 11
6.12596514236644
 21
4.705259247147001
 31
0
  0
LINE
  8
0
 62
7
 10
6.12596514236644
 20
4.705259247147001
 30
0
 11
6.12866514236644
 21
4.693259247147
 31
0
  0
LINE
  8
0
 62
7
 10
6.12866514236644
 20
4.693259247147
 30
0
 11
6.134065142366441
 21
4.684259247147
 31
0
  0
LINE
  8
0
 62
7
 10
6.134065142366441
 20
4.684259247147
 30
0
 11
6.13946514236644
 21
4.678259247146999
 31
0
  0
LINE
  8
0
 62
7
 10
6.13946514236644
 20
4.678259247146999
 30
0
 11
6.147565142366441
 21
4.672259247147
 31
0
  0
LINE
  8
0
 62
7
 10
6.147565142366441
 20
4.672259247147
 30
0
 11
6.155665142366441
 21
4.669259247147
 31
0
  0
LINE
  8
0
 62
7
 10
6.155665142366441
 20
4.669259247147
 30
0
 11
6.171865142366441
 21
4.669259247147
 31
0
  0
LINE
  8
0
 62
7
 10
6.171865142366441
 20
4.669259247147
 30
0
 11
6.179965142366441
 21
4.672259247147
 31
0
  0
LINE
  8
0
 62
7
 10
6.179965142366441
 20
4.672259247147
 30
0
 11
6.18806514236644
 21
4.678259247146999
 31
0
  0
LINE
  8
0
 62
7
 10
6.18806514236644
 20
4.678259247146999
 30
0
 11
6.19346514236644
 21
4.684259247147
 31
0
  0
LINE
  8
0
 62
7
 10
6.19346514236644
 20
4.684259247147
 30
0
 11
6.19886514236644
 21
4.693259247147
 31
0
  0
LINE
  8
0
 62
7
 10
6.19886514236644
 20
4.693259247147
 30
0
 11
6.201565142366441
 21
4.705259247147001
 31
0
  0
LINE
  8
0
 62
7
 10
6.201565142366441
 20
4.705259247147001
 30
0
 11
6.201565142366441
 21
4.753259247147
 31
0
  0
LINE
  8
0
 62
7
 10
6.201565142366441
 20
4.753259247147
 30
0
 11
6.19886514236644
 21
4.765259247147
 31
0
  0
LINE
  8
0
 62
7
 10
6.19886514236644
 20
4.765259247147
 30
0
 11
6.19346514236644
 21
4.774259247147
 31
0
  0
LINE
  8
0
 62
7
 10
6.19346514236644
 20
4.774259247147
 30
0
 11
6.18806514236644
 21
4.780259247147
 31
0
  0
LINE
  8
0
 62
7
 10
6.18806514236644
 20
4.780259247147
 30
0
 11
6.179965142366441
 21
4.786259247147
 31
0
  0
LINE
  8
0
 62
7
 10
6.179965142366441
 20
4.786259247147
 30
0
 11
6.171865142366441
 21
4.789259247147
 31
0
  0
LINE
  8
0
 62
7
 10
6.223165142366441
 20
4.789259247147
 30
0
 11
6.260965142366441
 21
4.789259247147
 31
0
  0
LINE
  8
0
 62
7
 10
6.260965142366441
 20
4.789259247147
 30
0
 11
6.260965142366441
 21
4.669259247147
 31
0
  0
LINE
  8
0
 62
7
 10
6.260965142366441
 20
4.789259247147
 30
0
 11
6.298765142366442
 21
4.789259247147
 31
0
  0
LINE
  8
0
 62
7
 10
6.331165142366441
 20
4.789259247147
 30
0
 11
6.368965142366442
 21
4.789259247147
 31
0
  0
LINE
  8
0
 62
7
 10
6.368965142366442
 20
4.789259247147
 30
0
 11
6.368965142366442
 21
4.669259247147
 31
0
  0
LINE
  8
0
 62
7
 10
6.368965142366442
 20
4.789259247147
 30
0
 11
6.40676514236644
 21
4.789259247147
 31
0
  0
LINE
  8
0
 62
7
 10
6.525565142366441
 20
4.711259247147001
 30
0
 11
6.579565142366441
 21
4.711259247147001
 31
0
  0
LINE
  8
0
 62
7
 10
6.68756514236644
 20
4.789259247147
 30
0
 11
6.725365142366441
 21
4.789259247147
 31
0
  0
LINE
  8
0
 62
7
 10
6.725365142366441
 20
4.789259247147
 30
0
 11
6.725365142366441
 21
4.669259247147
 31
0
  0
LINE
  8
0
 62
7
 10
6.725365142366441
 20
4.789259247147
 30
0
 11
6.763165142366441
 21
4.789259247147
 31
0
  0
LINE
  8
0
 62
7
 10
6.795565142366441
 20
4.669259247147
 30
0
 11
6.795565142366441
 21
4.789259247147
 31
0
  0
LINE
  8
0
 62
7
 10
6.795565142366441
 20
4.789259247147
 30
0
 11
6.846865142366442
 21
4.789259247147
 31
0
  0
LINE
  8
0
 62
7
 10
6.846865142366442
 20
4.789259247147
 30
0
 11
6.857665142366442
 21
4.786259247147
 31
0
  0
LINE
  8
0
 62
7
 10
6.857665142366442
 20
4.786259247147
 30
0
 11
6.865765142366441
 21
4.780259247147
 31
0
  0
LINE
  8
0
 62
7
 10
6.865765142366441
 20
4.780259247147
 30
0
 11
6.868465142366441
 21
4.774259247147
 31
0
  0
LINE
  8
0
 62
7
 10
6.868465142366441
 20
4.774259247147
 30
0
 11
6.871165142366441
 21
4.765259247147
 31
0
  0
LINE
  8
0
 62
7
 10
6.871165142366441
 20
4.765259247147
 30
0
 11
6.871165142366441
 21
4.753259247147
 31
0
  0
LINE
  8
0
 62
7
 10
6.871165142366441
 20
4.753259247147
 30
0
 11
6.868465142366441
 21
4.744259247147
 31
0
  0
LINE
  8
0
 62
7
 10
6.868465142366441
 20
4.744259247147
 30
0
 11
6.865765142366441
 21
4.738259247147
 31
0
  0
LINE
  8
0
 62
7
 10
6.865765142366441
 20
4.738259247147
 30
0
 11
6.857665142366442
 21
4.732259247147
 31
0
  0
LINE
  8
0
 62
7
 10
6.857665142366442
 20
4.732259247147
 30
0
 11
6.846865142366442
 21
4.729259247147001
 31
0
  0
LINE
  8
0
 62
7
 10
6.846865142366442
 20
4.729259247147001
 30
0
 11
6.83876514236644
 21
4.729259247147001
 31
0
  0
LINE
  8
0
 62
7
 10
6.83876514236644
 20
4.729259247147001
 30
0
 11
6.871165142366441
 21
4.669259247147
 31
0
  0
LINE
  8
0
 62
7
 10
6.83876514236644
 20
4.729259247147001
 30
0
 11
6.795565142366441
 21
4.729259247147001
 31
0
  0
LINE
  8
0
 62
7
 10
6.968365142366441
 20
4.789259247147
 30
0
 11
6.89276514236644
 21
4.789259247147
 31
0
  0
LINE
  8
0
 62
7
 10
6.89276514236644
 20
4.789259247147
 30
0
 11
6.89276514236644
 21
4.729259247147001
 31
0
  0
LINE
  8
0
 62
7
 10
6.89276514236644
 20
4.669259247147
 30
0
 11
6.968365142366441
 21
4.669259247147
 31
0
  0
LINE
  8
0
 62
7
 10
6.95756514236644
 20
4.729259247147001
 30
0
 11
6.89276514236644
 21
4.729259247147001
 31
0
  0
LINE
  8
0
 62
7
 10
6.89276514236644
 20
4.729259247147001
 30
0
 11
6.89276514236644
 21
4.669259247147
 31
0
  0
LINE
  8
0
 62
7
 10
7.00076514236644
 20
4.669259247147
 30
0
 11
7.00076514236644
 21
4.729259247147001
 31
0
  0
LINE
  8
0
 62
7
 10
7.00076514236644
 20
4.789259247147
 30
0
 11
7.052065142366441
 21
4.789259247147
 31
0
  0
LINE
  8
0
 62
7
 10
7.052065142366441
 20
4.789259247147
 30
0
 11
7.062865142366441
 21
4.786259247147
 31
0
  0
LINE
  8
0
 62
7
 10
7.062865142366441
 20
4.786259247147
 30
0
 11
7.07096514236644
 21
4.780259247147
 31
0
  0
LINE
  8
0
 62
7
 10
7.07096514236644
 20
4.780259247147
 30
0
 11
7.073665142366441
 21
4.774259247147
 31
0
  0
LINE
  8
0
 62
7
 10
7.073665142366441
 20
4.774259247147
 30
0
 11
7.07636514236644
 21
4.765259247147
 31
0
  0
LINE
  8
0
 62
7
 10
7.07636514236644
 20
4.765259247147
 30
0
 11
7.07636514236644
 21
4.753259247147
 31
0
  0
LINE
  8
0
 62
7
 10
7.07636514236644
 20
4.753259247147
 30
0
 11
7.073665142366441
 21
4.744259247147
 31
0
  0
LINE
  8
0
 62
7
 10
7.073665142366441
 20
4.744259247147
 30
0
 11
7.07096514236644
 21
4.738259247147
 31
0
  0
LINE
  8
0
 62
7
 10
7.07096514236644
 20
4.738259247147
 30
0
 11
7.062865142366441
 21
4.732259247147
 31
0
  0
LINE
  8
0
 62
7
 10
7.062865142366441
 20
4.732259247147
 30
0
 11
7.052065142366441
 21
4.729259247147001
 31
0
  0
LINE
  8
0
 62
7
 10
7.052065142366441
 20
4.729259247147001
 30
0
 11
7.00076514236644
 21
4.729259247147001
 31
0
  0
LINE
  8
0
 62
7
 10
7.00076514236644
 20
4.729259247147001
 30
0
 11
7.00076514236644
 21
4.789259247147
 31
0
  0
LINE
  8
0
 62
7
 10
7.097965142366441
 20
4.669259247147
 30
0
 11
7.097965142366441
 21
4.729259247147001
 31
0
  0
LINE
  8
0
 62
7
 10
7.097965142366441
 20
4.789259247147
 30
0
 11
7.14926514236644
 21
4.789259247147
 31
0
  0
LINE
  8
0
 62
7
 10
7.14926514236644
 20
4.789259247147
 30
0
 11
7.160065142366441
 21
4.786259247147
 31
0
  0
LINE
  8
0
 62
7
 10
7.160065142366441
 20
4.786259247147
 30
0
 11
7.168165142366441
 21
4.780259247147
 31
0
  0
LINE
  8
0
 62
7
 10
7.168165142366441
 20
4.780259247147
 30
0
 11
7.17086514236644
 21
4.774259247147
 31
0
  0
LINE
  8
0
 62
7
 10
7.17086514236644
 20
4.774259247147
 30
0
 11
7.173565142366441
 21
4.765259247147
 31
0
  0
LINE
  8
0
 62
7
 10
7.173565142366441
 20
4.765259247147
 30
0
 11
7.173565142366441
 21
4.753259247147
 31
0
  0
LINE
  8
0
 62
7
 10
7.173565142366441
 20
4.753259247147
 30
0
 11
7.17086514236644
 21
4.744259247147
 31
0
  0
LINE
  8
0
 62
7
 10
7.17086514236644
 20
4.744259247147
 30
0
 11
7.168165142366441
 21
4.738259247147
 31
0
  0
LINE
  8
0
 62
7
 10
7.168165142366441
 20
4.738259247147
 30
0
 11
7.160065142366441
 21
4.732259247147
 31
0
  0
LINE
  8
0
 62
7
 10
7.160065142366441
 20
4.732259247147
 30
0
 11
7.14926514236644
 21
4.729259247147001
 31
0
  0
LINE
  8
0
 62
7
 10
7.14926514236644
 20
4.729259247147001
 30
0
 11
7.097965142366441
 21
4.729259247147001
 31
0
  0
LINE
  8
0
 62
7
 10
7.097965142366441
 20
4.729259247147001
 30
0
 11
7.097965142366441
 21
4.789259247147
 31
0
  0
LINE
  8
0
 62
7
 10
7.27076514236644
 20
4.789259247147
 30
0
 11
7.195165142366442
 21
4.789259247147
 31
0
  0
LINE
  8
0
 62
7
 10
7.195165142366442
 20
4.789259247147
 30
0
 11
7.195165142366442
 21
4.729259247147001
 31
0
  0
LINE
  8
0
 62
7
 10
7.195165142366442
 20
4.669259247147
 30
0
 11
7.27076514236644
 21
4.669259247147
 31
0
  0
LINE
  8
0
 62
7
 10
7.259965142366442
 20
4.729259247147001
 30
0
 11
7.195165142366442
 21
4.729259247147001
 31
0
  0
LINE
  8
0
 62
7
 10
7.195165142366442
 20
4.729259247147001
 30
0
 11
7.195165142366442
 21
4.669259247147
 31
0
  0
LINE
  8
0
 62
7
 10
4.375
 20
2.88
 30
0
 11
4.375
 21
3
 31
0
  0
LINE
  8
0
 62
7
 10
4.450600000000001
 20
3
 30
0
 11
4.3966
 21
2.94
 31
0
  0
LINE
  8
0
 62
7
 10
4.3966
 20
2.94
 30
0
 11
4.450600000000001
 21
2.88
 31
0
  0
LINE
  8
0
 62
7
 10
4.3966
 20
2.94
 30
0
 11
4.375
 21
2.916
 31
0
  0
LINE
  8
0
 62
7
 10
4.483
 20
3
 30
0
 11
4.483
 21
2.94
 31
0
  0
LINE
  8
0
 62
7
 10
4.483
 20
2.94
 30
0
 11
4.558600000000001
 21
2.94
 31
0
  0
LINE
  8
0
 62
7
 10
4.558600000000001
 20
3
 30
0
 11
4.558600000000001
 21
2.94
 31
0
  0
LINE
  8
0
 62
7
 10
4.558600000000001
 20
2.94
 30
0
 11
4.558600000000001
 21
2.88
 31
0
  0
LINE
  8
0
 62
7
 10
4.483
 20
2.94
 30
0
 11
4.483
 21
2.88
 31
0
  0
LINE
  8
0
 62
7
 10
4.591
 20
3
 30
0
 11
4.6207
 21
2.88
 31
0
  0
LINE
  8
0
 62
7
 10
4.6207
 20
2.88
 30
0
 11
4.645
 21
3
 31
0
  0
LINE
  8
0
 62
7
 10
4.645
 20
3
 30
0
 11
4.669300000000002
 21
2.88
 31
0
  0
LINE
  8
0
 62
7
 10
4.669300000000002
 20
2.88
 30
0
 11
4.699000000000001
 21
3
 31
0
  0
LINE
  8
0
 62
7
 10
4.720600000000001
 20
2.982
 30
0
 11
4.726
 21
2.991
 31
0
  0
LINE
  8
0
 62
7
 10
4.726
 20
2.991
 30
0
 11
4.734100000000001
 21
2.997
 31
0
  0
LINE
  8
0
 62
7
 10
4.734100000000001
 20
2.997
 30
0
 11
4.744900000000001
 21
3
 31
0
  0
LINE
  8
0
 62
7
 10
4.744900000000001
 20
3
 30
0
 11
4.761100000000002
 21
3
 31
0
  0
LINE
  8
0
 62
7
 10
4.761100000000002
 20
3
 30
0
 11
4.771900000000001
 21
2.997
 31
0
  0
LINE
  8
0
 62
7
 10
4.771900000000001
 20
2.997
 30
0
 11
4.78
 21
2.991
 31
0
  0
LINE
  8
0
 62
7
 10
4.78
 20
2.991
 30
0
 11
4.785400000000001
 21
2.982
 31
0
  0
LINE
  8
0
 62
7
 10
4.785400000000001
 20
2.982
 30
0
 11
4.785400000000001
 21
2.97
 31
0
  0
LINE
  8
0
 62
7
 10
4.785400000000001
 20
2.97
 30
0
 11
4.78
 21
2.958
 31
0
  0
LINE
  8
0
 62
7
 10
4.78
 20
2.958
 30
0
 11
4.720600000000001
 21
2.88
 31
0
  0
LINE
  8
0
 62
7
 10
4.720600000000001
 20
2.88
 30
0
 11
4.785400000000001
 21
2.88
 31
0
  0
LINE
  8
0
 62
7
 10
4.8178
 20
2.97
 30
0
 11
4.8205
 21
2.982
 31
0
  0
LINE
  8
0
 62
7
 10
4.8205
 20
2.982
 30
0
 11
4.825900000000001
 21
2.991
 31
0
  0
LINE
  8
0
 62
7
 10
4.825900000000001
 20
2.991
 30
0
 11
4.834000000000001
 21
2.997
 31
0
  0
LINE
  8
0
 62
7
 10
4.834000000000001
 20
2.997
 30
0
 11
4.842099999999999
 21
3
 31
0
  0
LINE
  8
0
 62
7
 10
4.842099999999999
 20
3
 30
0
 11
4.858300000000001
 21
3
 31
0
  0
LINE
  8
0
 62
7
 10
4.858300000000001
 20
3
 30
0
 11
4.866400000000002
 21
2.997
 31
0
  0
LINE
  8
0
 62
7
 10
4.866400000000002
 20
2.997
 30
0
 11
4.874500000000001
 21
2.991
 31
0
  0
LINE
  8
0
 62
7
 10
4.874500000000001
 20
2.991
 30
0
 11
4.879900000000002
 21
2.982
 31
0
  0
LINE
  8
0
 62
7
 10
4.879900000000002
 20
2.982
 30
0
 11
4.882600000000001
 21
2.97
 31
0
  0
LINE
  8
0
 62
7
 10
4.882600000000001
 20
2.97
 30
0
 11
4.882600000000001
 21
2.91
 31
0
  0
LINE
  8
0
 62
7
 10
4.882600000000001
 20
2.91
 30
0
 11
4.879900000000002
 21
2.898
 31
0
  0
LINE
  8
0
 62
7
 10
4.879900000000002
 20
2.898
 30
0
 11
4.874500000000001
 21
2.889
 31
0
  0
LINE
  8
0
 62
7
 10
4.874500000000001
 20
2.889
 30
0
 11
4.866400000000002
 21
2.883
 31
0
  0
LINE
  8
0
 62
7
 10
4.866400000000002
 20
2.883
 30
0
 11
4.858300000000001
 21
2.88
 31
0
  0
LINE
  8
0
 62
7
 10
4.858300000000001
 20
2.88
 30
0
 11
4.842099999999999
 21
2.88
 31
0
  0
LINE
  8
0
 62
7
 10
4.842099999999999
 20
2.88
 30
0
 11
4.834000000000001
 21
2.883
 31
0
  0
LINE
  8
0
 62
7
 10
4.834000000000001
 20
2.883
 30
0
 11
4.825900000000001
 21
2.889
 31
0
  0
LINE
  8
0
 62
7
 10
4.825900000000001
 20
2.889
 30
0
 11
4.8205
 21
2.898
 31
0
  0
LINE
  8
0
 62
7
 10
4.8205
 20
2.898
 30
0
 11
4.8178
 21
2.91
 31
0
  0
LINE
  8
0
 62
7
 10
4.8178
 20
2.91
 30
0
 11
4.8178
 21
2.97
 31
0
  0
LINE
  8
0
 62
7
 10
4.915
 20
2.964
 30
0
 11
4.9474
 21
3
 31
0
  0
LINE
  8
0
 62
7
 10
4.9474
 20
3
 30
0
 11
4.9474
 21
2.88
 31
0
  0
LINE
  8
0
 62
7
 10
4.979800000000001
 20
2.88
 30
0
 11
4.979800000000001
 21
3
 31
0
  0
LINE
  8
0
 62
7
 10
4.979800000000001
 20
3
 30
0
 11
5.031100000000002
 21
3
 31
0
  0
LINE
  8
0
 62
7
 10
5.031100000000002
 20
3
 30
0
 11
5.041900000000002
 21
2.997
 31
0
  0
LINE
  8
0
 62
7
 10
5.041900000000002
 20
2.997
 30
0
 11
5.050000000000001
 21
2.991
 31
0
  0
LINE
  8
0
 62
7
 10
5.050000000000001
 20
2.991
 30
0
 11
5.052700000000001
 21
2.985
 31
0
  0
LINE
  8
0
 62
7
 10
5.052700000000001
 20
2.985
 30
0
 11
5.055400000000001
 21
2.976
 31
0
  0
LINE
  8
0
 62
7
 10
5.055400000000001
 20
2.976
 30
0
 11
5.055400000000001
 21
2.964
 31
0
  0
LINE
  8
0
 62
7
 10
5.055400000000001
 20
2.964
 30
0
 11
5.052700000000001
 21
2.955
 31
0
  0
LINE
  8
0
 62
7
 10
5.052700000000001
 20
2.955
 30
0
 11
5.050000000000001
 21
2.949
 31
0
  0
LINE
  8
0
 62
7
 10
5.050000000000001
 20
2.949
 30
0
 11
5.041900000000002
 21
2.943
 31
0
  0
LINE
  8
0
 62
7
 10
5.041900000000002
 20
2.943
 30
0
 11
5.031100000000002
 21
2.94
 31
0
  0
LINE
  8
0
 62
7
 10
5.031100000000002
 20
2.94
 30
0
 11
5.023000000000001
 21
2.94
 31
0
  0
LINE
  8
0
 62
7
 10
5.023000000000001
 20
2.94
 30
0
 11
5.055400000000001
 21
2.88
 31
0
  0
LINE
  8
0
 62
7
 10
5.023000000000001
 20
2.94
 30
0
 11
4.979800000000001
 21
2.94
 31
0
  0
LINE
  8
0
 62
7
 10
5.077000000000001
 20
2.982
 30
0
 11
5.0824
 21
2.991
 31
0
  0
LINE
  8
0
 62
7
 10
5.0824
 20
2.991
 30
0
 11
5.0905
 21
2.997
 31
0
  0
LINE
  8
0
 62
7
 10
5.0905
 20
2.997
 30
0
 11
5.101300000000002
 21
3
 31
0
  0
LINE
  8
0
 62
7
 10
5.101300000000002
 20
3
 30
0
 11
5.117500000000001
 21
3
 31
0
  0
LINE
  8
0
 62
7
 10
5.117500000000001
 20
3
 30
0
 11
5.125600000000001
 21
2.997
 31
0
  0
LINE
  8
0
 62
7
 10
5.125600000000001
 20
2.997
 30
0
 11
5.1337
 21
2.991
 31
0
  0
LINE
  8
0
 62
7
 10
5.1337
 20
2.991
 30
0
 11
5.139100000000001
 21
2.982
 31
0
  0
LINE
  8
0
 62
7
 10
5.139100000000001
 20
2.982
 30
0
 11
5.141800000000002
 21
2.97
 31
0
  0
LINE
  8
0
 62
7
 10
5.141800000000002
 20
2.97
 30
0
 11
5.141800000000002
 21
2.961
 31
0
  0
LINE
  8
0
 62
7
 10
5.141800000000002
 20
2.961
 30
0
 11
5.139100000000001
 21
2.952
 31
0
  0
LINE
  8
0
 62
7
 10
5.139100000000001
 20
2.952
 30
0
 11
5.1337
 21
2.946
 31
0
  0
LINE
  8
0
 62
7
 10
5.1337
 20
2.946
 30
0
 11
5.120200000000001
 21
2.94
 31
0
  0
LINE
  8
0
 62
7
 10
5.101300000000002
 20
2.94
 30
0
 11
5.120200000000001
 21
2.94
 31
0
  0
LINE
  8
0
 62
7
 10
5.120200000000001
 20
2.94
 30
0
 11
5.1337
 21
2.934
 31
0
  0
LINE
  8
0
 62
7
 10
5.1337
 20
2.934
 30
0
 11
5.139100000000001
 21
2.928
 31
0
  0
LINE
  8
0
 62
7
 10
5.139100000000001
 20
2.928
 30
0
 11
5.141800000000002
 21
2.919
 31
0
  0
LINE
  8
0
 62
7
 10
5.141800000000002
 20
2.919
 30
0
 11
5.141800000000002
 21
2.91
 31
0
  0
LINE
  8
0
 62
7
 10
5.141800000000002
 20
2.91
 30
0
 11
5.139100000000001
 21
2.898
 31
0
  0
LINE
  8
0
 62
7
 10
5.139100000000001
 20
2.898
 30
0
 11
5.1337
 21
2.889
 31
0
  0
LINE
  8
0
 62
7
 10
5.1337
 20
2.889
 30
0
 11
5.125600000000001
 21
2.883
 31
0
  0
LINE
  8
0
 62
7
 10
5.125600000000001
 20
2.883
 30
0
 11
5.117500000000001
 21
2.88
 31
0
  0
LINE
  8
0
 62
7
 10
5.117500000000001
 20
2.88
 30
0
 11
5.101300000000002
 21
2.88
 31
0
  0
LINE
  8
0
 62
7
 10
5.101300000000002
 20
2.88
 30
0
 11
5.0905
 21
2.883
 31
0
  0
LINE
  8
0
 62
7
 10
5.0905
 20
2.883
 30
0
 11
5.0824
 21
2.889
 31
0
  0
LINE
  8
0
 62
7
 10
5.0824
 20
2.889
 30
0
 11
5.077000000000001
 21
2.898
 31
0
  0
LINE
  8
0
 62
7
 10
6.875
 20
2.88
 30
0
 11
6.875
 21
2.98
 31
0
  0
LINE
  8
0
 62
7
 10
6.875
 20
2.98
 30
0
 11
6.938000000000001
 21
2.88
 31
0
  0
LINE
  8
0
 62
7
 10
6.938000000000001
 20
2.88
 30
0
 11
6.938000000000001
 21
2.98
 31
0
  0
LINE
  8
0
 62
7
 10
7.019000000000002
 20
2.88
 30
0
 11
6.965000000000001
 21
2.88
 31
0
  0
LINE
  8
0
 62
7
 10
6.965000000000001
 20
2.88
 30
0
 11
6.965000000000001
 21
2.98
 31
0
  0
LINE
  8
0
 62
7
 10
7.046000000000001
 20
2.93
 30
0
 11
7.082000000000001
 21
2.93
 31
0
  0
LINE
  8
0
 62
7
 10
7.082000000000001
 20
2.93
 30
0
 11
7.086500000000001
 21
2.93
 31
0
  0
LINE
  8
0
 62
7
 10
7.086500000000001
 20
2.93
 30
0
 11
7.095500000000001
 21
2.925
 31
0
  0
LINE
  8
0
 62
7
 10
7.095500000000001
 20
2.925
 30
0
 11
7.100000000000001
 21
2.92
 31
0
  0
LINE
  8
0
 62
7
 10
7.100000000000001
 20
2.92
 30
0
 11
7.104500000000001
 21
2.91
 31
0
  0
LINE
  8
0
 62
7
 10
7.104500000000001
 20
2.91
 30
0
 11
7.104500000000001
 21
2.9
 31
0
  0
LINE
  8
0
 62
7
 10
7.104500000000001
 20
2.9
 30
0
 11
7.100000000000001
 21
2.890000000000001
 31
0
  0
LINE
  8
0
 62
7
 10
7.100000000000001
 20
2.890000000000001
 30
0
 11
7.095500000000001
 21
2.885
 31
0
  0
LINE
  8
0
 62
7
 10
7.095500000000001
 20
2.885
 30
0
 11
7.086500000000001
 21
2.88
 31
0
  0
LINE
  8
0
 62
7
 10
7.086500000000001
 20
2.88
 30
0
 11
7.046000000000001
 21
2.88
 31
0
  0
LINE
  8
0
 62
7
 10
7.046000000000001
 20
2.88
 30
0
 11
7.046000000000001
 21
2.93
 31
0
  0
LINE
  8
0
 62
7
 10
7.046000000000001
 20
2.98
 30
0
 11
7.079750000000001
 21
2.98
 31
0
  0
LINE
  8
0
 62
7
 10
7.079750000000001
 20
2.98
 30
0
 11
7.091
 21
2.9775
 31
0
  0
LINE
  8
0
 62
7
 10
7.091
 20
2.9775
 30
0
 11
7.097750000000001
 21
2.97
 31
0
  0
LINE
  8
0
 62
7
 10
7.097750000000001
 20
2.97
 30
0
 11
7.100000000000001
 21
2.96
 31
0
  0
LINE
  8
0
 62
7
 10
7.100000000000001
 20
2.96
 30
0
 11
7.100000000000001
 21
2.95
 31
0
  0
LINE
  8
0
 62
7
 10
7.100000000000001
 20
2.95
 30
0
 11
7.095500000000001
 21
2.94
 31
0
  0
LINE
  8
0
 62
7
 10
7.095500000000001
 20
2.94
 30
0
 11
7.088750000000001
 21
2.9325
 31
0
  0
LINE
  8
0
 62
7
 10
7.088750000000001
 20
2.9325
 30
0
 11
7.082000000000001
 21
2.93
 31
0
  0
LINE
  8
0
 62
7
 10
7.046000000000001
 20
2.93
 30
0
 11
7.046000000000001
 21
2.98
 31
0
  0
LINE
  8
0
 62
7
 10
7.246250000000001
 20
2.9325
 30
0
 11
7.2395
 21
2.9425
 31
0
  0
LINE
  8
0
 62
7
 10
7.2395
 20
2.9425
 30
0
 11
7.232750000000002
 21
2.9475
 31
0
  0
LINE
  8
0
 62
7
 10
7.232750000000002
 20
2.9475
 30
0
 11
7.226000000000001
 21
2.95
 31
0
  0
LINE
  8
0
 62
7
 10
7.226000000000001
 20
2.95
 30
0
 11
7.217000000000001
 21
2.95
 31
0
  0
LINE
  8
0
 62
7
 10
7.217000000000001
 20
2.95
 30
0
 11
7.210250000000001
 21
2.9475
 31
0
  0
LINE
  8
0
 62
7
 10
7.210250000000001
 20
2.9475
 30
0
 11
7.2035
 21
2.9425
 31
0
  0
LINE
  8
0
 62
7
 10
7.2035
 20
2.9425
 30
0
 11
7.196750000000002
 21
2.9325
 31
0
  0
LINE
  8
0
 62
7
 10
7.196750000000002
 20
2.9325
 30
0
 11
7.194500000000001
 21
2.925
 31
0
  0
LINE
  8
0
 62
7
 10
7.194500000000001
 20
2.925
 30
0
 11
7.194500000000001
 21
2.905
 31
0
  0
LINE
  8
0
 62
7
 10
7.194500000000001
 20
2.905
 30
0
 11
7.196750000000002
 21
2.8975
 31
0
  0
LINE
  8
0
 62
7
 10
7.196750000000002
 20
2.8975
 30
0
 11
7.2035
 21
2.8875
 31
0
  0
LINE
  8
0
 62
7
 10
7.2035
 20
2.8875
 30
0
 11
7.210250000000001
 21
2.8825
 31
0
  0
LINE
  8
0
 62
7
 10
7.210250000000001
 20
2.8825
 30
0
 11
7.217000000000001
 21
2.88
 31
0
  0
LINE
  8
0
 62
7
 10
7.217000000000001
 20
2.88
 30
0
 11
7.226000000000001
 21
2.88
 31
0
  0
LINE
  8
0
 62
7
 10
7.226000000000001
 20
2.88
 30
0
 11
7.232750000000002
 21
2.8825
 31
0
  0
LINE
  8
0
 62
7
 10
7.232750000000002
 20
2.8825
 30
0
 11
7.2395
 21
2.8875
 31
0
  0
LINE
  8
0
 62
7
 10
7.2395
 20
2.8875
 30
0
 11
7.246250000000001
 21
2.8975
 31
0
  0
LINE
  8
0
 62
7
 10
7.318250000000001
 20
2.925
 30
0
 11
7.316
 21
2.9325
 31
0
  0
LINE
  8
0
 62
7
 10
7.316
 20
2.9325
 30
0
 11
7.309250000000002
 21
2.9425
 31
0
  0
LINE
  8
0
 62
7
 10
7.309250000000002
 20
2.9425
 30
0
 11
7.302500000000001
 21
2.9475
 31
0
  0
LINE
  8
0
 62
7
 10
7.302500000000001
 20
2.9475
 30
0
 11
7.29575
 21
2.95
 31
0
  0
LINE
  8
0
 62
7
 10
7.29575
 20
2.95
 30
0
 11
7.286750000000001
 21
2.95
 31
0
  0
LINE
  8
0
 62
7
 10
7.286750000000001
 20
2.95
 30
0
 11
7.28
 21
2.9475
 31
0
  0
LINE
  8
0
 62
7
 10
7.28
 20
2.9475
 30
0
 11
7.273250000000001
 21
2.9425
 31
0
  0
LINE
  8
0
 62
7
 10
7.273250000000001
 20
2.9425
 30
0
 11
7.266500000000001
 21
2.9325
 31
0
  0
LINE
  8
0
 62
7
 10
7.266500000000001
 20
2.9325
 30
0
 11
7.264250000000001
 21
2.925
 31
0
  0
LINE
  8
0
 62
7
 10
7.264250000000001
 20
2.925
 30
0
 11
7.264250000000001
 21
2.905
 31
0
  0
LINE
  8
0
 62
7
 10
7.264250000000001
 20
2.905
 30
0
 11
7.266500000000001
 21
2.8975
 31
0
  0
LINE
  8
0
 62
7
 10
7.266500000000001
 20
2.8975
 30
0
 11
7.273250000000001
 21
2.8875
 31
0
  0
LINE
  8
0
 62
7
 10
7.273250000000001
 20
2.8875
 30
0
 11
7.28
 21
2.8825
 31
0
  0
LINE
  8
0
 62
7
 10
7.28
 20
2.8825
 30
0
 11
7.286750000000001
 21
2.88
 31
0
  0
LINE
  8
0
 62
7
 10
7.286750000000001
 20
2.88
 30
0
 11
7.29575
 21
2.88
 31
0
  0
LINE
  8
0
 62
7
 10
7.29575
 20
2.88
 30
0
 11
7.302500000000001
 21
2.8825
 31
0
  0
LINE
  8
0
 62
7
 10
7.302500000000001
 20
2.8825
 30
0
 11
7.309250000000002
 21
2.8875
 31
0
  0
LINE
  8
0
 62
7
 10
7.309250000000002
 20
2.8875
 30
0
 11
7.316
 21
2.8975
 31
0
  0
LINE
  8
0
 62
7
 10
7.316
 20
2.8975
 30
0
 11
7.318250000000001
 21
2.905
 31
0
  0
LINE
  8
0
 62
7
 10
7.318250000000001
 20
2.95
 30
0
 11
7.318250000000001
 21
2.925
 31
0
  0
LINE
  8
0
 62
7
 10
7.318250000000001
 20
2.8825
 30
0
 11
7.320500000000002
 21
2.88
 31
0
  0
LINE
  8
0
 62
7
 10
7.320500000000002
 20
2.88
 30
0
 11
7.322750000000001
 21
2.88
 31
0
  0
LINE
  8
0
 62
7
 10
7.318250000000001
 20
2.905
 30
0
 11
7.318250000000001
 21
2.8825
 31
0
  0
LINE
  8
0
 62
7
 10
7.318250000000001
 20
2.925
 30
0
 11
7.318250000000001
 21
2.905
 31
0
  0
LINE
  8
0
 62
7
 10
7.34075
 20
2.88
 30
0
 11
7.34075
 21
2.8825
 31
0
  0
LINE
  8
0
 62
7
 10
7.34075
 20
2.8825
 30
0
 11
7.343000000000001
 21
2.8825
 31
0
  0
LINE
  8
0
 62
7
 10
7.343000000000001
 20
2.8825
 30
0
 11
7.343000000000001
 21
2.88
 31
0
  0
LINE
  8
0
 62
7
 10
7.343000000000001
 20
2.88
 30
0
 11
7.34075
 21
2.88
 31
0
  0
LINE
  8
0
 62
7
 10
7.466750000000001
 20
2.98
 30
0
 11
7.475750000000001
 21
2.98
 31
0
  0
LINE
  8
0
 62
7
 10
7.475750000000001
 20
2.98
 30
0
 11
7.482500000000001
 21
2.9775
 31
0
  0
LINE
  8
0
 62
7
 10
7.482500000000001
 20
2.9775
 30
0
 11
7.487000000000001
 21
2.9725
 31
0
  0
LINE
  8
0
 62
7
 10
7.487000000000001
 20
2.9725
 30
0
 11
7.491500000000001
 21
2.965
 31
0
  0
LINE
  8
0
 62
7
 10
7.491500000000001
 20
2.965
 30
0
 11
7.491500000000001
 21
2.955
 31
0
  0
LINE
  8
0
 62
7
 10
7.491500000000001
 20
2.955
 30
0
 11
7.489250000000002
 21
2.95
 31
0
  0
LINE
  8
0
 62
7
 10
7.489250000000002
 20
2.95
 30
0
 11
7.482500000000001
 21
2.9425
 31
0
  0
LINE
  8
0
 62
7
 10
7.482500000000001
 20
2.9425
 30
0
 11
7.475750000000001
 21
2.94
 31
0
  0
LINE
  8
0
 62
7
 10
7.475750000000001
 20
2.94
 30
0
 11
7.466750000000001
 21
2.94
 31
0
  0
LINE
  8
0
 62
7
 10
7.466750000000001
 20
2.94
 30
0
 11
7.460000000000001
 21
2.9425
 31
0
  0
LINE
  8
0
 62
7
 10
7.460000000000001
 20
2.9425
 30
0
 11
7.453250000000001
 21
2.95
 31
0
  0
LINE
  8
0
 62
7
 10
7.453250000000001
 20
2.95
 30
0
 11
7.451000000000001
 21
2.955
 31
0
  0
LINE
  8
0
 62
7
 10
7.451000000000001
 20
2.955
 30
0
 11
7.451000000000001
 21
2.965
 31
0
  0
LINE
  8
0
 62
7
 10
7.451000000000001
 20
2.965
 30
0
 11
7.455500000000001
 21
2.9725
 31
0
  0
LINE
  8
0
 62
7
 10
7.455500000000001
 20
2.9725
 30
0
 11
7.460000000000001
 21
2.9775
 31
0
  0
LINE
  8
0
 62
7
 10
7.460000000000001
 20
2.9775
 30
0
 11
7.466750000000001
 21
2.98
 31
0
  0
LINE
  8
0
 62
7
 10
7.466750000000001
 20
2.94
 30
0
 11
7.455500000000001
 21
2.935
 31
0
  0
LINE
  8
0
 62
7
 10
7.455500000000001
 20
2.935
 30
0
 11
7.44875
 21
2.9275
 31
0
  0
LINE
  8
0
 62
7
 10
7.44875
 20
2.9275
 30
0
 11
7.444250000000001
 21
2.9175
 31
0
  0
LINE
  8
0
 62
7
 10
7.444250000000001
 20
2.9175
 30
0
 11
7.444250000000001
 21
2.9025
 31
0
  0
LINE
  8
0
 62
7
 10
7.444250000000001
 20
2.9025
 30
0
 11
7.44875
 21
2.8925
 31
0
  0
LINE
  8
0
 62
7
 10
7.44875
 20
2.8925
 30
0
 11
7.455500000000001
 21
2.885
 31
0
  0
LINE
  8
0
 62
7
 10
7.455500000000001
 20
2.885
 30
0
 11
7.4645
 21
2.88
 31
0
  0
LINE
  8
0
 62
7
 10
7.4645
 20
2.88
 30
0
 11
7.478000000000002
 21
2.88
 31
0
  0
LINE
  8
0
 62
7
 10
7.478000000000002
 20
2.88
 30
0
 11
7.487000000000001
 21
2.885
 31
0
  0
LINE
  8
0
 62
7
 10
7.487000000000001
 20
2.885
 30
0
 11
7.49375
 21
2.8925
 31
0
  0
LINE
  8
0
 62
7
 10
7.49375
 20
2.8925
 30
0
 11
7.498250000000001
 21
2.9025
 31
0
  0
LINE
  8
0
 62
7
 10
7.498250000000001
 20
2.9025
 30
0
 11
7.498250000000001
 21
2.9175
 31
0
  0
LINE
  8
0
 62
7
 10
7.498250000000001
 20
2.9175
 30
0
 11
7.49375
 21
2.9275
 31
0
  0
LINE
  8
0
 62
7
 10
7.49375
 20
2.9275
 30
0
 11
7.487000000000001
 21
2.935
 31
0
  0
LINE
  8
0
 62
7
 10
7.487000000000001
 20
2.935
 30
0
 11
7.475750000000001
 21
2.94
 31
0
  0
LINE
  8
0
 62
7
 10
7.534250000000002
 20
2.965
 30
0
 11
7.53875
 21
2.9725
 31
0
  0
LINE
  8
0
 62
7
 10
7.53875
 20
2.9725
 30
0
 11
7.545500000000001
 21
2.9775
 31
0
  0
LINE
  8
0
 62
7
 10
7.545500000000001
 20
2.9775
 30
0
 11
7.554500000000001
 21
2.98
 31
0
  0
LINE
  8
0
 62
7
 10
7.554500000000001
 20
2.98
 30
0
 11
7.568000000000001
 21
2.98
 31
0
  0
LINE
  8
0
 62
7
 10
7.568000000000001
 20
2.98
 30
0
 11
7.574750000000001
 21
2.9775
 31
0
  0
LINE
  8
0
 62
7
 10
7.574750000000001
 20
2.9775
 30
0
 11
7.581500000000002
 21
2.9725
 31
0
  0
LINE
  8
0
 62
7
 10
7.581500000000002
 20
2.9725
 30
0
 11
7.586
 21
2.965
 31
0
  0
LINE
  8
0
 62
7
 10
7.586
 20
2.965
 30
0
 11
7.588250000000001
 21
2.955
 31
0
  0
LINE
  8
0
 62
7
 10
7.588250000000001
 20
2.955
 30
0
 11
7.588250000000001
 21
2.9475
 31
0
  0
LINE
  8
0
 62
7
 10
7.588250000000001
 20
2.9475
 30
0
 11
7.586
 21
2.94
 31
0
  0
LINE
  8
0
 62
7
 10
7.586
 20
2.94
 30
0
 11
7.581500000000002
 21
2.935
 31
0
  0
LINE
  8
0
 62
7
 10
7.581500000000002
 20
2.935
 30
0
 11
7.570250000000001
 21
2.93
 31
0
  0
LINE
  8
0
 62
7
 10
7.554500000000001
 20
2.93
 30
0
 11
7.570250000000001
 21
2.93
 31
0
  0
LINE
  8
0
 62
7
 10
7.570250000000001
 20
2.93
 30
0
 11
7.581500000000002
 21
2.925
 31
0
  0
LINE
  8
0
 62
7
 10
7.581500000000002
 20
2.925
 30
0
 11
7.586
 21
2.92
 31
0
  0
LINE
  8
0
 62
7
 10
7.586
 20
2.92
 30
0
 11
7.588250000000001
 21
2.9125
 31
0
  0
LINE
  8
0
 62
7
 10
7.588250000000001
 20
2.9125
 30
0
 11
7.588250000000001
 21
2.905
 31
0
  0
LINE
  8
0
 62
7
 10
7.588250000000001
 20
2.905
 30
0
 11
7.586
 21
2.895
 31
0
  0
LINE
  8
0
 62
7
 10
7.586
 20
2.895
 30
0
 11
7.581500000000002
 21
2.8875
 31
0
  0
LINE
  8
0
 62
7
 10
7.581500000000002
 20
2.8875
 30
0
 11
7.574750000000001
 21
2.8825
 31
0
  0
LINE
  8
0
 62
7
 10
7.574750000000001
 20
2.8825
 30
0
 11
7.568000000000001
 21
2.88
 31
0
  0
LINE
  8
0
 62
7
 10
7.568000000000001
 20
2.88
 30
0
 11
7.554500000000001
 21
2.88
 31
0
  0
LINE
  8
0
 62
7
 10
7.554500000000001
 20
2.88
 30
0
 11
7.545500000000001
 21
2.8825
 31
0
  0
LINE
  8
0
 62
7
 10
7.545500000000001
 20
2.8825
 30
0
 11
7.53875
 21
2.8875
 31
0
  0
LINE
  8
0
 62
7
 10
7.53875
 20
2.8875
 30
0
 11
7.534250000000002
 21
2.895
 31
0
  0
LINE
  8
0
 62
7
 10
7.739000000000002
 20
2.9325
 30
0
 11
7.732250000000001
 21
2.9425
 31
0
  0
LINE
  8
0
 62
7
 10
7.732250000000001
 20
2.9425
 30
0
 11
7.725500000000001
 21
2.9475
 31
0
  0
LINE
  8
0
 62
7
 10
7.725500000000001
 20
2.9475
 30
0
 11
7.71875
 21
2.95
 31
0
  0
LINE
  8
0
 62
7
 10
7.71875
 20
2.95
 30
0
 11
7.70975
 21
2.95
 31
0
  0
LINE
  8
0
 62
7
 10
7.70975
 20
2.95
 30
0
 11
7.703000000000002
 21
2.9475
 31
0
  0
LINE
  8
0
 62
7
 10
7.703000000000002
 20
2.9475
 30
0
 11
7.696250000000001
 21
2.9425
 31
0
  0
LINE
  8
0
 62
7
 10
7.696250000000001
 20
2.9425
 30
0
 11
7.6895
 21
2.9325
 31
0
  0
LINE
  8
0
 62
7
 10
7.6895
 20
2.9325
 30
0
 11
7.687250000000001
 21
2.925
 31
0
  0
LINE
  8
0
 62
7
 10
7.687250000000001
 20
2.925
 30
0
 11
7.687250000000001
 21
2.905
 31
0
  0
LINE
  8
0
 62
7
 10
7.687250000000001
 20
2.905
 30
0
 11
7.6895
 21
2.8975
 31
0
  0
LINE
  8
0
 62
7
 10
7.6895
 20
2.8975
 30
0
 11
7.696250000000001
 21
2.8875
 31
0
  0
LINE
  8
0
 62
7
 10
7.696250000000001
 20
2.8875
 30
0
 11
7.703000000000002
 21
2.8825
 31
0
  0
LINE
  8
0
 62
7
 10
7.703000000000002
 20
2.8825
 30
0
 11
7.70975
 21
2.88
 31
0
  0
LINE
  8
0
 62
7
 10
7.70975
 20
2.88
 30
0
 11
7.71875
 21
2.88
 31
0
  0
LINE
  8
0
 62
7
 10
7.71875
 20
2.88
 30
0
 11
7.725500000000001
 21
2.8825
 31
0
  0
LINE
  8
0
 62
7
 10
7.725500000000001
 20
2.8825
 30
0
 11
7.732250000000001
 21
2.8875
 31
0
  0
LINE
  8
0
 62
7
 10
7.732250000000001
 20
2.8875
 30
0
 11
7.739000000000002
 21
2.8975
 31
0
  0
LINE
  8
0
 62
7
 10
7.797500000000001
 20
2.925
 30
0
 11
7.797500000000001
 21
2.88
 31
0
  0
LINE
  8
0
 62
7
 10
7.757000000000001
 20
2.95
 30
0
 11
7.757000000000001
 21
2.925
 31
0
  0
LINE
  8
0
 62
7
 10
7.757000000000001
 20
2.88
 30
0
 11
7.757000000000001
 21
2.925
 31
0
  0
LINE
  8
0
 62
7
 10
7.757000000000001
 20
2.925
 30
0
 11
7.759250000000002
 21
2.9375
 31
0
  0
LINE
  8
0
 62
7
 10
7.759250000000002
 20
2.9375
 30
0
 11
7.761500000000002
 21
2.9425
 31
0
  0
LINE
  8
0
 62
7
 10
7.761500000000002
 20
2.9425
 30
0
 11
7.766
 21
2.9475
 31
0
  0
LINE
  8
0
 62
7
 10
7.766
 20
2.9475
 30
0
 11
7.772750000000001
 21
2.95
 31
0
  0
LINE
  8
0
 62
7
 10
7.772750000000001
 20
2.95
 30
0
 11
7.781750000000001
 21
2.95
 31
0
  0
LINE
  8
0
 62
7
 10
7.781750000000001
 20
2.95
 30
0
 11
7.788500000000001
 21
2.9475
 31
0
  0
LINE
  8
0
 62
7
 10
7.788500000000001
 20
2.9475
 30
0
 11
7.793000000000001
 21
2.9425
 31
0
  0
LINE
  8
0
 62
7
 10
7.793000000000001
 20
2.9425
 30
0
 11
7.795250000000002
 21
2.9375
 31
0
  0
LINE
  8
0
 62
7
 10
7.795250000000002
 20
2.9375
 30
0
 11
7.797500000000001
 21
2.925
 31
0
  0
LINE
  8
0
 62
7
 10
7.797500000000001
 20
2.925
 30
0
 11
7.79975
 21
2.9375
 31
0
  0
LINE
  8
0
 62
7
 10
7.79975
 20
2.9375
 30
0
 11
7.802
 21
2.9425
 31
0
  0
LINE
  8
0
 62
7
 10
7.802
 20
2.9425
 30
0
 11
7.806500000000002
 21
2.9475
 31
0
  0
LINE
  8
0
 62
7
 10
7.806500000000002
 20
2.9475
 30
0
 11
7.813250000000001
 21
2.95
 31
0
  0
LINE
  8
0
 62
7
 10
7.813250000000001
 20
2.95
 30
0
 11
7.82225
 21
2.95
 31
0
  0
LINE
  8
0
 62
7
 10
7.82225
 20
2.95
 30
0
 11
7.829000000000001
 21
2.9475
 31
0
  0
LINE
  8
0
 62
7
 10
7.833500000000001
 20
2.9425
 30
0
 11
7.829000000000001
 21
2.9475
 31
0
  0
LINE
  8
0
 62
7
 10
7.829000000000001
 20
2.9475
 30
0
 11
7.833500000000001
 21
2.9425
 31
0
  0
LINE
  8
0
 62
7
 10
7.833500000000001
 20
2.9425
 30
0
 11
7.835750000000001
 21
2.9375
 31
0
  0
LINE
  8
0
 62
7
 10
7.835750000000001
 20
2.9375
 30
0
 11
7.838000000000001
 21
2.925
 31
0
  0
LINE
  8
0
 62
7
 10
7.838000000000001
 20
2.925
 30
0
 11
7.838000000000001
 21
2.88
 31
0
  0
ARC
  8
0
 62
7
 10
6.4804109272727
 20
4.045410927272671
 30
0
 40
0.4529999999999966
 50
359.9480221544241
 51
90.05197784192958
  0
ARC
  8
0
 62
7
 10
6.359589072727291
 20
4.045410927272701
 30
0
 40
0.4529999999999961
 50
89.94802215462525
 51
180.0519778476415
  0
CIRCLE
  8
0
 62
7
 10
5.90658925913312
 20
3.24
 30
0
 40
0.05999999999999961
  0
DIMENSION
  8
0
  6
CONTINUOUS
 62
7
  2
*D0
  3
DMST_1
 10
8.01091545733266
 20
4.990000000000001
 30
0
 11
8.01091545733266
 21
4.21433775506728
 31
0
 12
0
 22
0
 32
0
 70
0
 13
7.600000000000001
 23
3.340000000000002
 33
0
 14
7.600000000000001
 24
4.990000000000002
 34
0
 50
90
 53
0
  0
DIMENSION
  8
0
  6
CONTINUOUS
 62
7
  2
*D1
  3
DMST_1
 10
7.425000000000001
 20
5.90871502640096
 30
0
 11
6.4680678606711
 21
5.90871502640096
 31
0
 12
0
 22
0
 32
0
 70
0
 13
5.414999999999999
 23
5.51
 33
0
 14
7.425000000000001
 24
5.51
 34
0
 53
0
  0
DIMENSION
  8
0
  6
CONTINUOUS
 62
7
  2
*D2
  3
DMST_1
 10
4.87011856412877
 20
3.24
 30
0
 11
4.87011856412877
 21
4.062808080395171
 31
0
 12
0
 22
0
 32
0
 70
0
 13
5.239999999999999
 23
4.990000000000002
 33
0
 14
5.239999999999999
 24
3.24
 34
0
 50
90
 53
0
  0
DIMENSION
  8
0
  6
CONTINUOUS
 62
7
  2
*D3
  3
DMST_2
 10
7.425000000000001
 20
11.5841901141203
 30
0
 11
6.49561871061148
 21
11.5841901141203
 31
0
 12
0
 22
0
 32
0
 70
0
 13
5.415
 23
11.2
 33
0
 14
7.425000000000001
 24
11.2
 34
0
 53
0
  0
INSERT
  8
0
  2
*D4
 10
0
 20
0
 30
0
  0
ENDSEC
  0
EOF
