  0
SECTION
  2
HEADER
  9
$ACADVER
  1
AC1009
  9
$INSBASE
 10
0
 20
0
  9
$EXTMIN
 10
0.5322362120308911
 20
2.890000000000001
  9
$EXTMAX
 10
8.250000000000005
 20
11.5410419416056
  9
$LIMMIN
 10
0.5322362120308911
 20
2.890000000000001
  9
$LIMMAX
 10
8.250000000000005
 20
11.5410419416056
  9
$VIEWCTR
 10
10
 20
10
  9
$VIEWSIZE
 40
10
  9
$SNAPMODE
 70
0
  9
$SNAPUNIT
 10
1
 20
1
  9
$SNAPBASE
 10
0
 20
0
  9
$SNAPANG
 50
0
  9
$SNAPSTYLE
 70
0
  9
$SNAPISOPAIR
 70
0
  9
$GRIDMODE
 70
0
  9
$GRIDUNIT
 10
0
 20
0
  9
$ORTHOMODE
 70
0
  9
$REGENMODE
 70
1
  9
$FILLMODE
 70
1
  9
$QTEXTMODE
 70
0
  9
$DRAGMODE
 70
2
  9
$LTSCALE
 40
1
  9
$OSMODE
 70
0
  9
$ATTMODE
 70
1
  9
$TEXTSIZE
 40
3.5
  9
$TRACEWID
 40
0.5
  9
$TEXTSTYLE
  7
STANDARD
  9
$CLAYER
  8
0
  9
$CELTYPE
  6
BYLAYER
  9
$CECOLOR
 62
256
  9
$DIMSCALE
 40
1
  9
$DIMASZ
 40
0.18
  9
$DIMEXO
 40
0.0625
  9
$DIMDLI
 40
0.38
  9
$DIMRND
 40
0
  9
$DIMDLE
 40
0
  9
$DIMEXE
 40
0.18
  9
$DIMTP
 40
0
  9
$DIMTM
 40
0
  9
$DIMTXT
 40
0.18
  9
$DIMCEN
 40
0.09
  9
$DIMTSZ
 40
0
  9
$DIMTOL
 70
0
  9
$DIMLIM
 70
0
  9
$DIMTIH
 70
1
  9
$DIMTOH
 70
1
  9
$DIMSE1
 70
0
  9
$DIMSE2
 70
0
  9
$DIMTAD
 70
0
  9
$DIMZIN
 70
0
  9
$DIMBLK
  1

  9
$DIMASO
 70
1
  9
$DIMSHO
 70
1
  9
$DIMPOST
  1

  9
$DIMAPOST
  1

  9
$DIMALT
 70
0
  9
$DIMALTD
 70
2
  9
$DIMALTF
 40
25.4
  9
$DIMLFAC
 40
1
  9
$DIMTOFL
 70
0
  9
$DIMTVP
 40
0
  9
$DIMTIX
 70
0
  9
$DIMSOXD
 70
0
  9
$DIMSAH
 70
0
  9
$DIMBLK1
  1

  9
$DIMBLK2
  1

  9
$DIMSTYLE
  2
*UNNAMED
  9
$DIMCLRD
 70
0
  9
$DIMCLRE
 70
0
  9
$DIMCLRT
 70
0
  9
$DIMTFAC
 40
1
  9
$DIMGAP
 40
0.09
  9
$LUNITS
 70
2
  9
$LUPREC
 70
4
  9
$AXISMODE
 70
0
  9
$AXISUNIT
 10
0
 20
0
  9
$SKETCHINC
 40
0.1
  9
$FILLETRAD
 40
2
  9
$AUNITS
 70
0
  9
$AUPREC
 70
0
  9
$MENU
  1
ACAD
  9
$ELEVATION
 40
0
  9
$THICKNESS
 40
0
  9
$VIEWDIR
 10
0
 20
0
 30
1
  9
$LIMCHECK
 70
0
  9
$BLIPMODE
 70
1
  9
$CHAMFERA
 40
0
  9
$CHAMFERB
 40
0
  9
$FASTZOOM
 70
1
  9
$SKPOLY
 70
0
  9
$ANGBASE
 50
0
  9
$ANGDIR
 70
0
  9
$PDMODE
 70
0
  9
$PDSIZE
 40
0
  9
$PLINEWID
 40
0
  9
$COORDS
 70
2
  0
ENDSEC
  0
SECTION
  2
TABLES
  0
TABLE
  2
DIMSTYLE
 70
2
  0
DIMSTYLE
  2
DMST_1
 70
0
  3

  4

  5

  6

  7

 40
1
 41
0.1
 42
0
 43
0.7
 44
0.2
 45
0
 46
0
 47
0
 48
0
140
0.1
141
0
142
0.1
143
25.4
144
1
145
0
146
1
147
0.25
 71
0
 72
0
 73
0
 74
0
 75
0
 76
0
 77
0
 78
9
170
0
171
2
172
0
173
0
174
0
175
0
176
7
177
7
178
7
  0
DIMSTYLE
  2
DMST_2
 70
0
  3

  4

  5

  6

  7

 40
1
 41
0.1
 42
0
 43
0.7
 44
0.2
 45
0
 46
0
 47
0
 48
0
140
0.1
141
0
142
0.1
143
25.4
144
1
145
0
146
1
147
0.2
 71
0
 72
0
 73
0
 74
0
 75
0
 76
0
 77
0
 78
9
170
0
171
2
172
0
173
0
174
0
175
0
176
7
177
7
178
7
  0
ENDTAB
  0
TABLE
  2
LTYPE
 70
9
  0
LTYPE
  2
CONTINUOUS
 70
64
  3
Solid line
 72
65
 73
0
 40
0
  0
LTYPE
  2
BORDER
 70
64
  3
__ __ . __ __ .
 72
65
 73
6
 40
0.3984032473107842
 49
0.1138294992316526
 49
-0.05691474961582631
 49
0.1138294992316526
 49
-0.05691474961582631
 49
0
 49
-0.05691474961582631
  0
LTYPE
  2
CENTER
 70
64
  3
____ _ ____ _
 72
65
 73
4
 40
0.4553179969266105
 49
0.2845737480791315
 49
-0.05691474961582631
 49
0.05691474961582631
 49
-0.05691474961582631
  0
LTYPE
  2
DASHDOT
 70
64
  3
__ . __ . __ .
 72
65
 73
4
 40
0.2276589984633053
 49
0.1138294992316526
 49
-0.05691474961582631
 49
0
 49
-0.05691474961582631
  0
LTYPE
  2
DASHED
 70
64
  3
__ __ __ __ __
 72
65
 73
2
 40
0.1707442488474789
 49
0.1138294992316526
 49
-0.05691474961582631
  0
LTYPE
  2
DIVIDE
 70
64
  3
__ . . __ . . 
 72
65
 73
6
 40
0.2845737480791315
 49
0.1138294992316526
 49
-0.05691474961582631
 49
0
 49
-0.05691474961582631
 49
0
 49
-0.05691474961582631
  0
LTYPE
  2
DOT
 70
64
  3
..............
 72
65
 73
4
 40
0.1138294992316526
 49
0
 49
-0.05691474961582631
 49
0
 49
-0.05691474961582631
  0
LTYPE
  2
HIDDEN
 70
64
  3
_ _ _ _ _ _ _
 72
65
 73
2
 40
0.08537212442373947
 49
0.05691474961582631
 49
-0.02845737480791316
  0
LTYPE
  2
PHANTOM
 70
64
  3
_____ _ _ _____ _ _ 
 72
65
 73
6
 40
0.5691474961582631
 49
0.2845737480791315
 49
-0.05691474961582631
 49
0.05691474961582631
 49
-0.05691474961582631
 49
0.05691474961582631
 49
-0.05691474961582631
  0
ENDTAB
  0
TABLE
  2
LAYER
 70
2
  0
LAYER
  2
0
 70
0
 62
7
  6
CONTINUOUS
  0
ENDTAB
  0
TABLE
  2
STYLE
 70
4
  0
STYLE
  2
STANDARD
 70
0
 40
0
 41
1
 50
0
 71
0
 42
3.5
  3
txt
  4

  0
STYLE
  2
SIMPLEX
 70
0
 40
0
 41
1
 50
0
 71
0
 42
3.5
  3
simplex
  4

  0
STYLE
  2
COMPLEX
 70
0
 40
0
 41
1
 50
0
 71
0
 42
3.5
  3
complex
  4

  0
STYLE
  2
ITALIC
 70
0
 40
0
 41
1
 50
0
 71
0
 42
3.5
  3
italic
  4

  0
ENDTAB
  0
TABLE
  2
VIEW
 70
0
  0
ENDTAB
  0
ENDSEC
  0
SECTION
  2
BLOCKS
  0
BLOCK
  8
0
  2
*X0
 70
1
 10
0
 20
0
 30
0
  0
LINE
  8
0
 62
7
  6
DASHED
 10
7.960000000000005
 20
8.27819805153395
 30
0
 11
7.981801948466055
 21
8.300000000000001
 31
0
  0
LINE
  8
0
 62
7
  6
DASHED
 10
7.993933982822019
 20
8.1
 30
0
 11
8.193933982822019
 21
8.300000000000001
 31
0
  0
LINE
  8
0
 62
7
 10
7.960000000000004
 20
8.172132034355968
 30
0
 11
8.087867965644039
 21
8.300000000000001
 31
0
  0
LINE
  8
0
 62
7
 10
8.100000000000001
 20
8.1
 30
0
 11
8.200000000000006
 21
8.200000000000005
 31
0
  0
ENDBLK
  8
0
  0
BLOCK
  8
0
  2
*X1
 70
1
 10
0
 20
0
 30
0
  0
LINE
  8
0
 62
7
  6
DASHED
 10
7.960000000000003
 20
11.03591449816148
 30
0
 11
7.974085501838523
 21
11.05
 31
0
  0
LINE
  8
0
 62
7
  6
DASHED
 10
7.986217536194484
 20
10.85
 30
0
 11
8.186217536194487
 21
11.05
 31
0
  0
LINE
  8
0
 62
7
  6
DASHED
 10
8.198349570550448
 20
10.85
 30
0
 11
8.200000000000006
 21
10.85165042944956
 31
0
  0
LINE
  8
0
 62
7
 10
7.960000000000005
 20
10.9298484809835
 30
0
 11
8.080151519016503
 21
11.05
 31
0
  0
LINE
  8
0
 62
7
 10
8.092283553372466
 20
10.85
 30
0
 11
8.200000000000005
 21
10.95771644662754
 31
0
  0
ENDBLK
  8
0
  0
BLOCK
  8
0
  2
*X2
 70
1
 10
0
 20
0
 30
0
  0
LINE
  8
0
 62
7
  6
DASHED
 10
6.110000000000003
 20
10.8829707730092
 30
0
 11
6.277029226990805
 21
11.05
 31
0
  0
LINE
  8
0
 62
7
  6
DASHED
 10
6.28916126134677
 20
10.85
 30
0
 11
6.410000000000004
 21
10.97083873865323
 31
0
  0
LINE
  8
0
 62
7
 10
6.110000000000004
 20
10.98903679018718
 30
0
 11
6.170963209812826
 21
11.05
 31
0
  0
LINE
  8
0
 62
7
 10
6.18309524416879
 20
10.85
 30
0
 11
6.38309524416879
 21
11.05
 31
0
  0
LINE
  8
0
 62
7
 10
6.395227278524754
 20
10.85
 30
0
 11
6.410000000000005
 21
10.86477272147525
 31
0
  0
ENDBLK
  8
0
  0
BLOCK
  8
0
  2
*X3
 70
1
 10
0
 20
0
 30
0
  0
LINE
  8
0
 62
7
  6
DASHED
 10
6.110000000000003
 20
8.125254326381661
 30
0
 11
6.284745673618341
 21
8.300000000000001
 31
0
  0
LINE
  8
0
 62
7
  6
DASHED
 10
6.296877707974304
 20
8.1
 30
0
 11
6.410000000000005
 21
8.213122292025698
 31
0
  0
LINE
  8
0
 62
7
 10
6.110000000000004
 20
8.231320343559645
 30
0
 11
6.178679656440359
 21
8.300000000000001
 31
0
  0
LINE
  8
0
 62
7
 10
6.190811690796322
 20
8.099999999999998
 30
0
 11
6.390811690796323
 21
8.300000000000001
 31
0
  0
LINE
  8
0
 62
7
 10
6.402943725152286
 20
8.099999999999998
 30
0
 11
6.410000000000005
 21
8.107056274847718
 31
0
  0
ENDBLK
  8
0
  0
BLOCK
  8
0
  2
*X4
 70
1
 10
0
 20
0
 30
0
  0
LINE
  8
0
 62
7
 10
7.974085501838523
 20
11.05
 30
0
 11
8.12408550183852
 21
11.2
 31
0
  0
LINE
  8
0
 62
7
 10
8.186217536194487
 20
11.05
 30
0
 11
8.200000000000006
 21
11.06378246380552
 31
0
  0
LINE
  8
0
 62
7
 10
7.960000000000005
 20
11.14198051533947
 30
0
 11
8.018019484660536
 21
11.2
 31
0
  0
LINE
  8
0
 62
7
 10
8.080151519016503
 20
11.05
 30
0
 11
8.200000000000006
 21
11.16984848098351
 31
0
  0
ENDBLK
  8
0
  0
BLOCK
  8
0
  2
*X5
 70
1
 10
0
 20
0
 30
0
  0
LINE
  8
0
 62
7
 10
7.960000000000006
 20
10.82378246380552
 30
0
 11
7.986217536194484
 21
10.85
 31
0
  0
LINE
  8
0
 62
7
 10
7.960000000000006
 20
10.61165042944955
 30
0
 11
8.198349570550448
 21
10.85
 31
0
  0
LINE
  8
0
 62
7
 10
7.960000000000006
 20
10.39951839509359
 30
0
 11
8.200000000000006
 21
10.63951839509359
 31
0
  0
LINE
  8
0
 62
7
 10
7.960000000000006
 20
10.18738636073763
 30
0
 11
8.200000000000006
 21
10.42738636073763
 31
0
  0
LINE
  8
0
 62
7
 10
7.960000000000006
 20
9.975254326381663
 30
0
 11
8.200000000000006
 21
10.21525432638166
 31
0
  0
LINE
  8
0
 62
7
 10
7.960000000000006
 20
9.763122292025699
 30
0
 11
8.200000000000006
 21
10.0031222920257
 31
0
  0
LINE
  8
0
 62
7
 10
7.960000000000006
 20
9.550990257669735
 30
0
 11
8.200000000000006
 21
9.790990257669735
 31
0
  0
LINE
  8
0
 62
7
 10
7.960000000000006
 20
9.338858223313771
 30
0
 11
8.200000000000006
 21
9.578858223313771
 31
0
  0
LINE
  8
0
 62
7
 10
7.960000000000006
 20
9.126726188957807
 30
0
 11
8.200000000000006
 21
9.366726188957808
 31
0
  0
LINE
  8
0
 62
7
 10
7.960000000000006
 20
8.914594154601843
 30
0
 11
8.200000000000006
 21
9.154594154601844
 31
0
  0
LINE
  8
0
 62
7
 10
7.960000000000006
 20
8.70246212024588
 30
0
 11
8.200000000000006
 21
8.94246212024588
 31
0
  0
LINE
  8
0
 62
7
 10
7.960000000000006
 20
8.490330085889916
 30
0
 11
8.200000000000006
 21
8.730330085889916
 31
0
  0
LINE
  8
0
 62
7
 10
7.981801948466055
 20
8.300000000000001
 30
0
 11
8.200000000000006
 21
8.518198051533952
 31
0
  0
LINE
  8
0
 62
7
 10
8.193933982822019
 20
8.300000000000001
 30
0
 11
8.200000000000006
 21
8.306066017177988
 31
0
  0
LINE
  8
0
 62
7
 10
7.960000000000006
 20
10.71771644662753
 30
0
 11
8.092283553372464
 21
10.85
 31
0
  0
LINE
  8
0
 62
7
 10
7.960000000000006
 20
10.50558441227157
 30
0
 11
8.200000000000008
 21
10.74558441227157
 31
0
  0
LINE
  8
0
 62
7
 10
7.960000000000006
 20
10.29345237791561
 30
0
 11
8.200000000000008
 21
10.53345237791561
 31
0
  0
LINE
  8
0
 62
7
 10
7.960000000000006
 20
10.08132034355964
 30
0
 11
8.200000000000008
 21
10.32132034355964
 31
0
  0
LINE
  8
0
 62
7
 10
7.960000000000006
 20
9.869188309203679
 30
0
 11
8.200000000000008
 21
10.10918830920368
 31
0
  0
LINE
  8
0
 62
7
 10
7.960000000000006
 20
9.657056274847715
 30
0
 11
8.200000000000008
 21
9.897056274847717
 31
0
  0
LINE
  8
0
 62
7
 10
7.960000000000006
 20
9.444924240491751
 30
0
 11
8.200000000000008
 21
9.684924240491753
 31
0
  0
LINE
  8
0
 62
7
 10
7.960000000000006
 20
9.232792206135787
 30
0
 11
8.200000000000008
 21
9.472792206135789
 31
0
  0
LINE
  8
0
 62
7
 10
7.960000000000006
 20
9.020660171779824
 30
0
 11
8.200000000000008
 21
9.260660171779826
 31
0
  0
LINE
  8
0
 62
7
 10
7.960000000000006
 20
8.80852813742386
 30
0
 11
8.200000000000008
 21
9.048528137423862
 31
0
  0
LINE
  8
0
 62
7
 10
7.960000000000006
 20
8.596396103067896
 30
0
 11
8.200000000000008
 21
8.836396103067898
 31
0
  0
LINE
  8
0
 62
7
 10
7.960000000000006
 20
8.384264068711932
 30
0
 11
8.200000000000008
 21
8.624264068711934
 31
0
  0
LINE
  8
0
 62
7
 10
8.087867965644039
 20
8.300000000000001
 30
0
 11
8.200000000000008
 21
8.41213203435597
 31
0
  0
ENDBLK
  8
0
  0
BLOCK
  8
0
  2
*X6
 70
1
 10
0
 20
0
 30
0
  0
LINE
  8
0
 62
7
 10
7.960000000000005
 20
8.066066017177986
 30
0
 11
7.993933982822019
 21
8.1
 31
0
  0
LINE
  8
0
 62
7
 10
8.056066017177985
 20
7.95
 30
0
 11
8.200000000000006
 21
8.093933982822023
 31
0
  0
LINE
  8
0
 62
7
 10
7.960000000000006
 20
7.960000000000004
 30
0
 11
8.100000000000001
 21
8.1
 31
0
  0
LINE
  8
0
 62
7
 10
8.162132034355967
 20
7.950000000000001
 30
0
 11
8.200000000000006
 21
7.987867965644041
 31
0
  0
ENDBLK
  8
0
  0
BLOCK
  8
0
  2
*X7
 70
1
 10
0
 20
0
 30
0
  0
LINE
  8
0
 62
7
  6
DASHED
 10
0.9500000000000108
 20
11.02627163190831
 30
0
 11
0.9737283680916997
 21
11.05
 31
0
  0
LINE
  8
0
 62
7
  6
DASHED
 10
0.9858604024476638
 20
10.85
 30
0
 11
1.185860402447664
 21
11.05
 31
0
  0
LINE
  8
0
 62
7
  6
DASHED
 10
1.197992436803628
 20
10.85
 30
0
 11
1.397992436803628
 21
11.05
 31
0
  0
LINE
  8
0
 62
7
  6
DASHED
 10
1.410124471159592
 20
10.85
 30
0
 11
1.610124471159593
 21
11.05
 31
0
  0
LINE
  8
0
 62
7
  6
DASHED
 10
1.622256505515557
 20
10.85
 30
0
 11
1.822256505515557
 21
11.05
 31
0
  0
LINE
  8
0
 62
7
  6
DASHED
 10
1.834388539871521
 20
10.85
 30
0
 11
2.034388539871521
 21
11.05
 31
0
  0
LINE
  8
0
 62
7
  6
DASHED
 10
2.046520574227485
 20
10.85
 30
0
 11
2.246520574227485
 21
11.05
 31
0
  0
LINE
  8
0
 62
7
  6
DASHED
 10
2.25865260858345
 20
10.85
 30
0
 11
2.45865260858345
 21
11.05
 31
0
  0
LINE
  8
0
 62
7
  6
DASHED
 10
2.470784642939414
 20
10.85
 30
0
 11
2.670784642939414
 21
11.05
 31
0
  0
LINE
  8
0
 62
7
  6
DASHED
 10
2.682916677295378
 20
10.85
 30
0
 11
2.882916677295378
 21
11.05
 31
0
  0
LINE
  8
0
 62
7
  6
DASHED
 10
2.895048711651342
 20
10.85
 30
0
 11
3.095048711651343
 21
11.05
 31
0
  0
LINE
  8
0
 62
7
  6
DASHED
 10
3.107180746007307
 20
10.85
 30
0
 11
3.307180746007307
 21
11.05
 31
0
  0
LINE
  8
0
 62
7
  6
DASHED
 10
3.319312780363271
 20
10.85
 30
0
 11
3.519312780363271
 21
11.05
 31
0
  0
LINE
  8
0
 62
7
  6
DASHED
 10
3.531444814719235
 20
10.85
 30
0
 11
3.731444814719235
 21
11.05
 31
0
  0
LINE
  8
0
 62
7
 10
0.9500000000000099
 20
10.92020561473033
 30
0
 11
1.079794385269683
 21
11.05
 31
0
  0
LINE
  8
0
 62
7
 10
1.091926419625645
 20
10.85
 30
0
 11
1.291926419625647
 21
11.05
 31
0
  0
LINE
  8
0
 62
7
 10
1.30405845398161
 20
10.85
 30
0
 11
1.504058453981612
 21
11.05
 31
0
  0
LINE
  8
0
 62
7
 10
1.516190488337574
 20
10.85
 30
0
 11
1.716190488337576
 21
11.05
 31
0
  0
LINE
  8
0
 62
7
 10
1.728322522693538
 20
10.85
 30
0
 11
1.92832252269354
 21
11.05
 31
0
  0
LINE
  8
0
 62
7
 10
1.940454557049502
 20
10.85
 30
0
 11
2.140454557049504
 21
11.05
 31
0
  0
LINE
  8
0
 62
7
 10
2.152586591405467
 20
10.85
 30
0
 11
2.352586591405469
 21
11.05
 31
0
  0
LINE
  8
0
 62
7
 10
2.364718625761431
 20
10.85
 30
0
 11
2.564718625761433
 21
11.05
 31
0
  0
LINE
  8
0
 62
7
 10
2.576850660117395
 20
10.85
 30
0
 11
2.776850660117397
 21
11.05
 31
0
  0
LINE
  8
0
 62
7
 10
2.78898269447336
 20
10.85
 30
0
 11
2.988982694473362
 21
11.05
 31
0
  0
LINE
  8
0
 62
7
 10
3.001114728829324
 20
10.85
 30
0
 11
3.201114728829326
 21
11.05
 31
0
  0
LINE
  8
0
 62
7
 10
3.213246763185288
 20
10.85
 30
0
 11
3.41324676318529
 21
11.05
 31
0
  0
LINE
  8
0
 62
7
 10
3.425378797541252
 20
10.85
 30
0
 11
3.625378797541254
 21
11.05
 31
0
  0
LINE
  8
0
 62
7
 10
3.637510831897217
 20
10.85
 30
0
 11
3.735000000000007
 21
10.94748916810279
 31
0
  0
ENDBLK
  8
0
  0
BLOCK
  8
0
  2
*X8
 70
1
 10
0
 20
0
 30
0
  0
LINE
  8
0
 62
7
  6
DASHED
 10
0.9500000000000099
 20
8.268555185280777
 30
0
 11
0.9814448147192349
 21
8.300000000000001
 31
0
  0
LINE
  8
0
 62
7
  6
DASHED
 10
0.9935768490751982
 20
8.1
 30
0
 11
1.193576849075199
 21
8.300000000000001
 31
0
  0
LINE
  8
0
 62
7
  6
DASHED
 10
1.205708883431162
 20
8.1
 30
0
 11
1.405708883431164
 21
8.300000000000001
 31
0
  0
LINE
  8
0
 62
7
  6
DASHED
 10
1.417840917787127
 20
8.1
 30
0
 11
1.617840917787128
 21
8.300000000000001
 31
0
  0
LINE
  8
0
 62
7
  6
DASHED
 10
1.629972952143091
 20
8.1
 30
0
 11
1.829972952143092
 21
8.300000000000001
 31
0
  0
LINE
  8
0
 62
7
  6
DASHED
 10
1.842104986499055
 20
8.1
 30
0
 11
2.042104986499056
 21
8.300000000000001
 31
0
  0
LINE
  8
0
 62
7
  6
DASHED
 10
2.05423702085502
 20
8.1
 30
0
 11
2.254237020855021
 21
8.300000000000001
 31
0
  0
LINE
  8
0
 62
7
  6
DASHED
 10
2.266369055210984
 20
8.1
 30
0
 11
2.466369055210985
 21
8.300000000000001
 31
0
  0
LINE
  8
0
 62
7
  6
DASHED
 10
2.478501089566948
 20
8.1
 30
0
 11
2.678501089566949
 21
8.300000000000001
 31
0
  0
LINE
  8
0
 62
7
  6
DASHED
 10
2.690633123922912
 20
8.1
 30
0
 11
2.890633123922913
 21
8.300000000000001
 31
0
  0
LINE
  8
0
 62
7
  6
DASHED
 10
2.902765158278877
 20
8.1
 30
0
 11
3.102765158278878
 21
8.300000000000001
 31
0
  0
LINE
  8
0
 62
7
  6
DASHED
 10
3.114897192634841
 20
8.1
 30
0
 11
3.314897192634842
 21
8.300000000000001
 31
0
  0
LINE
  8
0
 62
7
  6
DASHED
 10
3.327029226990805
 20
8.1
 30
0
 11
3.527029226990806
 21
8.300000000000001
 31
0
  0
LINE
  8
0
 62
7
  6
DASHED
 10
3.53916126134677
 20
8.1
 30
0
 11
3.735000000000007
 21
8.295838738653238
 31
0
  0
LINE
  8
0
 62
7
 10
0.9500000000000108
 20
8.162489168102795
 30
0
 11
1.087510831897218
 21
8.300000000000001
 31
0
  0
LINE
  8
0
 62
7
 10
1.09964286625318
 20
8.1
 30
0
 11
1.299642866253182
 21
8.300000000000001
 31
0
  0
LINE
  8
0
 62
7
 10
1.311774900609144
 20
8.1
 30
0
 11
1.511774900609146
 21
8.300000000000001
 31
0
  0
LINE
  8
0
 62
7
 10
1.523906934965109
 20
8.1
 30
0
 11
1.723906934965111
 21
8.300000000000001
 31
0
  0
LINE
  8
0
 62
7
 10
1.736038969321073
 20
8.1
 30
0
 11
1.936038969321075
 21
8.300000000000001
 31
0
  0
LINE
  8
0
 62
7
 10
1.948171003677037
 20
8.1
 30
0
 11
2.148171003677039
 21
8.300000000000001
 31
0
  0
LINE
  8
0
 62
7
 10
2.160303038033001
 20
8.1
 30
0
 11
2.360303038033003
 21
8.300000000000001
 31
0
  0
LINE
  8
0
 62
7
 10
2.372435072388966
 20
8.1
 30
0
 11
2.572435072388968
 21
8.300000000000001
 31
0
  0
LINE
  8
0
 62
7
 10
2.58456710674493
 20
8.1
 30
0
 11
2.784567106744932
 21
8.300000000000001
 31
0
  0
LINE
  8
0
 62
7
 10
2.796699141100894
 20
8.1
 30
0
 11
2.996699141100896
 21
8.300000000000001
 31
0
  0
LINE
  8
0
 62
7
 10
3.008831175456859
 20
8.1
 30
0
 11
3.208831175456861
 21
8.300000000000001
 31
0
  0
LINE
  8
0
 62
7
 10
3.220963209812823
 20
8.1
 30
0
 11
3.420963209812825
 21
8.300000000000001
 31
0
  0
LINE
  8
0
 62
7
 10
3.433095244168787
 20
8.1
 30
0
 11
3.633095244168789
 21
8.300000000000001
 31
0
  0
LINE
  8
0
 62
7
 10
3.645227278524751
 20
8.1
 30
0
 11
3.735000000000006
 21
8.189772721475254
 31
0
  0
ENDBLK
  8
0
  0
BLOCK
  8
0
  2
*X9
 70
1
 10
0
 20
0
 30
0
  0
LINE
  8
0
 62
7
 10
3.410000000000006
 20
11.1528192539927
 30
0
 11
3.457180746007305
 21
11.2
 31
0
  0
LINE
  8
0
 62
7
 10
3.519312780363272
 20
11.05
 30
0
 11
3.585000000000008
 21
11.11568721963674
 31
0
  0
LINE
  8
0
 62
7
 10
3.413246763185291
 20
11.05
 30
0
 11
3.563246763185288
 21
11.2
 31
0
  0
ENDBLK
  8
0
  0
BLOCK
  8
0
  2
*X10
 70
1
 10
0
 20
0
 30
0
  0
LINE
  8
0
 62
7
 10
3.410000000000006
 20
10.72855518528077
 30
0
 11
3.531444814719235
 21
10.85
 31
0
  0
LINE
  8
0
 62
7
 10
3.410000000000006
 20
10.5164231509248
 30
0
 11
3.585000000000007
 21
10.6914231509248
 31
0
  0
LINE
  8
0
 62
7
 10
3.410000000000006
 20
10.30429111656884
 30
0
 11
3.585000000000007
 21
10.47929111656884
 31
0
  0
LINE
  8
0
 62
7
 10
3.410000000000006
 20
10.09215908221288
 30
0
 11
3.585000000000007
 21
10.26715908221288
 31
0
  0
LINE
  8
0
 62
7
 10
3.410000000000006
 20
9.880027047856911
 30
0
 11
3.585000000000007
 21
10.05502704785691
 31
0
  0
LINE
  8
0
 62
7
 10
3.410000000000006
 20
9.667895013500948
 30
0
 11
3.585000000000007
 21
9.842895013500948
 31
0
  0
LINE
  8
0
 62
7
 10
3.410000000000006
 20
9.455762979144984
 30
0
 11
3.585000000000007
 21
9.630762979144984
 31
0
  0
LINE
  8
0
 62
7
 10
3.410000000000006
 20
9.24363094478902
 30
0
 11
3.585000000000007
 21
9.418630944789021
 31
0
  0
LINE
  8
0
 62
7
 10
3.410000000000006
 20
9.031498910433056
 30
0
 11
3.585000000000007
 21
9.206498910433057
 31
0
  0
LINE
  8
0
 62
7
 10
3.410000000000006
 20
8.819366876077092
 30
0
 11
3.585000000000007
 21
8.994366876077093
 31
0
  0
LINE
  8
0
 62
7
 10
3.410000000000006
 20
8.607234841721128
 30
0
 11
3.585000000000007
 21
8.782234841721129
 31
0
  0
LINE
  8
0
 62
7
 10
3.410000000000006
 20
8.395102807365165
 30
0
 11
3.585000000000007
 21
8.570102807365165
 31
0
  0
LINE
  8
0
 62
7
 10
3.527029226990806
 20
8.300000000000001
 30
0
 11
3.585000000000007
 21
8.357970773009201
 31
0
  0
LINE
  8
0
 62
7
 10
3.410000000000007
 20
10.83462120245875
 30
0
 11
3.425378797541253
 21
10.85
 31
0
  0
LINE
  8
0
 62
7
 10
3.410000000000007
 20
10.62248916810279
 30
0
 11
3.585000000000007
 21
10.79748916810279
 31
0
  0
LINE
  8
0
 62
7
 10
3.410000000000007
 20
10.41035713374682
 30
0
 11
3.585000000000007
 21
10.58535713374682
 31
0
  0
LINE
  8
0
 62
7
 10
3.410000000000007
 20
10.19822509939086
 30
0
 11
3.585000000000007
 21
10.37322509939086
 31
0
  0
LINE
  8
0
 62
7
 10
3.410000000000007
 20
9.986093065034895
 30
0
 11
3.585000000000007
 21
10.16109306503489
 31
0
  0
LINE
  8
0
 62
7
 10
3.410000000000007
 20
9.773961030678931
 30
0
 11
3.585000000000007
 21
9.94896103067893
 31
0
  0
LINE
  8
0
 62
7
 10
3.410000000000007
 20
9.561828996322967
 30
0
 11
3.585000000000007
 21
9.736828996322966
 31
0
  0
LINE
  8
0
 62
7
 10
3.410000000000007
 20
9.349696961967004
 30
0
 11
3.585000000000007
 21
9.524696961967003
 31
0
  0
LINE
  8
0
 62
7
 10
3.410000000000007
 20
9.13756492761104
 30
0
 11
3.585000000000007
 21
9.312564927611039
 31
0
  0
LINE
  8
0
 62
7
 10
3.410000000000007
 20
8.925432893255076
 30
0
 11
3.585000000000007
 21
9.100432893255075
 31
0
  0
LINE
  8
0
 62
7
 10
3.410000000000007
 20
8.713300858899112
 30
0
 11
3.585000000000007
 21
8.888300858899111
 31
0
  0
LINE
  8
0
 62
7
 10
3.410000000000007
 20
8.501168824543148
 30
0
 11
3.585000000000007
 21
8.676168824543147
 31
0
  0
LINE
  8
0
 62
7
 10
3.420963209812824
 20
8.300000000000001
 30
0
 11
3.585000000000007
 21
8.464036790187183
 31
0
  0
ENDBLK
  8
0
  0
BLOCK
  8
0
  2
*X11
 70
1
 10
0
 20
0
 30
0
  0
LINE
  8
0
 62
7
 10
3.410000000000008
 20
7.970838738653238
 30
0
 11
3.53916126134677
 21
8.1
 31
0
  0
LINE
  8
0
 62
7
 10
3.410000000000006
 20
8.076904755831219
 30
0
 11
3.433095244168788
 21
8.100000000000001
 31
0
  0
LINE
  8
0
 62
7
 10
3.495227278524752
 20
7.949999999999999
 30
0
 11
3.585000000000008
 21
8.039772721475256
 31
0
  0
ENDBLK
  8
0
  0
BLOCK
  8
0
  2
*X12
 70
1
 10
0
 20
0
 30
0
  0
LINE
  8
0
 62
7
 10
1.10000000000001
 20
11.17627163190831
 30
0
 11
1.1237283680917
 21
11.2
 31
0
  0
LINE
  8
0
 62
7
 10
1.185860402447664
 20
11.05
 30
0
 11
1.275000000000011
 21
11.13913959755235
 31
0
  0
LINE
  8
0
 62
7
 10
1.100000000000011
 20
11.07020561473033
 30
0
 11
1.229794385269681
 21
11.2
 31
0
  0
ENDBLK
  8
0
  0
BLOCK
  8
0
  2
*X13
 70
1
 10
0
 20
0
 30
0
  0
LINE
  8
0
 62
7
 10
1.100000000000011
 20
10.75200756319638
 30
0
 11
1.197992436803626
 21
10.85
 31
0
  0
LINE
  8
0
 62
7
 10
1.100000000000011
 20
10.53987552884042
 30
0
 11
1.275000000000011
 21
10.71487552884041
 31
0
  0
LINE
  8
0
 62
7
 10
1.100000000000011
 20
10.32774349448445
 30
0
 11
1.275000000000011
 21
10.50274349448445
 31
0
  0
LINE
  8
0
 62
7
 10
1.100000000000011
 20
10.11561146012849
 30
0
 11
1.275000000000011
 21
10.29061146012849
 31
0
  0
LINE
  8
0
 62
7
 10
1.100000000000011
 20
9.903479425772524
 30
0
 11
1.275000000000011
 21
10.07847942577252
 31
0
  0
LINE
  8
0
 62
7
 10
1.100000000000011
 20
9.69134739141656
 30
0
 11
1.275000000000011
 21
9.866347391416559
 31
0
  0
LINE
  8
0
 62
7
 10
1.100000000000011
 20
9.479215357060596
 30
0
 11
1.275000000000011
 21
9.654215357060595
 31
0
  0
LINE
  8
0
 62
7
 10
1.100000000000011
 20
9.267083322704632
 30
0
 11
1.275000000000011
 21
9.442083322704631
 31
0
  0
LINE
  8
0
 62
7
 10
1.100000000000011
 20
9.054951288348668
 30
0
 11
1.275000000000011
 21
9.229951288348667
 31
0
  0
LINE
  8
0
 62
7
 10
1.100000000000011
 20
8.842819253992705
 30
0
 11
1.275000000000011
 21
9.017819253992704
 31
0
  0
LINE
  8
0
 62
7
 10
1.100000000000011
 20
8.630687219636741
 30
0
 11
1.275000000000011
 21
8.80568721963674
 31
0
  0
LINE
  8
0
 62
7
 10
1.100000000000011
 20
8.418555185280777
 30
0
 11
1.275000000000011
 21
8.593555185280776
 31
0
  0
LINE
  8
0
 62
7
 10
1.193576849075201
 20
8.300000000000001
 30
0
 11
1.275000000000011
 21
8.381423150924812
 31
0
  0
LINE
  8
0
 62
7
 10
1.100000000000011
 20
10.6459415460184
 30
0
 11
1.275000000000011
 21
10.8209415460184
 31
0
  0
LINE
  8
0
 62
7
 10
1.100000000000011
 20
10.43380951166243
 30
0
 11
1.275000000000011
 21
10.60880951166243
 31
0
  0
LINE
  8
0
 62
7
 10
1.100000000000011
 20
10.22167747730647
 30
0
 11
1.275000000000011
 21
10.39667747730647
 31
0
  0
LINE
  8
0
 62
7
 10
1.100000000000011
 20
10.0095454429505
 30
0
 11
1.275000000000011
 21
10.1845454429505
 31
0
  0
LINE
  8
0
 62
7
 10
1.100000000000011
 20
9.79741340859454
 30
0
 11
1.275000000000011
 21
9.972413408594541
 31
0
  0
LINE
  8
0
 62
7
 10
1.100000000000011
 20
9.585281374238576
 30
0
 11
1.275000000000011
 21
9.760281374238577
 31
0
  0
LINE
  8
0
 62
7
 10
1.100000000000011
 20
9.373149339882612
 30
0
 11
1.275000000000011
 21
9.548149339882613
 31
0
  0
LINE
  8
0
 62
7
 10
1.100000000000011
 20
9.161017305526649
 30
0
 11
1.275000000000011
 21
9.336017305526649
 31
0
  0
LINE
  8
0
 62
7
 10
1.100000000000011
 20
8.948885271170685
 30
0
 11
1.275000000000011
 21
9.123885271170685
 31
0
  0
LINE
  8
0
 62
7
 10
1.100000000000011
 20
8.736753236814721
 30
0
 11
1.275000000000011
 21
8.911753236814722
 31
0
  0
LINE
  8
0
 62
7
 10
1.100000000000011
 20
8.524621202458757
 30
0
 11
1.275000000000011
 21
8.699621202458758
 31
0
  0
LINE
  8
0
 62
7
 10
1.100000000000011
 20
8.312489168102793
 30
0
 11
1.275000000000011
 21
8.487489168102794
 31
0
  0
ENDBLK
  8
0
  0
BLOCK
  8
0
  2
*X14
 70
1
 10
0
 20
0
 30
0
  0
LINE
  8
0
 62
7
 10
1.100000000000011
 20
7.994291116568848
 30
0
 11
1.205708883431162
 21
8.1
 31
0
  0
LINE
  8
0
 62
7
 10
1.267840917787126
 20
7.949999999999999
 30
0
 11
1.275000000000011
 21
7.957159082212884
 31
0
  0
LINE
  8
0
 62
7
 10
1.161774900609145
 20
7.950000000000001
 30
0
 11
1.275000000000011
 21
8.063225099390866
 31
0
  0
ENDBLK
  8
0
  0
BLOCK
  8
0
  2
*X15
 70
1
 10
0
 20
0
 30
0
  0
LINE
  8
0
 62
7
 10
1.10000000000001
 20
5.448706704297277
 30
0
 11
1.221293295702733
 21
5.569999999999999
 31
0
  0
LINE
  8
0
 62
7
 10
0.9350000000000112
 20
5.283706704297278
 30
0
 11
1.071293295702731
 21
5.419999999999998
 31
0
  0
LINE
  8
0
 62
7
 10
1.043425330058697
 20
5.18
 30
0
 11
1.283425330058695
 21
5.419999999999998
 31
0
  0
LINE
  8
0
 62
7
 10
1.255557364414662
 20
5.18
 30
0
 11
1.49555736441466
 21
5.419999999999998
 31
0
  0
LINE
  8
0
 62
7
 10
1.467689398770626
 20
5.18
 30
0
 11
1.707689398770624
 21
5.419999999999998
 31
0
  0
LINE
  8
0
 62
7
 10
1.67982143312659
 20
5.18
 30
0
 11
1.919821433126588
 21
5.419999999999998
 31
0
  0
LINE
  8
0
 62
7
 10
1.891953467482554
 20
5.18
 30
0
 11
2.131953467482552
 21
5.419999999999998
 31
0
  0
LINE
  8
0
 62
7
 10
2.104085501838519
 20
5.18
 30
0
 11
2.344085501838517
 21
5.419999999999998
 31
0
  0
LINE
  8
0
 62
7
 10
2.316217536194483
 20
5.18
 30
0
 11
2.556217536194481
 21
5.419999999999998
 31
0
  0
LINE
  8
0
 62
7
 10
2.528349570550447
 20
5.18
 30
0
 11
2.768349570550445
 21
5.419999999999998
 31
0
  0
LINE
  8
0
 62
7
 10
2.740481604906412
 20
5.18
 30
0
 11
2.98048160490641
 21
5.419999999999998
 31
0
  0
LINE
  8
0
 62
7
 10
2.952613639262376
 20
5.18
 30
0
 11
3.192613639262374
 21
5.419999999999998
 31
0
  0
LINE
  8
0
 62
7
 10
3.410000000000006
 20
5.425254326381665
 30
0
 11
3.55474567361834
 21
5.57
 31
0
  0
LINE
  8
0
 62
7
 10
3.16474567361834
 20
5.18
 30
0
 11
3.404745673618338
 21
5.419999999999998
 31
0
  0
LINE
  8
0
 62
7
 10
3.376877707974304
 20
5.18
 30
0
 11
3.616877707974302
 21
5.419999999999997
 31
0
  0
LINE
  8
0
 62
7
 10
3.589009742330269
 20
5.18
 30
0
 11
3.735000000000007
 21
5.325990257669738
 31
0
  0
LINE
  8
0
 62
7
 10
1.100000000000011
 20
5.55477272147526
 30
0
 11
1.11522727852475
 21
5.569999999999999
 31
0
  0
LINE
  8
0
 62
7
 10
0.9350000000000107
 20
5.38977272147526
 30
0
 11
0.9652272785247495
 21
5.419999999999998
 31
0
  0
LINE
  8
0
 62
7
 10
0.9373593128807158
 20
5.180000000000001
 30
0
 11
1.275000000000011
 21
5.517640687119296
 31
0
  0
LINE
  8
0
 62
7
 10
1.14949134723668
 20
5.180000000000001
 30
0
 11
1.389491347236679
 21
5.419999999999998
 31
0
  0
LINE
  8
0
 62
7
 10
1.361623381592644
 20
5.180000000000001
 30
0
 11
1.601623381592643
 21
5.419999999999998
 31
0
  0
LINE
  8
0
 62
7
 10
1.573755415948609
 20
5.180000000000001
 30
0
 11
1.813755415948607
 21
5.419999999999998
 31
0
  0
LINE
  8
0
 62
7
 10
1.785887450304573
 20
5.180000000000001
 30
0
 11
2.025887450304571
 21
5.419999999999998
 31
0
  0
LINE
  8
0
 62
7
 10
1.998019484660537
 20
5.180000000000001
 30
0
 11
2.238019484660536
 21
5.419999999999998
 31
0
  0
LINE
  8
0
 62
7
 10
2.210151519016502
 20
5.180000000000001
 30
0
 11
2.4501515190165
 21
5.419999999999998
 31
0
  0
LINE
  8
0
 62
7
 10
2.422283553372466
 20
5.180000000000001
 30
0
 11
2.662283553372464
 21
5.419999999999998
 31
0
  0
LINE
  8
0
 62
7
 10
2.63441558772843
 20
5.180000000000001
 30
0
 11
2.874415587728429
 21
5.419999999999998
 31
0
  0
LINE
  8
0
 62
7
 10
2.846547622084394
 20
5.180000000000001
 30
0
 11
3.086547622084393
 21
5.419999999999998
 31
0
  0
LINE
  8
0
 62
7
 10
3.410000000000007
 20
5.531320343559648
 30
0
 11
3.448679656440358
 21
5.569999999999999
 31
0
  0
LINE
  8
0
 62
7
 10
3.058679656440359
 20
5.180000000000001
 30
0
 11
3.298679656440357
 21
5.419999999999998
 31
0
  0
LINE
  8
0
 62
7
 10
3.270811690796323
 20
5.180000000000001
 30
0
 11
3.585000000000007
 21
5.494188309203684
 31
0
  0
LINE
  8
0
 62
7
 10
3.482943725152287
 20
5.180000000000001
 30
0
 11
3.722943725152284
 21
5.419999999999998
 31
0
  0
LINE
  8
0
 62
7
 10
3.695075759508252
 20
5.180000000000001
 30
0
 11
3.735000000000006
 21
5.219924240491756
 31
0
  0
ENDBLK
  8
0
  0
BLOCK
  8
0
  2
*X16
 70
1
 10
0
 20
0
 30
0
  0
LINE
  8
0
 62
7
 10
0.9350000000000112
 20
5.071574669941313
 30
0
 11
1.003425330058697
 21
5.14
 31
0
  0
LINE
  8
0
 62
7
 10
0.9755573644146631
 20
4.900000000000001
 30
0
 11
1.215557364414661
 21
5.14
 31
0
  0
LINE
  8
0
 62
7
 10
1.100000000000011
 20
4.812310601229384
 30
0
 11
1.427689398770625
 21
5.14
 31
0
  0
LINE
  8
0
 62
7
 10
1.399821433126591
 20
4.900000000000001
 30
0
 11
1.63982143312659
 21
5.14
 31
0
  0
LINE
  8
0
 62
7
 10
1.100000000000011
 20
4.60017856687342
 30
0
 11
1.275000000000011
 21
4.77517856687342
 31
0
  0
LINE
  8
0
 62
7
 10
1.611953467482556
 20
4.900000000000001
 30
0
 11
1.851953467482554
 21
5.14
 31
0
  0
LINE
  8
0
 62
7
 10
1.100000000000011
 20
4.388046532517456
 30
0
 11
1.275000000000011
 21
4.563046532517456
 31
0
  0
LINE
  8
0
 62
7
 10
1.82408550183852
 20
4.900000000000001
 30
0
 11
2.064085501838518
 21
5.14
 31
0
  0
LINE
  8
0
 62
7
 10
1.100000000000011
 20
4.175914498161492
 30
0
 11
1.275000000000011
 21
4.350914498161492
 31
0
  0
LINE
  8
0
 62
7
 10
2.036217536194484
 20
4.900000000000001
 30
0
 11
2.276217536194483
 21
5.14
 31
0
  0
LINE
  8
0
 62
7
 10
1.100000000000011
 20
3.963782463805528
 30
0
 11
1.275000000000011
 21
4.138782463805528
 31
0
  0
LINE
  8
0
 62
7
 10
2.248349570550448
 20
4.900000000000001
 30
0
 11
2.488349570550447
 21
5.14
 31
0
  0
LINE
  8
0
 62
7
 10
1.100000000000011
 20
3.751650429449564
 30
0
 11
1.275000000000011
 21
3.926650429449564
 31
0
  0
LINE
  8
0
 62
7
 10
2.460481604906413
 20
4.900000000000001
 30
0
 11
2.700481604906411
 21
5.14
 31
0
  0
LINE
  8
0
 62
7
 10
1.100000000000011
 20
3.5395183950936
 30
0
 11
1.275000000000011
 21
3.7145183950936
 31
0
  0
LINE
  8
0
 62
7
 10
2.672613639262377
 20
4.900000000000001
 30
0
 11
2.912613639262375
 21
5.14
 31
0
  0
LINE
  8
0
 62
7
 10
1.122613639262377
 20
3.350000000000001
 30
0
 11
1.275000000000011
 21
3.502386360737636
 31
0
  0
LINE
  8
0
 62
7
 10
2.884745673618341
 20
4.900000000000001
 30
0
 11
3.12474567361834
 21
5.14
 31
0
  0
LINE
  8
0
 62
7
 10
3.096877707974306
 20
4.900000000000001
 30
0
 11
3.336877707974304
 21
5.14
 31
0
  0
LINE
  8
0
 62
7
 10
3.30900974233027
 20
4.900000000000001
 30
0
 11
3.549009742330268
 21
5.14
 31
0
  0
LINE
  8
0
 62
7
 10
3.410000000000007
 20
4.788858223313772
 30
0
 11
3.735000000000007
 21
5.113858223313773
 31
0
  0
LINE
  8
0
 62
7
 10
3.733273811042198
 20
4.900000000000001
 30
0
 11
3.735000000000007
 21
4.901726188957809
 31
0
  0
LINE
  8
0
 62
7
 10
3.410000000000007
 20
4.576726188957808
 30
0
 11
3.585000000000007
 21
4.751726188957808
 31
0
  0
LINE
  8
0
 62
7
 10
3.410000000000007
 20
4.364594154601845
 30
0
 11
3.585000000000007
 21
4.539594154601844
 31
0
  0
LINE
  8
0
 62
7
 10
3.410000000000007
 20
4.152462120245881
 30
0
 11
3.585000000000007
 21
4.327462120245881
 31
0
  0
LINE
  8
0
 62
7
 10
3.410000000000007
 20
3.940330085889916
 30
0
 11
3.585000000000007
 21
4.115330085889917
 31
0
  0
LINE
  8
0
 62
7
 10
3.410000000000007
 20
3.728198051533952
 30
0
 11
3.585000000000007
 21
3.903198051533953
 31
0
  0
LINE
  8
0
 62
7
 10
3.410000000000007
 20
3.516066017177988
 30
0
 11
3.585000000000007
 21
3.691066017177989
 31
0
  0
LINE
  8
0
 62
7
 10
3.410000000000007
 20
3.303933982822024
 30
0
 11
3.585000000000007
 21
3.478933982822024
 31
0
  0
LINE
  8
0
 62
7
 10
3.568198051533948
 20
3.250000000000001
 30
0
 11
3.585000000000007
 21
3.26680194846606
 31
0
  0
LINE
  8
0
 62
7
 10
0.9350000000000112
 20
4.965508652763331
 30
0
 11
1.10949134723668
 21
5.140000000000001
 31
0
  0
LINE
  8
0
 62
7
 10
1.081623381592645
 20
4.900000000000001
 30
0
 11
1.321623381592644
 21
5.140000000000001
 31
0
  0
LINE
  8
0
 62
7
 10
1.293755415948609
 20
4.900000000000001
 30
0
 11
1.533755415948609
 21
5.140000000000001
 31
0
  0
LINE
  8
0
 62
7
 10
1.100000000000011
 20
4.706244584051401
 30
0
 11
1.275000000000011
 21
4.881244584051402
 31
0
  0
LINE
  8
0
 62
7
 10
1.505887450304574
 20
4.900000000000001
 30
0
 11
1.745887450304573
 21
5.140000000000001
 31
0
  0
LINE
  8
0
 62
7
 10
1.100000000000011
 20
4.494112549695437
 30
0
 11
1.275000000000011
 21
4.669112549695438
 31
0
  0
LINE
  8
0
 62
7
 10
1.718019484660538
 20
4.900000000000001
 30
0
 11
1.958019484660537
 21
5.140000000000001
 31
0
  0
LINE
  8
0
 62
7
 10
1.100000000000011
 20
4.281980515339473
 30
0
 11
1.275000000000011
 21
4.456980515339474
 31
0
  0
LINE
  8
0
 62
7
 10
1.930151519016502
 20
4.900000000000001
 30
0
 11
2.170151519016501
 21
5.140000000000001
 31
0
  0
LINE
  8
0
 62
7
 10
1.100000000000011
 20
4.069848480983509
 30
0
 11
1.275000000000011
 21
4.24484848098351
 31
0
  0
LINE
  8
0
 62
7
 10
2.142283553372466
 20
4.900000000000001
 30
0
 11
2.382283553372466
 21
5.140000000000001
 31
0
  0
LINE
  8
0
 62
7
 10
1.100000000000011
 20
3.857716446627546
 30
0
 11
1.275000000000011
 21
4.032716446627546
 31
0
  0
LINE
  8
0
 62
7
 10
2.354415587728431
 20
4.900000000000001
 30
0
 11
2.59441558772843
 21
5.140000000000001
 31
0
  0
LINE
  8
0
 62
7
 10
1.100000000000011
 20
3.645584412271581
 30
0
 11
1.275000000000011
 21
3.820584412271582
 31
0
  0
LINE
  8
0
 62
7
 10
2.566547622084395
 20
4.900000000000001
 30
0
 11
2.806547622084394
 21
5.140000000000001
 31
0
  0
LINE
  8
0
 62
7
 10
1.100000000000011
 20
3.433452377915617
 30
0
 11
1.275000000000011
 21
3.608452377915618
 31
0
  0
LINE
  8
0
 62
7
 10
2.778679656440359
 20
4.900000000000001
 30
0
 11
3.018679656440359
 21
5.140000000000001
 31
0
  0
LINE
  8
0
 62
7
 10
1.228679656440359
 20
3.350000000000001
 30
0
 11
1.275000000000011
 21
3.396320343559654
 31
0
  0
LINE
  8
0
 62
7
 10
2.990811690796324
 20
4.900000000000001
 30
0
 11
3.230811690796323
 21
5.140000000000001
 31
0
  0
LINE
  8
0
 62
7
 10
3.202943725152288
 20
4.900000000000001
 30
0
 11
3.442943725152287
 21
5.140000000000001
 31
0
  0
LINE
  8
0
 62
7
 10
3.410000000000007
 20
4.894924240491754
 30
0
 11
3.655075759508251
 21
5.140000000000001
 31
0
  0
LINE
  8
0
 62
7
 10
3.627207793864217
 20
4.900000000000002
 30
0
 11
3.735000000000007
 21
5.007792206135791
 31
0
  0
LINE
  8
0
 62
7
 10
3.410000000000007
 20
4.68279220613579
 30
0
 11
3.585000000000007
 21
4.85779220613579
 31
0
  0
LINE
  8
0
 62
7
 10
3.410000000000007
 20
4.470660171779826
 30
0
 11
3.585000000000007
 21
4.645660171779826
 31
0
  0
LINE
  8
0
 62
7
 10
3.410000000000007
 20
4.258528137423863
 30
0
 11
3.585000000000007
 21
4.433528137423862
 31
0
  0
LINE
  8
0
 62
7
 10
3.410000000000007
 20
4.046396103067899
 30
0
 11
3.585000000000007
 21
4.221396103067899
 31
0
  0
LINE
  8
0
 62
7
 10
3.410000000000007
 20
3.834264068711935
 30
0
 11
3.585000000000007
 21
4.009264068711935
 31
0
  0
LINE
  8
0
 62
7
 10
3.410000000000007
 20
3.622132034355971
 30
0
 11
3.585000000000007
 21
3.797132034355971
 31
0
  0
LINE
  8
0
 62
7
 10
3.410000000000007
 20
3.410000000000006
 30
0
 11
3.585000000000007
 21
3.585000000000007
 31
0
  0
LINE
  8
0
 62
7
 10
3.462132034355966
 20
3.250000000000001
 30
0
 11
3.585000000000007
 21
3.372867965644042
 31
0
  0
ENDBLK
  8
0
  0
BLOCK
  8
0
  2
*D0
 70
1
 10
0
 20
0
 30
0
  0
LINE
  8
0
 62
7
 10
0.723040315533986
 20
4.574210341934941
 30
0
 11
0.723040315533986
 21
4.9
 31
0
  0
LINE
  8
0
 62
7
 10
0.723040315533986
 20
3.350000000000001
 30
0
 11
0.723040315533986
 21
3.82921034193494
 31
0
  0
LINE
  8
0
 62
7
 10
1.100000000000011
 20
4.9
 30
0
 11
0.6730403155339859
 21
4.9
 31
0
  0
LINE
  8
0
 62
7
 10
1.100000000000011
 20
3.350000000000001
 30
0
 11
0.6730403155339859
 21
3.350000000000001
 31
0
  0
LINE
  8
0
 62
7
 10
0.7583956545933134
 20
4.864644660940673
 30
0
 11
0.6876849764746585
 21
4.935355339059328
 31
0
  0
LINE
  8
0
 62
7
 10
0.6876849764746585
 20
3.385355339059328
 30
0
 11
0.7583956545933134
 21
3.314644660940673
 31
0
  0
TEXT
  8
0
 62
7
 10
0.768040315533986
 20
4.079210341934941
 30
0
 40
0.1
  1
1,55
 50
90
 41
0.9
  0
ENDBLK
  8
0
  0
BLOCK
  8
0
  2
*D1
 70
1
 10
0
 20
0
 30
0
  0
LINE
  8
0
 62
7
 10
2.77373357221939
 20
5.709652108811681
 30
0
 11
3.410000000000007
 21
5.709652108811681
 31
0
  0
LINE
  8
0
 62
7
 10
1.275000000000011
 20
5.709652108811681
 30
0
 11
2.02873357221939
 21
5.709652108811681
 31
0
  0
LINE
  8
0
 62
7
 10
3.410000000000007
 20
5.419999999999999
 30
0
 11
3.410000000000007
 21
5.759652108811681
 31
0
  0
LINE
  8
0
 62
7
 10
1.275000000000011
 20
5.419999999999999
 30
0
 11
1.275000000000011
 21
5.759652108811681
 31
0
  0
LINE
  8
0
 62
7
 10
3.37464466094068
 20
5.674296769752353
 30
0
 11
3.445355339059335
 21
5.745007447871008
 31
0
  0
LINE
  8
0
 62
7
 10
1.310355339059338
 20
5.745007447871008
 30
0
 11
1.239644660940684
 21
5.674296769752353
 31
0
  0
TEXT
  8
0
 62
7
 10
2.27873357221939
 20
5.664652108811681
 30
0
 40
0.1
  1
2,14
 41
0.9
  0
ENDBLK
  8
0
  0
BLOCK
  8
0
  2
*D2
 70
1
 10
0
 20
0
 30
0
  0
LINE
  8
0
 62
7
 10
3.96997944259922
 20
4.52556705913246
 30
0
 11
3.96997944259922
 21
4.9
 31
0
  0
LINE
  8
0
 62
7
 10
3.96997944259922
 20
3.25
 30
0
 11
3.96997944259922
 21
3.78056705913246
 31
0
  0
LINE
  8
0
 62
7
 10
3.585000000000007
 20
4.9
 30
0
 11
4.01997944259922
 21
4.9
 31
0
  0
LINE
  8
0
 62
7
 10
3.585000000000007
 20
3.25
 30
0
 11
4.01997944259922
 21
3.25
 31
0
  0
LINE
  8
0
 62
7
 10
3.934624103539893
 20
3.285355339059328
 30
0
 11
4.005334781658547
 21
3.214644660940673
 31
0
  0
LINE
  8
0
 62
7
 10
4.005334781658547
 20
4.864644660940673
 30
0
 11
3.934624103539893
 21
4.935355339059328
 31
0
  0
TEXT
  8
0
 62
7
 10
4.01497944259922
 20
4.03056705913246
 30
0
 40
0.1
  1
1,65
 50
90
 41
0.9
  0
ENDBLK
  8
0
  0
BLOCK
  8
0
  2
*D3
 70
1
 10
0
 20
0
 30
0
  0
LINE
  8
0
 62
7
 10
2.69941193081815
 20
11.4860419416056
 30
0
 11
3.410000000000007
 21
11.4860419416056
 31
0
  0
LINE
  8
0
 62
7
 10
1.275000000000011
 20
11.4860419416056
 30
0
 11
2.05441193081815
 21
11.4860419416056
 31
0
  0
LINE
  8
0
 62
7
 10
3.410000000000007
 20
11.2
 30
0
 11
3.410000000000007
 21
11.5360419416056
 31
0
  0
LINE
  8
0
 62
7
 10
1.275000000000011
 20
11.2
 30
0
 11
1.275000000000011
 21
11.5360419416056
 31
0
  0
LINE
  8
0
 62
7
 10
1.310355339059338
 20
11.52139728066493
 30
0
 11
1.239644660940683
 21
11.45068660254627
 31
0
  0
LINE
  8
0
 62
7
 10
3.374644660940679
 20
11.45068660254627
 30
0
 11
3.445355339059334
 21
11.52139728066493
 31
0
  0
TEXT
  8
0
 62
7
 10
2.25441193081815
 20
11.4410419416056
 30
0
 40
0.1
  1
2,14
 41
0.9
  0
ENDBLK
  8
0
  0
BLOCK
  8
0
  2
*D4
 70
1
 10
0
 20
0
 30
0
  0
LINE
  8
0
 62
7
 10
0.6622362120308911
 20
10.17759719511157
 30
0
 11
0.6622362120308911
 21
11.05
 31
0
  0
LINE
  8
0
 62
7
 10
0.6622362120308911
 20
8.300000000000001
 30
0
 11
0.6622362120308911
 21
9.09759719511157
 31
0
  0
LINE
  8
0
 62
7
 10
0.9500000000000111
 20
11.05
 30
0
 11
0.6122362120308911
 21
11.05
 31
0
  0
LINE
  8
0
 62
7
 10
0.9500000000000111
 20
8.300000000000001
 30
0
 11
0.6122362120308911
 21
8.300000000000001
 31
0
  0
LINE
  8
0
 62
7
 10
0.6268808729715637
 20
8.335355339059328
 30
0
 11
0.6975915510902185
 21
8.264644660940673
 31
0
  0
LINE
  8
0
 62
7
 10
0.6975915510902185
 20
11.01464466094067
 30
0
 11
0.6268808729715637
 21
11.08535533905933
 31
0
  0
TEXT
  8
0
 62
7
 10
0.6322362120308911
 20
9.500097195111572
 30
0
 40
0.1
  1
2,75
 50
90
 41
0.9
  0
TEXT
  8
0
 62
7
 10
0.7922362120308911
 20
9.297597195111571
 30
0
 40
0.1
  1
(260-280)
 50
90
 41
0.9
  0
ENDBLK
  8
0
  0
ENDSEC
  0
SECTION
  2
ENTITIES
  0
INSERT
  8
0
  2
*X0
 10
0
 20
0
 30
0
  0
INSERT
  8
0
  2
*X1
 10
0
 20
0
 30
0
  0
INSERT
  8
0
  2
*X2
 10
0
 20
0
 30
0
  0
INSERT
  8
0
  2
*X3
 10
0
 20
0
 30
0
  0
INSERT
  8
0
  2
*X4
 10
0
 20
0
 30
0
  0
INSERT
  8
0
  2
*X5
 10
0
 20
0
 30
0
  0
INSERT
  8
0
  2
*X6
 10
0
 20
0
 30
0
  0
INSERT
  8
0
  2
*X7
 10
0
 20
0
 30
0
  0
INSERT
  8
0
  2
*X8
 10
0
 20
0
 30
0
  0
INSERT
  8
0
  2
*X9
 10
0
 20
0
 30
0
  0
INSERT
  8
0
  2
*X10
 10
0
 20
0
 30
0
  0
INSERT
  8
0
  2
*X11
 10
0
 20
0
 30
0
  0
INSERT
  8
0
  2
*X12
 10
0
 20
0
 30
0
  0
INSERT
  8
0
  2
*X13
 10
0
 20
0
 30
0
  0
INSERT
  8
0
  2
*X14
 10
0
 20
0
 30
0
  0
INSERT
  8
0
  2
*X15
 10
0
 20
0
 30
0
  0
INSERT
  8
0
  2
*X16
 10
0
 20
0
 30
0
  0
LINE
  8
0
 62
7
 10
2.240000000000006
 20
3.865061816572471
 30
0
 11
2.233251129188849
 21
3.887212159672347
 31
0
  0
LINE
  8
0
 62
7
 10
2.233251129188849
 20
3.887212159672347
 30
0
 11
2.293614716971151
 21
3.935000000000001
 31
0
  0
LINE
  8
0
 62
7
 10
2.293614716971151
 20
3.935000000000001
 30
0
 11
2.38654160251855
 21
3.935000000000001
 31
0
  0
LINE
  8
0
 62
7
 10
2.38654160251855
 20
3.935000000000001
 30
0
 11
2.520718253250385
 21
3.844295747402811
 31
0
  0
LINE
  8
0
 62
7
 10
2.445000000000006
 20
3.250000000000001
 30
0
 11
3.355000000000006
 21
3.250000000000001
 31
0
  0
LINE
  8
0
 62
7
 10
2.445000000000006
 20
3.512819554502702
 30
0
 11
2.445000000000006
 21
3.250000000000001
 31
0
  0
LINE
  8
0
 62
7
 10
3.355000000000006
 20
3.250000000000001
 30
0
 11
3.355000000000006
 21
3.617500612922302
 31
0
  0
LINE
  8
0
 62
7
 10
2.445000000000006
 20
3.422226033244991
 30
0
 11
3.355000000000006
 21
3.526907091664592
 31
0
  0
LINE
  8
0
 62
7
 10
2.445000000000006
 20
3.611813362070191
 30
0
 11
2.445000000000006
 21
3.422226033244991
 31
0
  0
LINE
  8
0
 62
7
 10
3.355000000000006
 20
3.526907091664592
 30
0
 11
3.355000000000006
 21
3.964616701256092
 31
0
  0
LINE
  8
0
 62
7
 10
2.445000000000006
 20
3.51528618360468
 30
0
 11
3.355000000000006
 21
3.868089522790572
 31
0
  0
LINE
  8
0
 62
7
 10
2.445000000000006
 20
3.71323919814067
 30
0
 11
2.445000000000006
 21
3.51528618360468
 31
0
  0
LINE
  8
0
 62
7
 10
3.355000000000006
 20
3.868089522790572
 30
0
 11
3.355000000000006
 21
4.320148901099641
 31
0
  0
LINE
  8
0
 62
7
 10
2.445000000000006
 20
3.605059324945501
 30
0
 11
3.355000000000006
 21
4.211969027904479
 31
0
  0
LINE
  8
0
 62
7
 10
2.445000000000006
 20
3.812250614505792
 30
0
 11
2.445000000000006
 21
3.605059324945501
 31
0
  0
LINE
  8
0
 62
7
 10
3.355000000000006
 20
4.211969027904479
 30
0
 11
3.355000000000006
 21
4.79600464601877
 31
0
  0
LINE
  8
0
 62
7
 10
2.445000000000006
 20
3.679713104837242
 30
0
 11
3.355000000000006
 21
4.663467136350222
 31
0
  0
LINE
  8
0
 62
7
 10
2.445000000000006
 20
3.895321660976371
 30
0
 11
2.445000000000006
 21
3.679713104837242
 31
0
  0
LINE
  8
0
 62
7
 10
3.355000000000006
 20
4.845000000000002
 30
0
 11
2.873219058813092
 21
4.845000000000002
 31
0
  0
LINE
  8
0
 62
7
 10
3.355000000000006
 20
4.663467136350222
 30
0
 11
3.355000000000006
 21
4.845000000000002
 31
0
  0
LINE
  8
0
 62
7
 10
2.520718253250385
 20
3.844295747402811
 30
0
 11
2.971945385205395
 21
4.845000000000002
 31
0
  0
LINE
  8
0
 62
7
 10
2.971945385205395
 20
4.845000000000002
 30
0
 11
2.518334259257093
 21
4.845000000000002
 31
0
  0
LINE
  8
0
 62
7
 10
2.440099539694812
 20
3.935000000000001
 30
0
 11
2.609887403344317
 21
4.845000000000002
 31
0
  0
LINE
  8
0
 62
7
 10
2.38654160251855
 20
3.935000000000001
 30
0
 11
2.440099539694812
 21
3.935000000000001
 31
0
  0
LINE
  8
0
 62
7
 10
2.609887403344317
 20
4.845000000000002
 30
0
 11
2.199866708541222
 21
4.845000000000002
 31
0
  0
LINE
  8
0
 62
7
 10
2.317447096482783
 20
3.95386730044671
 30
0
 11
2.289909669190827
 21
4.845000000000002
 31
0
  0
LINE
  8
0
 62
7
 10
2.293614716971151
 20
3.935000000000001
 30
0
 11
2.317447096482783
 21
3.95386730044671
 31
0
  0
LINE
  8
0
 62
7
 10
2.289909669190827
 20
4.845000000000002
 30
0
 11
1.847343043123165
 21
4.845000000000002
 31
0
  0
LINE
  8
0
 62
7
 10
2.233251129188849
 20
3.887212159672347
 30
0
 11
1.941427821092746
 21
4.845000000000002
 31
0
  0
LINE
  8
0
 62
7
 10
2.240000000000006
 20
3.651569521055213
 30
0
 11
2.240000000000006
 21
3.865061816572471
 31
0
  0
LINE
  8
0
 62
7
 10
1.941427821092746
 20
4.845000000000002
 30
0
 11
1.351612082342635
 21
4.845000000000002
 31
0
  0
LINE
  8
0
 62
7
 10
2.240000000000006
 20
3.802292875617482
 30
0
 11
1.463810328880045
 21
4.845000000000002
 31
0
  0
LINE
  8
0
 62
7
 10
2.240000000000006
 20
3.595773678369742
 30
0
 11
2.240000000000006
 21
3.802292875617482
 31
0
  0
LINE
  8
0
 62
7
 10
1.330000000000005
 20
4.845000000000002
 30
0
 11
1.330000000000005
 21
4.31495053074079
 31
0
  0
LINE
  8
0
 62
7
 10
1.463810328880045
 20
4.845000000000002
 30
0
 11
1.330000000000005
 21
4.845000000000002
 31
0
  0
LINE
  8
0
 62
7
 10
2.240000000000006
 20
3.710486817671443
 30
0
 11
1.330000000000005
 21
4.429663670042484
 31
0
  0
LINE
  8
0
 62
7
 10
2.240000000000006
 20
3.512674805084641
 30
0
 11
2.240000000000006
 21
3.710486817671443
 31
0
  0
LINE
  8
0
 62
7
 10
1.330000000000005
 20
4.429663670042484
 30
0
 11
1.330000000000005
 21
3.959790345047393
 31
0
  0
LINE
  8
0
 62
7
 10
2.240000000000006
 20
3.612951560621611
 30
0
 11
1.330000000000005
 21
4.060067100584372
 31
0
  0
LINE
  8
0
 62
7
 10
2.240000000000006
 20
3.424214105605751
 30
0
 11
2.240000000000006
 21
3.612951560621611
 31
0
  0
LINE
  8
0
 62
7
 10
1.330000000000005
 20
4.060067100584372
 30
0
 11
1.330000000000005
 21
3.629400152380241
 31
0
  0
LINE
  8
0
 62
7
 10
2.240000000000006
 20
3.51647358177361
 30
0
 11
1.330000000000005
 21
3.721659628548102
 31
0
  0
LINE
  8
0
 62
7
 10
2.240000000000006
 20
3.390000000000001
 30
0
 11
2.240000000000006
 21
3.51647358177361
 31
0
  0
LINE
  8
0
 62
7
 10
1.330000000000005
 20
3.721659628548102
 30
0
 11
1.330000000000005
 21
3.390000000000001
 31
0
  0
LINE
  8
0
 62
7
 10
2.947233264936253
 20
3.934999999972822
 30
0
 11
2.947233264936253
 21
3.250000000000001
 31
0
  0
LINE
  8
0
 62
7
 10
2.240000000025111
 20
4.437233264936252
 30
0
 11
2.444999999990441
 21
4.437233264936252
 31
0
  0
LINE
  8
0
 62
7
 10
1.843421834325454
 20
3.461000000000001
 30
0
 11
1.737766735063751
 21
3.400000000000001
 31
0
  0
LINE
  8
0
 62
7
 10
1.632111635802056
 20
3.461000000000001
 30
0
 11
1.843421834325454
 21
3.461000000000001
 31
0
  0
LINE
  8
0
 62
7
 10
1.737766735063751
 20
3.400000000000001
 30
0
 11
1.632111635802056
 21
3.461000000000001
 31
0
  0
LINE
  8
0
 62
7
 10
1.737766735063751
 20
3.400000000000001
 30
0
 11
1.737766735063751
 21
3.934999999990441
 31
0
  0
LINE
  8
0
 62
7
 10
2.44500039000001
 20
8.596800069999993
 30
0
 11
3.354998970000013
 21
8.596800069999993
 31
0
  0
LINE
  8
0
 62
7
 10
3.354998970000013
 20
8.596800069999993
 30
0
 11
3.354998970000013
 21
8.531800069999994
 31
0
  0
LINE
  8
0
 62
7
 10
2.44500039000001
 20
8.531800069999994
 30
0
 11
2.44500039000001
 21
8.596800069999993
 31
0
  0
LINE
  8
0
 62
7
 10
3.354998970000013
 20
8.531800069999994
 30
0
 11
2.44500039000001
 21
8.531800069999994
 31
0
  0
LINE
  8
0
 62
7
 10
2.44500039000001
 20
8.793200059999995
 30
0
 11
3.355000780000013
 21
8.793200059999995
 31
0
  0
LINE
  8
0
 62
7
 10
3.355000780000013
 20
8.793200059999995
 30
0
 11
3.355000780000013
 21
8.728200059999997
 31
0
  0
LINE
  8
0
 62
7
 10
2.44500039000001
 20
8.728200059999997
 30
0
 11
2.44500039000001
 21
8.793200059999995
 31
0
  0
LINE
  8
0
 62
7
 10
3.355000780000013
 20
8.728200059999997
 30
0
 11
2.44500039000001
 21
8.728200059999997
 31
0
  0
LINE
  8
0
 62
7
 10
2.445000310000011
 20
8.989600059999997
 30
0
 11
3.355001090000011
 21
8.989600059999997
 31
0
  0
LINE
  8
0
 62
7
 10
3.355001090000011
 20
8.989600059999997
 30
0
 11
3.355001090000011
 21
8.924600059999998
 31
0
  0
LINE
  8
0
 62
7
 10
2.445000310000011
 20
8.924600059999998
 30
0
 11
2.445000310000011
 21
8.989600059999997
 31
0
  0
LINE
  8
0
 62
7
 10
3.355001090000011
 20
8.924600059999998
 30
0
 11
2.445000310000011
 21
8.924600059999998
 31
0
  0
LINE
  8
0
 62
7
 10
2.44500039000001
 20
9.186000049999995
 30
0
 11
3.355000480000012
 21
9.186000049999995
 31
0
  0
LINE
  8
0
 62
7
 10
3.355000480000012
 20
9.186000049999995
 30
0
 11
3.355000480000012
 21
9.121000049999996
 31
0
  0
LINE
  8
0
 62
7
 10
2.44500039000001
 20
9.121000049999996
 30
0
 11
2.44500039000001
 21
9.186000049999995
 31
0
  0
LINE
  8
0
 62
7
 10
3.355000480000012
 20
9.121000049999996
 30
0
 11
2.44500039000001
 21
9.121000049999996
 31
0
  0
LINE
  8
0
 62
7
 10
2.445000230000011
 20
9.382400049999998
 30
0
 11
3.355000310000011
 21
9.382400049999998
 31
0
  0
LINE
  8
0
 62
7
 10
3.355000310000011
 20
9.317400049999996
 30
0
 11
2.445000230000011
 21
9.317400049999996
 31
0
  0
LINE
  8
0
 62
7
 10
3.355000310000011
 20
9.382400049999998
 30
0
 11
3.355000310000011
 21
9.317400049999996
 31
0
  0
LINE
  8
0
 62
7
 10
2.445000230000011
 20
9.317400049999996
 30
0
 11
2.445000230000011
 21
9.382400049999998
 31
0
  0
LINE
  8
0
 62
7
 10
2.971944850000009
 20
9.513800039999996
 30
0
 11
2.352801670000012
 21
9.513800039999996
 31
0
  0
LINE
  8
0
 62
7
 10
2.352801670000012
 20
9.578800039999996
 30
0
 11
2.971944850000009
 21
9.578800039999996
 31
0
  0
LINE
  8
0
 62
7
 10
2.971944850000009
 20
9.578800039999996
 30
0
 11
2.971944850000009
 21
9.513800039999996
 31
0
  0
LINE
  8
0
 62
7
 10
2.352801670000012
 20
9.513800039999996
 30
0
 11
2.352801670000012
 21
9.578800039999996
 31
0
  0
LINE
  8
0
 62
7
 10
2.609886710000011
 20
9.710200029999998
 30
0
 11
2.199865960000011
 21
9.710200029999998
 31
0
  0
LINE
  8
0
 62
7
 10
2.199865960000011
 20
9.775200029999997
 30
0
 11
2.609886710000011
 21
9.775200029999997
 31
0
  0
LINE
  8
0
 62
7
 10
2.609886710000011
 20
9.775200029999997
 30
0
 11
2.609886710000011
 21
9.710200029999998
 31
0
  0
LINE
  8
0
 62
7
 10
2.199865960000011
 20
9.710200029999998
 30
0
 11
2.199865960000011
 21
9.775200029999997
 31
0
  0
LINE
  8
0
 62
7
 10
2.317446520000011
 20
9.90660003
 30
0
 11
1.84734284000001
 21
9.90660003
 31
0
  0
LINE
  8
0
 62
7
 10
1.84734284000001
 20
9.971600029999998
 30
0
 11
2.317446520000011
 21
9.971600029999998
 31
0
  0
LINE
  8
0
 62
7
 10
2.317446520000011
 20
9.971600029999998
 30
0
 11
2.317446520000011
 21
9.90660003
 31
0
  0
LINE
  8
0
 62
7
 10
1.84734284000001
 20
9.90660003
 30
0
 11
1.84734284000001
 21
9.971600029999998
 31
0
  0
LINE
  8
0
 62
7
 10
1.35161164000001
 20
10.16800002
 30
0
 11
2.240000310000011
 21
10.16800002
 31
0
  0
LINE
  8
0
 62
7
 10
2.240000310000011
 20
10.10300002
 30
0
 11
1.35161164000001
 21
10.10300002
 31
0
  0
LINE
  8
0
 62
7
 10
2.240000310000011
 20
10.16800002
 30
0
 11
2.240000310000011
 21
10.10300002
 31
0
  0
LINE
  8
0
 62
7
 10
1.35161164000001
 20
10.10300002
 30
0
 11
1.35161164000001
 21
10.16800002
 31
0
  0
LINE
  8
0
 62
7
 10
1.33000031000001
 20
10.36440002
 30
0
 11
2.240000160000009
 21
10.36440002
 31
0
  0
LINE
  8
0
 62
7
 10
2.240000160000009
 20
10.29940002
 30
0
 11
1.33000031000001
 21
10.29940002
 31
0
  0
LINE
  8
0
 62
7
 10
2.240000160000009
 20
10.36440002
 30
0
 11
2.240000160000009
 21
10.29940002
 31
0
  0
LINE
  8
0
 62
7
 10
1.33000031000001
 20
10.29940002
 30
0
 11
1.33000031000001
 21
10.36440002
 31
0
  0
LINE
  8
0
 62
7
 10
1.330000160000011
 20
10.56080001
 30
0
 11
2.24000046000001
 21
10.56080001
 31
0
  0
LINE
  8
0
 62
7
 10
2.24000046000001
 20
10.56080001
 30
0
 11
2.24000046000001
 21
10.49580001
 31
0
  0
LINE
  8
0
 62
7
 10
1.330000160000011
 20
10.49580001
 30
0
 11
1.330000160000011
 21
10.56080001
 31
0
  0
LINE
  8
0
 62
7
 10
2.24000046000001
 20
10.49580001
 30
0
 11
1.330000160000011
 21
10.49580001
 31
0
  0
LINE
  8
0
 62
7
 10
1.33000031000001
 20
10.7572
 30
0
 11
2.24000039000001
 21
10.7572
 31
0
  0
LINE
  8
0
 62
7
 10
2.24000039000001
 20
10.7572
 30
0
 11
2.24000039000001
 21
10.6922
 31
0
  0
LINE
  8
0
 62
7
 10
1.33000031000001
 20
10.6922
 30
0
 11
1.33000031000001
 21
10.7572
 31
0
  0
LINE
  8
0
 62
7
 10
2.24000039000001
 20
10.6922
 30
0
 11
1.33000031000001
 21
10.6922
 31
0
  0
LINE
  8
0
 62
7
  6
DASHED
 10
1.330000000000011
 20
10.95359999999999
 30
0
 11
2.24000046000001
 21
10.95359999999999
 31
0
  0
LINE
  8
0
 62
7
  6
DASHED
 10
2.24000046000001
 20
10.95359999999999
 30
0
 11
2.24000046000001
 21
10.88859999999999
 31
0
  0
LINE
  8
0
 62
7
  6
DASHED
 10
1.330000000000011
 20
10.88859999999999
 30
0
 11
1.330000000000011
 21
10.95359999999999
 31
0
  0
LINE
  8
0
 62
7
  6
DASHED
 10
2.24000046000001
 20
10.88859999999999
 30
0
 11
1.330000000000011
 21
10.88859999999999
 31
0
  0
LINE
  8
0
 62
7
 10
6.309999960000004
 20
8.596800069999999
 30
0
 11
6.677500610000006
 21
8.596800069999999
 31
0
  0
LINE
  8
0
 62
7
 10
6.677500610000006
 20
8.531800069999997
 30
0
 11
6.309999960000004
 21
8.531800069999997
 31
0
  0
LINE
  8
0
 62
7
 10
6.309999960000004
 20
8.531800069999997
 30
0
 11
6.309999960000004
 21
8.596800069999999
 31
0
  0
LINE
  8
0
 62
7
 10
6.677500610000006
 20
8.596800069999999
 30
0
 11
6.677500610000006
 21
8.531800069999997
 31
0
  0
LINE
  8
0
 62
7
 10
7.024616700000006
 20
8.728200059999997
 30
0
 11
6.482226180000004
 21
8.728200059999997
 31
0
  0
LINE
  8
0
 62
7
 10
6.482226180000004
 20
8.793200059999995
 30
0
 11
7.024616700000006
 21
8.793200059999995
 31
0
  0
LINE
  8
0
 62
7
 10
6.482226180000004
 20
8.728200059999997
 30
0
 11
6.482226180000004
 21
8.793200059999995
 31
0
  0
LINE
  8
0
 62
7
 10
7.024616700000006
 20
8.793200059999995
 30
0
 11
7.024616700000006
 21
8.728200059999997
 31
0
  0
LINE
  8
0
 62
7
 10
7.380148920000007
 20
8.924600059999998
 30
0
 11
6.575286180000005
 21
8.924600059999998
 31
0
  0
LINE
  8
0
 62
7
 10
6.575286180000005
 20
8.989600059999997
 30
0
 11
7.380148920000007
 21
8.989600059999997
 31
0
  0
LINE
  8
0
 62
7
 10
6.575286180000005
 20
8.924600059999998
 30
0
 11
6.575286180000005
 21
8.989600059999997
 31
0
  0
LINE
  8
0
 62
7
 10
7.380148920000007
 20
8.989600059999997
 30
0
 11
7.380148920000007
 21
8.924600059999998
 31
0
  0
LINE
  8
0
 62
7
 10
7.856004640000006
 20
9.121000049999996
 30
0
 11
6.665059320000006
 21
9.121000049999996
 31
0
  0
LINE
  8
0
 62
7
 10
6.665059320000006
 20
9.186000049999995
 30
0
 11
7.856004640000006
 21
9.186000049999995
 31
0
  0
LINE
  8
0
 62
7
 10
6.665059320000006
 20
9.121000049999996
 30
0
 11
6.665059320000006
 21
9.186000049999995
 31
0
  0
LINE
  8
0
 62
7
 10
7.856004640000006
 20
9.186000049999995
 30
0
 11
7.856004640000006
 21
9.121000049999996
 31
0
  0
LINE
  8
0
 62
7
 10
7.905000000000006
 20
9.317400049999996
 30
0
 11
6.739713130000005
 21
9.317400049999996
 31
0
  0
LINE
  8
0
 62
7
 10
6.739713130000005
 20
9.382400049999998
 30
0
 11
7.905000000000006
 21
9.382400049999998
 31
0
  0
LINE
  8
0
 62
7
 10
6.739713130000005
 20
9.317400049999996
 30
0
 11
6.739713130000005
 21
9.382400049999998
 31
0
  0
LINE
  8
0
 62
7
 10
7.905000000000006
 20
9.382400049999998
 30
0
 11
7.905000000000006
 21
9.317400049999996
 31
0
  0
LINE
  8
0
 62
7
 10
6.904295880000006
 20
9.578800039999996
 30
0
 11
7.905000000000006
 21
9.578800039999996
 31
0
  0
LINE
  8
0
 62
7
 10
7.905000000000006
 20
9.513800039999996
 30
0
 11
6.904295880000006
 21
9.513800039999996
 31
0
  0
LINE
  8
0
 62
7
 10
6.904295880000006
 20
9.513800039999996
 30
0
 11
6.904295880000006
 21
9.578800039999996
 31
0
  0
LINE
  8
0
 62
7
 10
7.905000000000006
 20
9.578800039999996
 30
0
 11
7.905000000000006
 21
9.513800039999996
 31
0
  0
LINE
  8
0
 62
7
 10
6.995000070000005
 20
9.775200029999997
 30
0
 11
7.905000000000006
 21
9.775200029999997
 31
0
  0
LINE
  8
0
 62
7
 10
6.995000070000005
 20
9.710200029999998
 30
0
 11
6.995000070000005
 21
9.775200029999997
 31
0
  0
LINE
  8
0
 62
7
 10
7.905000000000006
 20
9.775200029999997
 30
0
 11
7.905000000000006
 21
9.710200029999998
 31
0
  0
LINE
  8
0
 62
7
 10
7.905000000000006
 20
9.710200029999998
 30
0
 11
6.995000070000005
 21
9.710200029999998
 31
0
  0
LINE
  8
0
 62
7
 10
6.887202990000006
 20
9.971600029999998
 30
0
 11
7.905000000000006
 21
9.971600029999998
 31
0
  0
LINE
  8
0
 62
7
 10
7.905000000000006
 20
9.90660003
 30
0
 11
6.887202990000006
 21
9.90660003
 31
0
  0
LINE
  8
0
 62
7
 10
6.887202990000006
 20
9.90660003
 30
0
 11
6.887202990000006
 21
9.971600029999998
 31
0
  0
LINE
  8
0
 62
7
 10
7.905000000000006
 20
9.971600029999998
 30
0
 11
7.905000000000006
 21
9.90660003
 31
0
  0
LINE
  8
0
 62
7
 10
6.711569360000003
 20
10.16800002
 30
0
 11
7.904999840000007
 21
10.16800002
 31
0
  0
LINE
  8
0
 62
7
 10
7.904999840000007
 20
10.10300002
 30
0
 11
6.711569360000003
 21
10.10300002
 31
0
  0
LINE
  8
0
 62
7
 10
6.711569360000003
 20
10.10300002
 30
0
 11
6.711569360000003
 21
10.16800002
 31
0
  0
LINE
  8
0
 62
7
 10
7.904999840000007
 20
10.16800002
 30
0
 11
7.904999840000007
 21
10.10300002
 31
0
  0
LINE
  8
0
 62
7
 10
7.904999840000007
 20
10.29940002
 30
0
 11
6.655773620000005
 21
10.29940002
 31
0
  0
LINE
  8
0
 62
7
 10
6.655773620000005
 20
10.36440002
 30
0
 11
7.904999840000007
 21
10.36440002
 31
0
  0
LINE
  8
0
 62
7
 10
6.655773620000005
 20
10.29940002
 30
0
 11
6.655773620000005
 21
10.36440002
 31
0
  0
LINE
  8
0
 62
7
 10
7.904999840000007
 20
10.36440002
 30
0
 11
7.904999840000007
 21
10.29940002
 31
0
  0
LINE
  8
0
 62
7
 10
7.489663390000004
 20
10.49580001
 30
0
 11
6.572674750000004
 21
10.49580001
 31
0
  0
LINE
  8
0
 62
7
 10
6.572674750000004
 20
10.56080001
 30
0
 11
7.489663390000004
 21
10.56080001
 31
0
  0
LINE
  8
0
 62
7
 10
6.572674750000004
 20
10.49580001
 30
0
 11
6.572674750000004
 21
10.56080001
 31
0
  0
LINE
  8
0
 62
7
 10
7.489663390000004
 20
10.56080001
 30
0
 11
7.489663390000004
 21
10.49580001
 31
0
  0
LINE
  8
0
 62
7
 10
7.120066830000003
 20
10.6922
 30
0
 11
6.484214250000004
 21
10.6922
 31
0
  0
LINE
  8
0
 62
7
 10
6.484214250000004
 20
10.7572
 30
0
 11
7.120066830000003
 21
10.7572
 31
0
  0
LINE
  8
0
 62
7
 10
6.484214250000004
 20
10.6922
 30
0
 11
6.484214250000004
 21
10.7572
 31
0
  0
LINE
  8
0
 62
7
 10
7.120066830000003
 20
10.7572
 30
0
 11
7.120066830000003
 21
10.6922
 31
0
  0
LINE
  8
0
 62
7
 10
6.449999080000004
 20
10.95359999999999
 30
0
 11
6.781659090000002
 21
10.95359999999999
 31
0
  0
LINE
  8
0
 62
7
 10
6.781659090000002
 20
10.88859999999999
 30
0
 11
6.449999080000004
 21
10.88859999999999
 31
0
  0
LINE
  8
0
 62
7
 10
6.449999080000004
 20
10.88859999999999
 30
0
 11
6.449999080000004
 21
10.95359999999999
 31
0
  0
LINE
  8
0
 62
7
 10
6.781659090000002
 20
10.95359999999999
 30
0
 11
6.781659090000002
 21
10.88859999999999
 31
0
  0
LINE
  8
0
 62
7
  6
DASHDOT
 10
1.100000000000011
 20
5.569999999999999
 30
0
 11
1.275000000000011
 21
5.569999999999999
 31
0
  0
LINE
  8
0
 62
7
  6
DASHDOT
 10
1.050000000000011
 20
5.569999999999999
 30
0
 11
1.100000000000011
 21
5.569999999999999
 31
0
  0
LINE
  8
0
 62
7
  6
DASHDOT
 10
3.735000000000007
 20
4.900000000000001
 30
0
 11
3.735000000000007
 21
5.140000000000001
 31
0
  0
LINE
  8
0
 62
7
  6
DASHDOT
 10
0.935000000000011
 20
4.900000000000001
 30
0
 11
0.935000000000011
 21
5.140000000000001
 31
0
  0
LINE
  8
0
 62
7
  6
DASHDOT
 10
3.735000000000007
 20
5.140000000000001
 30
0
 11
3.735000000000007
 21
5.180000000000001
 31
0
  0
LINE
  8
0
 62
7
  6
DASHDOT
 10
0.935000000000011
 20
5.140000000000001
 30
0
 11
0.935000000000011
 21
5.180000000000001
 31
0
  0
LINE
  8
0
 62
7
  6
DASHDOT
 10
3.735000000000007
 20
4.850000000000001
 30
0
 11
3.735000000000007
 21
4.900000000000001
 31
0
  0
LINE
  8
0
 62
7
  6
DASHDOT
 10
3.735000000000007
 20
5.180000000000001
 30
0
 11
3.735000000000007
 21
5.419999999999998
 31
0
  0
LINE
  8
0
 62
7
  6
DASHDOT
 10
3.360000000000007
 20
5.569999999999999
 30
0
 11
3.410000000000007
 21
5.569999999999999
 31
0
  0
LINE
  8
0
 62
7
  6
DASHDOT
 10
3.410000000000007
 20
5.569999999999999
 30
0
 11
3.585000000000007
 21
5.569999999999999
 31
0
  0
LINE
  8
0
 62
7
  6
DASHDOT
 10
0.935000000000011
 20
4.850000000000001
 30
0
 11
0.935000000000011
 21
4.900000000000001
 31
0
  0
LINE
  8
0
 62
7
  6
DASHDOT
 10
0.935000000000011
 20
5.180000000000001
 30
0
 11
0.935000000000011
 21
5.419999999999998
 31
0
  0
LINE
  8
0
 62
7
  6
DASHDOT
 10
0.935000000000011
 20
5.419999999999998
 30
0
 11
0.935000000000011
 21
5.469999999999999
 31
0
  0
LINE
  8
0
 62
7
  6
DASHDOT
 10
3.735000000000007
 20
5.419999999999998
 30
0
 11
3.735000000000007
 21
5.469999999999999
 31
0
  0
LINE
  8
0
 62
7
  6
DASHDOT
 10
1.275000000000011
 20
5.569999999999999
 30
0
 11
1.325000000000011
 21
5.569999999999999
 31
0
  0
LINE
  8
0
 62
7
  6
DASHDOT
 10
3.585000000000007
 20
5.569999999999999
 30
0
 11
3.635000000000007
 21
5.569999999999999
 31
0
  0
LINE
  8
0
 62
7
 10
3.410000000000007
 20
3.400000000000001
 30
0
 11
3.410000000000007
 21
3.350000000000001
 31
0
  0
LINE
  8
0
 62
7
  6
DASHDOT
 10
3.410000000000007
 20
3.350000000000001
 30
0
 11
1.275000000000011
 21
3.350000000000001
 31
0
  0
LINE
  8
0
 62
7
 10
1.275000000000011
 20
3.350000000000001
 30
0
 11
1.275000000000011
 21
3.400000000000001
 31
0
  0
LINE
  8
0
 62
7
 10
3.410000000000007
 20
4.900000000000001
 30
0
 11
3.410000000000007
 21
3.400000000000001
 31
0
  0
LINE
  8
0
 62
7
 10
3.410000000000007
 20
3.400000000000001
 30
0
 11
1.275000000000011
 21
3.400000000000001
 31
0
  0
LINE
  8
0
 62
7
 10
1.100000000000011
 20
3.350000000000001
 30
0
 11
1.275000000000011
 21
3.350000000000001
 31
0
  0
LINE
  8
0
 62
7
 10
0.935000000000011
 20
4.900000000000001
 30
0
 11
1.100000000000011
 21
4.900000000000001
 31
0
  0
LINE
  8
0
 62
7
 10
1.100000000000011
 20
4.900000000000001
 30
0
 11
1.100000000000011
 21
3.350000000000001
 31
0
  0
LINE
  8
0
 62
7
 10
1.275000000000011
 20
3.400000000000001
 30
0
 11
1.275000000000011
 21
4.900000000000001
 31
0
  0
LINE
  8
0
 62
7
 10
1.275000000000011
 20
4.900000000000001
 30
0
 11
3.410000000000007
 21
4.900000000000001
 31
0
  0
LINE
  8
0
 62
7
 10
3.585000000000007
 20
3.250000000000001
 30
0
 11
3.585000000000007
 21
4.900000000000001
 31
0
  0
LINE
  8
0
 62
7
 10
3.410000000000007
 20
3.250000000000001
 30
0
 11
3.585000000000007
 21
3.250000000000001
 31
0
  0
LINE
  8
0
 62
7
 10
3.410000000000007
 20
3.350000000000001
 30
0
 11
3.410000000000007
 21
3.250000000000001
 31
0
  0
LINE
  8
0
 62
7
 10
3.585000000000007
 20
4.900000000000001
 30
0
 11
3.735000000000007
 21
4.900000000000001
 31
0
  0
LINE
  8
0
 62
7
 10
0.935000000000011
 20
5.140000000000001
 30
0
 11
3.735000000000007
 21
5.140000000000001
 31
0
  0
LINE
  8
0
 62
7
 10
0.935000000000011
 20
5.180000000000001
 30
0
 11
3.735000000000007
 21
5.180000000000001
 31
0
  0
LINE
  8
0
 62
7
 10
0.935000000000011
 20
5.419999999999998
 30
0
 11
1.100000000000011
 21
5.419999999999998
 31
0
  0
LINE
  8
0
 62
7
 10
1.100000000000011
 20
5.419999999999998
 30
0
 11
1.100000000000011
 21
5.569999999999999
 31
0
  0
LINE
  8
0
 62
7
 10
1.275000000000011
 20
5.569999999999999
 30
0
 11
1.275000000000011
 21
5.419999999999998
 31
0
  0
LINE
  8
0
 62
7
 10
1.275000000000011
 20
5.419999999999998
 30
0
 11
3.410000000000007
 21
5.419999999999998
 31
0
  0
LINE
  8
0
 62
7
 10
3.410000000000007
 20
5.419999999999998
 30
0
 11
3.410000000000007
 21
5.569999999999999
 31
0
  0
LINE
  8
0
 62
7
 10
3.585000000000007
 20
5.569999999999999
 30
0
 11
3.585000000000007
 21
5.419999999999998
 31
0
  0
LINE
  8
0
 62
7
 10
3.585000000000007
 20
5.419999999999998
 30
0
 11
3.735000000000007
 21
5.419999999999998
 31
0
  0
LINE
  8
0
 62
7
  6
DASHED
 10
6.410000000000005
 20
8.1
 30
0
 11
7.960000000000005
 21
8.1
 31
0
  0
LINE
  8
0
 62
7
  6
DASHED
 10
6.410000000000005
 20
8.300000000000001
 30
0
 11
7.960000000000005
 21
8.300000000000001
 31
0
  0
LINE
  8
0
 62
7
  6
DASHED
 10
6.410000000000005
 20
10.85
 30
0
 11
7.960000000000005
 21
10.85
 31
0
  0
LINE
  8
0
 62
7
  6
DASHED
 10
6.410000000000005
 20
11.05
 30
0
 11
7.960000000000005
 21
11.05
 31
0
  0
LINE
  8
0
 62
7
  6
DASHDOT
 10
6.110000000000004
 20
10.85
 30
0
 11
6.110000000000004
 21
11.05
 31
0
  0
LINE
  8
0
 62
7
  6
DASHDOT
 10
6.110000000000004
 20
10.8
 30
0
 11
6.110000000000004
 21
10.85
 31
0
  0
LINE
  8
0
 62
7
  6
DASHDOT
 10
7.960000000000005
 20
11.2
 30
0
 11
8.200000000000006
 21
11.2
 31
0
  0
LINE
  8
0
 62
7
  6
DASHDOT
 10
7.910000000000005
 20
11.2
 30
0
 11
7.960000000000005
 21
11.2
 31
0
  0
LINE
  8
0
 62
7
  6
DASHDOT
 10
7.910000000000005
 20
7.95
 30
0
 11
7.960000000000005
 21
7.95
 31
0
  0
LINE
  8
0
 62
7
  6
DASHDOT
 10
7.960000000000005
 20
7.95
 30
0
 11
8.200000000000006
 21
7.95
 31
0
  0
LINE
  8
0
 62
7
  6
DASHDOT
 10
6.110000000000004
 20
8.300000000000001
 30
0
 11
6.110000000000004
 21
8.1
 31
0
  0
LINE
  8
0
 62
7
  6
DASHDOT
 10
6.110000000000004
 20
8.4
 30
0
 11
6.110000000000004
 21
8.300000000000001
 31
0
  0
LINE
  8
0
 62
7
  6
DASHDOT
 10
6.110000000000004
 20
11.05
 30
0
 11
6.110000000000004
 21
11.15
 31
0
  0
LINE
  8
0
 62
7
 10
6.110000000000004
 20
11.15
 30
0
 11
6.410000000000005
 21
11.15
 31
0
  0
LINE
  8
0
 62
7
  6
DASHDOT
 10
6.110000000000004
 20
8.450000000000001
 30
0
 11
6.110000000000004
 21
8.4
 31
0
  0
LINE
  8
0
 62
7
 10
6.110000000000004
 20
8.4
 30
0
 11
6.410000000000005
 21
8.4
 31
0
  0
LINE
  8
0
 62
7
  6
DASHDOT
 10
8.200000000000006
 20
7.95
 30
0
 11
8.250000000000005
 21
7.95
 31
0
  0
LINE
  8
0
 62
7
  6
DASHDOT
 10
6.110000000000004
 20
8.1
 30
0
 11
6.110000000000004
 21
8.050000000000001
 31
0
  0
LINE
  8
0
 62
7
  6
DASHDOT
 10
6.110000000000004
 20
11.15
 30
0
 11
6.110000000000004
 21
11.2
 31
0
  0
LINE
  8
0
 62
7
  6
DASHDOT
 10
8.200000000000006
 20
11.2
 30
0
 11
8.250000000000005
 21
11.2
 31
0
  0
LINE
  8
0
 62
7
 10
6.110000000000004
 20
8.1
 30
0
 11
6.410000000000005
 21
8.1
 31
0
  0
LINE
  8
0
 62
7
 10
6.410000000000005
 20
8.1
 30
0
 11
6.410000000000005
 21
8.300000000000001
 31
0
  0
LINE
  8
0
 62
7
 10
6.110000000000004
 20
8.300000000000001
 30
0
 11
6.410000000000005
 21
8.300000000000001
 31
0
  0
LINE
  8
0
 62
7
 10
6.110000000000004
 20
11.05
 30
0
 11
6.410000000000005
 21
11.05
 31
0
  0
LINE
  8
0
 62
7
 10
6.110000000000004
 20
10.85
 30
0
 11
6.410000000000005
 21
10.85
 31
0
  0
LINE
  8
0
 62
7
 10
6.410000000000005
 20
10.85
 30
0
 11
6.410000000000005
 21
11.05
 31
0
  0
LINE
  8
0
 62
7
 10
7.960000000000005
 20
7.95
 30
0
 11
7.960000000000005
 21
8.1
 31
0
  0
LINE
  8
0
 62
7
 10
8.200000000000006
 20
8.300000000000001
 30
0
 11
8.200000000000006
 21
8.1
 31
0
  0
LINE
  8
0
 62
7
 10
7.960000000000005
 20
8.1
 30
0
 11
8.200000000000006
 21
8.1
 31
0
  0
LINE
  8
0
 62
7
 10
7.960000000000005
 20
8.1
 30
0
 11
7.960000000000005
 21
8.300000000000001
 31
0
  0
LINE
  8
0
 62
7
 10
8.200000000000006
 20
10.85
 30
0
 11
8.200000000000006
 21
8.300000000000001
 31
0
  0
LINE
  8
0
 62
7
 10
7.960000000000005
 20
8.300000000000001
 30
0
 11
8.200000000000006
 21
8.300000000000001
 31
0
  0
LINE
  8
0
 62
7
 10
7.960000000000005
 20
8.300000000000001
 30
0
 11
7.960000000000005
 21
10.85
 31
0
  0
LINE
  8
0
 62
7
 10
8.200000000000006
 20
11.05
 30
0
 11
8.200000000000006
 21
10.85
 31
0
  0
LINE
  8
0
 62
7
 10
7.960000000000005
 20
10.85
 30
0
 11
8.200000000000006
 21
10.85
 31
0
  0
LINE
  8
0
 62
7
 10
7.960000000000005
 20
10.85
 30
0
 11
7.960000000000005
 21
11.05
 31
0
  0
LINE
  8
0
 62
7
 10
8.200000000000006
 20
11.2
 30
0
 11
8.200000000000006
 21
11.05
 31
0
  0
LINE
  8
0
 62
7
 10
7.960000000000005
 20
11.05
 30
0
 11
8.200000000000006
 21
11.05
 31
0
  0
LINE
  8
0
 62
7
 10
7.960000000000005
 20
11.05
 30
0
 11
7.960000000000005
 21
11.2
 31
0
  0
LINE
  8
0
 62
7
 10
8.200000000000006
 20
8.1
 30
0
 11
8.200000000000006
 21
7.95
 31
0
  0
LINE
  8
0
 62
7
  6
DASHDOT
 10
3.585000000000007
 20
11.2
 30
0
 11
3.635000000000007
 21
11.2
 31
0
  0
LINE
  8
0
 62
7
  6
DASHDOT
 10
3.410000000000007
 20
11.2
 30
0
 11
3.585000000000007
 21
11.2
 31
0
  0
LINE
  8
0
 62
7
  6
DASHDOT
 10
3.735000000000007
 20
11.05
 30
0
 11
3.735000000000007
 21
11.15
 31
0
  0
LINE
  8
0
 62
7
  6
DASHDOT
 10
3.735000000000007
 20
10.85
 30
0
 11
3.735000000000007
 21
11.05
 31
0
  0
LINE
  8
0
 62
7
  6
DASHDOT
 10
1.275000000000011
 20
11.2
 30
0
 11
1.325000000000011
 21
11.2
 31
0
  0
LINE
  8
0
 62
7
  6
DASHDOT
 10
1.100000000000011
 20
11.2
 30
0
 11
1.275000000000011
 21
11.2
 31
0
  0
LINE
  8
0
 62
7
  6
DASHDOT
 10
0.9500000000000111
 20
11.05
 30
0
 11
0.9500000000000111
 21
11.15
 31
0
  0
LINE
  8
0
 62
7
  6
DASHDOT
 10
0.9500000000000111
 20
10.85
 30
0
 11
0.9500000000000111
 21
11.05
 31
0
  0
LINE
  8
0
 62
7
  6
DASHDOT
 10
1.275000000000011
 20
7.95
 30
0
 11
1.325000000000011
 21
7.95
 31
0
  0
LINE
  8
0
 62
7
  6
DASHDOT
 10
1.100000000000011
 20
7.95
 30
0
 11
1.275000000000011
 21
7.95
 31
0
  0
LINE
  8
0
 62
7
  6
DASHDOT
 10
0.9500000000000111
 20
8.300000000000001
 30
0
 11
0.9500000000000111
 21
8.4
 31
0
  0
LINE
  8
0
 62
7
  6
DASHDOT
 10
0.9500000000000111
 20
8.1
 30
0
 11
0.9500000000000111
 21
8.300000000000001
 31
0
  0
LINE
  8
0
 62
7
  6
DASHDOT
 10
3.585000000000007
 20
7.95
 30
0
 11
3.635000000000007
 21
7.95
 31
0
  0
LINE
  8
0
 62
7
  6
DASHDOT
 10
3.410000000000007
 20
7.95
 30
0
 11
3.585000000000007
 21
7.95
 31
0
  0
LINE
  8
0
 62
7
  6
DASHDOT
 10
3.735000000000007
 20
8.300000000000001
 30
0
 11
3.735000000000007
 21
8.4
 31
0
  0
LINE
  8
0
 62
7
  6
DASHDOT
 10
3.735000000000007
 20
8.1
 30
0
 11
3.735000000000007
 21
8.300000000000001
 31
0
  0
LINE
  8
0
 62
7
  6
DASHDOT
 10
3.735000000000007
 20
11.15
 30
0
 11
3.735000000000007
 21
11.2
 31
0
  0
LINE
  8
0
 62
7
 10
3.585000000000007
 20
11.15
 30
0
 11
3.585000000000007
 21
11.2
 31
0
  0
LINE
  8
0
 62
7
 10
3.585000000000007
 20
11.15
 30
0
 11
3.735000000000007
 21
11.15
 31
0
  0
LINE
  8
0
 62
7
 10
3.410000000000007
 20
11.15
 30
0
 11
3.410000000000007
 21
11.2
 31
0
  0
LINE
  8
0
 62
7
 10
1.275000000000011
 20
11.15
 30
0
 11
1.275000000000011
 21
11.2
 31
0
  0
LINE
  8
0
 62
7
 10
1.275000000000011
 20
11.15
 30
0
 11
3.410000000000007
 21
11.15
 31
0
  0
LINE
  8
0
 62
7
  6
DASHDOT
 10
0.9500000000000111
 20
11.15
 30
0
 11
0.9500000000000111
 21
11.2
 31
0
  0
LINE
  8
0
 62
7
 10
1.100000000000011
 20
11.15
 30
0
 11
1.100000000000011
 21
11.2
 31
0
  0
LINE
  8
0
 62
7
 10
0.9500000000000111
 20
11.15
 30
0
 11
1.100000000000011
 21
11.15
 31
0
  0
LINE
  8
0
 62
7
  6
DASHDOT
 10
3.735000000000007
 20
8.4
 30
0
 11
3.735000000000007
 21
8.450000000000001
 31
0
  0
LINE
  8
0
 62
7
 10
3.585000000000007
 20
8.4
 30
0
 11
3.585000000000007
 21
10.85
 31
0
  0
LINE
  8
0
 62
7
 10
3.585000000000007
 20
8.4
 30
0
 11
3.735000000000007
 21
8.4
 31
0
  0
LINE
  8
0
 62
7
 10
3.410000000000007
 20
8.4
 30
0
 11
3.410000000000007
 21
10.85
 31
0
  0
LINE
  8
0
 62
7
 10
1.275000000000011
 20
8.4
 30
0
 11
1.275000000000011
 21
10.85
 31
0
  0
LINE
  8
0
 62
7
 10
1.275000000000011
 20
8.4
 30
0
 11
3.410000000000007
 21
8.4
 31
0
  0
LINE
  8
0
 62
7
  6
DASHDOT
 10
0.9500000000000111
 20
8.4
 30
0
 11
0.9500000000000111
 21
8.450000000000001
 31
0
  0
LINE
  8
0
 62
7
 10
1.100000000000011
 20
8.4
 30
0
 11
1.100000000000011
 21
10.85
 31
0
  0
LINE
  8
0
 62
7
 10
0.9500000000000111
 20
8.4
 30
0
 11
1.100000000000011
 21
8.4
 31
0
  0
LINE
  8
0
 62
7
  6
DASHDOT
 10
3.360000000000007
 20
7.95
 30
0
 11
3.410000000000007
 21
7.95
 31
0
  0
LINE
  8
0
 62
7
  6
DASHDOT
 10
3.360000000000007
 20
11.2
 30
0
 11
3.410000000000007
 21
11.2
 31
0
  0
LINE
  8
0
 62
7
  6
DASHDOT
 10
1.050000000000011
 20
7.95
 30
0
 11
1.100000000000011
 21
7.95
 31
0
  0
LINE
  8
0
 62
7
  6
DASHDOT
 10
1.050000000000011
 20
11.2
 30
0
 11
1.100000000000011
 21
11.2
 31
0
  0
LINE
  8
0
 62
7
  6
DASHDOT
 10
3.735000000000007
 20
10.8
 30
0
 11
3.735000000000007
 21
10.85
 31
0
  0
LINE
  8
0
 62
7
  6
DASHDOT
 10
3.735000000000007
 20
8.050000000000001
 30
0
 11
3.735000000000007
 21
8.1
 31
0
  0
LINE
  8
0
 62
7
  6
DASHDOT
 10
0.9500000000000111
 20
10.8
 30
0
 11
0.9500000000000111
 21
10.85
 31
0
  0
LINE
  8
0
 62
7
  6
DASHDOT
 10
0.9500000000000111
 20
8.050000000000001
 30
0
 11
0.9500000000000111
 21
8.1
 31
0
  0
LINE
  8
0
 62
7
 10
3.585000000000007
 20
11.05
 30
0
 11
3.735000000000007
 21
11.05
 31
0
  0
LINE
  8
0
 62
7
 10
3.585000000000007
 20
11.05
 30
0
 11
3.585000000000007
 21
11.15
 31
0
  0
LINE
  8
0
 62
7
 10
3.585000000000007
 20
10.85
 30
0
 11
3.735000000000007
 21
10.85
 31
0
  0
LINE
  8
0
 62
7
 10
3.585000000000007
 20
8.300000000000001
 30
0
 11
3.735000000000007
 21
8.300000000000001
 31
0
  0
LINE
  8
0
 62
7
 10
3.585000000000007
 20
8.300000000000001
 30
0
 11
3.585000000000007
 21
8.4
 31
0
  0
LINE
  8
0
 62
7
 10
3.585000000000007
 20
8.1
 30
0
 11
3.735000000000007
 21
8.1
 31
0
  0
LINE
  8
0
 62
7
 10
3.585000000000007
 20
7.95
 30
0
 11
3.585000000000007
 21
8.1
 31
0
  0
LINE
  8
0
 62
7
 10
3.410000000000007
 20
11.05
 30
0
 11
3.585000000000007
 21
11.05
 31
0
  0
LINE
  8
0
 62
7
 10
3.410000000000007
 20
11.05
 30
0
 11
3.410000000000007
 21
11.15
 31
0
  0
LINE
  8
0
 62
7
 10
3.410000000000007
 20
10.85
 30
0
 11
3.585000000000007
 21
10.85
 31
0
  0
LINE
  8
0
 62
7
 10
3.410000000000007
 20
8.300000000000001
 30
0
 11
3.585000000000007
 21
8.300000000000001
 31
0
  0
LINE
  8
0
 62
7
 10
3.410000000000007
 20
8.300000000000001
 30
0
 11
3.410000000000007
 21
8.4
 31
0
  0
LINE
  8
0
 62
7
 10
3.410000000000007
 20
8.1
 30
0
 11
3.585000000000007
 21
8.1
 31
0
  0
LINE
  8
0
 62
7
 10
3.410000000000007
 20
7.95
 30
0
 11
3.410000000000007
 21
8.1
 31
0
  0
LINE
  8
0
 62
7
 10
1.275000000000011
 20
11.05
 30
0
 11
3.410000000000007
 21
11.05
 31
0
  0
LINE
  8
0
 62
7
 10
1.275000000000011
 20
11.05
 30
0
 11
1.275000000000011
 21
11.15
 31
0
  0
LINE
  8
0
 62
7
 10
1.275000000000011
 20
10.85
 30
0
 11
3.410000000000007
 21
10.85
 31
0
  0
LINE
  8
0
 62
7
 10
1.275000000000011
 20
8.300000000000001
 30
0
 11
3.410000000000007
 21
8.300000000000001
 31
0
  0
LINE
  8
0
 62
7
 10
1.275000000000011
 20
8.300000000000001
 30
0
 11
1.275000000000011
 21
8.4
 31
0
  0
LINE
  8
0
 62
7
 10
1.275000000000011
 20
8.1
 30
0
 11
3.410000000000007
 21
8.1
 31
0
  0
LINE
  8
0
 62
7
 10
1.275000000000011
 20
7.95
 30
0
 11
1.275000000000011
 21
8.1
 31
0
  0
LINE
  8
0
 62
7
 10
1.100000000000011
 20
11.05
 30
0
 11
1.275000000000011
 21
11.05
 31
0
  0
LINE
  8
0
 62
7
 10
1.100000000000011
 20
11.05
 30
0
 11
1.100000000000011
 21
11.15
 31
0
  0
LINE
  8
0
 62
7
 10
1.100000000000011
 20
10.85
 30
0
 11
1.275000000000011
 21
10.85
 31
0
  0
LINE
  8
0
 62
7
 10
1.100000000000011
 20
8.300000000000001
 30
0
 11
1.275000000000011
 21
8.300000000000001
 31
0
  0
LINE
  8
0
 62
7
 10
1.100000000000011
 20
8.300000000000001
 30
0
 11
1.100000000000011
 21
8.4
 31
0
  0
LINE
  8
0
 62
7
 10
1.100000000000011
 20
8.1
 30
0
 11
1.275000000000011
 21
8.1
 31
0
  0
LINE
  8
0
 62
7
 10
1.100000000000011
 20
7.95
 30
0
 11
1.100000000000011
 21
8.1
 31
0
  0
LINE
  8
0
 62
7
 10
0.9500000000000111
 20
11.05
 30
0
 11
1.100000000000011
 21
11.05
 31
0
  0
LINE
  8
0
 62
7
 10
0.9500000000000111
 20
10.85
 30
0
 11
1.100000000000011
 21
10.85
 31
0
  0
LINE
  8
0
 62
7
 10
0.9500000000000111
 20
8.300000000000001
 30
0
 11
1.100000000000011
 21
8.300000000000001
 31
0
  0
LINE
  8
0
 62
7
 10
0.9500000000000111
 20
8.1
 30
0
 11
1.100000000000011
 21
8.1
 31
0
  0
LINE
  8
0
 62
7
 10
1.5363598300971
 20
4.59019003236246
 30
0
 11
1.5363598300971
 21
4.710190032362461
 31
0
  0
LINE
  8
0
 62
7
 10
1.6119598300971
 20
4.710190032362461
 30
0
 11
1.5579598300971
 21
4.650190032362461
 31
0
  0
LINE
  8
0
 62
7
 10
1.5579598300971
 20
4.650190032362461
 30
0
 11
1.6119598300971
 21
4.59019003236246
 31
0
  0
LINE
  8
0
 62
7
 10
1.5579598300971
 20
4.650190032362461
 30
0
 11
1.5363598300971
 21
4.62619003236246
 31
0
  0
LINE
  8
0
 62
7
 10
1.7199598300971
 20
4.710190032362461
 30
0
 11
1.6443598300971
 21
4.710190032362461
 31
0
  0
LINE
  8
0
 62
7
 10
1.6443598300971
 20
4.710190032362461
 30
0
 11
1.6443598300971
 21
4.650190032362461
 31
0
  0
LINE
  8
0
 62
7
 10
1.6443598300971
 20
4.59019003236246
 30
0
 11
1.7199598300971
 21
4.59019003236246
 31
0
  0
LINE
  8
0
 62
7
 10
1.7091598300971
 20
4.650190032362461
 30
0
 11
1.6443598300971
 21
4.650190032362461
 31
0
  0
LINE
  8
0
 62
7
 10
1.6443598300971
 20
4.650190032362461
 30
0
 11
1.6443598300971
 21
4.59019003236246
 31
0
  0
LINE
  8
0
 62
7
 10
1.7523598300971
 20
4.59019003236246
 30
0
 11
1.7523598300971
 21
4.710190032362461
 31
0
  0
LINE
  8
0
 62
7
 10
1.7523598300971
 20
4.710190032362461
 30
0
 11
1.8279598300971
 21
4.59019003236246
 31
0
  0
LINE
  8
0
 62
7
 10
1.8279598300971
 20
4.59019003236246
 30
0
 11
1.8279598300971
 21
4.710190032362461
 31
0
  0
LINE
  8
0
 62
7
 10
1.8603598300971
 20
4.59019003236246
 30
0
 11
1.8603598300971
 21
4.710190032362461
 31
0
  0
LINE
  8
0
 62
7
 10
1.8603598300971
 20
4.710190032362461
 30
0
 11
1.9359598300971
 21
4.59019003236246
 31
0
  0
LINE
  8
0
 62
7
 10
1.9359598300971
 20
4.59019003236246
 30
0
 11
1.9359598300971
 21
4.710190032362461
 31
0
  0
LINE
  8
0
 62
7
 10
2.0439598300971
 20
4.674190032362461
 30
0
 11
2.0412598300971
 21
4.68619003236246
 31
0
  0
LINE
  8
0
 62
7
 10
2.0412598300971
 20
4.68619003236246
 30
0
 11
2.0358598300971
 21
4.69519003236246
 31
0
  0
LINE
  8
0
 62
7
 10
2.0358598300971
 20
4.69519003236246
 30
0
 11
2.0304598300971
 21
4.70119003236246
 31
0
  0
LINE
  8
0
 62
7
 10
2.0304598300971
 20
4.70119003236246
 30
0
 11
2.0223598300971
 21
4.707190032362461
 31
0
  0
LINE
  8
0
 62
7
 10
2.0223598300971
 20
4.707190032362461
 30
0
 11
2.014259830097101
 21
4.710190032362461
 31
0
  0
LINE
  8
0
 62
7
 10
2.014259830097101
 20
4.710190032362461
 30
0
 11
1.9980598300971
 21
4.710190032362461
 31
0
  0
LINE
  8
0
 62
7
 10
1.9980598300971
 20
4.710190032362461
 30
0
 11
1.9899598300971
 21
4.707190032362461
 31
0
  0
LINE
  8
0
 62
7
 10
1.9899598300971
 20
4.707190032362461
 30
0
 11
1.9818598300971
 21
4.70119003236246
 31
0
  0
LINE
  8
0
 62
7
 10
1.9818598300971
 20
4.70119003236246
 30
0
 11
1.9764598300971
 21
4.69519003236246
 31
0
  0
LINE
  8
0
 62
7
 10
1.9764598300971
 20
4.69519003236246
 30
0
 11
1.9710598300971
 21
4.68619003236246
 31
0
  0
LINE
  8
0
 62
7
 10
1.9710598300971
 20
4.68619003236246
 30
0
 11
1.9683598300971
 21
4.674190032362461
 31
0
  0
LINE
  8
0
 62
7
 10
1.9683598300971
 20
4.674190032362461
 30
0
 11
1.9683598300971
 21
4.62619003236246
 31
0
  0
LINE
  8
0
 62
7
 10
1.9683598300971
 20
4.62619003236246
 30
0
 11
1.9710598300971
 21
4.614190032362461
 31
0
  0
LINE
  8
0
 62
7
 10
1.9710598300971
 20
4.614190032362461
 30
0
 11
1.9764598300971
 21
4.605190032362461
 31
0
  0
LINE
  8
0
 62
7
 10
1.9764598300971
 20
4.605190032362461
 30
0
 11
1.9818598300971
 21
4.599190032362461
 31
0
  0
LINE
  8
0
 62
7
 10
1.9818598300971
 20
4.599190032362461
 30
0
 11
1.9899598300971
 21
4.593190032362462
 31
0
  0
LINE
  8
0
 62
7
 10
1.9899598300971
 20
4.593190032362462
 30
0
 11
1.9980598300971
 21
4.59019003236246
 31
0
  0
LINE
  8
0
 62
7
 10
1.9980598300971
 20
4.59019003236246
 30
0
 11
2.014259830097101
 21
4.59019003236246
 31
0
  0
LINE
  8
0
 62
7
 10
2.014259830097101
 20
4.59019003236246
 30
0
 11
2.0223598300971
 21
4.593190032362462
 31
0
  0
LINE
  8
0
 62
7
 10
2.0223598300971
 20
4.593190032362462
 30
0
 11
2.0304598300971
 21
4.599190032362461
 31
0
  0
LINE
  8
0
 62
7
 10
2.0304598300971
 20
4.599190032362461
 30
0
 11
2.0358598300971
 21
4.605190032362461
 31
0
  0
LINE
  8
0
 62
7
 10
2.0358598300971
 20
4.605190032362461
 30
0
 11
2.0412598300971
 21
4.614190032362461
 31
0
  0
LINE
  8
0
 62
7
 10
2.0412598300971
 20
4.614190032362461
 30
0
 11
2.0439598300971
 21
4.62619003236246
 31
0
  0
LINE
  8
0
 62
7
 10
2.0439598300971
 20
4.62619003236246
 30
0
 11
2.0439598300971
 21
4.650190032362461
 31
0
  0
LINE
  8
0
 62
7
 10
2.0439598300971
 20
4.650190032362461
 30
0
 11
2.0115598300971
 21
4.650190032362461
 31
0
  0
LINE
  8
0
 62
7
 10
2.1222598300971
 20
4.710190032362461
 30
0
 11
2.1060598300971
 21
4.710190032362461
 31
0
  0
LINE
  8
0
 62
7
 10
2.1060598300971
 20
4.710190032362461
 30
0
 11
2.0979598300971
 21
4.707190032362461
 31
0
  0
LINE
  8
0
 62
7
 10
2.0979598300971
 20
4.707190032362461
 30
0
 11
2.0898598300971
 21
4.70119003236246
 31
0
  0
LINE
  8
0
 62
7
 10
2.0898598300971
 20
4.70119003236246
 30
0
 11
2.0844598300971
 21
4.69519003236246
 31
0
  0
LINE
  8
0
 62
7
 10
2.0844598300971
 20
4.69519003236246
 30
0
 11
2.0790598300971
 21
4.68619003236246
 31
0
  0
LINE
  8
0
 62
7
 10
2.0790598300971
 20
4.68619003236246
 30
0
 11
2.0763598300971
 21
4.674190032362461
 31
0
  0
LINE
  8
0
 62
7
 10
2.0763598300971
 20
4.674190032362461
 30
0
 11
2.0763598300971
 21
4.62619003236246
 31
0
  0
LINE
  8
0
 62
7
 10
2.0763598300971
 20
4.62619003236246
 30
0
 11
2.0790598300971
 21
4.614190032362461
 31
0
  0
LINE
  8
0
 62
7
 10
2.0790598300971
 20
4.614190032362461
 30
0
 11
2.0844598300971
 21
4.605190032362461
 31
0
  0
LINE
  8
0
 62
7
 10
2.0844598300971
 20
4.605190032362461
 30
0
 11
2.0898598300971
 21
4.599190032362461
 31
0
  0
LINE
  8
0
 62
7
 10
2.0898598300971
 20
4.599190032362461
 30
0
 11
2.0979598300971
 21
4.593190032362462
 31
0
  0
LINE
  8
0
 62
7
 10
2.0979598300971
 20
4.593190032362462
 30
0
 11
2.1060598300971
 21
4.59019003236246
 31
0
  0
LINE
  8
0
 62
7
 10
2.1060598300971
 20
4.59019003236246
 30
0
 11
2.1222598300971
 21
4.59019003236246
 31
0
  0
LINE
  8
0
 62
7
 10
2.1222598300971
 20
4.59019003236246
 30
0
 11
2.1303598300971
 21
4.593190032362462
 31
0
  0
LINE
  8
0
 62
7
 10
2.1303598300971
 20
4.593190032362462
 30
0
 11
2.138459830097101
 21
4.599190032362461
 31
0
  0
LINE
  8
0
 62
7
 10
2.138459830097101
 20
4.599190032362461
 30
0
 11
2.1438598300971
 21
4.605190032362461
 31
0
  0
LINE
  8
0
 62
7
 10
2.1438598300971
 20
4.605190032362461
 30
0
 11
2.149259830097102
 21
4.614190032362461
 31
0
  0
LINE
  8
0
 62
7
 10
2.149259830097102
 20
4.614190032362461
 30
0
 11
2.1519598300971
 21
4.62619003236246
 31
0
  0
LINE
  8
0
 62
7
 10
2.1519598300971
 20
4.62619003236246
 30
0
 11
2.1519598300971
 21
4.674190032362461
 31
0
  0
LINE
  8
0
 62
7
 10
2.1519598300971
 20
4.674190032362461
 30
0
 11
2.149259830097102
 21
4.68619003236246
 31
0
  0
LINE
  8
0
 62
7
 10
2.149259830097102
 20
4.68619003236246
 30
0
 11
2.1438598300971
 21
4.69519003236246
 31
0
  0
LINE
  8
0
 62
7
 10
2.1438598300971
 20
4.69519003236246
 30
0
 11
2.138459830097101
 21
4.70119003236246
 31
0
  0
LINE
  8
0
 62
7
 10
2.138459830097101
 20
4.70119003236246
 30
0
 11
2.1303598300971
 21
4.707190032362461
 31
0
  0
LINE
  8
0
 62
7
 10
2.1303598300971
 20
4.707190032362461
 30
0
 11
2.1222598300971
 21
4.710190032362461
 31
0
  0
LINE
  8
0
 62
7
 10
2.173559830097101
 20
4.710190032362461
 30
0
 11
2.211359830097101
 21
4.710190032362461
 31
0
  0
LINE
  8
0
 62
7
 10
2.211359830097101
 20
4.710190032362461
 30
0
 11
2.211359830097101
 21
4.59019003236246
 31
0
  0
LINE
  8
0
 62
7
 10
2.211359830097101
 20
4.710190032362461
 30
0
 11
2.249159830097101
 21
4.710190032362461
 31
0
  0
LINE
  8
0
 62
7
 10
2.281559830097101
 20
4.710190032362461
 30
0
 11
2.319359830097101
 21
4.710190032362461
 31
0
  0
LINE
  8
0
 62
7
 10
2.319359830097101
 20
4.710190032362461
 30
0
 11
2.319359830097101
 21
4.59019003236246
 31
0
  0
LINE
  8
0
 62
7
 10
2.319359830097101
 20
4.710190032362461
 30
0
 11
2.3571598300971
 21
4.710190032362461
 31
0
  0
LINE
  8
0
 62
7
 10
2.4759598300971
 20
4.632190032362462
 30
0
 11
2.5299598300971
 21
4.632190032362462
 31
0
  0
LINE
  8
0
 62
7
 10
2.6379598300971
 20
4.710190032362461
 30
0
 11
2.675759830097101
 21
4.710190032362461
 31
0
  0
LINE
  8
0
 62
7
 10
2.675759830097101
 20
4.710190032362461
 30
0
 11
2.675759830097101
 21
4.59019003236246
 31
0
  0
LINE
  8
0
 62
7
 10
2.675759830097101
 20
4.710190032362461
 30
0
 11
2.7135598300971
 21
4.710190032362461
 31
0
  0
LINE
  8
0
 62
7
 10
2.7459598300971
 20
4.59019003236246
 30
0
 11
2.7459598300971
 21
4.710190032362461
 31
0
  0
LINE
  8
0
 62
7
 10
2.7459598300971
 20
4.710190032362461
 30
0
 11
2.7972598300971
 21
4.710190032362461
 31
0
  0
LINE
  8
0
 62
7
 10
2.7972598300971
 20
4.710190032362461
 30
0
 11
2.8080598300971
 21
4.707190032362461
 31
0
  0
LINE
  8
0
 62
7
 10
2.8080598300971
 20
4.707190032362461
 30
0
 11
2.8161598300971
 21
4.70119003236246
 31
0
  0
LINE
  8
0
 62
7
 10
2.8161598300971
 20
4.70119003236246
 30
0
 11
2.818859830097102
 21
4.69519003236246
 31
0
  0
LINE
  8
0
 62
7
 10
2.818859830097102
 20
4.69519003236246
 30
0
 11
2.8215598300971
 21
4.68619003236246
 31
0
  0
LINE
  8
0
 62
7
 10
2.8215598300971
 20
4.68619003236246
 30
0
 11
2.8215598300971
 21
4.674190032362461
 31
0
  0
LINE
  8
0
 62
7
 10
2.8215598300971
 20
4.674190032362461
 30
0
 11
2.818859830097102
 21
4.66519003236246
 31
0
  0
LINE
  8
0
 62
7
 10
2.818859830097102
 20
4.66519003236246
 30
0
 11
2.8161598300971
 21
4.659190032362462
 31
0
  0
LINE
  8
0
 62
7
 10
2.8161598300971
 20
4.659190032362462
 30
0
 11
2.8080598300971
 21
4.653190032362462
 31
0
  0
LINE
  8
0
 62
7
 10
2.8080598300971
 20
4.653190032362462
 30
0
 11
2.7972598300971
 21
4.650190032362461
 31
0
  0
LINE
  8
0
 62
7
 10
2.7972598300971
 20
4.650190032362461
 30
0
 11
2.7891598300971
 21
4.650190032362461
 31
0
  0
LINE
  8
0
 62
7
 10
2.7891598300971
 20
4.650190032362461
 30
0
 11
2.8215598300971
 21
4.59019003236246
 31
0
  0
LINE
  8
0
 62
7
 10
2.7891598300971
 20
4.650190032362461
 30
0
 11
2.7459598300971
 21
4.650190032362461
 31
0
  0
LINE
  8
0
 62
7
 10
2.918759830097102
 20
4.710190032362461
 30
0
 11
2.843159830097102
 21
4.710190032362461
 31
0
  0
LINE
  8
0
 62
7
 10
2.843159830097102
 20
4.710190032362461
 30
0
 11
2.843159830097102
 21
4.650190032362461
 31
0
  0
LINE
  8
0
 62
7
 10
2.843159830097102
 20
4.59019003236246
 30
0
 11
2.918759830097102
 21
4.59019003236246
 31
0
  0
LINE
  8
0
 62
7
 10
2.907959830097101
 20
4.650190032362461
 30
0
 11
2.843159830097102
 21
4.650190032362461
 31
0
  0
LINE
  8
0
 62
7
 10
2.843159830097102
 20
4.650190032362461
 30
0
 11
2.843159830097102
 21
4.59019003236246
 31
0
  0
LINE
  8
0
 62
7
 10
2.951159830097101
 20
4.59019003236246
 30
0
 11
2.951159830097101
 21
4.650190032362461
 31
0
  0
LINE
  8
0
 62
7
 10
2.951159830097101
 20
4.710190032362461
 30
0
 11
3.002459830097101
 21
4.710190032362461
 31
0
  0
LINE
  8
0
 62
7
 10
3.002459830097101
 20
4.710190032362461
 30
0
 11
3.013259830097101
 21
4.707190032362461
 31
0
  0
LINE
  8
0
 62
7
 10
3.013259830097101
 20
4.707190032362461
 30
0
 11
3.021359830097101
 21
4.70119003236246
 31
0
  0
LINE
  8
0
 62
7
 10
3.021359830097101
 20
4.70119003236246
 30
0
 11
3.0240598300971
 21
4.69519003236246
 31
0
  0
LINE
  8
0
 62
7
 10
3.0240598300971
 20
4.69519003236246
 30
0
 11
3.026759830097101
 21
4.68619003236246
 31
0
  0
LINE
  8
0
 62
7
 10
3.026759830097101
 20
4.68619003236246
 30
0
 11
3.026759830097101
 21
4.674190032362461
 31
0
  0
LINE
  8
0
 62
7
 10
3.026759830097101
 20
4.674190032362461
 30
0
 11
3.0240598300971
 21
4.66519003236246
 31
0
  0
LINE
  8
0
 62
7
 10
3.0240598300971
 20
4.66519003236246
 30
0
 11
3.021359830097101
 21
4.659190032362462
 31
0
  0
LINE
  8
0
 62
7
 10
3.021359830097101
 20
4.659190032362462
 30
0
 11
3.013259830097101
 21
4.653190032362462
 31
0
  0
LINE
  8
0
 62
7
 10
3.013259830097101
 20
4.653190032362462
 30
0
 11
3.002459830097101
 21
4.650190032362461
 31
0
  0
LINE
  8
0
 62
7
 10
3.002459830097101
 20
4.650190032362461
 30
0
 11
2.951159830097101
 21
4.650190032362461
 31
0
  0
LINE
  8
0
 62
7
 10
2.951159830097101
 20
4.650190032362461
 30
0
 11
2.951159830097101
 21
4.710190032362461
 31
0
  0
LINE
  8
0
 62
7
 10
3.048359830097101
 20
4.59019003236246
 30
0
 11
3.048359830097101
 21
4.650190032362461
 31
0
  0
LINE
  8
0
 62
7
 10
3.048359830097101
 20
4.710190032362461
 30
0
 11
3.099659830097101
 21
4.710190032362461
 31
0
  0
LINE
  8
0
 62
7
 10
3.099659830097101
 20
4.710190032362461
 30
0
 11
3.110459830097101
 21
4.707190032362461
 31
0
  0
LINE
  8
0
 62
7
 10
3.110459830097101
 20
4.707190032362461
 30
0
 11
3.118559830097102
 21
4.70119003236246
 31
0
  0
LINE
  8
0
 62
7
 10
3.118559830097102
 20
4.70119003236246
 30
0
 11
3.121259830097102
 21
4.69519003236246
 31
0
  0
LINE
  8
0
 62
7
 10
3.121259830097102
 20
4.69519003236246
 30
0
 11
3.123959830097101
 21
4.68619003236246
 31
0
  0
LINE
  8
0
 62
7
 10
3.123959830097101
 20
4.68619003236246
 30
0
 11
3.123959830097101
 21
4.674190032362461
 31
0
  0
LINE
  8
0
 62
7
 10
3.123959830097101
 20
4.674190032362461
 30
0
 11
3.121259830097102
 21
4.66519003236246
 31
0
  0
LINE
  8
0
 62
7
 10
3.121259830097102
 20
4.66519003236246
 30
0
 11
3.118559830097102
 21
4.659190032362462
 31
0
  0
LINE
  8
0
 62
7
 10
3.118559830097102
 20
4.659190032362462
 30
0
 11
3.110459830097101
 21
4.653190032362462
 31
0
  0
LINE
  8
0
 62
7
 10
3.110459830097101
 20
4.653190032362462
 30
0
 11
3.099659830097101
 21
4.650190032362461
 31
0
  0
LINE
  8
0
 62
7
 10
3.099659830097101
 20
4.650190032362461
 30
0
 11
3.048359830097101
 21
4.650190032362461
 31
0
  0
LINE
  8
0
 62
7
 10
3.048359830097101
 20
4.650190032362461
 30
0
 11
3.048359830097101
 21
4.710190032362461
 31
0
  0
LINE
  8
0
 62
7
 10
3.221159830097101
 20
4.710190032362461
 30
0
 11
3.145559830097101
 21
4.710190032362461
 31
0
  0
LINE
  8
0
 62
7
 10
3.145559830097101
 20
4.710190032362461
 30
0
 11
3.145559830097101
 21
4.650190032362461
 31
0
  0
LINE
  8
0
 62
7
 10
3.145559830097101
 20
4.59019003236246
 30
0
 11
3.221159830097101
 21
4.59019003236246
 31
0
  0
LINE
  8
0
 62
7
 10
3.210359830097101
 20
4.650190032362461
 30
0
 11
3.145559830097101
 21
4.650190032362461
 31
0
  0
LINE
  8
0
 62
7
 10
3.145559830097101
 20
4.650190032362461
 30
0
 11
3.145559830097101
 21
4.59019003236246
 31
0
  0
LINE
  8
0
 62
7
 10
0.625000000000011
 20
2.890000000000001
 30
0
 11
0.625000000000011
 21
3.010000000000001
 31
0
  0
LINE
  8
0
 62
7
 10
0.700600000000011
 20
3.010000000000001
 30
0
 11
0.6466000000000109
 21
2.950000000000001
 31
0
  0
LINE
  8
0
 62
7
 10
0.6466000000000109
 20
2.950000000000001
 30
0
 11
0.700600000000011
 21
2.890000000000001
 31
0
  0
LINE
  8
0
 62
7
 10
0.6466000000000109
 20
2.950000000000001
 30
0
 11
0.625000000000011
 21
2.926000000000001
 31
0
  0
LINE
  8
0
 62
7
 10
0.733000000000011
 20
3.010000000000001
 30
0
 11
0.733000000000011
 21
2.950000000000001
 31
0
  0
LINE
  8
0
 62
7
 10
0.733000000000011
 20
2.950000000000001
 30
0
 11
0.8086000000000109
 21
2.950000000000001
 31
0
  0
LINE
  8
0
 62
7
 10
0.8086000000000109
 20
3.010000000000001
 30
0
 11
0.8086000000000109
 21
2.950000000000001
 31
0
  0
LINE
  8
0
 62
7
 10
0.8086000000000109
 20
2.950000000000001
 30
0
 11
0.8086000000000109
 21
2.890000000000001
 31
0
  0
LINE
  8
0
 62
7
 10
0.733000000000011
 20
2.950000000000001
 30
0
 11
0.733000000000011
 21
2.890000000000001
 31
0
  0
LINE
  8
0
 62
7
 10
0.8410000000000111
 20
3.010000000000001
 30
0
 11
0.8707000000000109
 21
2.890000000000001
 31
0
  0
LINE
  8
0
 62
7
 10
0.8707000000000109
 20
2.890000000000001
 30
0
 11
0.895000000000011
 21
3.010000000000001
 31
0
  0
LINE
  8
0
 62
7
 10
0.895000000000011
 20
3.010000000000001
 30
0
 11
0.919300000000011
 21
2.890000000000001
 31
0
  0
LINE
  8
0
 62
7
 10
0.919300000000011
 20
2.890000000000001
 30
0
 11
0.9490000000000111
 21
3.010000000000001
 31
0
  0
LINE
  8
0
 62
7
 10
0.970600000000011
 20
2.992000000000001
 30
0
 11
0.9760000000000111
 21
3.001000000000001
 31
0
  0
LINE
  8
0
 62
7
 10
0.9760000000000111
 20
3.001000000000001
 30
0
 11
0.9841000000000112
 21
3.007000000000001
 31
0
  0
LINE
  8
0
 62
7
 10
0.9841000000000112
 20
3.007000000000001
 30
0
 11
0.994900000000011
 21
3.010000000000001
 31
0
  0
LINE
  8
0
 62
7
 10
0.994900000000011
 20
3.010000000000001
 30
0
 11
1.011100000000011
 21
3.010000000000001
 31
0
  0
LINE
  8
0
 62
7
 10
1.011100000000011
 20
3.010000000000001
 30
0
 11
1.021900000000011
 21
3.007000000000001
 31
0
  0
LINE
  8
0
 62
7
 10
1.021900000000011
 20
3.007000000000001
 30
0
 11
1.030000000000011
 21
3.001000000000001
 31
0
  0
LINE
  8
0
 62
7
 10
1.030000000000011
 20
3.001000000000001
 30
0
 11
1.035400000000011
 21
2.992000000000001
 31
0
  0
LINE
  8
0
 62
7
 10
1.035400000000011
 20
2.992000000000001
 30
0
 11
1.035400000000011
 21
2.980000000000001
 31
0
  0
LINE
  8
0
 62
7
 10
1.035400000000011
 20
2.980000000000001
 30
0
 11
1.030000000000011
 21
2.968000000000002
 31
0
  0
LINE
  8
0
 62
7
 10
1.030000000000011
 20
2.968000000000002
 30
0
 11
0.970600000000011
 21
2.890000000000001
 31
0
  0
LINE
  8
0
 62
7
 10
0.970600000000011
 20
2.890000000000001
 30
0
 11
1.035400000000011
 21
2.890000000000001
 31
0
  0
LINE
  8
0
 62
7
 10
1.067800000000011
 20
2.974000000000001
 30
0
 11
1.100200000000011
 21
3.010000000000001
 31
0
  0
LINE
  8
0
 62
7
 10
1.100200000000011
 20
3.010000000000001
 30
0
 11
1.100200000000011
 21
2.890000000000001
 31
0
  0
LINE
  8
0
 62
7
 10
1.132600000000011
 20
2.992000000000001
 30
0
 11
1.138000000000011
 21
3.001000000000001
 31
0
  0
LINE
  8
0
 62
7
 10
1.138000000000011
 20
3.001000000000001
 30
0
 11
1.146100000000011
 21
3.007000000000001
 31
0
  0
LINE
  8
0
 62
7
 10
1.146100000000011
 20
3.007000000000001
 30
0
 11
1.156900000000011
 21
3.010000000000001
 31
0
  0
LINE
  8
0
 62
7
 10
1.156900000000011
 20
3.010000000000001
 30
0
 11
1.173100000000011
 21
3.010000000000001
 31
0
  0
LINE
  8
0
 62
7
 10
1.173100000000011
 20
3.010000000000001
 30
0
 11
1.181200000000011
 21
3.007000000000001
 31
0
  0
LINE
  8
0
 62
7
 10
1.181200000000011
 20
3.007000000000001
 30
0
 11
1.189300000000011
 21
3.001000000000001
 31
0
  0
LINE
  8
0
 62
7
 10
1.189300000000011
 20
3.001000000000001
 30
0
 11
1.194700000000011
 21
2.992000000000001
 31
0
  0
LINE
  8
0
 62
7
 10
1.194700000000011
 20
2.992000000000001
 30
0
 11
1.197400000000011
 21
2.980000000000001
 31
0
  0
LINE
  8
0
 62
7
 10
1.197400000000011
 20
2.980000000000001
 30
0
 11
1.197400000000011
 21
2.971000000000001
 31
0
  0
LINE
  8
0
 62
7
 10
1.197400000000011
 20
2.971000000000001
 30
0
 11
1.194700000000011
 21
2.962000000000001
 31
0
  0
LINE
  8
0
 62
7
 10
1.194700000000011
 20
2.962000000000001
 30
0
 11
1.189300000000011
 21
2.956000000000001
 31
0
  0
LINE
  8
0
 62
7
 10
1.189300000000011
 20
2.956000000000001
 30
0
 11
1.175800000000011
 21
2.950000000000001
 31
0
  0
LINE
  8
0
 62
7
 10
1.156900000000011
 20
2.950000000000001
 30
0
 11
1.175800000000011
 21
2.950000000000001
 31
0
  0
LINE
  8
0
 62
7
 10
1.175800000000011
 20
2.950000000000001
 30
0
 11
1.189300000000011
 21
2.944000000000001
 31
0
  0
LINE
  8
0
 62
7
 10
1.189300000000011
 20
2.944000000000001
 30
0
 11
1.194700000000011
 21
2.938000000000001
 31
0
  0
LINE
  8
0
 62
7
 10
1.194700000000011
 20
2.938000000000001
 30
0
 11
1.197400000000011
 21
2.929000000000001
 31
0
  0
LINE
  8
0
 62
7
 10
1.197400000000011
 20
2.929000000000001
 30
0
 11
1.197400000000011
 21
2.920000000000001
 31
0
  0
LINE
  8
0
 62
7
 10
1.197400000000011
 20
2.920000000000001
 30
0
 11
1.194700000000011
 21
2.908000000000001
 31
0
  0
LINE
  8
0
 62
7
 10
1.194700000000011
 20
2.908000000000001
 30
0
 11
1.189300000000011
 21
2.899000000000001
 31
0
  0
LINE
  8
0
 62
7
 10
1.189300000000011
 20
2.899000000000001
 30
0
 11
1.181200000000011
 21
2.893000000000002
 31
0
  0
LINE
  8
0
 62
7
 10
1.181200000000011
 20
2.893000000000002
 30
0
 11
1.173100000000011
 21
2.890000000000001
 31
0
  0
LINE
  8
0
 62
7
 10
1.173100000000011
 20
2.890000000000001
 30
0
 11
1.156900000000011
 21
2.890000000000001
 31
0
  0
LINE
  8
0
 62
7
 10
1.156900000000011
 20
2.890000000000001
 30
0
 11
1.146100000000011
 21
2.893000000000002
 31
0
  0
LINE
  8
0
 62
7
 10
1.146100000000011
 20
2.893000000000002
 30
0
 11
1.138000000000011
 21
2.899000000000001
 31
0
  0
LINE
  8
0
 62
7
 10
1.138000000000011
 20
2.899000000000001
 30
0
 11
1.132600000000011
 21
2.908000000000001
 31
0
  0
LINE
  8
0
 62
7
 10
1.294600000000011
 20
2.890000000000001
 30
0
 11
1.229800000000011
 21
2.890000000000001
 31
0
  0
LINE
  8
0
 62
7
 10
1.229800000000011
 20
2.890000000000001
 30
0
 11
1.229800000000011
 21
3.010000000000001
 31
0
  0
LINE
  8
0
 62
7
 10
1.327000000000011
 20
2.992000000000001
 30
0
 11
1.332400000000011
 21
3.001000000000001
 31
0
  0
LINE
  8
0
 62
7
 10
1.332400000000011
 20
3.001000000000001
 30
0
 11
1.340500000000011
 21
3.007000000000001
 31
0
  0
LINE
  8
0
 62
7
 10
1.340500000000011
 20
3.007000000000001
 30
0
 11
1.351300000000011
 21
3.010000000000001
 31
0
  0
LINE
  8
0
 62
7
 10
1.351300000000011
 20
3.010000000000001
 30
0
 11
1.367500000000011
 21
3.010000000000001
 31
0
  0
LINE
  8
0
 62
7
 10
1.367500000000011
 20
3.010000000000001
 30
0
 11
1.375600000000011
 21
3.007000000000001
 31
0
  0
LINE
  8
0
 62
7
 10
1.375600000000011
 20
3.007000000000001
 30
0
 11
1.383700000000011
 21
3.001000000000001
 31
0
  0
LINE
  8
0
 62
7
 10
1.383700000000011
 20
3.001000000000001
 30
0
 11
1.389100000000011
 21
2.992000000000001
 31
0
  0
LINE
  8
0
 62
7
 10
1.389100000000011
 20
2.992000000000001
 30
0
 11
1.391800000000011
 21
2.980000000000001
 31
0
  0
LINE
  8
0
 62
7
 10
1.391800000000011
 20
2.980000000000001
 30
0
 11
1.391800000000011
 21
2.971000000000001
 31
0
  0
LINE
  8
0
 62
7
 10
1.391800000000011
 20
2.971000000000001
 30
0
 11
1.389100000000011
 21
2.962000000000001
 31
0
  0
LINE
  8
0
 62
7
 10
1.389100000000011
 20
2.962000000000001
 30
0
 11
1.383700000000011
 21
2.956000000000001
 31
0
  0
LINE
  8
0
 62
7
 10
1.383700000000011
 20
2.956000000000001
 30
0
 11
1.370200000000011
 21
2.950000000000001
 31
0
  0
LINE
  8
0
 62
7
 10
1.351300000000011
 20
2.950000000000001
 30
0
 11
1.370200000000011
 21
2.950000000000001
 31
0
  0
LINE
  8
0
 62
7
 10
1.370200000000011
 20
2.950000000000001
 30
0
 11
1.383700000000011
 21
2.944000000000001
 31
0
  0
LINE
  8
0
 62
7
 10
1.383700000000011
 20
2.944000000000001
 30
0
 11
1.389100000000011
 21
2.938000000000001
 31
0
  0
LINE
  8
0
 62
7
 10
1.389100000000011
 20
2.938000000000001
 30
0
 11
1.391800000000011
 21
2.929000000000001
 31
0
  0
LINE
  8
0
 62
7
 10
1.391800000000011
 20
2.929000000000001
 30
0
 11
1.391800000000011
 21
2.920000000000001
 31
0
  0
LINE
  8
0
 62
7
 10
1.391800000000011
 20
2.920000000000001
 30
0
 11
1.389100000000011
 21
2.908000000000001
 31
0
  0
LINE
  8
0
 62
7
 10
1.389100000000011
 20
2.908000000000001
 30
0
 11
1.383700000000011
 21
2.899000000000001
 31
0
  0
LINE
  8
0
 62
7
 10
1.383700000000011
 20
2.899000000000001
 30
0
 11
1.375600000000011
 21
2.893000000000002
 31
0
  0
LINE
  8
0
 62
7
 10
1.375600000000011
 20
2.893000000000002
 30
0
 11
1.367500000000011
 21
2.890000000000001
 31
0
  0
LINE
  8
0
 62
7
 10
1.367500000000011
 20
2.890000000000001
 30
0
 11
1.351300000000011
 21
2.890000000000001
 31
0
  0
LINE
  8
0
 62
7
 10
1.351300000000011
 20
2.890000000000001
 30
0
 11
1.340500000000011
 21
2.893000000000002
 31
0
  0
LINE
  8
0
 62
7
 10
1.340500000000011
 20
2.893000000000002
 30
0
 11
1.332400000000011
 21
2.899000000000001
 31
0
  0
LINE
  8
0
 62
7
 10
1.332400000000011
 20
2.899000000000001
 30
0
 11
1.327000000000011
 21
2.908000000000001
 31
0
  0
LINE
  8
0
 62
7
 10
3.125000000000011
 20
2.890000000000001
 30
0
 11
3.125000000000011
 21
2.990000000000001
 31
0
  0
LINE
  8
0
 62
7
 10
3.125000000000011
 20
2.990000000000001
 30
0
 11
3.188000000000011
 21
2.890000000000001
 31
0
  0
LINE
  8
0
 62
7
 10
3.188000000000011
 20
2.890000000000001
 30
0
 11
3.188000000000011
 21
2.990000000000001
 31
0
  0
LINE
  8
0
 62
7
 10
3.269000000000011
 20
2.890000000000001
 30
0
 11
3.215000000000011
 21
2.890000000000001
 31
0
  0
LINE
  8
0
 62
7
 10
3.215000000000011
 20
2.890000000000001
 30
0
 11
3.215000000000011
 21
2.990000000000001
 31
0
  0
LINE
  8
0
 62
7
 10
3.296000000000011
 20
2.940000000000001
 30
0
 11
3.332000000000011
 21
2.940000000000001
 31
0
  0
LINE
  8
0
 62
7
 10
3.332000000000011
 20
2.940000000000001
 30
0
 11
3.336500000000011
 21
2.940000000000001
 31
0
  0
LINE
  8
0
 62
7
 10
3.336500000000011
 20
2.940000000000001
 30
0
 11
3.345500000000011
 21
2.935000000000001
 31
0
  0
LINE
  8
0
 62
7
 10
3.345500000000011
 20
2.935000000000001
 30
0
 11
3.350000000000011
 21
2.930000000000001
 31
0
  0
LINE
  8
0
 62
7
 10
3.350000000000011
 20
2.930000000000001
 30
0
 11
3.354500000000012
 21
2.920000000000001
 31
0
  0
LINE
  8
0
 62
7
 10
3.354500000000012
 20
2.920000000000001
 30
0
 11
3.354500000000012
 21
2.910000000000001
 31
0
  0
LINE
  8
0
 62
7
 10
3.354500000000012
 20
2.910000000000001
 30
0
 11
3.350000000000011
 21
2.900000000000001
 31
0
  0
LINE
  8
0
 62
7
 10
3.350000000000011
 20
2.900000000000001
 30
0
 11
3.345500000000011
 21
2.895000000000001
 31
0
  0
LINE
  8
0
 62
7
 10
3.345500000000011
 20
2.895000000000001
 30
0
 11
3.336500000000011
 21
2.890000000000001
 31
0
  0
LINE
  8
0
 62
7
 10
3.336500000000011
 20
2.890000000000001
 30
0
 11
3.296000000000011
 21
2.890000000000001
 31
0
  0
LINE
  8
0
 62
7
 10
3.296000000000011
 20
2.890000000000001
 30
0
 11
3.296000000000011
 21
2.940000000000001
 31
0
  0
LINE
  8
0
 62
7
 10
3.296000000000011
 20
2.990000000000001
 30
0
 11
3.329750000000011
 21
2.990000000000001
 31
0
  0
LINE
  8
0
 62
7
 10
3.329750000000011
 20
2.990000000000001
 30
0
 11
3.341000000000011
 21
2.987500000000001
 31
0
  0
LINE
  8
0
 62
7
 10
3.341000000000011
 20
2.987500000000001
 30
0
 11
3.347750000000012
 21
2.980000000000001
 31
0
  0
LINE
  8
0
 62
7
 10
3.347750000000012
 20
2.980000000000001
 30
0
 11
3.350000000000011
 21
2.970000000000001
 31
0
  0
LINE
  8
0
 62
7
 10
3.350000000000011
 20
2.970000000000001
 30
0
 11
3.350000000000011
 21
2.960000000000001
 31
0
  0
LINE
  8
0
 62
7
 10
3.350000000000011
 20
2.960000000000001
 30
0
 11
3.345500000000011
 21
2.950000000000001
 31
0
  0
LINE
  8
0
 62
7
 10
3.345500000000011
 20
2.950000000000001
 30
0
 11
3.338750000000011
 21
2.942500000000001
 31
0
  0
LINE
  8
0
 62
7
 10
3.338750000000011
 20
2.942500000000001
 30
0
 11
3.332000000000011
 21
2.940000000000001
 31
0
  0
LINE
  8
0
 62
7
 10
3.296000000000011
 20
2.940000000000001
 30
0
 11
3.296000000000011
 21
2.990000000000001
 31
0
  0
LINE
  8
0
 62
7
 10
3.496250000000011
 20
2.942500000000001
 30
0
 11
3.489500000000012
 21
2.952500000000001
 31
0
  0
LINE
  8
0
 62
7
 10
3.489500000000012
 20
2.952500000000001
 30
0
 11
3.482750000000011
 21
2.957500000000001
 31
0
  0
LINE
  8
0
 62
7
 10
3.482750000000011
 20
2.957500000000001
 30
0
 11
3.476000000000012
 21
2.960000000000001
 31
0
  0
LINE
  8
0
 62
7
 10
3.476000000000012
 20
2.960000000000001
 30
0
 11
3.467000000000012
 21
2.960000000000001
 31
0
  0
LINE
  8
0
 62
7
 10
3.467000000000012
 20
2.960000000000001
 30
0
 11
3.460250000000011
 21
2.957500000000001
 31
0
  0
LINE
  8
0
 62
7
 10
3.460250000000011
 20
2.957500000000001
 30
0
 11
3.453500000000011
 21
2.952500000000001
 31
0
  0
LINE
  8
0
 62
7
 10
3.453500000000011
 20
2.952500000000001
 30
0
 11
3.446750000000011
 21
2.942500000000001
 31
0
  0
LINE
  8
0
 62
7
 10
3.446750000000011
 20
2.942500000000001
 30
0
 11
3.444500000000012
 21
2.935000000000001
 31
0
  0
LINE
  8
0
 62
7
 10
3.444500000000012
 20
2.935000000000001
 30
0
 11
3.444500000000012
 21
2.915000000000001
 31
0
  0
LINE
  8
0
 62
7
 10
3.444500000000012
 20
2.915000000000001
 30
0
 11
3.446750000000011
 21
2.907500000000001
 31
0
  0
LINE
  8
0
 62
7
 10
3.446750000000011
 20
2.907500000000001
 30
0
 11
3.453500000000011
 21
2.897500000000001
 31
0
  0
LINE
  8
0
 62
7
 10
3.453500000000011
 20
2.897500000000001
 30
0
 11
3.460250000000011
 21
2.892500000000001
 31
0
  0
LINE
  8
0
 62
7
 10
3.460250000000011
 20
2.892500000000001
 30
0
 11
3.467000000000012
 21
2.890000000000001
 31
0
  0
LINE
  8
0
 62
7
 10
3.467000000000012
 20
2.890000000000001
 30
0
 11
3.476000000000012
 21
2.890000000000001
 31
0
  0
LINE
  8
0
 62
7
 10
3.476000000000012
 20
2.890000000000001
 30
0
 11
3.482750000000011
 21
2.892500000000001
 31
0
  0
LINE
  8
0
 62
7
 10
3.482750000000011
 20
2.892500000000001
 30
0
 11
3.489500000000012
 21
2.897500000000001
 31
0
  0
LINE
  8
0
 62
7
 10
3.489500000000012
 20
2.897500000000001
 30
0
 11
3.496250000000011
 21
2.907500000000001
 31
0
  0
LINE
  8
0
 62
7
 10
3.568250000000011
 20
2.935000000000001
 30
0
 11
3.566000000000011
 21
2.942500000000001
 31
0
  0
LINE
  8
0
 62
7
 10
3.566000000000011
 20
2.942500000000001
 30
0
 11
3.559250000000011
 21
2.952500000000001
 31
0
  0
LINE
  8
0
 62
7
 10
3.559250000000011
 20
2.952500000000001
 30
0
 11
3.552500000000011
 21
2.957500000000001
 31
0
  0
LINE
  8
0
 62
7
 10
3.552500000000011
 20
2.957500000000001
 30
0
 11
3.545750000000012
 21
2.960000000000001
 31
0
  0
LINE
  8
0
 62
7
 10
3.545750000000012
 20
2.960000000000001
 30
0
 11
3.536750000000012
 21
2.960000000000001
 31
0
  0
LINE
  8
0
 62
7
 10
3.536750000000012
 20
2.960000000000001
 30
0
 11
3.530000000000011
 21
2.957500000000001
 31
0
  0
LINE
  8
0
 62
7
 10
3.530000000000011
 20
2.957500000000001
 30
0
 11
3.523250000000012
 21
2.952500000000001
 31
0
  0
LINE
  8
0
 62
7
 10
3.523250000000012
 20
2.952500000000001
 30
0
 11
3.516500000000011
 21
2.942500000000001
 31
0
  0
LINE
  8
0
 62
7
 10
3.516500000000011
 20
2.942500000000001
 30
0
 11
3.514250000000011
 21
2.935000000000001
 31
0
  0
LINE
  8
0
 62
7
 10
3.514250000000011
 20
2.935000000000001
 30
0
 11
3.514250000000011
 21
2.915000000000001
 31
0
  0
LINE
  8
0
 62
7
 10
3.514250000000011
 20
2.915000000000001
 30
0
 11
3.516500000000011
 21
2.907500000000001
 31
0
  0
LINE
  8
0
 62
7
 10
3.516500000000011
 20
2.907500000000001
 30
0
 11
3.523250000000012
 21
2.897500000000001
 31
0
  0
LINE
  8
0
 62
7
 10
3.523250000000012
 20
2.897500000000001
 30
0
 11
3.530000000000011
 21
2.892500000000001
 31
0
  0
LINE
  8
0
 62
7
 10
3.530000000000011
 20
2.892500000000001
 30
0
 11
3.536750000000012
 21
2.890000000000001
 31
0
  0
LINE
  8
0
 62
7
 10
3.536750000000012
 20
2.890000000000001
 30
0
 11
3.545750000000012
 21
2.890000000000001
 31
0
  0
LINE
  8
0
 62
7
 10
3.545750000000012
 20
2.890000000000001
 30
0
 11
3.552500000000011
 21
2.892500000000001
 31
0
  0
LINE
  8
0
 62
7
 10
3.552500000000011
 20
2.892500000000001
 30
0
 11
3.559250000000011
 21
2.897500000000001
 31
0
  0
LINE
  8
0
 62
7
 10
3.559250000000011
 20
2.897500000000001
 30
0
 11
3.566000000000011
 21
2.907500000000001
 31
0
  0
LINE
  8
0
 62
7
 10
3.566000000000011
 20
2.907500000000001
 30
0
 11
3.568250000000011
 21
2.915000000000001
 31
0
  0
LINE
  8
0
 62
7
 10
3.568250000000011
 20
2.960000000000001
 30
0
 11
3.568250000000011
 21
2.935000000000001
 31
0
  0
LINE
  8
0
 62
7
 10
3.568250000000011
 20
2.892500000000001
 30
0
 11
3.570500000000012
 21
2.890000000000001
 31
0
  0
LINE
  8
0
 62
7
 10
3.570500000000012
 20
2.890000000000001
 30
0
 11
3.572750000000012
 21
2.890000000000001
 31
0
  0
LINE
  8
0
 62
7
 10
3.568250000000011
 20
2.915000000000001
 30
0
 11
3.568250000000011
 21
2.892500000000001
 31
0
  0
LINE
  8
0
 62
7
 10
3.568250000000011
 20
2.935000000000001
 30
0
 11
3.568250000000011
 21
2.915000000000001
 31
0
  0
LINE
  8
0
 62
7
 10
3.590750000000011
 20
2.890000000000001
 30
0
 11
3.590750000000011
 21
2.892500000000001
 31
0
  0
LINE
  8
0
 62
7
 10
3.590750000000011
 20
2.892500000000001
 30
0
 11
3.593000000000012
 21
2.892500000000001
 31
0
  0
LINE
  8
0
 62
7
 10
3.593000000000012
 20
2.892500000000001
 30
0
 11
3.593000000000012
 21
2.890000000000001
 31
0
  0
LINE
  8
0
 62
7
 10
3.593000000000012
 20
2.890000000000001
 30
0
 11
3.590750000000011
 21
2.890000000000001
 31
0
  0
LINE
  8
0
 62
7
 10
3.716750000000011
 20
2.990000000000001
 30
0
 11
3.725750000000012
 21
2.990000000000001
 31
0
  0
LINE
  8
0
 62
7
 10
3.725750000000012
 20
2.990000000000001
 30
0
 11
3.732500000000011
 21
2.987500000000001
 31
0
  0
LINE
  8
0
 62
7
 10
3.732500000000011
 20
2.987500000000001
 30
0
 11
3.737000000000011
 21
2.982500000000001
 31
0
  0
LINE
  8
0
 62
7
 10
3.737000000000011
 20
2.982500000000001
 30
0
 11
3.741500000000011
 21
2.975000000000001
 31
0
  0
LINE
  8
0
 62
7
 10
3.741500000000011
 20
2.975000000000001
 30
0
 11
3.741500000000011
 21
2.965000000000001
 31
0
  0
LINE
  8
0
 62
7
 10
3.741500000000011
 20
2.965000000000001
 30
0
 11
3.739250000000011
 21
2.960000000000001
 31
0
  0
LINE
  8
0
 62
7
 10
3.739250000000011
 20
2.960000000000001
 30
0
 11
3.732500000000011
 21
2.952500000000001
 31
0
  0
LINE
  8
0
 62
7
 10
3.732500000000011
 20
2.952500000000001
 30
0
 11
3.725750000000012
 21
2.950000000000001
 31
0
  0
LINE
  8
0
 62
7
 10
3.725750000000012
 20
2.950000000000001
 30
0
 11
3.716750000000011
 21
2.950000000000001
 31
0
  0
LINE
  8
0
 62
7
 10
3.716750000000011
 20
2.950000000000001
 30
0
 11
3.710000000000011
 21
2.952500000000001
 31
0
  0
LINE
  8
0
 62
7
 10
3.710000000000011
 20
2.952500000000001
 30
0
 11
3.703250000000011
 21
2.960000000000001
 31
0
  0
LINE
  8
0
 62
7
 10
3.703250000000011
 20
2.960000000000001
 30
0
 11
3.701000000000011
 21
2.965000000000001
 31
0
  0
LINE
  8
0
 62
7
 10
3.701000000000011
 20
2.965000000000001
 30
0
 11
3.701000000000011
 21
2.975000000000001
 31
0
  0
LINE
  8
0
 62
7
 10
3.701000000000011
 20
2.975000000000001
 30
0
 11
3.705500000000011
 21
2.982500000000001
 31
0
  0
LINE
  8
0
 62
7
 10
3.705500000000011
 20
2.982500000000001
 30
0
 11
3.710000000000011
 21
2.987500000000001
 31
0
  0
LINE
  8
0
 62
7
 10
3.710000000000011
 20
2.987500000000001
 30
0
 11
3.716750000000011
 21
2.990000000000001
 31
0
  0
LINE
  8
0
 62
7
 10
3.716750000000011
 20
2.950000000000001
 30
0
 11
3.705500000000011
 21
2.945000000000001
 31
0
  0
LINE
  8
0
 62
7
 10
3.705500000000011
 20
2.945000000000001
 30
0
 11
3.698750000000011
 21
2.937500000000001
 31
0
  0
LINE
  8
0
 62
7
 10
3.698750000000011
 20
2.937500000000001
 30
0
 11
3.694250000000011
 21
2.927500000000001
 31
0
  0
LINE
  8
0
 62
7
 10
3.694250000000011
 20
2.927500000000001
 30
0
 11
3.694250000000011
 21
2.912500000000001
 31
0
  0
LINE
  8
0
 62
7
 10
3.694250000000011
 20
2.912500000000001
 30
0
 11
3.698750000000011
 21
2.902500000000001
 31
0
  0
LINE
  8
0
 62
7
 10
3.698750000000011
 20
2.902500000000001
 30
0
 11
3.705500000000011
 21
2.895000000000001
 31
0
  0
LINE
  8
0
 62
7
 10
3.705500000000011
 20
2.895000000000001
 30
0
 11
3.714500000000012
 21
2.890000000000001
 31
0
  0
LINE
  8
0
 62
7
 10
3.714500000000012
 20
2.890000000000001
 30
0
 11
3.728000000000011
 21
2.890000000000001
 31
0
  0
LINE
  8
0
 62
7
 10
3.728000000000011
 20
2.890000000000001
 30
0
 11
3.737000000000011
 21
2.895000000000001
 31
0
  0
LINE
  8
0
 62
7
 10
3.737000000000011
 20
2.895000000000001
 30
0
 11
3.743750000000011
 21
2.902500000000001
 31
0
  0
LINE
  8
0
 62
7
 10
3.743750000000011
 20
2.902500000000001
 30
0
 11
3.748250000000012
 21
2.912500000000001
 31
0
  0
LINE
  8
0
 62
7
 10
3.748250000000012
 20
2.912500000000001
 30
0
 11
3.748250000000012
 21
2.927500000000001
 31
0
  0
LINE
  8
0
 62
7
 10
3.748250000000012
 20
2.927500000000001
 30
0
 11
3.743750000000011
 21
2.937500000000001
 31
0
  0
LINE
  8
0
 62
7
 10
3.743750000000011
 20
2.937500000000001
 30
0
 11
3.737000000000011
 21
2.945000000000001
 31
0
  0
LINE
  8
0
 62
7
 10
3.737000000000011
 20
2.945000000000001
 30
0
 11
3.725750000000012
 21
2.950000000000001
 31
0
  0
LINE
  8
0
 62
7
 10
3.833750000000011
 20
2.990000000000001
 30
0
 11
3.784250000000011
 21
2.990000000000001
 31
0
  0
LINE
  8
0
 62
7
 10
3.784250000000011
 20
2.990000000000001
 30
0
 11
3.784250000000011
 21
2.940000000000001
 31
0
  0
LINE
  8
0
 62
7
 10
3.784250000000011
 20
2.940000000000001
 30
0
 11
3.788750000000011
 21
2.947500000000001
 31
0
  0
LINE
  8
0
 62
7
 10
3.788750000000011
 20
2.947500000000001
 30
0
 11
3.795500000000011
 21
2.952500000000001
 31
0
  0
LINE
  8
0
 62
7
 10
3.795500000000011
 20
2.952500000000001
 30
0
 11
3.804500000000012
 21
2.955000000000001
 31
0
  0
LINE
  8
0
 62
7
 10
3.804500000000012
 20
2.955000000000001
 30
0
 11
3.818000000000012
 21
2.955000000000001
 31
0
  0
LINE
  8
0
 62
7
 10
3.818000000000012
 20
2.955000000000001
 30
0
 11
3.824750000000011
 21
2.952500000000001
 31
0
  0
LINE
  8
0
 62
7
 10
3.824750000000011
 20
2.952500000000001
 30
0
 11
3.831500000000011
 21
2.947500000000001
 31
0
  0
LINE
  8
0
 62
7
 10
3.831500000000011
 20
2.947500000000001
 30
0
 11
3.836000000000011
 21
2.940000000000001
 31
0
  0
LINE
  8
0
 62
7
 10
3.836000000000011
 20
2.940000000000001
 30
0
 11
3.838250000000011
 21
2.930000000000001
 31
0
  0
LINE
  8
0
 62
7
 10
3.838250000000011
 20
2.930000000000001
 30
0
 11
3.838250000000011
 21
2.915000000000001
 31
0
  0
LINE
  8
0
 62
7
 10
3.838250000000011
 20
2.915000000000001
 30
0
 11
3.836000000000011
 21
2.905000000000001
 31
0
  0
LINE
  8
0
 62
7
 10
3.836000000000011
 20
2.905000000000001
 30
0
 11
3.831500000000011
 21
2.897500000000001
 31
0
  0
LINE
  8
0
 62
7
 10
3.831500000000011
 20
2.897500000000001
 30
0
 11
3.824750000000011
 21
2.892500000000001
 31
0
  0
LINE
  8
0
 62
7
 10
3.824750000000011
 20
2.892500000000001
 30
0
 11
3.818000000000012
 21
2.890000000000001
 31
0
  0
LINE
  8
0
 62
7
 10
3.818000000000012
 20
2.890000000000001
 30
0
 11
3.804500000000012
 21
2.890000000000001
 31
0
  0
LINE
  8
0
 62
7
 10
3.804500000000012
 20
2.890000000000001
 30
0
 11
3.795500000000011
 21
2.892500000000001
 31
0
  0
LINE
  8
0
 62
7
 10
3.795500000000011
 20
2.892500000000001
 30
0
 11
3.788750000000011
 21
2.897500000000001
 31
0
  0
LINE
  8
0
 62
7
 10
3.788750000000011
 20
2.897500000000001
 30
0
 11
3.784250000000011
 21
2.905000000000001
 31
0
  0
LINE
  8
0
 62
7
 10
3.989000000000011
 20
2.942500000000001
 30
0
 11
3.982250000000011
 21
2.952500000000001
 31
0
  0
LINE
  8
0
 62
7
 10
3.982250000000011
 20
2.952500000000001
 30
0
 11
3.975500000000011
 21
2.957500000000001
 31
0
  0
LINE
  8
0
 62
7
 10
3.975500000000011
 20
2.957500000000001
 30
0
 11
3.968750000000011
 21
2.960000000000001
 31
0
  0
LINE
  8
0
 62
7
 10
3.968750000000011
 20
2.960000000000001
 30
0
 11
3.959750000000011
 21
2.960000000000001
 31
0
  0
LINE
  8
0
 62
7
 10
3.959750000000011
 20
2.960000000000001
 30
0
 11
3.953000000000011
 21
2.957500000000001
 31
0
  0
LINE
  8
0
 62
7
 10
3.953000000000011
 20
2.957500000000001
 30
0
 11
3.946250000000012
 21
2.952500000000001
 31
0
  0
LINE
  8
0
 62
7
 10
3.946250000000012
 20
2.952500000000001
 30
0
 11
3.939500000000012
 21
2.942500000000001
 31
0
  0
LINE
  8
0
 62
7
 10
3.939500000000012
 20
2.942500000000001
 30
0
 11
3.937250000000011
 21
2.935000000000001
 31
0
  0
LINE
  8
0
 62
7
 10
3.937250000000011
 20
2.935000000000001
 30
0
 11
3.937250000000011
 21
2.915000000000001
 31
0
  0
LINE
  8
0
 62
7
 10
3.937250000000011
 20
2.915000000000001
 30
0
 11
3.939500000000012
 21
2.907500000000001
 31
0
  0
LINE
  8
0
 62
7
 10
3.939500000000012
 20
2.907500000000001
 30
0
 11
3.946250000000012
 21
2.897500000000001
 31
0
  0
LINE
  8
0
 62
7
 10
3.946250000000012
 20
2.897500000000001
 30
0
 11
3.953000000000011
 21
2.892500000000001
 31
0
  0
LINE
  8
0
 62
7
 10
3.953000000000011
 20
2.892500000000001
 30
0
 11
3.959750000000011
 21
2.890000000000001
 31
0
  0
LINE
  8
0
 62
7
 10
3.959750000000011
 20
2.890000000000001
 30
0
 11
3.968750000000011
 21
2.890000000000001
 31
0
  0
LINE
  8
0
 62
7
 10
3.968750000000011
 20
2.890000000000001
 30
0
 11
3.975500000000011
 21
2.892500000000001
 31
0
  0
LINE
  8
0
 62
7
 10
3.975500000000011
 20
2.892500000000001
 30
0
 11
3.982250000000011
 21
2.897500000000001
 31
0
  0
LINE
  8
0
 62
7
 10
3.982250000000011
 20
2.897500000000001
 30
0
 11
3.989000000000011
 21
2.907500000000001
 31
0
  0
LINE
  8
0
 62
7
 10
4.047500000000011
 20
2.935000000000001
 30
0
 11
4.047500000000011
 21
2.890000000000001
 31
0
  0
LINE
  8
0
 62
7
 10
4.007000000000011
 20
2.960000000000001
 30
0
 11
4.007000000000011
 21
2.935000000000001
 31
0
  0
LINE
  8
0
 62
7
 10
4.007000000000011
 20
2.890000000000001
 30
0
 11
4.007000000000011
 21
2.935000000000001
 31
0
  0
LINE
  8
0
 62
7
 10
4.007000000000011
 20
2.935000000000001
 30
0
 11
4.009250000000011
 21
2.947500000000001
 31
0
  0
LINE
  8
0
 62
7
 10
4.009250000000011
 20
2.947500000000001
 30
0
 11
4.011500000000011
 21
2.952500000000001
 31
0
  0
LINE
  8
0
 62
7
 10
4.011500000000011
 20
2.952500000000001
 30
0
 11
4.016000000000012
 21
2.957500000000001
 31
0
  0
LINE
  8
0
 62
7
 10
4.016000000000012
 20
2.957500000000001
 30
0
 11
4.022750000000012
 21
2.960000000000001
 31
0
  0
LINE
  8
0
 62
7
 10
4.022750000000012
 20
2.960000000000001
 30
0
 11
4.031750000000011
 21
2.960000000000001
 31
0
  0
LINE
  8
0
 62
7
 10
4.031750000000011
 20
2.960000000000001
 30
0
 11
4.038500000000012
 21
2.957500000000001
 31
0
  0
LINE
  8
0
 62
7
 10
4.038500000000012
 20
2.957500000000001
 30
0
 11
4.043000000000012
 21
2.952500000000001
 31
0
  0
LINE
  8
0
 62
7
 10
4.043000000000012
 20
2.952500000000001
 30
0
 11
4.045250000000011
 21
2.947500000000001
 31
0
  0
LINE
  8
0
 62
7
 10
4.045250000000011
 20
2.947500000000001
 30
0
 11
4.047500000000011
 21
2.935000000000001
 31
0
  0
LINE
  8
0
 62
7
 10
4.047500000000011
 20
2.935000000000001
 30
0
 11
4.049750000000011
 21
2.947500000000001
 31
0
  0
LINE
  8
0
 62
7
 10
4.049750000000011
 20
2.947500000000001
 30
0
 11
4.052000000000012
 21
2.952500000000001
 31
0
  0
LINE
  8
0
 62
7
 10
4.052000000000012
 20
2.952500000000001
 30
0
 11
4.056500000000011
 21
2.957500000000001
 31
0
  0
LINE
  8
0
 62
7
 10
4.056500000000011
 20
2.957500000000001
 30
0
 11
4.063250000000012
 21
2.960000000000001
 31
0
  0
LINE
  8
0
 62
7
 10
4.063250000000012
 20
2.960000000000001
 30
0
 11
4.072250000000011
 21
2.960000000000001
 31
0
  0
LINE
  8
0
 62
7
 10
4.072250000000011
 20
2.960000000000001
 30
0
 11
4.079000000000011
 21
2.957500000000001
 31
0
  0
LINE
  8
0
 62
7
 10
4.083500000000011
 20
2.952500000000001
 30
0
 11
4.079000000000011
 21
2.957500000000001
 31
0
  0
LINE
  8
0
 62
7
 10
4.079000000000011
 20
2.957500000000001
 30
0
 11
4.083500000000011
 21
2.952500000000001
 31
0
  0
LINE
  8
0
 62
7
 10
4.083500000000011
 20
2.952500000000001
 30
0
 11
4.085750000000012
 21
2.947500000000001
 31
0
  0
LINE
  8
0
 62
7
 10
4.085750000000012
 20
2.947500000000001
 30
0
 11
4.088000000000011
 21
2.935000000000001
 31
0
  0
LINE
  8
0
 62
7
 10
4.088000000000011
 20
2.935000000000001
 30
0
 11
4.088000000000011
 21
2.890000000000001
 31
0
  0
ARC
  8
0
 62
7
 10
2.445233319157214
 20
3.935233319157203
 30
0
 40
0.5020000000000001
 50
359.9733701095104
 51
90.02662988847989
  0
ARC
  8
0
 62
7
 10
2.239766680842795
 20
3.935233319157212
 30
0
 40
0.5019999999999994
 50
89.97337010974614
 51
180.0266298884797
  0
CIRCLE
  8
0
 62
7
 10
2.947233264936253
 20
3.250000000000001
 30
0
 40
0.06000000000000005
  0
DIMENSION
  8
0
  6
CONTINUOUS
 62
7
  2
*D0
  3
DMST_1
 10
0.723040315533986
 20
4.9
 30
0
 11
0.723040315533986
 21
4.20171034193494
 31
0
 12
0
 22
0
 32
0
 70
0
 13
1.100000000000011
 23
3.350000000000001
 33
0
 14
1.100000000000011
 24
4.900000000000001
 34
0
 50
90
 53
0
  0
DIMENSION
  8
0
  6
CONTINUOUS
 62
7
  2
*D1
  3
DMST_1
 10
3.410000000000007
 20
5.709652108811681
 30
0
 11
2.40123357221939
 21
5.709652108811681
 31
0
 12
0
 22
0
 32
0
 70
0
 13
1.275000000000011
 23
5.419999999999998
 33
0
 14
3.410000000000007
 24
5.419999999999998
 34
0
 53
0
  0
DIMENSION
  8
0
  6
CONTINUOUS
 62
7
  2
*D2
  3
DMST_1
 10
3.96997944259922
 20
4.9
 30
0
 11
3.96997944259922
 21
4.15306705913246
 31
0
 12
0
 22
0
 32
0
 70
0
 13
3.585000000000007
 23
3.250000000000001
 33
0
 14
3.585000000000007
 24
4.900000000000001
 34
0
 50
90
 53
0
  0
DIMENSION
  8
0
  6
CONTINUOUS
 62
7
  2
*D3
  3
DMST_2
 10
3.410000000000007
 20
11.4860419416056
 30
0
 11
2.37691193081815
 21
11.4860419416056
 31
0
 12
0
 22
0
 32
0
 70
0
 13
1.275000000000011
 23
11.2
 33
0
 14
3.410000000000007
 24
11.2
 34
0
 53
0
  0
INSERT
  8
0
  2
*D4
 10
0
 20
0
 30
0
  0
ENDSEC
  0
EOF
