  0
SECTION
  2
HEADER
  9
$ACADVER
  1
AC1009
  9
$INSBASE
 10
0
 20
0
  9
$EXTMIN
 10
0.45
 20
2.890000000000002
  9
$EXTMAX
 10
8.217365050672809
 20
11.5138309593766
  9
$LIMMIN
 10
0.45
 20
2.890000000000002
  9
$LIMMAX
 10
8.217365050672809
 20
11.5138309593766
  9
$VIEWCTR
 10
10
 20
10
  9
$VIEWSIZE
 40
10
  9
$SNAPMODE
 70
0
  9
$SNAPUNIT
 10
1
 20
1
  9
$SNAPBASE
 10
0
 20
0
  9
$SNAPANG
 50
0
  9
$SNAPSTYLE
 70
0
  9
$SNAPISOPAIR
 70
0
  9
$GRIDMODE
 70
0
  9
$GRIDUNIT
 10
0
 20
0
  9
$ORTHOMODE
 70
0
  9
$REGENMODE
 70
1
  9
$FILLMODE
 70
1
  9
$QTEXTMODE
 70
0
  9
$DRAGMODE
 70
2
  9
$LTSCALE
 40
1
  9
$OSMODE
 70
0
  9
$ATTMODE
 70
1
  9
$TEXTSIZE
 40
3.5
  9
$TRACEWID
 40
0.5
  9
$TEXTSTYLE
  7
STANDARD
  9
$CLAYER
  8
0
  9
$CELTYPE
  6
BYLAYER
  9
$CECOLOR
 62
256
  9
$DIMSCALE
 40
1
  9
$DIMASZ
 40
0.18
  9
$DIMEXO
 40
0.0625
  9
$DIMDLI
 40
0.38
  9
$DIMRND
 40
0
  9
$DIMDLE
 40
0
  9
$DIMEXE
 40
0.18
  9
$DIMTP
 40
0
  9
$DIMTM
 40
0
  9
$DIMTXT
 40
0.18
  9
$DIMCEN
 40
0.09
  9
$DIMTSZ
 40
0
  9
$DIMTOL
 70
0
  9
$DIMLIM
 70
0
  9
$DIMTIH
 70
1
  9
$DIMTOH
 70
1
  9
$DIMSE1
 70
0
  9
$DIMSE2
 70
0
  9
$DIMTAD
 70
0
  9
$DIMZIN
 70
0
  9
$DIMBLK
  1

  9
$DIMASO
 70
1
  9
$DIMSHO
 70
1
  9
$DIMPOST
  1

  9
$DIMAPOST
  1

  9
$DIMALT
 70
0
  9
$DIMALTD
 70
2
  9
$DIMALTF
 40
25.4
  9
$DIMLFAC
 40
1
  9
$DIMTOFL
 70
0
  9
$DIMTVP
 40
0
  9
$DIMTIX
 70
0
  9
$DIMSOXD
 70
0
  9
$DIMSAH
 70
0
  9
$DIMBLK1
  1

  9
$DIMBLK2
  1

  9
$DIMSTYLE
  2
*UNNAMED
  9
$DIMCLRD
 70
0
  9
$DIMCLRE
 70
0
  9
$DIMCLRT
 70
0
  9
$DIMTFAC
 40
1
  9
$DIMGAP
 40
0.09
  9
$LUNITS
 70
2
  9
$LUPREC
 70
4
  9
$AXISMODE
 70
0
  9
$AXISUNIT
 10
0
 20
0
  9
$SKETCHINC
 40
0.1
  9
$FILLETRAD
 40
2
  9
$AUNITS
 70
0
  9
$AUPREC
 70
0
  9
$MENU
  1
ACAD
  9
$ELEVATION
 40
0
  9
$THICKNESS
 40
0
  9
$VIEWDIR
 10
0
 20
0
 30
1
  9
$LIMCHECK
 70
0
  9
$BLIPMODE
 70
1
  9
$CHAMFERA
 40
0
  9
$CHAMFERB
 40
0
  9
$FASTZOOM
 70
1
  9
$SKPOLY
 70
0
  9
$ANGBASE
 50
0
  9
$ANGDIR
 70
0
  9
$PDMODE
 70
0
  9
$PDSIZE
 40
0
  9
$PLINEWID
 40
0
  9
$COORDS
 70
2
  0
ENDSEC
  0
SECTION
  2
TABLES
  0
TABLE
  2
DIMSTYLE
 70
2
  0
DIMSTYLE
  2
DMST_1
 70
0
  3

  4

  5

  6

  7

 40
1
 41
0.1
 42
0
 43
0.7
 44
0.2
 45
0
 46
0
 47
0
 48
0
140
0.1
141
0
142
0.1
143
25.4
144
1
145
0
146
1
147
0.25
 71
0
 72
0
 73
0
 74
0
 75
0
 76
0
 77
0
 78
9
170
0
171
2
172
0
173
0
174
0
175
0
176
7
177
7
178
7
  0
DIMSTYLE
  2
DMST_2
 70
0
  3

  4

  5

  6

  7

 40
1
 41
0.1
 42
0
 43
0.7
 44
0.2
 45
0
 46
0
 47
0
 48
0
140
0.1
141
0
142
0.1
143
25.4
144
1
145
0
146
1
147
0.2
 71
0
 72
0
 73
0
 74
0
 75
0
 76
0
 77
0
 78
9
170
0
171
2
172
0
173
0
174
0
175
0
176
7
177
7
178
7
  0
ENDTAB
  0
TABLE
  2
LTYPE
 70
9
  0
LTYPE
  2
CONTINUOUS
 70
64
  3
Solid line
 72
65
 73
0
 40
0
  0
LTYPE
  2
BORDER
 70
64
  3
__ __ . __ __ .
 72
65
 73
6
 40
0.3971501099712907
 49
0.1134714599917973
 49
-0.05673572999589867
 49
0.1134714599917973
 49
-0.05673572999589867
 49
0
 49
-0.05673572999589867
  0
LTYPE
  2
CENTER
 70
64
  3
____ _ ____ _
 72
65
 73
4
 40
0.4538858399671893
 49
0.2836786499794933
 49
-0.05673572999589867
 49
0.05673572999589867
 49
-0.05673572999589867
  0
LTYPE
  2
DASHDOT
 70
64
  3
__ . __ . __ .
 72
65
 73
4
 40
0.2269429199835947
 49
0.1134714599917973
 49
-0.05673572999589867
 49
0
 49
-0.05673572999589867
  0
LTYPE
  2
DASHED
 70
64
  3
__ __ __ __ __
 72
65
 73
2
 40
0.170207189987696
 49
0.1134714599917973
 49
-0.05673572999589867
  0
LTYPE
  2
DIVIDE
 70
64
  3
__ . . __ . . 
 72
65
 73
6
 40
0.2836786499794933
 49
0.1134714599917973
 49
-0.05673572999589867
 49
0
 49
-0.05673572999589867
 49
0
 49
-0.05673572999589867
  0
LTYPE
  2
DOT
 70
64
  3
..............
 72
65
 73
4
 40
0.1134714599917973
 49
0
 49
-0.05673572999589867
 49
0
 49
-0.05673572999589867
  0
LTYPE
  2
HIDDEN
 70
64
  3
_ _ _ _ _ _ _
 72
65
 73
2
 40
0.08510359499384801
 49
0.05673572999589867
 49
-0.02836786499794933
  0
LTYPE
  2
PHANTOM
 70
64
  3
_____ _ _ _____ _ _ 
 72
65
 73
6
 40
0.5673572999589866
 49
0.2836786499794933
 49
-0.05673572999589867
 49
0.05673572999589867
 49
-0.05673572999589867
 49
0.05673572999589867
 49
-0.05673572999589867
  0
ENDTAB
  0
TABLE
  2
LAYER
 70
2
  0
LAYER
  2
0
 70
0
 62
7
  6
CONTINUOUS
  0
ENDTAB
  0
TABLE
  2
STYLE
 70
4
  0
STYLE
  2
STANDARD
 70
0
 40
0
 41
1
 50
0
 71
0
 42
3.5
  3
txt
  4

  0
STYLE
  2
SIMPLEX
 70
0
 40
0
 41
1
 50
0
 71
0
 42
3.5
  3
simplex
  4

  0
STYLE
  2
COMPLEX
 70
0
 40
0
 41
1
 50
0
 71
0
 42
3.5
  3
complex
  4

  0
STYLE
  2
ITALIC
 70
0
 40
0
 41
1
 50
0
 71
0
 42
3.5
  3
italic
  4

  0
ENDTAB
  0
TABLE
  2
VIEW
 70
0
  0
ENDTAB
  0
ENDSEC
  0
SECTION
  2
BLOCKS
  0
BLOCK
  8
0
  2
*X0
 70
1
 10
0
 20
0
 30
0
  0
LINE
  8
0
 62
7
  6
DASHED
 10
0.5
 20
8.242819253992694
 30
0
 11
0.5571807460073064
 21
8.300000000000001
 31
0
  0
LINE
  8
0
 62
7
  6
DASHED
 10
0.5693127803632705
 20
8.100000000000001
 30
0
 11
0.7399999999999998
 21
8.270687219636729
 31
0
  0
LINE
  8
0
 62
7
 10
0.4999999999999991
 20
8.136753236814712
 30
0
 11
0.6632467631852892
 21
8.300000000000001
 31
0
  0
LINE
  8
0
 62
7
 10
0.6753787975412515
 20
8.099999999999998
 30
0
 11
0.7399999999999989
 21
8.164621202458747
 31
0
  0
ENDBLK
  8
0
  0
BLOCK
  8
0
  2
*X1
 70
1
 10
0
 20
0
 30
0
  0
LINE
  8
0
 62
7
  6
DASHED
 10
0.4999999999999991
 20
11.00053570062023
 30
0
 11
0.5494642993797729
 21
11.05
 31
0
  0
LINE
  8
0
 62
7
  6
DASHED
 10
0.5615963337357357
 20
10.85
 30
0
 11
0.7399999999999993
 21
11.02840366626426
 31
0
  0
LINE
  8
0
 62
7
 10
0.5000000000000009
 20
10.89446968344225
 30
0
 11
0.655530316557754
 21
11.05
 31
0
  0
LINE
  8
0
 62
7
 10
0.6676623509137176
 20
10.85
 30
0
 11
0.7400000000000002
 21
10.92233764908628
 31
0
  0
ENDBLK
  8
0
  0
BLOCK
  8
0
  2
*X2
 70
1
 10
0
 20
0
 30
0
  0
LINE
  8
0
 62
7
  6
DASHED
 10
2.29
 20
10.88134739141655
 30
0
 11
2.458652608583451
 21
11.05
 31
0
  0
LINE
  8
0
 62
7
  6
DASHED
 10
2.470784642939413
 20
10.85
 30
0
 11
2.590000000000002
 21
10.96921535706059
 31
0
  0
LINE
  8
0
 62
7
 10
2.289999999999999
 20
10.98741340859453
 30
0
 11
2.352586591405468
 21
11.05
 31
0
  0
LINE
  8
0
 62
7
 10
2.364718625761431
 20
10.85
 30
0
 11
2.564718625761432
 21
11.05
 31
0
  0
LINE
  8
0
 62
7
 10
2.576850660117396
 20
10.85
 30
0
 11
2.590000000000002
 21
10.86314933988261
 31
0
  0
ENDBLK
  8
0
  0
BLOCK
  8
0
  2
*X3
 70
1
 10
0
 20
0
 30
0
  0
LINE
  8
0
 62
7
  6
DASHED
 10
2.290000000000001
 20
8.123630944789017
 30
0
 11
2.466369055210984
 21
8.300000000000001
 31
0
  0
LINE
  8
0
 62
7
  6
DASHED
 10
2.478501089566949
 20
8.1
 30
0
 11
2.590000000000001
 21
8.211498910433052
 31
0
  0
LINE
  8
0
 62
7
 10
2.29
 20
8.229696961966997
 30
0
 11
2.360303038033003
 21
8.300000000000001
 31
0
  0
LINE
  8
0
 62
7
 10
2.372435072388966
 20
8.1
 30
0
 11
2.572435072388967
 21
8.300000000000001
 31
0
  0
LINE
  8
0
 62
7
 10
2.584567106744931
 20
8.1
 30
0
 11
2.59
 21
8.10543289325507
 31
0
  0
ENDBLK
  8
0
  0
BLOCK
  8
0
  2
*X4
 70
1
 10
0
 20
0
 30
0
  0
LINE
  8
0
 62
7
 10
0.549464299379772
 20
11.05
 30
0
 11
0.6994642993797706
 21
11.2
 31
0
  0
LINE
  8
0
 62
7
 10
0.5
 20
11.10660171779821
 30
0
 11
0.5933982822017896
 21
11.2
 31
0
  0
LINE
  8
0
 62
7
 10
0.655530316557754
 20
11.05
 30
0
 11
0.7400000000000002
 21
11.13446968344225
 31
0
  0
ENDBLK
  8
0
  0
BLOCK
  8
0
  2
*X5
 70
1
 10
0
 20
0
 30
0
  0
LINE
  8
0
 62
7
 10
0.5000000000000004
 20
10.78840366626426
 30
0
 11
0.5615963337357339
 21
10.85
 31
0
  0
LINE
  8
0
 62
7
 10
0.5000000000000004
 20
10.5762716319083
 30
0
 11
0.7400000000000002
 21
10.8162716319083
 31
0
  0
LINE
  8
0
 62
7
 10
0.5000000000000004
 20
10.36413959755233
 30
0
 11
0.7400000000000002
 21
10.60413959755233
 31
0
  0
LINE
  8
0
 62
7
 10
0.5000000000000004
 20
10.15200756319637
 30
0
 11
0.7400000000000002
 21
10.39200756319637
 31
0
  0
LINE
  8
0
 62
7
 10
0.5000000000000004
 20
9.939875528840407
 30
0
 11
0.7400000000000002
 21
10.17987552884041
 31
0
  0
LINE
  8
0
 62
7
 10
0.5000000000000004
 20
9.727743494484443
 30
0
 11
0.7400000000000002
 21
9.967743494484441
 31
0
  0
LINE
  8
0
 62
7
 10
0.5000000000000004
 20
9.515611460128479
 30
0
 11
0.7400000000000002
 21
9.755611460128478
 31
0
  0
LINE
  8
0
 62
7
 10
0.5000000000000004
 20
9.303479425772515
 30
0
 11
0.7400000000000002
 21
9.543479425772514
 31
0
  0
LINE
  8
0
 62
7
 10
0.5000000000000004
 20
9.091347391416551
 30
0
 11
0.7400000000000002
 21
9.33134739141655
 31
0
  0
LINE
  8
0
 62
7
 10
0.5000000000000004
 20
8.879215357060588
 30
0
 11
0.7400000000000002
 21
9.119215357060586
 31
0
  0
LINE
  8
0
 62
7
 10
0.5000000000000004
 20
8.667083322704624
 30
0
 11
0.7400000000000002
 21
8.907083322704622
 31
0
  0
LINE
  8
0
 62
7
 10
0.5000000000000004
 20
8.45495128834866
 30
0
 11
0.7400000000000002
 21
8.694951288348658
 31
0
  0
LINE
  8
0
 62
7
 10
0.5571807460073064
 20
8.300000000000001
 30
0
 11
0.7400000000000002
 21
8.482819253992695
 31
0
  0
LINE
  8
0
 62
7
 10
0.5
 20
10.68233764908628
 30
0
 11
0.6676623509137176
 21
10.85
 31
0
  0
LINE
  8
0
 62
7
 10
0.5
 20
10.47020561473031
 30
0
 11
0.7399999999999998
 21
10.71020561473031
 31
0
  0
LINE
  8
0
 62
7
 10
0.5
 20
10.25807358037435
 30
0
 11
0.7399999999999998
 21
10.49807358037435
 31
0
  0
LINE
  8
0
 62
7
 10
0.5
 20
10.04594154601839
 30
0
 11
0.7399999999999998
 21
10.28594154601839
 31
0
  0
LINE
  8
0
 62
7
 10
0.5
 20
9.833809511662423
 30
0
 11
0.7399999999999998
 21
10.07380951166242
 31
0
  0
LINE
  8
0
 62
7
 10
0.5
 20
9.621677477306459
 30
0
 11
0.7399999999999998
 21
9.861677477306458
 31
0
  0
LINE
  8
0
 62
7
 10
0.5
 20
9.409545442950495
 30
0
 11
0.7399999999999998
 21
9.649545442950494
 31
0
  0
LINE
  8
0
 62
7
 10
0.5
 20
9.197413408594532
 30
0
 11
0.7399999999999998
 21
9.43741340859453
 31
0
  0
LINE
  8
0
 62
7
 10
0.5
 20
8.985281374238568
 30
0
 11
0.7399999999999998
 21
9.225281374238566
 31
0
  0
LINE
  8
0
 62
7
 10
0.5
 20
8.773149339882604
 30
0
 11
0.7399999999999998
 21
9.013149339882602
 31
0
  0
LINE
  8
0
 62
7
 10
0.5
 20
8.56101730552664
 30
0
 11
0.7399999999999998
 21
8.801017305526639
 31
0
  0
LINE
  8
0
 62
7
 10
0.5
 20
8.348885271170676
 30
0
 11
0.7399999999999998
 21
8.588885271170675
 31
0
  0
LINE
  8
0
 62
7
 10
0.6632467631852896
 20
8.300000000000001
 30
0
 11
0.7399999999999998
 21
8.376753236814711
 31
0
  0
ENDBLK
  8
0
  0
BLOCK
  8
0
  2
*X6
 70
1
 10
0
 20
0
 30
0
  0
LINE
  8
0
 62
7
 10
0.5
 20
8.03068721963673
 30
0
 11
0.5693127803632692
 21
8.1
 31
0
  0
LINE
  8
0
 62
7
 10
0.6314448147192349
 20
7.95
 30
0
 11
0.7399999999999998
 21
8.058555185280767
 31
0
  0
LINE
  8
0
 62
7
 10
0.5253787975412538
 20
7.950000000000001
 30
0
 11
0.6753787975412515
 21
8.099999999999998
 31
0
  0
LINE
  8
0
 62
7
 10
0.7375108318972181
 20
7.950000000000001
 30
0
 11
0.7400000000000002
 21
7.952489168102783
 31
0
  0
ENDBLK
  8
0
  0
BLOCK
  8
0
  2
*X7
 70
1
 10
0
 20
0
 30
0
  0
LINE
  8
0
 62
7
  6
DASHED
 10
4.965
 20
11.01076297914498
 30
0
 11
5.004237020855025
 21
11.05
 31
0
  0
LINE
  8
0
 62
7
  6
DASHED
 10
5.016369055210989
 20
10.85
 30
0
 11
5.216369055210989
 21
11.05
 31
0
  0
LINE
  8
0
 62
7
  6
DASHED
 10
5.228501089566953
 20
10.85
 30
0
 11
5.428501089566953
 21
11.05
 31
0
  0
LINE
  8
0
 62
7
  6
DASHED
 10
5.440633123922916
 20
10.85
 30
0
 11
5.640633123922917
 21
11.05
 31
0
  0
LINE
  8
0
 62
7
  6
DASHED
 10
5.65276515827888
 20
10.85
 30
0
 11
5.85276515827888
 21
11.05
 31
0
  0
LINE
  8
0
 62
7
  6
DASHED
 10
5.864897192634844
 20
10.85
 30
0
 11
6.064897192634844
 21
11.05
 31
0
  0
LINE
  8
0
 62
7
  6
DASHED
 10
6.077029226990808
 20
10.85
 30
0
 11
6.277029226990808
 21
11.05
 31
0
  0
LINE
  8
0
 62
7
  6
DASHED
 10
6.289161261346772
 20
10.85
 30
0
 11
6.489161261346772
 21
11.05
 31
0
  0
LINE
  8
0
 62
7
  6
DASHED
 10
6.501293295702736
 20
10.85
 30
0
 11
6.701293295702736
 21
11.05
 31
0
  0
LINE
  8
0
 62
7
  6
DASHED
 10
6.713425330058699
 20
10.85
 30
0
 11
6.9134253300587
 21
11.05
 31
0
  0
LINE
  8
0
 62
7
  6
DASHED
 10
6.925557364414663
 20
10.85
 30
0
 11
7.125557364414663
 21
11.05
 31
0
  0
LINE
  8
0
 62
7
  6
DASHED
 10
7.137689398770627
 20
10.85
 30
0
 11
7.337689398770627
 21
11.05
 31
0
  0
LINE
  8
0
 62
7
  6
DASHED
 10
7.349821433126591
 20
10.85
 30
0
 11
7.549821433126591
 21
11.05
 31
0
  0
LINE
  8
0
 62
7
  6
DASHED
 10
7.561953467482555
 20
10.85
 30
0
 11
7.749999999999995
 21
11.03804653251744
 31
0
  0
LINE
  8
0
 62
7
 10
4.964999999999999
 20
10.904696961967
 30
0
 11
5.110303038033008
 21
11.05
 31
0
  0
LINE
  8
0
 62
7
 10
5.122435072388972
 20
10.85
 30
0
 11
5.322435072388972
 21
11.05
 31
0
  0
LINE
  8
0
 62
7
 10
5.334567106744935
 20
10.85
 30
0
 11
5.534567106744936
 21
11.05
 31
0
  0
LINE
  8
0
 62
7
 10
5.546699141100899
 20
10.85
 30
0
 11
5.746699141100899
 21
11.05
 31
0
  0
LINE
  8
0
 62
7
 10
5.758831175456863
 20
10.85
 30
0
 11
5.958831175456863
 21
11.05
 31
0
  0
LINE
  8
0
 62
7
 10
5.970963209812827
 20
10.85
 30
0
 11
6.170963209812827
 21
11.05
 31
0
  0
LINE
  8
0
 62
7
 10
6.183095244168791
 20
10.85
 30
0
 11
6.383095244168791
 21
11.05
 31
0
  0
LINE
  8
0
 62
7
 10
6.395227278524755
 20
10.85
 30
0
 11
6.595227278524755
 21
11.05
 31
0
  0
LINE
  8
0
 62
7
 10
6.607359312880718
 20
10.85
 30
0
 11
6.807359312880719
 21
11.05
 31
0
  0
LINE
  8
0
 62
7
 10
6.819491347236682
 20
10.85
 30
0
 11
7.019491347236682
 21
11.05
 31
0
  0
LINE
  8
0
 62
7
 10
7.031623381592646
 20
10.85
 30
0
 11
7.231623381592646
 21
11.05
 31
0
  0
LINE
  8
0
 62
7
 10
7.24375541594861
 20
10.85
 30
0
 11
7.44375541594861
 21
11.05
 31
0
  0
LINE
  8
0
 62
7
 10
7.455887450304574
 20
10.85
 30
0
 11
7.655887450304574
 21
11.05
 31
0
  0
LINE
  8
0
 62
7
 10
7.668019484660538
 20
10.85
 30
0
 11
7.749999999999994
 21
10.93198051533946
 31
0
  0
ENDBLK
  8
0
  0
BLOCK
  8
0
  2
*X8
 70
1
 10
0
 20
0
 30
0
  0
LINE
  8
0
 62
7
  6
DASHED
 10
4.965
 20
8.253046532517445
 30
0
 11
5.011953467482561
 21
8.300000000000001
 31
0
  0
LINE
  8
0
 62
7
  6
DASHED
 10
5.024085501838524
 20
8.1
 30
0
 11
5.224085501838525
 21
8.300000000000001
 31
0
  0
LINE
  8
0
 62
7
  6
DASHED
 10
5.236217536194488
 20
8.1
 30
0
 11
5.436217536194489
 21
8.300000000000001
 31
0
  0
LINE
  8
0
 62
7
  6
DASHED
 10
5.448349570550452
 20
8.1
 30
0
 11
5.648349570550453
 21
8.300000000000001
 31
0
  0
LINE
  8
0
 62
7
  6
DASHED
 10
5.660481604906415
 20
8.1
 30
0
 11
5.860481604906417
 21
8.300000000000001
 31
0
  0
LINE
  8
0
 62
7
  6
DASHED
 10
5.872613639262379
 20
8.1
 30
0
 11
6.07261363926238
 21
8.300000000000001
 31
0
  0
LINE
  8
0
 62
7
  6
DASHED
 10
6.084745673618343
 20
8.1
 30
0
 11
6.284745673618344
 21
8.300000000000001
 31
0
  0
LINE
  8
0
 62
7
  6
DASHED
 10
6.296877707974307
 20
8.1
 30
0
 11
6.496877707974308
 21
8.300000000000001
 31
0
  0
LINE
  8
0
 62
7
  6
DASHED
 10
6.509009742330271
 20
8.1
 30
0
 11
6.709009742330272
 21
8.300000000000001
 31
0
  0
LINE
  8
0
 62
7
  6
DASHED
 10
6.721141776686235
 20
8.1
 30
0
 11
6.921141776686236
 21
8.300000000000001
 31
0
  0
LINE
  8
0
 62
7
  6
DASHED
 10
6.933273811042199
 20
8.1
 30
0
 11
7.1332738110422
 21
8.300000000000001
 31
0
  0
LINE
  8
0
 62
7
  6
DASHED
 10
7.145405845398162
 20
8.1
 30
0
 11
7.345405845398163
 21
8.300000000000001
 31
0
  0
LINE
  8
0
 62
7
  6
DASHED
 10
7.357537879754126
 20
8.1
 30
0
 11
7.557537879754127
 21
8.300000000000001
 31
0
  0
LINE
  8
0
 62
7
  6
DASHED
 10
7.56966991411009
 20
8.1
 30
0
 11
7.749999999999993
 21
8.280330085889904
 31
0
  0
LINE
  8
0
 62
7
 10
4.965
 20
8.146980515339463
 30
0
 11
5.118019484660543
 21
8.300000000000001
 31
0
  0
LINE
  8
0
 62
7
 10
5.130151519016506
 20
8.1
 30
0
 11
5.330151519016507
 21
8.300000000000001
 31
0
  0
LINE
  8
0
 62
7
 10
5.34228355337247
 20
8.1
 30
0
 11
5.542283553372471
 21
8.300000000000001
 31
0
  0
LINE
  8
0
 62
7
 10
5.554415587728434
 20
8.1
 30
0
 11
5.754415587728435
 21
8.300000000000001
 31
0
  0
LINE
  8
0
 62
7
 10
5.766547622084397
 20
8.1
 30
0
 11
5.966547622084398
 21
8.300000000000001
 31
0
  0
LINE
  8
0
 62
7
 10
5.978679656440361
 20
8.1
 30
0
 11
6.178679656440362
 21
8.300000000000001
 31
0
  0
LINE
  8
0
 62
7
 10
6.190811690796325
 20
8.1
 30
0
 11
6.390811690796326
 21
8.300000000000001
 31
0
  0
LINE
  8
0
 62
7
 10
6.402943725152289
 20
8.1
 30
0
 11
6.60294372515229
 21
8.300000000000001
 31
0
  0
LINE
  8
0
 62
7
 10
6.615075759508253
 20
8.1
 30
0
 11
6.815075759508254
 21
8.300000000000001
 31
0
  0
LINE
  8
0
 62
7
 10
6.827207793864217
 20
8.1
 30
0
 11
7.027207793864218
 21
8.300000000000001
 31
0
  0
LINE
  8
0
 62
7
 10
7.03933982822018
 20
8.1
 30
0
 11
7.239339828220182
 21
8.300000000000001
 31
0
  0
LINE
  8
0
 62
7
 10
7.251471862576144
 20
8.1
 30
0
 11
7.451471862576145
 21
8.300000000000001
 31
0
  0
LINE
  8
0
 62
7
 10
7.463603896932108
 20
8.1
 30
0
 11
7.663603896932109
 21
8.300000000000001
 31
0
  0
LINE
  8
0
 62
7
 10
7.675735931288072
 20
8.1
 30
0
 11
7.749999999999995
 21
8.174264068711922
 31
0
  0
ENDBLK
  8
0
  0
BLOCK
  8
0
  2
*X9
 70
1
 10
0
 20
0
 30
0
  0
LINE
  8
0
 62
7
 10
5.115
 20
11.16076297914498
 30
0
 11
5.154237020855017
 21
11.2
 31
0
  0
LINE
  8
0
 62
7
 10
5.216369055210985
 20
11.05
 30
0
 11
5.29
 21
11.12363094478902
 31
0
  0
LINE
  8
0
 62
7
 10
5.115
 20
11.054696961967
 30
0
 11
5.260303038033001
 21
11.2
 31
0
  0
ENDBLK
  8
0
  0
BLOCK
  8
0
  2
*X10
 70
1
 10
0
 20
0
 30
0
  0
LINE
  8
0
 62
7
 10
5.115
 20
10.73649891043305
 30
0
 11
5.228501089566948
 21
10.85
 31
0
  0
LINE
  8
0
 62
7
 10
5.115
 20
10.52436687607708
 30
0
 11
5.29
 21
10.69936687607708
 31
0
  0
LINE
  8
0
 62
7
 10
5.115
 20
10.31223484172112
 30
0
 11
5.29
 21
10.48723484172112
 31
0
  0
LINE
  8
0
 62
7
 10
5.115
 20
10.10010280736516
 30
0
 11
5.29
 21
10.27510280736515
 31
0
  0
LINE
  8
0
 62
7
 10
5.115
 20
9.887970773009192
 30
0
 11
5.29
 21
10.06297077300919
 31
0
  0
LINE
  8
0
 62
7
 10
5.115
 20
9.675838738653228
 30
0
 11
5.29
 21
9.850838738653227
 31
0
  0
LINE
  8
0
 62
7
 10
5.115
 20
9.463706704297264
 30
0
 11
5.29
 21
9.638706704297263
 31
0
  0
LINE
  8
0
 62
7
 10
5.115
 20
9.2515746699413
 30
0
 11
5.29
 21
9.426574669941299
 31
0
  0
LINE
  8
0
 62
7
 10
5.115
 20
9.039442635585337
 30
0
 11
5.29
 21
9.214442635585335
 31
0
  0
LINE
  8
0
 62
7
 10
5.115
 20
8.827310601229373
 30
0
 11
5.29
 21
9.002310601229372
 31
0
  0
LINE
  8
0
 62
7
 10
5.115
 20
8.615178566873409
 30
0
 11
5.29
 21
8.790178566873408
 31
0
  0
LINE
  8
0
 62
7
 10
5.115
 20
8.403046532517445
 30
0
 11
5.29
 21
8.578046532517444
 31
0
  0
LINE
  8
0
 62
7
 10
5.224085501838521
 20
8.300000000000001
 30
0
 11
5.29
 21
8.36591449816148
 31
0
  0
LINE
  8
0
 62
7
 10
5.115000000000002
 20
10.84256492761103
 30
0
 11
5.122435072388966
 21
10.85
 31
0
  0
LINE
  8
0
 62
7
 10
5.115000000000002
 20
10.63043289325507
 30
0
 11
5.289999999999999
 21
10.80543289325506
 31
0
  0
LINE
  8
0
 62
7
 10
5.115000000000002
 20
10.4183008588991
 30
0
 11
5.289999999999999
 21
10.5933008588991
 31
0
  0
LINE
  8
0
 62
7
 10
5.115000000000002
 20
10.20616882454314
 30
0
 11
5.289999999999999
 21
10.38116882454314
 31
0
  0
LINE
  8
0
 62
7
 10
5.115000000000002
 20
9.994036790187174
 30
0
 11
5.289999999999999
 21
10.16903679018717
 31
0
  0
LINE
  8
0
 62
7
 10
5.115000000000002
 20
9.78190475583121
 30
0
 11
5.289999999999999
 21
9.956904755831209
 31
0
  0
LINE
  8
0
 62
7
 10
5.115000000000002
 20
9.569772721475246
 30
0
 11
5.289999999999999
 21
9.744772721475245
 31
0
  0
LINE
  8
0
 62
7
 10
5.115000000000002
 20
9.357640687119282
 30
0
 11
5.289999999999999
 21
9.532640687119281
 31
0
  0
LINE
  8
0
 62
7
 10
5.115000000000002
 20
9.145508652763318
 30
0
 11
5.289999999999999
 21
9.320508652763317
 31
0
  0
LINE
  8
0
 62
7
 10
5.115000000000002
 20
8.933376618407355
 30
0
 11
5.289999999999999
 21
9.108376618407354
 31
0
  0
LINE
  8
0
 62
7
 10
5.115000000000002
 20
8.721244584051391
 30
0
 11
5.289999999999999
 21
8.89624458405139
 31
0
  0
LINE
  8
0
 62
7
 10
5.115000000000002
 20
8.509112549695427
 30
0
 11
5.289999999999999
 21
8.684112549695426
 31
0
  0
LINE
  8
0
 62
7
 10
5.118019484660539
 20
8.300000000000001
 30
0
 11
5.289999999999999
 21
8.471980515339462
 31
0
  0
ENDBLK
  8
0
  0
BLOCK
  8
0
  2
*X11
 70
1
 10
0
 20
0
 30
0
  0
LINE
  8
0
 62
7
 10
5.115000000000001
 20
7.978782463805517
 30
0
 11
5.236217536194483
 21
8.1
 31
0
  0
LINE
  8
0
 62
7
 10
5.115000000000001
 20
8.084848480983499
 30
0
 11
5.130151519016501
 21
8.1
 31
0
  0
LINE
  8
0
 62
7
 10
5.192283553372467
 20
7.95
 30
0
 11
5.290000000000001
 21
8.047716446627536
 31
0
  0
ENDBLK
  8
0
  0
BLOCK
  8
0
  2
*X12
 70
1
 10
0
 20
0
 30
0
  0
LINE
  8
0
 62
7
 10
7.424999999999996
 20
11.13731060122937
 30
0
 11
7.487689398770626
 21
11.2
 31
0
  0
LINE
  8
0
 62
7
 10
7.549821433126593
 20
11.05
 30
0
 11
7.599999999999995
 21
11.1001785668734
 31
0
  0
LINE
  8
0
 62
7
 10
7.44375541594861
 20
11.05
 30
0
 11
7.593755415948609
 21
11.2
 31
0
  0
ENDBLK
  8
0
  0
BLOCK
  8
0
  2
*X13
 70
1
 10
0
 20
0
 30
0
  0
LINE
  8
0
 62
7
 10
7.424999999999996
 20
10.71304653251744
 30
0
 11
7.561953467482555
 21
10.85
 31
0
  0
LINE
  8
0
 62
7
 10
7.424999999999996
 20
10.50091449816147
 30
0
 11
7.599999999999997
 21
10.67591449816147
 31
0
  0
LINE
  8
0
 62
7
 10
7.424999999999996
 20
10.28878246380551
 30
0
 11
7.599999999999997
 21
10.46378246380551
 31
0
  0
LINE
  8
0
 62
7
 10
7.424999999999996
 20
10.07665042944955
 30
0
 11
7.599999999999997
 21
10.25165042944955
 31
0
  0
LINE
  8
0
 62
7
 10
7.424999999999996
 20
9.864518395093581
 30
0
 11
7.599999999999997
 21
10.03951839509358
 31
0
  0
LINE
  8
0
 62
7
 10
7.424999999999996
 20
9.652386360737617
 30
0
 11
7.599999999999997
 21
9.827386360737618
 31
0
  0
LINE
  8
0
 62
7
 10
7.424999999999996
 20
9.440254326381654
 30
0
 11
7.599999999999997
 21
9.615254326381654
 31
0
  0
LINE
  8
0
 62
7
 10
7.424999999999996
 20
9.22812229202569
 30
0
 11
7.599999999999997
 21
9.40312229202569
 31
0
  0
LINE
  8
0
 62
7
 10
7.424999999999996
 20
9.015990257669726
 30
0
 11
7.599999999999997
 21
9.190990257669727
 31
0
  0
LINE
  8
0
 62
7
 10
7.424999999999996
 20
8.803858223313762
 30
0
 11
7.599999999999997
 21
8.978858223313763
 31
0
  0
LINE
  8
0
 62
7
 10
7.424999999999996
 20
8.591726188957798
 30
0
 11
7.599999999999997
 21
8.766726188957799
 31
0
  0
LINE
  8
0
 62
7
 10
7.424999999999996
 20
8.379594154601834
 30
0
 11
7.599999999999997
 21
8.554594154601835
 31
0
  0
LINE
  8
0
 62
7
 10
7.557537879754126
 20
8.300000000000001
 30
0
 11
7.599999999999997
 21
8.342462120245871
 31
0
  0
LINE
  8
0
 62
7
 10
7.424999999999996
 20
10.81911254969542
 30
0
 11
7.455887450304571
 21
10.85
 31
0
  0
LINE
  8
0
 62
7
 10
7.424999999999996
 20
10.60698051533945
 30
0
 11
7.599999999999995
 21
10.78198051533945
 31
0
  0
LINE
  8
0
 62
7
 10
7.424999999999996
 20
10.39484848098349
 30
0
 11
7.599999999999995
 21
10.56984848098349
 31
0
  0
LINE
  8
0
 62
7
 10
7.424999999999996
 20
10.18271644662753
 30
0
 11
7.599999999999995
 21
10.35771644662752
 31
0
  0
LINE
  8
0
 62
7
 10
7.424999999999996
 20
9.970584412271563
 30
0
 11
7.599999999999995
 21
10.14558441227156
 31
0
  0
LINE
  8
0
 62
7
 10
7.424999999999996
 20
9.758452377915599
 30
0
 11
7.599999999999995
 21
9.933452377915597
 31
0
  0
LINE
  8
0
 62
7
 10
7.424999999999996
 20
9.546320343559636
 30
0
 11
7.599999999999995
 21
9.721320343559633
 31
0
  0
LINE
  8
0
 62
7
 10
7.424999999999996
 20
9.334188309203672
 30
0
 11
7.599999999999995
 21
9.509188309203669
 31
0
  0
LINE
  8
0
 62
7
 10
7.424999999999996
 20
9.122056274847708
 30
0
 11
7.599999999999995
 21
9.297056274847705
 31
0
  0
LINE
  8
0
 62
7
 10
7.424999999999996
 20
8.909924240491744
 30
0
 11
7.599999999999995
 21
9.084924240491741
 31
0
  0
LINE
  8
0
 62
7
 10
7.424999999999996
 20
8.69779220613578
 30
0
 11
7.599999999999995
 21
8.872792206135777
 31
0
  0
LINE
  8
0
 62
7
 10
7.424999999999996
 20
8.485660171779816
 30
0
 11
7.599999999999995
 21
8.660660171779814
 31
0
  0
LINE
  8
0
 62
7
 10
7.451471862576145
 20
8.300000000000001
 30
0
 11
7.599999999999995
 21
8.44852813742385
 31
0
  0
ENDBLK
  8
0
  0
BLOCK
  8
0
  2
*X14
 70
1
 10
0
 20
0
 30
0
  0
LINE
  8
0
 62
7
 10
7.424999999999995
 20
7.955330085889906
 30
0
 11
7.569669914110088
 21
8.099999999999998
 31
0
  0
LINE
  8
0
 62
7
 10
7.424999999999996
 20
8.061396103067889
 30
0
 11
7.463603896932107
 21
8.099999999999998
 31
0
  0
LINE
  8
0
 62
7
 10
7.525735931288072
 20
7.949999999999999
 30
0
 11
7.599999999999996
 21
8.024264068711924
 31
0
  0
ENDBLK
  8
0
  0
BLOCK
  8
0
  2
*X15
 70
1
 10
0
 20
0
 30
0
  0
LINE
  8
0
 62
7
 10
5.115
 20
5.433198051533947
 30
0
 11
5.251801948466052
 21
5.569999999999999
 31
0
  0
LINE
  8
0
 62
7
 10
4.965000000000001
 20
5.283198051533947
 30
0
 11
5.101801948466051
 21
5.419999999999997
 31
0
  0
LINE
  8
0
 62
7
 10
5.073933982822025
 20
5.180000000000001
 30
0
 11
5.31393398282202
 21
5.419999999999997
 31
0
  0
LINE
  8
0
 62
7
 10
5.286066017177989
 20
5.180000000000001
 30
0
 11
5.526066017177984
 21
5.419999999999997
 31
0
  0
LINE
  8
0
 62
7
 10
5.498198051533953
 20
5.180000000000001
 30
0
 11
5.738198051533947
 21
5.419999999999997
 31
0
  0
LINE
  8
0
 62
7
 10
5.710330085889916
 20
5.180000000000001
 30
0
 11
5.950330085889911
 21
5.419999999999997
 31
0
  0
LINE
  8
0
 62
7
 10
5.92246212024588
 20
5.180000000000001
 30
0
 11
6.162462120245875
 21
5.419999999999997
 31
0
  0
LINE
  8
0
 62
7
 10
6.134594154601844
 20
5.180000000000001
 30
0
 11
6.374594154601839
 21
5.419999999999997
 31
0
  0
LINE
  8
0
 62
7
 10
6.346726188957808
 20
5.180000000000001
 30
0
 11
6.586726188957803
 21
5.419999999999997
 31
0
  0
LINE
  8
0
 62
7
 10
6.558858223313772
 20
5.180000000000001
 30
0
 11
6.798858223313767
 21
5.419999999999997
 31
0
  0
LINE
  8
0
 62
7
 10
6.770990257669736
 20
5.180000000000001
 30
0
 11
7.01099025766973
 21
5.419999999999997
 31
0
  0
LINE
  8
0
 62
7
 10
6.983122292025699
 20
5.180000000000001
 30
0
 11
7.223122292025694
 21
5.419999999999997
 31
0
  0
LINE
  8
0
 62
7
 10
7.195254326381663
 20
5.180000000000001
 30
0
 11
7.585254326381659
 21
5.569999999999999
 31
0
  0
LINE
  8
0
 62
7
 10
7.407386360737627
 20
5.180000000000001
 30
0
 11
7.647386360737623
 21
5.419999999999998
 31
0
  0
LINE
  8
0
 62
7
 10
7.619518395093591
 20
5.180000000000001
 30
0
 11
7.764999999999998
 21
5.325481604906408
 31
0
  0
LINE
  8
0
 62
7
 10
5.115
 20
5.539264068711929
 30
0
 11
5.145735931288071
 21
5.569999999999999
 31
0
  0
LINE
  8
0
 62
7
 10
4.965
 20
5.389264068711929
 30
0
 11
4.995735931288069
 21
5.419999999999998
 31
0
  0
LINE
  8
0
 62
7
 10
4.967867965644045
 20
5.180000000000002
 30
0
 11
5.290000000000001
 21
5.502132034355965
 31
0
  0
LINE
  8
0
 62
7
 10
5.180000000000009
 20
5.180000000000002
 30
0
 11
5.420000000000003
 21
5.419999999999998
 31
0
  0
LINE
  8
0
 62
7
 10
5.392132034355972
 20
5.180000000000002
 30
0
 11
5.632132034355966
 21
5.419999999999998
 31
0
  0
LINE
  8
0
 62
7
 10
5.604264068711936
 20
5.180000000000002
 30
0
 11
5.84426406871193
 21
5.419999999999998
 31
0
  0
LINE
  8
0
 62
7
 10
5.8163961030679
 20
5.180000000000002
 30
0
 11
6.056396103067894
 21
5.419999999999998
 31
0
  0
LINE
  8
0
 62
7
 10
6.028528137423864
 20
5.180000000000002
 30
0
 11
6.268528137423858
 21
5.419999999999998
 31
0
  0
LINE
  8
0
 62
7
 10
6.240660171779828
 20
5.180000000000002
 30
0
 11
6.480660171779822
 21
5.419999999999998
 31
0
  0
LINE
  8
0
 62
7
 10
6.452792206135792
 20
5.180000000000002
 30
0
 11
6.692792206135786
 21
5.419999999999998
 31
0
  0
LINE
  8
0
 62
7
 10
6.664924240491755
 20
5.180000000000002
 30
0
 11
6.904924240491749
 21
5.419999999999998
 31
0
  0
LINE
  8
0
 62
7
 10
6.877056274847719
 20
5.180000000000002
 30
0
 11
7.117056274847713
 21
5.419999999999998
 31
0
  0
LINE
  8
0
 62
7
 10
7.424999999999996
 20
5.515811690796317
 30
0
 11
7.479188309203678
 21
5.569999999999999
 31
0
  0
LINE
  8
0
 62
7
 10
7.089188309203683
 20
5.180000000000002
 30
0
 11
7.329188309203677
 21
5.419999999999998
 31
0
  0
LINE
  8
0
 62
7
 10
7.301320343559647
 20
5.180000000000002
 30
0
 11
7.599999999999995
 21
5.478679656440352
 31
0
  0
LINE
  8
0
 62
7
 10
7.513452377915611
 20
5.180000000000002
 30
0
 11
7.753452377915605
 21
5.419999999999998
 31
0
  0
LINE
  8
0
 62
7
 10
7.725584412271575
 20
5.180000000000002
 30
0
 11
7.764999999999997
 21
5.219415587728425
 31
0
  0
ENDBLK
  8
0
  0
BLOCK
  8
0
  2
*X16
 70
1
 10
0
 20
0
 30
0
  0
LINE
  8
0
 62
7
 10
4.965
 20
5.071066017177981
 30
0
 11
5.033933982822027
 21
5.140000000000004
 31
0
  0
LINE
  8
0
 62
7
 10
5.006066017177985
 20
4.900000000000002
 30
0
 11
5.24606601717799
 21
5.140000000000004
 31
0
  0
LINE
  8
0
 62
7
 10
5.115
 20
4.796801948466054
 30
0
 11
5.458198051533954
 21
5.140000000000004
 31
0
  0
LINE
  8
0
 62
7
 10
5.430330085889917
 20
4.900000000000002
 30
0
 11
5.670330085889918
 21
5.140000000000004
 31
0
  0
LINE
  8
0
 62
7
 10
5.115
 20
4.58466991411009
 30
0
 11
5.289999999999999
 21
4.759669914110087
 31
0
  0
LINE
  8
0
 62
7
 10
5.642462120245881
 20
4.900000000000002
 30
0
 11
5.882462120245882
 21
5.140000000000004
 31
0
  0
LINE
  8
0
 62
7
 10
5.115
 20
4.372537879754126
 30
0
 11
5.289999999999999
 21
4.547537879754123
 31
0
  0
LINE
  8
0
 62
7
 10
5.854594154601845
 20
4.900000000000002
 30
0
 11
6.094594154601846
 21
5.140000000000004
 31
0
  0
LINE
  8
0
 62
7
 10
5.115
 20
4.160405845398162
 30
0
 11
5.289999999999999
 21
4.335405845398159
 31
0
  0
LINE
  8
0
 62
7
 10
6.066726188957809
 20
4.900000000000002
 30
0
 11
6.30672618895781
 21
5.140000000000004
 31
0
  0
LINE
  8
0
 62
7
 10
5.115
 20
3.948273811042198
 30
0
 11
5.289999999999999
 21
4.123273811042195
 31
0
  0
LINE
  8
0
 62
7
 10
6.278858223313772
 20
4.900000000000002
 30
0
 11
6.518858223313774
 21
5.140000000000004
 31
0
  0
LINE
  8
0
 62
7
 10
5.115
 20
3.736141776686233
 30
0
 11
5.289999999999999
 21
3.911141776686232
 31
0
  0
LINE
  8
0
 62
7
 10
6.490990257669736
 20
4.900000000000002
 30
0
 11
6.730990257669737
 21
5.140000000000004
 31
0
  0
LINE
  8
0
 62
7
 10
5.115
 20
3.524009742330269
 30
0
 11
5.289999999999999
 21
3.699009742330267
 31
0
  0
LINE
  8
0
 62
7
 10
6.7031222920257
 20
4.900000000000002
 30
0
 11
6.943122292025701
 21
5.140000000000004
 31
0
  0
LINE
  8
0
 62
7
 10
5.115
 20
3.311877707974305
 30
0
 11
5.289999999999999
 21
3.486877707974303
 31
0
  0
LINE
  8
0
 62
7
 10
6.915254326381664
 20
4.900000000000002
 30
0
 11
7.155254326381665
 21
5.140000000000004
 31
0
  0
LINE
  8
0
 62
7
 10
5.265254326381664
 20
3.250000000000003
 30
0
 11
5.29
 21
3.274745673618339
 31
0
  0
LINE
  8
0
 62
7
 10
7.127386360737628
 20
4.900000000000002
 30
0
 11
7.367386360737629
 21
5.140000000000004
 31
0
  0
LINE
  8
0
 62
7
 10
7.339518395093592
 20
4.900000000000002
 30
0
 11
7.579518395093593
 21
5.140000000000004
 31
0
  0
LINE
  8
0
 62
7
 10
7.424999999999995
 20
4.77334957055044
 30
0
 11
7.764999999999996
 21
5.113349570550442
 31
0
  0
LINE
  8
0
 62
7
 10
7.763782463805521
 20
4.900000000000003
 30
0
 11
7.764999999999996
 21
4.901217536194478
 31
0
  0
LINE
  8
0
 62
7
 10
7.424999999999995
 20
4.561217536194476
 30
0
 11
7.599999999999996
 21
4.736217536194477
 31
0
  0
LINE
  8
0
 62
7
 10
7.424999999999995
 20
4.349085501838513
 30
0
 11
7.599999999999996
 21
4.524085501838513
 31
0
  0
LINE
  8
0
 62
7
 10
7.424999999999995
 20
4.136953467482549
 30
0
 11
7.599999999999996
 21
4.311953467482549
 31
0
  0
LINE
  8
0
 62
7
 10
7.424999999999995
 20
3.924821433126585
 30
0
 11
7.599999999999996
 21
4.099821433126586
 31
0
  0
LINE
  8
0
 62
7
 10
7.424999999999995
 20
3.712689398770621
 30
0
 11
7.599999999999996
 21
3.887689398770621
 31
0
  0
LINE
  8
0
 62
7
 10
7.424999999999995
 20
3.500557364414656
 30
0
 11
7.599999999999996
 21
3.675557364414657
 31
0
  0
LINE
  8
0
 62
7
 10
7.486574669941305
 20
3.350000000000002
 30
0
 11
7.599999999999996
 21
3.463425330058693
 31
0
  0
LINE
  8
0
 62
7
 10
4.965
 20
4.964999999999999
 30
0
 11
5.140000000000008
 21
5.140000000000002
 31
0
  0
LINE
  8
0
 62
7
 10
5.112132034355968
 20
4.900000000000002
 30
0
 11
5.352132034355972
 21
5.140000000000002
 31
0
  0
LINE
  8
0
 62
7
 10
5.324264068711935
 20
4.900000000000002
 30
0
 11
5.564264068711935
 21
5.140000000000002
 31
0
  0
LINE
  8
0
 62
7
 10
5.115
 20
4.690735931288071
 30
0
 11
5.289999999999999
 21
4.865735931288069
 31
0
  0
LINE
  8
0
 62
7
 10
5.536396103067899
 20
4.900000000000002
 30
0
 11
5.776396103067899
 21
5.140000000000002
 31
0
  0
LINE
  8
0
 62
7
 10
5.115
 20
4.478603896932107
 30
0
 11
5.289999999999999
 21
4.653603896932105
 31
0
  0
LINE
  8
0
 62
7
 10
5.748528137423863
 20
4.900000000000002
 30
0
 11
5.988528137423863
 21
5.140000000000002
 31
0
  0
LINE
  8
0
 62
7
 10
5.115
 20
4.266471862576143
 30
0
 11
5.289999999999999
 21
4.441471862576141
 31
0
  0
LINE
  8
0
 62
7
 10
5.960660171779827
 20
4.900000000000002
 30
0
 11
6.200660171779827
 21
5.140000000000002
 31
0
  0
LINE
  8
0
 62
7
 10
5.115
 20
4.054339828220179
 30
0
 11
5.289999999999999
 21
4.229339828220177
 31
0
  0
LINE
  8
0
 62
7
 10
6.17279220613579
 20
4.900000000000002
 30
0
 11
6.412792206135791
 21
5.140000000000002
 31
0
  0
LINE
  8
0
 62
7
 10
5.115
 20
3.842207793864215
 30
0
 11
5.289999999999999
 21
4.017207793864213
 31
0
  0
LINE
  8
0
 62
7
 10
6.384924240491754
 20
4.900000000000002
 30
0
 11
6.624924240491755
 21
5.140000000000002
 31
0
  0
LINE
  8
0
 62
7
 10
5.115
 20
3.630075759508251
 30
0
 11
5.289999999999999
 21
3.80507575950825
 31
0
  0
LINE
  8
0
 62
7
 10
6.597056274847718
 20
4.900000000000002
 30
0
 11
6.837056274847718
 21
5.140000000000002
 31
0
  0
LINE
  8
0
 62
7
 10
5.115
 20
3.417943725152286
 30
0
 11
5.289999999999999
 21
3.592943725152285
 31
0
  0
LINE
  8
0
 62
7
 10
6.809188309203682
 20
4.900000000000002
 30
0
 11
7.049188309203682
 21
5.140000000000002
 31
0
  0
LINE
  8
0
 62
7
 10
5.159188309203681
 20
3.250000000000002
 30
0
 11
5.29
 21
3.380811690796321
 31
0
  0
LINE
  8
0
 62
7
 10
7.021320343559646
 20
4.900000000000002
 30
0
 11
7.261320343559646
 21
5.140000000000002
 31
0
  0
LINE
  8
0
 62
7
 10
7.23345237791561
 20
4.900000000000002
 30
0
 11
7.47345237791561
 21
5.140000000000002
 31
0
  0
LINE
  8
0
 62
7
 10
7.424999999999995
 20
4.879415587728422
 30
0
 11
7.685584412271574
 21
5.140000000000002
 31
0
  0
LINE
  8
0
 62
7
 10
7.657716446627538
 20
4.900000000000002
 30
0
 11
7.764999999999997
 21
5.007283553372461
 31
0
  0
LINE
  8
0
 62
7
 10
7.424999999999995
 20
4.667283553372458
 30
0
 11
7.599999999999998
 21
4.84228355337246
 31
0
  0
LINE
  8
0
 62
7
 10
7.424999999999995
 20
4.455151519016495
 30
0
 11
7.599999999999998
 21
4.630151519016496
 31
0
  0
LINE
  8
0
 62
7
 10
7.424999999999995
 20
4.243019484660531
 30
0
 11
7.599999999999998
 21
4.418019484660532
 31
0
  0
LINE
  8
0
 62
7
 10
7.424999999999995
 20
4.030887450304567
 30
0
 11
7.599999999999998
 21
4.205887450304568
 31
0
  0
LINE
  8
0
 62
7
 10
7.424999999999995
 20
3.818755415948603
 30
0
 11
7.599999999999998
 21
3.993755415948605
 31
0
  0
LINE
  8
0
 62
7
 10
7.424999999999995
 20
3.606623381592638
 30
0
 11
7.599999999999998
 21
3.78162338159264
 31
0
  0
LINE
  8
0
 62
7
 10
7.424999999999995
 20
3.394491347236674
 30
0
 11
7.599999999999998
 21
3.569491347236676
 31
0
  0
LINE
  8
0
 62
7
 10
7.592640687119287
 20
3.350000000000002
 30
0
 11
7.599999999999998
 21
3.357359312880712
 31
0
  0
ENDBLK
  8
0
  0
BLOCK
  8
0
  2
*D0
 70
1
 10
0
 20
0
 30
0
  0
LINE
  8
0
 62
7
 10
8.06273714798729
 20
4.541471764463741
 30
0
 11
8.06273714798729
 21
4.900000000000002
 31
0
  0
LINE
  8
0
 62
7
 10
8.06273714798729
 20
3.350000000000002
 30
0
 11
8.06273714798729
 21
3.79647176446374
 31
0
  0
LINE
  8
0
 62
7
 10
7.599999999999995
 20
4.900000000000002
 30
0
 11
8.112737147987291
 21
4.900000000000002
 31
0
  0
LINE
  8
0
 62
7
 10
7.599999999999995
 20
3.350000000000002
 30
0
 11
8.112737147987291
 21
3.350000000000002
 31
0
  0
LINE
  8
0
 62
7
 10
8.098092487046618
 20
4.864644660940675
 30
0
 11
8.027381808927963
 21
4.935355339059329
 31
0
  0
LINE
  8
0
 62
7
 10
8.027381808927963
 20
3.385355339059329
 30
0
 11
8.098092487046618
 21
3.314644660940675
 31
0
  0
TEXT
  8
0
 62
7
 10
8.10773714798729
 20
4.046471764463741
 30
0
 40
0.1
  1
1,55
 50
90
 41
0.9
  0
ENDBLK
  8
0
  0
BLOCK
  8
0
  2
*D1
 70
1
 10
0
 20
0
 30
0
  0
LINE
  8
0
 62
7
 10
6.748225814029429
 20
5.79441334170782
 30
0
 11
7.424999999999995
 21
5.79441334170782
 31
0
  0
LINE
  8
0
 62
7
 10
5.29
 20
5.79441334170782
 30
0
 11
6.003225814029429
 21
5.79441334170782
 31
0
  0
LINE
  8
0
 62
7
 10
7.424999999999995
 20
5.419999999999998
 30
0
 11
7.424999999999995
 21
5.84441334170782
 31
0
  0
LINE
  8
0
 62
7
 10
5.29
 20
5.419999999999998
 30
0
 11
5.29
 21
5.84441334170782
 31
0
  0
LINE
  8
0
 62
7
 10
5.325355339059327
 20
5.829768680767147
 30
0
 11
5.254644660940673
 21
5.759058002648493
 31
0
  0
LINE
  8
0
 62
7
 10
7.389644660940668
 20
5.759058002648493
 30
0
 11
7.460355339059323
 21
5.829768680767147
 31
0
  0
TEXT
  8
0
 62
7
 10
6.25322581402943
 20
5.74941334170782
 30
0
 40
0.1
  1
2,14
 41
0.9
  0
ENDBLK
  8
0
  0
BLOCK
  8
0
  2
*D2
 70
1
 10
0
 20
0
 30
0
  0
LINE
  8
0
 62
7
 10
4.77491213947087
 20
4.47990200774995
 30
0
 11
4.77491213947087
 21
4.900000000000002
 31
0
  0
LINE
  8
0
 62
7
 10
4.77491213947087
 20
3.250000000000002
 30
0
 11
4.77491213947087
 21
3.73490200774995
 31
0
  0
LINE
  8
0
 62
7
 10
5.114999999999999
 20
4.900000000000002
 30
0
 11
4.72491213947087
 21
4.900000000000002
 31
0
  0
LINE
  8
0
 62
7
 10
5.114999999999999
 20
3.250000000000002
 30
0
 11
4.72491213947087
 21
3.250000000000002
 31
0
  0
LINE
  8
0
 62
7
 10
4.739556800411543
 20
3.285355339059329
 30
0
 11
4.810267478530197
 21
3.214644660940674
 31
0
  0
LINE
  8
0
 62
7
 10
4.810267478530197
 20
4.864644660940675
 30
0
 11
4.739556800411543
 21
4.935355339059329
 31
0
  0
TEXT
  8
0
 62
7
 10
4.81991213947087
 20
3.98490200774995
 30
0
 40
0.1
  1
1,65
 50
90
 41
0.9
  0
ENDBLK
  8
0
  0
BLOCK
  8
0
  2
*D3
 70
1
 10
0
 20
0
 30
0
  0
LINE
  8
0
 62
7
 10
6.624342105972881
 20
11.4588309593766
 30
0
 11
7.424999999999997
 21
11.4588309593766
 31
0
  0
LINE
  8
0
 62
7
 10
5.290000000000001
 20
11.4588309593766
 30
0
 11
5.979342105972881
 21
11.4588309593766
 31
0
  0
LINE
  8
0
 62
7
 10
7.424999999999997
 20
11.2
 30
0
 11
7.424999999999997
 21
11.5088309593766
 31
0
  0
LINE
  8
0
 62
7
 10
5.290000000000001
 20
11.2
 30
0
 11
5.290000000000001
 21
11.5088309593766
 31
0
  0
LINE
  8
0
 62
7
 10
7.38964466094067
 20
11.42347562031727
 30
0
 11
7.460355339059324
 21
11.49418629843593
 31
0
  0
LINE
  8
0
 62
7
 10
5.325355339059328
 20
11.49418629843593
 30
0
 11
5.254644660940674
 21
11.42347562031727
 31
0
  0
TEXT
  8
0
 62
7
 10
6.179342105972881
 20
11.4138309593766
 30
0
 40
0.1
  1
2,14
 41
0.9
  0
ENDBLK
  8
0
  0
BLOCK
  8
0
  2
*D4
 70
1
 10
0
 20
0
 30
0
  0
LINE
  8
0
 62
7
 10
8.08736505067281
 20
10.29950567407594
 30
0
 11
8.08736505067281
 21
11.05
 31
0
  0
LINE
  8
0
 62
7
 10
8.08736505067281
 20
8.300000000000001
 30
0
 11
8.08736505067281
 21
9.21950567407594
 31
0
  0
LINE
  8
0
 62
7
 10
7.749999999999996
 20
11.05
 30
0
 11
8.137365050672811
 21
11.05
 31
0
  0
LINE
  8
0
 62
7
 10
7.749999999999996
 20
8.300000000000001
 30
0
 11
8.137365050672811
 21
8.300000000000001
 31
0
  0
LINE
  8
0
 62
7
 10
8.052009711613483
 20
8.335355339059328
 30
0
 11
8.122720389732137
 21
8.264644660940673
 31
0
  0
LINE
  8
0
 62
7
 10
8.122720389732137
 20
11.01464466094067
 30
0
 11
8.052009711613483
 21
11.08535533905933
 31
0
  0
TEXT
  8
0
 62
7
 10
8.057365050672811
 20
9.622005674075941
 30
0
 40
0.1
  1
2,75
 50
90
 41
0.9
  0
TEXT
  8
0
 62
7
 10
8.217365050672811
 20
9.419505674075941
 30
0
 40
0.1
  1
(260-280)
 50
90
 41
0.9
  0
ENDBLK
  8
0
  0
ENDSEC
  0
SECTION
  2
ENTITIES
  0
INSERT
  8
0
  2
*X0
 10
0
 20
0
 30
0
  0
INSERT
  8
0
  2
*X1
 10
0
 20
0
 30
0
  0
INSERT
  8
0
  2
*X2
 10
0
 20
0
 30
0
  0
INSERT
  8
0
  2
*X3
 10
0
 20
0
 30
0
  0
INSERT
  8
0
  2
*X4
 10
0
 20
0
 30
0
  0
INSERT
  8
0
  2
*X5
 10
0
 20
0
 30
0
  0
INSERT
  8
0
  2
*X6
 10
0
 20
0
 30
0
  0
INSERT
  8
0
  2
*X7
 10
0
 20
0
 30
0
  0
INSERT
  8
0
  2
*X8
 10
0
 20
0
 30
0
  0
INSERT
  8
0
  2
*X9
 10
0
 20
0
 30
0
  0
INSERT
  8
0
  2
*X10
 10
0
 20
0
 30
0
  0
INSERT
  8
0
  2
*X11
 10
0
 20
0
 30
0
  0
INSERT
  8
0
  2
*X12
 10
0
 20
0
 30
0
  0
INSERT
  8
0
  2
*X13
 10
0
 20
0
 30
0
  0
INSERT
  8
0
  2
*X14
 10
0
 20
0
 30
0
  0
INSERT
  8
0
  2
*X15
 10
0
 20
0
 30
0
  0
INSERT
  8
0
  2
*X16
 10
0
 20
0
 30
0
  0
LINE
  8
0
 62
7
 10
6.466748870811158
 20
3.887212159672347
 30
0
 11
6.46
 21
3.865061816572473
 31
0
  0
LINE
  8
0
 62
7
 10
6.406385283028854
 20
3.935000000000002
 30
0
 11
6.466748870811158
 21
3.887212159672347
 31
0
  0
LINE
  8
0
 62
7
 10
6.313458397481456
 20
3.935000000000002
 30
0
 11
6.406385283028854
 21
3.935000000000002
 31
0
  0
LINE
  8
0
 62
7
 10
6.179281746749621
 20
3.844295747402812
 30
0
 11
6.313458397481456
 21
3.935000000000002
 31
0
  0
LINE
  8
0
 62
7
 10
5.345000000000001
 20
3.250000000000002
 30
0
 11
6.255000000000001
 21
3.250000000000002
 31
0
  0
LINE
  8
0
 62
7
 10
6.255000000000001
 20
3.250000000000002
 30
0
 11
6.255000000000001
 21
3.512819554502702
 31
0
  0
LINE
  8
0
 62
7
 10
5.345000000000001
 20
3.617500612922302
 30
0
 11
5.345000000000001
 21
3.250000000000002
 31
0
  0
LINE
  8
0
 62
7
 10
5.345000000000001
 20
3.526907091664594
 30
0
 11
6.255000000000001
 21
3.422226033244992
 31
0
  0
LINE
  8
0
 62
7
 10
6.255000000000001
 20
3.422226033244992
 30
0
 11
6.255000000000001
 21
3.611813362070193
 31
0
  0
LINE
  8
0
 62
7
 10
5.345000000000001
 20
3.964616701256093
 30
0
 11
5.345000000000001
 21
3.526907091664594
 31
0
  0
LINE
  8
0
 62
7
 10
5.345000000000001
 20
3.868089522790572
 30
0
 11
6.255000000000001
 21
3.515286183604683
 31
0
  0
LINE
  8
0
 62
7
 10
6.255000000000001
 20
3.515286183604683
 30
0
 11
6.255000000000001
 21
3.713239198140672
 31
0
  0
LINE
  8
0
 62
7
 10
5.345000000000001
 20
4.320148901099642
 30
0
 11
5.345000000000001
 21
3.868089522790572
 31
0
  0
LINE
  8
0
 62
7
 10
5.345000000000001
 20
4.211969027904481
 30
0
 11
6.255000000000001
 21
3.605059324945503
 31
0
  0
LINE
  8
0
 62
7
 10
6.255000000000001
 20
3.605059324945503
 30
0
 11
6.255000000000001
 21
3.812250614505792
 31
0
  0
LINE
  8
0
 62
7
 10
5.345000000000001
 20
4.79600464601877
 30
0
 11
5.345000000000001
 21
4.211969027904481
 31
0
  0
LINE
  8
0
 62
7
 10
5.345000000000001
 20
4.663467136350222
 30
0
 11
6.255000000000001
 21
3.679713104837242
 31
0
  0
LINE
  8
0
 62
7
 10
6.255000000000001
 20
3.679713104837242
 30
0
 11
6.255000000000001
 21
3.895321660976372
 31
0
  0
LINE
  8
0
 62
7
 10
5.826780941186911
 20
4.845000000000002
 30
0
 11
5.345000000000001
 21
4.845000000000002
 31
0
  0
LINE
  8
0
 62
7
 10
5.345000000000001
 20
4.845000000000002
 30
0
 11
5.345000000000001
 21
4.663467136350222
 31
0
  0
LINE
  8
0
 62
7
 10
5.728054614794612
 20
4.845000000000002
 30
0
 11
6.179281746749621
 21
3.844295747402812
 31
0
  0
LINE
  8
0
 62
7
 10
6.181665740742912
 20
4.845000000000002
 30
0
 11
5.728054614794612
 21
4.845000000000002
 31
0
  0
LINE
  8
0
 62
7
 10
6.090112596655691
 20
4.845000000000002
 30
0
 11
6.259900460305194
 21
3.935000000000002
 31
0
  0
LINE
  8
0
 62
7
 10
6.259900460305194
 20
3.935000000000002
 30
0
 11
6.313458397481456
 21
3.935000000000002
 31
0
  0
LINE
  8
0
 62
7
 10
6.500133291458784
 20
4.845000000000002
 30
0
 11
6.090112596655691
 21
4.845000000000002
 31
0
  0
LINE
  8
0
 62
7
 10
6.41009033080918
 20
4.845000000000002
 30
0
 11
6.382552903517222
 21
3.953867300446711
 31
0
  0
LINE
  8
0
 62
7
 10
6.382552903517222
 20
3.953867300446711
 30
0
 11
6.406385283028854
 21
3.935000000000002
 31
0
  0
LINE
  8
0
 62
7
 10
6.852656956876841
 20
4.845000000000002
 30
0
 11
6.41009033080918
 21
4.845000000000002
 31
0
  0
LINE
  8
0
 62
7
 10
6.75857217890726
 20
4.845000000000002
 30
0
 11
6.466748870811158
 21
3.887212159672347
 31
0
  0
LINE
  8
0
 62
7
 10
6.46
 20
3.865061816572473
 30
0
 11
6.46
 21
3.651569521055213
 31
0
  0
LINE
  8
0
 62
7
 10
7.348387917657371
 20
4.845000000000002
 30
0
 11
6.75857217890726
 21
4.845000000000002
 31
0
  0
LINE
  8
0
 62
7
 10
7.236189671119961
 20
4.845000000000002
 30
0
 11
6.46
 21
3.802292875617484
 31
0
  0
LINE
  8
0
 62
7
 10
6.46
 20
3.802292875617484
 30
0
 11
6.46
 21
3.595773678369742
 31
0
  0
LINE
  8
0
 62
7
 10
7.370000000000001
 20
4.31495053074079
 30
0
 11
7.370000000000001
 21
4.845000000000002
 31
0
  0
LINE
  8
0
 62
7
 10
7.370000000000001
 20
4.845000000000002
 30
0
 11
7.236189671119961
 21
4.845000000000002
 31
0
  0
LINE
  8
0
 62
7
 10
7.370000000000001
 20
4.429663670042484
 30
0
 11
6.46
 21
3.710486817671443
 31
0
  0
LINE
  8
0
 62
7
 10
6.46
 20
3.710486817671443
 30
0
 11
6.46
 21
3.512674805084641
 31
0
  0
LINE
  8
0
 62
7
 10
7.370000000000001
 20
3.959790345047393
 30
0
 11
7.370000000000001
 21
4.429663670042484
 31
0
  0
LINE
  8
0
 62
7
 10
7.370000000000001
 20
4.060067100584372
 30
0
 11
6.46
 21
3.612951560621611
 31
0
  0
LINE
  8
0
 62
7
 10
6.46
 20
3.612951560621611
 30
0
 11
6.46
 21
3.424214105605752
 31
0
  0
LINE
  8
0
 62
7
 10
7.370000000000001
 20
3.629400152380242
 30
0
 11
7.370000000000001
 21
4.060067100584372
 31
0
  0
LINE
  8
0
 62
7
 10
7.370000000000001
 20
3.721659628548102
 30
0
 11
6.46
 21
3.516473581773612
 31
0
  0
LINE
  8
0
 62
7
 10
6.46
 20
3.516473581773612
 30
0
 11
6.46
 21
3.390000000000002
 31
0
  0
LINE
  8
0
 62
7
 10
7.370000000000001
 20
3.390000000000002
 30
0
 11
7.370000000000001
 21
3.721659628548102
 31
0
  0
LINE
  8
0
 62
7
 10
5.752766735063753
 20
3.250000000000002
 30
0
 11
5.752766735063753
 21
3.934999999972822
 31
0
  0
LINE
  8
0
 62
7
 10
6.255000000009564
 20
4.437233264936252
 30
0
 11
6.459999999974894
 21
4.437233264936252
 31
0
  0
LINE
  8
0
 62
7
 10
6.962233264936254
 20
3.400000000000002
 30
0
 11
6.856578165674552
 21
3.461000000000001
 31
0
  0
LINE
  8
0
 62
7
 10
6.856578165674552
 20
3.461000000000001
 30
0
 11
7.067888364197952
 21
3.461000000000001
 31
0
  0
LINE
  8
0
 62
7
 10
7.067888364197952
 20
3.461000000000001
 30
0
 11
6.962233264936254
 21
3.400000000000002
 31
0
  0
LINE
  8
0
 62
7
 10
6.962233264936254
 20
3.934999999990441
 30
0
 11
6.962233264936254
 21
3.400000000000002
 31
0
  0
LINE
  8
0
 62
7
 10
5.345001029999994
 20
8.596800069999997
 30
0
 11
6.254999609999995
 21
8.596800069999997
 31
0
  0
LINE
  8
0
 62
7
 10
5.345001029999994
 20
8.531800069999996
 30
0
 11
5.345001029999994
 21
8.596800069999997
 31
0
  0
LINE
  8
0
 62
7
 10
6.254999609999995
 20
8.596800069999997
 30
0
 11
6.254999609999995
 21
8.531800069999996
 31
0
  0
LINE
  8
0
 62
7
 10
6.254999609999995
 20
8.531800069999996
 30
0
 11
5.345001029999994
 21
8.531800069999996
 31
0
  0
LINE
  8
0
 62
7
 10
5.344999219999995
 20
8.793200059999995
 30
0
 11
6.254999609999995
 21
8.793200059999995
 31
0
  0
LINE
  8
0
 62
7
 10
5.344999219999995
 20
8.728200059999997
 30
0
 11
5.344999219999995
 21
8.793200059999995
 31
0
  0
LINE
  8
0
 62
7
 10
6.254999609999995
 20
8.793200059999995
 30
0
 11
6.254999609999995
 21
8.728200059999997
 31
0
  0
LINE
  8
0
 62
7
 10
6.254999609999995
 20
8.728200059999997
 30
0
 11
5.344999219999995
 21
8.728200059999997
 31
0
  0
LINE
  8
0
 62
7
 10
5.344998909999995
 20
8.989600059999997
 30
0
 11
6.254999689999996
 21
8.989600059999997
 31
0
  0
LINE
  8
0
 62
7
 10
5.344998909999995
 20
8.924600059999998
 30
0
 11
5.344998909999995
 21
8.989600059999997
 31
0
  0
LINE
  8
0
 62
7
 10
6.254999689999996
 20
8.989600059999997
 30
0
 11
6.254999689999996
 21
8.924600059999998
 31
0
  0
LINE
  8
0
 62
7
 10
6.254999689999996
 20
8.924600059999998
 30
0
 11
5.344998909999995
 21
8.924600059999998
 31
0
  0
LINE
  8
0
 62
7
 10
5.344999519999995
 20
9.186000049999999
 30
0
 11
6.254999609999995
 21
9.186000049999999
 31
0
  0
LINE
  8
0
 62
7
 10
5.344999519999995
 20
9.121000049999999
 30
0
 11
5.344999519999995
 21
9.186000049999999
 31
0
  0
LINE
  8
0
 62
7
 10
6.254999609999995
 20
9.186000049999999
 30
0
 11
6.254999609999995
 21
9.121000049999999
 31
0
  0
LINE
  8
0
 62
7
 10
6.254999609999995
 20
9.121000049999999
 30
0
 11
5.344999519999995
 21
9.121000049999999
 31
0
  0
LINE
  8
0
 62
7
 10
5.344999689999995
 20
9.382400049999998
 30
0
 11
6.254999769999995
 21
9.382400049999998
 31
0
  0
LINE
  8
0
 62
7
 10
6.254999769999995
 20
9.317400049999996
 30
0
 11
5.344999689999995
 21
9.317400049999996
 31
0
  0
LINE
  8
0
 62
7
 10
5.344999689999995
 20
9.317400049999996
 30
0
 11
5.344999689999995
 21
9.382400049999998
 31
0
  0
LINE
  8
0
 62
7
 10
6.254999769999995
 20
9.382400049999998
 30
0
 11
6.254999769999995
 21
9.317400049999996
 31
0
  0
LINE
  8
0
 62
7
 10
6.347198329999994
 20
9.513800039999998
 30
0
 11
5.728055149999995
 21
9.513800039999998
 31
0
  0
LINE
  8
0
 62
7
 10
5.728055149999995
 20
9.578800039999997
 30
0
 11
6.347198329999994
 21
9.578800039999997
 31
0
  0
LINE
  8
0
 62
7
 10
5.728055149999995
 20
9.513800039999998
 30
0
 11
5.728055149999995
 21
9.578800039999997
 31
0
  0
LINE
  8
0
 62
7
 10
6.347198329999994
 20
9.578800039999997
 30
0
 11
6.347198329999994
 21
9.513800039999998
 31
0
  0
LINE
  8
0
 62
7
 10
6.500134039999996
 20
9.710200029999998
 30
0
 11
6.090113289999994
 21
9.710200029999998
 31
0
  0
LINE
  8
0
 62
7
 10
6.090113289999994
 20
9.775200029999997
 30
0
 11
6.500134039999996
 21
9.775200029999997
 31
0
  0
LINE
  8
0
 62
7
 10
6.090113289999994
 20
9.710200029999998
 30
0
 11
6.090113289999994
 21
9.775200029999997
 31
0
  0
LINE
  8
0
 62
7
 10
6.500134039999996
 20
9.775200029999997
 30
0
 11
6.500134039999996
 21
9.710200029999998
 31
0
  0
LINE
  8
0
 62
7
 10
6.852657159999994
 20
9.90660003
 30
0
 11
6.382553479999997
 21
9.90660003
 31
0
  0
LINE
  8
0
 62
7
 10
6.382553479999997
 20
9.971600029999998
 30
0
 11
6.852657159999994
 21
9.971600029999998
 31
0
  0
LINE
  8
0
 62
7
 10
6.382553479999997
 20
9.90660003
 30
0
 11
6.382553479999997
 21
9.971600029999998
 31
0
  0
LINE
  8
0
 62
7
 10
6.852657159999994
 20
9.971600029999998
 30
0
 11
6.852657159999994
 21
9.90660003
 31
0
  0
LINE
  8
0
 62
7
 10
6.459999689999996
 20
10.16800002
 30
0
 11
7.348388359999994
 21
10.16800002
 31
0
  0
LINE
  8
0
 62
7
 10
7.348388359999994
 20
10.10300002
 30
0
 11
6.459999689999996
 21
10.10300002
 31
0
  0
LINE
  8
0
 62
7
 10
6.459999689999996
 20
10.10300002
 30
0
 11
6.459999689999996
 21
10.16800002
 31
0
  0
LINE
  8
0
 62
7
 10
7.348388359999994
 20
10.16800002
 30
0
 11
7.348388359999994
 21
10.10300002
 31
0
  0
LINE
  8
0
 62
7
 10
6.459999839999996
 20
10.36440002
 30
0
 11
7.369999689999997
 21
10.36440002
 31
0
  0
LINE
  8
0
 62
7
 10
7.369999689999997
 20
10.29940002
 30
0
 11
6.459999839999996
 21
10.29940002
 31
0
  0
LINE
  8
0
 62
7
 10
6.459999839999996
 20
10.29940002
 30
0
 11
6.459999839999996
 21
10.36440002
 31
0
  0
LINE
  8
0
 62
7
 10
7.369999689999997
 20
10.36440002
 30
0
 11
7.369999689999997
 21
10.29940002
 31
0
  0
LINE
  8
0
 62
7
 10
6.459999539999996
 20
10.56080001
 30
0
 11
7.369999839999996
 21
10.56080001
 31
0
  0
LINE
  8
0
 62
7
 10
6.459999539999996
 20
10.49580001
 30
0
 11
6.459999539999996
 21
10.56080001
 31
0
  0
LINE
  8
0
 62
7
 10
7.369999839999996
 20
10.56080001
 30
0
 11
7.369999839999996
 21
10.49580001
 31
0
  0
LINE
  8
0
 62
7
 10
7.369999839999996
 20
10.49580001
 30
0
 11
6.459999539999996
 21
10.49580001
 31
0
  0
LINE
  8
0
 62
7
 10
6.459999609999994
 20
10.7572
 30
0
 11
7.369999689999997
 21
10.7572
 31
0
  0
LINE
  8
0
 62
7
 10
6.459999609999994
 20
10.6922
 30
0
 11
6.459999609999994
 21
10.7572
 31
0
  0
LINE
  8
0
 62
7
 10
7.369999689999997
 20
10.7572
 30
0
 11
7.369999689999997
 21
10.6922
 31
0
  0
LINE
  8
0
 62
7
 10
7.369999689999997
 20
10.6922
 30
0
 11
6.459999609999994
 21
10.6922
 31
0
  0
LINE
  8
0
 62
7
  6
DASHED
 10
6.459999539999996
 20
10.9536
 30
0
 11
7.369999999999997
 21
10.9536
 31
0
  0
LINE
  8
0
 62
7
  6
DASHED
 10
6.459999539999996
 20
10.8886
 30
0
 11
6.459999539999996
 21
10.9536
 31
0
  0
LINE
  8
0
 62
7
  6
DASHED
 10
7.369999999999997
 20
10.9536
 30
0
 11
7.369999999999997
 21
10.8886
 31
0
  0
LINE
  8
0
 62
7
  6
DASHED
 10
7.369999999999997
 20
10.8886
 30
0
 11
6.459999539999996
 21
10.8886
 31
0
  0
LINE
  8
0
 62
7
 10
2.022499390000001
 20
8.596800069999999
 30
0
 11
2.390000040000002
 21
8.596800069999999
 31
0
  0
LINE
  8
0
 62
7
 10
2.390000040000002
 20
8.531800069999997
 30
0
 11
2.022499390000001
 21
8.531800069999997
 31
0
  0
LINE
  8
0
 62
7
 10
2.390000040000002
 20
8.596800069999999
 30
0
 11
2.390000040000002
 21
8.531800069999997
 31
0
  0
LINE
  8
0
 62
7
 10
2.022499390000001
 20
8.531800069999997
 30
0
 11
2.022499390000001
 21
8.596800069999999
 31
0
  0
LINE
  8
0
 62
7
 10
2.21777382
 20
8.728200059999997
 30
0
 11
1.6753833
 21
8.728200059999997
 31
0
  0
LINE
  8
0
 62
7
 10
1.6753833
 20
8.793200059999998
 30
0
 11
2.21777382
 21
8.793200059999998
 31
0
  0
LINE
  8
0
 62
7
 10
2.21777382
 20
8.793200059999998
 30
0
 11
2.21777382
 21
8.728200059999997
 31
0
  0
LINE
  8
0
 62
7
 10
1.6753833
 20
8.728200059999997
 30
0
 11
1.6753833
 21
8.793200059999998
 31
0
  0
LINE
  8
0
 62
7
 10
2.124713820000001
 20
8.924600059999998
 30
0
 11
1.319851080000001
 21
8.924600059999998
 31
0
  0
LINE
  8
0
 62
7
 10
1.319851080000001
 20
8.989600059999997
 30
0
 11
2.124713820000001
 21
8.989600059999997
 31
0
  0
LINE
  8
0
 62
7
 10
2.124713820000001
 20
8.989600059999997
 30
0
 11
2.124713820000001
 21
8.924600059999998
 31
0
  0
LINE
  8
0
 62
7
 10
1.319851080000001
 20
8.924600059999998
 30
0
 11
1.319851080000001
 21
8.989600059999997
 31
0
  0
LINE
  8
0
 62
7
 10
2.034940680000001
 20
9.121000049999999
 30
0
 11
0.8439953600000009
 21
9.121000049999999
 31
0
  0
LINE
  8
0
 62
7
 10
0.8439953600000009
 20
9.186000049999999
 30
0
 11
2.034940680000001
 21
9.186000049999999
 31
0
  0
LINE
  8
0
 62
7
 10
2.034940680000001
 20
9.186000049999999
 30
0
 11
2.034940680000001
 21
9.121000049999999
 31
0
  0
LINE
  8
0
 62
7
 10
0.8439953600000009
 20
9.121000049999999
 30
0
 11
0.8439953600000009
 21
9.186000049999999
 31
0
  0
LINE
  8
0
 62
7
 10
1.960286870000001
 20
9.317400049999996
 30
0
 11
0.795
 21
9.317400049999996
 31
0
  0
LINE
  8
0
 62
7
 10
0.795
 20
9.382400049999998
 30
0
 11
1.960286870000001
 21
9.382400049999998
 31
0
  0
LINE
  8
0
 62
7
 10
1.960286870000001
 20
9.382400049999998
 30
0
 11
1.960286870000001
 21
9.317400049999996
 31
0
  0
LINE
  8
0
 62
7
 10
0.795
 20
9.317400049999996
 30
0
 11
0.795
 21
9.382400049999998
 31
0
  0
LINE
  8
0
 62
7
 10
0.795
 20
9.578800039999997
 30
0
 11
1.795704120000001
 21
9.578800039999997
 31
0
  0
LINE
  8
0
 62
7
 10
1.795704120000001
 20
9.513800039999998
 30
0
 11
0.795
 21
9.513800039999998
 31
0
  0
LINE
  8
0
 62
7
 10
1.795704120000001
 20
9.578800039999997
 30
0
 11
1.795704120000001
 21
9.513800039999998
 31
0
  0
LINE
  8
0
 62
7
 10
0.795
 20
9.513800039999998
 30
0
 11
0.795
 21
9.578800039999997
 31
0
  0
LINE
  8
0
 62
7
 10
0.795
 20
9.775200029999997
 30
0
 11
1.70499993
 21
9.775200029999997
 31
0
  0
LINE
  8
0
 62
7
 10
1.70499993
 20
9.775200029999997
 30
0
 11
1.70499993
 21
9.710200029999998
 31
0
  0
LINE
  8
0
 62
7
 10
0.795
 20
9.710200029999998
 30
0
 11
0.795
 21
9.775200029999997
 31
0
  0
LINE
  8
0
 62
7
 10
1.70499993
 20
9.710200029999998
 30
0
 11
0.795
 21
9.710200029999998
 31
0
  0
LINE
  8
0
 62
7
 10
0.795
 20
9.971600029999998
 30
0
 11
1.812797010000001
 21
9.971600029999998
 31
0
  0
LINE
  8
0
 62
7
 10
1.812797010000001
 20
9.90660003
 30
0
 11
0.795
 21
9.90660003
 31
0
  0
LINE
  8
0
 62
7
 10
1.812797010000001
 20
9.971600029999998
 30
0
 11
1.812797010000001
 21
9.90660003
 31
0
  0
LINE
  8
0
 62
7
 10
0.795
 20
9.90660003
 30
0
 11
0.795
 21
9.971600029999998
 31
0
  0
LINE
  8
0
 62
7
 10
0.7950001599999996
 20
10.16800002
 30
0
 11
1.988430640000001
 21
10.16800002
 31
0
  0
LINE
  8
0
 62
7
 10
1.988430640000001
 20
10.10300002
 30
0
 11
0.7950001599999996
 21
10.10300002
 31
0
  0
LINE
  8
0
 62
7
 10
1.988430640000001
 20
10.16800002
 30
0
 11
1.988430640000001
 21
10.10300002
 31
0
  0
LINE
  8
0
 62
7
 10
0.7950001599999996
 20
10.10300002
 30
0
 11
0.7950001599999996
 21
10.16800002
 31
0
  0
LINE
  8
0
 62
7
 10
2.044226380000001
 20
10.29940002
 30
0
 11
0.7950001599999996
 21
10.29940002
 31
0
  0
LINE
  8
0
 62
7
 10
0.7950001599999996
 20
10.36440002
 30
0
 11
2.044226380000001
 21
10.36440002
 31
0
  0
LINE
  8
0
 62
7
 10
2.044226380000001
 20
10.36440002
 30
0
 11
2.044226380000001
 21
10.29940002
 31
0
  0
LINE
  8
0
 62
7
 10
0.7950001599999996
 20
10.29940002
 30
0
 11
0.7950001599999996
 21
10.36440002
 31
0
  0
LINE
  8
0
 62
7
 10
2.127325250000001
 20
10.49580001
 30
0
 11
1.21033661
 21
10.49580001
 31
0
  0
LINE
  8
0
 62
7
 10
1.21033661
 20
10.56080001
 30
0
 11
2.127325250000001
 21
10.56080001
 31
0
  0
LINE
  8
0
 62
7
 10
2.127325250000001
 20
10.56080001
 30
0
 11
2.127325250000001
 21
10.49580001
 31
0
  0
LINE
  8
0
 62
7
 10
1.21033661
 20
10.49580001
 30
0
 11
1.21033661
 21
10.56080001
 31
0
  0
LINE
  8
0
 62
7
 10
2.215785750000002
 20
10.6922
 30
0
 11
1.579933170000002
 21
10.6922
 31
0
  0
LINE
  8
0
 62
7
 10
1.579933170000002
 20
10.7572
 30
0
 11
2.215785750000002
 21
10.7572
 31
0
  0
LINE
  8
0
 62
7
 10
2.215785750000002
 20
10.7572
 30
0
 11
2.215785750000002
 21
10.6922
 31
0
  0
LINE
  8
0
 62
7
 10
1.579933170000002
 20
10.6922
 30
0
 11
1.579933170000002
 21
10.7572
 31
0
  0
LINE
  8
0
 62
7
 10
1.918340910000001
 20
10.9536
 30
0
 11
2.250000920000002
 21
10.9536
 31
0
  0
LINE
  8
0
 62
7
 10
2.250000920000002
 20
10.8886
 30
0
 11
1.918340910000001
 21
10.8886
 31
0
  0
LINE
  8
0
 62
7
 10
2.250000920000002
 20
10.9536
 30
0
 11
2.250000920000002
 21
10.8886
 31
0
  0
LINE
  8
0
 62
7
 10
1.918340910000001
 20
10.8886
 30
0
 11
1.918340910000001
 21
10.9536
 31
0
  0
LINE
  8
0
 62
7
  6
DASHDOT
 10
7.424999999999996
 20
5.569999999999999
 30
0
 11
7.599999999999996
 21
5.569999999999999
 31
0
  0
LINE
  8
0
 62
7
  6
DASHDOT
 10
7.599999999999996
 20
5.569999999999999
 30
0
 11
7.649999999999996
 21
5.569999999999999
 31
0
  0
LINE
  8
0
 62
7
  6
DASHDOT
 10
4.965
 20
5.140000000000002
 30
0
 11
4.965
 21
4.900000000000002
 31
0
  0
LINE
  8
0
 62
7
  6
DASHDOT
 10
7.764999999999997
 20
5.140000000000002
 30
0
 11
7.764999999999997
 21
4.900000000000002
 31
0
  0
LINE
  8
0
 62
7
  6
DASHDOT
 10
4.965
 20
5.180000000000002
 30
0
 11
4.965
 21
5.140000000000002
 31
0
  0
LINE
  8
0
 62
7
  6
DASHDOT
 10
7.764999999999997
 20
5.180000000000002
 30
0
 11
7.764999999999997
 21
5.140000000000002
 31
0
  0
LINE
  8
0
 62
7
  6
DASHDOT
 10
4.965
 20
4.900000000000002
 30
0
 11
4.965
 21
4.850000000000002
 31
0
  0
LINE
  8
0
 62
7
  6
DASHDOT
 10
4.965
 20
5.419999999999998
 30
0
 11
4.965
 21
5.180000000000002
 31
0
  0
LINE
  8
0
 62
7
  6
DASHDOT
 10
5.29
 20
5.569999999999999
 30
0
 11
5.34
 21
5.569999999999999
 31
0
  0
LINE
  8
0
 62
7
  6
DASHDOT
 10
5.115
 20
5.569999999999999
 30
0
 11
5.29
 21
5.569999999999999
 31
0
  0
LINE
  8
0
 62
7
  6
DASHDOT
 10
7.764999999999997
 20
4.900000000000002
 30
0
 11
7.764999999999997
 21
4.850000000000002
 31
0
  0
LINE
  8
0
 62
7
  6
DASHDOT
 10
7.764999999999997
 20
5.419999999999998
 30
0
 11
7.764999999999997
 21
5.180000000000002
 31
0
  0
LINE
  8
0
 62
7
  6
DASHDOT
 10
7.764999999999997
 20
5.469999999999999
 30
0
 11
7.764999999999997
 21
5.419999999999998
 31
0
  0
LINE
  8
0
 62
7
  6
DASHDOT
 10
4.965
 20
5.469999999999999
 30
0
 11
4.965
 21
5.419999999999998
 31
0
  0
LINE
  8
0
 62
7
  6
DASHDOT
 10
7.374999999999996
 20
5.569999999999999
 30
0
 11
7.424999999999996
 21
5.569999999999999
 31
0
  0
LINE
  8
0
 62
7
  6
DASHDOT
 10
5.065
 20
5.569999999999999
 30
0
 11
5.115
 21
5.569999999999999
 31
0
  0
LINE
  8
0
 62
7
 10
5.29
 20
3.350000000000002
 30
0
 11
5.29
 21
3.400000000000002
 31
0
  0
LINE
  8
0
 62
7
  6
DASHDOT
 10
7.424999999999996
 20
3.350000000000002
 30
0
 11
5.29
 21
3.350000000000002
 31
0
  0
LINE
  8
0
 62
7
 10
7.424999999999996
 20
3.400000000000002
 30
0
 11
7.424999999999996
 21
3.350000000000002
 31
0
  0
LINE
  8
0
 62
7
 10
5.29
 20
3.400000000000002
 30
0
 11
5.29
 21
4.900000000000002
 31
0
  0
LINE
  8
0
 62
7
 10
7.424999999999996
 20
3.400000000000002
 30
0
 11
5.29
 21
3.400000000000002
 31
0
  0
LINE
  8
0
 62
7
 10
7.424999999999996
 20
3.350000000000002
 30
0
 11
7.599999999999996
 21
3.350000000000002
 31
0
  0
LINE
  8
0
 62
7
 10
7.599999999999996
 20
4.900000000000002
 30
0
 11
7.764999999999997
 21
4.900000000000002
 31
0
  0
LINE
  8
0
 62
7
 10
7.599999999999996
 20
3.350000000000002
 30
0
 11
7.599999999999996
 21
4.900000000000002
 31
0
  0
LINE
  8
0
 62
7
 10
7.424999999999996
 20
4.900000000000002
 30
0
 11
7.424999999999996
 21
3.400000000000002
 31
0
  0
LINE
  8
0
 62
7
 10
5.29
 20
4.900000000000002
 30
0
 11
7.424999999999996
 21
4.900000000000002
 31
0
  0
LINE
  8
0
 62
7
 10
5.115
 20
4.900000000000002
 30
0
 11
5.115
 21
3.250000000000002
 31
0
  0
LINE
  8
0
 62
7
 10
5.115
 20
3.250000000000002
 30
0
 11
5.29
 21
3.250000000000002
 31
0
  0
LINE
  8
0
 62
7
 10
5.29
 20
3.250000000000002
 30
0
 11
5.29
 21
3.350000000000002
 31
0
  0
LINE
  8
0
 62
7
 10
4.965
 20
4.900000000000002
 30
0
 11
5.115
 21
4.900000000000002
 31
0
  0
LINE
  8
0
 62
7
 10
4.965
 20
5.140000000000002
 30
0
 11
7.764999999999997
 21
5.140000000000002
 31
0
  0
LINE
  8
0
 62
7
 10
4.965
 20
5.180000000000002
 30
0
 11
7.764999999999997
 21
5.180000000000002
 31
0
  0
LINE
  8
0
 62
7
 10
7.599999999999996
 20
5.419999999999998
 30
0
 11
7.764999999999997
 21
5.419999999999998
 31
0
  0
LINE
  8
0
 62
7
 10
7.599999999999996
 20
5.569999999999999
 30
0
 11
7.599999999999996
 21
5.419999999999998
 31
0
  0
LINE
  8
0
 62
7
 10
7.424999999999996
 20
5.419999999999998
 30
0
 11
7.424999999999996
 21
5.569999999999999
 31
0
  0
LINE
  8
0
 62
7
 10
5.29
 20
5.419999999999998
 30
0
 11
7.424999999999996
 21
5.419999999999998
 31
0
  0
LINE
  8
0
 62
7
 10
5.29
 20
5.569999999999999
 30
0
 11
5.29
 21
5.419999999999998
 31
0
  0
LINE
  8
0
 62
7
 10
5.115
 20
5.419999999999998
 30
0
 11
5.115
 21
5.569999999999999
 31
0
  0
LINE
  8
0
 62
7
 10
4.965
 20
5.419999999999998
 30
0
 11
5.115
 21
5.419999999999998
 31
0
  0
LINE
  8
0
 62
7
  6
DASHED
 10
0.7400000000000001
 20
8.1
 30
0
 11
2.290000000000001
 21
8.1
 31
0
  0
LINE
  8
0
 62
7
  6
DASHED
 10
0.7400000000000001
 20
8.300000000000001
 30
0
 11
2.290000000000001
 21
8.300000000000001
 31
0
  0
LINE
  8
0
 62
7
  6
DASHED
 10
0.7400000000000001
 20
10.85
 30
0
 11
2.290000000000001
 21
10.85
 31
0
  0
LINE
  8
0
 62
7
  6
DASHED
 10
0.7400000000000001
 20
11.05
 30
0
 11
2.290000000000001
 21
11.05
 31
0
  0
LINE
  8
0
 62
7
  6
DASHDOT
 10
2.590000000000001
 20
11.05
 30
0
 11
2.590000000000001
 21
10.85
 31
0
  0
LINE
  8
0
 62
7
  6
DASHDOT
 10
2.590000000000001
 20
10.85
 30
0
 11
2.590000000000001
 21
10.8
 31
0
  0
LINE
  8
0
 62
7
  6
DASHDOT
 10
0.5
 20
11.2
 30
0
 11
0.7400000000000001
 21
11.2
 31
0
  0
LINE
  8
0
 62
7
  6
DASHDOT
 10
0.7400000000000001
 20
11.2
 30
0
 11
0.79
 21
11.2
 31
0
  0
LINE
  8
0
 62
7
  6
DASHDOT
 10
0.7400000000000001
 20
7.95
 30
0
 11
0.79
 21
7.95
 31
0
  0
LINE
  8
0
 62
7
  6
DASHDOT
 10
0.5
 20
7.95
 30
0
 11
0.7400000000000001
 21
7.95
 31
0
  0
LINE
  8
0
 62
7
  6
DASHDOT
 10
2.590000000000001
 20
8.1
 30
0
 11
2.590000000000001
 21
8.300000000000001
 31
0
  0
LINE
  8
0
 62
7
  6
DASHDOT
 10
2.590000000000001
 20
8.300000000000001
 30
0
 11
2.590000000000001
 21
8.4
 31
0
  0
LINE
  8
0
 62
7
  6
DASHDOT
 10
2.590000000000001
 20
11.15
 30
0
 11
2.590000000000001
 21
11.05
 31
0
  0
LINE
  8
0
 62
7
 10
2.290000000000001
 20
11.15
 30
0
 11
2.590000000000001
 21
11.15
 31
0
  0
LINE
  8
0
 62
7
  6
DASHDOT
 10
2.590000000000001
 20
8.4
 30
0
 11
2.590000000000001
 21
8.450000000000001
 31
0
  0
LINE
  8
0
 62
7
 10
2.290000000000001
 20
8.4
 30
0
 11
2.590000000000001
 21
8.4
 31
0
  0
LINE
  8
0
 62
7
  6
DASHDOT
 10
0.45
 20
7.95
 30
0
 11
0.5
 21
7.95
 31
0
  0
LINE
  8
0
 62
7
  6
DASHDOT
 10
2.590000000000001
 20
8.050000000000001
 30
0
 11
2.590000000000001
 21
8.1
 31
0
  0
LINE
  8
0
 62
7
  6
DASHDOT
 10
2.590000000000001
 20
11.2
 30
0
 11
2.590000000000001
 21
11.15
 31
0
  0
LINE
  8
0
 62
7
  6
DASHDOT
 10
0.45
 20
11.2
 30
0
 11
0.5
 21
11.2
 31
0
  0
LINE
  8
0
 62
7
 10
2.290000000000001
 20
8.1
 30
0
 11
2.590000000000001
 21
8.1
 31
0
  0
LINE
  8
0
 62
7
 10
2.290000000000001
 20
8.300000000000001
 30
0
 11
2.290000000000001
 21
8.1
 31
0
  0
LINE
  8
0
 62
7
 10
2.290000000000001
 20
8.300000000000001
 30
0
 11
2.590000000000001
 21
8.300000000000001
 31
0
  0
LINE
  8
0
 62
7
 10
2.290000000000001
 20
11.05
 30
0
 11
2.590000000000001
 21
11.05
 31
0
  0
LINE
  8
0
 62
7
 10
2.290000000000001
 20
10.85
 30
0
 11
2.590000000000001
 21
10.85
 31
0
  0
LINE
  8
0
 62
7
 10
2.290000000000001
 20
11.05
 30
0
 11
2.290000000000001
 21
10.85
 31
0
  0
LINE
  8
0
 62
7
 10
0.7400000000000001
 20
8.1
 30
0
 11
0.7400000000000001
 21
7.95
 31
0
  0
LINE
  8
0
 62
7
 10
0.5
 20
8.1
 30
0
 11
0.5
 21
8.300000000000001
 31
0
  0
LINE
  8
0
 62
7
 10
0.5
 20
8.1
 30
0
 11
0.7400000000000001
 21
8.1
 31
0
  0
LINE
  8
0
 62
7
 10
0.7400000000000001
 20
8.300000000000001
 30
0
 11
0.7400000000000001
 21
8.1
 31
0
  0
LINE
  8
0
 62
7
 10
0.5
 20
8.300000000000001
 30
0
 11
0.5
 21
10.85
 31
0
  0
LINE
  8
0
 62
7
 10
0.5
 20
8.300000000000001
 30
0
 11
0.7400000000000001
 21
8.300000000000001
 31
0
  0
LINE
  8
0
 62
7
 10
0.7400000000000001
 20
10.85
 30
0
 11
0.7400000000000001
 21
8.300000000000001
 31
0
  0
LINE
  8
0
 62
7
 10
0.5
 20
10.85
 30
0
 11
0.5
 21
11.05
 31
0
  0
LINE
  8
0
 62
7
 10
0.5
 20
10.85
 30
0
 11
0.7400000000000001
 21
10.85
 31
0
  0
LINE
  8
0
 62
7
 10
0.7400000000000001
 20
11.05
 30
0
 11
0.7400000000000001
 21
10.85
 31
0
  0
LINE
  8
0
 62
7
 10
0.5
 20
11.05
 30
0
 11
0.5
 21
11.2
 31
0
  0
LINE
  8
0
 62
7
 10
0.5
 20
11.05
 30
0
 11
0.7400000000000001
 21
11.05
 31
0
  0
LINE
  8
0
 62
7
 10
0.7400000000000001
 20
11.2
 30
0
 11
0.7400000000000001
 21
11.05
 31
0
  0
LINE
  8
0
 62
7
 10
0.5
 20
7.95
 30
0
 11
0.5
 21
8.1
 31
0
  0
LINE
  8
0
 62
7
  6
DASHDOT
 10
5.065
 20
11.2
 30
0
 11
5.115
 21
11.2
 31
0
  0
LINE
  8
0
 62
7
  6
DASHDOT
 10
5.115
 20
11.2
 30
0
 11
5.29
 21
11.2
 31
0
  0
LINE
  8
0
 62
7
  6
DASHDOT
 10
4.965
 20
11.15
 30
0
 11
4.965
 21
11.05
 31
0
  0
LINE
  8
0
 62
7
  6
DASHDOT
 10
4.965
 20
11.05
 30
0
 11
4.965
 21
10.85
 31
0
  0
LINE
  8
0
 62
7
  6
DASHDOT
 10
7.374999999999996
 20
11.2
 30
0
 11
7.424999999999996
 21
11.2
 31
0
  0
LINE
  8
0
 62
7
  6
DASHDOT
 10
7.424999999999996
 20
11.2
 30
0
 11
7.599999999999996
 21
11.2
 31
0
  0
LINE
  8
0
 62
7
  6
DASHDOT
 10
7.749999999999996
 20
11.15
 30
0
 11
7.749999999999996
 21
11.05
 31
0
  0
LINE
  8
0
 62
7
  6
DASHDOT
 10
7.749999999999996
 20
11.05
 30
0
 11
7.749999999999996
 21
10.85
 31
0
  0
LINE
  8
0
 62
7
  6
DASHDOT
 10
7.374999999999996
 20
7.95
 30
0
 11
7.424999999999996
 21
7.95
 31
0
  0
LINE
  8
0
 62
7
  6
DASHDOT
 10
7.424999999999996
 20
7.95
 30
0
 11
7.599999999999996
 21
7.95
 31
0
  0
LINE
  8
0
 62
7
  6
DASHDOT
 10
7.749999999999996
 20
8.4
 30
0
 11
7.749999999999996
 21
8.300000000000001
 31
0
  0
LINE
  8
0
 62
7
  6
DASHDOT
 10
7.749999999999996
 20
8.300000000000001
 30
0
 11
7.749999999999996
 21
8.1
 31
0
  0
LINE
  8
0
 62
7
  6
DASHDOT
 10
5.065
 20
7.95
 30
0
 11
5.115
 21
7.95
 31
0
  0
LINE
  8
0
 62
7
  6
DASHDOT
 10
5.115
 20
7.95
 30
0
 11
5.29
 21
7.95
 31
0
  0
LINE
  8
0
 62
7
  6
DASHDOT
 10
4.965
 20
8.4
 30
0
 11
4.965
 21
8.300000000000001
 31
0
  0
LINE
  8
0
 62
7
  6
DASHDOT
 10
4.965
 20
8.300000000000001
 30
0
 11
4.965
 21
8.1
 31
0
  0
LINE
  8
0
 62
7
  6
DASHDOT
 10
4.965
 20
11.2
 30
0
 11
4.965
 21
11.15
 31
0
  0
LINE
  8
0
 62
7
 10
5.115
 20
11.2
 30
0
 11
5.115
 21
11.15
 31
0
  0
LINE
  8
0
 62
7
 10
4.965
 20
11.15
 30
0
 11
5.115
 21
11.15
 31
0
  0
LINE
  8
0
 62
7
 10
5.29
 20
11.2
 30
0
 11
5.29
 21
11.15
 31
0
  0
LINE
  8
0
 62
7
 10
7.424999999999996
 20
11.2
 30
0
 11
7.424999999999996
 21
11.15
 31
0
  0
LINE
  8
0
 62
7
 10
5.29
 20
11.15
 30
0
 11
7.424999999999996
 21
11.15
 31
0
  0
LINE
  8
0
 62
7
  6
DASHDOT
 10
7.749999999999996
 20
11.2
 30
0
 11
7.749999999999996
 21
11.15
 31
0
  0
LINE
  8
0
 62
7
 10
7.599999999999996
 20
11.2
 30
0
 11
7.599999999999996
 21
11.15
 31
0
  0
LINE
  8
0
 62
7
 10
7.599999999999996
 20
11.15
 30
0
 11
7.749999999999996
 21
11.15
 31
0
  0
LINE
  8
0
 62
7
  6
DASHDOT
 10
4.965
 20
8.450000000000001
 30
0
 11
4.965
 21
8.4
 31
0
  0
LINE
  8
0
 62
7
 10
5.115
 20
10.85
 30
0
 11
5.115
 21
8.4
 31
0
  0
LINE
  8
0
 62
7
 10
4.965
 20
8.4
 30
0
 11
5.115
 21
8.4
 31
0
  0
LINE
  8
0
 62
7
 10
5.29
 20
10.85
 30
0
 11
5.29
 21
8.4
 31
0
  0
LINE
  8
0
 62
7
 10
7.424999999999996
 20
10.85
 30
0
 11
7.424999999999996
 21
8.4
 31
0
  0
LINE
  8
0
 62
7
 10
5.29
 20
8.4
 30
0
 11
7.424999999999996
 21
8.4
 31
0
  0
LINE
  8
0
 62
7
  6
DASHDOT
 10
7.749999999999996
 20
8.450000000000001
 30
0
 11
7.749999999999996
 21
8.4
 31
0
  0
LINE
  8
0
 62
7
 10
7.599999999999996
 20
10.85
 30
0
 11
7.599999999999996
 21
8.4
 31
0
  0
LINE
  8
0
 62
7
 10
7.599999999999996
 20
8.4
 30
0
 11
7.749999999999996
 21
8.4
 31
0
  0
LINE
  8
0
 62
7
  6
DASHDOT
 10
5.29
 20
7.95
 30
0
 11
5.34
 21
7.95
 31
0
  0
LINE
  8
0
 62
7
  6
DASHDOT
 10
5.29
 20
11.2
 30
0
 11
5.34
 21
11.2
 31
0
  0
LINE
  8
0
 62
7
  6
DASHDOT
 10
7.599999999999996
 20
7.95
 30
0
 11
7.649999999999996
 21
7.95
 31
0
  0
LINE
  8
0
 62
7
  6
DASHDOT
 10
7.599999999999996
 20
11.2
 30
0
 11
7.649999999999996
 21
11.2
 31
0
  0
LINE
  8
0
 62
7
  6
DASHDOT
 10
4.965
 20
10.85
 30
0
 11
4.965
 21
10.8
 31
0
  0
LINE
  8
0
 62
7
  6
DASHDOT
 10
4.965
 20
8.1
 30
0
 11
4.965
 21
8.050000000000001
 31
0
  0
LINE
  8
0
 62
7
  6
DASHDOT
 10
7.749999999999996
 20
10.85
 30
0
 11
7.749999999999996
 21
10.8
 31
0
  0
LINE
  8
0
 62
7
  6
DASHDOT
 10
7.749999999999996
 20
8.1
 30
0
 11
7.749999999999996
 21
8.050000000000001
 31
0
  0
LINE
  8
0
 62
7
 10
4.965
 20
11.05
 30
0
 11
5.115
 21
11.05
 31
0
  0
LINE
  8
0
 62
7
 10
5.115
 20
11.15
 30
0
 11
5.115
 21
11.05
 31
0
  0
LINE
  8
0
 62
7
 10
4.965
 20
10.85
 30
0
 11
5.115
 21
10.85
 31
0
  0
LINE
  8
0
 62
7
 10
4.965
 20
8.300000000000001
 30
0
 11
5.115
 21
8.300000000000001
 31
0
  0
LINE
  8
0
 62
7
 10
5.115
 20
8.4
 30
0
 11
5.115
 21
8.300000000000001
 31
0
  0
LINE
  8
0
 62
7
 10
4.965
 20
8.1
 30
0
 11
5.115
 21
8.1
 31
0
  0
LINE
  8
0
 62
7
 10
5.115
 20
8.1
 30
0
 11
5.115
 21
7.95
 31
0
  0
LINE
  8
0
 62
7
 10
5.115
 20
11.05
 30
0
 11
5.29
 21
11.05
 31
0
  0
LINE
  8
0
 62
7
 10
5.29
 20
11.15
 30
0
 11
5.29
 21
11.05
 31
0
  0
LINE
  8
0
 62
7
 10
5.115
 20
10.85
 30
0
 11
5.29
 21
10.85
 31
0
  0
LINE
  8
0
 62
7
 10
5.115
 20
8.300000000000001
 30
0
 11
5.29
 21
8.300000000000001
 31
0
  0
LINE
  8
0
 62
7
 10
5.29
 20
8.4
 30
0
 11
5.29
 21
8.300000000000001
 31
0
  0
LINE
  8
0
 62
7
 10
5.115
 20
8.1
 30
0
 11
5.29
 21
8.1
 31
0
  0
LINE
  8
0
 62
7
 10
5.29
 20
8.1
 30
0
 11
5.29
 21
7.95
 31
0
  0
LINE
  8
0
 62
7
 10
5.29
 20
11.05
 30
0
 11
7.424999999999996
 21
11.05
 31
0
  0
LINE
  8
0
 62
7
 10
7.424999999999996
 20
11.15
 30
0
 11
7.424999999999996
 21
11.05
 31
0
  0
LINE
  8
0
 62
7
 10
5.29
 20
10.85
 30
0
 11
7.424999999999996
 21
10.85
 31
0
  0
LINE
  8
0
 62
7
 10
5.29
 20
8.300000000000001
 30
0
 11
7.424999999999996
 21
8.300000000000001
 31
0
  0
LINE
  8
0
 62
7
 10
7.424999999999996
 20
8.4
 30
0
 11
7.424999999999996
 21
8.300000000000001
 31
0
  0
LINE
  8
0
 62
7
 10
5.29
 20
8.1
 30
0
 11
7.424999999999996
 21
8.1
 31
0
  0
LINE
  8
0
 62
7
 10
7.424999999999996
 20
8.1
 30
0
 11
7.424999999999996
 21
7.95
 31
0
  0
LINE
  8
0
 62
7
 10
7.424999999999996
 20
11.05
 30
0
 11
7.599999999999996
 21
11.05
 31
0
  0
LINE
  8
0
 62
7
 10
7.599999999999996
 20
11.15
 30
0
 11
7.599999999999996
 21
11.05
 31
0
  0
LINE
  8
0
 62
7
 10
7.424999999999996
 20
10.85
 30
0
 11
7.599999999999996
 21
10.85
 31
0
  0
LINE
  8
0
 62
7
 10
7.424999999999996
 20
8.300000000000001
 30
0
 11
7.599999999999996
 21
8.300000000000001
 31
0
  0
LINE
  8
0
 62
7
 10
7.599999999999996
 20
8.4
 30
0
 11
7.599999999999996
 21
8.300000000000001
 31
0
  0
LINE
  8
0
 62
7
 10
7.424999999999996
 20
8.1
 30
0
 11
7.599999999999996
 21
8.1
 31
0
  0
LINE
  8
0
 62
7
 10
7.599999999999996
 20
8.1
 30
0
 11
7.599999999999996
 21
7.95
 31
0
  0
LINE
  8
0
 62
7
 10
7.599999999999996
 20
11.05
 30
0
 11
7.749999999999996
 21
11.05
 31
0
  0
LINE
  8
0
 62
7
 10
7.599999999999996
 20
10.85
 30
0
 11
7.749999999999996
 21
10.85
 31
0
  0
LINE
  8
0
 62
7
 10
7.599999999999996
 20
8.300000000000001
 30
0
 11
7.749999999999996
 21
8.300000000000001
 31
0
  0
LINE
  8
0
 62
7
 10
7.599999999999996
 20
8.1
 30
0
 11
7.749999999999996
 21
8.1
 31
0
  0
LINE
  8
0
 62
7
 10
5.514680169902912
 20
4.609772513484361
 30
0
 11
5.514680169902912
 21
4.72977251348436
 31
0
  0
LINE
  8
0
 62
7
 10
5.590280169902911
 20
4.72977251348436
 30
0
 11
5.536280169902912
 21
4.66977251348436
 31
0
  0
LINE
  8
0
 62
7
 10
5.536280169902912
 20
4.66977251348436
 30
0
 11
5.590280169902911
 21
4.609772513484361
 31
0
  0
LINE
  8
0
 62
7
 10
5.536280169902912
 20
4.66977251348436
 30
0
 11
5.514680169902912
 21
4.645772513484362
 31
0
  0
LINE
  8
0
 62
7
 10
5.698280169902912
 20
4.72977251348436
 30
0
 11
5.622680169902911
 21
4.72977251348436
 31
0
  0
LINE
  8
0
 62
7
 10
5.622680169902911
 20
4.72977251348436
 30
0
 11
5.622680169902911
 21
4.66977251348436
 31
0
  0
LINE
  8
0
 62
7
 10
5.622680169902911
 20
4.609772513484361
 30
0
 11
5.698280169902912
 21
4.609772513484361
 31
0
  0
LINE
  8
0
 62
7
 10
5.687480169902912
 20
4.66977251348436
 30
0
 11
5.622680169902911
 21
4.66977251348436
 31
0
  0
LINE
  8
0
 62
7
 10
5.622680169902911
 20
4.66977251348436
 30
0
 11
5.622680169902911
 21
4.609772513484361
 31
0
  0
LINE
  8
0
 62
7
 10
5.730680169902911
 20
4.609772513484361
 30
0
 11
5.730680169902911
 21
4.72977251348436
 31
0
  0
LINE
  8
0
 62
7
 10
5.730680169902911
 20
4.72977251348436
 30
0
 11
5.806280169902912
 21
4.609772513484361
 31
0
  0
LINE
  8
0
 62
7
 10
5.806280169902912
 20
4.609772513484361
 30
0
 11
5.806280169902912
 21
4.72977251348436
 31
0
  0
LINE
  8
0
 62
7
 10
5.838680169902911
 20
4.609772513484361
 30
0
 11
5.838680169902911
 21
4.72977251348436
 31
0
  0
LINE
  8
0
 62
7
 10
5.838680169902911
 20
4.72977251348436
 30
0
 11
5.914280169902913
 21
4.609772513484361
 31
0
  0
LINE
  8
0
 62
7
 10
5.914280169902913
 20
4.609772513484361
 30
0
 11
5.914280169902913
 21
4.72977251348436
 31
0
  0
LINE
  8
0
 62
7
 10
6.022280169902912
 20
4.693772513484361
 30
0
 11
6.019580169902912
 21
4.705772513484361
 31
0
  0
LINE
  8
0
 62
7
 10
6.019580169902912
 20
4.705772513484361
 30
0
 11
6.014180169902911
 21
4.714772513484361
 31
0
  0
LINE
  8
0
 62
7
 10
6.014180169902911
 20
4.714772513484361
 30
0
 11
6.008780169902912
 21
4.720772513484362
 31
0
  0
LINE
  8
0
 62
7
 10
6.008780169902912
 20
4.720772513484362
 30
0
 11
6.000680169902911
 21
4.72677251348436
 31
0
  0
LINE
  8
0
 62
7
 10
6.000680169902911
 20
4.72677251348436
 30
0
 11
5.992580169902912
 21
4.72977251348436
 31
0
  0
LINE
  8
0
 62
7
 10
5.992580169902912
 20
4.72977251348436
 30
0
 11
5.976380169902912
 21
4.72977251348436
 31
0
  0
LINE
  8
0
 62
7
 10
5.976380169902912
 20
4.72977251348436
 30
0
 11
5.968280169902911
 21
4.72677251348436
 31
0
  0
LINE
  8
0
 62
7
 10
5.968280169902911
 20
4.72677251348436
 30
0
 11
5.960180169902912
 21
4.720772513484362
 31
0
  0
LINE
  8
0
 62
7
 10
5.960180169902912
 20
4.720772513484362
 30
0
 11
5.954780169902912
 21
4.714772513484361
 31
0
  0
LINE
  8
0
 62
7
 10
5.954780169902912
 20
4.714772513484361
 30
0
 11
5.949380169902912
 21
4.705772513484361
 31
0
  0
LINE
  8
0
 62
7
 10
5.949380169902912
 20
4.705772513484361
 30
0
 11
5.946680169902912
 21
4.693772513484361
 31
0
  0
LINE
  8
0
 62
7
 10
5.946680169902912
 20
4.693772513484361
 30
0
 11
5.946680169902912
 21
4.645772513484362
 31
0
  0
LINE
  8
0
 62
7
 10
5.946680169902912
 20
4.645772513484362
 30
0
 11
5.949380169902912
 21
4.633772513484362
 31
0
  0
LINE
  8
0
 62
7
 10
5.949380169902912
 20
4.633772513484362
 30
0
 11
5.954780169902912
 21
4.624772513484361
 31
0
  0
LINE
  8
0
 62
7
 10
5.954780169902912
 20
4.624772513484361
 30
0
 11
5.960180169902912
 21
4.618772513484362
 31
0
  0
LINE
  8
0
 62
7
 10
5.960180169902912
 20
4.618772513484362
 30
0
 11
5.968280169902911
 21
4.61277251348436
 31
0
  0
LINE
  8
0
 62
7
 10
5.968280169902911
 20
4.61277251348436
 30
0
 11
5.976380169902912
 21
4.609772513484361
 31
0
  0
LINE
  8
0
 62
7
 10
5.976380169902912
 20
4.609772513484361
 30
0
 11
5.992580169902912
 21
4.609772513484361
 31
0
  0
LINE
  8
0
 62
7
 10
5.992580169902912
 20
4.609772513484361
 30
0
 11
6.000680169902911
 21
4.61277251348436
 31
0
  0
LINE
  8
0
 62
7
 10
6.000680169902911
 20
4.61277251348436
 30
0
 11
6.008780169902912
 21
4.618772513484362
 31
0
  0
LINE
  8
0
 62
7
 10
6.008780169902912
 20
4.618772513484362
 30
0
 11
6.014180169902911
 21
4.624772513484361
 31
0
  0
LINE
  8
0
 62
7
 10
6.014180169902911
 20
4.624772513484361
 30
0
 11
6.019580169902912
 21
4.633772513484362
 31
0
  0
LINE
  8
0
 62
7
 10
6.019580169902912
 20
4.633772513484362
 30
0
 11
6.022280169902912
 21
4.645772513484362
 31
0
  0
LINE
  8
0
 62
7
 10
6.022280169902912
 20
4.645772513484362
 30
0
 11
6.022280169902912
 21
4.66977251348436
 31
0
  0
LINE
  8
0
 62
7
 10
6.022280169902912
 20
4.66977251348436
 30
0
 11
5.989880169902912
 21
4.66977251348436
 31
0
  0
LINE
  8
0
 62
7
 10
6.100580169902911
 20
4.72977251348436
 30
0
 11
6.084380169902911
 21
4.72977251348436
 31
0
  0
LINE
  8
0
 62
7
 10
6.084380169902911
 20
4.72977251348436
 30
0
 11
6.076280169902912
 21
4.72677251348436
 31
0
  0
LINE
  8
0
 62
7
 10
6.076280169902912
 20
4.72677251348436
 30
0
 11
6.068180169902911
 21
4.720772513484362
 31
0
  0
LINE
  8
0
 62
7
 10
6.068180169902911
 20
4.720772513484362
 30
0
 11
6.062780169902911
 21
4.714772513484361
 31
0
  0
LINE
  8
0
 62
7
 10
6.062780169902911
 20
4.714772513484361
 30
0
 11
6.057380169902912
 21
4.705772513484361
 31
0
  0
LINE
  8
0
 62
7
 10
6.057380169902912
 20
4.705772513484361
 30
0
 11
6.054680169902912
 21
4.693772513484361
 31
0
  0
LINE
  8
0
 62
7
 10
6.054680169902912
 20
4.693772513484361
 30
0
 11
6.054680169902912
 21
4.645772513484362
 31
0
  0
LINE
  8
0
 62
7
 10
6.054680169902912
 20
4.645772513484362
 30
0
 11
6.057380169902912
 21
4.633772513484362
 31
0
  0
LINE
  8
0
 62
7
 10
6.057380169902912
 20
4.633772513484362
 30
0
 11
6.062780169902911
 21
4.624772513484361
 31
0
  0
LINE
  8
0
 62
7
 10
6.062780169902911
 20
4.624772513484361
 30
0
 11
6.068180169902911
 21
4.618772513484362
 31
0
  0
LINE
  8
0
 62
7
 10
6.068180169902911
 20
4.618772513484362
 30
0
 11
6.076280169902912
 21
4.61277251348436
 31
0
  0
LINE
  8
0
 62
7
 10
6.076280169902912
 20
4.61277251348436
 30
0
 11
6.084380169902911
 21
4.609772513484361
 31
0
  0
LINE
  8
0
 62
7
 10
6.084380169902911
 20
4.609772513484361
 30
0
 11
6.100580169902911
 21
4.609772513484361
 31
0
  0
LINE
  8
0
 62
7
 10
6.100580169902911
 20
4.609772513484361
 30
0
 11
6.108680169902911
 21
4.61277251348436
 31
0
  0
LINE
  8
0
 62
7
 10
6.108680169902911
 20
4.61277251348436
 30
0
 11
6.116780169902913
 21
4.618772513484362
 31
0
  0
LINE
  8
0
 62
7
 10
6.116780169902913
 20
4.618772513484362
 30
0
 11
6.122180169902912
 21
4.624772513484361
 31
0
  0
LINE
  8
0
 62
7
 10
6.122180169902912
 20
4.624772513484361
 30
0
 11
6.127580169902912
 21
4.633772513484362
 31
0
  0
LINE
  8
0
 62
7
 10
6.127580169902912
 20
4.633772513484362
 30
0
 11
6.130280169902912
 21
4.645772513484362
 31
0
  0
LINE
  8
0
 62
7
 10
6.130280169902912
 20
4.645772513484362
 30
0
 11
6.130280169902912
 21
4.693772513484361
 31
0
  0
LINE
  8
0
 62
7
 10
6.130280169902912
 20
4.693772513484361
 30
0
 11
6.127580169902912
 21
4.705772513484361
 31
0
  0
LINE
  8
0
 62
7
 10
6.127580169902912
 20
4.705772513484361
 30
0
 11
6.122180169902912
 21
4.714772513484361
 31
0
  0
LINE
  8
0
 62
7
 10
6.122180169902912
 20
4.714772513484361
 30
0
 11
6.116780169902913
 21
4.720772513484362
 31
0
  0
LINE
  8
0
 62
7
 10
6.116780169902913
 20
4.720772513484362
 30
0
 11
6.108680169902911
 21
4.72677251348436
 31
0
  0
LINE
  8
0
 62
7
 10
6.108680169902911
 20
4.72677251348436
 30
0
 11
6.100580169902911
 21
4.72977251348436
 31
0
  0
LINE
  8
0
 62
7
 10
6.151880169902912
 20
4.72977251348436
 30
0
 11
6.189680169902912
 21
4.72977251348436
 31
0
  0
LINE
  8
0
 62
7
 10
6.189680169902912
 20
4.72977251348436
 30
0
 11
6.189680169902912
 21
4.609772513484361
 31
0
  0
LINE
  8
0
 62
7
 10
6.189680169902912
 20
4.72977251348436
 30
0
 11
6.227480169902911
 21
4.72977251348436
 31
0
  0
LINE
  8
0
 62
7
 10
6.259880169902912
 20
4.72977251348436
 30
0
 11
6.297680169902911
 21
4.72977251348436
 31
0
  0
LINE
  8
0
 62
7
 10
6.297680169902911
 20
4.72977251348436
 30
0
 11
6.297680169902911
 21
4.609772513484361
 31
0
  0
LINE
  8
0
 62
7
 10
6.297680169902911
 20
4.72977251348436
 30
0
 11
6.335480169902913
 21
4.72977251348436
 31
0
  0
LINE
  8
0
 62
7
 10
6.454280169902912
 20
4.65177251348436
 30
0
 11
6.50828016990291
 21
4.65177251348436
 31
0
  0
LINE
  8
0
 62
7
 10
6.616280169902912
 20
4.72977251348436
 30
0
 11
6.654080169902911
 21
4.72977251348436
 31
0
  0
LINE
  8
0
 62
7
 10
6.654080169902911
 20
4.72977251348436
 30
0
 11
6.654080169902911
 21
4.609772513484361
 31
0
  0
LINE
  8
0
 62
7
 10
6.654080169902911
 20
4.72977251348436
 30
0
 11
6.691880169902911
 21
4.72977251348436
 31
0
  0
LINE
  8
0
 62
7
 10
6.724280169902912
 20
4.609772513484361
 30
0
 11
6.724280169902912
 21
4.72977251348436
 31
0
  0
LINE
  8
0
 62
7
 10
6.724280169902912
 20
4.72977251348436
 30
0
 11
6.775580169902911
 21
4.72977251348436
 31
0
  0
LINE
  8
0
 62
7
 10
6.775580169902911
 20
4.72977251348436
 30
0
 11
6.786380169902912
 21
4.72677251348436
 31
0
  0
LINE
  8
0
 62
7
 10
6.786380169902912
 20
4.72677251348436
 30
0
 11
6.79448016990291
 21
4.720772513484362
 31
0
  0
LINE
  8
0
 62
7
 10
6.79448016990291
 20
4.720772513484362
 30
0
 11
6.797180169902912
 21
4.714772513484361
 31
0
  0
LINE
  8
0
 62
7
 10
6.797180169902912
 20
4.714772513484361
 30
0
 11
6.799880169902912
 21
4.705772513484361
 31
0
  0
LINE
  8
0
 62
7
 10
6.799880169902912
 20
4.705772513484361
 30
0
 11
6.799880169902912
 21
4.693772513484361
 31
0
  0
LINE
  8
0
 62
7
 10
6.799880169902912
 20
4.693772513484361
 30
0
 11
6.797180169902912
 21
4.684772513484361
 31
0
  0
LINE
  8
0
 62
7
 10
6.797180169902912
 20
4.684772513484361
 30
0
 11
6.79448016990291
 21
4.678772513484361
 31
0
  0
LINE
  8
0
 62
7
 10
6.79448016990291
 20
4.678772513484361
 30
0
 11
6.786380169902912
 21
4.67277251348436
 31
0
  0
LINE
  8
0
 62
7
 10
6.786380169902912
 20
4.67277251348436
 30
0
 11
6.775580169902911
 21
4.66977251348436
 31
0
  0
LINE
  8
0
 62
7
 10
6.775580169902911
 20
4.66977251348436
 30
0
 11
6.76748016990291
 21
4.66977251348436
 31
0
  0
LINE
  8
0
 62
7
 10
6.76748016990291
 20
4.66977251348436
 30
0
 11
6.799880169902912
 21
4.609772513484361
 31
0
  0
LINE
  8
0
 62
7
 10
6.76748016990291
 20
4.66977251348436
 30
0
 11
6.724280169902912
 21
4.66977251348436
 31
0
  0
LINE
  8
0
 62
7
 10
6.897080169902911
 20
4.72977251348436
 30
0
 11
6.821480169902912
 21
4.72977251348436
 31
0
  0
LINE
  8
0
 62
7
 10
6.821480169902912
 20
4.72977251348436
 30
0
 11
6.821480169902912
 21
4.66977251348436
 31
0
  0
LINE
  8
0
 62
7
 10
6.821480169902912
 20
4.609772513484361
 30
0
 11
6.897080169902911
 21
4.609772513484361
 31
0
  0
LINE
  8
0
 62
7
 10
6.886280169902912
 20
4.66977251348436
 30
0
 11
6.821480169902912
 21
4.66977251348436
 31
0
  0
LINE
  8
0
 62
7
 10
6.821480169902912
 20
4.66977251348436
 30
0
 11
6.821480169902912
 21
4.609772513484361
 31
0
  0
LINE
  8
0
 62
7
 10
6.929480169902911
 20
4.609772513484361
 30
0
 11
6.929480169902911
 21
4.66977251348436
 31
0
  0
LINE
  8
0
 62
7
 10
6.929480169902911
 20
4.72977251348436
 30
0
 11
6.980780169902912
 21
4.72977251348436
 31
0
  0
LINE
  8
0
 62
7
 10
6.980780169902912
 20
4.72977251348436
 30
0
 11
6.99158016990291
 21
4.72677251348436
 31
0
  0
LINE
  8
0
 62
7
 10
6.99158016990291
 20
4.72677251348436
 30
0
 11
6.999680169902911
 21
4.720772513484362
 31
0
  0
LINE
  8
0
 62
7
 10
6.999680169902911
 20
4.720772513484362
 30
0
 11
7.002380169902911
 21
4.714772513484361
 31
0
  0
LINE
  8
0
 62
7
 10
7.002380169902911
 20
4.714772513484361
 30
0
 11
7.005080169902913
 21
4.705772513484361
 31
0
  0
LINE
  8
0
 62
7
 10
7.005080169902913
 20
4.705772513484361
 30
0
 11
7.005080169902913
 21
4.693772513484361
 31
0
  0
LINE
  8
0
 62
7
 10
7.005080169902913
 20
4.693772513484361
 30
0
 11
7.002380169902911
 21
4.684772513484361
 31
0
  0
LINE
  8
0
 62
7
 10
7.002380169902911
 20
4.684772513484361
 30
0
 11
6.999680169902911
 21
4.678772513484361
 31
0
  0
LINE
  8
0
 62
7
 10
6.999680169902911
 20
4.678772513484361
 30
0
 11
6.99158016990291
 21
4.67277251348436
 31
0
  0
LINE
  8
0
 62
7
 10
6.99158016990291
 20
4.67277251348436
 30
0
 11
6.980780169902912
 21
4.66977251348436
 31
0
  0
LINE
  8
0
 62
7
 10
6.980780169902912
 20
4.66977251348436
 30
0
 11
6.929480169902911
 21
4.66977251348436
 31
0
  0
LINE
  8
0
 62
7
 10
6.929480169902911
 20
4.66977251348436
 30
0
 11
6.929480169902911
 21
4.72977251348436
 31
0
  0
LINE
  8
0
 62
7
 10
7.026680169902912
 20
4.609772513484361
 30
0
 11
7.026680169902912
 21
4.66977251348436
 31
0
  0
LINE
  8
0
 62
7
 10
7.026680169902912
 20
4.72977251348436
 30
0
 11
7.077980169902912
 21
4.72977251348436
 31
0
  0
LINE
  8
0
 62
7
 10
7.077980169902912
 20
4.72977251348436
 30
0
 11
7.088780169902911
 21
4.72677251348436
 31
0
  0
LINE
  8
0
 62
7
 10
7.088780169902911
 20
4.72677251348436
 30
0
 11
7.096880169902912
 21
4.720772513484362
 31
0
  0
LINE
  8
0
 62
7
 10
7.096880169902912
 20
4.720772513484362
 30
0
 11
7.099580169902912
 21
4.714772513484361
 31
0
  0
LINE
  8
0
 62
7
 10
7.099580169902912
 20
4.714772513484361
 30
0
 11
7.102280169902912
 21
4.705772513484361
 31
0
  0
LINE
  8
0
 62
7
 10
7.102280169902912
 20
4.705772513484361
 30
0
 11
7.102280169902912
 21
4.693772513484361
 31
0
  0
LINE
  8
0
 62
7
 10
7.102280169902912
 20
4.693772513484361
 30
0
 11
7.099580169902912
 21
4.684772513484361
 31
0
  0
LINE
  8
0
 62
7
 10
7.099580169902912
 20
4.684772513484361
 30
0
 11
7.096880169902912
 21
4.678772513484361
 31
0
  0
LINE
  8
0
 62
7
 10
7.096880169902912
 20
4.678772513484361
 30
0
 11
7.088780169902911
 21
4.67277251348436
 31
0
  0
LINE
  8
0
 62
7
 10
7.088780169902911
 20
4.67277251348436
 30
0
 11
7.077980169902912
 21
4.66977251348436
 31
0
  0
LINE
  8
0
 62
7
 10
7.077980169902912
 20
4.66977251348436
 30
0
 11
7.026680169902912
 21
4.66977251348436
 31
0
  0
LINE
  8
0
 62
7
 10
7.026680169902912
 20
4.66977251348436
 30
0
 11
7.026680169902912
 21
4.72977251348436
 31
0
  0
LINE
  8
0
 62
7
 10
7.199480169902913
 20
4.72977251348436
 30
0
 11
7.123880169902913
 21
4.72977251348436
 31
0
  0
LINE
  8
0
 62
7
 10
7.123880169902913
 20
4.72977251348436
 30
0
 11
7.123880169902913
 21
4.66977251348436
 31
0
  0
LINE
  8
0
 62
7
 10
7.123880169902913
 20
4.609772513484361
 30
0
 11
7.199480169902913
 21
4.609772513484361
 31
0
  0
LINE
  8
0
 62
7
 10
7.188680169902911
 20
4.66977251348436
 30
0
 11
7.123880169902913
 21
4.66977251348436
 31
0
  0
LINE
  8
0
 62
7
 10
7.123880169902913
 20
4.66977251348436
 30
0
 11
7.123880169902913
 21
4.609772513484361
 31
0
  0
LINE
  8
0
 62
7
 10
4.374999999999995
 20
2.890000000000002
 30
0
 11
4.374999999999995
 21
3.010000000000002
 31
0
  0
LINE
  8
0
 62
7
 10
4.450599999999996
 20
3.010000000000002
 30
0
 11
4.396599999999997
 21
2.950000000000003
 31
0
  0
LINE
  8
0
 62
7
 10
4.396599999999997
 20
2.950000000000003
 30
0
 11
4.450599999999996
 21
2.890000000000002
 31
0
  0
LINE
  8
0
 62
7
 10
4.396599999999997
 20
2.950000000000003
 30
0
 11
4.374999999999995
 21
2.926000000000004
 31
0
  0
LINE
  8
0
 62
7
 10
4.482999999999996
 20
3.010000000000002
 30
0
 11
4.482999999999996
 21
2.950000000000003
 31
0
  0
LINE
  8
0
 62
7
 10
4.482999999999996
 20
2.950000000000003
 30
0
 11
4.558599999999996
 21
2.950000000000003
 31
0
  0
LINE
  8
0
 62
7
 10
4.558599999999996
 20
3.010000000000002
 30
0
 11
4.558599999999996
 21
2.950000000000003
 31
0
  0
LINE
  8
0
 62
7
 10
4.558599999999996
 20
2.950000000000003
 30
0
 11
4.558599999999996
 21
2.890000000000002
 31
0
  0
LINE
  8
0
 62
7
 10
4.482999999999996
 20
2.950000000000003
 30
0
 11
4.482999999999996
 21
2.890000000000002
 31
0
  0
LINE
  8
0
 62
7
 10
4.590999999999997
 20
3.010000000000002
 30
0
 11
4.620699999999995
 21
2.890000000000002
 31
0
  0
LINE
  8
0
 62
7
 10
4.620699999999995
 20
2.890000000000002
 30
0
 11
4.644999999999995
 21
3.010000000000002
 31
0
  0
LINE
  8
0
 62
7
 10
4.644999999999995
 20
3.010000000000002
 30
0
 11
4.669299999999995
 21
2.890000000000002
 31
0
  0
LINE
  8
0
 62
7
 10
4.669299999999995
 20
2.890000000000002
 30
0
 11
4.698999999999995
 21
3.010000000000002
 31
0
  0
LINE
  8
0
 62
7
 10
4.720599999999997
 20
2.992000000000003
 30
0
 11
4.725999999999996
 21
3.001000000000003
 31
0
  0
LINE
  8
0
 62
7
 10
4.725999999999996
 20
3.001000000000003
 30
0
 11
4.734099999999997
 21
3.007000000000002
 31
0
  0
LINE
  8
0
 62
7
 10
4.734099999999997
 20
3.007000000000002
 30
0
 11
4.744899999999997
 21
3.010000000000002
 31
0
  0
LINE
  8
0
 62
7
 10
4.744899999999997
 20
3.010000000000002
 30
0
 11
4.761099999999996
 21
3.010000000000002
 31
0
  0
LINE
  8
0
 62
7
 10
4.761099999999996
 20
3.010000000000002
 30
0
 11
4.771899999999996
 21
3.007000000000002
 31
0
  0
LINE
  8
0
 62
7
 10
4.771899999999996
 20
3.007000000000002
 30
0
 11
4.779999999999995
 21
3.001000000000003
 31
0
  0
LINE
  8
0
 62
7
 10
4.779999999999995
 20
3.001000000000003
 30
0
 11
4.785399999999997
 21
2.992000000000003
 31
0
  0
LINE
  8
0
 62
7
 10
4.785399999999997
 20
2.992000000000003
 30
0
 11
4.785399999999997
 21
2.980000000000002
 31
0
  0
LINE
  8
0
 62
7
 10
4.785399999999997
 20
2.980000000000002
 30
0
 11
4.779999999999995
 21
2.968000000000002
 31
0
  0
LINE
  8
0
 62
7
 10
4.779999999999995
 20
2.968000000000002
 30
0
 11
4.720599999999997
 21
2.890000000000002
 31
0
  0
LINE
  8
0
 62
7
 10
4.720599999999997
 20
2.890000000000002
 30
0
 11
4.785399999999997
 21
2.890000000000002
 31
0
  0
LINE
  8
0
 62
7
 10
4.817799999999996
 20
2.974000000000004
 30
0
 11
4.850199999999996
 21
3.010000000000002
 31
0
  0
LINE
  8
0
 62
7
 10
4.850199999999996
 20
3.010000000000002
 30
0
 11
4.850199999999996
 21
2.890000000000002
 31
0
  0
LINE
  8
0
 62
7
 10
4.882599999999996
 20
2.992000000000003
 30
0
 11
4.887999999999997
 21
3.001000000000003
 31
0
  0
LINE
  8
0
 62
7
 10
4.887999999999997
 20
3.001000000000003
 30
0
 11
4.896099999999996
 21
3.007000000000002
 31
0
  0
LINE
  8
0
 62
7
 10
4.896099999999996
 20
3.007000000000002
 30
0
 11
4.906899999999997
 21
3.010000000000002
 31
0
  0
LINE
  8
0
 62
7
 10
4.906899999999997
 20
3.010000000000002
 30
0
 11
4.923099999999996
 21
3.010000000000002
 31
0
  0
LINE
  8
0
 62
7
 10
4.923099999999996
 20
3.010000000000002
 30
0
 11
4.931199999999997
 21
3.007000000000002
 31
0
  0
LINE
  8
0
 62
7
 10
4.931199999999997
 20
3.007000000000002
 30
0
 11
4.939299999999996
 21
3.001000000000003
 31
0
  0
LINE
  8
0
 62
7
 10
4.939299999999996
 20
3.001000000000003
 30
0
 11
4.944699999999996
 21
2.992000000000003
 31
0
  0
LINE
  8
0
 62
7
 10
4.944699999999996
 20
2.992000000000003
 30
0
 11
4.947399999999996
 21
2.980000000000002
 31
0
  0
LINE
  8
0
 62
7
 10
4.947399999999996
 20
2.980000000000002
 30
0
 11
4.947399999999996
 21
2.971000000000004
 31
0
  0
LINE
  8
0
 62
7
 10
4.947399999999996
 20
2.971000000000004
 30
0
 11
4.944699999999996
 21
2.962000000000002
 31
0
  0
LINE
  8
0
 62
7
 10
4.944699999999996
 20
2.962000000000002
 30
0
 11
4.939299999999996
 21
2.956000000000003
 31
0
  0
LINE
  8
0
 62
7
 10
4.939299999999996
 20
2.956000000000003
 30
0
 11
4.925799999999996
 21
2.950000000000003
 31
0
  0
LINE
  8
0
 62
7
 10
4.906899999999997
 20
2.950000000000003
 30
0
 11
4.925799999999996
 21
2.950000000000003
 31
0
  0
LINE
  8
0
 62
7
 10
4.925799999999996
 20
2.950000000000003
 30
0
 11
4.939299999999996
 21
2.944000000000004
 31
0
  0
LINE
  8
0
 62
7
 10
4.939299999999996
 20
2.944000000000004
 30
0
 11
4.944699999999996
 21
2.938000000000002
 31
0
  0
LINE
  8
0
 62
7
 10
4.944699999999996
 20
2.938000000000002
 30
0
 11
4.947399999999996
 21
2.929000000000003
 31
0
  0
LINE
  8
0
 62
7
 10
4.947399999999996
 20
2.929000000000003
 30
0
 11
4.947399999999996
 21
2.920000000000003
 31
0
  0
LINE
  8
0
 62
7
 10
4.947399999999996
 20
2.920000000000003
 30
0
 11
4.944699999999996
 21
2.908000000000002
 31
0
  0
LINE
  8
0
 62
7
 10
4.944699999999996
 20
2.908000000000002
 30
0
 11
4.939299999999996
 21
2.899000000000004
 31
0
  0
LINE
  8
0
 62
7
 10
4.939299999999996
 20
2.899000000000004
 30
0
 11
4.931199999999997
 21
2.893000000000002
 31
0
  0
LINE
  8
0
 62
7
 10
4.931199999999997
 20
2.893000000000002
 30
0
 11
4.923099999999996
 21
2.890000000000002
 31
0
  0
LINE
  8
0
 62
7
 10
4.923099999999996
 20
2.890000000000002
 30
0
 11
4.906899999999997
 21
2.890000000000002
 31
0
  0
LINE
  8
0
 62
7
 10
4.906899999999997
 20
2.890000000000002
 30
0
 11
4.896099999999996
 21
2.893000000000002
 31
0
  0
LINE
  8
0
 62
7
 10
4.896099999999996
 20
2.893000000000002
 30
0
 11
4.887999999999997
 21
2.899000000000004
 31
0
  0
LINE
  8
0
 62
7
 10
4.887999999999997
 20
2.899000000000004
 30
0
 11
4.882599999999996
 21
2.908000000000002
 31
0
  0
LINE
  8
0
 62
7
 10
4.979799999999997
 20
2.890000000000002
 30
0
 11
4.979799999999997
 21
3.010000000000002
 31
0
  0
LINE
  8
0
 62
7
 10
4.979799999999997
 20
3.010000000000002
 30
0
 11
5.031099999999996
 21
3.010000000000002
 31
0
  0
LINE
  8
0
 62
7
 10
5.031099999999996
 20
3.010000000000002
 30
0
 11
5.041899999999996
 21
3.007000000000002
 31
0
  0
LINE
  8
0
 62
7
 10
5.041899999999996
 20
3.007000000000002
 30
0
 11
5.049999999999994
 21
3.001000000000003
 31
0
  0
LINE
  8
0
 62
7
 10
5.049999999999994
 20
3.001000000000003
 30
0
 11
5.052699999999995
 21
2.995000000000003
 31
0
  0
LINE
  8
0
 62
7
 10
5.052699999999995
 20
2.995000000000003
 30
0
 11
5.055399999999996
 21
2.986000000000003
 31
0
  0
LINE
  8
0
 62
7
 10
5.055399999999996
 20
2.986000000000003
 30
0
 11
5.055399999999996
 21
2.974000000000004
 31
0
  0
LINE
  8
0
 62
7
 10
5.055399999999996
 20
2.974000000000004
 30
0
 11
5.052699999999995
 21
2.965000000000003
 31
0
  0
LINE
  8
0
 62
7
 10
5.052699999999995
 20
2.965000000000003
 30
0
 11
5.049999999999994
 21
2.959000000000003
 31
0
  0
LINE
  8
0
 62
7
 10
5.049999999999994
 20
2.959000000000003
 30
0
 11
5.041899999999996
 21
2.953000000000002
 31
0
  0
LINE
  8
0
 62
7
 10
5.041899999999996
 20
2.953000000000002
 30
0
 11
5.031099999999996
 21
2.950000000000003
 31
0
  0
LINE
  8
0
 62
7
 10
5.031099999999996
 20
2.950000000000003
 30
0
 11
5.022999999999996
 21
2.950000000000003
 31
0
  0
LINE
  8
0
 62
7
 10
5.022999999999996
 20
2.950000000000003
 30
0
 11
5.055399999999996
 21
2.890000000000002
 31
0
  0
LINE
  8
0
 62
7
 10
5.022999999999996
 20
2.950000000000003
 30
0
 11
4.979799999999997
 21
2.950000000000003
 31
0
  0
LINE
  8
0
 62
7
 10
5.076999999999997
 20
2.992000000000003
 30
0
 11
5.082399999999996
 21
3.001000000000003
 31
0
  0
LINE
  8
0
 62
7
 10
5.082399999999996
 20
3.001000000000003
 30
0
 11
5.090499999999997
 21
3.007000000000002
 31
0
  0
LINE
  8
0
 62
7
 10
5.090499999999997
 20
3.007000000000002
 30
0
 11
5.101299999999996
 21
3.010000000000002
 31
0
  0
LINE
  8
0
 62
7
 10
5.101299999999996
 20
3.010000000000002
 30
0
 11
5.117499999999995
 21
3.010000000000002
 31
0
  0
LINE
  8
0
 62
7
 10
5.117499999999995
 20
3.010000000000002
 30
0
 11
5.125599999999996
 21
3.007000000000002
 31
0
  0
LINE
  8
0
 62
7
 10
5.125599999999996
 20
3.007000000000002
 30
0
 11
5.133699999999996
 21
3.001000000000003
 31
0
  0
LINE
  8
0
 62
7
 10
5.133699999999996
 20
3.001000000000003
 30
0
 11
5.139099999999997
 21
2.992000000000003
 31
0
  0
LINE
  8
0
 62
7
 10
5.139099999999997
 20
2.992000000000003
 30
0
 11
5.141799999999996
 21
2.980000000000002
 31
0
  0
LINE
  8
0
 62
7
 10
5.141799999999996
 20
2.980000000000002
 30
0
 11
5.141799999999996
 21
2.971000000000004
 31
0
  0
LINE
  8
0
 62
7
 10
5.141799999999996
 20
2.971000000000004
 30
0
 11
5.139099999999997
 21
2.962000000000002
 31
0
  0
LINE
  8
0
 62
7
 10
5.139099999999997
 20
2.962000000000002
 30
0
 11
5.133699999999996
 21
2.956000000000003
 31
0
  0
LINE
  8
0
 62
7
 10
5.133699999999996
 20
2.956000000000003
 30
0
 11
5.120199999999996
 21
2.950000000000003
 31
0
  0
LINE
  8
0
 62
7
 10
5.101299999999996
 20
2.950000000000003
 30
0
 11
5.120199999999996
 21
2.950000000000003
 31
0
  0
LINE
  8
0
 62
7
 10
5.120199999999996
 20
2.950000000000003
 30
0
 11
5.133699999999996
 21
2.944000000000004
 31
0
  0
LINE
  8
0
 62
7
 10
5.133699999999996
 20
2.944000000000004
 30
0
 11
5.139099999999997
 21
2.938000000000002
 31
0
  0
LINE
  8
0
 62
7
 10
5.139099999999997
 20
2.938000000000002
 30
0
 11
5.141799999999996
 21
2.929000000000003
 31
0
  0
LINE
  8
0
 62
7
 10
5.141799999999996
 20
2.929000000000003
 30
0
 11
5.141799999999996
 21
2.920000000000003
 31
0
  0
LINE
  8
0
 62
7
 10
5.141799999999996
 20
2.920000000000003
 30
0
 11
5.139099999999997
 21
2.908000000000002
 31
0
  0
LINE
  8
0
 62
7
 10
5.139099999999997
 20
2.908000000000002
 30
0
 11
5.133699999999996
 21
2.899000000000004
 31
0
  0
LINE
  8
0
 62
7
 10
5.133699999999996
 20
2.899000000000004
 30
0
 11
5.125599999999996
 21
2.893000000000002
 31
0
  0
LINE
  8
0
 62
7
 10
5.125599999999996
 20
2.893000000000002
 30
0
 11
5.117499999999995
 21
2.890000000000002
 31
0
  0
LINE
  8
0
 62
7
 10
5.117499999999995
 20
2.890000000000002
 30
0
 11
5.101299999999996
 21
2.890000000000002
 31
0
  0
LINE
  8
0
 62
7
 10
5.101299999999996
 20
2.890000000000002
 30
0
 11
5.090499999999997
 21
2.893000000000002
 31
0
  0
LINE
  8
0
 62
7
 10
5.090499999999997
 20
2.893000000000002
 30
0
 11
5.082399999999996
 21
2.899000000000004
 31
0
  0
LINE
  8
0
 62
7
 10
5.082399999999996
 20
2.899000000000004
 30
0
 11
5.076999999999997
 21
2.908000000000002
 31
0
  0
LINE
  8
0
 62
7
 10
6.874999999999996
 20
2.890000000000002
 30
0
 11
6.874999999999996
 21
2.990000000000002
 31
0
  0
LINE
  8
0
 62
7
 10
6.874999999999996
 20
2.990000000000002
 30
0
 11
6.937999999999997
 21
2.890000000000002
 31
0
  0
LINE
  8
0
 62
7
 10
6.937999999999997
 20
2.890000000000002
 30
0
 11
6.937999999999997
 21
2.990000000000002
 31
0
  0
LINE
  8
0
 62
7
 10
7.018999999999997
 20
2.890000000000002
 30
0
 11
6.964999999999996
 21
2.890000000000002
 31
0
  0
LINE
  8
0
 62
7
 10
6.964999999999996
 20
2.890000000000002
 30
0
 11
6.964999999999996
 21
2.990000000000002
 31
0
  0
LINE
  8
0
 62
7
 10
7.045999999999996
 20
2.940000000000003
 30
0
 11
7.081999999999997
 21
2.940000000000003
 31
0
  0
LINE
  8
0
 62
7
 10
7.081999999999997
 20
2.940000000000003
 30
0
 11
7.086499999999997
 21
2.940000000000003
 31
0
  0
LINE
  8
0
 62
7
 10
7.086499999999997
 20
2.940000000000003
 30
0
 11
7.095499999999998
 21
2.935000000000002
 31
0
  0
LINE
  8
0
 62
7
 10
7.095499999999998
 20
2.935000000000002
 30
0
 11
7.099999999999996
 21
2.930000000000002
 31
0
  0
LINE
  8
0
 62
7
 10
7.099999999999996
 20
2.930000000000002
 30
0
 11
7.104499999999996
 21
2.920000000000003
 31
0
  0
LINE
  8
0
 62
7
 10
7.104499999999996
 20
2.920000000000003
 30
0
 11
7.104499999999996
 21
2.910000000000002
 31
0
  0
LINE
  8
0
 62
7
 10
7.104499999999996
 20
2.910000000000002
 30
0
 11
7.099999999999996
 21
2.900000000000003
 31
0
  0
LINE
  8
0
 62
7
 10
7.099999999999996
 20
2.900000000000003
 30
0
 11
7.095499999999998
 21
2.895000000000003
 31
0
  0
LINE
  8
0
 62
7
 10
7.095499999999998
 20
2.895000000000003
 30
0
 11
7.086499999999997
 21
2.890000000000002
 31
0
  0
LINE
  8
0
 62
7
 10
7.086499999999997
 20
2.890000000000002
 30
0
 11
7.045999999999996
 21
2.890000000000002
 31
0
  0
LINE
  8
0
 62
7
 10
7.045999999999996
 20
2.890000000000002
 30
0
 11
7.045999999999996
 21
2.940000000000003
 31
0
  0
LINE
  8
0
 62
7
 10
7.045999999999996
 20
2.990000000000002
 30
0
 11
7.079749999999996
 21
2.990000000000002
 31
0
  0
LINE
  8
0
 62
7
 10
7.079749999999996
 20
2.990000000000002
 30
0
 11
7.090999999999996
 21
2.987500000000002
 31
0
  0
LINE
  8
0
 62
7
 10
7.090999999999996
 20
2.987500000000002
 30
0
 11
7.097749999999997
 21
2.980000000000002
 31
0
  0
LINE
  8
0
 62
7
 10
7.097749999999997
 20
2.980000000000002
 30
0
 11
7.099999999999996
 21
2.970000000000002
 31
0
  0
LINE
  8
0
 62
7
 10
7.099999999999996
 20
2.970000000000002
 30
0
 11
7.099999999999996
 21
2.960000000000003
 31
0
  0
LINE
  8
0
 62
7
 10
7.099999999999996
 20
2.960000000000003
 30
0
 11
7.095499999999998
 21
2.950000000000003
 31
0
  0
LINE
  8
0
 62
7
 10
7.095499999999998
 20
2.950000000000003
 30
0
 11
7.088749999999997
 21
2.942500000000003
 31
0
  0
LINE
  8
0
 62
7
 10
7.088749999999997
 20
2.942500000000003
 30
0
 11
7.081999999999997
 21
2.940000000000003
 31
0
  0
LINE
  8
0
 62
7
 10
7.045999999999996
 20
2.940000000000003
 30
0
 11
7.045999999999996
 21
2.990000000000002
 31
0
  0
LINE
  8
0
 62
7
 10
7.246249999999996
 20
2.942500000000003
 30
0
 11
7.239499999999997
 21
2.952500000000002
 31
0
  0
LINE
  8
0
 62
7
 10
7.239499999999997
 20
2.952500000000002
 30
0
 11
7.232749999999998
 21
2.957500000000003
 31
0
  0
LINE
  8
0
 62
7
 10
7.232749999999998
 20
2.957500000000003
 30
0
 11
7.225999999999996
 21
2.960000000000003
 31
0
  0
LINE
  8
0
 62
7
 10
7.225999999999996
 20
2.960000000000003
 30
0
 11
7.216999999999996
 21
2.960000000000003
 31
0
  0
LINE
  8
0
 62
7
 10
7.216999999999996
 20
2.960000000000003
 30
0
 11
7.210249999999997
 21
2.957500000000003
 31
0
  0
LINE
  8
0
 62
7
 10
7.210249999999997
 20
2.957500000000003
 30
0
 11
7.203499999999996
 21
2.952500000000002
 31
0
  0
LINE
  8
0
 62
7
 10
7.203499999999996
 20
2.952500000000002
 30
0
 11
7.196749999999996
 21
2.942500000000003
 31
0
  0
LINE
  8
0
 62
7
 10
7.196749999999996
 20
2.942500000000003
 30
0
 11
7.194499999999997
 21
2.935000000000002
 31
0
  0
LINE
  8
0
 62
7
 10
7.194499999999997
 20
2.935000000000002
 30
0
 11
7.194499999999997
 21
2.915000000000003
 31
0
  0
LINE
  8
0
 62
7
 10
7.194499999999997
 20
2.915000000000003
 30
0
 11
7.196749999999996
 21
2.907500000000002
 31
0
  0
LINE
  8
0
 62
7
 10
7.196749999999996
 20
2.907500000000002
 30
0
 11
7.203499999999996
 21
2.897500000000003
 31
0
  0
LINE
  8
0
 62
7
 10
7.203499999999996
 20
2.897500000000003
 30
0
 11
7.210249999999997
 21
2.892500000000002
 31
0
  0
LINE
  8
0
 62
7
 10
7.210249999999997
 20
2.892500000000002
 30
0
 11
7.216999999999996
 21
2.890000000000002
 31
0
  0
LINE
  8
0
 62
7
 10
7.216999999999996
 20
2.890000000000002
 30
0
 11
7.225999999999996
 21
2.890000000000002
 31
0
  0
LINE
  8
0
 62
7
 10
7.225999999999996
 20
2.890000000000002
 30
0
 11
7.232749999999998
 21
2.892500000000002
 31
0
  0
LINE
  8
0
 62
7
 10
7.232749999999998
 20
2.892500000000002
 30
0
 11
7.239499999999997
 21
2.897500000000003
 31
0
  0
LINE
  8
0
 62
7
 10
7.239499999999997
 20
2.897500000000003
 30
0
 11
7.246249999999996
 21
2.907500000000002
 31
0
  0
LINE
  8
0
 62
7
 10
7.318249999999996
 20
2.935000000000002
 30
0
 11
7.315999999999995
 21
2.942500000000003
 31
0
  0
LINE
  8
0
 62
7
 10
7.315999999999995
 20
2.942500000000003
 30
0
 11
7.309249999999996
 21
2.952500000000002
 31
0
  0
LINE
  8
0
 62
7
 10
7.309249999999996
 20
2.952500000000002
 30
0
 11
7.302499999999997
 21
2.957500000000003
 31
0
  0
LINE
  8
0
 62
7
 10
7.302499999999997
 20
2.957500000000003
 30
0
 11
7.295749999999997
 21
2.960000000000003
 31
0
  0
LINE
  8
0
 62
7
 10
7.295749999999997
 20
2.960000000000003
 30
0
 11
7.286749999999997
 21
2.960000000000003
 31
0
  0
LINE
  8
0
 62
7
 10
7.286749999999997
 20
2.960000000000003
 30
0
 11
7.279999999999996
 21
2.957500000000003
 31
0
  0
LINE
  8
0
 62
7
 10
7.279999999999996
 20
2.957500000000003
 30
0
 11
7.273249999999996
 21
2.952500000000002
 31
0
  0
LINE
  8
0
 62
7
 10
7.273249999999996
 20
2.952500000000002
 30
0
 11
7.266499999999997
 21
2.942500000000003
 31
0
  0
LINE
  8
0
 62
7
 10
7.266499999999997
 20
2.942500000000003
 30
0
 11
7.264249999999997
 21
2.935000000000002
 31
0
  0
LINE
  8
0
 62
7
 10
7.264249999999997
 20
2.935000000000002
 30
0
 11
7.264249999999997
 21
2.915000000000003
 31
0
  0
LINE
  8
0
 62
7
 10
7.264249999999997
 20
2.915000000000003
 30
0
 11
7.266499999999997
 21
2.907500000000002
 31
0
  0
LINE
  8
0
 62
7
 10
7.266499999999997
 20
2.907500000000002
 30
0
 11
7.273249999999996
 21
2.897500000000003
 31
0
  0
LINE
  8
0
 62
7
 10
7.273249999999996
 20
2.897500000000003
 30
0
 11
7.279999999999996
 21
2.892500000000002
 31
0
  0
LINE
  8
0
 62
7
 10
7.279999999999996
 20
2.892500000000002
 30
0
 11
7.286749999999997
 21
2.890000000000002
 31
0
  0
LINE
  8
0
 62
7
 10
7.286749999999997
 20
2.890000000000002
 30
0
 11
7.295749999999997
 21
2.890000000000002
 31
0
  0
LINE
  8
0
 62
7
 10
7.295749999999997
 20
2.890000000000002
 30
0
 11
7.302499999999997
 21
2.892500000000002
 31
0
  0
LINE
  8
0
 62
7
 10
7.302499999999997
 20
2.892500000000002
 30
0
 11
7.309249999999996
 21
2.897500000000003
 31
0
  0
LINE
  8
0
 62
7
 10
7.309249999999996
 20
2.897500000000003
 30
0
 11
7.315999999999995
 21
2.907500000000002
 31
0
  0
LINE
  8
0
 62
7
 10
7.315999999999995
 20
2.907500000000002
 30
0
 11
7.318249999999996
 21
2.915000000000003
 31
0
  0
LINE
  8
0
 62
7
 10
7.318249999999996
 20
2.960000000000003
 30
0
 11
7.318249999999996
 21
2.935000000000002
 31
0
  0
LINE
  8
0
 62
7
 10
7.318249999999996
 20
2.892500000000002
 30
0
 11
7.320499999999997
 21
2.890000000000002
 31
0
  0
LINE
  8
0
 62
7
 10
7.320499999999997
 20
2.890000000000002
 30
0
 11
7.322749999999997
 21
2.890000000000002
 31
0
  0
LINE
  8
0
 62
7
 10
7.318249999999996
 20
2.915000000000003
 30
0
 11
7.318249999999996
 21
2.892500000000002
 31
0
  0
LINE
  8
0
 62
7
 10
7.318249999999996
 20
2.935000000000002
 30
0
 11
7.318249999999996
 21
2.915000000000003
 31
0
  0
LINE
  8
0
 62
7
 10
7.340749999999997
 20
2.890000000000002
 30
0
 11
7.340749999999997
 21
2.892500000000002
 31
0
  0
LINE
  8
0
 62
7
 10
7.340749999999997
 20
2.892500000000002
 30
0
 11
7.342999999999996
 21
2.892500000000002
 31
0
  0
LINE
  8
0
 62
7
 10
7.342999999999996
 20
2.892500000000002
 30
0
 11
7.342999999999996
 21
2.890000000000002
 31
0
  0
LINE
  8
0
 62
7
 10
7.342999999999996
 20
2.890000000000002
 30
0
 11
7.340749999999997
 21
2.890000000000002
 31
0
  0
LINE
  8
0
 62
7
 10
7.466749999999997
 20
2.990000000000002
 30
0
 11
7.475749999999997
 21
2.990000000000002
 31
0
  0
LINE
  8
0
 62
7
 10
7.475749999999997
 20
2.990000000000002
 30
0
 11
7.482499999999996
 21
2.987500000000002
 31
0
  0
LINE
  8
0
 62
7
 10
7.482499999999996
 20
2.987500000000002
 30
0
 11
7.486999999999997
 21
2.982500000000003
 31
0
  0
LINE
  8
0
 62
7
 10
7.486999999999997
 20
2.982500000000003
 30
0
 11
7.491499999999997
 21
2.975000000000003
 31
0
  0
LINE
  8
0
 62
7
 10
7.491499999999997
 20
2.975000000000003
 30
0
 11
7.491499999999997
 21
2.965000000000003
 31
0
  0
LINE
  8
0
 62
7
 10
7.491499999999997
 20
2.965000000000003
 30
0
 11
7.489249999999998
 21
2.960000000000003
 31
0
  0
LINE
  8
0
 62
7
 10
7.489249999999998
 20
2.960000000000003
 30
0
 11
7.482499999999996
 21
2.952500000000002
 31
0
  0
LINE
  8
0
 62
7
 10
7.482499999999996
 20
2.952500000000002
 30
0
 11
7.475749999999997
 21
2.950000000000003
 31
0
  0
LINE
  8
0
 62
7
 10
7.475749999999997
 20
2.950000000000003
 30
0
 11
7.466749999999997
 21
2.950000000000003
 31
0
  0
LINE
  8
0
 62
7
 10
7.466749999999997
 20
2.950000000000003
 30
0
 11
7.459999999999996
 21
2.952500000000002
 31
0
  0
LINE
  8
0
 62
7
 10
7.459999999999996
 20
2.952500000000002
 30
0
 11
7.453249999999997
 21
2.960000000000003
 31
0
  0
LINE
  8
0
 62
7
 10
7.453249999999997
 20
2.960000000000003
 30
0
 11
7.450999999999997
 21
2.965000000000003
 31
0
  0
LINE
  8
0
 62
7
 10
7.450999999999997
 20
2.965000000000003
 30
0
 11
7.450999999999997
 21
2.975000000000003
 31
0
  0
LINE
  8
0
 62
7
 10
7.450999999999997
 20
2.975000000000003
 30
0
 11
7.455499999999997
 21
2.982500000000003
 31
0
  0
LINE
  8
0
 62
7
 10
7.455499999999997
 20
2.982500000000003
 30
0
 11
7.459999999999996
 21
2.987500000000002
 31
0
  0
LINE
  8
0
 62
7
 10
7.459999999999996
 20
2.987500000000002
 30
0
 11
7.466749999999997
 21
2.990000000000002
 31
0
  0
LINE
  8
0
 62
7
 10
7.466749999999997
 20
2.950000000000003
 30
0
 11
7.455499999999997
 21
2.945000000000003
 31
0
  0
LINE
  8
0
 62
7
 10
7.455499999999997
 20
2.945000000000003
 30
0
 11
7.448749999999996
 21
2.937500000000003
 31
0
  0
LINE
  8
0
 62
7
 10
7.448749999999996
 20
2.937500000000003
 30
0
 11
7.444249999999997
 21
2.927500000000002
 31
0
  0
LINE
  8
0
 62
7
 10
7.444249999999997
 20
2.927500000000002
 30
0
 11
7.444249999999997
 21
2.912500000000003
 31
0
  0
LINE
  8
0
 62
7
 10
7.444249999999997
 20
2.912500000000003
 30
0
 11
7.448749999999996
 21
2.902500000000003
 31
0
  0
LINE
  8
0
 62
7
 10
7.448749999999996
 20
2.902500000000003
 30
0
 11
7.455499999999997
 21
2.895000000000003
 31
0
  0
LINE
  8
0
 62
7
 10
7.455499999999997
 20
2.895000000000003
 30
0
 11
7.464499999999997
 21
2.890000000000002
 31
0
  0
LINE
  8
0
 62
7
 10
7.464499999999997
 20
2.890000000000002
 30
0
 11
7.477999999999996
 21
2.890000000000002
 31
0
  0
LINE
  8
0
 62
7
 10
7.477999999999996
 20
2.890000000000002
 30
0
 11
7.486999999999997
 21
2.895000000000003
 31
0
  0
LINE
  8
0
 62
7
 10
7.486999999999997
 20
2.895000000000003
 30
0
 11
7.493749999999996
 21
2.902500000000003
 31
0
  0
LINE
  8
0
 62
7
 10
7.493749999999996
 20
2.902500000000003
 30
0
 11
7.498249999999996
 21
2.912500000000003
 31
0
  0
LINE
  8
0
 62
7
 10
7.498249999999996
 20
2.912500000000003
 30
0
 11
7.498249999999996
 21
2.927500000000002
 31
0
  0
LINE
  8
0
 62
7
 10
7.498249999999996
 20
2.927500000000002
 30
0
 11
7.493749999999996
 21
2.937500000000003
 31
0
  0
LINE
  8
0
 62
7
 10
7.493749999999996
 20
2.937500000000003
 30
0
 11
7.486999999999997
 21
2.945000000000003
 31
0
  0
LINE
  8
0
 62
7
 10
7.486999999999997
 20
2.945000000000003
 30
0
 11
7.475749999999997
 21
2.950000000000003
 31
0
  0
LINE
  8
0
 62
7
 10
7.583749999999997
 20
2.990000000000002
 30
0
 11
7.534249999999997
 21
2.990000000000002
 31
0
  0
LINE
  8
0
 62
7
 10
7.534249999999997
 20
2.990000000000002
 30
0
 11
7.534249999999997
 21
2.940000000000003
 31
0
  0
LINE
  8
0
 62
7
 10
7.534249999999997
 20
2.940000000000003
 30
0
 11
7.538749999999997
 21
2.947500000000002
 31
0
  0
LINE
  8
0
 62
7
 10
7.538749999999997
 20
2.947500000000002
 30
0
 11
7.545499999999997
 21
2.952500000000002
 31
0
  0
LINE
  8
0
 62
7
 10
7.545499999999997
 20
2.952500000000002
 30
0
 11
7.554499999999996
 21
2.955000000000002
 31
0
  0
LINE
  8
0
 62
7
 10
7.554499999999996
 20
2.955000000000002
 30
0
 11
7.567999999999997
 21
2.955000000000002
 31
0
  0
LINE
  8
0
 62
7
 10
7.567999999999997
 20
2.955000000000002
 30
0
 11
7.574749999999996
 21
2.952500000000002
 31
0
  0
LINE
  8
0
 62
7
 10
7.574749999999996
 20
2.952500000000002
 30
0
 11
7.581499999999997
 21
2.947500000000002
 31
0
  0
LINE
  8
0
 62
7
 10
7.581499999999997
 20
2.947500000000002
 30
0
 11
7.585999999999996
 21
2.940000000000003
 31
0
  0
LINE
  8
0
 62
7
 10
7.585999999999996
 20
2.940000000000003
 30
0
 11
7.588249999999997
 21
2.930000000000002
 31
0
  0
LINE
  8
0
 62
7
 10
7.588249999999997
 20
2.930000000000002
 30
0
 11
7.588249999999997
 21
2.915000000000003
 31
0
  0
LINE
  8
0
 62
7
 10
7.588249999999997
 20
2.915000000000003
 30
0
 11
7.585999999999996
 21
2.905000000000002
 31
0
  0
LINE
  8
0
 62
7
 10
7.585999999999996
 20
2.905000000000002
 30
0
 11
7.581499999999997
 21
2.897500000000003
 31
0
  0
LINE
  8
0
 62
7
 10
7.581499999999997
 20
2.897500000000003
 30
0
 11
7.574749999999996
 21
2.892500000000002
 31
0
  0
LINE
  8
0
 62
7
 10
7.574749999999996
 20
2.892500000000002
 30
0
 11
7.567999999999997
 21
2.890000000000002
 31
0
  0
LINE
  8
0
 62
7
 10
7.567999999999997
 20
2.890000000000002
 30
0
 11
7.554499999999996
 21
2.890000000000002
 31
0
  0
LINE
  8
0
 62
7
 10
7.554499999999996
 20
2.890000000000002
 30
0
 11
7.545499999999997
 21
2.892500000000002
 31
0
  0
LINE
  8
0
 62
7
 10
7.545499999999997
 20
2.892500000000002
 30
0
 11
7.538749999999997
 21
2.897500000000003
 31
0
  0
LINE
  8
0
 62
7
 10
7.538749999999997
 20
2.897500000000003
 30
0
 11
7.534249999999997
 21
2.905000000000002
 31
0
  0
LINE
  8
0
 62
7
 10
7.738999999999997
 20
2.942500000000003
 30
0
 11
7.732249999999997
 21
2.952500000000002
 31
0
  0
LINE
  8
0
 62
7
 10
7.732249999999997
 20
2.952500000000002
 30
0
 11
7.725499999999997
 21
2.957500000000003
 31
0
  0
LINE
  8
0
 62
7
 10
7.725499999999997
 20
2.957500000000003
 30
0
 11
7.718749999999996
 21
2.960000000000003
 31
0
  0
LINE
  8
0
 62
7
 10
7.718749999999996
 20
2.960000000000003
 30
0
 11
7.709749999999996
 21
2.960000000000003
 31
0
  0
LINE
  8
0
 62
7
 10
7.709749999999996
 20
2.960000000000003
 30
0
 11
7.702999999999996
 21
2.957500000000003
 31
0
  0
LINE
  8
0
 62
7
 10
7.702999999999996
 20
2.957500000000003
 30
0
 11
7.696249999999996
 21
2.952500000000002
 31
0
  0
LINE
  8
0
 62
7
 10
7.696249999999996
 20
2.952500000000002
 30
0
 11
7.689499999999997
 21
2.942500000000003
 31
0
  0
LINE
  8
0
 62
7
 10
7.689499999999997
 20
2.942500000000003
 30
0
 11
7.687249999999996
 21
2.935000000000002
 31
0
  0
LINE
  8
0
 62
7
 10
7.687249999999996
 20
2.935000000000002
 30
0
 11
7.687249999999996
 21
2.915000000000003
 31
0
  0
LINE
  8
0
 62
7
 10
7.687249999999996
 20
2.915000000000003
 30
0
 11
7.689499999999997
 21
2.907500000000002
 31
0
  0
LINE
  8
0
 62
7
 10
7.689499999999997
 20
2.907500000000002
 30
0
 11
7.696249999999996
 21
2.897500000000003
 31
0
  0
LINE
  8
0
 62
7
 10
7.696249999999996
 20
2.897500000000003
 30
0
 11
7.702999999999996
 21
2.892500000000002
 31
0
  0
LINE
  8
0
 62
7
 10
7.702999999999996
 20
2.892500000000002
 30
0
 11
7.709749999999996
 21
2.890000000000002
 31
0
  0
LINE
  8
0
 62
7
 10
7.709749999999996
 20
2.890000000000002
 30
0
 11
7.718749999999996
 21
2.890000000000002
 31
0
  0
LINE
  8
0
 62
7
 10
7.718749999999996
 20
2.890000000000002
 30
0
 11
7.725499999999997
 21
2.892500000000002
 31
0
  0
LINE
  8
0
 62
7
 10
7.725499999999997
 20
2.892500000000002
 30
0
 11
7.732249999999997
 21
2.897500000000003
 31
0
  0
LINE
  8
0
 62
7
 10
7.732249999999997
 20
2.897500000000003
 30
0
 11
7.738999999999997
 21
2.907500000000002
 31
0
  0
LINE
  8
0
 62
7
 10
7.797499999999996
 20
2.935000000000002
 30
0
 11
7.797499999999996
 21
2.890000000000002
 31
0
  0
LINE
  8
0
 62
7
 10
7.756999999999997
 20
2.960000000000003
 30
0
 11
7.756999999999997
 21
2.935000000000002
 31
0
  0
LINE
  8
0
 62
7
 10
7.756999999999997
 20
2.890000000000002
 30
0
 11
7.756999999999997
 21
2.935000000000002
 31
0
  0
LINE
  8
0
 62
7
 10
7.756999999999997
 20
2.935000000000002
 30
0
 11
7.759249999999996
 21
2.947500000000002
 31
0
  0
LINE
  8
0
 62
7
 10
7.759249999999996
 20
2.947500000000002
 30
0
 11
7.761499999999997
 21
2.952500000000002
 31
0
  0
LINE
  8
0
 62
7
 10
7.761499999999997
 20
2.952500000000002
 30
0
 11
7.765999999999996
 21
2.957500000000003
 31
0
  0
LINE
  8
0
 62
7
 10
7.765999999999996
 20
2.957500000000003
 30
0
 11
7.772749999999997
 21
2.960000000000003
 31
0
  0
LINE
  8
0
 62
7
 10
7.772749999999997
 20
2.960000000000003
 30
0
 11
7.781749999999997
 21
2.960000000000003
 31
0
  0
LINE
  8
0
 62
7
 10
7.781749999999997
 20
2.960000000000003
 30
0
 11
7.788499999999996
 21
2.957500000000003
 31
0
  0
LINE
  8
0
 62
7
 10
7.788499999999996
 20
2.957500000000003
 30
0
 11
7.792999999999997
 21
2.952500000000002
 31
0
  0
LINE
  8
0
 62
7
 10
7.792999999999997
 20
2.952500000000002
 30
0
 11
7.795249999999998
 21
2.947500000000002
 31
0
  0
LINE
  8
0
 62
7
 10
7.795249999999998
 20
2.947500000000002
 30
0
 11
7.797499999999996
 21
2.935000000000002
 31
0
  0
LINE
  8
0
 62
7
 10
7.797499999999996
 20
2.935000000000002
 30
0
 11
7.799749999999996
 21
2.947500000000002
 31
0
  0
LINE
  8
0
 62
7
 10
7.799749999999996
 20
2.947500000000002
 30
0
 11
7.801999999999997
 21
2.952500000000002
 31
0
  0
LINE
  8
0
 62
7
 10
7.801999999999997
 20
2.952500000000002
 30
0
 11
7.806499999999997
 21
2.957500000000003
 31
0
  0
LINE
  8
0
 62
7
 10
7.806499999999997
 20
2.957500000000003
 30
0
 11
7.813249999999996
 21
2.960000000000003
 31
0
  0
LINE
  8
0
 62
7
 10
7.813249999999996
 20
2.960000000000003
 30
0
 11
7.822249999999996
 21
2.960000000000003
 31
0
  0
LINE
  8
0
 62
7
 10
7.822249999999996
 20
2.960000000000003
 30
0
 11
7.828999999999997
 21
2.957500000000003
 31
0
  0
LINE
  8
0
 62
7
 10
7.833499999999995
 20
2.952500000000002
 30
0
 11
7.828999999999997
 21
2.957500000000003
 31
0
  0
LINE
  8
0
 62
7
 10
7.828999999999997
 20
2.957500000000003
 30
0
 11
7.833499999999995
 21
2.952500000000002
 31
0
  0
LINE
  8
0
 62
7
 10
7.833499999999995
 20
2.952500000000002
 30
0
 11
7.835749999999996
 21
2.947500000000002
 31
0
  0
LINE
  8
0
 62
7
 10
7.835749999999996
 20
2.947500000000002
 30
0
 11
7.837999999999997
 21
2.935000000000002
 31
0
  0
LINE
  8
0
 62
7
 10
7.837999999999997
 20
2.935000000000002
 30
0
 11
7.837999999999997
 21
2.890000000000002
 31
0
  0
ARC
  8
0
 62
7
 10
6.254766680842792
 20
3.935233319157203
 30
0
 40
0.5020000000000012
 50
89.97337011152025
 51
180.0266298904896
  0
ARC
  8
0
 62
7
 10
6.460233319157211
 20
3.935233319157212
 30
0
 40
0.501999999999995
 50
359.9733701115204
 51
90.02662989025407
  0
CIRCLE
  8
0
 62
7
 10
5.752766735063753
 20
3.250000000000002
 30
0
 40
0.05999999999999961
  0
DIMENSION
  8
0
  6
CONTINUOUS
 62
7
  2
*D0
  3
DMST_1
 10
8.06273714798729
 20
4.900000000000002
 30
0
 11
8.06273714798729
 21
4.16897176446374
 31
0
 12
0
 22
0
 32
0
 70
0
 13
7.599999999999996
 23
3.350000000000002
 33
0
 14
7.599999999999996
 24
4.900000000000002
 34
0
 50
90
 53
0
  0
DIMENSION
  8
0
  6
CONTINUOUS
 62
7
  2
*D1
  3
DMST_1
 10
7.424999999999995
 20
5.79441334170782
 30
0
 11
6.37572581402943
 21
5.79441334170782
 31
0
 12
0
 22
0
 32
0
 70
0
 13
5.29
 23
5.419999999999998
 33
0
 14
7.424999999999996
 24
5.419999999999998
 34
0
 53
0
  0
DIMENSION
  8
0
  6
CONTINUOUS
 62
7
  2
*D2
  3
DMST_1
 10
4.77491213947087
 20
4.900000000000002
 30
0
 11
4.77491213947087
 21
4.10740200774995
 31
0
 12
0
 22
0
 32
0
 70
0
 13
5.115
 23
3.250000000000002
 33
0
 14
5.115
 24
4.900000000000002
 34
0
 50
90
 53
0
  0
DIMENSION
  8
0
  6
CONTINUOUS
 62
7
  2
*D3
  3
DMST_2
 10
5.290000000000001
 20
11.4588309593766
 30
0
 11
6.301842105972881
 21
11.4588309593766
 31
0
 12
0
 22
0
 32
0
 70
0
 13
7.424999999999996
 23
11.2
 33
0
 14
5.29
 24
11.2
 34
0
 53
0
  0
INSERT
  8
0
  2
*D4
 10
0
 20
0
 30
0
  0
ENDSEC
  0
EOF
