  0
SECTION
  2
HEADER
  9
$ACADVER
  1
AC1009
  9
$INSBASE
 10
0
 20
0
  9
$EXTMIN
 10
0.6036555995571251
 20
2.890000000000001
  9
$EXTMAX
 10
8.249999999999998
 20
11.5283153934594
  9
$LIMMIN
 10
0.6036555995571251
 20
2.890000000000001
  9
$LIMMAX
 10
8.249999999999998
 20
11.5283153934594
  9
$VIEWCTR
 10
10
 20
10
  9
$VIEWSIZE
 40
10
  9
$SNAPMODE
 70
0
  9
$SNAPUNIT
 10
1
 20
1
  9
$SNAPBASE
 10
0
 20
0
  9
$SNAPANG
 50
0
  9
$SNAPSTYLE
 70
0
  9
$SNAPISOPAIR
 70
0
  9
$GRIDMODE
 70
0
  9
$GRIDUNIT
 10
0
 20
0
  9
$ORTHOMODE
 70
0
  9
$REGENMODE
 70
1
  9
$FILLMODE
 70
1
  9
$QTEXTMODE
 70
0
  9
$DRAGMODE
 70
2
  9
$LTSCALE
 40
1
  9
$OSMODE
 70
0
  9
$ATTMODE
 70
1
  9
$TEXTSIZE
 40
3.5
  9
$TRACEWID
 40
0.5
  9
$TEXTSTYLE
  7
STANDARD
  9
$CLAYER
  8
0
  9
$CELTYPE
  6
BYLAYER
  9
$CECOLOR
 62
256
  9
$DIMSCALE
 40
1
  9
$DIMASZ
 40
0.18
  9
$DIMEXO
 40
0.0625
  9
$DIMDLI
 40
0.38
  9
$DIMRND
 40
0
  9
$DIMDLE
 40
0
  9
$DIMEXE
 40
0.18
  9
$DIMTP
 40
0
  9
$DIMTM
 40
0
  9
$DIMTXT
 40
0.18
  9
$DIMCEN
 40
0.09
  9
$DIMTSZ
 40
0
  9
$DIMTOL
 70
0
  9
$DIMLIM
 70
0
  9
$DIMTIH
 70
1
  9
$DIMTOH
 70
1
  9
$DIMSE1
 70
0
  9
$DIMSE2
 70
0
  9
$DIMTAD
 70
0
  9
$DIMZIN
 70
0
  9
$DIMBLK
  1

  9
$DIMASO
 70
1
  9
$DIMSHO
 70
1
  9
$DIMPOST
  1

  9
$DIMAPOST
  1

  9
$DIMALT
 70
0
  9
$DIMALTD
 70
2
  9
$DIMALTF
 40
25.4
  9
$DIMLFAC
 40
1
  9
$DIMTOFL
 70
0
  9
$DIMTVP
 40
0
  9
$DIMTIX
 70
0
  9
$DIMSOXD
 70
0
  9
$DIMSAH
 70
0
  9
$DIMBLK1
  1

  9
$DIMBLK2
  1

  9
$DIMSTYLE
  2
*UNNAMED
  9
$DIMCLRD
 70
0
  9
$DIMCLRE
 70
0
  9
$DIMCLRT
 70
0
  9
$DIMTFAC
 40
1
  9
$DIMGAP
 40
0.09
  9
$LUNITS
 70
2
  9
$LUPREC
 70
4
  9
$AXISMODE
 70
0
  9
$AXISUNIT
 10
0
 20
0
  9
$SKETCHINC
 40
0.1
  9
$FILLETRAD
 40
2
  9
$AUNITS
 70
0
  9
$AUPREC
 70
0
  9
$MENU
  1
ACAD
  9
$ELEVATION
 40
0
  9
$THICKNESS
 40
0
  9
$VIEWDIR
 10
0
 20
0
 30
1
  9
$LIMCHECK
 70
0
  9
$BLIPMODE
 70
1
  9
$CHAMFERA
 40
0
  9
$CHAMFERB
 40
0
  9
$FASTZOOM
 70
1
  9
$SKPOLY
 70
0
  9
$ANGBASE
 50
0
  9
$ANGDIR
 70
0
  9
$PDMODE
 70
0
  9
$PDSIZE
 40
0
  9
$PLINEWID
 40
0
  9
$COORDS
 70
2
  0
ENDSEC
  0
SECTION
  2
TABLES
  0
TABLE
  2
DIMSTYLE
 70
2
  0
DIMSTYLE
  2
DMST_1
 70
0
  3

  4

  5

  6

  7

 40
1
 41
0.1
 42
0
 43
0.7
 44
0.2
 45
0
 46
0
 47
0
 48
0
140
0.1
141
0
142
0.1
143
25.4
144
1
145
0
146
1
147
0.25
 71
0
 72
0
 73
0
 74
0
 75
0
 76
0
 77
0
 78
9
170
0
171
2
172
0
173
0
174
0
175
0
176
7
177
7
178
7
  0
DIMSTYLE
  2
DMST_2
 70
0
  3

  4

  5

  6

  7

 40
1
 41
0.1
 42
0
 43
0.7
 44
0.2
 45
0
 46
0
 47
0
 48
0
140
0.1
141
0
142
0.1
143
25.4
144
1
145
0
146
1
147
0.2
 71
0
 72
0
 73
0
 74
0
 75
0
 76
0
 77
0
 78
9
170
0
171
2
172
0
173
0
174
0
175
0
176
7
177
7
178
7
  0
ENDTAB
  0
TABLE
  2
LTYPE
 70
9
  0
LTYPE
  2
CONTINUOUS
 70
64
  3
Solid line
 72
65
 73
0
 40
0
  0
LTYPE
  2
BORDER
 70
64
  3
__ __ . __ __ .
 72
65
 73
6
 40
0.3978171562777355
 49
0.1136620446507816
 49
-0.05683102232539078
 49
0.1136620446507816
 49
-0.05683102232539078
 49
0
 49
-0.05683102232539078
  0
LTYPE
  2
CENTER
 70
64
  3
____ _ ____ _
 72
65
 73
4
 40
0.4546481786031262
 49
0.2841551116269539
 49
-0.05683102232539078
 49
0.05683102232539078
 49
-0.05683102232539078
  0
LTYPE
  2
DASHDOT
 70
64
  3
__ . __ . __ .
 72
65
 73
4
 40
0.2273240893015631
 49
0.1136620446507816
 49
-0.05683102232539078
 49
0
 49
-0.05683102232539078
  0
LTYPE
  2
DASHED
 70
64
  3
__ __ __ __ __
 72
65
 73
2
 40
0.1704930669761723
 49
0.1136620446507816
 49
-0.05683102232539078
  0
LTYPE
  2
DIVIDE
 70
64
  3
__ . . __ . . 
 72
65
 73
6
 40
0.2841551116269539
 49
0.1136620446507816
 49
-0.05683102232539078
 49
0
 49
-0.05683102232539078
 49
0
 49
-0.05683102232539078
  0
LTYPE
  2
DOT
 70
64
  3
..............
 72
65
 73
4
 40
0.1136620446507816
 49
0
 49
-0.05683102232539078
 49
0
 49
-0.05683102232539078
  0
LTYPE
  2
HIDDEN
 70
64
  3
_ _ _ _ _ _ _
 72
65
 73
2
 40
0.08524653348808617
 49
0.05683102232539078
 49
-0.02841551116269539
  0
LTYPE
  2
PHANTOM
 70
64
  3
_____ _ _ _____ _ _ 
 72
65
 73
6
 40
0.5683102232539078
 49
0.2841551116269539
 49
-0.05683102232539078
 49
0.05683102232539078
 49
-0.05683102232539078
 49
0.05683102232539078
 49
-0.05683102232539078
  0
ENDTAB
  0
TABLE
  2
LAYER
 70
2
  0
LAYER
  2
0
 70
0
 62
7
  6
CONTINUOUS
  0
ENDTAB
  0
TABLE
  2
STYLE
 70
4
  0
STYLE
  2
STANDARD
 70
0
 40
0
 41
1
 50
0
 71
0
 42
3.5
  3
txt
  4

  0
STYLE
  2
SIMPLEX
 70
0
 40
0
 41
1
 50
0
 71
0
 42
3.5
  3
simplex
  4

  0
STYLE
  2
COMPLEX
 70
0
 40
0
 41
1
 50
0
 71
0
 42
3.5
  3
complex
  4

  0
STYLE
  2
ITALIC
 70
0
 40
0
 41
1
 50
0
 71
0
 42
3.5
  3
italic
  4

  0
ENDTAB
  0
TABLE
  2
VIEW
 70
0
  0
ENDTAB
  0
ENDSEC
  0
SECTION
  2
BLOCKS
  0
BLOCK
  8
0
  2
*X0
 70
1
 10
0
 20
0
 30
0
  0
LINE
  8
0
 62
7
  6
DASHED
 10
7.959999999999996
 20
8.278198051533941
 30
0
 11
7.98180194846605
 21
8.299999999999997
 31
0
  0
LINE
  8
0
 62
7
  6
DASHED
 10
7.993933982822015
 20
8.099999999999996
 30
0
 11
8.193933982822013
 21
8.299999999999997
 31
0
  0
LINE
  8
0
 62
7
 10
7.959999999999996
 20
8.172132034355959
 30
0
 11
8.087867965644035
 21
8.299999999999997
 31
0
  0
LINE
  8
0
 62
7
 10
8.099999999999998
 20
8.099999999999996
 30
0
 11
8.199999999999998
 21
8.199999999999996
 31
0
  0
ENDBLK
  8
0
  0
BLOCK
  8
0
  2
*X1
 70
1
 10
0
 20
0
 30
0
  0
LINE
  8
0
 62
7
  6
DASHED
 10
7.959999999999997
 20
11.03591449816148
 30
0
 11
7.974085501838523
 21
11.05
 31
0
  0
LINE
  8
0
 62
7
  6
DASHED
 10
7.986217536194484
 20
10.85
 30
0
 11
8.186217536194487
 21
11.05
 31
0
  0
LINE
  8
0
 62
7
  6
DASHED
 10
8.198349570550448
 20
10.85
 30
0
 11
8.199999999999996
 21
10.85165042944955
 31
0
  0
LINE
  8
0
 62
7
 10
7.959999999999996
 20
10.92984848098349
 30
0
 11
8.080151519016503
 21
11.05
 31
0
  0
LINE
  8
0
 62
7
 10
8.092283553372466
 20
10.85
 30
0
 11
8.199999999999996
 21
10.95771644662753
 31
0
  0
ENDBLK
  8
0
  0
BLOCK
  8
0
  2
*X2
 70
1
 10
0
 20
0
 30
0
  0
LINE
  8
0
 62
7
  6
DASHED
 10
6.159999999999997
 20
10.93297077300919
 30
0
 11
6.277029226990805
 21
11.05
 31
0
  0
LINE
  8
0
 62
7
  6
DASHED
 10
6.28916126134677
 20
10.85
 30
0
 11
6.459999999999996
 21
11.02083873865323
 31
0
  0
LINE
  8
0
 62
7
 10
6.159999999999997
 20
11.03903679018717
 30
0
 11
6.170963209812826
 21
11.05
 31
0
  0
LINE
  8
0
 62
7
 10
6.18309524416879
 20
10.85
 30
0
 11
6.38309524416879
 21
11.05
 31
0
  0
LINE
  8
0
 62
7
 10
6.395227278524754
 20
10.85
 30
0
 11
6.459999999999997
 21
10.91477272147524
 31
0
  0
ENDBLK
  8
0
  0
BLOCK
  8
0
  2
*X3
 70
1
 10
0
 20
0
 30
0
  0
LINE
  8
0
 62
7
  6
DASHED
 10
6.159999999999997
 20
8.175254326381655
 30
0
 11
6.284745673618337
 21
8.299999999999997
 31
0
  0
LINE
  8
0
 62
7
  6
DASHED
 10
6.296877707974302
 20
8.099999999999998
 30
0
 11
6.459999999999996
 21
8.263122292025692
 31
0
  0
LINE
  8
0
 62
7
 10
6.159999999999996
 20
8.281320343559637
 30
0
 11
6.178679656440356
 21
8.299999999999997
 31
0
  0
LINE
  8
0
 62
7
 10
6.190811690796318
 20
8.099999999999994
 30
0
 11
6.39081169079632
 21
8.299999999999997
 31
0
  0
LINE
  8
0
 62
7
 10
6.402943725152282
 20
8.099999999999994
 30
0
 11
6.459999999999997
 21
8.15705627484771
 31
0
  0
ENDBLK
  8
0
  0
BLOCK
  8
0
  2
*X4
 70
1
 10
0
 20
0
 30
0
  0
LINE
  8
0
 62
7
 10
7.974085501838523
 20
11.05
 30
0
 11
8.12408550183852
 21
11.2
 31
0
  0
LINE
  8
0
 62
7
 10
8.186217536194487
 20
11.05
 30
0
 11
8.199999999999998
 21
11.06378246380551
 31
0
  0
LINE
  8
0
 62
7
 10
7.959999999999996
 20
11.14198051533946
 30
0
 11
8.018019484660536
 21
11.2
 31
0
  0
LINE
  8
0
 62
7
 10
8.080151519016503
 20
11.05
 30
0
 11
8.199999999999996
 21
11.16984848098349
 31
0
  0
ENDBLK
  8
0
  0
BLOCK
  8
0
  2
*X5
 70
1
 10
0
 20
0
 30
0
  0
LINE
  8
0
 62
7
 10
7.959999999999996
 20
10.82378246380551
 30
0
 11
7.986217536194484
 21
10.85
 31
0
  0
LINE
  8
0
 62
7
 10
7.959999999999996
 20
10.61165042944954
 30
0
 11
8.198349570550448
 21
10.85
 31
0
  0
LINE
  8
0
 62
7
 10
7.959999999999996
 20
10.39951839509358
 30
0
 11
8.199999999999998
 21
10.63951839509358
 31
0
  0
LINE
  8
0
 62
7
 10
7.959999999999996
 20
10.18738636073762
 30
0
 11
8.199999999999998
 21
10.42738636073762
 31
0
  0
LINE
  8
0
 62
7
 10
7.959999999999996
 20
9.975254326381652
 30
0
 11
8.199999999999998
 21
10.21525432638166
 31
0
  0
LINE
  8
0
 62
7
 10
7.959999999999996
 20
9.763122292025688
 30
0
 11
8.199999999999998
 21
10.00312229202569
 31
0
  0
LINE
  8
0
 62
7
 10
7.959999999999996
 20
9.550990257669724
 30
0
 11
8.199999999999998
 21
9.790990257669728
 31
0
  0
LINE
  8
0
 62
7
 10
7.959999999999996
 20
9.33885822331376
 30
0
 11
8.199999999999998
 21
9.578858223313764
 31
0
  0
LINE
  8
0
 62
7
 10
7.959999999999996
 20
9.126726188957797
 30
0
 11
8.199999999999998
 21
9.3667261889578
 31
0
  0
LINE
  8
0
 62
7
 10
7.959999999999996
 20
8.914594154601833
 30
0
 11
8.199999999999998
 21
9.154594154601837
 31
0
  0
LINE
  8
0
 62
7
 10
7.959999999999996
 20
8.702462120245869
 30
0
 11
8.199999999999998
 21
8.942462120245873
 31
0
  0
LINE
  8
0
 62
7
 10
7.959999999999996
 20
8.490330085889905
 30
0
 11
8.199999999999998
 21
8.730330085889909
 31
0
  0
LINE
  8
0
 62
7
 10
7.98180194846605
 20
8.299999999999997
 30
0
 11
8.199999999999998
 21
8.518198051533945
 31
0
  0
LINE
  8
0
 62
7
 10
8.193933982822013
 20
8.299999999999997
 30
0
 11
8.199999999999998
 21
8.306066017177981
 31
0
  0
LINE
  8
0
 62
7
 10
7.959999999999997
 20
10.71771644662753
 30
0
 11
8.092283553372464
 21
10.85
 31
0
  0
LINE
  8
0
 62
7
 10
7.959999999999997
 20
10.50558441227156
 30
0
 11
8.199999999999998
 21
10.74558441227156
 31
0
  0
LINE
  8
0
 62
7
 10
7.959999999999997
 20
10.2934523779156
 30
0
 11
8.199999999999998
 21
10.5334523779156
 31
0
  0
LINE
  8
0
 62
7
 10
7.959999999999997
 20
10.08132034355964
 30
0
 11
8.199999999999998
 21
10.32132034355963
 31
0
  0
LINE
  8
0
 62
7
 10
7.959999999999997
 20
9.869188309203672
 30
0
 11
8.199999999999998
 21
10.10918830920367
 31
0
  0
LINE
  8
0
 62
7
 10
7.959999999999997
 20
9.657056274847708
 30
0
 11
8.199999999999998
 21
9.897056274847706
 31
0
  0
LINE
  8
0
 62
7
 10
7.959999999999997
 20
9.444924240491744
 30
0
 11
8.199999999999998
 21
9.684924240491743
 31
0
  0
LINE
  8
0
 62
7
 10
7.959999999999997
 20
9.23279220613578
 30
0
 11
8.199999999999998
 21
9.472792206135779
 31
0
  0
LINE
  8
0
 62
7
 10
7.959999999999997
 20
9.020660171779816
 30
0
 11
8.199999999999998
 21
9.260660171779815
 31
0
  0
LINE
  8
0
 62
7
 10
7.959999999999997
 20
8.808528137423853
 30
0
 11
8.199999999999998
 21
9.048528137423851
 31
0
  0
LINE
  8
0
 62
7
 10
7.959999999999997
 20
8.596396103067889
 30
0
 11
8.199999999999998
 21
8.836396103067887
 31
0
  0
LINE
  8
0
 62
7
 10
7.959999999999997
 20
8.384264068711925
 30
0
 11
8.199999999999998
 21
8.624264068711923
 31
0
  0
LINE
  8
0
 62
7
 10
8.087867965644035
 20
8.299999999999997
 30
0
 11
8.199999999999998
 21
8.41213203435596
 31
0
  0
ENDBLK
  8
0
  0
BLOCK
  8
0
  2
*X6
 70
1
 10
0
 20
0
 30
0
  0
LINE
  8
0
 62
7
 10
7.959999999999995
 20
8.066066017177977
 30
0
 11
7.993933982822015
 21
8.099999999999996
 31
0
  0
LINE
  8
0
 62
7
 10
8.056066017177981
 20
7.949999999999997
 30
0
 11
8.199999999999998
 21
8.093933982822012
 31
0
  0
LINE
  8
0
 62
7
 10
7.959999999999997
 20
7.959999999999996
 30
0
 11
8.099999999999998
 21
8.099999999999996
 31
0
  0
LINE
  8
0
 62
7
 10
8.162132034355961
 20
7.949999999999996
 30
0
 11
8.199999999999998
 21
7.987867965644032
 31
0
  0
ENDBLK
  8
0
  0
BLOCK
  8
0
  2
*X7
 70
1
 10
0
 20
0
 30
0
  0
LINE
  8
0
 62
7
  6
DASHED
 10
0.9500000000000002
 20
11.0262716319083
 30
0
 11
0.9737283680916997
 21
11.05
 31
0
  0
LINE
  8
0
 62
7
  6
DASHED
 10
0.9858604024476638
 20
10.85
 30
0
 11
1.185860402447664
 21
11.05
 31
0
  0
LINE
  8
0
 62
7
  6
DASHED
 10
1.197992436803628
 20
10.85
 30
0
 11
1.397992436803628
 21
11.05
 31
0
  0
LINE
  8
0
 62
7
  6
DASHED
 10
1.410124471159592
 20
10.85
 30
0
 11
1.610124471159593
 21
11.05
 31
0
  0
LINE
  8
0
 62
7
  6
DASHED
 10
1.622256505515557
 20
10.85
 30
0
 11
1.822256505515557
 21
11.05
 31
0
  0
LINE
  8
0
 62
7
  6
DASHED
 10
1.834388539871521
 20
10.85
 30
0
 11
2.034388539871521
 21
11.05
 31
0
  0
LINE
  8
0
 62
7
  6
DASHED
 10
2.046520574227485
 20
10.85
 30
0
 11
2.246520574227485
 21
11.05
 31
0
  0
LINE
  8
0
 62
7
  6
DASHED
 10
2.25865260858345
 20
10.85
 30
0
 11
2.45865260858345
 21
11.05
 31
0
  0
LINE
  8
0
 62
7
  6
DASHED
 10
2.470784642939414
 20
10.85
 30
0
 11
2.670784642939414
 21
11.05
 31
0
  0
LINE
  8
0
 62
7
  6
DASHED
 10
2.682916677295378
 20
10.85
 30
0
 11
2.882916677295378
 21
11.05
 31
0
  0
LINE
  8
0
 62
7
  6
DASHED
 10
2.895048711651342
 20
10.85
 30
0
 11
3.095048711651343
 21
11.05
 31
0
  0
LINE
  8
0
 62
7
  6
DASHED
 10
3.107180746007307
 20
10.85
 30
0
 11
3.307180746007307
 21
11.05
 31
0
  0
LINE
  8
0
 62
7
  6
DASHED
 10
3.319312780363271
 20
10.85
 30
0
 11
3.519312780363271
 21
11.05
 31
0
  0
LINE
  8
0
 62
7
  6
DASHED
 10
3.531444814719235
 20
10.85
 30
0
 11
3.731444814719235
 21
11.05
 31
0
  0
LINE
  8
0
 62
7
  6
DASHED
 10
3.743576849075199
 20
10.85
 30
0
 11
3.859999999999995
 21
10.9664231509248
 31
0
  0
LINE
  8
0
 62
7
 10
0.9500000000000002
 20
10.92020561473032
 30
0
 11
1.079794385269682
 21
11.05
 31
0
  0
LINE
  8
0
 62
7
 10
1.091926419625644
 20
10.85
 30
0
 11
1.291926419625646
 21
11.05
 31
0
  0
LINE
  8
0
 62
7
 10
1.304058453981608
 20
10.85
 30
0
 11
1.50405845398161
 21
11.05
 31
0
  0
LINE
  8
0
 62
7
 10
1.516190488337573
 20
10.85
 30
0
 11
1.716190488337574
 21
11.05
 31
0
  0
LINE
  8
0
 62
7
 10
1.728322522693537
 20
10.85
 30
0
 11
1.928322522693539
 21
11.05
 31
0
  0
LINE
  8
0
 62
7
 10
1.940454557049501
 20
10.85
 30
0
 11
2.140454557049503
 21
11.05
 31
0
  0
LINE
  8
0
 62
7
 10
2.152586591405465
 20
10.85
 30
0
 11
2.352586591405467
 21
11.05
 31
0
  0
LINE
  8
0
 62
7
 10
2.36471862576143
 20
10.85
 30
0
 11
2.564718625761432
 21
11.05
 31
0
  0
LINE
  8
0
 62
7
 10
2.576850660117394
 20
10.85
 30
0
 11
2.776850660117396
 21
11.05
 31
0
  0
LINE
  8
0
 62
7
 10
2.788982694473358
 20
10.85
 30
0
 11
2.98898269447336
 21
11.05
 31
0
  0
LINE
  8
0
 62
7
 10
3.001114728829323
 20
10.85
 30
0
 11
3.201114728829324
 21
11.05
 31
0
  0
LINE
  8
0
 62
7
 10
3.213246763185287
 20
10.85
 30
0
 11
3.413246763185289
 21
11.05
 31
0
  0
LINE
  8
0
 62
7
 10
3.425378797541251
 20
10.85
 30
0
 11
3.625378797541253
 21
11.05
 31
0
  0
LINE
  8
0
 62
7
 10
3.637510831897215
 20
10.85
 30
0
 11
3.837510831897217
 21
11.05
 31
0
  0
LINE
  8
0
 62
7
 10
3.84964286625318
 20
10.85
 30
0
 11
3.859999999999995
 21
10.86035713374681
 31
0
  0
ENDBLK
  8
0
  0
BLOCK
  8
0
  2
*X8
 70
1
 10
0
 20
0
 30
0
  0
LINE
  8
0
 62
7
  6
DASHED
 10
0.9499999999999993
 20
8.268555185280766
 30
0
 11
0.981444814719231
 21
8.299999999999997
 31
0
  0
LINE
  8
0
 62
7
  6
DASHED
 10
0.9935768490751951
 20
8.099999999999996
 30
0
 11
1.193576849075195
 21
8.299999999999997
 31
0
  0
LINE
  8
0
 62
7
  6
DASHED
 10
1.205708883431159
 20
8.099999999999996
 30
0
 11
1.40570888343116
 21
8.299999999999997
 31
0
  0
LINE
  8
0
 62
7
  6
DASHED
 10
1.417840917787124
 20
8.099999999999996
 30
0
 11
1.617840917787124
 21
8.299999999999997
 31
0
  0
LINE
  8
0
 62
7
  6
DASHED
 10
1.629972952143088
 20
8.099999999999996
 30
0
 11
1.829972952143088
 21
8.299999999999997
 31
0
  0
LINE
  8
0
 62
7
  6
DASHED
 10
1.842104986499052
 20
8.099999999999996
 30
0
 11
2.042104986499052
 21
8.299999999999997
 31
0
  0
LINE
  8
0
 62
7
  6
DASHED
 10
2.054237020855016
 20
8.099999999999996
 30
0
 11
2.254237020855017
 21
8.299999999999997
 31
0
  0
LINE
  8
0
 62
7
  6
DASHED
 10
2.266369055210981
 20
8.099999999999996
 30
0
 11
2.466369055210981
 21
8.299999999999997
 31
0
  0
LINE
  8
0
 62
7
  6
DASHED
 10
2.478501089566945
 20
8.099999999999996
 30
0
 11
2.678501089566945
 21
8.299999999999997
 31
0
  0
LINE
  8
0
 62
7
  6
DASHED
 10
2.690633123922909
 20
8.099999999999996
 30
0
 11
2.890633123922909
 21
8.299999999999997
 31
0
  0
LINE
  8
0
 62
7
  6
DASHED
 10
2.902765158278874
 20
8.099999999999996
 30
0
 11
3.102765158278874
 21
8.299999999999997
 31
0
  0
LINE
  8
0
 62
7
  6
DASHED
 10
3.114897192634838
 20
8.099999999999996
 30
0
 11
3.314897192634838
 21
8.299999999999997
 31
0
  0
LINE
  8
0
 62
7
  6
DASHED
 10
3.327029226990802
 20
8.099999999999996
 30
0
 11
3.527029226990802
 21
8.299999999999997
 31
0
  0
LINE
  8
0
 62
7
  6
DASHED
 10
3.539161261346766
 20
8.099999999999996
 30
0
 11
3.739161261346767
 21
8.299999999999997
 31
0
  0
LINE
  8
0
 62
7
  6
DASHED
 10
3.751293295702731
 20
8.099999999999996
 30
0
 11
3.859999999999995
 21
8.20870670429726
 31
0
  0
LINE
  8
0
 62
7
 10
0.9499999999999988
 20
8.162489168102784
 30
0
 11
1.087510831897213
 21
8.299999999999997
 31
0
  0
LINE
  8
0
 62
7
 10
1.099642866253178
 20
8.099999999999998
 30
0
 11
1.299642866253178
 21
8.299999999999997
 31
0
  0
LINE
  8
0
 62
7
 10
1.311774900609143
 20
8.099999999999998
 30
0
 11
1.511774900609142
 21
8.299999999999997
 31
0
  0
LINE
  8
0
 62
7
 10
1.523906934965107
 20
8.099999999999998
 30
0
 11
1.723906934965106
 21
8.299999999999997
 31
0
  0
LINE
  8
0
 62
7
 10
1.736038969321071
 20
8.099999999999998
 30
0
 11
1.93603896932107
 21
8.299999999999997
 31
0
  0
LINE
  8
0
 62
7
 10
1.948171003677035
 20
8.099999999999998
 30
0
 11
2.148171003677035
 21
8.299999999999997
 31
0
  0
LINE
  8
0
 62
7
 10
2.160303038033
 20
8.099999999999998
 30
0
 11
2.360303038032999
 21
8.299999999999997
 31
0
  0
LINE
  8
0
 62
7
 10
2.372435072388964
 20
8.099999999999998
 30
0
 11
2.572435072388963
 21
8.299999999999997
 31
0
  0
LINE
  8
0
 62
7
 10
2.584567106744928
 20
8.099999999999998
 30
0
 11
2.784567106744928
 21
8.299999999999997
 31
0
  0
LINE
  8
0
 62
7
 10
2.796699141100893
 20
8.099999999999998
 30
0
 11
2.996699141100892
 21
8.299999999999997
 31
0
  0
LINE
  8
0
 62
7
 10
3.008831175456857
 20
8.099999999999998
 30
0
 11
3.208831175456856
 21
8.299999999999997
 31
0
  0
LINE
  8
0
 62
7
 10
3.220963209812821
 20
8.099999999999998
 30
0
 11
3.42096320981282
 21
8.299999999999997
 31
0
  0
LINE
  8
0
 62
7
 10
3.433095244168785
 20
8.099999999999998
 30
0
 11
3.633095244168785
 21
8.299999999999997
 31
0
  0
LINE
  8
0
 62
7
 10
3.64522727852475
 20
8.099999999999998
 30
0
 11
3.845227278524749
 21
8.299999999999997
 31
0
  0
LINE
  8
0
 62
7
 10
3.857359312880714
 20
8.099999999999998
 30
0
 11
3.859999999999994
 21
8.102640687119278
 31
0
  0
ENDBLK
  8
0
  0
BLOCK
  8
0
  2
*X9
 70
1
 10
0
 20
0
 30
0
  0
LINE
  8
0
 62
7
 10
3.534999999999994
 20
11.06568721963672
 30
0
 11
3.66931278036327
 21
11.2
 31
0
  0
LINE
  8
0
 62
7
 10
3.534999999999995
 20
11.17175323681471
 30
0
 11
3.563246763185288
 21
11.2
 31
0
  0
LINE
  8
0
 62
7
 10
3.625378797541254
 20
11.05
 30
0
 11
3.709999999999996
 21
11.13462120245874
 31
0
  0
ENDBLK
  8
0
  0
BLOCK
  8
0
  2
*X10
 70
1
 10
0
 20
0
 30
0
  0
LINE
  8
0
 62
7
 10
3.534999999999995
 20
10.64142315092479
 30
0
 11
3.709999999999996
 21
10.81642315092479
 31
0
  0
LINE
  8
0
 62
7
 10
3.534999999999995
 20
10.42929111656883
 30
0
 11
3.709999999999996
 21
10.60429111656883
 31
0
  0
LINE
  8
0
 62
7
 10
3.534999999999995
 20
10.21715908221286
 30
0
 11
3.709999999999996
 21
10.39215908221286
 31
0
  0
LINE
  8
0
 62
7
 10
3.534999999999995
 20
10.0050270478569
 30
0
 11
3.709999999999996
 21
10.1800270478569
 31
0
  0
LINE
  8
0
 62
7
 10
3.534999999999995
 20
9.792895013500935
 30
0
 11
3.709999999999996
 21
9.967895013500936
 31
0
  0
LINE
  8
0
 62
7
 10
3.534999999999995
 20
9.580762979144971
 30
0
 11
3.709999999999996
 21
9.755762979144972
 31
0
  0
LINE
  8
0
 62
7
 10
3.534999999999995
 20
9.368630944789007
 30
0
 11
3.709999999999996
 21
9.543630944789008
 31
0
  0
LINE
  8
0
 62
7
 10
3.534999999999995
 20
9.156498910433044
 30
0
 11
3.709999999999996
 21
9.331498910433044
 31
0
  0
LINE
  8
0
 62
7
 10
3.534999999999995
 20
8.94436687607708
 30
0
 11
3.709999999999996
 21
9.119366876077081
 31
0
  0
LINE
  8
0
 62
7
 10
3.534999999999995
 20
8.732234841721116
 30
0
 11
3.709999999999996
 21
8.907234841721117
 31
0
  0
LINE
  8
0
 62
7
 10
3.534999999999995
 20
8.520102807365152
 30
0
 11
3.709999999999996
 21
8.695102807365153
 31
0
  0
LINE
  8
0
 62
7
 10
3.534999999999995
 20
8.307970773009188
 30
0
 11
3.709999999999996
 21
8.482970773009189
 31
0
  0
LINE
  8
0
 62
7
 10
3.534999999999996
 20
10.74748916810277
 30
0
 11
3.637510831897216
 21
10.85
 31
0
  0
LINE
  8
0
 62
7
 10
3.534999999999996
 20
10.53535713374681
 30
0
 11
3.709999999999997
 21
10.71035713374681
 31
0
  0
LINE
  8
0
 62
7
 10
3.534999999999996
 20
10.32322509939085
 30
0
 11
3.709999999999997
 21
10.49822509939085
 31
0
  0
LINE
  8
0
 62
7
 10
3.534999999999996
 20
10.11109306503488
 30
0
 11
3.709999999999997
 21
10.28609306503488
 31
0
  0
LINE
  8
0
 62
7
 10
3.534999999999996
 20
9.898961030678919
 30
0
 11
3.709999999999997
 21
10.07396103067892
 31
0
  0
LINE
  8
0
 62
7
 10
3.534999999999996
 20
9.686828996322955
 30
0
 11
3.709999999999997
 21
9.861828996322956
 31
0
  0
LINE
  8
0
 62
7
 10
3.534999999999996
 20
9.474696961966991
 30
0
 11
3.709999999999997
 21
9.649696961966992
 31
0
  0
LINE
  8
0
 62
7
 10
3.534999999999996
 20
9.262564927611027
 30
0
 11
3.709999999999997
 21
9.437564927611028
 31
0
  0
LINE
  8
0
 62
7
 10
3.534999999999996
 20
9.050432893255064
 30
0
 11
3.709999999999997
 21
9.225432893255064
 31
0
  0
LINE
  8
0
 62
7
 10
3.534999999999996
 20
8.8383008588991
 30
0
 11
3.709999999999997
 21
9.0133008588991
 31
0
  0
LINE
  8
0
 62
7
 10
3.534999999999996
 20
8.626168824543136
 30
0
 11
3.709999999999997
 21
8.801168824543137
 31
0
  0
LINE
  8
0
 62
7
 10
3.534999999999996
 20
8.414036790187172
 30
0
 11
3.709999999999997
 21
8.589036790187173
 31
0
  0
LINE
  8
0
 62
7
 10
3.633095244168785
 20
8.299999999999997
 30
0
 11
3.709999999999997
 21
8.376904755831209
 31
0
  0
ENDBLK
  8
0
  0
BLOCK
  8
0
  2
*X11
 70
1
 10
0
 20
0
 30
0
  0
LINE
  8
0
 62
7
 10
3.534999999999994
 20
8.095838738653224
 30
0
 11
3.539161261346766
 21
8.099999999999996
 31
0
  0
LINE
  8
0
 62
7
 10
3.601293295702729
 20
7.949999999999994
 30
0
 11
3.709999999999996
 21
8.058706704297261
 31
0
  0
LINE
  8
0
 62
7
 10
3.534999999999993
 20
7.989772721475242
 30
0
 11
3.645227278524748
 21
8.099999999999996
 31
0
  0
LINE
  8
0
 62
7
 10
3.707359312880713
 20
7.949999999999996
 30
0
 11
3.709999999999995
 21
7.952640687119278
 31
0
  0
ENDBLK
  8
0
  0
BLOCK
  8
0
  2
*X12
 70
1
 10
0
 20
0
 30
0
  0
LINE
  8
0
 62
7
 10
1.100000000000001
 20
11.1762716319083
 30
0
 11
1.123728368091698
 21
11.2
 31
0
  0
LINE
  8
0
 62
7
 10
1.185860402447664
 20
11.05
 30
0
 11
1.274999999999999
 21
11.13913959755234
 31
0
  0
LINE
  8
0
 62
7
 10
1.1
 20
11.07020561473032
 30
0
 11
1.229794385269681
 21
11.2
 31
0
  0
ENDBLK
  8
0
  0
BLOCK
  8
0
  2
*X13
 70
1
 10
0
 20
0
 30
0
  0
LINE
  8
0
 62
7
 10
1.1
 20
10.75200756319637
 30
0
 11
1.197992436803626
 21
10.85
 31
0
  0
LINE
  8
0
 62
7
 10
1.1
 20
10.5398755288404
 30
0
 11
1.275
 21
10.7148755288404
 31
0
  0
LINE
  8
0
 62
7
 10
1.1
 20
10.32774349448444
 30
0
 11
1.275
 21
10.50274349448444
 31
0
  0
LINE
  8
0
 62
7
 10
1.1
 20
10.11561146012848
 30
0
 11
1.275
 21
10.29061146012848
 31
0
  0
LINE
  8
0
 62
7
 10
1.1
 20
9.903479425772513
 30
0
 11
1.275
 21
10.07847942577251
 31
0
  0
LINE
  8
0
 62
7
 10
1.1
 20
9.691347391416549
 30
0
 11
1.275
 21
9.866347391416548
 31
0
  0
LINE
  8
0
 62
7
 10
1.1
 20
9.479215357060585
 30
0
 11
1.275
 21
9.654215357060584
 31
0
  0
LINE
  8
0
 62
7
 10
1.1
 20
9.267083322704622
 30
0
 11
1.275
 21
9.442083322704621
 31
0
  0
LINE
  8
0
 62
7
 10
1.1
 20
9.054951288348658
 30
0
 11
1.275
 21
9.229951288348657
 31
0
  0
LINE
  8
0
 62
7
 10
1.1
 20
8.842819253992694
 30
0
 11
1.275
 21
9.017819253992693
 31
0
  0
LINE
  8
0
 62
7
 10
1.1
 20
8.63068721963673
 30
0
 11
1.275
 21
8.805687219636729
 31
0
  0
LINE
  8
0
 62
7
 10
1.1
 20
8.418555185280766
 30
0
 11
1.275
 21
8.593555185280765
 31
0
  0
LINE
  8
0
 62
7
 10
1.193576849075197
 20
8.299999999999997
 30
0
 11
1.275
 21
8.381423150924801
 31
0
  0
LINE
  8
0
 62
7
 10
1.100000000000001
 20
10.64594154601839
 30
0
 11
1.274999999999999
 21
10.82094154601838
 31
0
  0
LINE
  8
0
 62
7
 10
1.100000000000001
 20
10.43380951166242
 30
0
 11
1.274999999999999
 21
10.60880951166242
 31
0
  0
LINE
  8
0
 62
7
 10
1.100000000000001
 20
10.22167747730646
 30
0
 11
1.274999999999999
 21
10.39667747730646
 31
0
  0
LINE
  8
0
 62
7
 10
1.100000000000001
 20
10.0095454429505
 30
0
 11
1.274999999999999
 21
10.18454544295049
 31
0
  0
LINE
  8
0
 62
7
 10
1.100000000000001
 20
9.797413408594531
 30
0
 11
1.274999999999999
 21
9.972413408594528
 31
0
  0
LINE
  8
0
 62
7
 10
1.100000000000001
 20
9.585281374238567
 30
0
 11
1.274999999999999
 21
9.760281374238565
 31
0
  0
LINE
  8
0
 62
7
 10
1.100000000000001
 20
9.373149339882604
 30
0
 11
1.274999999999999
 21
9.548149339882601
 31
0
  0
LINE
  8
0
 62
7
 10
1.100000000000001
 20
9.16101730552664
 30
0
 11
1.274999999999999
 21
9.336017305526637
 31
0
  0
LINE
  8
0
 62
7
 10
1.100000000000001
 20
8.948885271170676
 30
0
 11
1.274999999999999
 21
9.123885271170673
 31
0
  0
LINE
  8
0
 62
7
 10
1.100000000000001
 20
8.736753236814712
 30
0
 11
1.274999999999999
 21
8.911753236814709
 31
0
  0
LINE
  8
0
 62
7
 10
1.100000000000001
 20
8.524621202458748
 30
0
 11
1.274999999999999
 21
8.699621202458745
 31
0
  0
LINE
  8
0
 62
7
 10
1.100000000000001
 20
8.312489168102784
 30
0
 11
1.274999999999999
 21
8.487489168102782
 31
0
  0
ENDBLK
  8
0
  0
BLOCK
  8
0
  2
*X14
 70
1
 10
0
 20
0
 30
0
  0
LINE
  8
0
 62
7
 10
1.099999999999999
 20
7.994291116568838
 30
0
 11
1.205708883431158
 21
8.099999999999996
 31
0
  0
LINE
  8
0
 62
7
 10
1.267840917787122
 20
7.949999999999996
 30
0
 11
1.275
 21
7.957159082212874
 31
0
  0
LINE
  8
0
 62
7
 10
1.16177490060914
 20
7.949999999999996
 30
0
 11
1.274999999999999
 21
8.063225099390854
 31
0
  0
ENDBLK
  8
0
  0
BLOCK
  8
0
  2
*X15
 70
1
 10
0
 20
0
 30
0
  0
LINE
  8
0
 62
7
 10
1.1
 20
5.448706704297266
 30
0
 11
1.171293295702728
 21
5.519999999999995
 31
0
  0
LINE
  8
0
 62
7
 10
0.9349999999999996
 20
5.283706704297266
 30
0
 11
1.021293295702728
 21
5.369999999999995
 31
0
  0
LINE
  8
0
 62
7
 10
0.9934253300587024
 20
5.130000000000004
 30
0
 11
1.274999999999999
 21
5.411574669941302
 31
0
  0
LINE
  8
0
 62
7
 10
1.205557364414667
 20
5.130000000000004
 30
0
 11
1.445557364414657
 21
5.369999999999996
 31
0
  0
LINE
  8
0
 62
7
 10
1.417689398770631
 20
5.130000000000004
 30
0
 11
1.657689398770621
 21
5.369999999999996
 31
0
  0
LINE
  8
0
 62
7
 10
1.629821433126595
 20
5.130000000000004
 30
0
 11
1.869821433126586
 21
5.369999999999996
 31
0
  0
LINE
  8
0
 62
7
 10
1.84195346748256
 20
5.130000000000004
 30
0
 11
2.08195346748255
 21
5.369999999999996
 31
0
  0
LINE
  8
0
 62
7
 10
2.054085501838524
 20
5.130000000000004
 30
0
 11
2.294085501838514
 21
5.369999999999996
 31
0
  0
LINE
  8
0
 62
7
 10
2.266217536194488
 20
5.130000000000004
 30
0
 11
2.506217536194479
 21
5.369999999999996
 31
0
  0
LINE
  8
0
 62
7
 10
2.478349570550452
 20
5.130000000000004
 30
0
 11
2.718349570550443
 21
5.369999999999996
 31
0
  0
LINE
  8
0
 62
7
 10
2.690481604906417
 20
5.130000000000004
 30
0
 11
2.930481604906407
 21
5.369999999999996
 31
0
  0
LINE
  8
0
 62
7
 10
2.902613639262381
 20
5.130000000000004
 30
0
 11
3.142613639262371
 21
5.369999999999996
 31
0
  0
LINE
  8
0
 62
7
 10
3.114745673618345
 20
5.130000000000004
 30
0
 11
3.354745673618336
 21
5.369999999999996
 31
0
  0
LINE
  8
0
 62
7
 10
3.326877707974309
 20
5.130000000000004
 30
0
 11
3.709999999999996
 21
5.513122292025691
 31
0
  0
LINE
  8
0
 62
7
 10
3.539009742330274
 20
5.130000000000004
 30
0
 11
3.779009742330263
 21
5.369999999999995
 31
0
  0
LINE
  8
0
 62
7
 10
3.751141776686238
 20
5.130000000000004
 30
0
 11
3.859999999999995
 21
5.238858223313761
 31
0
  0
LINE
  8
0
 62
7
 10
0.9349999999999996
 20
5.177640687119284
 30
0
 11
1.275
 21
5.517640687119284
 31
0
  0
LINE
  8
0
 62
7
 10
1.099491347236684
 20
5.130000000000004
 30
0
 11
1.339491347236675
 21
5.369999999999995
 31
0
  0
LINE
  8
0
 62
7
 10
1.311623381592649
 20
5.130000000000004
 30
0
 11
1.551623381592639
 21
5.369999999999995
 31
0
  0
LINE
  8
0
 62
7
 10
1.523755415948613
 20
5.130000000000004
 30
0
 11
1.763755415948603
 21
5.369999999999995
 31
0
  0
LINE
  8
0
 62
7
 10
1.735887450304577
 20
5.130000000000004
 30
0
 11
1.975887450304568
 21
5.369999999999995
 31
0
  0
LINE
  8
0
 62
7
 10
1.948019484660541
 20
5.130000000000004
 30
0
 11
2.188019484660532
 21
5.369999999999995
 31
0
  0
LINE
  8
0
 62
7
 10
2.160151519016506
 20
5.130000000000004
 30
0
 11
2.400151519016496
 21
5.369999999999995
 31
0
  0
LINE
  8
0
 62
7
 10
2.37228355337247
 20
5.130000000000004
 30
0
 11
2.61228355337246
 21
5.369999999999995
 31
0
  0
LINE
  8
0
 62
7
 10
2.584415587728434
 20
5.130000000000004
 30
0
 11
2.824415587728425
 21
5.369999999999995
 31
0
  0
LINE
  8
0
 62
7
 10
2.796547622084399
 20
5.130000000000004
 30
0
 11
3.036547622084389
 21
5.369999999999995
 31
0
  0
LINE
  8
0
 62
7
 10
3.008679656440363
 20
5.130000000000004
 30
0
 11
3.248679656440353
 21
5.369999999999995
 31
0
  0
LINE
  8
0
 62
7
 10
3.534999999999995
 20
5.444188309203672
 30
0
 11
3.610811690796317
 21
5.519999999999994
 31
0
  0
LINE
  8
0
 62
7
 10
3.220811690796327
 20
5.130000000000004
 30
0
 11
3.460811690796318
 21
5.369999999999995
 31
0
  0
LINE
  8
0
 62
7
 10
3.432943725152291
 20
5.130000000000004
 30
0
 11
3.709999999999996
 21
5.407056274847709
 31
0
  0
LINE
  8
0
 62
7
 10
3.645075759508256
 20
5.130000000000004
 30
0
 11
3.859999999999995
 21
5.344924240491743
 31
0
  0
LINE
  8
0
 62
7
 10
3.85720779386422
 20
5.130000000000004
 30
0
 11
3.859999999999995
 21
5.132792206135779
 31
0
  0
ENDBLK
  8
0
  0
BLOCK
  8
0
  2
*X16
 70
1
 10
0
 20
0
 30
0
  0
LINE
  8
0
 62
7
 10
0.9349999999999998
 20
5.071574669941302
 30
0
 11
0.9534253300586997
 21
5.090000000000003
 31
0
  0
LINE
  8
0
 62
7
 10
0.9349999999999998
 20
4.859442635585338
 30
0
 11
1.165557364414664
 21
5.090000000000003
 31
0
  0
LINE
  8
0
 62
7
 10
1.099999999999999
 20
4.812310601229373
 30
0
 11
1.377689398770628
 21
5.090000000000003
 31
0
  0
LINE
  8
0
 62
7
 10
1.349821433126593
 20
4.850000000000004
 30
0
 11
1.589821433126593
 21
5.090000000000003
 31
0
  0
LINE
  8
0
 62
7
 10
1.099999999999999
 20
4.600178566873409
 30
0
 11
1.275
 21
4.775178566873408
 31
0
  0
LINE
  8
0
 62
7
 10
1.561953467482558
 20
4.850000000000004
 30
0
 11
1.801953467482557
 21
5.090000000000003
 31
0
  0
LINE
  8
0
 62
7
 10
1.099999999999999
 20
4.388046532517445
 30
0
 11
1.275
 21
4.563046532517444
 31
0
  0
LINE
  8
0
 62
7
 10
1.774085501838522
 20
4.850000000000004
 30
0
 11
2.014085501838521
 21
5.090000000000003
 31
0
  0
LINE
  8
0
 62
7
 10
1.099999999999999
 20
4.175914498161482
 30
0
 11
1.275
 21
4.35091449816148
 31
0
  0
LINE
  8
0
 62
7
 10
1.986217536194487
 20
4.850000000000004
 30
0
 11
2.226217536194485
 21
5.090000000000003
 31
0
  0
LINE
  8
0
 62
7
 10
1.099999999999999
 20
3.963782463805517
 30
0
 11
1.275
 21
4.138782463805517
 31
0
  0
LINE
  8
0
 62
7
 10
2.198349570550451
 20
4.850000000000004
 30
0
 11
2.43834957055045
 21
5.090000000000003
 31
0
  0
LINE
  8
0
 62
7
 10
1.099999999999999
 20
3.751650429449553
 30
0
 11
1.275
 21
3.926650429449553
 31
0
  0
LINE
  8
0
 62
7
 10
2.410481604906415
 20
4.850000000000004
 30
0
 11
2.650481604906414
 21
5.090000000000003
 31
0
  0
LINE
  8
0
 62
7
 10
1.099999999999999
 20
3.539518395093589
 30
0
 11
1.275
 21
3.714518395093588
 31
0
  0
LINE
  8
0
 62
7
 10
2.62261363926238
 20
4.850000000000004
 30
0
 11
2.862613639262378
 21
5.090000000000003
 31
0
  0
LINE
  8
0
 62
7
 10
1.122613639262376
 20
3.350000000000001
 30
0
 11
1.275
 21
3.502386360737624
 31
0
  0
LINE
  8
0
 62
7
 10
2.834745673618344
 20
4.850000000000004
 30
0
 11
3.074745673618343
 21
5.090000000000003
 31
0
  0
LINE
  8
0
 62
7
 10
3.046877707974308
 20
4.850000000000004
 30
0
 11
3.286877707974307
 21
5.090000000000003
 31
0
  0
LINE
  8
0
 62
7
 10
3.259009742330273
 20
4.850000000000004
 30
0
 11
3.499009742330271
 21
5.090000000000003
 31
0
  0
LINE
  8
0
 62
7
 10
3.471141776686237
 20
4.850000000000004
 30
0
 11
3.711141776686235
 21
5.090000000000003
 31
0
  0
LINE
  8
0
 62
7
 10
3.534999999999994
 20
4.701726188957797
 30
0
 11
3.859999999999995
 21
5.026726188957797
 31
0
  0
LINE
  8
0
 62
7
 10
3.534999999999993
 20
4.489594154601831
 30
0
 11
3.709999999999996
 21
4.664594154601833
 31
0
  0
LINE
  8
0
 62
7
 10
3.534999999999991
 20
4.277462120245866
 30
0
 11
3.709999999999996
 21
4.452462120245869
 31
0
  0
LINE
  8
0
 62
7
 10
3.53499999999999
 20
4.0653300858899
 30
0
 11
3.709999999999996
 21
4.240330085889905
 31
0
  0
LINE
  8
0
 62
7
 10
3.534999999999989
 20
3.853198051533935
 30
0
 11
3.709999999999996
 21
4.028198051533941
 31
0
  0
LINE
  8
0
 62
7
 10
3.534999999999987
 20
3.641066017177969
 30
0
 11
3.709999999999996
 21
3.816066017177977
 31
0
  0
LINE
  8
0
 62
7
 10
3.534999999999986
 20
3.428933982822004
 30
0
 11
3.709999999999996
 21
3.603933982822013
 31
0
  0
LINE
  8
0
 62
7
 10
3.568198051533947
 20
3.25
 30
0
 11
3.709999999999996
 21
3.391801948466048
 31
0
  0
LINE
  8
0
 62
7
 10
0.9349999999999996
 20
4.965508652763321
 30
0
 11
1.059491347236682
 21
5.090000000000002
 31
0
  0
LINE
  8
0
 62
7
 10
1.031623381592647
 20
4.850000000000002
 30
0
 11
1.271623381592646
 21
5.090000000000002
 31
0
  0
LINE
  8
0
 62
7
 10
1.1
 20
4.70624458405139
 30
0
 11
1.483755415948611
 21
5.090000000000002
 31
0
  0
LINE
  8
0
 62
7
 10
1.455887450304575
 20
4.850000000000004
 30
0
 11
1.695887450304575
 21
5.090000000000002
 31
0
  0
LINE
  8
0
 62
7
 10
1.1
 20
4.494112549695426
 30
0
 11
1.275
 21
4.669112549695427
 31
0
  0
LINE
  8
0
 62
7
 10
1.668019484660539
 20
4.850000000000004
 30
0
 11
1.908019484660539
 21
5.090000000000002
 31
0
  0
LINE
  8
0
 62
7
 10
1.1
 20
4.281980515339463
 30
0
 11
1.275
 21
4.456980515339463
 31
0
  0
LINE
  8
0
 62
7
 10
1.880151519016504
 20
4.850000000000004
 30
0
 11
2.120151519016503
 21
5.090000000000002
 31
0
  0
LINE
  8
0
 62
7
 10
1.1
 20
4.069848480983499
 30
0
 11
1.275
 21
4.244848480983499
 31
0
  0
LINE
  8
0
 62
7
 10
2.092283553372468
 20
4.850000000000004
 30
0
 11
2.332283553372468
 21
5.090000000000002
 31
0
  0
LINE
  8
0
 62
7
 10
1.1
 20
3.857716446627535
 30
0
 11
1.275
 21
4.032716446627536
 31
0
  0
LINE
  8
0
 62
7
 10
2.304415587728433
 20
4.850000000000004
 30
0
 11
2.544415587728432
 21
5.090000000000002
 31
0
  0
LINE
  8
0
 62
7
 10
1.1
 20
3.645584412271571
 30
0
 11
1.275
 21
3.820584412271571
 31
0
  0
LINE
  8
0
 62
7
 10
2.516547622084397
 20
4.850000000000004
 30
0
 11
2.756547622084396
 21
5.090000000000002
 31
0
  0
LINE
  8
0
 62
7
 10
1.1
 20
3.433452377915606
 30
0
 11
1.275
 21
3.608452377915607
 31
0
  0
LINE
  8
0
 62
7
 10
2.728679656440361
 20
4.850000000000004
 30
0
 11
2.968679656440361
 21
5.090000000000002
 31
0
  0
LINE
  8
0
 62
7
 10
1.228679656440357
 20
3.35
 30
0
 11
1.275
 21
3.396320343559642
 31
0
  0
LINE
  8
0
 62
7
 10
2.940811690796326
 20
4.850000000000004
 30
0
 11
3.180811690796325
 21
5.090000000000002
 31
0
  0
LINE
  8
0
 62
7
 10
3.15294372515229
 20
4.850000000000004
 30
0
 11
3.392943725152289
 21
5.090000000000002
 31
0
  0
LINE
  8
0
 62
7
 10
3.365075759508254
 20
4.850000000000004
 30
0
 11
3.605075759508253
 21
5.090000000000002
 31
0
  0
LINE
  8
0
 62
7
 10
3.534999999999994
 20
4.807792206135779
 30
0
 11
3.817207793864218
 21
5.090000000000002
 31
0
  0
LINE
  8
0
 62
7
 10
3.789339828220181
 20
4.850000000000001
 30
0
 11
3.859999999999995
 21
4.920660171779815
 31
0
  0
LINE
  8
0
 62
7
 10
3.534999999999993
 20
4.595660171779813
 30
0
 11
3.709999999999996
 21
4.770660171779816
 31
0
  0
LINE
  8
0
 62
7
 10
3.534999999999991
 20
4.383528137423848
 30
0
 11
3.709999999999996
 21
4.558528137423852
 31
0
  0
LINE
  8
0
 62
7
 10
3.53499999999999
 20
4.171396103067882
 30
0
 11
3.709999999999996
 21
4.346396103067888
 31
0
  0
LINE
  8
0
 62
7
 10
3.534999999999989
 20
3.959264068711917
 30
0
 11
3.709999999999996
 21
4.134264068711924
 31
0
  0
LINE
  8
0
 62
7
 10
3.534999999999987
 20
3.747132034355951
 30
0
 11
3.709999999999996
 21
3.92213203435596
 31
0
  0
LINE
  8
0
 62
7
 10
3.534999999999986
 20
3.534999999999985
 30
0
 11
3.709999999999996
 21
3.709999999999996
 31
0
  0
LINE
  8
0
 62
7
 10
3.534999999999988
 20
3.322867965644024
 30
0
 11
3.709999999999996
 21
3.497867965644031
 31
0
  0
LINE
  8
0
 62
7
 10
3.674264068711929
 20
3.25
 30
0
 11
3.709999999999996
 21
3.285735931288067
 31
0
  0
ENDBLK
  8
0
  0
BLOCK
  8
0
  2
*D0
 70
1
 10
0
 20
0
 30
0
  0
LINE
  8
0
 62
7
 10
0.825595439448115
 20
4.422643242207459
 30
0
 11
0.825595439448115
 21
4.850000000000003
 31
0
  0
LINE
  8
0
 62
7
 10
0.825595439448115
 20
3.35
 30
0
 11
0.825595439448115
 21
3.76764324220746
 31
0
  0
LINE
  8
0
 62
7
 10
1.1
 20
4.850000000000003
 30
0
 11
0.7755954394481149
 21
4.850000000000003
 31
0
  0
LINE
  8
0
 62
7
 10
1.1
 20
3.35
 30
0
 11
0.7755954394481149
 21
3.35
 31
0
  0
LINE
  8
0
 62
7
 10
0.8609507785074424
 20
4.814644660940676
 30
0
 11
0.7902401003887876
 21
4.885355339059331
 31
0
  0
LINE
  8
0
 62
7
 10
0.7902401003887876
 20
3.385355339059327
 30
0
 11
0.8609507785074424
 21
3.314644660940673
 31
0
  0
TEXT
  8
0
 62
7
 10
0.870595439448115
 20
4.01764324220746
 30
0
 40
0.1
  1
1,5
 50
90
 41
0.9
  0
ENDBLK
  8
0
  0
BLOCK
  8
0
  2
*D1
 70
1
 10
0
 20
0
 30
0
  0
LINE
  8
0
 62
7
 10
2.741595277635821
 20
5.80752276017715
 30
0
 11
3.534999999999996
 21
5.80752276017715
 31
0
  0
LINE
  8
0
 62
7
 10
1.275000000000001
 20
5.80752276017715
 30
0
 11
1.966595277635821
 21
5.80752276017715
 31
0
  0
LINE
  8
0
 62
7
 10
3.534999999999996
 20
5.369999999999995
 30
0
 11
3.534999999999996
 21
5.85752276017715
 31
0
  0
LINE
  8
0
 62
7
 10
1.275000000000001
 20
5.369999999999995
 30
0
 11
1.275000000000001
 21
5.85752276017715
 31
0
  0
LINE
  8
0
 62
7
 10
3.499644660940669
 20
5.772167421117823
 30
0
 11
3.570355339059323
 21
5.842878099236477
 31
0
  0
LINE
  8
0
 62
7
 10
1.310355339059328
 20
5.842878099236477
 30
0
 11
1.239644660940674
 21
5.772167421117823
 31
0
  0
TEXT
  8
0
 62
7
 10
2.216595277635821
 20
5.76252276017715
 30
0
 40
0.1
  1
2,26
 41
0.9
  0
ENDBLK
  8
0
  0
BLOCK
  8
0
  2
*D2
 70
1
 10
0
 20
0
 30
0
  0
LINE
  8
0
 62
7
 10
4.043489835632761
 20
4.41115076222109
 30
0
 11
4.043489835632761
 21
4.850000000000001
 31
0
  0
LINE
  8
0
 62
7
 10
4.043489835632761
 20
3.25
 30
0
 11
4.043489835632761
 21
3.756150762221091
 31
0
  0
LINE
  8
0
 62
7
 10
3.709999999999996
 20
4.850000000000001
 30
0
 11
4.093489835632761
 21
4.850000000000001
 31
0
  0
LINE
  8
0
 62
7
 10
3.709999999999996
 20
3.25
 30
0
 11
4.093489835632761
 21
3.25
 31
0
  0
LINE
  8
0
 62
7
 10
4.008134496573434
 20
3.285355339059327
 30
0
 11
4.078845174692089
 21
3.214644660940673
 31
0
  0
LINE
  8
0
 62
7
 10
4.078845174692089
 20
4.814644660940673
 30
0
 11
4.008134496573434
 21
4.885355339059328
 31
0
  0
TEXT
  8
0
 62
7
 10
4.088489835632761
 20
4.006150762221091
 30
0
 40
0.1
  1
1,6
 50
90
 41
0.9
  0
ENDBLK
  8
0
  0
BLOCK
  8
0
  2
*D3
 70
1
 10
0
 20
0
 30
0
  0
LINE
  8
0
 62
7
 10
2.76055015755406
 20
11.4733153934594
 30
0
 11
3.534999999999995
 21
11.4733153934594
 31
0
  0
LINE
  8
0
 62
7
 10
1.275
 20
11.4733153934594
 30
0
 11
2.08555015755406
 21
11.4733153934594
 31
0
  0
LINE
  8
0
 62
7
 10
3.534999999999995
 20
11.2
 30
0
 11
3.534999999999995
 21
11.5233153934594
 31
0
  0
LINE
  8
0
 62
7
 10
1.275
 20
11.2
 30
0
 11
1.275
 21
11.5233153934594
 31
0
  0
LINE
  8
0
 62
7
 10
1.310355339059327
 20
11.50867073251873
 30
0
 11
1.239644660940673
 21
11.43796005440007
 31
0
  0
LINE
  8
0
 62
7
 10
3.499644660940668
 20
11.43796005440007
 30
0
 11
3.570355339059322
 21
11.50867073251873
 31
0
  0
TEXT
  8
0
 62
7
 10
2.28555015755406
 20
11.4283153934594
 30
0
 40
0.1
  1
2,26
 41
0.9
  0
ENDBLK
  8
0
  0
BLOCK
  8
0
  2
*D4
 70
1
 10
0
 20
0
 30
0
  0
LINE
  8
0
 62
7
 10
0.733655599557125
 20
10.20899603559873
 30
0
 11
0.733655599557125
 21
11.05
 31
0
  0
LINE
  8
0
 62
7
 10
0.733655599557125
 20
8.299999999999997
 30
0
 11
0.733655599557125
 21
9.12899603559873
 31
0
  0
LINE
  8
0
 62
7
 10
0.95
 20
11.05
 30
0
 11
0.683655599557125
 21
11.05
 31
0
  0
LINE
  8
0
 62
7
 10
0.95
 20
8.299999999999997
 30
0
 11
0.683655599557125
 21
8.299999999999997
 31
0
  0
LINE
  8
0
 62
7
 10
0.6983002604977976
 20
8.335355339059324
 30
0
 11
0.7690109386164524
 21
8.26464466094067
 31
0
  0
LINE
  8
0
 62
7
 10
0.7690109386164524
 20
11.01464466094068
 30
0
 11
0.6983002604977976
 21
11.08535533905933
 31
0
  0
TEXT
  8
0
 62
7
 10
0.703655599557125
 20
9.531496035598732
 30
0
 40
0.1
  1
2,75
 50
90
 41
0.9
  0
TEXT
  8
0
 62
7
 10
0.863655599557125
 20
9.328996035598731
 30
0
 40
0.1
  1
(260-280)
 50
90
 41
0.9
  0
ENDBLK
  8
0
  0
ENDSEC
  0
SECTION
  2
ENTITIES
  0
INSERT
  8
0
  2
*X0
 10
0
 20
0
 30
0
  0
INSERT
  8
0
  2
*X1
 10
0
 20
0
 30
0
  0
INSERT
  8
0
  2
*X2
 10
0
 20
0
 30
0
  0
INSERT
  8
0
  2
*X3
 10
0
 20
0
 30
0
  0
INSERT
  8
0
  2
*X4
 10
0
 20
0
 30
0
  0
INSERT
  8
0
  2
*X5
 10
0
 20
0
 30
0
  0
INSERT
  8
0
  2
*X6
 10
0
 20
0
 30
0
  0
INSERT
  8
0
  2
*X7
 10
0
 20
0
 30
0
  0
INSERT
  8
0
  2
*X8
 10
0
 20
0
 30
0
  0
INSERT
  8
0
  2
*X9
 10
0
 20
0
 30
0
  0
INSERT
  8
0
  2
*X10
 10
0
 20
0
 30
0
  0
INSERT
  8
0
  2
*X11
 10
0
 20
0
 30
0
  0
INSERT
  8
0
  2
*X12
 10
0
 20
0
 30
0
  0
INSERT
  8
0
  2
*X13
 10
0
 20
0
 30
0
  0
INSERT
  8
0
  2
*X14
 10
0
 20
0
 30
0
  0
INSERT
  8
0
  2
*X15
 10
0
 20
0
 30
0
  0
INSERT
  8
0
  2
*X16
 10
0
 20
0
 30
0
  0
LINE
  8
0
 62
7
  6
DASHDOT
 10
1.1
 20
5.519999999999995
 30
0
 11
1.275
 21
5.519999999999995
 31
0
  0
LINE
  8
0
 62
7
  6
DASHDOT
 10
1.05
 20
5.519999999999995
 30
0
 11
1.1
 21
5.519999999999995
 31
0
  0
LINE
  8
0
 62
7
  6
DASHDOT
 10
3.859999999999995
 20
4.850000000000001
 30
0
 11
3.859999999999995
 21
5.090000000000003
 31
0
  0
LINE
  8
0
 62
7
  6
DASHDOT
 10
0.9350000000000001
 20
4.850000000000001
 30
0
 11
0.9350000000000001
 21
5.090000000000003
 31
0
  0
LINE
  8
0
 62
7
  6
DASHDOT
 10
3.859999999999995
 20
5.090000000000003
 30
0
 11
3.859999999999995
 21
5.130000000000004
 31
0
  0
LINE
  8
0
 62
7
  6
DASHDOT
 10
0.9350000000000001
 20
5.090000000000003
 30
0
 11
0.9350000000000001
 21
5.130000000000004
 31
0
  0
LINE
  8
0
 62
7
  6
DASHDOT
 10
3.859999999999995
 20
4.800000000000001
 30
0
 11
3.859999999999995
 21
4.850000000000001
 31
0
  0
LINE
  8
0
 62
7
  6
DASHDOT
 10
3.859999999999995
 20
5.130000000000004
 30
0
 11
3.859999999999995
 21
5.369999999999995
 31
0
  0
LINE
  8
0
 62
7
  6
DASHDOT
 10
3.484999999999995
 20
5.519999999999995
 30
0
 11
3.534999999999995
 21
5.519999999999995
 31
0
  0
LINE
  8
0
 62
7
  6
DASHDOT
 10
3.534999999999995
 20
5.519999999999995
 30
0
 11
3.709999999999996
 21
5.519999999999995
 31
0
  0
LINE
  8
0
 62
7
  6
DASHDOT
 10
0.9350000000000001
 20
4.800000000000001
 30
0
 11
0.9350000000000001
 21
4.850000000000001
 31
0
  0
LINE
  8
0
 62
7
  6
DASHDOT
 10
0.9350000000000001
 20
5.130000000000004
 30
0
 11
0.9350000000000001
 21
5.369999999999995
 31
0
  0
LINE
  8
0
 62
7
  6
DASHDOT
 10
0.9350000000000001
 20
5.369999999999995
 30
0
 11
0.9350000000000001
 21
5.419999999999995
 31
0
  0
LINE
  8
0
 62
7
  6
DASHDOT
 10
3.859999999999995
 20
5.369999999999995
 30
0
 11
3.859999999999995
 21
5.419999999999995
 31
0
  0
LINE
  8
0
 62
7
  6
DASHDOT
 10
1.275
 20
5.519999999999995
 30
0
 11
1.325
 21
5.519999999999995
 31
0
  0
LINE
  8
0
 62
7
  6
DASHDOT
 10
3.709999999999996
 20
5.519999999999995
 30
0
 11
3.759999999999995
 21
5.519999999999995
 31
0
  0
LINE
  8
0
 62
7
 10
3.534999999999986
 20
3.4
 30
0
 11
3.534999999999986
 21
3.35
 31
0
  0
LINE
  8
0
 62
7
  6
DASHDOT
 10
3.534999999999986
 20
3.35
 30
0
 11
1.275
 21
3.35
 31
0
  0
LINE
  8
0
 62
7
 10
1.275
 20
3.35
 30
0
 11
1.275
 21
3.4
 31
0
  0
LINE
  8
0
 62
7
 10
3.534999999999995
 20
4.850000000000003
 30
0
 11
3.534999999999986
 21
3.4
 31
0
  0
LINE
  8
0
 62
7
 10
3.534999999999986
 20
3.4
 30
0
 11
1.275
 21
3.4
 31
0
  0
LINE
  8
0
 62
7
 10
1.1
 20
3.35
 30
0
 11
1.275
 21
3.35
 31
0
  0
LINE
  8
0
 62
7
 10
0.9350000000000001
 20
4.850000000000001
 30
0
 11
1.1
 21
4.850000000000003
 31
0
  0
LINE
  8
0
 62
7
 10
1.1
 20
4.850000000000003
 30
0
 11
1.1
 21
3.35
 31
0
  0
LINE
  8
0
 62
7
 10
1.275
 20
3.4
 30
0
 11
1.275
 21
4.850000000000001
 31
0
  0
LINE
  8
0
 62
7
 10
1.275
 20
4.850000000000001
 30
0
 11
3.534999999999995
 21
4.850000000000003
 31
0
  0
LINE
  8
0
 62
7
 10
3.709999999999996
 20
3.25
 30
0
 11
3.709999999999996
 21
4.850000000000001
 31
0
  0
LINE
  8
0
 62
7
 10
3.534999999999995
 20
3.25
 30
0
 11
3.709999999999996
 21
3.25
 31
0
  0
LINE
  8
0
 62
7
 10
3.534999999999986
 20
3.35
 30
0
 11
3.534999999999995
 21
3.25
 31
0
  0
LINE
  8
0
 62
7
 10
3.709999999999996
 20
4.850000000000001
 30
0
 11
3.859999999999995
 21
4.850000000000001
 31
0
  0
LINE
  8
0
 62
7
 10
0.9350000000000001
 20
5.090000000000003
 30
0
 11
3.859999999999995
 21
5.090000000000003
 31
0
  0
LINE
  8
0
 62
7
 10
0.9350000000000001
 20
5.130000000000004
 30
0
 11
3.859999999999995
 21
5.130000000000004
 31
0
  0
LINE
  8
0
 62
7
 10
0.9350000000000001
 20
5.369999999999995
 30
0
 11
1.1
 21
5.369999999999995
 31
0
  0
LINE
  8
0
 62
7
 10
1.1
 20
5.369999999999995
 30
0
 11
1.1
 21
5.519999999999995
 31
0
  0
LINE
  8
0
 62
7
 10
1.275
 20
5.519999999999995
 30
0
 11
1.275
 21
5.369999999999995
 31
0
  0
LINE
  8
0
 62
7
 10
1.275
 20
5.369999999999995
 30
0
 11
3.534999999999995
 21
5.369999999999995
 31
0
  0
LINE
  8
0
 62
7
 10
3.534999999999995
 20
5.369999999999995
 30
0
 11
3.534999999999995
 21
5.519999999999995
 31
0
  0
LINE
  8
0
 62
7
 10
3.709999999999996
 20
5.519999999999995
 30
0
 11
3.709999999999996
 21
5.369999999999995
 31
0
  0
LINE
  8
0
 62
7
 10
3.709999999999996
 20
5.369999999999995
 30
0
 11
3.859999999999995
 21
5.369999999999995
 31
0
  0
LINE
  8
0
 62
7
  6
DASHED
 10
6.459999999999997
 20
8.099999999999996
 30
0
 11
7.959999999999996
 21
8.099999999999996
 31
0
  0
LINE
  8
0
 62
7
  6
DASHED
 10
6.459999999999997
 20
8.299999999999997
 30
0
 11
7.959999999999996
 21
8.299999999999997
 31
0
  0
LINE
  8
0
 62
7
  6
DASHED
 10
6.459999999999997
 20
10.85
 30
0
 11
7.959999999999996
 21
10.85
 31
0
  0
LINE
  8
0
 62
7
  6
DASHED
 10
6.459999999999997
 20
11.05
 30
0
 11
7.959999999999996
 21
11.05
 31
0
  0
LINE
  8
0
 62
7
  6
DASHDOT
 10
6.159999999999997
 20
10.85
 30
0
 11
6.159999999999997
 21
11.05
 31
0
  0
LINE
  8
0
 62
7
  6
DASHDOT
 10
6.159999999999997
 20
10.8
 30
0
 11
6.159999999999997
 21
10.85
 31
0
  0
LINE
  8
0
 62
7
  6
DASHDOT
 10
7.959999999999996
 20
11.2
 30
0
 11
8.199999999999998
 21
11.2
 31
0
  0
LINE
  8
0
 62
7
  6
DASHDOT
 10
7.909999999999996
 20
11.2
 30
0
 11
7.959999999999996
 21
11.2
 31
0
  0
LINE
  8
0
 62
7
  6
DASHDOT
 10
7.909999999999996
 20
7.949999999999996
 30
0
 11
7.959999999999996
 21
7.949999999999996
 31
0
  0
LINE
  8
0
 62
7
  6
DASHDOT
 10
7.959999999999996
 20
7.949999999999996
 30
0
 11
8.199999999999998
 21
7.949999999999996
 31
0
  0
LINE
  8
0
 62
7
  6
DASHDOT
 10
6.159999999999997
 20
8.299999999999997
 30
0
 11
6.159999999999997
 21
8.099999999999996
 31
0
  0
LINE
  8
0
 62
7
  6
DASHDOT
 10
6.159999999999997
 20
8.399999999999997
 30
0
 11
6.159999999999997
 21
8.299999999999997
 31
0
  0
LINE
  8
0
 62
7
  6
DASHDOT
 10
6.159999999999997
 20
11.05
 30
0
 11
6.159999999999997
 21
11.15
 31
0
  0
LINE
  8
0
 62
7
 10
6.159999999999997
 20
11.15
 30
0
 11
6.459999999999997
 21
11.15
 31
0
  0
LINE
  8
0
 62
7
  6
DASHDOT
 10
6.159999999999997
 20
8.449999999999998
 30
0
 11
6.159999999999997
 21
8.399999999999997
 31
0
  0
LINE
  8
0
 62
7
 10
6.159999999999997
 20
8.399999999999997
 30
0
 11
6.459999999999997
 21
8.399999999999997
 31
0
  0
LINE
  8
0
 62
7
  6
DASHDOT
 10
8.199999999999998
 20
7.949999999999996
 30
0
 11
8.249999999999998
 21
7.949999999999996
 31
0
  0
LINE
  8
0
 62
7
  6
DASHDOT
 10
6.159999999999997
 20
8.099999999999996
 30
0
 11
6.159999999999997
 21
8.049999999999995
 31
0
  0
LINE
  8
0
 62
7
  6
DASHDOT
 10
6.159999999999997
 20
11.15
 30
0
 11
6.159999999999997
 21
11.2
 31
0
  0
LINE
  8
0
 62
7
  6
DASHDOT
 10
8.199999999999998
 20
11.2
 30
0
 11
8.249999999999998
 21
11.2
 31
0
  0
LINE
  8
0
 62
7
 10
6.159999999999997
 20
8.099999999999996
 30
0
 11
6.459999999999997
 21
8.099999999999996
 31
0
  0
LINE
  8
0
 62
7
 10
6.459999999999997
 20
8.099999999999996
 30
0
 11
6.459999999999997
 21
8.299999999999997
 31
0
  0
LINE
  8
0
 62
7
 10
6.159999999999997
 20
8.299999999999997
 30
0
 11
6.459999999999997
 21
8.299999999999997
 31
0
  0
LINE
  8
0
 62
7
 10
6.159999999999997
 20
11.05
 30
0
 11
6.459999999999997
 21
11.05
 31
0
  0
LINE
  8
0
 62
7
 10
6.159999999999997
 20
10.85
 30
0
 11
6.459999999999997
 21
10.85
 31
0
  0
LINE
  8
0
 62
7
 10
6.459999999999997
 20
10.85
 30
0
 11
6.459999999999997
 21
11.05
 31
0
  0
LINE
  8
0
 62
7
 10
7.959999999999996
 20
7.949999999999996
 30
0
 11
7.959999999999996
 21
8.099999999999996
 31
0
  0
LINE
  8
0
 62
7
 10
8.199999999999998
 20
8.299999999999997
 30
0
 11
8.199999999999998
 21
8.099999999999996
 31
0
  0
LINE
  8
0
 62
7
 10
7.959999999999996
 20
8.099999999999996
 30
0
 11
8.199999999999998
 21
8.099999999999996
 31
0
  0
LINE
  8
0
 62
7
 10
7.959999999999996
 20
8.099999999999996
 30
0
 11
7.959999999999996
 21
8.299999999999997
 31
0
  0
LINE
  8
0
 62
7
 10
8.199999999999998
 20
10.85
 30
0
 11
8.199999999999998
 21
8.299999999999997
 31
0
  0
LINE
  8
0
 62
7
 10
7.959999999999996
 20
8.299999999999997
 30
0
 11
8.199999999999998
 21
8.299999999999997
 31
0
  0
LINE
  8
0
 62
7
 10
7.959999999999996
 20
8.299999999999997
 30
0
 11
7.959999999999996
 21
10.85
 31
0
  0
LINE
  8
0
 62
7
 10
8.199999999999998
 20
11.05
 30
0
 11
8.199999999999998
 21
10.85
 31
0
  0
LINE
  8
0
 62
7
 10
7.959999999999996
 20
10.85
 30
0
 11
8.199999999999998
 21
10.85
 31
0
  0
LINE
  8
0
 62
7
 10
7.959999999999996
 20
10.85
 30
0
 11
7.959999999999996
 21
11.05
 31
0
  0
LINE
  8
0
 62
7
 10
8.199999999999998
 20
11.2
 30
0
 11
8.199999999999998
 21
11.05
 31
0
  0
LINE
  8
0
 62
7
 10
7.959999999999996
 20
11.05
 30
0
 11
8.199999999999998
 21
11.05
 31
0
  0
LINE
  8
0
 62
7
 10
7.959999999999996
 20
11.05
 30
0
 11
7.959999999999996
 21
11.2
 31
0
  0
LINE
  8
0
 62
7
 10
8.199999999999998
 20
8.099999999999996
 30
0
 11
8.199999999999998
 21
7.949999999999996
 31
0
  0
LINE
  8
0
 62
7
  6
DASHDOT
 10
3.709999999999996
 20
11.2
 30
0
 11
3.759999999999995
 21
11.2
 31
0
  0
LINE
  8
0
 62
7
  6
DASHDOT
 10
3.534999999999995
 20
11.2
 30
0
 11
3.709999999999996
 21
11.2
 31
0
  0
LINE
  8
0
 62
7
  6
DASHDOT
 10
3.859999999999995
 20
11.05
 30
0
 11
3.859999999999995
 21
11.15
 31
0
  0
LINE
  8
0
 62
7
  6
DASHDOT
 10
3.859999999999995
 20
10.85
 30
0
 11
3.859999999999995
 21
11.05
 31
0
  0
LINE
  8
0
 62
7
  6
DASHDOT
 10
1.275
 20
11.2
 30
0
 11
1.325
 21
11.2
 31
0
  0
LINE
  8
0
 62
7
  6
DASHDOT
 10
1.1
 20
11.2
 30
0
 11
1.275
 21
11.2
 31
0
  0
LINE
  8
0
 62
7
  6
DASHDOT
 10
0.9500000000000001
 20
11.05
 30
0
 11
0.9500000000000001
 21
11.15
 31
0
  0
LINE
  8
0
 62
7
  6
DASHDOT
 10
0.9500000000000001
 20
10.85
 30
0
 11
0.9500000000000001
 21
11.05
 31
0
  0
LINE
  8
0
 62
7
  6
DASHDOT
 10
1.275
 20
7.949999999999996
 30
0
 11
1.325
 21
7.949999999999996
 31
0
  0
LINE
  8
0
 62
7
  6
DASHDOT
 10
1.1
 20
7.949999999999996
 30
0
 11
1.275
 21
7.949999999999996
 31
0
  0
LINE
  8
0
 62
7
  6
DASHDOT
 10
0.9500000000000001
 20
8.299999999999997
 30
0
 11
0.9500000000000001
 21
8.399999999999997
 31
0
  0
LINE
  8
0
 62
7
  6
DASHDOT
 10
0.9500000000000001
 20
8.099999999999996
 30
0
 11
0.9500000000000001
 21
8.299999999999997
 31
0
  0
LINE
  8
0
 62
7
  6
DASHDOT
 10
3.709999999999996
 20
7.949999999999996
 30
0
 11
3.759999999999995
 21
7.949999999999996
 31
0
  0
LINE
  8
0
 62
7
  6
DASHDOT
 10
3.534999999999995
 20
7.949999999999996
 30
0
 11
3.709999999999996
 21
7.949999999999996
 31
0
  0
LINE
  8
0
 62
7
  6
DASHDOT
 10
3.859999999999995
 20
8.299999999999997
 30
0
 11
3.859999999999995
 21
8.399999999999997
 31
0
  0
LINE
  8
0
 62
7
  6
DASHDOT
 10
3.859999999999995
 20
8.099999999999996
 30
0
 11
3.859999999999995
 21
8.299999999999997
 31
0
  0
LINE
  8
0
 62
7
  6
DASHDOT
 10
3.859999999999995
 20
11.15
 30
0
 11
3.859999999999995
 21
11.2
 31
0
  0
LINE
  8
0
 62
7
 10
3.709999999999996
 20
11.15
 30
0
 11
3.709999999999996
 21
11.2
 31
0
  0
LINE
  8
0
 62
7
 10
3.709999999999996
 20
11.15
 30
0
 11
3.859999999999995
 21
11.15
 31
0
  0
LINE
  8
0
 62
7
 10
3.534999999999995
 20
11.15
 30
0
 11
3.534999999999995
 21
11.2
 31
0
  0
LINE
  8
0
 62
7
 10
1.275
 20
11.15
 30
0
 11
1.275
 21
11.2
 31
0
  0
LINE
  8
0
 62
7
 10
1.275
 20
11.15
 30
0
 11
3.534999999999995
 21
11.15
 31
0
  0
LINE
  8
0
 62
7
  6
DASHDOT
 10
0.9500000000000001
 20
11.15
 30
0
 11
0.9500000000000001
 21
11.2
 31
0
  0
LINE
  8
0
 62
7
 10
1.1
 20
11.15
 30
0
 11
1.1
 21
11.2
 31
0
  0
LINE
  8
0
 62
7
 10
0.9500000000000001
 20
11.15
 30
0
 11
1.1
 21
11.15
 31
0
  0
LINE
  8
0
 62
7
  6
DASHDOT
 10
3.859999999999995
 20
8.399999999999997
 30
0
 11
3.859999999999995
 21
8.449999999999998
 31
0
  0
LINE
  8
0
 62
7
 10
3.709999999999996
 20
8.399999999999997
 30
0
 11
3.709999999999996
 21
10.85
 31
0
  0
LINE
  8
0
 62
7
 10
3.709999999999996
 20
8.399999999999997
 30
0
 11
3.859999999999995
 21
8.399999999999997
 31
0
  0
LINE
  8
0
 62
7
 10
3.534999999999995
 20
8.399999999999997
 30
0
 11
3.534999999999995
 21
10.85
 31
0
  0
LINE
  8
0
 62
7
 10
1.275
 20
8.399999999999997
 30
0
 11
1.275
 21
10.85
 31
0
  0
LINE
  8
0
 62
7
 10
1.275
 20
8.399999999999997
 30
0
 11
3.534999999999995
 21
8.399999999999997
 31
0
  0
LINE
  8
0
 62
7
  6
DASHDOT
 10
0.9500000000000001
 20
8.399999999999997
 30
0
 11
0.9500000000000001
 21
8.449999999999998
 31
0
  0
LINE
  8
0
 62
7
 10
1.1
 20
8.399999999999997
 30
0
 11
1.1
 21
10.85
 31
0
  0
LINE
  8
0
 62
7
 10
0.9500000000000001
 20
8.399999999999997
 30
0
 11
1.1
 21
8.399999999999997
 31
0
  0
LINE
  8
0
 62
7
  6
DASHDOT
 10
3.484999999999995
 20
7.949999999999996
 30
0
 11
3.534999999999995
 21
7.949999999999996
 31
0
  0
LINE
  8
0
 62
7
  6
DASHDOT
 10
3.484999999999995
 20
11.2
 30
0
 11
3.534999999999995
 21
11.2
 31
0
  0
LINE
  8
0
 62
7
  6
DASHDOT
 10
1.05
 20
7.949999999999996
 30
0
 11
1.1
 21
7.949999999999996
 31
0
  0
LINE
  8
0
 62
7
  6
DASHDOT
 10
1.05
 20
11.2
 30
0
 11
1.1
 21
11.2
 31
0
  0
LINE
  8
0
 62
7
  6
DASHDOT
 10
3.859999999999995
 20
10.8
 30
0
 11
3.859999999999995
 21
10.85
 31
0
  0
LINE
  8
0
 62
7
  6
DASHDOT
 10
3.859999999999995
 20
8.049999999999995
 30
0
 11
3.859999999999995
 21
8.099999999999996
 31
0
  0
LINE
  8
0
 62
7
  6
DASHDOT
 10
0.9500000000000001
 20
10.8
 30
0
 11
0.9500000000000001
 21
10.85
 31
0
  0
LINE
  8
0
 62
7
  6
DASHDOT
 10
0.9500000000000001
 20
8.049999999999995
 30
0
 11
0.9500000000000001
 21
8.099999999999996
 31
0
  0
LINE
  8
0
 62
7
 10
3.709999999999996
 20
11.05
 30
0
 11
3.859999999999995
 21
11.05
 31
0
  0
LINE
  8
0
 62
7
 10
3.709999999999996
 20
11.05
 30
0
 11
3.709999999999996
 21
11.15
 31
0
  0
LINE
  8
0
 62
7
 10
3.709999999999996
 20
10.85
 30
0
 11
3.859999999999995
 21
10.85
 31
0
  0
LINE
  8
0
 62
7
 10
3.709999999999996
 20
8.299999999999997
 30
0
 11
3.859999999999995
 21
8.299999999999997
 31
0
  0
LINE
  8
0
 62
7
 10
3.709999999999996
 20
8.299999999999997
 30
0
 11
3.709999999999996
 21
8.399999999999997
 31
0
  0
LINE
  8
0
 62
7
 10
3.709999999999996
 20
8.099999999999996
 30
0
 11
3.859999999999995
 21
8.099999999999996
 31
0
  0
LINE
  8
0
 62
7
 10
3.709999999999996
 20
7.949999999999996
 30
0
 11
3.709999999999996
 21
8.099999999999996
 31
0
  0
LINE
  8
0
 62
7
 10
3.534999999999995
 20
11.05
 30
0
 11
3.709999999999996
 21
11.05
 31
0
  0
LINE
  8
0
 62
7
 10
3.534999999999995
 20
11.05
 30
0
 11
3.534999999999995
 21
11.15
 31
0
  0
LINE
  8
0
 62
7
 10
3.534999999999995
 20
10.85
 30
0
 11
3.709999999999996
 21
10.85
 31
0
  0
LINE
  8
0
 62
7
 10
3.534999999999995
 20
8.299999999999997
 30
0
 11
3.709999999999996
 21
8.299999999999997
 31
0
  0
LINE
  8
0
 62
7
 10
3.534999999999995
 20
8.299999999999997
 30
0
 11
3.534999999999995
 21
8.399999999999997
 31
0
  0
LINE
  8
0
 62
7
 10
3.534999999999995
 20
8.099999999999996
 30
0
 11
3.709999999999996
 21
8.099999999999996
 31
0
  0
LINE
  8
0
 62
7
 10
3.534999999999995
 20
7.949999999999996
 30
0
 11
3.534999999999995
 21
8.099999999999996
 31
0
  0
LINE
  8
0
 62
7
 10
1.275
 20
11.05
 30
0
 11
3.534999999999995
 21
11.05
 31
0
  0
LINE
  8
0
 62
7
 10
1.275
 20
11.05
 30
0
 11
1.275
 21
11.15
 31
0
  0
LINE
  8
0
 62
7
 10
1.275
 20
10.85
 30
0
 11
3.534999999999995
 21
10.85
 31
0
  0
LINE
  8
0
 62
7
 10
1.275
 20
8.299999999999997
 30
0
 11
3.534999999999995
 21
8.299999999999997
 31
0
  0
LINE
  8
0
 62
7
 10
1.275
 20
8.299999999999997
 30
0
 11
1.275
 21
8.399999999999997
 31
0
  0
LINE
  8
0
 62
7
 10
1.275
 20
8.099999999999996
 30
0
 11
3.534999999999995
 21
8.099999999999996
 31
0
  0
LINE
  8
0
 62
7
 10
1.275
 20
7.949999999999996
 30
0
 11
1.275
 21
8.099999999999996
 31
0
  0
LINE
  8
0
 62
7
 10
1.1
 20
11.05
 30
0
 11
1.275
 21
11.05
 31
0
  0
LINE
  8
0
 62
7
 10
1.1
 20
11.05
 30
0
 11
1.1
 21
11.15
 31
0
  0
LINE
  8
0
 62
7
 10
1.1
 20
10.85
 30
0
 11
1.275
 21
10.85
 31
0
  0
LINE
  8
0
 62
7
 10
1.1
 20
8.299999999999997
 30
0
 11
1.275
 21
8.299999999999997
 31
0
  0
LINE
  8
0
 62
7
 10
1.1
 20
8.299999999999997
 30
0
 11
1.1
 21
8.399999999999997
 31
0
  0
LINE
  8
0
 62
7
 10
1.1
 20
8.099999999999996
 30
0
 11
1.275
 21
8.099999999999996
 31
0
  0
LINE
  8
0
 62
7
 10
1.1
 20
7.949999999999996
 30
0
 11
1.1
 21
8.099999999999996
 31
0
  0
LINE
  8
0
 62
7
 10
0.9500000000000001
 20
11.05
 30
0
 11
1.1
 21
11.05
 31
0
  0
LINE
  8
0
 62
7
 10
0.9500000000000001
 20
10.85
 30
0
 11
1.1
 21
10.85
 31
0
  0
LINE
  8
0
 62
7
 10
0.9500000000000001
 20
8.299999999999997
 30
0
 11
1.1
 21
8.299999999999997
 31
0
  0
LINE
  8
0
 62
7
 10
0.9500000000000001
 20
8.099999999999996
 30
0
 11
1.1
 21
8.099999999999996
 31
0
  0
LINE
  8
0
 62
7
 10
2.239999999999997
 20
3.622029560444301
 30
0
 11
2.239999999999997
 21
3.830607590321932
 31
0
  0
LINE
  8
0
 62
7
 10
2.239999999999997
 20
3.830607590321932
 30
0
 11
2.278584374948001
 21
3.885000000000001
 31
0
  0
LINE
  8
0
 62
7
 10
2.393940323298366
 20
3.885000000000001
 30
0
 11
2.399326518699036
 21
3.885000000000001
 31
0
  0
LINE
  8
0
 62
7
 10
2.309106311968484
 20
3.885000000000001
 30
0
 11
2.399326518699036
 21
3.885000000000001
 31
0
  0
LINE
  8
0
 62
7
 10
2.278584374948001
 20
3.885000000000001
 30
0
 11
2.399326518699036
 21
3.885000000000001
 31
0
  0
LINE
  8
0
 62
7
 10
2.399326518699036
 20
3.885000000000001
 30
0
 11
2.53133626488056
 21
3.885000000000001
 31
0
  0
LINE
  8
0
 62
7
 10
2.53133626488056
 20
3.885000000000001
 30
0
 11
2.569999999999998
 21
3.844810064810061
 31
0
  0
LINE
  8
0
 62
7
 10
2.569999999999998
 20
3.756019376231671
 30
0
 11
2.569999999999998
 21
3.651642797942152
 31
0
  0
LINE
  8
0
 62
7
 10
2.569999999999998
 20
3.844810064810061
 30
0
 11
2.569999999999998
 21
3.651642797942152
 31
0
  0
LINE
  8
0
 62
7
 10
2.569999999999998
 20
3.250000000000001
 30
0
 11
3.479999999999995
 21
3.250000000000001
 31
0
  0
LINE
  8
0
 62
7
 10
2.569999999999998
 20
3.524106012484053
 30
0
 11
2.569999999999998
 21
3.250000000000001
 31
0
  0
LINE
  8
0
 62
7
 10
3.479999999999995
 20
3.250000000000001
 30
0
 11
3.479999999999995
 21
3.60938243859246
 31
0
  0
LINE
  8
0
 62
7
 10
2.569999999999998
 20
3.43371170285541
 30
0
 11
3.479999999999995
 21
3.518988128963813
 31
0
  0
LINE
  8
0
 62
7
 10
2.569999999999998
 20
3.639156740938062
 30
0
 11
2.569999999999998
 21
3.43371170285541
 31
0
  0
LINE
  8
0
 62
7
 10
3.479999999999995
 20
3.518988128963813
 30
0
 11
3.479999999999995
 21
3.944565338437331
 31
0
  0
LINE
  8
0
 62
7
 10
2.569999999999998
 20
3.544223306994722
 30
0
 11
3.479999999999995
 21
3.849631904494001
 31
0
  0
LINE
  8
0
 62
7
 10
2.569999999999998
 20
3.651642797942152
 30
0
 11
2.569999999999998
 21
3.544223306994722
 31
0
  0
LINE
  8
0
 62
7
 10
3.479999999999995
 20
3.849631904494001
 30
0
 11
3.479999999999995
 21
4.290520491963982
 31
0
  0
LINE
  8
0
 62
7
 10
2.569999999999998
 20
3.651642797942152
 30
0
 11
3.479999999999995
 21
4.186143913674463
 31
0
  0
LINE
  8
0
 62
7
 10
3.479999999999995
 20
4.186143913674463
 30
0
 11
3.479999999999995
 21
4.78231421837508
 31
0
  0
LINE
  8
0
 62
7
 10
2.620303000500285
 20
3.79252141955318
 30
0
 11
3.479999999999995
 21
4.654840731623482
 31
0
  0
LINE
  8
0
 62
7
 10
2.569999999999998
 20
3.844810064810061
 30
0
 11
2.620303000500285
 21
3.79252141955318
 31
0
  0
LINE
  8
0
 62
7
 10
3.479999999999995
 20
4.795000000000003
 30
0
 11
2.983061676678615
 21
4.795000000000003
 31
0
  0
LINE
  8
0
 62
7
 10
3.479999999999995
 20
4.654840731623482
 30
0
 11
3.479999999999995
 21
4.795000000000003
 31
0
  0
LINE
  8
0
 62
7
 10
2.574048265297386
 20
3.885000000000001
 30
0
 11
3.086343324175896
 21
4.795000000000003
 31
0
  0
LINE
  8
0
 62
7
 10
2.53133626488056
 20
3.885000000000001
 30
0
 11
2.574048265297386
 21
3.885000000000001
 31
0
  0
LINE
  8
0
 62
7
 10
3.086343324175896
 20
4.795000000000003
 30
0
 11
2.594346199484906
 21
4.795000000000003
 31
0
  0
LINE
  8
0
 62
7
 10
2.486096965626947
 20
3.885000000000001
 30
0
 11
2.686502841813477
 21
4.795000000000003
 31
0
  0
LINE
  8
0
 62
7
 10
2.399326518699036
 20
3.885000000000001
 30
0
 11
2.486096965626947
 21
3.885000000000001
 31
0
  0
LINE
  8
0
 62
7
 10
2.686502841813477
 20
4.795000000000003
 30
0
 11
2.245409760670236
 21
4.795000000000003
 31
0
  0
LINE
  8
0
 62
7
 10
2.399326518699036
 20
3.885000000000001
 30
0
 11
2.335629967400797
 21
4.795000000000003
 31
0
  0
LINE
  8
0
 62
7
 10
2.335629967400797
 20
4.795000000000003
 30
0
 11
1.877177455529227
 21
4.795000000000003
 31
0
  0
LINE
  8
0
 62
7
 10
2.304098090071326
 20
3.920966694996812
 30
0
 11
1.973403909562327
 21
4.795000000000003
 31
0
  0
LINE
  8
0
 62
7
 10
2.278584374948001
 20
3.885000000000001
 30
0
 11
2.304098090071326
 21
3.920966694996812
 31
0
  0
LINE
  8
0
 62
7
 10
1.973403909562327
 20
4.795000000000003
 30
0
 11
1.43372573349164
 21
4.795000000000003
 31
0
  0
LINE
  8
0
 62
7
 10
2.239999999999997
 20
3.838416320783711
 30
0
 11
1.544973393410346
 21
4.795000000000003
 31
0
  0
LINE
  8
0
 62
7
 10
2.239999999999997
 20
3.830607590321932
 30
0
 11
2.239999999999997
 21
3.838416320783711
 31
0
  0
LINE
  8
0
 62
7
 10
1.33
 20
4.795000000000003
 30
0
 11
1.33
 21
4.326072702359872
 31
0
  0
LINE
  8
0
 62
7
 10
1.544973393410346
 20
4.795000000000003
 30
0
 11
1.33
 21
4.795000000000003
 31
0
  0
LINE
  8
0
 62
7
 10
2.239999999999997
 20
3.735820711610813
 30
0
 11
1.33
 21
4.43986385352638
 31
0
  0
LINE
  8
0
 62
7
 10
2.239999999999997
 20
3.526683876632771
 30
0
 11
2.239999999999997
 21
3.735820711610813
 31
0
  0
LINE
  8
0
 62
7
 10
1.33
 20
4.43986385352638
 30
0
 11
1.33
 21
3.956012246907183
 31
0
  0
LINE
  8
0
 62
7
 10
2.239999999999997
 20
3.626197396136911
 30
0
 11
1.33
 21
4.055525766411322
 31
0
  0
LINE
  8
0
 62
7
 10
2.239999999999997
 20
3.423976870849062
 30
0
 11
2.239999999999997
 21
3.626197396136911
 31
0
  0
LINE
  8
0
 62
7
 10
1.33
 20
4.055525766411322
 30
0
 11
1.33
 21
3.632042608255472
 31
0
  0
LINE
  8
0
 62
7
 10
2.239999999999997
 20
3.516299409841961
 30
0
 11
1.33
 21
3.724365147248374
 31
0
  0
LINE
  8
0
 62
7
 10
2.239999999999997
 20
3.390000000000001
 30
0
 11
2.239999999999997
 21
3.516299409841961
 31
0
  0
LINE
  8
0
 62
7
 10
1.33
 20
3.724365147248374
 30
0
 11
1.33
 21
3.390000000000001
 31
0
  0
LINE
  8
0
 62
7
 10
3.063950700373326
 20
3.885000000022341
 30
0
 11
3.063950700373326
 21
3.250000000000001
 31
0
  0
LINE
  8
0
 62
7
 10
2.239999999992815
 20
4.378950700373333
 30
0
 11
2.569999999990605
 21
4.378950700373333
 31
0
  0
LINE
  8
0
 62
7
 10
1.851704398888376
 20
3.461000000000001
 30
0
 11
1.746049299626675
 21
3.400000000000001
 31
0
  0
LINE
  8
0
 62
7
 10
1.640394200364975
 20
3.461000000000001
 30
0
 11
1.851704398888376
 21
3.461000000000001
 31
0
  0
LINE
  8
0
 62
7
 10
1.746049299626675
 20
3.400000000000001
 30
0
 11
1.640394200364975
 21
3.461000000000001
 31
0
  0
LINE
  8
0
 62
7
 10
1.746049299626675
 20
3.400000000000001
 30
0
 11
1.746049299626675
 21
3.884999999990612
 31
0
  0
LINE
  8
0
 62
7
 10
2.569999999999998
 20
8.596800069999997
 30
0
 11
3.480000649999997
 21
8.596800069999997
 31
0
  0
LINE
  8
0
 62
7
 10
3.480000649999997
 20
8.596800069999997
 30
0
 11
3.480000649999997
 21
8.531800069999996
 31
0
  0
LINE
  8
0
 62
7
 10
2.569999999999998
 20
8.531800069999996
 30
0
 11
2.569999999999998
 21
8.596800069999997
 31
0
  0
LINE
  8
0
 62
7
 10
3.480000649999997
 20
8.531800069999996
 30
0
 11
2.569999999999998
 21
8.531800069999996
 31
0
  0
LINE
  8
0
 62
7
 10
2.570000069999996
 20
8.793200059999995
 30
0
 11
3.480000059999997
 21
8.793200059999995
 31
0
  0
LINE
  8
0
 62
7
 10
3.480000059999997
 20
8.793200059999995
 30
0
 11
3.480000059999997
 21
8.728200059999997
 31
0
  0
LINE
  8
0
 62
7
 10
2.570000069999996
 20
8.728200059999997
 30
0
 11
2.570000069999996
 21
8.793200059999995
 31
0
  0
LINE
  8
0
 62
7
 10
3.480000059999997
 20
8.728200059999997
 30
0
 11
2.570000069999996
 21
8.728200059999997
 31
0
  0
LINE
  8
0
 62
7
 10
2.569999999999998
 20
8.989600059999995
 30
0
 11
3.480000009999995
 21
8.989600059999995
 31
0
  0
LINE
  8
0
 62
7
 10
3.480000009999995
 20
8.989600059999995
 30
0
 11
3.480000009999995
 21
8.924600059999996
 31
0
  0
LINE
  8
0
 62
7
 10
2.569999999999998
 20
8.924600059999996
 30
0
 11
2.569999999999998
 21
8.989600059999995
 31
0
  0
LINE
  8
0
 62
7
 10
3.480000009999995
 20
8.924600059999996
 30
0
 11
2.569999999999998
 21
8.924600059999996
 31
0
  0
LINE
  8
0
 62
7
 10
2.570000069999996
 20
9.186000049999995
 30
0
 11
3.479999949999996
 21
9.186000049999995
 31
0
  0
LINE
  8
0
 62
7
 10
3.479999949999996
 20
9.186000049999995
 30
0
 11
3.479999949999996
 21
9.121000049999996
 31
0
  0
LINE
  8
0
 62
7
 10
2.570000069999996
 20
9.121000049999996
 30
0
 11
2.570000069999996
 21
9.186000049999995
 31
0
  0
LINE
  8
0
 62
7
 10
3.479999949999996
 20
9.121000049999996
 30
0
 11
2.570000069999996
 21
9.121000049999996
 31
0
  0
LINE
  8
0
 62
7
 10
3.480000029999996
 20
9.317400049999994
 30
0
 11
2.493126289999998
 21
9.317400049999994
 31
0
  0
LINE
  8
0
 62
7
 10
2.493126289999998
 20
9.382400049999996
 30
0
 11
3.480000029999996
 21
9.382400049999996
 31
0
  0
LINE
  8
0
 62
7
 10
3.480000029999996
 20
9.382400049999996
 30
0
 11
3.480000029999996
 21
9.317400049999994
 31
0
  0
LINE
  8
0
 62
7
 10
2.493126289999998
 20
9.317400049999994
 30
0
 11
2.493126289999998
 21
9.382400049999996
 31
0
  0
LINE
  8
0
 62
7
 10
3.086342729999997
 20
9.513800039999998
 30
0
 11
2.393940349999997
 21
9.513800039999998
 31
0
  0
LINE
  8
0
 62
7
 10
2.393940349999997
 20
9.578800039999997
 30
0
 11
3.086342729999997
 21
9.578800039999997
 31
0
  0
LINE
  8
0
 62
7
 10
3.086342729999997
 20
9.578800039999997
 30
0
 11
3.086342729999997
 21
9.513800039999998
 31
0
  0
LINE
  8
0
 62
7
 10
2.393940349999997
 20
9.513800039999998
 30
0
 11
2.393940349999997
 21
9.578800039999997
 31
0
  0
LINE
  8
0
 62
7
 10
2.686502679999996
 20
9.710200029999998
 30
0
 11
2.245410149999996
 21
9.710200029999998
 31
0
  0
LINE
  8
0
 62
7
 10
2.245410149999996
 20
9.775200029999997
 30
0
 11
2.686502679999996
 21
9.775200029999997
 31
0
  0
LINE
  8
0
 62
7
 10
2.686502679999996
 20
9.775200029999997
 30
0
 11
2.686502679999996
 21
9.710200029999998
 31
0
  0
LINE
  8
0
 62
7
 10
2.245410149999996
 20
9.710200029999998
 30
0
 11
2.245410149999996
 21
9.775200029999997
 31
0
  0
LINE
  8
0
 62
7
 10
2.399326169999997
 20
9.906600029999996
 30
0
 11
1.877177729999996
 21
9.906600029999996
 31
0
  0
LINE
  8
0
 62
7
 10
1.877177729999996
 20
9.971600029999998
 30
0
 11
2.399326169999997
 21
9.971600029999998
 31
0
  0
LINE
  8
0
 62
7
 10
2.399326169999997
 20
9.971600029999998
 30
0
 11
2.399326169999997
 21
9.906600029999996
 31
0
  0
LINE
  8
0
 62
7
 10
1.877177729999996
 20
9.906600029999996
 30
0
 11
1.877177729999996
 21
9.971600029999998
 31
0
  0
LINE
  8
0
 62
7
 10
2.304097969999997
 20
10.10300002
 30
0
 11
1.43372558
 21
10.10300002
 31
0
  0
LINE
  8
0
 62
7
 10
1.43372558
 20
10.16800002
 30
0
 11
2.304097969999997
 21
10.16800002
 31
0
  0
LINE
  8
0
 62
7
 10
2.304097969999997
 20
10.16800002
 30
0
 11
2.304097969999997
 21
10.10300002
 31
0
  0
LINE
  8
0
 62
7
 10
1.43372558
 20
10.10300002
 30
0
 11
1.43372558
 21
10.16800002
 31
0
  0
LINE
  8
0
 62
7
 10
1.33
 20
10.36440002
 30
0
 11
2.240000149999996
 21
10.36440002
 31
0
  0
LINE
  8
0
 62
7
 10
2.240000149999996
 20
10.29940002
 30
0
 11
1.33
 21
10.29940002
 31
0
  0
LINE
  8
0
 62
7
 10
2.240000149999996
 20
10.36440002
 30
0
 11
2.240000149999996
 21
10.29940002
 31
0
  0
LINE
  8
0
 62
7
 10
1.33
 20
10.29940002
 30
0
 11
1.33
 21
10.36440002
 31
0
  0
LINE
  8
0
 62
7
 10
1.33
 20
10.56080001
 30
0
 11
2.240000149999996
 21
10.56080001
 31
0
  0
LINE
  8
0
 62
7
 10
2.240000149999996
 20
10.56080001
 30
0
 11
2.240000149999996
 21
10.49580001
 31
0
  0
LINE
  8
0
 62
7
 10
1.33
 20
10.49580001
 30
0
 11
1.33
 21
10.56080001
 31
0
  0
LINE
  8
0
 62
7
 10
2.240000149999996
 20
10.49580001
 30
0
 11
1.33
 21
10.49580001
 31
0
  0
LINE
  8
0
 62
7
 10
1.32999984
 20
10.7572
 30
0
 11
2.239999999999997
 21
10.7572
 31
0
  0
LINE
  8
0
 62
7
 10
2.239999999999997
 20
10.7572
 30
0
 11
2.239999999999997
 21
10.6922
 31
0
  0
LINE
  8
0
 62
7
 10
1.32999984
 20
10.6922
 30
0
 11
1.32999984
 21
10.7572
 31
0
  0
LINE
  8
0
 62
7
 10
2.239999999999997
 20
10.6922
 30
0
 11
1.32999984
 21
10.6922
 31
0
  0
LINE
  8
0
 62
7
  6
DASHED
 10
1.33
 20
10.9536
 30
0
 11
2.240000149999996
 21
10.9536
 31
0
  0
LINE
  8
0
 62
7
  6
DASHED
 10
2.240000149999996
 20
10.9536
 30
0
 11
2.240000149999996
 21
10.8886
 31
0
  0
LINE
  8
0
 62
7
  6
DASHED
 10
1.33
 20
10.8886
 30
0
 11
1.33
 21
10.9536
 31
0
  0
LINE
  8
0
 62
7
  6
DASHED
 10
2.240000149999996
 20
10.8886
 30
0
 11
1.33
 21
10.8886
 31
0
  0
LINE
  8
0
 62
7
 10
6.359999669999994
 20
8.596800069999997
 30
0
 11
6.719382019999994
 21
8.596800069999997
 31
0
  0
LINE
  8
0
 62
7
 10
6.719382019999994
 20
8.531800069999996
 30
0
 11
6.359999669999994
 21
8.531800069999996
 31
0
  0
LINE
  8
0
 62
7
 10
6.359999669999994
 20
8.531800069999996
 30
0
 11
6.359999669999994
 21
8.596800069999997
 31
0
  0
LINE
  8
0
 62
7
 10
6.719382019999994
 20
8.596800069999997
 30
0
 11
6.719382019999994
 21
8.531800069999996
 31
0
  0
LINE
  8
0
 62
7
 10
7.054564969999994
 20
8.728200059999997
 30
0
 11
6.543711319999993
 21
8.728200059999997
 31
0
  0
LINE
  8
0
 62
7
 10
6.543711319999993
 20
8.793200059999995
 30
0
 11
7.054564969999994
 21
8.793200059999995
 31
0
  0
LINE
  8
0
 62
7
 10
6.543711319999993
 20
8.728200059999997
 30
0
 11
6.543711319999993
 21
8.793200059999995
 31
0
  0
LINE
  8
0
 62
7
 10
7.054564969999994
 20
8.793200059999995
 30
0
 11
7.054564969999994
 21
8.728200059999997
 31
0
  0
LINE
  8
0
 62
7
 10
7.400520089999993
 20
8.924600059999996
 30
0
 11
6.654222909999994
 21
8.924600059999996
 31
0
  0
LINE
  8
0
 62
7
 10
6.654222909999994
 20
8.989600059999995
 30
0
 11
7.400520089999993
 21
8.989600059999995
 31
0
  0
LINE
  8
0
 62
7
 10
6.654222909999994
 20
8.924600059999996
 30
0
 11
6.654222909999994
 21
8.989600059999995
 31
0
  0
LINE
  8
0
 62
7
 10
7.400520089999993
 20
8.989600059999995
 30
0
 11
7.400520089999993
 21
8.924600059999996
 31
0
  0
LINE
  8
0
 62
7
 10
7.892313989999995
 20
9.121000049999996
 30
0
 11
6.761642379999994
 21
9.121000049999996
 31
0
  0
LINE
  8
0
 62
7
 10
6.761642379999994
 20
9.186000049999995
 30
0
 11
7.892313989999995
 21
9.186000049999995
 31
0
  0
LINE
  8
0
 62
7
 10
6.761642379999994
 20
9.121000049999996
 30
0
 11
6.761642379999994
 21
9.186000049999995
 31
0
  0
LINE
  8
0
 62
7
 10
7.892313989999995
 20
9.186000049999995
 30
0
 11
7.892313989999995
 21
9.121000049999996
 31
0
  0
LINE
  8
0
 62
7
 10
7.904999539999991
 20
9.317400049999994
 30
0
 11
6.902521059999995
 21
9.317400049999994
 31
0
  0
LINE
  8
0
 62
7
 10
6.902521059999995
 20
9.382400049999996
 30
0
 11
7.904999539999991
 21
9.382400049999996
 31
0
  0
LINE
  8
0
 62
7
 10
6.902521059999995
 20
9.317400049999994
 30
0
 11
6.902521059999995
 21
9.382400049999996
 31
0
  0
LINE
  8
0
 62
7
 10
7.904999539999991
 20
9.382400049999996
 30
0
 11
7.904999539999991
 21
9.317400049999994
 31
0
  0
LINE
  8
0
 62
7
 10
6.994999619999994
 20
9.578800039999996
 30
0
 11
7.904999689999996
 21
9.578800039999996
 31
0
  0
LINE
  8
0
 62
7
 10
6.994999619999994
 20
9.513800039999996
 30
0
 11
6.994999619999994
 21
9.578800039999996
 31
0
  0
LINE
  8
0
 62
7
 10
7.904999689999996
 20
9.578800039999996
 30
0
 11
7.904999689999996
 21
9.513800039999996
 31
0
  0
LINE
  8
0
 62
7
 10
7.904999689999996
 20
9.513800039999996
 30
0
 11
6.994999619999994
 21
9.513800039999996
 31
0
  0
LINE
  8
0
 62
7
 10
6.994999619999994
 20
9.775200029999995
 30
0
 11
7.904999689999996
 21
9.775200029999995
 31
0
  0
LINE
  8
0
 62
7
 10
6.994999619999994
 20
9.710200029999996
 30
0
 11
6.994999619999994
 21
9.775200029999995
 31
0
  0
LINE
  8
0
 62
7
 10
7.904999689999996
 20
9.775200029999995
 30
0
 11
7.904999689999996
 21
9.710200029999996
 31
0
  0
LINE
  8
0
 62
7
 10
7.904999689999996
 20
9.710200029999996
 30
0
 11
6.994999619999994
 21
9.710200029999996
 31
0
  0
LINE
  8
0
 62
7
 10
6.994999619999994
 20
9.971600029999996
 30
0
 11
7.904999999999996
 21
9.971600029999996
 31
0
  0
LINE
  8
0
 62
7
 10
6.994999619999994
 20
9.906600029999995
 30
0
 11
6.994999619999994
 21
9.971600029999996
 31
0
  0
LINE
  8
0
 62
7
 10
7.904999999999996
 20
9.971600029999996
 30
0
 11
7.904999999999996
 21
9.906600029999995
 31
0
  0
LINE
  8
0
 62
7
 10
7.904999999999996
 20
9.906600029999995
 30
0
 11
6.994999619999994
 21
9.906600029999995
 31
0
  0
LINE
  8
0
 62
7
 10
6.867084579999994
 20
10.16800002
 30
0
 11
7.904999689999996
 21
10.16800002
 31
0
  0
LINE
  8
0
 62
7
 10
7.904999689999996
 20
10.10300001999999
 30
0
 11
6.867084579999994
 21
10.10300001999999
 31
0
  0
LINE
  8
0
 62
7
 10
6.867084579999994
 20
10.10300001999999
 30
0
 11
6.867084579999994
 21
10.16800002
 31
0
  0
LINE
  8
0
 62
7
 10
7.904999689999996
 20
10.16800002
 30
0
 11
7.904999689999996
 21
10.10300001999999
 31
0
  0
LINE
  8
0
 62
7
 10
7.904999539999991
 20
10.29940002
 30
0
 11
6.732029189999993
 21
10.29940002
 31
0
  0
LINE
  8
0
 62
7
 10
6.732029189999993
 20
10.36440002
 30
0
 11
7.904999539999991
 21
10.36440002
 31
0
  0
LINE
  8
0
 62
7
 10
6.732029189999993
 20
10.29940002
 30
0
 11
6.732029189999993
 21
10.36440002
 31
0
  0
LINE
  8
0
 62
7
 10
7.904999539999991
 20
10.36440002
 30
0
 11
7.904999539999991
 21
10.29940002
 31
0
  0
LINE
  8
0
 62
7
 10
7.549863429999992
 20
10.49580001
 30
0
 11
6.636683539999995
 21
10.49580001
 31
0
  0
LINE
  8
0
 62
7
 10
6.636683539999995
 20
10.56080001
 30
0
 11
7.549863429999992
 21
10.56080001
 31
0
  0
LINE
  8
0
 62
7
 10
6.636683539999995
 20
10.49580001
 30
0
 11
6.636683539999995
 21
10.56080001
 31
0
  0
LINE
  8
0
 62
7
 10
7.549863429999992
 20
10.56080001
 30
0
 11
7.549863429999992
 21
10.49580001
 31
0
  0
LINE
  8
0
 62
7
 10
7.165525129999994
 20
10.6922
 30
0
 11
6.533976629999994
 21
10.6922
 31
0
  0
LINE
  8
0
 62
7
 10
6.533976629999994
 20
10.7572
 30
0
 11
7.165525129999994
 21
10.7572
 31
0
  0
LINE
  8
0
 62
7
 10
6.533976629999994
 20
10.6922
 30
0
 11
6.533976629999994
 21
10.7572
 31
0
  0
LINE
  8
0
 62
7
 10
7.165525129999994
 20
10.7572
 30
0
 11
7.165525129999994
 21
10.6922
 31
0
  0
LINE
  8
0
 62
7
 10
6.499999539999992
 20
10.95359999999999
 30
0
 11
6.834364849999993
 21
10.95359999999999
 31
0
  0
LINE
  8
0
 62
7
 10
6.834364849999993
 20
10.88859999999999
 30
0
 11
6.499999539999992
 21
10.88859999999999
 31
0
  0
LINE
  8
0
 62
7
 10
6.499999539999992
 20
10.88859999999999
 30
0
 11
6.499999539999992
 21
10.95359999999999
 31
0
  0
LINE
  8
0
 62
7
 10
6.834364849999993
 20
10.95359999999999
 30
0
 11
6.834364849999993
 21
10.88859999999999
 31
0
  0
LINE
  8
0
 62
7
 10
1.57431659385113
 20
4.545752491909391
 30
0
 11
1.57431659385113
 21
4.66575249190939
 31
0
  0
LINE
  8
0
 62
7
 10
1.64991659385113
 20
4.66575249190939
 30
0
 11
1.59591659385113
 21
4.60575249190939
 31
0
  0
LINE
  8
0
 62
7
 10
1.59591659385113
 20
4.60575249190939
 30
0
 11
1.64991659385113
 21
4.545752491909391
 31
0
  0
LINE
  8
0
 62
7
 10
1.59591659385113
 20
4.60575249190939
 30
0
 11
1.57431659385113
 21
4.58175249190939
 31
0
  0
LINE
  8
0
 62
7
 10
1.75791659385113
 20
4.66575249190939
 30
0
 11
1.68231659385113
 21
4.66575249190939
 31
0
  0
LINE
  8
0
 62
7
 10
1.68231659385113
 20
4.66575249190939
 30
0
 11
1.68231659385113
 21
4.60575249190939
 31
0
  0
LINE
  8
0
 62
7
 10
1.68231659385113
 20
4.545752491909391
 30
0
 11
1.75791659385113
 21
4.545752491909391
 31
0
  0
LINE
  8
0
 62
7
 10
1.74711659385113
 20
4.60575249190939
 30
0
 11
1.68231659385113
 21
4.60575249190939
 31
0
  0
LINE
  8
0
 62
7
 10
1.68231659385113
 20
4.60575249190939
 30
0
 11
1.68231659385113
 21
4.545752491909391
 31
0
  0
LINE
  8
0
 62
7
 10
1.79031659385113
 20
4.545752491909391
 30
0
 11
1.79031659385113
 21
4.66575249190939
 31
0
  0
LINE
  8
0
 62
7
 10
1.79031659385113
 20
4.66575249190939
 30
0
 11
1.86591659385113
 21
4.545752491909391
 31
0
  0
LINE
  8
0
 62
7
 10
1.86591659385113
 20
4.545752491909391
 30
0
 11
1.86591659385113
 21
4.66575249190939
 31
0
  0
LINE
  8
0
 62
7
 10
1.89831659385113
 20
4.545752491909391
 30
0
 11
1.89831659385113
 21
4.66575249190939
 31
0
  0
LINE
  8
0
 62
7
 10
1.89831659385113
 20
4.66575249190939
 30
0
 11
1.97391659385113
 21
4.545752491909391
 31
0
  0
LINE
  8
0
 62
7
 10
1.97391659385113
 20
4.545752491909391
 30
0
 11
1.97391659385113
 21
4.66575249190939
 31
0
  0
LINE
  8
0
 62
7
 10
2.08191659385113
 20
4.629752491909391
 30
0
 11
2.07921659385113
 21
4.641752491909391
 31
0
  0
LINE
  8
0
 62
7
 10
2.07921659385113
 20
4.641752491909391
 30
0
 11
2.07381659385113
 21
4.65075249190939
 31
0
  0
LINE
  8
0
 62
7
 10
2.07381659385113
 20
4.65075249190939
 30
0
 11
2.068416593851131
 21
4.656752491909391
 31
0
  0
LINE
  8
0
 62
7
 10
2.068416593851131
 20
4.656752491909391
 30
0
 11
2.06031659385113
 21
4.662752491909392
 31
0
  0
LINE
  8
0
 62
7
 10
2.06031659385113
 20
4.662752491909392
 30
0
 11
2.052216593851131
 21
4.66575249190939
 31
0
  0
LINE
  8
0
 62
7
 10
2.052216593851131
 20
4.66575249190939
 30
0
 11
2.03601659385113
 21
4.66575249190939
 31
0
  0
LINE
  8
0
 62
7
 10
2.03601659385113
 20
4.66575249190939
 30
0
 11
2.02791659385113
 21
4.662752491909392
 31
0
  0
LINE
  8
0
 62
7
 10
2.02791659385113
 20
4.662752491909392
 30
0
 11
2.01981659385113
 21
4.656752491909391
 31
0
  0
LINE
  8
0
 62
7
 10
2.01981659385113
 20
4.656752491909391
 30
0
 11
2.01441659385113
 21
4.65075249190939
 31
0
  0
LINE
  8
0
 62
7
 10
2.01441659385113
 20
4.65075249190939
 30
0
 11
2.00901659385113
 21
4.641752491909391
 31
0
  0
LINE
  8
0
 62
7
 10
2.00901659385113
 20
4.641752491909391
 30
0
 11
2.00631659385113
 21
4.629752491909391
 31
0
  0
LINE
  8
0
 62
7
 10
2.00631659385113
 20
4.629752491909391
 30
0
 11
2.00631659385113
 21
4.58175249190939
 31
0
  0
LINE
  8
0
 62
7
 10
2.00631659385113
 20
4.58175249190939
 30
0
 11
2.00901659385113
 21
4.569752491909392
 31
0
  0
LINE
  8
0
 62
7
 10
2.00901659385113
 20
4.569752491909392
 30
0
 11
2.01441659385113
 21
4.56075249190939
 31
0
  0
LINE
  8
0
 62
7
 10
2.01441659385113
 20
4.56075249190939
 30
0
 11
2.01981659385113
 21
4.554752491909391
 31
0
  0
LINE
  8
0
 62
7
 10
2.01981659385113
 20
4.554752491909391
 30
0
 11
2.02791659385113
 21
4.548752491909389
 31
0
  0
LINE
  8
0
 62
7
 10
2.02791659385113
 20
4.548752491909389
 30
0
 11
2.03601659385113
 21
4.545752491909391
 31
0
  0
LINE
  8
0
 62
7
 10
2.03601659385113
 20
4.545752491909391
 30
0
 11
2.052216593851131
 21
4.545752491909391
 31
0
  0
LINE
  8
0
 62
7
 10
2.052216593851131
 20
4.545752491909391
 30
0
 11
2.06031659385113
 21
4.548752491909389
 31
0
  0
LINE
  8
0
 62
7
 10
2.06031659385113
 20
4.548752491909389
 30
0
 11
2.068416593851131
 21
4.554752491909391
 31
0
  0
LINE
  8
0
 62
7
 10
2.068416593851131
 20
4.554752491909391
 30
0
 11
2.07381659385113
 21
4.56075249190939
 31
0
  0
LINE
  8
0
 62
7
 10
2.07381659385113
 20
4.56075249190939
 30
0
 11
2.07921659385113
 21
4.569752491909392
 31
0
  0
LINE
  8
0
 62
7
 10
2.07921659385113
 20
4.569752491909392
 30
0
 11
2.08191659385113
 21
4.58175249190939
 31
0
  0
LINE
  8
0
 62
7
 10
2.08191659385113
 20
4.58175249190939
 30
0
 11
2.08191659385113
 21
4.60575249190939
 31
0
  0
LINE
  8
0
 62
7
 10
2.08191659385113
 20
4.60575249190939
 30
0
 11
2.04951659385113
 21
4.60575249190939
 31
0
  0
LINE
  8
0
 62
7
 10
2.16021659385113
 20
4.66575249190939
 30
0
 11
2.14401659385113
 21
4.66575249190939
 31
0
  0
LINE
  8
0
 62
7
 10
2.14401659385113
 20
4.66575249190939
 30
0
 11
2.13591659385113
 21
4.662752491909392
 31
0
  0
LINE
  8
0
 62
7
 10
2.13591659385113
 20
4.662752491909392
 30
0
 11
2.12781659385113
 21
4.656752491909391
 31
0
  0
LINE
  8
0
 62
7
 10
2.12781659385113
 20
4.656752491909391
 30
0
 11
2.12241659385113
 21
4.65075249190939
 31
0
  0
LINE
  8
0
 62
7
 10
2.12241659385113
 20
4.65075249190939
 30
0
 11
2.11701659385113
 21
4.641752491909391
 31
0
  0
LINE
  8
0
 62
7
 10
2.11701659385113
 20
4.641752491909391
 30
0
 11
2.11431659385113
 21
4.629752491909391
 31
0
  0
LINE
  8
0
 62
7
 10
2.11431659385113
 20
4.629752491909391
 30
0
 11
2.11431659385113
 21
4.58175249190939
 31
0
  0
LINE
  8
0
 62
7
 10
2.11431659385113
 20
4.58175249190939
 30
0
 11
2.11701659385113
 21
4.569752491909392
 31
0
  0
LINE
  8
0
 62
7
 10
2.11701659385113
 20
4.569752491909392
 30
0
 11
2.12241659385113
 21
4.56075249190939
 31
0
  0
LINE
  8
0
 62
7
 10
2.12241659385113
 20
4.56075249190939
 30
0
 11
2.12781659385113
 21
4.554752491909391
 31
0
  0
LINE
  8
0
 62
7
 10
2.12781659385113
 20
4.554752491909391
 30
0
 11
2.13591659385113
 21
4.548752491909389
 31
0
  0
LINE
  8
0
 62
7
 10
2.13591659385113
 20
4.548752491909389
 30
0
 11
2.14401659385113
 21
4.545752491909391
 31
0
  0
LINE
  8
0
 62
7
 10
2.14401659385113
 20
4.545752491909391
 30
0
 11
2.16021659385113
 21
4.545752491909391
 31
0
  0
LINE
  8
0
 62
7
 10
2.16021659385113
 20
4.545752491909391
 30
0
 11
2.16831659385113
 21
4.548752491909389
 31
0
  0
LINE
  8
0
 62
7
 10
2.16831659385113
 20
4.548752491909389
 30
0
 11
2.17641659385113
 21
4.554752491909391
 31
0
  0
LINE
  8
0
 62
7
 10
2.17641659385113
 20
4.554752491909391
 30
0
 11
2.18181659385113
 21
4.56075249190939
 31
0
  0
LINE
  8
0
 62
7
 10
2.18181659385113
 20
4.56075249190939
 30
0
 11
2.18721659385113
 21
4.569752491909392
 31
0
  0
LINE
  8
0
 62
7
 10
2.18721659385113
 20
4.569752491909392
 30
0
 11
2.18991659385113
 21
4.58175249190939
 31
0
  0
LINE
  8
0
 62
7
 10
2.18991659385113
 20
4.58175249190939
 30
0
 11
2.18991659385113
 21
4.629752491909391
 31
0
  0
LINE
  8
0
 62
7
 10
2.18991659385113
 20
4.629752491909391
 30
0
 11
2.18721659385113
 21
4.641752491909391
 31
0
  0
LINE
  8
0
 62
7
 10
2.18721659385113
 20
4.641752491909391
 30
0
 11
2.18181659385113
 21
4.65075249190939
 31
0
  0
LINE
  8
0
 62
7
 10
2.18181659385113
 20
4.65075249190939
 30
0
 11
2.17641659385113
 21
4.656752491909391
 31
0
  0
LINE
  8
0
 62
7
 10
2.17641659385113
 20
4.656752491909391
 30
0
 11
2.16831659385113
 21
4.662752491909392
 31
0
  0
LINE
  8
0
 62
7
 10
2.16831659385113
 20
4.662752491909392
 30
0
 11
2.16021659385113
 21
4.66575249190939
 31
0
  0
LINE
  8
0
 62
7
 10
2.21151659385113
 20
4.66575249190939
 30
0
 11
2.24931659385113
 21
4.66575249190939
 31
0
  0
LINE
  8
0
 62
7
 10
2.24931659385113
 20
4.66575249190939
 30
0
 11
2.24931659385113
 21
4.545752491909391
 31
0
  0
LINE
  8
0
 62
7
 10
2.24931659385113
 20
4.66575249190939
 30
0
 11
2.28711659385113
 21
4.66575249190939
 31
0
  0
LINE
  8
0
 62
7
 10
2.31951659385113
 20
4.66575249190939
 30
0
 11
2.35731659385113
 21
4.66575249190939
 31
0
  0
LINE
  8
0
 62
7
 10
2.35731659385113
 20
4.66575249190939
 30
0
 11
2.35731659385113
 21
4.545752491909391
 31
0
  0
LINE
  8
0
 62
7
 10
2.35731659385113
 20
4.66575249190939
 30
0
 11
2.39511659385113
 21
4.66575249190939
 31
0
  0
LINE
  8
0
 62
7
 10
2.51391659385113
 20
4.587752491909391
 30
0
 11
2.56791659385113
 21
4.587752491909391
 31
0
  0
LINE
  8
0
 62
7
 10
2.67591659385113
 20
4.66575249190939
 30
0
 11
2.71371659385113
 21
4.66575249190939
 31
0
  0
LINE
  8
0
 62
7
 10
2.71371659385113
 20
4.66575249190939
 30
0
 11
2.71371659385113
 21
4.545752491909391
 31
0
  0
LINE
  8
0
 62
7
 10
2.71371659385113
 20
4.66575249190939
 30
0
 11
2.751516593851131
 21
4.66575249190939
 31
0
  0
LINE
  8
0
 62
7
 10
2.78391659385113
 20
4.545752491909391
 30
0
 11
2.78391659385113
 21
4.66575249190939
 31
0
  0
LINE
  8
0
 62
7
 10
2.78391659385113
 20
4.66575249190939
 30
0
 11
2.83521659385113
 21
4.66575249190939
 31
0
  0
LINE
  8
0
 62
7
 10
2.83521659385113
 20
4.66575249190939
 30
0
 11
2.84601659385113
 21
4.662752491909392
 31
0
  0
LINE
  8
0
 62
7
 10
2.84601659385113
 20
4.662752491909392
 30
0
 11
2.854116593851131
 21
4.656752491909391
 31
0
  0
LINE
  8
0
 62
7
 10
2.854116593851131
 20
4.656752491909391
 30
0
 11
2.85681659385113
 21
4.65075249190939
 31
0
  0
LINE
  8
0
 62
7
 10
2.85681659385113
 20
4.65075249190939
 30
0
 11
2.85951659385113
 21
4.641752491909391
 31
0
  0
LINE
  8
0
 62
7
 10
2.85951659385113
 20
4.641752491909391
 30
0
 11
2.85951659385113
 21
4.629752491909391
 31
0
  0
LINE
  8
0
 62
7
 10
2.85951659385113
 20
4.629752491909391
 30
0
 11
2.85681659385113
 21
4.620752491909391
 31
0
  0
LINE
  8
0
 62
7
 10
2.85681659385113
 20
4.620752491909391
 30
0
 11
2.854116593851131
 21
4.614752491909392
 31
0
  0
LINE
  8
0
 62
7
 10
2.854116593851131
 20
4.614752491909392
 30
0
 11
2.84601659385113
 21
4.60875249190939
 31
0
  0
LINE
  8
0
 62
7
 10
2.84601659385113
 20
4.60875249190939
 30
0
 11
2.83521659385113
 21
4.60575249190939
 31
0
  0
LINE
  8
0
 62
7
 10
2.83521659385113
 20
4.60575249190939
 30
0
 11
2.82711659385113
 21
4.60575249190939
 31
0
  0
LINE
  8
0
 62
7
 10
2.82711659385113
 20
4.60575249190939
 30
0
 11
2.85951659385113
 21
4.545752491909391
 31
0
  0
LINE
  8
0
 62
7
 10
2.82711659385113
 20
4.60575249190939
 30
0
 11
2.78391659385113
 21
4.60575249190939
 31
0
  0
LINE
  8
0
 62
7
 10
2.95671659385113
 20
4.66575249190939
 30
0
 11
2.88111659385113
 21
4.66575249190939
 31
0
  0
LINE
  8
0
 62
7
 10
2.88111659385113
 20
4.66575249190939
 30
0
 11
2.88111659385113
 21
4.60575249190939
 31
0
  0
LINE
  8
0
 62
7
 10
2.88111659385113
 20
4.545752491909391
 30
0
 11
2.95671659385113
 21
4.545752491909391
 31
0
  0
LINE
  8
0
 62
7
 10
2.94591659385113
 20
4.60575249190939
 30
0
 11
2.88111659385113
 21
4.60575249190939
 31
0
  0
LINE
  8
0
 62
7
 10
2.88111659385113
 20
4.60575249190939
 30
0
 11
2.88111659385113
 21
4.545752491909391
 31
0
  0
LINE
  8
0
 62
7
 10
2.989116593851131
 20
4.545752491909391
 30
0
 11
2.989116593851131
 21
4.60575249190939
 31
0
  0
LINE
  8
0
 62
7
 10
2.989116593851131
 20
4.66575249190939
 30
0
 11
3.040416593851131
 21
4.66575249190939
 31
0
  0
LINE
  8
0
 62
7
 10
3.040416593851131
 20
4.66575249190939
 30
0
 11
3.05121659385113
 21
4.662752491909392
 31
0
  0
LINE
  8
0
 62
7
 10
3.05121659385113
 20
4.662752491909392
 30
0
 11
3.05931659385113
 21
4.656752491909391
 31
0
  0
LINE
  8
0
 62
7
 10
3.05931659385113
 20
4.656752491909391
 30
0
 11
3.06201659385113
 21
4.65075249190939
 31
0
  0
LINE
  8
0
 62
7
 10
3.06201659385113
 20
4.65075249190939
 30
0
 11
3.064716593851131
 21
4.641752491909391
 31
0
  0
LINE
  8
0
 62
7
 10
3.064716593851131
 20
4.641752491909391
 30
0
 11
3.064716593851131
 21
4.629752491909391
 31
0
  0
LINE
  8
0
 62
7
 10
3.064716593851131
 20
4.629752491909391
 30
0
 11
3.06201659385113
 21
4.620752491909391
 31
0
  0
LINE
  8
0
 62
7
 10
3.06201659385113
 20
4.620752491909391
 30
0
 11
3.05931659385113
 21
4.614752491909392
 31
0
  0
LINE
  8
0
 62
7
 10
3.05931659385113
 20
4.614752491909392
 30
0
 11
3.05121659385113
 21
4.60875249190939
 31
0
  0
LINE
  8
0
 62
7
 10
3.05121659385113
 20
4.60875249190939
 30
0
 11
3.040416593851131
 21
4.60575249190939
 31
0
  0
LINE
  8
0
 62
7
 10
3.040416593851131
 20
4.60575249190939
 30
0
 11
2.989116593851131
 21
4.60575249190939
 31
0
  0
LINE
  8
0
 62
7
 10
2.989116593851131
 20
4.60575249190939
 30
0
 11
2.989116593851131
 21
4.66575249190939
 31
0
  0
LINE
  8
0
 62
7
 10
3.08631659385113
 20
4.545752491909391
 30
0
 11
3.08631659385113
 21
4.60575249190939
 31
0
  0
LINE
  8
0
 62
7
 10
3.08631659385113
 20
4.66575249190939
 30
0
 11
3.13761659385113
 21
4.66575249190939
 31
0
  0
LINE
  8
0
 62
7
 10
3.13761659385113
 20
4.66575249190939
 30
0
 11
3.14841659385113
 21
4.662752491909392
 31
0
  0
LINE
  8
0
 62
7
 10
3.14841659385113
 20
4.662752491909392
 30
0
 11
3.15651659385113
 21
4.656752491909391
 31
0
  0
LINE
  8
0
 62
7
 10
3.15651659385113
 20
4.656752491909391
 30
0
 11
3.159216593851131
 21
4.65075249190939
 31
0
  0
LINE
  8
0
 62
7
 10
3.159216593851131
 20
4.65075249190939
 30
0
 11
3.16191659385113
 21
4.641752491909391
 31
0
  0
LINE
  8
0
 62
7
 10
3.16191659385113
 20
4.641752491909391
 30
0
 11
3.16191659385113
 21
4.629752491909391
 31
0
  0
LINE
  8
0
 62
7
 10
3.16191659385113
 20
4.629752491909391
 30
0
 11
3.159216593851131
 21
4.620752491909391
 31
0
  0
LINE
  8
0
 62
7
 10
3.159216593851131
 20
4.620752491909391
 30
0
 11
3.15651659385113
 21
4.614752491909392
 31
0
  0
LINE
  8
0
 62
7
 10
3.15651659385113
 20
4.614752491909392
 30
0
 11
3.14841659385113
 21
4.60875249190939
 31
0
  0
LINE
  8
0
 62
7
 10
3.14841659385113
 20
4.60875249190939
 30
0
 11
3.13761659385113
 21
4.60575249190939
 31
0
  0
LINE
  8
0
 62
7
 10
3.13761659385113
 20
4.60575249190939
 30
0
 11
3.08631659385113
 21
4.60575249190939
 31
0
  0
LINE
  8
0
 62
7
 10
3.08631659385113
 20
4.60575249190939
 30
0
 11
3.08631659385113
 21
4.66575249190939
 31
0
  0
LINE
  8
0
 62
7
 10
3.259116593851131
 20
4.66575249190939
 30
0
 11
3.18351659385113
 21
4.66575249190939
 31
0
  0
LINE
  8
0
 62
7
 10
3.18351659385113
 20
4.66575249190939
 30
0
 11
3.18351659385113
 21
4.60575249190939
 31
0
  0
LINE
  8
0
 62
7
 10
3.18351659385113
 20
4.545752491909391
 30
0
 11
3.259116593851131
 21
4.545752491909391
 31
0
  0
LINE
  8
0
 62
7
 10
3.248316593851131
 20
4.60575249190939
 30
0
 11
3.18351659385113
 21
4.60575249190939
 31
0
  0
LINE
  8
0
 62
7
 10
3.18351659385113
 20
4.60575249190939
 30
0
 11
3.18351659385113
 21
4.545752491909391
 31
0
  0
LINE
  8
0
 62
7
 10
0.625
 20
2.890000000000001
 30
0
 11
0.625
 21
3.010000000000001
 31
0
  0
LINE
  8
0
 62
7
 10
0.7006
 20
3.010000000000001
 30
0
 11
0.6466
 21
2.950000000000001
 31
0
  0
LINE
  8
0
 62
7
 10
0.6466
 20
2.950000000000001
 30
0
 11
0.7006
 21
2.890000000000001
 31
0
  0
LINE
  8
0
 62
7
 10
0.6466
 20
2.950000000000001
 30
0
 11
0.625
 21
2.926000000000001
 31
0
  0
LINE
  8
0
 62
7
 10
0.7330000000000001
 20
3.010000000000001
 30
0
 11
0.7330000000000001
 21
2.950000000000001
 31
0
  0
LINE
  8
0
 62
7
 10
0.7330000000000001
 20
2.950000000000001
 30
0
 11
0.8086000000000001
 21
2.950000000000001
 31
0
  0
LINE
  8
0
 62
7
 10
0.8086000000000001
 20
3.010000000000001
 30
0
 11
0.8086000000000001
 21
2.950000000000001
 31
0
  0
LINE
  8
0
 62
7
 10
0.8086000000000001
 20
2.950000000000001
 30
0
 11
0.8086000000000001
 21
2.890000000000001
 31
0
  0
LINE
  8
0
 62
7
 10
0.7330000000000001
 20
2.950000000000001
 30
0
 11
0.7330000000000001
 21
2.890000000000001
 31
0
  0
LINE
  8
0
 62
7
 10
0.8410000000000001
 20
3.010000000000001
 30
0
 11
0.8706999999999999
 21
2.890000000000001
 31
0
  0
LINE
  8
0
 62
7
 10
0.8706999999999999
 20
2.890000000000001
 30
0
 11
0.8950000000000001
 21
3.010000000000001
 31
0
  0
LINE
  8
0
 62
7
 10
0.8950000000000001
 20
3.010000000000001
 30
0
 11
0.9193
 21
2.890000000000001
 31
0
  0
LINE
  8
0
 62
7
 10
0.9193
 20
2.890000000000001
 30
0
 11
0.9489999999999998
 21
3.010000000000001
 31
0
  0
LINE
  8
0
 62
7
 10
0.9706000000000001
 20
2.992000000000001
 30
0
 11
0.976
 21
3.001000000000001
 31
0
  0
LINE
  8
0
 62
7
 10
0.976
 20
3.001000000000001
 30
0
 11
0.9841
 21
3.007000000000001
 31
0
  0
LINE
  8
0
 62
7
 10
0.9841
 20
3.007000000000001
 30
0
 11
0.9949
 21
3.010000000000001
 31
0
  0
LINE
  8
0
 62
7
 10
0.9949
 20
3.010000000000001
 30
0
 11
1.0111
 21
3.010000000000001
 31
0
  0
LINE
  8
0
 62
7
 10
1.0111
 20
3.010000000000001
 30
0
 11
1.0219
 21
3.007000000000001
 31
0
  0
LINE
  8
0
 62
7
 10
1.0219
 20
3.007000000000001
 30
0
 11
1.03
 21
3.001000000000001
 31
0
  0
LINE
  8
0
 62
7
 10
1.03
 20
3.001000000000001
 30
0
 11
1.0354
 21
2.992000000000001
 31
0
  0
LINE
  8
0
 62
7
 10
1.0354
 20
2.992000000000001
 30
0
 11
1.0354
 21
2.980000000000001
 31
0
  0
LINE
  8
0
 62
7
 10
1.0354
 20
2.980000000000001
 30
0
 11
1.03
 21
2.968000000000002
 31
0
  0
LINE
  8
0
 62
7
 10
1.03
 20
2.968000000000002
 30
0
 11
0.9706000000000001
 21
2.890000000000001
 31
0
  0
LINE
  8
0
 62
7
 10
0.9706000000000001
 20
2.890000000000001
 30
0
 11
1.0354
 21
2.890000000000001
 31
0
  0
LINE
  8
0
 62
7
 10
1.0678
 20
2.992000000000001
 30
0
 11
1.0732
 21
3.001000000000001
 31
0
  0
LINE
  8
0
 62
7
 10
1.0732
 20
3.001000000000001
 30
0
 11
1.0813
 21
3.007000000000001
 31
0
  0
LINE
  8
0
 62
7
 10
1.0813
 20
3.007000000000001
 30
0
 11
1.0921
 21
3.010000000000001
 31
0
  0
LINE
  8
0
 62
7
 10
1.0921
 20
3.010000000000001
 30
0
 11
1.1083
 21
3.010000000000001
 31
0
  0
LINE
  8
0
 62
7
 10
1.1083
 20
3.010000000000001
 30
0
 11
1.1191
 21
3.007000000000001
 31
0
  0
LINE
  8
0
 62
7
 10
1.1191
 20
3.007000000000001
 30
0
 11
1.1272
 21
3.001000000000001
 31
0
  0
LINE
  8
0
 62
7
 10
1.1272
 20
3.001000000000001
 30
0
 11
1.1326
 21
2.992000000000001
 31
0
  0
LINE
  8
0
 62
7
 10
1.1326
 20
2.992000000000001
 30
0
 11
1.1326
 21
2.980000000000001
 31
0
  0
LINE
  8
0
 62
7
 10
1.1326
 20
2.980000000000001
 30
0
 11
1.1272
 21
2.968000000000002
 31
0
  0
LINE
  8
0
 62
7
 10
1.1272
 20
2.968000000000002
 30
0
 11
1.0678
 21
2.890000000000001
 31
0
  0
LINE
  8
0
 62
7
 10
1.0678
 20
2.890000000000001
 30
0
 11
1.1326
 21
2.890000000000001
 31
0
  0
LINE
  8
0
 62
7
 10
1.165
 20
2.938000000000001
 30
0
 11
1.1677
 21
2.950000000000001
 31
0
  0
LINE
  8
0
 62
7
 10
1.1677
 20
2.950000000000001
 30
0
 11
1.1731
 21
2.959000000000001
 31
0
  0
LINE
  8
0
 62
7
 10
1.1731
 20
2.959000000000001
 30
0
 11
1.1812
 21
2.965000000000001
 31
0
  0
LINE
  8
0
 62
7
 10
1.1812
 20
2.965000000000001
 30
0
 11
1.1893
 21
2.968000000000002
 31
0
  0
LINE
  8
0
 62
7
 10
1.1893
 20
2.968000000000002
 30
0
 11
1.2055
 21
2.968000000000002
 31
0
  0
LINE
  8
0
 62
7
 10
1.2055
 20
2.968000000000002
 30
0
 11
1.2136
 21
2.965000000000001
 31
0
  0
LINE
  8
0
 62
7
 10
1.2136
 20
2.965000000000001
 30
0
 11
1.2217
 21
2.959000000000001
 31
0
  0
LINE
  8
0
 62
7
 10
1.2217
 20
2.959000000000001
 30
0
 11
1.2271
 21
2.950000000000001
 31
0
  0
LINE
  8
0
 62
7
 10
1.2271
 20
2.950000000000001
 30
0
 11
1.2298
 21
2.938000000000001
 31
0
  0
LINE
  8
0
 62
7
 10
1.2298
 20
2.938000000000001
 30
0
 11
1.2298
 21
2.920000000000001
 31
0
  0
LINE
  8
0
 62
7
 10
1.2298
 20
2.920000000000001
 30
0
 11
1.2271
 21
2.908000000000001
 31
0
  0
LINE
  8
0
 62
7
 10
1.2271
 20
2.908000000000001
 30
0
 11
1.2217
 21
2.899000000000001
 31
0
  0
LINE
  8
0
 62
7
 10
1.2217
 20
2.899000000000001
 30
0
 11
1.2136
 21
2.893000000000002
 31
0
  0
LINE
  8
0
 62
7
 10
1.2136
 20
2.893000000000002
 30
0
 11
1.2055
 21
2.890000000000001
 31
0
  0
LINE
  8
0
 62
7
 10
1.2055
 20
2.890000000000001
 30
0
 11
1.1893
 21
2.890000000000001
 31
0
  0
LINE
  8
0
 62
7
 10
1.1893
 20
2.890000000000001
 30
0
 11
1.1812
 21
2.893000000000002
 31
0
  0
LINE
  8
0
 62
7
 10
1.1812
 20
2.893000000000002
 30
0
 11
1.1731
 21
2.899000000000001
 31
0
  0
LINE
  8
0
 62
7
 10
1.1731
 20
2.899000000000001
 30
0
 11
1.1677
 21
2.908000000000001
 31
0
  0
LINE
  8
0
 62
7
 10
1.1677
 20
2.908000000000001
 30
0
 11
1.165
 21
2.920000000000001
 31
0
  0
LINE
  8
0
 62
7
 10
1.165
 20
2.920000000000001
 30
0
 11
1.165
 21
2.938000000000001
 31
0
  0
LINE
  8
0
 62
7
 10
1.165
 20
2.980000000000001
 30
0
 11
1.1677
 21
2.992000000000001
 31
0
  0
LINE
  8
0
 62
7
 10
1.1677
 20
2.992000000000001
 30
0
 11
1.1731
 21
3.001000000000001
 31
0
  0
LINE
  8
0
 62
7
 10
1.1731
 20
3.001000000000001
 30
0
 11
1.1812
 21
3.007000000000001
 31
0
  0
LINE
  8
0
 62
7
 10
1.1812
 20
3.007000000000001
 30
0
 11
1.1893
 21
3.010000000000001
 31
0
  0
LINE
  8
0
 62
7
 10
1.1893
 20
3.010000000000001
 30
0
 11
1.2055
 21
3.010000000000001
 31
0
  0
LINE
  8
0
 62
7
 10
1.2055
 20
3.010000000000001
 30
0
 11
1.2136
 21
3.007000000000001
 31
0
  0
LINE
  8
0
 62
7
 10
1.2136
 20
3.007000000000001
 30
0
 11
1.2217
 21
3.001000000000001
 31
0
  0
LINE
  8
0
 62
7
 10
1.2217
 20
3.001000000000001
 30
0
 11
1.2271
 21
2.992000000000001
 31
0
  0
LINE
  8
0
 62
7
 10
1.165
 20
2.938000000000001
 30
0
 11
1.165
 21
2.980000000000001
 31
0
  0
LINE
  8
0
 62
7
 10
1.327
 20
2.890000000000001
 30
0
 11
1.2622
 21
2.890000000000001
 31
0
  0
LINE
  8
0
 62
7
 10
1.2622
 20
2.890000000000001
 30
0
 11
1.2622
 21
3.010000000000001
 31
0
  0
LINE
  8
0
 62
7
 10
1.3594
 20
2.992000000000001
 30
0
 11
1.3648
 21
3.001000000000001
 31
0
  0
LINE
  8
0
 62
7
 10
1.3648
 20
3.001000000000001
 30
0
 11
1.3729
 21
3.007000000000001
 31
0
  0
LINE
  8
0
 62
7
 10
1.3729
 20
3.007000000000001
 30
0
 11
1.3837
 21
3.010000000000001
 31
0
  0
LINE
  8
0
 62
7
 10
1.3837
 20
3.010000000000001
 30
0
 11
1.3999
 21
3.010000000000001
 31
0
  0
LINE
  8
0
 62
7
 10
1.3999
 20
3.010000000000001
 30
0
 11
1.408
 21
3.007000000000001
 31
0
  0
LINE
  8
0
 62
7
 10
1.408
 20
3.007000000000001
 30
0
 11
1.4161
 21
3.001000000000001
 31
0
  0
LINE
  8
0
 62
7
 10
1.4161
 20
3.001000000000001
 30
0
 11
1.4215
 21
2.992000000000001
 31
0
  0
LINE
  8
0
 62
7
 10
1.4215
 20
2.992000000000001
 30
0
 11
1.4242
 21
2.980000000000001
 31
0
  0
LINE
  8
0
 62
7
 10
1.4242
 20
2.980000000000001
 30
0
 11
1.4242
 21
2.971000000000001
 31
0
  0
LINE
  8
0
 62
7
 10
1.4242
 20
2.971000000000001
 30
0
 11
1.4215
 21
2.962000000000001
 31
0
  0
LINE
  8
0
 62
7
 10
1.4215
 20
2.962000000000001
 30
0
 11
1.4161
 21
2.956000000000001
 31
0
  0
LINE
  8
0
 62
7
 10
1.4161
 20
2.956000000000001
 30
0
 11
1.4026
 21
2.950000000000001
 31
0
  0
LINE
  8
0
 62
7
 10
1.3837
 20
2.950000000000001
 30
0
 11
1.4026
 21
2.950000000000001
 31
0
  0
LINE
  8
0
 62
7
 10
1.4026
 20
2.950000000000001
 30
0
 11
1.4161
 21
2.944000000000001
 31
0
  0
LINE
  8
0
 62
7
 10
1.4161
 20
2.944000000000001
 30
0
 11
1.4215
 21
2.938000000000001
 31
0
  0
LINE
  8
0
 62
7
 10
1.4215
 20
2.938000000000001
 30
0
 11
1.4242
 21
2.929000000000001
 31
0
  0
LINE
  8
0
 62
7
 10
1.4242
 20
2.929000000000001
 30
0
 11
1.4242
 21
2.920000000000001
 31
0
  0
LINE
  8
0
 62
7
 10
1.4242
 20
2.920000000000001
 30
0
 11
1.4215
 21
2.908000000000001
 31
0
  0
LINE
  8
0
 62
7
 10
1.4215
 20
2.908000000000001
 30
0
 11
1.4161
 21
2.899000000000001
 31
0
  0
LINE
  8
0
 62
7
 10
1.4161
 20
2.899000000000001
 30
0
 11
1.408
 21
2.893000000000002
 31
0
  0
LINE
  8
0
 62
7
 10
1.408
 20
2.893000000000002
 30
0
 11
1.3999
 21
2.890000000000001
 31
0
  0
LINE
  8
0
 62
7
 10
1.3999
 20
2.890000000000001
 30
0
 11
1.3837
 21
2.890000000000001
 31
0
  0
LINE
  8
0
 62
7
 10
1.3837
 20
2.890000000000001
 30
0
 11
1.3729
 21
2.893000000000002
 31
0
  0
LINE
  8
0
 62
7
 10
1.3729
 20
2.893000000000002
 30
0
 11
1.3648
 21
2.899000000000001
 31
0
  0
LINE
  8
0
 62
7
 10
1.3648
 20
2.899000000000001
 30
0
 11
1.3594
 21
2.908000000000001
 31
0
  0
LINE
  8
0
 62
7
 10
3.125
 20
2.890000000000001
 30
0
 11
3.125
 21
2.990000000000001
 31
0
  0
LINE
  8
0
 62
7
 10
3.125
 20
2.990000000000001
 30
0
 11
3.188
 21
2.890000000000001
 31
0
  0
LINE
  8
0
 62
7
 10
3.188
 20
2.890000000000001
 30
0
 11
3.188
 21
2.990000000000001
 31
0
  0
LINE
  8
0
 62
7
 10
3.269
 20
2.890000000000001
 30
0
 11
3.215
 21
2.890000000000001
 31
0
  0
LINE
  8
0
 62
7
 10
3.215
 20
2.890000000000001
 30
0
 11
3.215
 21
2.990000000000001
 31
0
  0
LINE
  8
0
 62
7
 10
3.296
 20
2.940000000000001
 30
0
 11
3.332
 21
2.940000000000001
 31
0
  0
LINE
  8
0
 62
7
 10
3.332
 20
2.940000000000001
 30
0
 11
3.3365
 21
2.940000000000001
 31
0
  0
LINE
  8
0
 62
7
 10
3.3365
 20
2.940000000000001
 30
0
 11
3.3455
 21
2.935000000000001
 31
0
  0
LINE
  8
0
 62
7
 10
3.3455
 20
2.935000000000001
 30
0
 11
3.35
 21
2.930000000000001
 31
0
  0
LINE
  8
0
 62
7
 10
3.35
 20
2.930000000000001
 30
0
 11
3.3545
 21
2.920000000000001
 31
0
  0
LINE
  8
0
 62
7
 10
3.3545
 20
2.920000000000001
 30
0
 11
3.3545
 21
2.910000000000001
 31
0
  0
LINE
  8
0
 62
7
 10
3.3545
 20
2.910000000000001
 30
0
 11
3.35
 21
2.900000000000001
 31
0
  0
LINE
  8
0
 62
7
 10
3.35
 20
2.900000000000001
 30
0
 11
3.3455
 21
2.895000000000001
 31
0
  0
LINE
  8
0
 62
7
 10
3.3455
 20
2.895000000000001
 30
0
 11
3.3365
 21
2.890000000000001
 31
0
  0
LINE
  8
0
 62
7
 10
3.3365
 20
2.890000000000001
 30
0
 11
3.296
 21
2.890000000000001
 31
0
  0
LINE
  8
0
 62
7
 10
3.296
 20
2.890000000000001
 30
0
 11
3.296
 21
2.940000000000001
 31
0
  0
LINE
  8
0
 62
7
 10
3.296
 20
2.990000000000001
 30
0
 11
3.32975
 21
2.990000000000001
 31
0
  0
LINE
  8
0
 62
7
 10
3.32975
 20
2.990000000000001
 30
0
 11
3.341000000000001
 21
2.987500000000001
 31
0
  0
LINE
  8
0
 62
7
 10
3.341000000000001
 20
2.987500000000001
 30
0
 11
3.34775
 21
2.980000000000001
 31
0
  0
LINE
  8
0
 62
7
 10
3.34775
 20
2.980000000000001
 30
0
 11
3.35
 21
2.970000000000001
 31
0
  0
LINE
  8
0
 62
7
 10
3.35
 20
2.970000000000001
 30
0
 11
3.35
 21
2.960000000000001
 31
0
  0
LINE
  8
0
 62
7
 10
3.35
 20
2.960000000000001
 30
0
 11
3.3455
 21
2.950000000000001
 31
0
  0
LINE
  8
0
 62
7
 10
3.3455
 20
2.950000000000001
 30
0
 11
3.338750000000001
 21
2.942500000000001
 31
0
  0
LINE
  8
0
 62
7
 10
3.338750000000001
 20
2.942500000000001
 30
0
 11
3.332
 21
2.940000000000001
 31
0
  0
LINE
  8
0
 62
7
 10
3.296
 20
2.940000000000001
 30
0
 11
3.296
 21
2.990000000000001
 31
0
  0
LINE
  8
0
 62
7
 10
3.49625
 20
2.942500000000001
 30
0
 11
3.4895
 21
2.952500000000001
 31
0
  0
LINE
  8
0
 62
7
 10
3.4895
 20
2.952500000000001
 30
0
 11
3.48275
 21
2.957500000000001
 31
0
  0
LINE
  8
0
 62
7
 10
3.48275
 20
2.957500000000001
 30
0
 11
3.476
 21
2.960000000000001
 31
0
  0
LINE
  8
0
 62
7
 10
3.476
 20
2.960000000000001
 30
0
 11
3.467000000000001
 21
2.960000000000001
 31
0
  0
LINE
  8
0
 62
7
 10
3.467000000000001
 20
2.960000000000001
 30
0
 11
3.46025
 21
2.957500000000001
 31
0
  0
LINE
  8
0
 62
7
 10
3.46025
 20
2.957500000000001
 30
0
 11
3.4535
 21
2.952500000000001
 31
0
  0
LINE
  8
0
 62
7
 10
3.4535
 20
2.952500000000001
 30
0
 11
3.44675
 21
2.942500000000001
 31
0
  0
LINE
  8
0
 62
7
 10
3.44675
 20
2.942500000000001
 30
0
 11
3.4445
 21
2.935000000000001
 31
0
  0
LINE
  8
0
 62
7
 10
3.4445
 20
2.935000000000001
 30
0
 11
3.4445
 21
2.915000000000001
 31
0
  0
LINE
  8
0
 62
7
 10
3.4445
 20
2.915000000000001
 30
0
 11
3.44675
 21
2.907500000000001
 31
0
  0
LINE
  8
0
 62
7
 10
3.44675
 20
2.907500000000001
 30
0
 11
3.4535
 21
2.897500000000001
 31
0
  0
LINE
  8
0
 62
7
 10
3.4535
 20
2.897500000000001
 30
0
 11
3.46025
 21
2.892500000000001
 31
0
  0
LINE
  8
0
 62
7
 10
3.46025
 20
2.892500000000001
 30
0
 11
3.467000000000001
 21
2.890000000000001
 31
0
  0
LINE
  8
0
 62
7
 10
3.467000000000001
 20
2.890000000000001
 30
0
 11
3.476
 21
2.890000000000001
 31
0
  0
LINE
  8
0
 62
7
 10
3.476
 20
2.890000000000001
 30
0
 11
3.48275
 21
2.892500000000001
 31
0
  0
LINE
  8
0
 62
7
 10
3.48275
 20
2.892500000000001
 30
0
 11
3.4895
 21
2.897500000000001
 31
0
  0
LINE
  8
0
 62
7
 10
3.4895
 20
2.897500000000001
 30
0
 11
3.49625
 21
2.907500000000001
 31
0
  0
LINE
  8
0
 62
7
 10
3.56825
 20
2.935000000000001
 30
0
 11
3.566000000000001
 21
2.942500000000001
 31
0
  0
LINE
  8
0
 62
7
 10
3.566000000000001
 20
2.942500000000001
 30
0
 11
3.55925
 21
2.952500000000001
 31
0
  0
LINE
  8
0
 62
7
 10
3.55925
 20
2.952500000000001
 30
0
 11
3.5525
 21
2.957500000000001
 31
0
  0
LINE
  8
0
 62
7
 10
3.5525
 20
2.957500000000001
 30
0
 11
3.54575
 21
2.960000000000001
 31
0
  0
LINE
  8
0
 62
7
 10
3.54575
 20
2.960000000000001
 30
0
 11
3.53675
 21
2.960000000000001
 31
0
  0
LINE
  8
0
 62
7
 10
3.53675
 20
2.960000000000001
 30
0
 11
3.530000000000001
 21
2.957500000000001
 31
0
  0
LINE
  8
0
 62
7
 10
3.530000000000001
 20
2.957500000000001
 30
0
 11
3.52325
 21
2.952500000000001
 31
0
  0
LINE
  8
0
 62
7
 10
3.52325
 20
2.952500000000001
 30
0
 11
3.5165
 21
2.942500000000001
 31
0
  0
LINE
  8
0
 62
7
 10
3.5165
 20
2.942500000000001
 30
0
 11
3.51425
 21
2.935000000000001
 31
0
  0
LINE
  8
0
 62
7
 10
3.51425
 20
2.935000000000001
 30
0
 11
3.51425
 21
2.915000000000001
 31
0
  0
LINE
  8
0
 62
7
 10
3.51425
 20
2.915000000000001
 30
0
 11
3.5165
 21
2.907500000000001
 31
0
  0
LINE
  8
0
 62
7
 10
3.5165
 20
2.907500000000001
 30
0
 11
3.52325
 21
2.897500000000001
 31
0
  0
LINE
  8
0
 62
7
 10
3.52325
 20
2.897500000000001
 30
0
 11
3.530000000000001
 21
2.892500000000001
 31
0
  0
LINE
  8
0
 62
7
 10
3.530000000000001
 20
2.892500000000001
 30
0
 11
3.53675
 21
2.890000000000001
 31
0
  0
LINE
  8
0
 62
7
 10
3.53675
 20
2.890000000000001
 30
0
 11
3.54575
 21
2.890000000000001
 31
0
  0
LINE
  8
0
 62
7
 10
3.54575
 20
2.890000000000001
 30
0
 11
3.5525
 21
2.892500000000001
 31
0
  0
LINE
  8
0
 62
7
 10
3.5525
 20
2.892500000000001
 30
0
 11
3.55925
 21
2.897500000000001
 31
0
  0
LINE
  8
0
 62
7
 10
3.55925
 20
2.897500000000001
 30
0
 11
3.566000000000001
 21
2.907500000000001
 31
0
  0
LINE
  8
0
 62
7
 10
3.566000000000001
 20
2.907500000000001
 30
0
 11
3.56825
 21
2.915000000000001
 31
0
  0
LINE
  8
0
 62
7
 10
3.56825
 20
2.960000000000001
 30
0
 11
3.56825
 21
2.935000000000001
 31
0
  0
LINE
  8
0
 62
7
 10
3.56825
 20
2.892500000000001
 30
0
 11
3.5705
 21
2.890000000000001
 31
0
  0
LINE
  8
0
 62
7
 10
3.5705
 20
2.890000000000001
 30
0
 11
3.57275
 21
2.890000000000001
 31
0
  0
LINE
  8
0
 62
7
 10
3.56825
 20
2.915000000000001
 30
0
 11
3.56825
 21
2.892500000000001
 31
0
  0
LINE
  8
0
 62
7
 10
3.56825
 20
2.935000000000001
 30
0
 11
3.56825
 21
2.915000000000001
 31
0
  0
LINE
  8
0
 62
7
 10
3.59075
 20
2.890000000000001
 30
0
 11
3.59075
 21
2.892500000000001
 31
0
  0
LINE
  8
0
 62
7
 10
3.59075
 20
2.892500000000001
 30
0
 11
3.593
 21
2.892500000000001
 31
0
  0
LINE
  8
0
 62
7
 10
3.593
 20
2.892500000000001
 30
0
 11
3.593
 21
2.890000000000001
 31
0
  0
LINE
  8
0
 62
7
 10
3.593
 20
2.890000000000001
 30
0
 11
3.59075
 21
2.890000000000001
 31
0
  0
LINE
  8
0
 62
7
 10
3.716750000000001
 20
2.990000000000001
 30
0
 11
3.72575
 21
2.990000000000001
 31
0
  0
LINE
  8
0
 62
7
 10
3.72575
 20
2.990000000000001
 30
0
 11
3.7325
 21
2.987500000000001
 31
0
  0
LINE
  8
0
 62
7
 10
3.7325
 20
2.987500000000001
 30
0
 11
3.737
 21
2.982500000000001
 31
0
  0
LINE
  8
0
 62
7
 10
3.737
 20
2.982500000000001
 30
0
 11
3.7415
 21
2.975000000000001
 31
0
  0
LINE
  8
0
 62
7
 10
3.7415
 20
2.975000000000001
 30
0
 11
3.7415
 21
2.965000000000001
 31
0
  0
LINE
  8
0
 62
7
 10
3.7415
 20
2.965000000000001
 30
0
 11
3.73925
 21
2.960000000000001
 31
0
  0
LINE
  8
0
 62
7
 10
3.73925
 20
2.960000000000001
 30
0
 11
3.7325
 21
2.952500000000001
 31
0
  0
LINE
  8
0
 62
7
 10
3.7325
 20
2.952500000000001
 30
0
 11
3.72575
 21
2.950000000000001
 31
0
  0
LINE
  8
0
 62
7
 10
3.72575
 20
2.950000000000001
 30
0
 11
3.716750000000001
 21
2.950000000000001
 31
0
  0
LINE
  8
0
 62
7
 10
3.716750000000001
 20
2.950000000000001
 30
0
 11
3.71
 21
2.952500000000001
 31
0
  0
LINE
  8
0
 62
7
 10
3.71
 20
2.952500000000001
 30
0
 11
3.70325
 21
2.960000000000001
 31
0
  0
LINE
  8
0
 62
7
 10
3.70325
 20
2.960000000000001
 30
0
 11
3.701
 21
2.965000000000001
 31
0
  0
LINE
  8
0
 62
7
 10
3.701
 20
2.965000000000001
 30
0
 11
3.701
 21
2.975000000000001
 31
0
  0
LINE
  8
0
 62
7
 10
3.701
 20
2.975000000000001
 30
0
 11
3.7055
 21
2.982500000000001
 31
0
  0
LINE
  8
0
 62
7
 10
3.7055
 20
2.982500000000001
 30
0
 11
3.71
 21
2.987500000000001
 31
0
  0
LINE
  8
0
 62
7
 10
3.71
 20
2.987500000000001
 30
0
 11
3.716750000000001
 21
2.990000000000001
 31
0
  0
LINE
  8
0
 62
7
 10
3.716750000000001
 20
2.950000000000001
 30
0
 11
3.7055
 21
2.945000000000001
 31
0
  0
LINE
  8
0
 62
7
 10
3.7055
 20
2.945000000000001
 30
0
 11
3.69875
 21
2.937500000000001
 31
0
  0
LINE
  8
0
 62
7
 10
3.69875
 20
2.937500000000001
 30
0
 11
3.69425
 21
2.927500000000001
 31
0
  0
LINE
  8
0
 62
7
 10
3.69425
 20
2.927500000000001
 30
0
 11
3.69425
 21
2.912500000000001
 31
0
  0
LINE
  8
0
 62
7
 10
3.69425
 20
2.912500000000001
 30
0
 11
3.69875
 21
2.902500000000001
 31
0
  0
LINE
  8
0
 62
7
 10
3.69875
 20
2.902500000000001
 30
0
 11
3.7055
 21
2.895000000000001
 31
0
  0
LINE
  8
0
 62
7
 10
3.7055
 20
2.895000000000001
 30
0
 11
3.714500000000001
 21
2.890000000000001
 31
0
  0
LINE
  8
0
 62
7
 10
3.714500000000001
 20
2.890000000000001
 30
0
 11
3.728
 21
2.890000000000001
 31
0
  0
LINE
  8
0
 62
7
 10
3.728
 20
2.890000000000001
 30
0
 11
3.737
 21
2.895000000000001
 31
0
  0
LINE
  8
0
 62
7
 10
3.737
 20
2.895000000000001
 30
0
 11
3.74375
 21
2.902500000000001
 31
0
  0
LINE
  8
0
 62
7
 10
3.74375
 20
2.902500000000001
 30
0
 11
3.748250000000001
 21
2.912500000000001
 31
0
  0
LINE
  8
0
 62
7
 10
3.748250000000001
 20
2.912500000000001
 30
0
 11
3.748250000000001
 21
2.927500000000001
 31
0
  0
LINE
  8
0
 62
7
 10
3.748250000000001
 20
2.927500000000001
 30
0
 11
3.74375
 21
2.937500000000001
 31
0
  0
LINE
  8
0
 62
7
 10
3.74375
 20
2.937500000000001
 30
0
 11
3.737
 21
2.945000000000001
 31
0
  0
LINE
  8
0
 62
7
 10
3.737
 20
2.945000000000001
 30
0
 11
3.72575
 21
2.950000000000001
 31
0
  0
LINE
  8
0
 62
7
 10
3.83375
 20
2.990000000000001
 30
0
 11
3.78425
 21
2.990000000000001
 31
0
  0
LINE
  8
0
 62
7
 10
3.78425
 20
2.990000000000001
 30
0
 11
3.78425
 21
2.940000000000001
 31
0
  0
LINE
  8
0
 62
7
 10
3.78425
 20
2.940000000000001
 30
0
 11
3.78875
 21
2.947500000000001
 31
0
  0
LINE
  8
0
 62
7
 10
3.78875
 20
2.947500000000001
 30
0
 11
3.7955
 21
2.952500000000001
 31
0
  0
LINE
  8
0
 62
7
 10
3.7955
 20
2.952500000000001
 30
0
 11
3.8045
 21
2.955000000000001
 31
0
  0
LINE
  8
0
 62
7
 10
3.8045
 20
2.955000000000001
 30
0
 11
3.818
 21
2.955000000000001
 31
0
  0
LINE
  8
0
 62
7
 10
3.818
 20
2.955000000000001
 30
0
 11
3.82475
 21
2.952500000000001
 31
0
  0
LINE
  8
0
 62
7
 10
3.82475
 20
2.952500000000001
 30
0
 11
3.8315
 21
2.947500000000001
 31
0
  0
LINE
  8
0
 62
7
 10
3.8315
 20
2.947500000000001
 30
0
 11
3.836
 21
2.940000000000001
 31
0
  0
LINE
  8
0
 62
7
 10
3.836
 20
2.940000000000001
 30
0
 11
3.83825
 21
2.930000000000001
 31
0
  0
LINE
  8
0
 62
7
 10
3.83825
 20
2.930000000000001
 30
0
 11
3.83825
 21
2.915000000000001
 31
0
  0
LINE
  8
0
 62
7
 10
3.83825
 20
2.915000000000001
 30
0
 11
3.836
 21
2.905000000000001
 31
0
  0
LINE
  8
0
 62
7
 10
3.836
 20
2.905000000000001
 30
0
 11
3.8315
 21
2.897500000000001
 31
0
  0
LINE
  8
0
 62
7
 10
3.8315
 20
2.897500000000001
 30
0
 11
3.82475
 21
2.892500000000001
 31
0
  0
LINE
  8
0
 62
7
 10
3.82475
 20
2.892500000000001
 30
0
 11
3.818
 21
2.890000000000001
 31
0
  0
LINE
  8
0
 62
7
 10
3.818
 20
2.890000000000001
 30
0
 11
3.8045
 21
2.890000000000001
 31
0
  0
LINE
  8
0
 62
7
 10
3.8045
 20
2.890000000000001
 30
0
 11
3.7955
 21
2.892500000000001
 31
0
  0
LINE
  8
0
 62
7
 10
3.7955
 20
2.892500000000001
 30
0
 11
3.78875
 21
2.897500000000001
 31
0
  0
LINE
  8
0
 62
7
 10
3.78875
 20
2.897500000000001
 30
0
 11
3.78425
 21
2.905000000000001
 31
0
  0
LINE
  8
0
 62
7
 10
3.989
 20
2.942500000000001
 30
0
 11
3.98225
 21
2.952500000000001
 31
0
  0
LINE
  8
0
 62
7
 10
3.98225
 20
2.952500000000001
 30
0
 11
3.9755
 21
2.957500000000001
 31
0
  0
LINE
  8
0
 62
7
 10
3.9755
 20
2.957500000000001
 30
0
 11
3.96875
 21
2.960000000000001
 31
0
  0
LINE
  8
0
 62
7
 10
3.96875
 20
2.960000000000001
 30
0
 11
3.959750000000001
 21
2.960000000000001
 31
0
  0
LINE
  8
0
 62
7
 10
3.959750000000001
 20
2.960000000000001
 30
0
 11
3.953
 21
2.957500000000001
 31
0
  0
LINE
  8
0
 62
7
 10
3.953
 20
2.957500000000001
 30
0
 11
3.94625
 21
2.952500000000001
 31
0
  0
LINE
  8
0
 62
7
 10
3.94625
 20
2.952500000000001
 30
0
 11
3.939500000000001
 21
2.942500000000001
 31
0
  0
LINE
  8
0
 62
7
 10
3.939500000000001
 20
2.942500000000001
 30
0
 11
3.937250000000001
 21
2.935000000000001
 31
0
  0
LINE
  8
0
 62
7
 10
3.937250000000001
 20
2.935000000000001
 30
0
 11
3.937250000000001
 21
2.915000000000001
 31
0
  0
LINE
  8
0
 62
7
 10
3.937250000000001
 20
2.915000000000001
 30
0
 11
3.939500000000001
 21
2.907500000000001
 31
0
  0
LINE
  8
0
 62
7
 10
3.939500000000001
 20
2.907500000000001
 30
0
 11
3.94625
 21
2.897500000000001
 31
0
  0
LINE
  8
0
 62
7
 10
3.94625
 20
2.897500000000001
 30
0
 11
3.953
 21
2.892500000000001
 31
0
  0
LINE
  8
0
 62
7
 10
3.953
 20
2.892500000000001
 30
0
 11
3.959750000000001
 21
2.890000000000001
 31
0
  0
LINE
  8
0
 62
7
 10
3.959750000000001
 20
2.890000000000001
 30
0
 11
3.96875
 21
2.890000000000001
 31
0
  0
LINE
  8
0
 62
7
 10
3.96875
 20
2.890000000000001
 30
0
 11
3.9755
 21
2.892500000000001
 31
0
  0
LINE
  8
0
 62
7
 10
3.9755
 20
2.892500000000001
 30
0
 11
3.98225
 21
2.897500000000001
 31
0
  0
LINE
  8
0
 62
7
 10
3.98225
 20
2.897500000000001
 30
0
 11
3.989
 21
2.907500000000001
 31
0
  0
LINE
  8
0
 62
7
 10
4.0475
 20
2.935000000000001
 30
0
 11
4.0475
 21
2.890000000000001
 31
0
  0
LINE
  8
0
 62
7
 10
4.007000000000001
 20
2.960000000000001
 30
0
 11
4.007000000000001
 21
2.935000000000001
 31
0
  0
LINE
  8
0
 62
7
 10
4.007000000000001
 20
2.890000000000001
 30
0
 11
4.007000000000001
 21
2.935000000000001
 31
0
  0
LINE
  8
0
 62
7
 10
4.007000000000001
 20
2.935000000000001
 30
0
 11
4.009250000000001
 21
2.947500000000001
 31
0
  0
LINE
  8
0
 62
7
 10
4.009250000000001
 20
2.947500000000001
 30
0
 11
4.011500000000001
 21
2.952500000000001
 31
0
  0
LINE
  8
0
 62
7
 10
4.011500000000001
 20
2.952500000000001
 30
0
 11
4.016000000000001
 21
2.957500000000001
 31
0
  0
LINE
  8
0
 62
7
 10
4.016000000000001
 20
2.957500000000001
 30
0
 11
4.02275
 21
2.960000000000001
 31
0
  0
LINE
  8
0
 62
7
 10
4.02275
 20
2.960000000000001
 30
0
 11
4.031750000000001
 21
2.960000000000001
 31
0
  0
LINE
  8
0
 62
7
 10
4.031750000000001
 20
2.960000000000001
 30
0
 11
4.0385
 21
2.957500000000001
 31
0
  0
LINE
  8
0
 62
7
 10
4.0385
 20
2.957500000000001
 30
0
 11
4.043
 21
2.952500000000001
 31
0
  0
LINE
  8
0
 62
7
 10
4.043
 20
2.952500000000001
 30
0
 11
4.04525
 21
2.947500000000001
 31
0
  0
LINE
  8
0
 62
7
 10
4.04525
 20
2.947500000000001
 30
0
 11
4.0475
 21
2.935000000000001
 31
0
  0
LINE
  8
0
 62
7
 10
4.0475
 20
2.935000000000001
 30
0
 11
4.04975
 21
2.947500000000001
 31
0
  0
LINE
  8
0
 62
7
 10
4.04975
 20
2.947500000000001
 30
0
 11
4.052
 21
2.952500000000001
 31
0
  0
LINE
  8
0
 62
7
 10
4.052
 20
2.952500000000001
 30
0
 11
4.0565
 21
2.957500000000001
 31
0
  0
LINE
  8
0
 62
7
 10
4.0565
 20
2.957500000000001
 30
0
 11
4.06325
 21
2.960000000000001
 31
0
  0
LINE
  8
0
 62
7
 10
4.06325
 20
2.960000000000001
 30
0
 11
4.07225
 21
2.960000000000001
 31
0
  0
LINE
  8
0
 62
7
 10
4.07225
 20
2.960000000000001
 30
0
 11
4.079
 21
2.957500000000001
 31
0
  0
LINE
  8
0
 62
7
 10
4.0835
 20
2.952500000000001
 30
0
 11
4.079
 21
2.957500000000001
 31
0
  0
LINE
  8
0
 62
7
 10
4.079
 20
2.957500000000001
 30
0
 11
4.0835
 21
2.952500000000001
 31
0
  0
LINE
  8
0
 62
7
 10
4.0835
 20
2.952500000000001
 30
0
 11
4.08575
 21
2.947500000000001
 31
0
  0
LINE
  8
0
 62
7
 10
4.08575
 20
2.947500000000001
 30
0
 11
4.088
 21
2.935000000000001
 31
0
  0
LINE
  8
0
 62
7
 10
4.088
 20
2.935000000000001
 30
0
 11
4.088
 21
2.890000000000001
 31
0
  0
ARC
  8
0
 62
7
 10
2.570951618810615
 20
3.885951618810671
 30
0
 40
0.4929999999999947
 50
359.8894041092594
 51
90.11059589442243
  0
ARC
  8
0
 62
7
 10
2.239048381189325
 20
3.885951618810644
 30
0
 40
0.4930000000000023
 50
89.8894041074975
 51
180.110595894425
  0
CIRCLE
  8
0
 62
7
 10
3.063950700373326
 20
3.250000000000001
 30
0
 40
0.05999999999999872
  0
DIMENSION
  8
0
  6
CONTINUOUS
 62
7
  2
*D0
  3
DMST_1
 10
0.825595439448115
 20
3.35
 30
0
 11
0.825595439448115
 21
4.09514324220746
 31
0
 12
0
 22
0
 32
0
 70
0
 13
1.1
 23
4.850000000000003
 33
0
 14
1.1
 24
3.35
 34
0
 50
90
 53
0
  0
DIMENSION
  8
0
  6
CONTINUOUS
 62
7
  2
*D1
  3
DMST_1
 10
1.275000000000001
 20
5.80752276017715
 30
0
 11
2.354095277635821
 21
5.80752276017715
 31
0
 12
0
 22
0
 32
0
 70
0
 13
3.534999999999995
 23
5.369999999999995
 33
0
 14
1.275
 24
5.369999999999995
 34
0
 53
0
  0
DIMENSION
  8
0
  6
CONTINUOUS
 62
7
  2
*D2
  3
DMST_1
 10
4.043489835632761
 20
4.850000000000001
 30
0
 11
4.043489835632761
 21
4.08365076222109
 31
0
 12
0
 22
0
 32
0
 70
0
 13
3.709999999999996
 23
3.25
 33
0
 14
3.709999999999996
 24
4.850000000000001
 34
0
 50
90
 53
0
  0
DIMENSION
  8
0
  6
CONTINUOUS
 62
7
  2
*D3
  3
DMST_2
 10
3.534999999999995
 20
11.4733153934594
 30
0
 11
2.42305015755406
 21
11.4733153934594
 31
0
 12
0
 22
0
 32
0
 70
0
 13
1.275
 23
11.2
 33
0
 14
3.534999999999995
 24
11.2
 34
0
 53
0
  0
INSERT
  8
0
  2
*D4
 10
0
 20
0
 30
0
  0
ENDSEC
  0
EOF
