  0
SECTION
  2
HEADER
  9
$ACADVER
  1
AC1009
  9
$INSBASE
 10
0
 20
0
  9
$EXTMIN
 10
0.45
 20
2.890000000000001
  9
$EXTMAX
 10
8.249869385397139
 20
11.6109782317039
  9
$LIMMIN
 10
0.45
 20
2.890000000000001
  9
$LIMMAX
 10
8.249869385397139
 20
11.6109782317039
  9
$VIEWCTR
 10
10
 20
10
  9
$VIEWSIZE
 40
10
  9
$SNAPMODE
 70
0
  9
$SNAPUNIT
 10
1
 20
1
  9
$SNAPBASE
 10
0
 20
0
  9
$SNAPANG
 50
0
  9
$SNAPSTYLE
 70
0
  9
$SNAPISOPAIR
 70
0
  9
$GRIDMODE
 70
0
  9
$GRIDUNIT
 10
0
 20
0
  9
$ORTHOMODE
 70
0
  9
$REGENMODE
 70
1
  9
$FILLMODE
 70
1
  9
$QTEXTMODE
 70
0
  9
$DRAGMODE
 70
2
  9
$LTSCALE
 40
1
  9
$OSMODE
 70
0
  9
$ATTMODE
 70
1
  9
$TEXTSIZE
 40
3.5
  9
$TRACEWID
 40
0.5
  9
$TEXTSTYLE
  7
STANDARD
  9
$CLAYER
  8
0
  9
$CELTYPE
  6
BYLAYER
  9
$CECOLOR
 62
256
  9
$DIMSCALE
 40
1
  9
$DIMASZ
 40
0.18
  9
$DIMEXO
 40
0.0625
  9
$DIMDLI
 40
0.38
  9
$DIMRND
 40
0
  9
$DIMDLE
 40
0
  9
$DIMEXE
 40
0.18
  9
$DIMTP
 40
0
  9
$DIMTM
 40
0
  9
$DIMTXT
 40
0.18
  9
$DIMCEN
 40
0.09
  9
$DIMTSZ
 40
0
  9
$DIMTOL
 70
0
  9
$DIMLIM
 70
0
  9
$DIMTIH
 70
1
  9
$DIMTOH
 70
1
  9
$DIMSE1
 70
0
  9
$DIMSE2
 70
0
  9
$DIMTAD
 70
0
  9
$DIMZIN
 70
0
  9
$DIMBLK
  1

  9
$DIMASO
 70
1
  9
$DIMSHO
 70
1
  9
$DIMPOST
  1

  9
$DIMAPOST
  1

  9
$DIMALT
 70
0
  9
$DIMALTD
 70
2
  9
$DIMALTF
 40
25.4
  9
$DIMLFAC
 40
1
  9
$DIMTOFL
 70
0
  9
$DIMTVP
 40
0
  9
$DIMTIX
 70
0
  9
$DIMSOXD
 70
0
  9
$DIMSAH
 70
0
  9
$DIMBLK1
  1

  9
$DIMBLK2
  1

  9
$DIMSTYLE
  2
*UNNAMED
  9
$DIMCLRD
 70
0
  9
$DIMCLRE
 70
0
  9
$DIMCLRT
 70
0
  9
$DIMTFAC
 40
1
  9
$DIMGAP
 40
0.09
  9
$LUNITS
 70
2
  9
$LUPREC
 70
4
  9
$AXISMODE
 70
0
  9
$AXISUNIT
 10
0
 20
0
  9
$SKETCHINC
 40
0.1
  9
$FILLETRAD
 40
2
  9
$AUNITS
 70
0
  9
$AUPREC
 70
0
  9
$MENU
  1
ACAD
  9
$ELEVATION
 40
0
  9
$THICKNESS
 40
0
  9
$VIEWDIR
 10
0
 20
0
 30
1
  9
$LIMCHECK
 70
0
  9
$BLIPMODE
 70
1
  9
$CHAMFERA
 40
0
  9
$CHAMFERB
 40
0
  9
$FASTZOOM
 70
1
  9
$SKPOLY
 70
0
  9
$ANGBASE
 50
0
  9
$ANGDIR
 70
0
  9
$PDMODE
 70
0
  9
$PDSIZE
 40
0
  9
$PLINEWID
 40
0
  9
$COORDS
 70
2
  0
ENDSEC
  0
SECTION
  2
TABLES
  0
TABLE
  2
DIMSTYLE
 70
2
  0
DIMSTYLE
  2
DMST_1
 70
0
  3

  4

  5

  6

  7

 40
1
 41
0.1
 42
0
 43
0.7
 44
0.2
 45
0
 46
0
 47
0
 48
0
140
0.1
141
0
142
0.1
143
25.4
144
1
145
0
146
1
147
0.25
 71
0
 72
0
 73
0
 74
0
 75
0
 76
0
 77
0
 78
9
170
0
171
2
172
0
173
0
174
0
175
0
176
7
177
7
178
7
  0
DIMSTYLE
  2
DMST_2
 70
0
  3

  4

  5

  6

  7

 40
1
 41
0.1
 42
0
 43
0.7
 44
0.2
 45
0
 46
0
 47
0
 48
0
140
0.1
141
0
142
0.1
143
25.4
144
1
145
0
146
1
147
0.2
 71
0
 72
0
 73
0
 74
0
 75
0
 76
0
 77
0
 78
9
170
0
171
2
172
0
173
0
174
0
175
0
176
7
177
7
178
7
  0
ENDTAB
  0
TABLE
  2
LTYPE
 70
9
  0
LTYPE
  2
CONTINUOUS
 70
64
  3
Solid line
 72
65
 73
0
 40
0
  0
LTYPE
  2
BORDER
 70
64
  3
__ __ . __ __ .
 72
65
 73
6
 40
0.4016239975126796
 49
0.1147497135750513
 49
-0.05737485678752565
 49
0.1147497135750513
 49
-0.05737485678752565
 49
0
 49
-0.05737485678752565
  0
LTYPE
  2
CENTER
 70
64
  3
____ _ ____ _
 72
65
 73
4
 40
0.4589988543002052
 49
0.2868742839376283
 49
-0.05737485678752565
 49
0.05737485678752565
 49
-0.05737485678752565
  0
LTYPE
  2
DASHDOT
 70
64
  3
__ . __ . __ .
 72
65
 73
4
 40
0.2294994271501026
 49
0.1147497135750513
 49
-0.05737485678752565
 49
0
 49
-0.05737485678752565
  0
LTYPE
  2
DASHED
 70
64
  3
__ __ __ __ __
 72
65
 73
2
 40
0.1721245703625769
 49
0.1147497135750513
 49
-0.05737485678752565
  0
LTYPE
  2
DIVIDE
 70
64
  3
__ . . __ . . 
 72
65
 73
6
 40
0.2868742839376283
 49
0.1147497135750513
 49
-0.05737485678752565
 49
0
 49
-0.05737485678752565
 49
0
 49
-0.05737485678752565
  0
LTYPE
  2
DOT
 70
64
  3
..............
 72
65
 73
4
 40
0.1147497135750513
 49
0
 49
-0.05737485678752565
 49
0
 49
-0.05737485678752565
  0
LTYPE
  2
HIDDEN
 70
64
  3
_ _ _ _ _ _ _
 72
65
 73
2
 40
0.08606228518128847
 49
0.05737485678752565
 49
-0.02868742839376283
  0
LTYPE
  2
PHANTOM
 70
64
  3
_____ _ _ _____ _ _ 
 72
65
 73
6
 40
0.5737485678752565
 49
0.2868742839376283
 49
-0.05737485678752565
 49
0.05737485678752565
 49
-0.05737485678752565
 49
0.05737485678752565
 49
-0.05737485678752565
  0
ENDTAB
  0
TABLE
  2
LAYER
 70
2
  0
LAYER
  2
0
 70
0
 62
7
  6
CONTINUOUS
  0
ENDTAB
  0
TABLE
  2
STYLE
 70
4
  0
STYLE
  2
STANDARD
 70
0
 40
0
 41
1
 50
0
 71
0
 42
3.5
  3
txt
  4

  0
STYLE
  2
SIMPLEX
 70
0
 40
0
 41
1
 50
0
 71
0
 42
3.5
  3
simplex
  4

  0
STYLE
  2
COMPLEX
 70
0
 40
0
 41
1
 50
0
 71
0
 42
3.5
  3
complex
  4

  0
STYLE
  2
ITALIC
 70
0
 40
0
 41
1
 50
0
 71
0
 42
3.5
  3
italic
  4

  0
ENDTAB
  0
TABLE
  2
VIEW
 70
0
  0
ENDTAB
  0
ENDSEC
  0
SECTION
  2
BLOCKS
  0
BLOCK
  8
0
  2
*X0
 70
1
 10
0
 20
0
 30
0
  0
LINE
  8
0
 62
7
  6
DASHED
 10
0.5
 20
8.242819253992694
 30
0
 11
0.5571807460073028
 21
8.299999999999997
 31
0
  0
LINE
  8
0
 62
7
  6
DASHED
 10
0.5693127803632669
 20
8.099999999999996
 30
0
 11
0.7399999999999998
 21
8.270687219636729
 31
0
  0
LINE
  8
0
 62
7
 10
0.4999999999999991
 20
8.136753236814712
 30
0
 11
0.6632467631852856
 21
8.299999999999997
 31
0
  0
LINE
  8
0
 62
7
 10
0.6753787975412489
 20
8.099999999999998
 30
0
 11
0.7399999999999989
 21
8.164621202458747
 31
0
  0
ENDBLK
  8
0
  0
BLOCK
  8
0
  2
*X1
 70
1
 10
0
 20
0
 30
0
  0
LINE
  8
0
 62
7
  6
DASHED
 10
0.4999999999999991
 20
11.00053570062023
 30
0
 11
0.5494642993797729
 21
11.05
 31
0
  0
LINE
  8
0
 62
7
  6
DASHED
 10
0.5615963337357357
 20
10.85
 30
0
 11
0.7399999999999993
 21
11.02840366626426
 31
0
  0
LINE
  8
0
 62
7
 10
0.5000000000000009
 20
10.89446968344225
 30
0
 11
0.655530316557754
 21
11.05
 31
0
  0
LINE
  8
0
 62
7
 10
0.6676623509137176
 20
10.85
 30
0
 11
0.7400000000000002
 21
10.92233764908628
 31
0
  0
ENDBLK
  8
0
  0
BLOCK
  8
0
  2
*X2
 70
1
 10
0
 20
0
 30
0
  0
LINE
  8
0
 62
7
  6
DASHED
 10
2.239999999999996
 20
11.04347942577251
 30
0
 11
2.246520574227486
 21
11.05
 31
0
  0
LINE
  8
0
 62
7
  6
DASHED
 10
2.258652608583449
 20
10.85
 30
0
 11
2.45865260858345
 21
11.05
 31
0
  0
LINE
  8
0
 62
7
  6
DASHED
 10
2.470784642939413
 20
10.85
 30
0
 11
2.539999999999996
 21
10.91921535706058
 31
0
  0
LINE
  8
0
 62
7
 10
2.239999999999998
 20
10.93741340859453
 30
0
 11
2.352586591405468
 21
11.05
 31
0
  0
LINE
  8
0
 62
7
 10
2.36471862576143
 20
10.85
 30
0
 11
2.539999999999996
 21
11.02528137423856
 31
0
  0
ENDBLK
  8
0
  0
BLOCK
  8
0
  2
*X3
 70
1
 10
0
 20
0
 30
0
  0
LINE
  8
0
 62
7
  6
DASHED
 10
2.239999999999997
 20
8.285762979144977
 30
0
 11
2.254237020855017
 21
8.299999999999997
 31
0
  0
LINE
  8
0
 62
7
  6
DASHED
 10
2.266369055210981
 20
8.099999999999996
 30
0
 11
2.466369055210981
 21
8.299999999999997
 31
0
  0
LINE
  8
0
 62
7
  6
DASHED
 10
2.478501089566945
 20
8.099999999999996
 30
0
 11
2.539999999999997
 21
8.161498910433048
 31
0
  0
LINE
  8
0
 62
7
 10
2.239999999999996
 20
8.179696961966995
 30
0
 11
2.360303038033
 21
8.299999999999997
 31
0
  0
LINE
  8
0
 62
7
 10
2.372435072388963
 20
8.099999999999996
 30
0
 11
2.539999999999996
 21
8.26756492761103
 31
0
  0
ENDBLK
  8
0
  0
BLOCK
  8
0
  2
*X4
 70
1
 10
0
 20
0
 30
0
  0
LINE
  8
0
 62
7
 10
0.549464299379772
 20
11.05
 30
0
 11
0.6994642993797706
 21
11.2
 31
0
  0
LINE
  8
0
 62
7
 10
0.5
 20
11.10660171779821
 30
0
 11
0.5933982822017896
 21
11.2
 31
0
  0
LINE
  8
0
 62
7
 10
0.655530316557754
 20
11.05
 30
0
 11
0.7400000000000002
 21
11.13446968344225
 31
0
  0
ENDBLK
  8
0
  0
BLOCK
  8
0
  2
*X5
 70
1
 10
0
 20
0
 30
0
  0
LINE
  8
0
 62
7
 10
0.5000000000000004
 20
10.78840366626426
 30
0
 11
0.5615963337357339
 21
10.85
 31
0
  0
LINE
  8
0
 62
7
 10
0.5000000000000004
 20
10.5762716319083
 30
0
 11
0.7400000000000002
 21
10.8162716319083
 31
0
  0
LINE
  8
0
 62
7
 10
0.5000000000000004
 20
10.36413959755233
 30
0
 11
0.7400000000000002
 21
10.60413959755233
 31
0
  0
LINE
  8
0
 62
7
 10
0.5000000000000004
 20
10.15200756319637
 30
0
 11
0.7400000000000002
 21
10.39200756319637
 31
0
  0
LINE
  8
0
 62
7
 10
0.5000000000000004
 20
9.939875528840407
 30
0
 11
0.7400000000000002
 21
10.17987552884041
 31
0
  0
LINE
  8
0
 62
7
 10
0.5000000000000004
 20
9.727743494484443
 30
0
 11
0.7400000000000002
 21
9.967743494484441
 31
0
  0
LINE
  8
0
 62
7
 10
0.5000000000000004
 20
9.515611460128479
 30
0
 11
0.7400000000000002
 21
9.755611460128478
 31
0
  0
LINE
  8
0
 62
7
 10
0.5000000000000004
 20
9.303479425772515
 30
0
 11
0.7400000000000002
 21
9.543479425772514
 31
0
  0
LINE
  8
0
 62
7
 10
0.5000000000000004
 20
9.091347391416551
 30
0
 11
0.7400000000000002
 21
9.33134739141655
 31
0
  0
LINE
  8
0
 62
7
 10
0.5000000000000004
 20
8.879215357060588
 30
0
 11
0.7400000000000002
 21
9.119215357060586
 31
0
  0
LINE
  8
0
 62
7
 10
0.5000000000000004
 20
8.667083322704624
 30
0
 11
0.7400000000000002
 21
8.907083322704622
 31
0
  0
LINE
  8
0
 62
7
 10
0.5000000000000004
 20
8.45495128834866
 30
0
 11
0.7400000000000002
 21
8.694951288348658
 31
0
  0
LINE
  8
0
 62
7
 10
0.5571807460073028
 20
8.299999999999997
 30
0
 11
0.7400000000000002
 21
8.482819253992695
 31
0
  0
LINE
  8
0
 62
7
 10
0.5
 20
10.68233764908628
 30
0
 11
0.6676623509137176
 21
10.85
 31
0
  0
LINE
  8
0
 62
7
 10
0.5
 20
10.47020561473031
 30
0
 11
0.7400000000000007
 21
10.71020561473031
 31
0
  0
LINE
  8
0
 62
7
 10
0.5
 20
10.25807358037435
 30
0
 11
0.7400000000000007
 21
10.49807358037435
 31
0
  0
LINE
  8
0
 62
7
 10
0.5
 20
10.04594154601839
 30
0
 11
0.7400000000000007
 21
10.28594154601839
 31
0
  0
LINE
  8
0
 62
7
 10
0.5
 20
9.833809511662423
 30
0
 11
0.7400000000000007
 21
10.07380951166242
 31
0
  0
LINE
  8
0
 62
7
 10
0.5
 20
9.621677477306459
 30
0
 11
0.7400000000000007
 21
9.861677477306458
 31
0
  0
LINE
  8
0
 62
7
 10
0.5
 20
9.409545442950495
 30
0
 11
0.7400000000000007
 21
9.649545442950494
 31
0
  0
LINE
  8
0
 62
7
 10
0.5
 20
9.197413408594532
 30
0
 11
0.7400000000000007
 21
9.43741340859453
 31
0
  0
LINE
  8
0
 62
7
 10
0.5
 20
8.985281374238568
 30
0
 11
0.7400000000000007
 21
9.225281374238566
 31
0
  0
LINE
  8
0
 62
7
 10
0.5
 20
8.773149339882604
 30
0
 11
0.7400000000000007
 21
9.013149339882602
 31
0
  0
LINE
  8
0
 62
7
 10
0.5
 20
8.56101730552664
 30
0
 11
0.7400000000000007
 21
8.801017305526639
 31
0
  0
LINE
  8
0
 62
7
 10
0.5
 20
8.348885271170676
 30
0
 11
0.7400000000000007
 21
8.588885271170675
 31
0
  0
LINE
  8
0
 62
7
 10
0.6632467631852861
 20
8.299999999999997
 30
0
 11
0.7400000000000007
 21
8.376753236814711
 31
0
  0
ENDBLK
  8
0
  0
BLOCK
  8
0
  2
*X6
 70
1
 10
0
 20
0
 30
0
  0
LINE
  8
0
 62
7
 10
0.5
 20
8.03068721963673
 30
0
 11
0.5693127803632656
 21
8.099999999999996
 31
0
  0
LINE
  8
0
 62
7
 10
0.6314448147192295
 20
7.949999999999995
 30
0
 11
0.7399999999999998
 21
8.058555185280765
 31
0
  0
LINE
  8
0
 62
7
 10
0.5253787975412476
 20
7.949999999999996
 30
0
 11
0.6753787975412489
 21
8.099999999999998
 31
0
  0
LINE
  8
0
 62
7
 10
0.7375108318972119
 20
7.949999999999996
 30
0
 11
0.7399999999999993
 21
7.952489168102783
 31
0
  0
ENDBLK
  8
0
  0
BLOCK
  8
0
  2
*X7
 70
1
 10
0
 20
0
 30
0
  0
LINE
  8
0
 62
7
  6
DASHED
 10
4.839999999999998
 20
10.88576297914498
 30
0
 11
5.004237020855027
 21
11.05
 31
0
  0
LINE
  8
0
 62
7
  6
DASHED
 10
5.016369055210991
 20
10.85
 30
0
 11
5.216369055210991
 21
11.05
 31
0
  0
LINE
  8
0
 62
7
  6
DASHED
 10
5.228501089566954
 20
10.85
 30
0
 11
5.428501089566955
 21
11.05
 31
0
  0
LINE
  8
0
 62
7
  6
DASHED
 10
5.440633123922918
 20
10.85
 30
0
 11
5.640633123922918
 21
11.05
 31
0
  0
LINE
  8
0
 62
7
  6
DASHED
 10
5.652765158278882
 20
10.85
 30
0
 11
5.852765158278882
 21
11.05
 31
0
  0
LINE
  8
0
 62
7
  6
DASHED
 10
5.864897192634846
 20
10.85
 30
0
 11
6.064897192634846
 21
11.05
 31
0
  0
LINE
  8
0
 62
7
  6
DASHED
 10
6.07702922699081
 20
10.85
 30
0
 11
6.27702922699081
 21
11.05
 31
0
  0
LINE
  8
0
 62
7
  6
DASHED
 10
6.289161261346774
 20
10.85
 30
0
 11
6.489161261346774
 21
11.05
 31
0
  0
LINE
  8
0
 62
7
  6
DASHED
 10
6.501293295702737
 20
10.85
 30
0
 11
6.701293295702738
 21
11.05
 31
0
  0
LINE
  8
0
 62
7
  6
DASHED
 10
6.713425330058701
 20
10.85
 30
0
 11
6.913425330058701
 21
11.05
 31
0
  0
LINE
  8
0
 62
7
  6
DASHED
 10
6.925557364414665
 20
10.85
 30
0
 11
7.125557364414665
 21
11.05
 31
0
  0
LINE
  8
0
 62
7
  6
DASHED
 10
7.137689398770629
 20
10.85
 30
0
 11
7.337689398770629
 21
11.05
 31
0
  0
LINE
  8
0
 62
7
  6
DASHED
 10
7.349821433126593
 20
10.85
 30
0
 11
7.549821433126593
 21
11.05
 31
0
  0
LINE
  8
0
 62
7
  6
DASHED
 10
7.561953467482557
 20
10.85
 30
0
 11
7.75
 21
11.03804653251744
 31
0
  0
LINE
  8
0
 62
7
 10
4.839999999999998
 20
10.99182899632296
 30
0
 11
4.898171003677044
 21
11.05
 31
0
  0
LINE
  8
0
 62
7
 10
4.910303038033008
 20
10.85
 30
0
 11
5.110303038033008
 21
11.05
 31
0
  0
LINE
  8
0
 62
7
 10
5.122435072388972
 20
10.85
 30
0
 11
5.322435072388972
 21
11.05
 31
0
  0
LINE
  8
0
 62
7
 10
5.334567106744935
 20
10.85
 30
0
 11
5.534567106744936
 21
11.05
 31
0
  0
LINE
  8
0
 62
7
 10
5.546699141100899
 20
10.85
 30
0
 11
5.746699141100899
 21
11.05
 31
0
  0
LINE
  8
0
 62
7
 10
5.758831175456863
 20
10.85
 30
0
 11
5.958831175456863
 21
11.05
 31
0
  0
LINE
  8
0
 62
7
 10
5.970963209812827
 20
10.85
 30
0
 11
6.170963209812827
 21
11.05
 31
0
  0
LINE
  8
0
 62
7
 10
6.183095244168791
 20
10.85
 30
0
 11
6.383095244168791
 21
11.05
 31
0
  0
LINE
  8
0
 62
7
 10
6.395227278524755
 20
10.85
 30
0
 11
6.595227278524755
 21
11.05
 31
0
  0
LINE
  8
0
 62
7
 10
6.607359312880718
 20
10.85
 30
0
 11
6.807359312880719
 21
11.05
 31
0
  0
LINE
  8
0
 62
7
 10
6.819491347236682
 20
10.85
 30
0
 11
7.019491347236682
 21
11.05
 31
0
  0
LINE
  8
0
 62
7
 10
7.031623381592646
 20
10.85
 30
0
 11
7.231623381592646
 21
11.05
 31
0
  0
LINE
  8
0
 62
7
 10
7.24375541594861
 20
10.85
 30
0
 11
7.44375541594861
 21
11.05
 31
0
  0
LINE
  8
0
 62
7
 10
7.455887450304574
 20
10.85
 30
0
 11
7.655887450304574
 21
11.05
 31
0
  0
LINE
  8
0
 62
7
 10
7.668019484660538
 20
10.85
 30
0
 11
7.749999999999999
 21
10.93198051533946
 31
0
  0
ENDBLK
  8
0
  0
BLOCK
  8
0
  2
*X8
 70
1
 10
0
 20
0
 30
0
  0
LINE
  8
0
 62
7
  6
DASHED
 10
4.84
 20
8.128046532517445
 30
0
 11
5.011953467482558
 21
8.299999999999997
 31
0
  0
LINE
  8
0
 62
7
  6
DASHED
 10
5.02408550183852
 20
8.099999999999996
 30
0
 11
5.224085501838521
 21
8.299999999999997
 31
0
  0
LINE
  8
0
 62
7
  6
DASHED
 10
5.236217536194484
 20
8.099999999999996
 30
0
 11
5.436217536194485
 21
8.299999999999997
 31
0
  0
LINE
  8
0
 62
7
  6
DASHED
 10
5.448349570550448
 20
8.099999999999996
 30
0
 11
5.648349570550449
 21
8.299999999999997
 31
0
  0
LINE
  8
0
 62
7
  6
DASHED
 10
5.660481604906412
 20
8.099999999999996
 30
0
 11
5.860481604906413
 21
8.299999999999997
 31
0
  0
LINE
  8
0
 62
7
  6
DASHED
 10
5.872613639262376
 20
8.099999999999996
 30
0
 11
6.072613639262377
 21
8.299999999999997
 31
0
  0
LINE
  8
0
 62
7
  6
DASHED
 10
6.08474567361834
 20
8.099999999999996
 30
0
 11
6.284745673618341
 21
8.299999999999997
 31
0
  0
LINE
  8
0
 62
7
  6
DASHED
 10
6.296877707974303
 20
8.099999999999996
 30
0
 11
6.496877707974305
 21
8.299999999999997
 31
0
  0
LINE
  8
0
 62
7
  6
DASHED
 10
6.509009742330267
 20
8.099999999999996
 30
0
 11
6.709009742330268
 21
8.299999999999997
 31
0
  0
LINE
  8
0
 62
7
  6
DASHED
 10
6.721141776686231
 20
8.099999999999996
 30
0
 11
6.921141776686232
 21
8.299999999999997
 31
0
  0
LINE
  8
0
 62
7
  6
DASHED
 10
6.933273811042195
 20
8.099999999999996
 30
0
 11
7.133273811042196
 21
8.299999999999997
 31
0
  0
LINE
  8
0
 62
7
  6
DASHED
 10
7.145405845398159
 20
8.099999999999996
 30
0
 11
7.34540584539816
 21
8.299999999999997
 31
0
  0
LINE
  8
0
 62
7
  6
DASHED
 10
7.357537879754123
 20
8.099999999999996
 30
0
 11
7.557537879754124
 21
8.299999999999997
 31
0
  0
LINE
  8
0
 62
7
  6
DASHED
 10
7.569669914110086
 20
8.099999999999996
 30
0
 11
7.749999999999998
 21
8.280330085889908
 31
0
  0
LINE
  8
0
 62
7
 10
4.839999999999999
 20
8.234112549695427
 30
0
 11
4.905887450304577
 21
8.299999999999999
 31
0
  0
LINE
  8
0
 62
7
 10
4.91801948466054
 20
8.099999999999996
 30
0
 11
5.11801948466054
 21
8.299999999999999
 31
0
  0
LINE
  8
0
 62
7
 10
5.130151519016504
 20
8.099999999999996
 30
0
 11
5.330151519016504
 21
8.299999999999999
 31
0
  0
LINE
  8
0
 62
7
 10
5.342283553372468
 20
8.099999999999996
 30
0
 11
5.542283553372468
 21
8.299999999999999
 31
0
  0
LINE
  8
0
 62
7
 10
5.554415587728432
 20
8.099999999999996
 30
0
 11
5.754415587728432
 21
8.299999999999999
 31
0
  0
LINE
  8
0
 62
7
 10
5.766547622084396
 20
8.099999999999996
 30
0
 11
5.966547622084396
 21
8.299999999999999
 31
0
  0
LINE
  8
0
 62
7
 10
5.978679656440359
 20
8.099999999999996
 30
0
 11
6.17867965644036
 21
8.299999999999999
 31
0
  0
LINE
  8
0
 62
7
 10
6.190811690796323
 20
8.099999999999996
 30
0
 11
6.390811690796323
 21
8.299999999999999
 31
0
  0
LINE
  8
0
 62
7
 10
6.402943725152287
 20
8.099999999999996
 30
0
 11
6.602943725152287
 21
8.299999999999999
 31
0
  0
LINE
  8
0
 62
7
 10
6.615075759508251
 20
8.099999999999996
 30
0
 11
6.815075759508251
 21
8.299999999999999
 31
0
  0
LINE
  8
0
 62
7
 10
6.827207793864215
 20
8.099999999999996
 30
0
 11
7.027207793864215
 21
8.299999999999999
 31
0
  0
LINE
  8
0
 62
7
 10
7.039339828220179
 20
8.099999999999996
 30
0
 11
7.239339828220179
 21
8.299999999999999
 31
0
  0
LINE
  8
0
 62
7
 10
7.251471862576143
 20
8.099999999999996
 30
0
 11
7.451471862576143
 21
8.299999999999999
 31
0
  0
LINE
  8
0
 62
7
 10
7.463603896932106
 20
8.099999999999996
 30
0
 11
7.663603896932107
 21
8.299999999999999
 31
0
  0
LINE
  8
0
 62
7
 10
7.67573593128807
 20
8.099999999999996
 30
0
 11
7.749999999999999
 21
8.174264068711926
 31
0
  0
ENDBLK
  8
0
  0
BLOCK
  8
0
  2
*X9
 70
1
 10
0
 20
0
 30
0
  0
LINE
  8
0
 62
7
 10
5.004237020855022
 20
11.05
 30
0
 11
5.15423702085502
 21
11.2
 31
0
  0
LINE
  8
0
 62
7
 10
4.989999999999998
 20
11.14182899632296
 30
0
 11
5.048171003677039
 21
11.2
 31
0
  0
LINE
  8
0
 62
7
 10
5.110303038033003
 20
11.05
 30
0
 11
5.164999999999999
 21
11.104696961967
 31
0
  0
ENDBLK
  8
0
  0
BLOCK
  8
0
  2
*X10
 70
1
 10
0
 20
0
 30
0
  0
LINE
  8
0
 62
7
 10
4.989999999999999
 20
10.82363094478901
 30
0
 11
5.016369055210983
 21
10.85
 31
0
  0
LINE
  8
0
 62
7
 10
4.989999999999999
 20
10.61149891043305
 30
0
 11
5.164999999999999
 21
10.78649891043305
 31
0
  0
LINE
  8
0
 62
7
 10
4.989999999999999
 20
10.39936687607708
 30
0
 11
5.164999999999999
 21
10.57436687607708
 31
0
  0
LINE
  8
0
 62
7
 10
4.989999999999999
 20
10.18723484172112
 30
0
 11
5.164999999999999
 21
10.36223484172112
 31
0
  0
LINE
  8
0
 62
7
 10
4.989999999999999
 20
9.975102807365156
 30
0
 11
5.164999999999999
 21
10.15010280736515
 31
0
  0
LINE
  8
0
 62
7
 10
4.989999999999999
 20
9.762970773009192
 30
0
 11
5.164999999999999
 21
9.937970773009191
 31
0
  0
LINE
  8
0
 62
7
 10
4.989999999999999
 20
9.550838738653228
 30
0
 11
5.164999999999999
 21
9.725838738653227
 31
0
  0
LINE
  8
0
 62
7
 10
4.989999999999999
 20
9.338706704297264
 30
0
 11
5.164999999999999
 21
9.513706704297263
 31
0
  0
LINE
  8
0
 62
7
 10
4.989999999999999
 20
9.1265746699413
 30
0
 11
5.164999999999999
 21
9.301574669941299
 31
0
  0
LINE
  8
0
 62
7
 10
4.989999999999999
 20
8.914442635585337
 30
0
 11
5.164999999999999
 21
9.089442635585335
 31
0
  0
LINE
  8
0
 62
7
 10
4.989999999999999
 20
8.702310601229373
 30
0
 11
5.164999999999999
 21
8.877310601229372
 31
0
  0
LINE
  8
0
 62
7
 10
4.989999999999999
 20
8.490178566873409
 30
0
 11
5.164999999999999
 21
8.665178566873408
 31
0
  0
LINE
  8
0
 62
7
 10
5.011953467482551
 20
8.299999999999995
 30
0
 11
5.164999999999999
 21
8.453046532517444
 31
0
  0
LINE
  8
0
 62
7
 10
4.989999999999998
 20
10.71756492761103
 30
0
 11
5.122435072388966
 21
10.85
 31
0
  0
LINE
  8
0
 62
7
 10
4.989999999999998
 20
10.50543289325506
 30
0
 11
5.165
 21
10.68043289325506
 31
0
  0
LINE
  8
0
 62
7
 10
4.989999999999998
 20
10.2933008588991
 30
0
 11
5.165
 21
10.4683008588991
 31
0
  0
LINE
  8
0
 62
7
 10
4.989999999999998
 20
10.08116882454314
 30
0
 11
5.165
 21
10.25616882454314
 31
0
  0
LINE
  8
0
 62
7
 10
4.989999999999998
 20
9.869036790187172
 30
0
 11
5.165
 21
10.04403679018717
 31
0
  0
LINE
  8
0
 62
7
 10
4.989999999999998
 20
9.656904755831208
 30
0
 11
5.165
 21
9.831904755831209
 31
0
  0
LINE
  8
0
 62
7
 10
4.989999999999998
 20
9.444772721475244
 30
0
 11
5.165
 21
9.619772721475245
 31
0
  0
LINE
  8
0
 62
7
 10
4.989999999999998
 20
9.232640687119281
 30
0
 11
5.165
 21
9.407640687119281
 31
0
  0
LINE
  8
0
 62
7
 10
4.989999999999998
 20
9.020508652763317
 30
0
 11
5.165
 21
9.195508652763317
 31
0
  0
LINE
  8
0
 62
7
 10
4.989999999999998
 20
8.808376618407353
 30
0
 11
5.165
 21
8.983376618407354
 31
0
  0
LINE
  8
0
 62
7
 10
4.989999999999998
 20
8.596244584051389
 30
0
 11
5.165
 21
8.77124458405139
 31
0
  0
LINE
  8
0
 62
7
 10
4.989999999999998
 20
8.384112549695425
 30
0
 11
5.165
 21
8.559112549695426
 31
0
  0
LINE
  8
0
 62
7
 10
5.118019484660534
 20
8.299999999999997
 30
0
 11
5.165
 21
8.346980515339462
 31
0
  0
ENDBLK
  8
0
  0
BLOCK
  8
0
  2
*X11
 70
1
 10
0
 20
0
 30
0
  0
LINE
  8
0
 62
7
 10
4.989999999999998
 20
8.065914498161478
 30
0
 11
5.024085501838516
 21
8.099999999999996
 31
0
  0
LINE
  8
0
 62
7
 10
5.086217536194479
 20
7.949999999999996
 30
0
 11
5.165
 21
8.028782463805516
 31
0
  0
LINE
  8
0
 62
7
 10
4.989999999999998
 20
7.959848480983497
 30
0
 11
5.130151519016498
 21
8.099999999999996
 31
0
  0
ENDBLK
  8
0
  0
BLOCK
  8
0
  2
*X12
 70
1
 10
0
 20
0
 30
0
  0
LINE
  8
0
 62
7
 10
7.424999999999998
 20
11.13731060122937
 30
0
 11
7.487689398770626
 21
11.2
 31
0
  0
LINE
  8
0
 62
7
 10
7.549821433126593
 20
11.05
 30
0
 11
7.599999999999997
 21
11.10017856687341
 31
0
  0
LINE
  8
0
 62
7
 10
7.44375541594861
 20
11.05
 30
0
 11
7.593755415948609
 21
11.2
 31
0
  0
ENDBLK
  8
0
  0
BLOCK
  8
0
  2
*X13
 70
1
 10
0
 20
0
 30
0
  0
LINE
  8
0
 62
7
 10
7.424999999999999
 20
10.71304653251744
 30
0
 11
7.561953467482555
 21
10.85
 31
0
  0
LINE
  8
0
 62
7
 10
7.424999999999999
 20
10.50091449816147
 30
0
 11
7.6
 21
10.67591449816148
 31
0
  0
LINE
  8
0
 62
7
 10
7.424999999999999
 20
10.28878246380551
 30
0
 11
7.6
 21
10.46378246380551
 31
0
  0
LINE
  8
0
 62
7
 10
7.424999999999999
 20
10.07665042944955
 30
0
 11
7.6
 21
10.25165042944955
 31
0
  0
LINE
  8
0
 62
7
 10
7.424999999999999
 20
9.864518395093583
 30
0
 11
7.6
 21
10.03951839509358
 31
0
  0
LINE
  8
0
 62
7
 10
7.424999999999999
 20
9.652386360737619
 30
0
 11
7.6
 21
9.82738636073762
 31
0
  0
LINE
  8
0
 62
7
 10
7.424999999999999
 20
9.440254326381655
 30
0
 11
7.6
 21
9.615254326381656
 31
0
  0
LINE
  8
0
 62
7
 10
7.424999999999999
 20
9.228122292025692
 30
0
 11
7.6
 21
9.403122292025692
 31
0
  0
LINE
  8
0
 62
7
 10
7.424999999999999
 20
9.015990257669728
 30
0
 11
7.6
 21
9.190990257669728
 31
0
  0
LINE
  8
0
 62
7
 10
7.424999999999999
 20
8.803858223313764
 30
0
 11
7.6
 21
8.978858223313765
 31
0
  0
LINE
  8
0
 62
7
 10
7.424999999999999
 20
8.5917261889578
 30
0
 11
7.6
 21
8.766726188957801
 31
0
  0
LINE
  8
0
 62
7
 10
7.424999999999999
 20
8.379594154601836
 30
0
 11
7.6
 21
8.554594154601837
 31
0
  0
LINE
  8
0
 62
7
 10
7.557537879754123
 20
8.299999999999995
 30
0
 11
7.6
 21
8.342462120245873
 31
0
  0
LINE
  8
0
 62
7
 10
7.425
 20
10.81911254969542
 30
0
 11
7.455887450304571
 21
10.85
 31
0
  0
LINE
  8
0
 62
7
 10
7.425
 20
10.60698051533946
 30
0
 11
7.600000000000001
 21
10.78198051533946
 31
0
  0
LINE
  8
0
 62
7
 10
7.425
 20
10.39484848098349
 30
0
 11
7.600000000000001
 21
10.56984848098349
 31
0
  0
LINE
  8
0
 62
7
 10
7.425
 20
10.18271644662753
 30
0
 11
7.600000000000001
 21
10.35771644662753
 31
0
  0
LINE
  8
0
 62
7
 10
7.425
 20
9.970584412271567
 30
0
 11
7.600000000000001
 21
10.14558441227157
 31
0
  0
LINE
  8
0
 62
7
 10
7.425
 20
9.758452377915603
 30
0
 11
7.600000000000001
 21
9.933452377915602
 31
0
  0
LINE
  8
0
 62
7
 10
7.425
 20
9.546320343559639
 30
0
 11
7.600000000000001
 21
9.721320343559638
 31
0
  0
LINE
  8
0
 62
7
 10
7.425
 20
9.334188309203675
 30
0
 11
7.600000000000001
 21
9.509188309203674
 31
0
  0
LINE
  8
0
 62
7
 10
7.425
 20
9.122056274847711
 30
0
 11
7.600000000000001
 21
9.29705627484771
 31
0
  0
LINE
  8
0
 62
7
 10
7.425
 20
8.909924240491748
 30
0
 11
7.600000000000001
 21
9.084924240491747
 31
0
  0
LINE
  8
0
 62
7
 10
7.425
 20
8.697792206135784
 30
0
 11
7.600000000000001
 21
8.872792206135783
 31
0
  0
LINE
  8
0
 62
7
 10
7.425
 20
8.48566017177982
 30
0
 11
7.600000000000001
 21
8.660660171779819
 31
0
  0
LINE
  8
0
 62
7
 10
7.451471862576141
 20
8.299999999999997
 30
0
 11
7.600000000000001
 21
8.448528137423855
 31
0
  0
ENDBLK
  8
0
  0
BLOCK
  8
0
  2
*X14
 70
1
 10
0
 20
0
 30
0
  0
LINE
  8
0
 62
7
 10
7.424999999999999
 20
7.955330085889909
 30
0
 11
7.569669914110086
 21
8.099999999999996
 31
0
  0
LINE
  8
0
 62
7
 10
7.424999999999999
 20
8.06139610306789
 30
0
 11
7.463603896932104
 21
8.099999999999994
 31
0
  0
LINE
  8
0
 62
7
 10
7.525735931288069
 20
7.949999999999995
 30
0
 11
7.599999999999999
 21
8.024264068711926
 31
0
  0
ENDBLK
  8
0
  0
BLOCK
  8
0
  2
*X15
 70
1
 10
0
 20
0
 30
0
  0
LINE
  8
0
 62
7
 10
4.839999999999998
 20
5.158198051533945
 30
0
 11
5.164999999999999
 21
5.483198051533946
 31
0
  0
LINE
  8
0
 62
7
 10
5.023933982822028
 20
5.130000000000004
 30
0
 11
5.263933982822016
 21
5.369999999999994
 31
0
  0
LINE
  8
0
 62
7
 10
5.236066017177992
 20
5.130000000000004
 30
0
 11
5.47606601717798
 21
5.369999999999994
 31
0
  0
LINE
  8
0
 62
7
 10
5.448198051533955
 20
5.130000000000004
 30
0
 11
5.688198051533944
 21
5.369999999999994
 31
0
  0
LINE
  8
0
 62
7
 10
5.660330085889919
 20
5.130000000000004
 30
0
 11
5.900330085889908
 21
5.369999999999994
 31
0
  0
LINE
  8
0
 62
7
 10
5.872462120245883
 20
5.130000000000004
 30
0
 11
6.112462120245872
 21
5.369999999999994
 31
0
  0
LINE
  8
0
 62
7
 10
6.084594154601847
 20
5.130000000000004
 30
0
 11
6.324594154601836
 21
5.369999999999994
 31
0
  0
LINE
  8
0
 62
7
 10
6.296726188957811
 20
5.130000000000004
 30
0
 11
6.536726188957799
 21
5.369999999999994
 31
0
  0
LINE
  8
0
 62
7
 10
6.508858223313775
 20
5.130000000000004
 30
0
 11
6.748858223313763
 21
5.369999999999994
 31
0
  0
LINE
  8
0
 62
7
 10
6.720990257669738
 20
5.130000000000004
 30
0
 11
6.960990257669727
 21
5.369999999999994
 31
0
  0
LINE
  8
0
 62
7
 10
6.933122292025702
 20
5.130000000000004
 30
0
 11
7.173122292025691
 21
5.369999999999994
 31
0
  0
LINE
  8
0
 62
7
 10
7.424999999999999
 20
5.409745673618338
 30
0
 11
7.535254326381656
 21
5.519999999999995
 31
0
  0
LINE
  8
0
 62
7
 10
7.145254326381666
 20
5.130000000000004
 30
0
 11
7.385254326381655
 21
5.369999999999994
 31
0
  0
LINE
  8
0
 62
7
 10
7.35738636073763
 20
5.130000000000004
 30
0
 11
7.599999999999998
 21
5.372613639262373
 31
0
  0
LINE
  8
0
 62
7
 10
7.569518395093594
 20
5.130000000000004
 30
0
 11
7.764999999999999
 21
5.325481604906409
 31
0
  0
LINE
  8
0
 62
7
 10
4.989999999999998
 20
5.414264068711926
 30
0
 11
5.095735931288067
 21
5.519999999999995
 31
0
  0
LINE
  8
0
 62
7
 10
4.839999999999999
 20
5.264264068711928
 30
0
 11
4.945735931288067
 21
5.369999999999996
 31
0
  0
LINE
  8
0
 62
7
 10
4.917867965644046
 20
5.130000000000004
 30
0
 11
5.164999999999999
 21
5.377132034355963
 31
0
  0
LINE
  8
0
 62
7
 10
5.13000000000001
 20
5.130000000000004
 30
0
 11
5.369999999999999
 21
5.369999999999995
 31
0
  0
LINE
  8
0
 62
7
 10
5.342132034355974
 20
5.130000000000004
 30
0
 11
5.582132034355963
 21
5.369999999999995
 31
0
  0
LINE
  8
0
 62
7
 10
5.554264068711937
 20
5.130000000000004
 30
0
 11
5.794264068711927
 21
5.369999999999995
 31
0
  0
LINE
  8
0
 62
7
 10
5.766396103067901
 20
5.130000000000004
 30
0
 11
6.006396103067891
 21
5.369999999999995
 31
0
  0
LINE
  8
0
 62
7
 10
5.978528137423865
 20
5.130000000000004
 30
0
 11
6.218528137423855
 21
5.369999999999995
 31
0
  0
LINE
  8
0
 62
7
 10
6.190660171779829
 20
5.130000000000004
 30
0
 11
6.430660171779818
 21
5.369999999999995
 31
0
  0
LINE
  8
0
 62
7
 10
6.402792206135793
 20
5.130000000000004
 30
0
 11
6.642792206135782
 21
5.369999999999995
 31
0
  0
LINE
  8
0
 62
7
 10
6.614924240491757
 20
5.130000000000004
 30
0
 11
6.854924240491746
 21
5.369999999999995
 31
0
  0
LINE
  8
0
 62
7
 10
6.82705627484772
 20
5.130000000000004
 30
0
 11
7.06705627484771
 21
5.369999999999995
 31
0
  0
LINE
  8
0
 62
7
 10
7.424999999999999
 20
5.515811690796319
 30
0
 11
7.429188309203674
 21
5.519999999999995
 31
0
  0
LINE
  8
0
 62
7
 10
7.039188309203684
 20
5.130000000000004
 30
0
 11
7.279188309203674
 21
5.369999999999995
 31
0
  0
LINE
  8
0
 62
7
 10
7.251320343559648
 20
5.130000000000004
 30
0
 11
7.599999999999999
 21
5.478679656440356
 31
0
  0
LINE
  8
0
 62
7
 10
7.463452377915612
 20
5.130000000000004
 30
0
 11
7.703452377915602
 21
5.369999999999996
 31
0
  0
LINE
  8
0
 62
7
 10
7.675584412271576
 20
5.130000000000004
 30
0
 11
7.764999999999999
 21
5.219415587728427
 31
0
  0
ENDBLK
  8
0
  0
BLOCK
  8
0
  2
*X16
 70
1
 10
0
 20
0
 30
0
  0
LINE
  8
0
 62
7
 10
4.839999999999998
 20
4.94606601717798
 30
0
 11
4.983933982822027
 21
5.090000000000003
 31
0
  0
LINE
  8
0
 62
7
 10
4.956066017177984
 20
4.850000000000001
 30
0
 11
5.196066017177991
 21
5.090000000000003
 31
0
  0
LINE
  8
0
 62
7
 10
5.168198051533952
 20
4.850000000000001
 30
0
 11
5.408198051533954
 21
5.090000000000003
 31
0
  0
LINE
  8
0
 62
7
 10
4.989999999999998
 20
4.671801948466051
 30
0
 11
5.165000000000002
 21
4.846801948466053
 31
0
  0
LINE
  8
0
 62
7
 10
5.380330085889915
 20
4.850000000000001
 30
0
 11
5.620330085889918
 21
5.090000000000003
 31
0
  0
LINE
  8
0
 62
7
 10
4.989999999999998
 20
4.459669914110087
 30
0
 11
5.165000000000003
 21
4.63466991411009
 31
0
  0
LINE
  8
0
 62
7
 10
5.592462120245879
 20
4.850000000000001
 30
0
 11
5.832462120245882
 21
5.090000000000003
 31
0
  0
LINE
  8
0
 62
7
 10
4.989999999999998
 20
4.247537879754123
 30
0
 11
5.165000000000004
 21
4.422537879754127
 31
0
  0
LINE
  8
0
 62
7
 10
5.804594154601843
 20
4.850000000000001
 30
0
 11
6.044594154601846
 21
5.090000000000003
 31
0
  0
LINE
  8
0
 62
7
 10
4.989999999999998
 20
4.035405845398159
 30
0
 11
5.165000000000004
 21
4.210405845398164
 31
0
  0
LINE
  8
0
 62
7
 10
6.016726188957807
 20
4.850000000000001
 30
0
 11
6.25672618895781
 21
5.090000000000003
 31
0
  0
LINE
  8
0
 62
7
 10
4.989999999999998
 20
3.823273811042195
 30
0
 11
5.165000000000005
 21
3.998273811042201
 31
0
  0
LINE
  8
0
 62
7
 10
6.228858223313771
 20
4.850000000000001
 30
0
 11
6.468858223313774
 21
5.090000000000003
 31
0
  0
LINE
  8
0
 62
7
 10
4.989999999999998
 20
3.611141776686231
 30
0
 11
5.165000000000006
 21
3.786141776686238
 31
0
  0
LINE
  8
0
 62
7
 10
6.440990257669735
 20
4.850000000000001
 30
0
 11
6.680990257669738
 21
5.090000000000003
 31
0
  0
LINE
  8
0
 62
7
 10
4.989999999999998
 20
3.399009742330267
 30
0
 11
5.165000000000007
 21
3.574009742330275
 31
0
  0
LINE
  8
0
 62
7
 10
6.653122292025698
 20
4.850000000000001
 30
0
 11
6.893122292025701
 21
5.090000000000003
 31
0
  0
LINE
  8
0
 62
7
 10
5.053122292025696
 20
3.25
 30
0
 11
5.16500000000001
 21
3.361877707974313
 31
0
  0
LINE
  8
0
 62
7
 10
6.865254326381662
 20
4.850000000000001
 30
0
 11
7.105254326381665
 21
5.090000000000003
 31
0
  0
LINE
  8
0
 62
7
 10
7.077386360737626
 20
4.850000000000001
 30
0
 11
7.317386360737629
 21
5.090000000000003
 31
0
  0
LINE
  8
0
 62
7
 10
7.28951839509359
 20
4.850000000000001
 30
0
 11
7.529518395093593
 21
5.090000000000003
 31
0
  0
LINE
  8
0
 62
7
 10
7.425
 20
4.773349570550445
 30
0
 11
7.741650429449557
 21
5.090000000000003
 31
0
  0
LINE
  8
0
 62
7
 10
7.713782463805519
 20
4.850000000000001
 30
0
 11
7.764999999999999
 21
4.901217536194481
 31
0
  0
LINE
  8
0
 62
7
 10
7.425
 20
4.561217536194481
 30
0
 11
7.599999999999998
 21
4.736217536194479
 31
0
  0
LINE
  8
0
 62
7
 10
7.425
 20
4.349085501838517
 30
0
 11
7.599999999999998
 21
4.524085501838515
 31
0
  0
LINE
  8
0
 62
7
 10
7.425
 20
4.136953467482553
 30
0
 11
7.599999999999998
 21
4.311953467482551
 31
0
  0
LINE
  8
0
 62
7
 10
7.425
 20
3.924821433126589
 30
0
 11
7.599999999999998
 21
4.099821433126587
 31
0
  0
LINE
  8
0
 62
7
 10
7.425
 20
3.712689398770625
 30
0
 11
7.599999999999998
 21
3.887689398770623
 31
0
  0
LINE
  8
0
 62
7
 10
7.425
 20
3.500557364414661
 30
0
 11
7.599999999999998
 21
3.675557364414659
 31
0
  0
LINE
  8
0
 62
7
 10
7.486574669941303
 20
3.35
 30
0
 11
7.599999999999998
 21
3.463425330058695
 31
0
  0
LINE
  8
0
 62
7
 10
4.839999999999999
 20
5.052132034355962
 30
0
 11
4.877867965644045
 21
5.090000000000003
 31
0
  0
LINE
  8
0
 62
7
 10
4.850000000000002
 20
4.850000000000001
 30
0
 11
5.090000000000009
 21
5.090000000000003
 31
0
  0
LINE
  8
0
 62
7
 10
4.989999999999998
 20
4.777867965644032
 30
0
 11
5.302132034355973
 21
5.090000000000003
 31
0
  0
LINE
  8
0
 62
7
 10
5.274264068711934
 20
4.850000000000001
 30
0
 11
5.514264068711936
 21
5.090000000000003
 31
0
  0
LINE
  8
0
 62
7
 10
4.989999999999998
 20
4.565735931288068
 30
0
 11
5.165000000000002
 21
4.74073593128807
 31
0
  0
LINE
  8
0
 62
7
 10
5.486396103067898
 20
4.850000000000001
 30
0
 11
5.7263961030679
 21
5.090000000000003
 31
0
  0
LINE
  8
0
 62
7
 10
4.989999999999998
 20
4.353603896932104
 30
0
 11
5.165000000000003
 21
4.528603896932107
 31
0
  0
LINE
  8
0
 62
7
 10
5.698528137423862
 20
4.850000000000001
 30
0
 11
5.938528137423864
 21
5.090000000000003
 31
0
  0
LINE
  8
0
 62
7
 10
4.989999999999998
 20
4.14147186257614
 30
0
 11
5.165000000000004
 21
4.316471862576144
 31
0
  0
LINE
  8
0
 62
7
 10
5.910660171779826
 20
4.850000000000001
 30
0
 11
6.150660171779828
 21
5.090000000000003
 31
0
  0
LINE
  8
0
 62
7
 10
4.989999999999998
 20
3.929339828220177
 30
0
 11
5.165000000000004
 21
4.104339828220181
 31
0
  0
LINE
  8
0
 62
7
 10
6.12279220613579
 20
4.850000000000001
 30
0
 11
6.362792206135792
 21
5.090000000000003
 31
0
  0
LINE
  8
0
 62
7
 10
4.989999999999998
 20
3.717207793864212
 30
0
 11
5.165000000000005
 21
3.892207793864218
 31
0
  0
LINE
  8
0
 62
7
 10
6.334924240491754
 20
4.850000000000001
 30
0
 11
6.574924240491756
 21
5.090000000000003
 31
0
  0
LINE
  8
0
 62
7
 10
4.989999999999998
 20
3.505075759508248
 30
0
 11
5.165000000000006
 21
3.680075759508255
 31
0
  0
LINE
  8
0
 62
7
 10
6.547056274847717
 20
4.850000000000001
 30
0
 11
6.787056274847719
 21
5.090000000000003
 31
0
  0
LINE
  8
0
 62
7
 10
4.989999999999998
 20
3.292943725152284
 30
0
 11
5.165000000000007
 21
3.467943725152292
 31
0
  0
LINE
  8
0
 62
7
 10
6.759188309203681
 20
4.850000000000001
 30
0
 11
6.999188309203683
 21
5.090000000000003
 31
0
  0
LINE
  8
0
 62
7
 10
5.159188309203679
 20
3.25
 30
0
 11
5.165
 21
3.255811690796321
 31
0
  0
LINE
  8
0
 62
7
 10
6.971320343559645
 20
4.850000000000001
 30
0
 11
7.211320343559647
 21
5.090000000000003
 31
0
  0
LINE
  8
0
 62
7
 10
7.183452377915609
 20
4.850000000000001
 30
0
 11
7.423452377915611
 21
5.090000000000003
 31
0
  0
LINE
  8
0
 62
7
 10
7.395584412271573
 20
4.850000000000001
 30
0
 11
7.635584412271575
 21
5.090000000000003
 31
0
  0
LINE
  8
0
 62
7
 10
7.607716446627539
 20
4.850000000000003
 30
0
 11
7.764999999999999
 21
5.007283553372462
 31
0
  0
LINE
  8
0
 62
7
 10
7.424999999999999
 20
4.667283553372462
 30
0
 11
7.599999999999998
 21
4.842283553372461
 31
0
  0
LINE
  8
0
 62
7
 10
7.424999999999999
 20
4.455151519016498
 30
0
 11
7.599999999999998
 21
4.630151519016497
 31
0
  0
LINE
  8
0
 62
7
 10
7.424999999999999
 20
4.243019484660534
 30
0
 11
7.599999999999998
 21
4.418019484660533
 31
0
  0
LINE
  8
0
 62
7
 10
7.424999999999999
 20
4.03088745030457
 30
0
 11
7.599999999999998
 21
4.205887450304569
 31
0
  0
LINE
  8
0
 62
7
 10
7.424999999999999
 20
3.818755415948606
 30
0
 11
7.599999999999998
 21
3.993755415948606
 31
0
  0
LINE
  8
0
 62
7
 10
7.424999999999999
 20
3.606623381592642
 30
0
 11
7.599999999999998
 21
3.781623381592641
 31
0
  0
LINE
  8
0
 62
7
 10
7.424999999999999
 20
3.394491347236678
 30
0
 11
7.599999999999998
 21
3.569491347236677
 31
0
  0
LINE
  8
0
 62
7
 10
7.592640687119285
 20
3.35
 30
0
 11
7.599999999999998
 21
3.357359312880713
 31
0
  0
ENDBLK
  8
0
  0
BLOCK
  8
0
  2
*D0
 70
1
 10
0
 20
0
 30
0
  0
LINE
  8
0
 62
7
 10
8.010918741554519
 20
4.42641194203146
 30
0
 11
8.010918741554519
 21
4.850000000000003
 31
0
  0
LINE
  8
0
 62
7
 10
8.010918741554519
 20
3.35
 30
0
 11
8.010918741554519
 21
3.77141194203146
 31
0
  0
LINE
  8
0
 62
7
 10
7.599999999999999
 20
4.850000000000003
 30
0
 11
8.06091874155452
 21
4.850000000000003
 31
0
  0
LINE
  8
0
 62
7
 10
7.599999999999999
 20
3.35
 30
0
 11
8.06091874155452
 21
3.35
 31
0
  0
LINE
  8
0
 62
7
 10
8.046274080613847
 20
4.814644660940676
 30
0
 11
7.975563402495192
 21
4.885355339059331
 31
0
  0
LINE
  8
0
 62
7
 10
7.975563402495192
 20
3.385355339059327
 30
0
 11
8.046274080613847
 21
3.314644660940673
 31
0
  0
TEXT
  8
0
 62
7
 10
8.055918741554519
 20
4.02141194203146
 30
0
 40
0.1
  1
1,5
 50
90
 41
0.9
  0
ENDBLK
  8
0
  0
BLOCK
  8
0
  2
*D1
 70
1
 10
0
 20
0
 30
0
  0
LINE
  8
0
 62
7
 10
6.69152532135353
 20
5.69685471838984
 30
0
 11
7.424999999999999
 21
5.69685471838984
 31
0
  0
LINE
  8
0
 62
7
 10
5.164999999999999
 20
5.69685471838984
 30
0
 11
5.91652532135353
 21
5.69685471838984
 31
0
  0
LINE
  8
0
 62
7
 10
7.424999999999999
 20
5.369999999999995
 30
0
 11
7.424999999999999
 21
5.74685471838984
 31
0
  0
LINE
  8
0
 62
7
 10
5.164999999999999
 20
5.369999999999995
 30
0
 11
5.164999999999999
 21
5.74685471838984
 31
0
  0
LINE
  8
0
 62
7
 10
5.200355339059326
 20
5.732210057449167
 30
0
 11
5.129644660940672
 21
5.661499379330513
 31
0
  0
LINE
  8
0
 62
7
 10
7.389644660940672
 20
5.661499379330513
 30
0
 11
7.460355339059326
 21
5.732210057449167
 31
0
  0
TEXT
  8
0
 62
7
 10
6.16652532135353
 20
5.65185471838984
 30
0
 40
0.1
  1
2,26
 41
0.9
  0
ENDBLK
  8
0
  0
BLOCK
  8
0
  2
*D2
 70
1
 10
0
 20
0
 30
0
  0
LINE
  8
0
 62
7
 10
4.64555440952703
 20
4.41430631493784
 30
0
 11
4.64555440952703
 21
4.850000000000001
 31
0
  0
LINE
  8
0
 62
7
 10
4.64555440952703
 20
3.25
 30
0
 11
4.64555440952703
 21
3.759306314937841
 31
0
  0
LINE
  8
0
 62
7
 10
4.989999999999998
 20
4.850000000000001
 30
0
 11
4.59555440952703
 21
4.850000000000001
 31
0
  0
LINE
  8
0
 62
7
 10
4.989999999999998
 20
3.25
 30
0
 11
4.59555440952703
 21
3.25
 31
0
  0
LINE
  8
0
 62
7
 10
4.610199070467702
 20
3.285355339059328
 30
0
 11
4.680909748586357
 21
3.214644660940673
 31
0
  0
LINE
  8
0
 62
7
 10
4.680909748586357
 20
4.814644660940674
 30
0
 11
4.610199070467702
 21
4.885355339059329
 31
0
  0
TEXT
  8
0
 62
7
 10
4.69055440952703
 20
4.009306314937841
 30
0
 40
0.1
  1
1,6
 50
90
 41
0.9
  0
ENDBLK
  8
0
  0
BLOCK
  8
0
  2
*D3
 70
1
 10
0
 20
0
 30
0
  0
LINE
  8
0
 62
7
 10
6.64152532135353
 20
11.5559782317039
 30
0
 11
7.424999999999999
 21
11.5559782317039
 31
0
  0
LINE
  8
0
 62
7
 10
5.164999999999999
 20
11.5559782317039
 30
0
 11
5.966525321353529
 21
11.5559782317039
 31
0
  0
LINE
  8
0
 62
7
 10
7.424999999999999
 20
11.2
 30
0
 11
7.424999999999999
 21
11.6059782317039
 31
0
  0
LINE
  8
0
 62
7
 10
5.164999999999999
 20
11.2
 30
0
 11
5.164999999999999
 21
11.6059782317039
 31
0
  0
LINE
  8
0
 62
7
 10
7.389644660940672
 20
11.52062289264457
 30
0
 11
7.460355339059326
 21
11.59133357076323
 31
0
  0
LINE
  8
0
 62
7
 10
5.200355339059326
 20
11.59133357076323
 30
0
 11
5.129644660940672
 21
11.52062289264457
 31
0
  0
TEXT
  8
0
 62
7
 10
6.16652532135353
 20
11.5109782317039
 30
0
 40
0.1
  1
2,26
 41
0.9
  0
ENDBLK
  8
0
  0
BLOCK
  8
0
  2
*D4
 70
1
 10
0
 20
0
 30
0
  0
LINE
  8
0
 62
7
 10
8.11986938539714
 20
10.28013416766028
 30
0
 11
8.11986938539714
 21
11.05
 31
0
  0
LINE
  8
0
 62
7
 10
8.11986938539714
 20
8.299999999999997
 30
0
 11
8.11986938539714
 21
9.200134167660279
 31
0
  0
LINE
  8
0
 62
7
 10
7.749999999999999
 20
11.05
 30
0
 11
8.16986938539714
 21
11.05
 31
0
  0
LINE
  8
0
 62
7
 10
7.749999999999999
 20
8.299999999999997
 30
0
 11
8.16986938539714
 21
8.299999999999997
 31
0
  0
LINE
  8
0
 62
7
 10
8.084514046337812
 20
8.335355339059324
 30
0
 11
8.155224724456467
 21
8.26464466094067
 31
0
  0
LINE
  8
0
 62
7
 10
8.155224724456467
 20
11.01464466094067
 30
0
 11
8.084514046337812
 21
11.08535533905933
 31
0
  0
TEXT
  8
0
 62
7
 10
8.08986938539714
 20
9.60263416766028
 30
0
 40
0.1
  1
2,75
 50
90
 41
0.9
  0
TEXT
  8
0
 62
7
 10
8.24986938539714
 20
9.40013416766028
 30
0
 40
0.1
  1
(260-280)
 50
90
 41
0.9
  0
ENDBLK
  8
0
  0
ENDSEC
  0
SECTION
  2
ENTITIES
  0
INSERT
  8
0
  2
*X0
 10
0
 20
0
 30
0
  0
INSERT
  8
0
  2
*X1
 10
0
 20
0
 30
0
  0
INSERT
  8
0
  2
*X2
 10
0
 20
0
 30
0
  0
INSERT
  8
0
  2
*X3
 10
0
 20
0
 30
0
  0
INSERT
  8
0
  2
*X4
 10
0
 20
0
 30
0
  0
INSERT
  8
0
  2
*X5
 10
0
 20
0
 30
0
  0
INSERT
  8
0
  2
*X6
 10
0
 20
0
 30
0
  0
INSERT
  8
0
  2
*X7
 10
0
 20
0
 30
0
  0
INSERT
  8
0
  2
*X8
 10
0
 20
0
 30
0
  0
INSERT
  8
0
  2
*X9
 10
0
 20
0
 30
0
  0
INSERT
  8
0
  2
*X10
 10
0
 20
0
 30
0
  0
INSERT
  8
0
  2
*X11
 10
0
 20
0
 30
0
  0
INSERT
  8
0
  2
*X12
 10
0
 20
0
 30
0
  0
INSERT
  8
0
  2
*X13
 10
0
 20
0
 30
0
  0
INSERT
  8
0
  2
*X14
 10
0
 20
0
 30
0
  0
INSERT
  8
0
  2
*X15
 10
0
 20
0
 30
0
  0
INSERT
  8
0
  2
*X16
 10
0
 20
0
 30
0
  0
LINE
  8
0
 62
7
  6
DASHDOT
 10
7.424999999999999
 20
5.519999999999995
 30
0
 11
7.599999999999999
 21
5.519999999999995
 31
0
  0
LINE
  8
0
 62
7
  6
DASHDOT
 10
7.599999999999999
 20
5.519999999999995
 30
0
 11
7.649999999999999
 21
5.519999999999995
 31
0
  0
LINE
  8
0
 62
7
  6
DASHDOT
 10
4.839999999999999
 20
5.090000000000003
 30
0
 11
4.839999999999999
 21
4.850000000000001
 31
0
  0
LINE
  8
0
 62
7
  6
DASHDOT
 10
7.765
 20
5.090000000000003
 30
0
 11
7.765
 21
4.850000000000001
 31
0
  0
LINE
  8
0
 62
7
  6
DASHDOT
 10
4.839999999999999
 20
5.130000000000004
 30
0
 11
4.839999999999999
 21
5.090000000000003
 31
0
  0
LINE
  8
0
 62
7
  6
DASHDOT
 10
7.765
 20
5.130000000000004
 30
0
 11
7.765
 21
5.090000000000003
 31
0
  0
LINE
  8
0
 62
7
  6
DASHDOT
 10
4.839999999999999
 20
4.850000000000001
 30
0
 11
4.839999999999999
 21
4.800000000000001
 31
0
  0
LINE
  8
0
 62
7
  6
DASHDOT
 10
4.839999999999999
 20
5.369999999999995
 30
0
 11
4.839999999999999
 21
5.130000000000004
 31
0
  0
LINE
  8
0
 62
7
  6
DASHDOT
 10
5.164999999999999
 20
5.519999999999995
 30
0
 11
5.214999999999999
 21
5.519999999999995
 31
0
  0
LINE
  8
0
 62
7
  6
DASHDOT
 10
4.989999999999998
 20
5.519999999999995
 30
0
 11
5.164999999999999
 21
5.519999999999995
 31
0
  0
LINE
  8
0
 62
7
  6
DASHDOT
 10
7.765
 20
4.850000000000001
 30
0
 11
7.765
 21
4.800000000000001
 31
0
  0
LINE
  8
0
 62
7
  6
DASHDOT
 10
7.765
 20
5.369999999999995
 30
0
 11
7.765
 21
5.130000000000004
 31
0
  0
LINE
  8
0
 62
7
  6
DASHDOT
 10
7.765
 20
5.419999999999995
 30
0
 11
7.765
 21
5.369999999999995
 31
0
  0
LINE
  8
0
 62
7
  6
DASHDOT
 10
4.839999999999999
 20
5.419999999999995
 30
0
 11
4.839999999999999
 21
5.369999999999995
 31
0
  0
LINE
  8
0
 62
7
  6
DASHDOT
 10
7.374999999999999
 20
5.519999999999995
 30
0
 11
7.424999999999999
 21
5.519999999999995
 31
0
  0
LINE
  8
0
 62
7
  6
DASHDOT
 10
4.939999999999999
 20
5.519999999999995
 30
0
 11
4.989999999999998
 21
5.519999999999995
 31
0
  0
LINE
  8
0
 62
7
 10
5.165000000000008
 20
3.35
 30
0
 11
5.165000000000008
 21
3.4
 31
0
  0
LINE
  8
0
 62
7
  6
DASHDOT
 10
7.424999999999999
 20
3.35
 30
0
 11
5.165000000000008
 21
3.35
 31
0
  0
LINE
  8
0
 62
7
 10
7.424999999999999
 20
3.4
 30
0
 11
7.424999999999999
 21
3.35
 31
0
  0
LINE
  8
0
 62
7
 10
5.165000000000008
 20
3.4
 30
0
 11
5.164999999999999
 21
4.850000000000003
 31
0
  0
LINE
  8
0
 62
7
 10
7.424999999999999
 20
3.4
 30
0
 11
5.165000000000008
 21
3.4
 31
0
  0
LINE
  8
0
 62
7
 10
7.424999999999999
 20
3.35
 30
0
 11
7.599999999999999
 21
3.35
 31
0
  0
LINE
  8
0
 62
7
 10
7.599999999999999
 20
4.850000000000003
 30
0
 11
7.765
 21
4.850000000000001
 31
0
  0
LINE
  8
0
 62
7
 10
7.599999999999999
 20
3.35
 30
0
 11
7.599999999999999
 21
4.850000000000003
 31
0
  0
LINE
  8
0
 62
7
 10
7.424999999999999
 20
4.850000000000001
 30
0
 11
7.424999999999999
 21
3.4
 31
0
  0
LINE
  8
0
 62
7
 10
5.164999999999999
 20
4.850000000000003
 30
0
 11
7.424999999999999
 21
4.850000000000001
 31
0
  0
LINE
  8
0
 62
7
 10
4.989999999999998
 20
4.850000000000001
 30
0
 11
4.989999999999998
 21
3.25
 31
0
  0
LINE
  8
0
 62
7
 10
4.989999999999998
 20
3.25
 30
0
 11
5.164999999999999
 21
3.25
 31
0
  0
LINE
  8
0
 62
7
 10
5.164999999999999
 20
3.25
 30
0
 11
5.165000000000008
 21
3.35
 31
0
  0
LINE
  8
0
 62
7
 10
4.839999999999999
 20
4.850000000000001
 30
0
 11
4.989999999999998
 21
4.850000000000001
 31
0
  0
LINE
  8
0
 62
7
 10
4.839999999999999
 20
5.090000000000003
 30
0
 11
7.765
 21
5.090000000000003
 31
0
  0
LINE
  8
0
 62
7
 10
4.839999999999999
 20
5.130000000000004
 30
0
 11
7.765
 21
5.130000000000004
 31
0
  0
LINE
  8
0
 62
7
 10
7.599999999999999
 20
5.369999999999995
 30
0
 11
7.765
 21
5.369999999999995
 31
0
  0
LINE
  8
0
 62
7
 10
7.599999999999999
 20
5.519999999999995
 30
0
 11
7.599999999999999
 21
5.369999999999995
 31
0
  0
LINE
  8
0
 62
7
 10
7.424999999999999
 20
5.369999999999995
 30
0
 11
7.424999999999999
 21
5.519999999999995
 31
0
  0
LINE
  8
0
 62
7
 10
5.164999999999999
 20
5.369999999999995
 30
0
 11
7.424999999999999
 21
5.369999999999995
 31
0
  0
LINE
  8
0
 62
7
 10
5.164999999999999
 20
5.519999999999995
 30
0
 11
5.164999999999999
 21
5.369999999999995
 31
0
  0
LINE
  8
0
 62
7
 10
4.989999999999998
 20
5.369999999999995
 30
0
 11
4.989999999999998
 21
5.519999999999995
 31
0
  0
LINE
  8
0
 62
7
 10
4.839999999999999
 20
5.369999999999995
 30
0
 11
4.989999999999998
 21
5.369999999999995
 31
0
  0
LINE
  8
0
 62
7
  6
DASHED
 10
0.7400000000000001
 20
8.099999999999996
 30
0
 11
2.239999999999997
 21
8.099999999999996
 31
0
  0
LINE
  8
0
 62
7
  6
DASHED
 10
0.7400000000000001
 20
8.299999999999997
 30
0
 11
2.239999999999997
 21
8.299999999999997
 31
0
  0
LINE
  8
0
 62
7
  6
DASHED
 10
0.7400000000000001
 20
10.85
 30
0
 11
2.239999999999997
 21
10.85
 31
0
  0
LINE
  8
0
 62
7
  6
DASHED
 10
0.7400000000000001
 20
11.05
 30
0
 11
2.239999999999997
 21
11.05
 31
0
  0
LINE
  8
0
 62
7
  6
DASHDOT
 10
2.539999999999997
 20
11.05
 30
0
 11
2.539999999999997
 21
10.85
 31
0
  0
LINE
  8
0
 62
7
  6
DASHDOT
 10
2.539999999999997
 20
10.85
 30
0
 11
2.539999999999997
 21
10.8
 31
0
  0
LINE
  8
0
 62
7
  6
DASHDOT
 10
0.5
 20
11.2
 30
0
 11
0.7400000000000001
 21
11.2
 31
0
  0
LINE
  8
0
 62
7
  6
DASHDOT
 10
0.7400000000000001
 20
11.2
 30
0
 11
0.79
 21
11.2
 31
0
  0
LINE
  8
0
 62
7
  6
DASHDOT
 10
0.7400000000000001
 20
7.949999999999996
 30
0
 11
0.79
 21
7.949999999999996
 31
0
  0
LINE
  8
0
 62
7
  6
DASHDOT
 10
0.5
 20
7.949999999999996
 30
0
 11
0.7400000000000001
 21
7.949999999999996
 31
0
  0
LINE
  8
0
 62
7
  6
DASHDOT
 10
2.539999999999997
 20
8.099999999999996
 30
0
 11
2.539999999999997
 21
8.299999999999997
 31
0
  0
LINE
  8
0
 62
7
  6
DASHDOT
 10
2.539999999999997
 20
8.299999999999997
 30
0
 11
2.539999999999997
 21
8.399999999999997
 31
0
  0
LINE
  8
0
 62
7
  6
DASHDOT
 10
2.539999999999997
 20
11.15
 30
0
 11
2.539999999999997
 21
11.05
 31
0
  0
LINE
  8
0
 62
7
 10
2.239999999999997
 20
11.15
 30
0
 11
2.539999999999997
 21
11.15
 31
0
  0
LINE
  8
0
 62
7
  6
DASHDOT
 10
2.539999999999997
 20
8.399999999999997
 30
0
 11
2.539999999999997
 21
8.449999999999998
 31
0
  0
LINE
  8
0
 62
7
 10
2.239999999999997
 20
8.399999999999997
 30
0
 11
2.539999999999997
 21
8.399999999999997
 31
0
  0
LINE
  8
0
 62
7
  6
DASHDOT
 10
0.45
 20
7.949999999999996
 30
0
 11
0.5
 21
7.949999999999996
 31
0
  0
LINE
  8
0
 62
7
  6
DASHDOT
 10
2.539999999999997
 20
8.049999999999995
 30
0
 11
2.539999999999997
 21
8.099999999999996
 31
0
  0
LINE
  8
0
 62
7
  6
DASHDOT
 10
2.539999999999997
 20
11.2
 30
0
 11
2.539999999999997
 21
11.15
 31
0
  0
LINE
  8
0
 62
7
  6
DASHDOT
 10
0.45
 20
11.2
 30
0
 11
0.5
 21
11.2
 31
0
  0
LINE
  8
0
 62
7
 10
2.239999999999997
 20
8.099999999999996
 30
0
 11
2.539999999999997
 21
8.099999999999996
 31
0
  0
LINE
  8
0
 62
7
 10
2.239999999999997
 20
8.299999999999997
 30
0
 11
2.239999999999997
 21
8.099999999999996
 31
0
  0
LINE
  8
0
 62
7
 10
2.239999999999997
 20
8.299999999999997
 30
0
 11
2.539999999999997
 21
8.299999999999997
 31
0
  0
LINE
  8
0
 62
7
 10
2.239999999999997
 20
11.05
 30
0
 11
2.539999999999997
 21
11.05
 31
0
  0
LINE
  8
0
 62
7
 10
2.239999999999997
 20
10.85
 30
0
 11
2.539999999999997
 21
10.85
 31
0
  0
LINE
  8
0
 62
7
 10
2.239999999999997
 20
11.05
 30
0
 11
2.239999999999997
 21
10.85
 31
0
  0
LINE
  8
0
 62
7
 10
0.7400000000000001
 20
8.099999999999996
 30
0
 11
0.7400000000000001
 21
7.949999999999996
 31
0
  0
LINE
  8
0
 62
7
 10
0.5
 20
8.099999999999996
 30
0
 11
0.5
 21
8.299999999999997
 31
0
  0
LINE
  8
0
 62
7
 10
0.5
 20
8.099999999999996
 30
0
 11
0.7400000000000001
 21
8.099999999999996
 31
0
  0
LINE
  8
0
 62
7
 10
0.7400000000000001
 20
8.299999999999997
 30
0
 11
0.7400000000000001
 21
8.099999999999996
 31
0
  0
LINE
  8
0
 62
7
 10
0.5
 20
8.299999999999997
 30
0
 11
0.5
 21
10.85
 31
0
  0
LINE
  8
0
 62
7
 10
0.5
 20
8.299999999999997
 30
0
 11
0.7400000000000001
 21
8.299999999999997
 31
0
  0
LINE
  8
0
 62
7
 10
0.7400000000000001
 20
10.85
 30
0
 11
0.7400000000000001
 21
8.299999999999997
 31
0
  0
LINE
  8
0
 62
7
 10
0.5
 20
10.85
 30
0
 11
0.5
 21
11.05
 31
0
  0
LINE
  8
0
 62
7
 10
0.5
 20
10.85
 30
0
 11
0.7400000000000001
 21
10.85
 31
0
  0
LINE
  8
0
 62
7
 10
0.7400000000000001
 20
11.05
 30
0
 11
0.7400000000000001
 21
10.85
 31
0
  0
LINE
  8
0
 62
7
 10
0.5
 20
11.05
 30
0
 11
0.5
 21
11.2
 31
0
  0
LINE
  8
0
 62
7
 10
0.5
 20
11.05
 30
0
 11
0.7400000000000001
 21
11.05
 31
0
  0
LINE
  8
0
 62
7
 10
0.7400000000000001
 20
11.2
 30
0
 11
0.7400000000000001
 21
11.05
 31
0
  0
LINE
  8
0
 62
7
 10
0.5
 20
7.949999999999996
 30
0
 11
0.5
 21
8.099999999999996
 31
0
  0
LINE
  8
0
 62
7
  6
DASHDOT
 10
4.939999999999999
 20
11.2
 30
0
 11
4.989999999999998
 21
11.2
 31
0
  0
LINE
  8
0
 62
7
  6
DASHDOT
 10
4.989999999999998
 20
11.2
 30
0
 11
5.164999999999999
 21
11.2
 31
0
  0
LINE
  8
0
 62
7
  6
DASHDOT
 10
4.839999999999999
 20
11.15
 30
0
 11
4.839999999999999
 21
11.05
 31
0
  0
LINE
  8
0
 62
7
  6
DASHDOT
 10
4.839999999999999
 20
11.05
 30
0
 11
4.839999999999999
 21
10.85
 31
0
  0
LINE
  8
0
 62
7
  6
DASHDOT
 10
7.374999999999999
 20
11.2
 30
0
 11
7.424999999999999
 21
11.2
 31
0
  0
LINE
  8
0
 62
7
  6
DASHDOT
 10
7.424999999999999
 20
11.2
 30
0
 11
7.599999999999999
 21
11.2
 31
0
  0
LINE
  8
0
 62
7
  6
DASHDOT
 10
7.749999999999999
 20
11.15
 30
0
 11
7.749999999999999
 21
11.05
 31
0
  0
LINE
  8
0
 62
7
  6
DASHDOT
 10
7.749999999999999
 20
11.05
 30
0
 11
7.749999999999999
 21
10.85
 31
0
  0
LINE
  8
0
 62
7
  6
DASHDOT
 10
7.374999999999999
 20
7.949999999999996
 30
0
 11
7.424999999999999
 21
7.949999999999996
 31
0
  0
LINE
  8
0
 62
7
  6
DASHDOT
 10
7.424999999999999
 20
7.949999999999996
 30
0
 11
7.599999999999999
 21
7.949999999999996
 31
0
  0
LINE
  8
0
 62
7
  6
DASHDOT
 10
7.749999999999999
 20
8.399999999999997
 30
0
 11
7.749999999999999
 21
8.299999999999997
 31
0
  0
LINE
  8
0
 62
7
  6
DASHDOT
 10
7.749999999999999
 20
8.299999999999997
 30
0
 11
7.749999999999999
 21
8.099999999999996
 31
0
  0
LINE
  8
0
 62
7
  6
DASHDOT
 10
4.939999999999999
 20
7.949999999999996
 30
0
 11
4.989999999999998
 21
7.949999999999996
 31
0
  0
LINE
  8
0
 62
7
  6
DASHDOT
 10
4.989999999999998
 20
7.949999999999996
 30
0
 11
5.164999999999999
 21
7.949999999999996
 31
0
  0
LINE
  8
0
 62
7
  6
DASHDOT
 10
4.839999999999999
 20
8.399999999999997
 30
0
 11
4.839999999999999
 21
8.299999999999997
 31
0
  0
LINE
  8
0
 62
7
  6
DASHDOT
 10
4.839999999999999
 20
8.299999999999997
 30
0
 11
4.839999999999999
 21
8.099999999999996
 31
0
  0
LINE
  8
0
 62
7
  6
DASHDOT
 10
4.839999999999999
 20
11.2
 30
0
 11
4.839999999999999
 21
11.15
 31
0
  0
LINE
  8
0
 62
7
 10
4.989999999999998
 20
11.2
 30
0
 11
4.989999999999998
 21
11.15
 31
0
  0
LINE
  8
0
 62
7
 10
4.839999999999999
 20
11.15
 30
0
 11
4.989999999999998
 21
11.15
 31
0
  0
LINE
  8
0
 62
7
 10
5.164999999999999
 20
11.2
 30
0
 11
5.164999999999999
 21
11.15
 31
0
  0
LINE
  8
0
 62
7
 10
7.424999999999999
 20
11.2
 30
0
 11
7.424999999999999
 21
11.15
 31
0
  0
LINE
  8
0
 62
7
 10
5.164999999999999
 20
11.15
 30
0
 11
7.424999999999999
 21
11.15
 31
0
  0
LINE
  8
0
 62
7
  6
DASHDOT
 10
7.749999999999999
 20
11.2
 30
0
 11
7.749999999999999
 21
11.15
 31
0
  0
LINE
  8
0
 62
7
 10
7.599999999999999
 20
11.2
 30
0
 11
7.599999999999999
 21
11.15
 31
0
  0
LINE
  8
0
 62
7
 10
7.599999999999999
 20
11.15
 30
0
 11
7.749999999999999
 21
11.15
 31
0
  0
LINE
  8
0
 62
7
  6
DASHDOT
 10
4.839999999999999
 20
8.449999999999998
 30
0
 11
4.839999999999999
 21
8.399999999999997
 31
0
  0
LINE
  8
0
 62
7
 10
4.989999999999998
 20
10.85
 30
0
 11
4.989999999999998
 21
8.399999999999997
 31
0
  0
LINE
  8
0
 62
7
 10
4.839999999999999
 20
8.399999999999997
 30
0
 11
4.989999999999998
 21
8.399999999999997
 31
0
  0
LINE
  8
0
 62
7
 10
5.164999999999999
 20
10.85
 30
0
 11
5.164999999999999
 21
8.399999999999997
 31
0
  0
LINE
  8
0
 62
7
 10
7.424999999999999
 20
10.85
 30
0
 11
7.424999999999999
 21
8.399999999999997
 31
0
  0
LINE
  8
0
 62
7
 10
5.164999999999999
 20
8.399999999999997
 30
0
 11
7.424999999999999
 21
8.399999999999997
 31
0
  0
LINE
  8
0
 62
7
  6
DASHDOT
 10
7.749999999999999
 20
8.449999999999998
 30
0
 11
7.749999999999999
 21
8.399999999999997
 31
0
  0
LINE
  8
0
 62
7
 10
7.599999999999999
 20
10.85
 30
0
 11
7.599999999999999
 21
8.399999999999997
 31
0
  0
LINE
  8
0
 62
7
 10
7.599999999999999
 20
8.399999999999997
 30
0
 11
7.749999999999999
 21
8.399999999999997
 31
0
  0
LINE
  8
0
 62
7
  6
DASHDOT
 10
5.164999999999999
 20
7.949999999999996
 30
0
 11
5.214999999999999
 21
7.949999999999996
 31
0
  0
LINE
  8
0
 62
7
  6
DASHDOT
 10
5.164999999999999
 20
11.2
 30
0
 11
5.214999999999999
 21
11.2
 31
0
  0
LINE
  8
0
 62
7
  6
DASHDOT
 10
7.599999999999999
 20
7.949999999999996
 30
0
 11
7.649999999999999
 21
7.949999999999996
 31
0
  0
LINE
  8
0
 62
7
  6
DASHDOT
 10
7.599999999999999
 20
11.2
 30
0
 11
7.649999999999999
 21
11.2
 31
0
  0
LINE
  8
0
 62
7
  6
DASHDOT
 10
4.839999999999999
 20
10.85
 30
0
 11
4.839999999999999
 21
10.8
 31
0
  0
LINE
  8
0
 62
7
  6
DASHDOT
 10
4.839999999999999
 20
8.099999999999996
 30
0
 11
4.839999999999999
 21
8.049999999999995
 31
0
  0
LINE
  8
0
 62
7
  6
DASHDOT
 10
7.749999999999999
 20
10.85
 30
0
 11
7.749999999999999
 21
10.8
 31
0
  0
LINE
  8
0
 62
7
  6
DASHDOT
 10
7.749999999999999
 20
8.099999999999996
 30
0
 11
7.749999999999999
 21
8.049999999999995
 31
0
  0
LINE
  8
0
 62
7
 10
4.839999999999999
 20
11.05
 30
0
 11
4.989999999999998
 21
11.05
 31
0
  0
LINE
  8
0
 62
7
 10
4.989999999999998
 20
11.15
 30
0
 11
4.989999999999998
 21
11.05
 31
0
  0
LINE
  8
0
 62
7
 10
4.839999999999999
 20
10.85
 30
0
 11
4.989999999999998
 21
10.85
 31
0
  0
LINE
  8
0
 62
7
 10
4.839999999999999
 20
8.299999999999997
 30
0
 11
4.989999999999998
 21
8.299999999999997
 31
0
  0
LINE
  8
0
 62
7
 10
4.989999999999998
 20
8.399999999999997
 30
0
 11
4.989999999999998
 21
8.299999999999997
 31
0
  0
LINE
  8
0
 62
7
 10
4.839999999999999
 20
8.099999999999996
 30
0
 11
4.989999999999998
 21
8.099999999999996
 31
0
  0
LINE
  8
0
 62
7
 10
4.989999999999998
 20
8.099999999999996
 30
0
 11
4.989999999999998
 21
7.949999999999996
 31
0
  0
LINE
  8
0
 62
7
 10
4.989999999999998
 20
11.05
 30
0
 11
5.164999999999999
 21
11.05
 31
0
  0
LINE
  8
0
 62
7
 10
5.164999999999999
 20
11.15
 30
0
 11
5.164999999999999
 21
11.05
 31
0
  0
LINE
  8
0
 62
7
 10
4.989999999999998
 20
10.85
 30
0
 11
5.164999999999999
 21
10.85
 31
0
  0
LINE
  8
0
 62
7
 10
4.989999999999998
 20
8.299999999999997
 30
0
 11
5.164999999999999
 21
8.299999999999997
 31
0
  0
LINE
  8
0
 62
7
 10
5.164999999999999
 20
8.399999999999997
 30
0
 11
5.164999999999999
 21
8.299999999999997
 31
0
  0
LINE
  8
0
 62
7
 10
4.989999999999998
 20
8.099999999999996
 30
0
 11
5.164999999999999
 21
8.099999999999996
 31
0
  0
LINE
  8
0
 62
7
 10
5.164999999999999
 20
8.099999999999996
 30
0
 11
5.164999999999999
 21
7.949999999999996
 31
0
  0
LINE
  8
0
 62
7
 10
5.164999999999999
 20
11.05
 30
0
 11
7.424999999999999
 21
11.05
 31
0
  0
LINE
  8
0
 62
7
 10
7.424999999999999
 20
11.15
 30
0
 11
7.424999999999999
 21
11.05
 31
0
  0
LINE
  8
0
 62
7
 10
5.164999999999999
 20
10.85
 30
0
 11
7.424999999999999
 21
10.85
 31
0
  0
LINE
  8
0
 62
7
 10
5.164999999999999
 20
8.299999999999997
 30
0
 11
7.424999999999999
 21
8.299999999999997
 31
0
  0
LINE
  8
0
 62
7
 10
7.424999999999999
 20
8.399999999999997
 30
0
 11
7.424999999999999
 21
8.299999999999997
 31
0
  0
LINE
  8
0
 62
7
 10
5.164999999999999
 20
8.099999999999996
 30
0
 11
7.424999999999999
 21
8.099999999999996
 31
0
  0
LINE
  8
0
 62
7
 10
7.424999999999999
 20
8.099999999999996
 30
0
 11
7.424999999999999
 21
7.949999999999996
 31
0
  0
LINE
  8
0
 62
7
 10
7.424999999999999
 20
11.05
 30
0
 11
7.599999999999999
 21
11.05
 31
0
  0
LINE
  8
0
 62
7
 10
7.599999999999999
 20
11.15
 30
0
 11
7.599999999999999
 21
11.05
 31
0
  0
LINE
  8
0
 62
7
 10
7.424999999999999
 20
10.85
 30
0
 11
7.599999999999999
 21
10.85
 31
0
  0
LINE
  8
0
 62
7
 10
7.424999999999999
 20
8.299999999999997
 30
0
 11
7.599999999999999
 21
8.299999999999997
 31
0
  0
LINE
  8
0
 62
7
 10
7.599999999999999
 20
8.399999999999997
 30
0
 11
7.599999999999999
 21
8.299999999999997
 31
0
  0
LINE
  8
0
 62
7
 10
7.424999999999999
 20
8.099999999999996
 30
0
 11
7.599999999999999
 21
8.099999999999996
 31
0
  0
LINE
  8
0
 62
7
 10
7.599999999999999
 20
8.099999999999996
 30
0
 11
7.599999999999999
 21
7.949999999999996
 31
0
  0
LINE
  8
0
 62
7
 10
7.599999999999999
 20
11.05
 30
0
 11
7.749999999999999
 21
11.05
 31
0
  0
LINE
  8
0
 62
7
 10
7.599999999999999
 20
10.85
 30
0
 11
7.749999999999999
 21
10.85
 31
0
  0
LINE
  8
0
 62
7
 10
7.599999999999999
 20
8.299999999999997
 30
0
 11
7.749999999999999
 21
8.299999999999997
 31
0
  0
LINE
  8
0
 62
7
 10
7.599999999999999
 20
8.099999999999996
 30
0
 11
7.749999999999999
 21
8.099999999999996
 31
0
  0
LINE
  8
0
 62
7
 10
6.459999999999998
 20
3.830607590321932
 30
0
 11
6.459999999999998
 21
3.622029560444301
 31
0
  0
LINE
  8
0
 62
7
 10
6.421415625051994
 20
3.885000000000001
 30
0
 11
6.459999999999998
 21
3.830607590321932
 31
0
  0
LINE
  8
0
 62
7
 10
6.300673481300961
 20
3.885000000000001
 30
0
 11
6.306059676701629
 21
3.885000000000001
 31
0
  0
LINE
  8
0
 62
7
 10
6.300673481300961
 20
3.885000000000001
 30
0
 11
6.390893688031511
 21
3.885000000000001
 31
0
  0
LINE
  8
0
 62
7
 10
6.300673481300961
 20
3.885000000000001
 30
0
 11
6.421415625051994
 21
3.885000000000001
 31
0
  0
LINE
  8
0
 62
7
 10
6.168663735119434
 20
3.885000000000001
 30
0
 11
6.300673481300961
 21
3.885000000000001
 31
0
  0
LINE
  8
0
 62
7
 10
6.129999999999999
 20
3.844810064810061
 30
0
 11
6.168663735119434
 21
3.885000000000001
 31
0
  0
LINE
  8
0
 62
7
 10
6.129999999999999
 20
3.651642797942152
 30
0
 11
6.129999999999999
 21
3.756019376231671
 31
0
  0
LINE
  8
0
 62
7
 10
6.129999999999999
 20
3.651642797942152
 30
0
 11
6.129999999999999
 21
3.844810064810061
 31
0
  0
LINE
  8
0
 62
7
 10
5.219999999999999
 20
3.250000000000001
 30
0
 11
6.129999999999999
 21
3.250000000000001
 31
0
  0
LINE
  8
0
 62
7
 10
6.129999999999999
 20
3.250000000000001
 30
0
 11
6.129999999999999
 21
3.524106012484053
 31
0
  0
LINE
  8
0
 62
7
 10
5.219999999999999
 20
3.60938243859246
 30
0
 11
5.219999999999999
 21
3.250000000000001
 31
0
  0
LINE
  8
0
 62
7
 10
5.219999999999999
 20
3.518988128963813
 30
0
 11
6.129999999999999
 21
3.43371170285541
 31
0
  0
LINE
  8
0
 62
7
 10
6.129999999999999
 20
3.43371170285541
 30
0
 11
6.129999999999999
 21
3.639156740938062
 31
0
  0
LINE
  8
0
 62
7
 10
5.219999999999999
 20
3.944565338437331
 30
0
 11
5.219999999999999
 21
3.518988128963813
 31
0
  0
LINE
  8
0
 62
7
 10
5.219999999999999
 20
3.849631904494001
 30
0
 11
6.129999999999999
 21
3.544223306994722
 31
0
  0
LINE
  8
0
 62
7
 10
6.129999999999999
 20
3.544223306994722
 30
0
 11
6.129999999999999
 21
3.651642797942152
 31
0
  0
LINE
  8
0
 62
7
 10
5.219999999999999
 20
4.290520491963982
 30
0
 11
5.219999999999999
 21
3.849631904494001
 31
0
  0
LINE
  8
0
 62
7
 10
5.219999999999999
 20
4.186143913674463
 30
0
 11
6.129999999999999
 21
3.651642797942152
 31
0
  0
LINE
  8
0
 62
7
 10
5.219999999999999
 20
4.78231421837508
 30
0
 11
5.219999999999999
 21
4.186143913674463
 31
0
  0
LINE
  8
0
 62
7
 10
5.219999999999999
 20
4.654840731623482
 30
0
 11
6.07969699949971
 21
3.79252141955318
 31
0
  0
LINE
  8
0
 62
7
 10
6.07969699949971
 20
3.79252141955318
 30
0
 11
6.129999999999999
 21
3.844810064810061
 31
0
  0
LINE
  8
0
 62
7
 10
5.716938323321382
 20
4.795000000000003
 30
0
 11
5.219999999999999
 21
4.795000000000003
 31
0
  0
LINE
  8
0
 62
7
 10
5.219999999999999
 20
4.795000000000003
 30
0
 11
5.219999999999999
 21
4.654840731623482
 31
0
  0
LINE
  8
0
 62
7
 10
5.6136566758241
 20
4.795000000000003
 30
0
 11
6.125951734702609
 21
3.885000000000001
 31
0
  0
LINE
  8
0
 62
7
 10
6.125951734702609
 20
3.885000000000001
 30
0
 11
6.168663735119434
 21
3.885000000000001
 31
0
  0
LINE
  8
0
 62
7
 10
6.105653800515088
 20
4.795000000000003
 30
0
 11
5.6136566758241
 21
4.795000000000003
 31
0
  0
LINE
  8
0
 62
7
 10
6.013497158186519
 20
4.795000000000003
 30
0
 11
6.213903034373049
 21
3.885000000000001
 31
0
  0
LINE
  8
0
 62
7
 10
6.213903034373049
 20
3.885000000000001
 30
0
 11
6.300673481300961
 21
3.885000000000001
 31
0
  0
LINE
  8
0
 62
7
 10
6.45459023932976
 20
4.795000000000003
 30
0
 11
6.013497158186519
 21
4.795000000000003
 31
0
  0
LINE
  8
0
 62
7
 10
6.364370032599196
 20
4.795000000000003
 30
0
 11
6.300673481300961
 21
3.885000000000001
 31
0
  0
LINE
  8
0
 62
7
 10
6.822822544470769
 20
4.795000000000003
 30
0
 11
6.364370032599196
 21
4.795000000000003
 31
0
  0
LINE
  8
0
 62
7
 10
6.726596090437669
 20
4.795000000000003
 30
0
 11
6.395901909928668
 21
3.920966694996812
 31
0
  0
LINE
  8
0
 62
7
 10
6.395901909928668
 20
3.920966694996812
 30
0
 11
6.421415625051994
 21
3.885000000000001
 31
0
  0
LINE
  8
0
 62
7
 10
7.266274266508359
 20
4.795000000000003
 30
0
 11
6.726596090437669
 21
4.795000000000003
 31
0
  0
LINE
  8
0
 62
7
 10
7.155026606589648
 20
4.795000000000003
 30
0
 11
6.459999999999998
 21
3.838416320783711
 31
0
  0
LINE
  8
0
 62
7
 10
6.459999999999998
 20
3.838416320783711
 30
0
 11
6.459999999999998
 21
3.830607590321932
 31
0
  0
LINE
  8
0
 62
7
 10
7.369999999999999
 20
4.326072702359872
 30
0
 11
7.369999999999999
 21
4.795000000000003
 31
0
  0
LINE
  8
0
 62
7
 10
7.369999999999999
 20
4.795000000000003
 30
0
 11
7.155026606589648
 21
4.795000000000003
 31
0
  0
LINE
  8
0
 62
7
 10
7.369999999999999
 20
4.43986385352638
 30
0
 11
6.459999999999998
 21
3.735820711610813
 31
0
  0
LINE
  8
0
 62
7
 10
6.459999999999998
 20
3.735820711610813
 30
0
 11
6.459999999999998
 21
3.526683876632771
 31
0
  0
LINE
  8
0
 62
7
 10
7.369999999999999
 20
3.956012246907183
 30
0
 11
7.369999999999999
 21
4.43986385352638
 31
0
  0
LINE
  8
0
 62
7
 10
7.369999999999999
 20
4.055525766411322
 30
0
 11
6.459999999999998
 21
3.626197396136911
 31
0
  0
LINE
  8
0
 62
7
 10
6.459999999999998
 20
3.626197396136911
 30
0
 11
6.459999999999998
 21
3.423976870849062
 31
0
  0
LINE
  8
0
 62
7
 10
7.369999999999999
 20
3.632042608255472
 30
0
 11
7.369999999999999
 21
4.055525766411322
 31
0
  0
LINE
  8
0
 62
7
 10
7.369999999999999
 20
3.724365147248374
 30
0
 11
6.459999999999998
 21
3.516299409841961
 31
0
  0
LINE
  8
0
 62
7
 10
6.459999999999998
 20
3.516299409841961
 30
0
 11
6.459999999999998
 21
3.390000000000001
 31
0
  0
LINE
  8
0
 62
7
 10
7.369999999999999
 20
3.390000000000001
 30
0
 11
7.369999999999999
 21
3.724365147248374
 31
0
  0
LINE
  8
0
 62
7
 10
5.63604929962667
 20
3.250000000000001
 30
0
 11
5.63604929962667
 21
3.885000000022341
 31
0
  0
LINE
  8
0
 62
7
 10
6.13000000000939
 20
4.378950700373333
 30
0
 11
6.460000000007181
 21
4.378950700373333
 31
0
  0
LINE
  8
0
 62
7
 10
6.953950700373321
 20
3.400000000000001
 30
0
 11
6.848295601111619
 21
3.461000000000001
 31
0
  0
LINE
  8
0
 62
7
 10
6.848295601111619
 20
3.461000000000001
 30
0
 11
7.05960579963502
 21
3.461000000000001
 31
0
  0
LINE
  8
0
 62
7
 10
7.05960579963502
 20
3.461000000000001
 30
0
 11
6.953950700373321
 21
3.400000000000001
 31
0
  0
LINE
  8
0
 62
7
 10
6.953950700373321
 20
3.884999999990612
 30
0
 11
6.953950700373321
 21
3.400000000000001
 31
0
  0
LINE
  8
0
 62
7
 10
5.219999349999998
 20
8.596800069999997
 30
0
 11
6.129999999999999
 21
8.596800069999997
 31
0
  0
LINE
  8
0
 62
7
 10
5.219999349999998
 20
8.531800069999996
 30
0
 11
5.219999349999998
 21
8.596800069999997
 31
0
  0
LINE
  8
0
 62
7
 10
6.129999999999999
 20
8.596800069999997
 30
0
 11
6.129999999999999
 21
8.531800069999996
 31
0
  0
LINE
  8
0
 62
7
 10
6.129999999999999
 20
8.531800069999996
 30
0
 11
5.219999349999998
 21
8.531800069999996
 31
0
  0
LINE
  8
0
 62
7
 10
5.219999939999998
 20
8.793200059999995
 30
0
 11
6.129999929999999
 21
8.793200059999995
 31
0
  0
LINE
  8
0
 62
7
 10
5.219999939999998
 20
8.728200059999997
 30
0
 11
5.219999939999998
 21
8.793200059999995
 31
0
  0
LINE
  8
0
 62
7
 10
6.129999929999999
 20
8.793200059999995
 30
0
 11
6.129999929999999
 21
8.728200059999997
 31
0
  0
LINE
  8
0
 62
7
 10
6.129999929999999
 20
8.728200059999997
 30
0
 11
5.219999939999998
 21
8.728200059999997
 31
0
  0
LINE
  8
0
 62
7
 10
5.219999989999998
 20
8.989600059999995
 30
0
 11
6.129999999999999
 21
8.989600059999995
 31
0
  0
LINE
  8
0
 62
7
 10
5.219999989999998
 20
8.924600059999996
 30
0
 11
5.219999989999998
 21
8.989600059999995
 31
0
  0
LINE
  8
0
 62
7
 10
6.129999999999999
 20
8.989600059999995
 30
0
 11
6.129999999999999
 21
8.924600059999996
 31
0
  0
LINE
  8
0
 62
7
 10
6.129999999999999
 20
8.924600059999996
 30
0
 11
5.219999989999998
 21
8.924600059999996
 31
0
  0
LINE
  8
0
 62
7
 10
5.220000049999999
 20
9.186000049999995
 30
0
 11
6.129999929999999
 21
9.186000049999995
 31
0
  0
LINE
  8
0
 62
7
 10
5.220000049999999
 20
9.121000049999996
 30
0
 11
5.220000049999999
 21
9.186000049999995
 31
0
  0
LINE
  8
0
 62
7
 10
6.129999929999999
 20
9.186000049999995
 30
0
 11
6.129999929999999
 21
9.121000049999996
 31
0
  0
LINE
  8
0
 62
7
 10
6.129999929999999
 20
9.121000049999996
 30
0
 11
5.220000049999999
 21
9.121000049999996
 31
0
  0
LINE
  8
0
 62
7
 10
6.20687371
 20
9.317400049999994
 30
0
 11
5.21999997
 21
9.317400049999994
 31
0
  0
LINE
  8
0
 62
7
 10
5.21999997
 20
9.382400049999996
 30
0
 11
6.20687371
 21
9.382400049999996
 31
0
  0
LINE
  8
0
 62
7
 10
5.21999997
 20
9.317400049999994
 30
0
 11
5.21999997
 21
9.382400049999996
 31
0
  0
LINE
  8
0
 62
7
 10
6.20687371
 20
9.382400049999996
 30
0
 11
6.20687371
 21
9.317400049999994
 31
0
  0
LINE
  8
0
 62
7
 10
6.306059649999998
 20
9.513800039999998
 30
0
 11
5.613657269999998
 21
9.513800039999998
 31
0
  0
LINE
  8
0
 62
7
 10
5.613657269999998
 20
9.578800039999997
 30
0
 11
6.306059649999998
 21
9.578800039999997
 31
0
  0
LINE
  8
0
 62
7
 10
5.613657269999998
 20
9.513800039999998
 30
0
 11
5.613657269999998
 21
9.578800039999997
 31
0
  0
LINE
  8
0
 62
7
 10
6.306059649999998
 20
9.578800039999997
 30
0
 11
6.306059649999998
 21
9.513800039999998
 31
0
  0
LINE
  8
0
 62
7
 10
6.45458985
 20
9.710200029999998
 30
0
 11
6.013497319999999
 21
9.710200029999998
 31
0
  0
LINE
  8
0
 62
7
 10
6.013497319999999
 20
9.775200029999997
 30
0
 11
6.45458985
 21
9.775200029999997
 31
0
  0
LINE
  8
0
 62
7
 10
6.013497319999999
 20
9.710200029999998
 30
0
 11
6.013497319999999
 21
9.775200029999997
 31
0
  0
LINE
  8
0
 62
7
 10
6.45458985
 20
9.775200029999997
 30
0
 11
6.45458985
 21
9.710200029999998
 31
0
  0
LINE
  8
0
 62
7
 10
6.82282227
 20
9.906600029999996
 30
0
 11
6.300673829999998
 21
9.906600029999996
 31
0
  0
LINE
  8
0
 62
7
 10
6.300673829999998
 20
9.971600029999998
 30
0
 11
6.82282227
 21
9.971600029999998
 31
0
  0
LINE
  8
0
 62
7
 10
6.300673829999998
 20
9.906600029999996
 30
0
 11
6.300673829999998
 21
9.971600029999998
 31
0
  0
LINE
  8
0
 62
7
 10
6.82282227
 20
9.971600029999998
 30
0
 11
6.82282227
 21
9.906600029999996
 31
0
  0
LINE
  8
0
 62
7
 10
7.266274419999999
 20
10.10300002
 30
0
 11
6.395902029999998
 21
10.10300002
 31
0
  0
LINE
  8
0
 62
7
 10
6.395902029999998
 20
10.16800002
 30
0
 11
7.266274419999999
 21
10.16800002
 31
0
  0
LINE
  8
0
 62
7
 10
6.395902029999998
 20
10.10300002
 30
0
 11
6.395902029999998
 21
10.16800002
 31
0
  0
LINE
  8
0
 62
7
 10
7.266274419999999
 20
10.16800002
 30
0
 11
7.266274419999999
 21
10.10300002
 31
0
  0
LINE
  8
0
 62
7
 10
6.45999985
 20
10.36440002
 30
0
 11
7.369999999999999
 21
10.36440002
 31
0
  0
LINE
  8
0
 62
7
 10
7.369999999999999
 20
10.29940002
 30
0
 11
6.45999985
 21
10.29940002
 31
0
  0
LINE
  8
0
 62
7
 10
6.45999985
 20
10.29940002
 30
0
 11
6.45999985
 21
10.36440002
 31
0
  0
LINE
  8
0
 62
7
 10
7.369999999999999
 20
10.36440002
 30
0
 11
7.369999999999999
 21
10.29940002
 31
0
  0
LINE
  8
0
 62
7
 10
6.45999985
 20
10.56080001
 30
0
 11
7.369999999999999
 21
10.56080001
 31
0
  0
LINE
  8
0
 62
7
 10
6.45999985
 20
10.49580001
 30
0
 11
6.45999985
 21
10.56080001
 31
0
  0
LINE
  8
0
 62
7
 10
7.369999999999999
 20
10.56080001
 30
0
 11
7.369999999999999
 21
10.49580001
 31
0
  0
LINE
  8
0
 62
7
 10
7.369999999999999
 20
10.49580001
 30
0
 11
6.45999985
 21
10.49580001
 31
0
  0
LINE
  8
0
 62
7
 10
6.459999999999998
 20
10.7572
 30
0
 11
7.37000016
 21
10.7572
 31
0
  0
LINE
  8
0
 62
7
 10
6.459999999999998
 20
10.6922
 30
0
 11
6.459999999999998
 21
10.7572
 31
0
  0
LINE
  8
0
 62
7
 10
7.37000016
 20
10.7572
 30
0
 11
7.37000016
 21
10.6922
 31
0
  0
LINE
  8
0
 62
7
 10
7.37000016
 20
10.6922
 30
0
 11
6.459999999999998
 21
10.6922
 31
0
  0
LINE
  8
0
 62
7
  6
DASHED
 10
6.45999985
 20
10.9536
 30
0
 11
7.369999999999999
 21
10.9536
 31
0
  0
LINE
  8
0
 62
7
  6
DASHED
 10
6.45999985
 20
10.8886
 30
0
 11
6.45999985
 21
10.9536
 31
0
  0
LINE
  8
0
 62
7
  6
DASHED
 10
7.369999999999999
 20
10.9536
 30
0
 11
7.369999999999999
 21
10.8886
 31
0
  0
LINE
  8
0
 62
7
  6
DASHED
 10
7.369999999999999
 20
10.8886
 30
0
 11
6.45999985
 21
10.8886
 31
0
  0
LINE
  8
0
 62
7
 10
1.980617980000002
 20
8.596800069999997
 30
0
 11
2.340000330000001
 21
8.596800069999997
 31
0
  0
LINE
  8
0
 62
7
 10
2.340000330000001
 20
8.531800069999996
 30
0
 11
1.980617980000002
 21
8.531800069999996
 31
0
  0
LINE
  8
0
 62
7
 10
2.340000330000001
 20
8.596800069999997
 30
0
 11
2.340000330000001
 21
8.531800069999996
 31
0
  0
LINE
  8
0
 62
7
 10
1.980617980000002
 20
8.531800069999996
 30
0
 11
1.980617980000002
 21
8.596800069999997
 31
0
  0
LINE
  8
0
 62
7
 10
2.15628868
 20
8.728200059999997
 30
0
 11
1.645435030000001
 21
8.728200059999997
 31
0
  0
LINE
  8
0
 62
7
 10
1.645435030000001
 20
8.793200059999995
 30
0
 11
2.15628868
 21
8.793200059999995
 31
0
  0
LINE
  8
0
 62
7
 10
2.15628868
 20
8.793200059999995
 30
0
 11
2.15628868
 21
8.728200059999997
 31
0
  0
LINE
  8
0
 62
7
 10
1.645435030000001
 20
8.728200059999997
 30
0
 11
1.645435030000001
 21
8.793200059999995
 31
0
  0
LINE
  8
0
 62
7
 10
2.04577709
 20
8.924600059999996
 30
0
 11
1.299479910000002
 21
8.924600059999996
 31
0
  0
LINE
  8
0
 62
7
 10
1.299479910000002
 20
8.989600059999995
 30
0
 11
2.04577709
 21
8.989600059999995
 31
0
  0
LINE
  8
0
 62
7
 10
2.04577709
 20
8.989600059999995
 30
0
 11
2.04577709
 21
8.924600059999996
 31
0
  0
LINE
  8
0
 62
7
 10
1.299479910000002
 20
8.924600059999996
 30
0
 11
1.299479910000002
 21
8.989600059999995
 31
0
  0
LINE
  8
0
 62
7
 10
1.938357620000002
 20
9.121000049999996
 30
0
 11
0.8076860100000014
 21
9.121000049999996
 31
0
  0
LINE
  8
0
 62
7
 10
0.8076860100000014
 20
9.186000049999995
 30
0
 11
1.938357620000002
 21
9.186000049999995
 31
0
  0
LINE
  8
0
 62
7
 10
1.938357620000002
 20
9.186000049999995
 30
0
 11
1.938357620000002
 21
9.121000049999996
 31
0
  0
LINE
  8
0
 62
7
 10
0.8076860100000014
 20
9.121000049999996
 30
0
 11
0.8076860100000014
 21
9.186000049999995
 31
0
  0
LINE
  8
0
 62
7
 10
1.797478940000001
 20
9.317400049999994
 30
0
 11
0.7950004600000029
 21
9.317400049999994
 31
0
  0
LINE
  8
0
 62
7
 10
0.7950004600000029
 20
9.382400049999996
 30
0
 11
1.797478940000001
 21
9.382400049999996
 31
0
  0
LINE
  8
0
 62
7
 10
1.797478940000001
 20
9.382400049999996
 30
0
 11
1.797478940000001
 21
9.317400049999994
 31
0
  0
LINE
  8
0
 62
7
 10
0.7950004600000029
 20
9.317400049999994
 30
0
 11
0.7950004600000029
 21
9.382400049999996
 31
0
  0
LINE
  8
0
 62
7
 10
0.7950003099999995
 20
9.578800039999996
 30
0
 11
1.705000380000001
 21
9.578800039999996
 31
0
  0
LINE
  8
0
 62
7
 10
1.705000380000001
 20
9.578800039999996
 30
0
 11
1.705000380000001
 21
9.513800039999996
 31
0
  0
LINE
  8
0
 62
7
 10
0.7950003099999995
 20
9.513800039999996
 30
0
 11
0.7950003099999995
 21
9.578800039999996
 31
0
  0
LINE
  8
0
 62
7
 10
1.705000380000001
 20
9.513800039999996
 30
0
 11
0.7950003099999995
 21
9.513800039999996
 31
0
  0
LINE
  8
0
 62
7
 10
0.7950003099999995
 20
9.775200029999995
 30
0
 11
1.705000380000001
 21
9.775200029999995
 31
0
  0
LINE
  8
0
 62
7
 10
1.705000380000001
 20
9.775200029999995
 30
0
 11
1.705000380000001
 21
9.710200029999996
 31
0
  0
LINE
  8
0
 62
7
 10
0.7950003099999995
 20
9.710200029999996
 30
0
 11
0.7950003099999995
 21
9.775200029999995
 31
0
  0
LINE
  8
0
 62
7
 10
1.705000380000001
 20
9.710200029999996
 30
0
 11
0.7950003099999995
 21
9.710200029999996
 31
0
  0
LINE
  8
0
 62
7
 10
0.795
 20
9.971600029999996
 30
0
 11
1.705000380000001
 21
9.971600029999996
 31
0
  0
LINE
  8
0
 62
7
 10
1.705000380000001
 20
9.971600029999996
 30
0
 11
1.705000380000001
 21
9.906600029999995
 31
0
  0
LINE
  8
0
 62
7
 10
0.795
 20
9.906600029999995
 30
0
 11
0.795
 21
9.971600029999996
 31
0
  0
LINE
  8
0
 62
7
 10
1.705000380000001
 20
9.906600029999995
 30
0
 11
0.795
 21
9.906600029999995
 31
0
  0
LINE
  8
0
 62
7
 10
0.7950003099999995
 20
10.16800002
 30
0
 11
1.832915420000001
 21
10.16800002
 31
0
  0
LINE
  8
0
 62
7
 10
1.832915420000001
 20
10.10300001999999
 30
0
 11
0.7950003099999995
 21
10.10300001999999
 31
0
  0
LINE
  8
0
 62
7
 10
1.832915420000001
 20
10.16800002
 30
0
 11
1.832915420000001
 21
10.10300001999999
 31
0
  0
LINE
  8
0
 62
7
 10
0.7950003099999995
 20
10.10300001999999
 30
0
 11
0.7950003099999995
 21
10.16800002
 31
0
  0
LINE
  8
0
 62
7
 10
1.967970810000002
 20
10.29940002
 30
0
 11
0.7950004600000029
 21
10.29940002
 31
0
  0
LINE
  8
0
 62
7
 10
0.7950004600000029
 20
10.36440002
 30
0
 11
1.967970810000002
 21
10.36440002
 31
0
  0
LINE
  8
0
 62
7
 10
1.967970810000002
 20
10.36440002
 30
0
 11
1.967970810000002
 21
10.29940002
 31
0
  0
LINE
  8
0
 62
7
 10
0.7950004600000029
 20
10.29940002
 30
0
 11
0.7950004600000029
 21
10.36440002
 31
0
  0
LINE
  8
0
 62
7
 10
2.063316460000001
 20
10.49580001
 30
0
 11
1.150136570000003
 21
10.49580001
 31
0
  0
LINE
  8
0
 62
7
 10
1.150136570000003
 20
10.56080001
 30
0
 11
2.063316460000001
 21
10.56080001
 31
0
  0
LINE
  8
0
 62
7
 10
2.063316460000001
 20
10.56080001
 30
0
 11
2.063316460000001
 21
10.49580001
 31
0
  0
LINE
  8
0
 62
7
 10
1.150136570000003
 20
10.49580001
 30
0
 11
1.150136570000003
 21
10.56080001
 31
0
  0
LINE
  8
0
 62
7
 10
2.166023370000001
 20
10.6922
 30
0
 11
1.534474870000002
 21
10.6922
 31
0
  0
LINE
  8
0
 62
7
 10
1.534474870000002
 20
10.7572
 30
0
 11
2.166023370000001
 21
10.7572
 31
0
  0
LINE
  8
0
 62
7
 10
2.166023370000001
 20
10.7572
 30
0
 11
2.166023370000001
 21
10.6922
 31
0
  0
LINE
  8
0
 62
7
 10
1.534474870000002
 20
10.6922
 30
0
 11
1.534474870000002
 21
10.7572
 31
0
  0
LINE
  8
0
 62
7
 10
1.865635150000002
 20
10.95359999999999
 30
0
 11
2.200000460000002
 21
10.95359999999999
 31
0
  0
LINE
  8
0
 62
7
 10
2.200000460000002
 20
10.88859999999999
 30
0
 11
1.865635150000002
 21
10.88859999999999
 31
0
  0
LINE
  8
0
 62
7
 10
2.200000460000002
 20
10.95359999999999
 30
0
 11
2.200000460000002
 21
10.88859999999999
 31
0
  0
LINE
  8
0
 62
7
 10
1.865635150000002
 20
10.88859999999999
 30
0
 11
1.865635150000002
 21
10.95359999999999
 31
0
  0
LINE
  8
0
 62
7
 10
5.455198141855453
 20
4.55029048543689
 30
0
 11
5.455198141855453
 21
4.67029048543689
 31
0
  0
LINE
  8
0
 62
7
 10
5.530798141855453
 20
4.67029048543689
 30
0
 11
5.476798141855452
 21
4.610290485436891
 31
0
  0
LINE
  8
0
 62
7
 10
5.476798141855452
 20
4.610290485436891
 30
0
 11
5.530798141855453
 21
4.55029048543689
 31
0
  0
LINE
  8
0
 62
7
 10
5.476798141855452
 20
4.610290485436891
 30
0
 11
5.455198141855453
 21
4.58629048543689
 31
0
  0
LINE
  8
0
 62
7
 10
5.638798141855452
 20
4.67029048543689
 30
0
 11
5.563198141855452
 21
4.67029048543689
 31
0
  0
LINE
  8
0
 62
7
 10
5.563198141855452
 20
4.67029048543689
 30
0
 11
5.563198141855452
 21
4.610290485436891
 31
0
  0
LINE
  8
0
 62
7
 10
5.563198141855452
 20
4.55029048543689
 30
0
 11
5.638798141855452
 21
4.55029048543689
 31
0
  0
LINE
  8
0
 62
7
 10
5.627998141855453
 20
4.610290485436891
 30
0
 11
5.563198141855452
 21
4.610290485436891
 31
0
  0
LINE
  8
0
 62
7
 10
5.563198141855452
 20
4.610290485436891
 30
0
 11
5.563198141855452
 21
4.55029048543689
 31
0
  0
LINE
  8
0
 62
7
 10
5.671198141855452
 20
4.55029048543689
 30
0
 11
5.671198141855452
 21
4.67029048543689
 31
0
  0
LINE
  8
0
 62
7
 10
5.671198141855452
 20
4.67029048543689
 30
0
 11
5.746798141855453
 21
4.55029048543689
 31
0
  0
LINE
  8
0
 62
7
 10
5.746798141855453
 20
4.55029048543689
 30
0
 11
5.746798141855453
 21
4.67029048543689
 31
0
  0
LINE
  8
0
 62
7
 10
5.779198141855452
 20
4.55029048543689
 30
0
 11
5.779198141855452
 21
4.67029048543689
 31
0
  0
LINE
  8
0
 62
7
 10
5.779198141855452
 20
4.67029048543689
 30
0
 11
5.854798141855453
 21
4.55029048543689
 31
0
  0
LINE
  8
0
 62
7
 10
5.854798141855453
 20
4.55029048543689
 30
0
 11
5.854798141855453
 21
4.67029048543689
 31
0
  0
LINE
  8
0
 62
7
 10
5.962798141855452
 20
4.63429048543689
 30
0
 11
5.960098141855451
 21
4.64629048543689
 31
0
  0
LINE
  8
0
 62
7
 10
5.960098141855451
 20
4.64629048543689
 30
0
 11
5.954698141855452
 21
4.65529048543689
 31
0
  0
LINE
  8
0
 62
7
 10
5.954698141855452
 20
4.65529048543689
 30
0
 11
5.949298141855452
 21
4.66129048543689
 31
0
  0
LINE
  8
0
 62
7
 10
5.949298141855452
 20
4.66129048543689
 30
0
 11
5.941198141855452
 21
4.66729048543689
 31
0
  0
LINE
  8
0
 62
7
 10
5.941198141855452
 20
4.66729048543689
 30
0
 11
5.933098141855453
 21
4.67029048543689
 31
0
  0
LINE
  8
0
 62
7
 10
5.933098141855453
 20
4.67029048543689
 30
0
 11
5.916898141855452
 21
4.67029048543689
 31
0
  0
LINE
  8
0
 62
7
 10
5.916898141855452
 20
4.67029048543689
 30
0
 11
5.908798141855453
 21
4.66729048543689
 31
0
  0
LINE
  8
0
 62
7
 10
5.908798141855453
 20
4.66729048543689
 30
0
 11
5.900698141855452
 21
4.66129048543689
 31
0
  0
LINE
  8
0
 62
7
 10
5.900698141855452
 20
4.66129048543689
 30
0
 11
5.895298141855452
 21
4.65529048543689
 31
0
  0
LINE
  8
0
 62
7
 10
5.895298141855452
 20
4.65529048543689
 30
0
 11
5.889898141855451
 21
4.64629048543689
 31
0
  0
LINE
  8
0
 62
7
 10
5.889898141855451
 20
4.64629048543689
 30
0
 11
5.887198141855452
 21
4.63429048543689
 31
0
  0
LINE
  8
0
 62
7
 10
5.887198141855452
 20
4.63429048543689
 30
0
 11
5.887198141855452
 21
4.58629048543689
 31
0
  0
LINE
  8
0
 62
7
 10
5.887198141855452
 20
4.58629048543689
 30
0
 11
5.889898141855451
 21
4.57429048543689
 31
0
  0
LINE
  8
0
 62
7
 10
5.889898141855451
 20
4.57429048543689
 30
0
 11
5.895298141855452
 21
4.56529048543689
 31
0
  0
LINE
  8
0
 62
7
 10
5.895298141855452
 20
4.56529048543689
 30
0
 11
5.900698141855452
 21
4.55929048543689
 31
0
  0
LINE
  8
0
 62
7
 10
5.900698141855452
 20
4.55929048543689
 30
0
 11
5.908798141855453
 21
4.55329048543689
 31
0
  0
LINE
  8
0
 62
7
 10
5.908798141855453
 20
4.55329048543689
 30
0
 11
5.916898141855452
 21
4.55029048543689
 31
0
  0
LINE
  8
0
 62
7
 10
5.916898141855452
 20
4.55029048543689
 30
0
 11
5.933098141855453
 21
4.55029048543689
 31
0
  0
LINE
  8
0
 62
7
 10
5.933098141855453
 20
4.55029048543689
 30
0
 11
5.941198141855452
 21
4.55329048543689
 31
0
  0
LINE
  8
0
 62
7
 10
5.941198141855452
 20
4.55329048543689
 30
0
 11
5.949298141855452
 21
4.55929048543689
 31
0
  0
LINE
  8
0
 62
7
 10
5.949298141855452
 20
4.55929048543689
 30
0
 11
5.954698141855452
 21
4.56529048543689
 31
0
  0
LINE
  8
0
 62
7
 10
5.954698141855452
 20
4.56529048543689
 30
0
 11
5.960098141855451
 21
4.57429048543689
 31
0
  0
LINE
  8
0
 62
7
 10
5.960098141855451
 20
4.57429048543689
 30
0
 11
5.962798141855452
 21
4.58629048543689
 31
0
  0
LINE
  8
0
 62
7
 10
5.962798141855452
 20
4.58629048543689
 30
0
 11
5.962798141855452
 21
4.610290485436891
 31
0
  0
LINE
  8
0
 62
7
 10
5.962798141855452
 20
4.610290485436891
 30
0
 11
5.930398141855452
 21
4.610290485436891
 31
0
  0
LINE
  8
0
 62
7
 10
6.041098141855452
 20
4.67029048543689
 30
0
 11
6.024898141855452
 21
4.67029048543689
 31
0
  0
LINE
  8
0
 62
7
 10
6.024898141855452
 20
4.67029048543689
 30
0
 11
6.016798141855452
 21
4.66729048543689
 31
0
  0
LINE
  8
0
 62
7
 10
6.016798141855452
 20
4.66729048543689
 30
0
 11
6.008698141855452
 21
4.66129048543689
 31
0
  0
LINE
  8
0
 62
7
 10
6.008698141855452
 20
4.66129048543689
 30
0
 11
6.003298141855453
 21
4.65529048543689
 31
0
  0
LINE
  8
0
 62
7
 10
6.003298141855453
 20
4.65529048543689
 30
0
 11
5.997898141855453
 21
4.64629048543689
 31
0
  0
LINE
  8
0
 62
7
 10
5.997898141855453
 20
4.64629048543689
 30
0
 11
5.995198141855453
 21
4.63429048543689
 31
0
  0
LINE
  8
0
 62
7
 10
5.995198141855453
 20
4.63429048543689
 30
0
 11
5.995198141855453
 21
4.58629048543689
 31
0
  0
LINE
  8
0
 62
7
 10
5.995198141855453
 20
4.58629048543689
 30
0
 11
5.997898141855453
 21
4.57429048543689
 31
0
  0
LINE
  8
0
 62
7
 10
5.997898141855453
 20
4.57429048543689
 30
0
 11
6.003298141855453
 21
4.56529048543689
 31
0
  0
LINE
  8
0
 62
7
 10
6.003298141855453
 20
4.56529048543689
 30
0
 11
6.008698141855452
 21
4.55929048543689
 31
0
  0
LINE
  8
0
 62
7
 10
6.008698141855452
 20
4.55929048543689
 30
0
 11
6.016798141855452
 21
4.55329048543689
 31
0
  0
LINE
  8
0
 62
7
 10
6.016798141855452
 20
4.55329048543689
 30
0
 11
6.024898141855452
 21
4.55029048543689
 31
0
  0
LINE
  8
0
 62
7
 10
6.024898141855452
 20
4.55029048543689
 30
0
 11
6.041098141855452
 21
4.55029048543689
 31
0
  0
LINE
  8
0
 62
7
 10
6.041098141855452
 20
4.55029048543689
 30
0
 11
6.049198141855452
 21
4.55329048543689
 31
0
  0
LINE
  8
0
 62
7
 10
6.049198141855452
 20
4.55329048543689
 30
0
 11
6.057298141855453
 21
4.55929048543689
 31
0
  0
LINE
  8
0
 62
7
 10
6.057298141855453
 20
4.55929048543689
 30
0
 11
6.062698141855453
 21
4.56529048543689
 31
0
  0
LINE
  8
0
 62
7
 10
6.062698141855453
 20
4.56529048543689
 30
0
 11
6.068098141855453
 21
4.57429048543689
 31
0
  0
LINE
  8
0
 62
7
 10
6.068098141855453
 20
4.57429048543689
 30
0
 11
6.070798141855452
 21
4.58629048543689
 31
0
  0
LINE
  8
0
 62
7
 10
6.070798141855452
 20
4.58629048543689
 30
0
 11
6.070798141855452
 21
4.63429048543689
 31
0
  0
LINE
  8
0
 62
7
 10
6.070798141855452
 20
4.63429048543689
 30
0
 11
6.068098141855453
 21
4.64629048543689
 31
0
  0
LINE
  8
0
 62
7
 10
6.068098141855453
 20
4.64629048543689
 30
0
 11
6.062698141855453
 21
4.65529048543689
 31
0
  0
LINE
  8
0
 62
7
 10
6.062698141855453
 20
4.65529048543689
 30
0
 11
6.057298141855453
 21
4.66129048543689
 31
0
  0
LINE
  8
0
 62
7
 10
6.057298141855453
 20
4.66129048543689
 30
0
 11
6.049198141855452
 21
4.66729048543689
 31
0
  0
LINE
  8
0
 62
7
 10
6.049198141855452
 20
4.66729048543689
 30
0
 11
6.041098141855452
 21
4.67029048543689
 31
0
  0
LINE
  8
0
 62
7
 10
6.092398141855451
 20
4.67029048543689
 30
0
 11
6.130198141855453
 21
4.67029048543689
 31
0
  0
LINE
  8
0
 62
7
 10
6.130198141855453
 20
4.67029048543689
 30
0
 11
6.130198141855453
 21
4.55029048543689
 31
0
  0
LINE
  8
0
 62
7
 10
6.130198141855453
 20
4.67029048543689
 30
0
 11
6.167998141855453
 21
4.67029048543689
 31
0
  0
LINE
  8
0
 62
7
 10
6.200398141855453
 20
4.67029048543689
 30
0
 11
6.238198141855452
 21
4.67029048543689
 31
0
  0
LINE
  8
0
 62
7
 10
6.238198141855452
 20
4.67029048543689
 30
0
 11
6.238198141855452
 21
4.55029048543689
 31
0
  0
LINE
  8
0
 62
7
 10
6.238198141855452
 20
4.67029048543689
 30
0
 11
6.275998141855453
 21
4.67029048543689
 31
0
  0
LINE
  8
0
 62
7
 10
6.394798141855452
 20
4.59229048543689
 30
0
 11
6.448798141855452
 21
4.59229048543689
 31
0
  0
LINE
  8
0
 62
7
 10
6.556798141855452
 20
4.67029048543689
 30
0
 11
6.594598141855451
 21
4.67029048543689
 31
0
  0
LINE
  8
0
 62
7
 10
6.594598141855451
 20
4.67029048543689
 30
0
 11
6.594598141855451
 21
4.55029048543689
 31
0
  0
LINE
  8
0
 62
7
 10
6.594598141855451
 20
4.67029048543689
 30
0
 11
6.632398141855451
 21
4.67029048543689
 31
0
  0
LINE
  8
0
 62
7
 10
6.664798141855453
 20
4.55029048543689
 30
0
 11
6.664798141855453
 21
4.67029048543689
 31
0
  0
LINE
  8
0
 62
7
 10
6.664798141855453
 20
4.67029048543689
 30
0
 11
6.716098141855452
 21
4.67029048543689
 31
0
  0
LINE
  8
0
 62
7
 10
6.716098141855452
 20
4.67029048543689
 30
0
 11
6.726898141855452
 21
4.66729048543689
 31
0
  0
LINE
  8
0
 62
7
 10
6.726898141855452
 20
4.66729048543689
 30
0
 11
6.734998141855451
 21
4.66129048543689
 31
0
  0
LINE
  8
0
 62
7
 10
6.734998141855451
 20
4.66129048543689
 30
0
 11
6.737698141855453
 21
4.65529048543689
 31
0
  0
LINE
  8
0
 62
7
 10
6.737698141855453
 20
4.65529048543689
 30
0
 11
6.740398141855453
 21
4.64629048543689
 31
0
  0
LINE
  8
0
 62
7
 10
6.740398141855453
 20
4.64629048543689
 30
0
 11
6.740398141855453
 21
4.63429048543689
 31
0
  0
LINE
  8
0
 62
7
 10
6.740398141855453
 20
4.63429048543689
 30
0
 11
6.737698141855453
 21
4.62529048543689
 31
0
  0
LINE
  8
0
 62
7
 10
6.737698141855453
 20
4.62529048543689
 30
0
 11
6.734998141855451
 21
4.61929048543689
 31
0
  0
LINE
  8
0
 62
7
 10
6.734998141855451
 20
4.61929048543689
 30
0
 11
6.726898141855452
 21
4.613290485436891
 31
0
  0
LINE
  8
0
 62
7
 10
6.726898141855452
 20
4.613290485436891
 30
0
 11
6.716098141855452
 21
4.610290485436891
 31
0
  0
LINE
  8
0
 62
7
 10
6.716098141855452
 20
4.610290485436891
 30
0
 11
6.707998141855452
 21
4.610290485436891
 31
0
  0
LINE
  8
0
 62
7
 10
6.707998141855452
 20
4.610290485436891
 30
0
 11
6.740398141855453
 21
4.55029048543689
 31
0
  0
LINE
  8
0
 62
7
 10
6.707998141855452
 20
4.610290485436891
 30
0
 11
6.664798141855453
 21
4.610290485436891
 31
0
  0
LINE
  8
0
 62
7
 10
6.837598141855452
 20
4.67029048543689
 30
0
 11
6.761998141855452
 21
4.67029048543689
 31
0
  0
LINE
  8
0
 62
7
 10
6.761998141855452
 20
4.67029048543689
 30
0
 11
6.761998141855452
 21
4.610290485436891
 31
0
  0
LINE
  8
0
 62
7
 10
6.761998141855452
 20
4.55029048543689
 30
0
 11
6.837598141855452
 21
4.55029048543689
 31
0
  0
LINE
  8
0
 62
7
 10
6.826798141855453
 20
4.610290485436891
 30
0
 11
6.761998141855452
 21
4.610290485436891
 31
0
  0
LINE
  8
0
 62
7
 10
6.761998141855452
 20
4.610290485436891
 30
0
 11
6.761998141855452
 21
4.55029048543689
 31
0
  0
LINE
  8
0
 62
7
 10
6.869998141855452
 20
4.55029048543689
 30
0
 11
6.869998141855452
 21
4.610290485436891
 31
0
  0
LINE
  8
0
 62
7
 10
6.869998141855452
 20
4.67029048543689
 30
0
 11
6.921298141855451
 21
4.67029048543689
 31
0
  0
LINE
  8
0
 62
7
 10
6.921298141855451
 20
4.67029048543689
 30
0
 11
6.932098141855452
 21
4.66729048543689
 31
0
  0
LINE
  8
0
 62
7
 10
6.932098141855452
 20
4.66729048543689
 30
0
 11
6.940198141855451
 21
4.66129048543689
 31
0
  0
LINE
  8
0
 62
7
 10
6.940198141855451
 20
4.66129048543689
 30
0
 11
6.942898141855451
 21
4.65529048543689
 31
0
  0
LINE
  8
0
 62
7
 10
6.942898141855451
 20
4.65529048543689
 30
0
 11
6.945598141855452
 21
4.64629048543689
 31
0
  0
LINE
  8
0
 62
7
 10
6.945598141855452
 20
4.64629048543689
 30
0
 11
6.945598141855452
 21
4.63429048543689
 31
0
  0
LINE
  8
0
 62
7
 10
6.945598141855452
 20
4.63429048543689
 30
0
 11
6.942898141855451
 21
4.62529048543689
 31
0
  0
LINE
  8
0
 62
7
 10
6.942898141855451
 20
4.62529048543689
 30
0
 11
6.940198141855451
 21
4.61929048543689
 31
0
  0
LINE
  8
0
 62
7
 10
6.940198141855451
 20
4.61929048543689
 30
0
 11
6.932098141855452
 21
4.613290485436891
 31
0
  0
LINE
  8
0
 62
7
 10
6.932098141855452
 20
4.613290485436891
 30
0
 11
6.921298141855451
 21
4.610290485436891
 31
0
  0
LINE
  8
0
 62
7
 10
6.921298141855451
 20
4.610290485436891
 30
0
 11
6.869998141855452
 21
4.610290485436891
 31
0
  0
LINE
  8
0
 62
7
 10
6.869998141855452
 20
4.610290485436891
 30
0
 11
6.869998141855452
 21
4.67029048543689
 31
0
  0
LINE
  8
0
 62
7
 10
6.967198141855452
 20
4.55029048543689
 30
0
 11
6.967198141855452
 21
4.610290485436891
 31
0
  0
LINE
  8
0
 62
7
 10
6.967198141855452
 20
4.67029048543689
 30
0
 11
7.018498141855453
 21
4.67029048543689
 31
0
  0
LINE
  8
0
 62
7
 10
7.018498141855453
 20
4.67029048543689
 30
0
 11
7.029298141855453
 21
4.66729048543689
 31
0
  0
LINE
  8
0
 62
7
 10
7.029298141855453
 20
4.66729048543689
 30
0
 11
7.037398141855452
 21
4.66129048543689
 31
0
  0
LINE
  8
0
 62
7
 10
7.037398141855452
 20
4.66129048543689
 30
0
 11
7.040098141855451
 21
4.65529048543689
 31
0
  0
LINE
  8
0
 62
7
 10
7.040098141855451
 20
4.65529048543689
 30
0
 11
7.042798141855453
 21
4.64629048543689
 31
0
  0
LINE
  8
0
 62
7
 10
7.042798141855453
 20
4.64629048543689
 30
0
 11
7.042798141855453
 21
4.63429048543689
 31
0
  0
LINE
  8
0
 62
7
 10
7.042798141855453
 20
4.63429048543689
 30
0
 11
7.040098141855451
 21
4.62529048543689
 31
0
  0
LINE
  8
0
 62
7
 10
7.040098141855451
 20
4.62529048543689
 30
0
 11
7.037398141855452
 21
4.61929048543689
 31
0
  0
LINE
  8
0
 62
7
 10
7.037398141855452
 20
4.61929048543689
 30
0
 11
7.029298141855453
 21
4.613290485436891
 31
0
  0
LINE
  8
0
 62
7
 10
7.029298141855453
 20
4.613290485436891
 30
0
 11
7.018498141855453
 21
4.610290485436891
 31
0
  0
LINE
  8
0
 62
7
 10
7.018498141855453
 20
4.610290485436891
 30
0
 11
6.967198141855452
 21
4.610290485436891
 31
0
  0
LINE
  8
0
 62
7
 10
6.967198141855452
 20
4.610290485436891
 30
0
 11
6.967198141855452
 21
4.67029048543689
 31
0
  0
LINE
  8
0
 62
7
 10
7.139998141855454
 20
4.67029048543689
 30
0
 11
7.064398141855452
 21
4.67029048543689
 31
0
  0
LINE
  8
0
 62
7
 10
7.064398141855452
 20
4.67029048543689
 30
0
 11
7.064398141855452
 21
4.610290485436891
 31
0
  0
LINE
  8
0
 62
7
 10
7.064398141855452
 20
4.55029048543689
 30
0
 11
7.139998141855454
 21
4.55029048543689
 31
0
  0
LINE
  8
0
 62
7
 10
7.129198141855452
 20
4.610290485436891
 30
0
 11
7.064398141855452
 21
4.610290485436891
 31
0
  0
LINE
  8
0
 62
7
 10
7.064398141855452
 20
4.610290485436891
 30
0
 11
7.064398141855452
 21
4.55029048543689
 31
0
  0
LINE
  8
0
 62
7
 10
4.374999999999999
 20
2.890000000000001
 30
0
 11
4.374999999999999
 21
3.010000000000001
 31
0
  0
LINE
  8
0
 62
7
 10
4.450599999999999
 20
3.010000000000001
 30
0
 11
4.3966
 21
2.950000000000001
 31
0
  0
LINE
  8
0
 62
7
 10
4.3966
 20
2.950000000000001
 30
0
 11
4.450599999999999
 21
2.890000000000001
 31
0
  0
LINE
  8
0
 62
7
 10
4.3966
 20
2.950000000000001
 30
0
 11
4.374999999999999
 21
2.926000000000001
 31
0
  0
LINE
  8
0
 62
7
 10
4.483
 20
3.010000000000001
 30
0
 11
4.483
 21
2.950000000000001
 31
0
  0
LINE
  8
0
 62
7
 10
4.483
 20
2.950000000000001
 30
0
 11
4.558600000000001
 21
2.950000000000001
 31
0
  0
LINE
  8
0
 62
7
 10
4.558600000000001
 20
3.010000000000001
 30
0
 11
4.558600000000001
 21
2.950000000000001
 31
0
  0
LINE
  8
0
 62
7
 10
4.558600000000001
 20
2.950000000000001
 30
0
 11
4.558600000000001
 21
2.890000000000001
 31
0
  0
LINE
  8
0
 62
7
 10
4.483
 20
2.950000000000001
 30
0
 11
4.483
 21
2.890000000000001
 31
0
  0
LINE
  8
0
 62
7
 10
4.590999999999999
 20
3.010000000000001
 30
0
 11
4.620699999999998
 21
2.890000000000001
 31
0
  0
LINE
  8
0
 62
7
 10
4.620699999999998
 20
2.890000000000001
 30
0
 11
4.644999999999999
 21
3.010000000000001
 31
0
  0
LINE
  8
0
 62
7
 10
4.644999999999999
 20
3.010000000000001
 30
0
 11
4.669299999999999
 21
2.890000000000001
 31
0
  0
LINE
  8
0
 62
7
 10
4.669299999999999
 20
2.890000000000001
 30
0
 11
4.699
 21
3.010000000000001
 31
0
  0
LINE
  8
0
 62
7
 10
4.720599999999999
 20
2.992000000000001
 30
0
 11
4.725999999999999
 21
3.001000000000001
 31
0
  0
LINE
  8
0
 62
7
 10
4.725999999999999
 20
3.001000000000001
 30
0
 11
4.734100000000001
 21
3.007000000000001
 31
0
  0
LINE
  8
0
 62
7
 10
4.734100000000001
 20
3.007000000000001
 30
0
 11
4.7449
 21
3.010000000000001
 31
0
  0
LINE
  8
0
 62
7
 10
4.7449
 20
3.010000000000001
 30
0
 11
4.761100000000001
 21
3.010000000000001
 31
0
  0
LINE
  8
0
 62
7
 10
4.761100000000001
 20
3.010000000000001
 30
0
 11
4.7719
 21
3.007000000000001
 31
0
  0
LINE
  8
0
 62
7
 10
4.7719
 20
3.007000000000001
 30
0
 11
4.779999999999999
 21
3.001000000000001
 31
0
  0
LINE
  8
0
 62
7
 10
4.779999999999999
 20
3.001000000000001
 30
0
 11
4.785400000000001
 21
2.992000000000001
 31
0
  0
LINE
  8
0
 62
7
 10
4.785400000000001
 20
2.992000000000001
 30
0
 11
4.785400000000001
 21
2.980000000000001
 31
0
  0
LINE
  8
0
 62
7
 10
4.785400000000001
 20
2.980000000000001
 30
0
 11
4.779999999999999
 21
2.968000000000002
 31
0
  0
LINE
  8
0
 62
7
 10
4.779999999999999
 20
2.968000000000002
 30
0
 11
4.720599999999999
 21
2.890000000000001
 31
0
  0
LINE
  8
0
 62
7
 10
4.720599999999999
 20
2.890000000000001
 30
0
 11
4.785400000000001
 21
2.890000000000001
 31
0
  0
LINE
  8
0
 62
7
 10
4.8178
 20
2.992000000000001
 30
0
 11
4.8232
 21
3.001000000000001
 31
0
  0
LINE
  8
0
 62
7
 10
4.8232
 20
3.001000000000001
 30
0
 11
4.8313
 21
3.007000000000001
 31
0
  0
LINE
  8
0
 62
7
 10
4.8313
 20
3.007000000000001
 30
0
 11
4.842099999999999
 21
3.010000000000001
 31
0
  0
LINE
  8
0
 62
7
 10
4.842099999999999
 20
3.010000000000001
 30
0
 11
4.8583
 21
3.010000000000001
 31
0
  0
LINE
  8
0
 62
7
 10
4.8583
 20
3.010000000000001
 30
0
 11
4.8691
 21
3.007000000000001
 31
0
  0
LINE
  8
0
 62
7
 10
4.8691
 20
3.007000000000001
 30
0
 11
4.877199999999999
 21
3.001000000000001
 31
0
  0
LINE
  8
0
 62
7
 10
4.877199999999999
 20
3.001000000000001
 30
0
 11
4.882600000000001
 21
2.992000000000001
 31
0
  0
LINE
  8
0
 62
7
 10
4.882600000000001
 20
2.992000000000001
 30
0
 11
4.882600000000001
 21
2.980000000000001
 31
0
  0
LINE
  8
0
 62
7
 10
4.882600000000001
 20
2.980000000000001
 30
0
 11
4.877199999999999
 21
2.968000000000002
 31
0
  0
LINE
  8
0
 62
7
 10
4.877199999999999
 20
2.968000000000002
 30
0
 11
4.8178
 21
2.890000000000001
 31
0
  0
LINE
  8
0
 62
7
 10
4.8178
 20
2.890000000000001
 30
0
 11
4.882600000000001
 21
2.890000000000001
 31
0
  0
LINE
  8
0
 62
7
 10
4.914999999999999
 20
2.938000000000001
 30
0
 11
4.9177
 21
2.950000000000001
 31
0
  0
LINE
  8
0
 62
7
 10
4.9177
 20
2.950000000000001
 30
0
 11
4.923099999999999
 21
2.959000000000001
 31
0
  0
LINE
  8
0
 62
7
 10
4.923099999999999
 20
2.959000000000001
 30
0
 11
4.9312
 21
2.965000000000001
 31
0
  0
LINE
  8
0
 62
7
 10
4.9312
 20
2.965000000000001
 30
0
 11
4.939299999999999
 21
2.968000000000002
 31
0
  0
LINE
  8
0
 62
7
 10
4.939299999999999
 20
2.968000000000002
 30
0
 11
4.955500000000001
 21
2.968000000000002
 31
0
  0
LINE
  8
0
 62
7
 10
4.955500000000001
 20
2.968000000000002
 30
0
 11
4.9636
 21
2.965000000000001
 31
0
  0
LINE
  8
0
 62
7
 10
4.9636
 20
2.965000000000001
 30
0
 11
4.971699999999999
 21
2.959000000000001
 31
0
  0
LINE
  8
0
 62
7
 10
4.971699999999999
 20
2.959000000000001
 30
0
 11
4.9771
 21
2.950000000000001
 31
0
  0
LINE
  8
0
 62
7
 10
4.9771
 20
2.950000000000001
 30
0
 11
4.979800000000001
 21
2.938000000000001
 31
0
  0
LINE
  8
0
 62
7
 10
4.979800000000001
 20
2.938000000000001
 30
0
 11
4.979800000000001
 21
2.920000000000001
 31
0
  0
LINE
  8
0
 62
7
 10
4.979800000000001
 20
2.920000000000001
 30
0
 11
4.9771
 21
2.908000000000001
 31
0
  0
LINE
  8
0
 62
7
 10
4.9771
 20
2.908000000000001
 30
0
 11
4.971699999999999
 21
2.899000000000001
 31
0
  0
LINE
  8
0
 62
7
 10
4.971699999999999
 20
2.899000000000001
 30
0
 11
4.9636
 21
2.893000000000002
 31
0
  0
LINE
  8
0
 62
7
 10
4.9636
 20
2.893000000000002
 30
0
 11
4.955500000000001
 21
2.890000000000001
 31
0
  0
LINE
  8
0
 62
7
 10
4.955500000000001
 20
2.890000000000001
 30
0
 11
4.939299999999999
 21
2.890000000000001
 31
0
  0
LINE
  8
0
 62
7
 10
4.939299999999999
 20
2.890000000000001
 30
0
 11
4.9312
 21
2.893000000000002
 31
0
  0
LINE
  8
0
 62
7
 10
4.9312
 20
2.893000000000002
 30
0
 11
4.923099999999999
 21
2.899000000000001
 31
0
  0
LINE
  8
0
 62
7
 10
4.923099999999999
 20
2.899000000000001
 30
0
 11
4.9177
 21
2.908000000000001
 31
0
  0
LINE
  8
0
 62
7
 10
4.9177
 20
2.908000000000001
 30
0
 11
4.914999999999999
 21
2.920000000000001
 31
0
  0
LINE
  8
0
 62
7
 10
4.914999999999999
 20
2.920000000000001
 30
0
 11
4.914999999999999
 21
2.938000000000001
 31
0
  0
LINE
  8
0
 62
7
 10
4.914999999999999
 20
2.980000000000001
 30
0
 11
4.9177
 21
2.992000000000001
 31
0
  0
LINE
  8
0
 62
7
 10
4.9177
 20
2.992000000000001
 30
0
 11
4.923099999999999
 21
3.001000000000001
 31
0
  0
LINE
  8
0
 62
7
 10
4.923099999999999
 20
3.001000000000001
 30
0
 11
4.9312
 21
3.007000000000001
 31
0
  0
LINE
  8
0
 62
7
 10
4.9312
 20
3.007000000000001
 30
0
 11
4.939299999999999
 21
3.010000000000001
 31
0
  0
LINE
  8
0
 62
7
 10
4.939299999999999
 20
3.010000000000001
 30
0
 11
4.955500000000001
 21
3.010000000000001
 31
0
  0
LINE
  8
0
 62
7
 10
4.955500000000001
 20
3.010000000000001
 30
0
 11
4.9636
 21
3.007000000000001
 31
0
  0
LINE
  8
0
 62
7
 10
4.9636
 20
3.007000000000001
 30
0
 11
4.971699999999999
 21
3.001000000000001
 31
0
  0
LINE
  8
0
 62
7
 10
4.971699999999999
 20
3.001000000000001
 30
0
 11
4.9771
 21
2.992000000000001
 31
0
  0
LINE
  8
0
 62
7
 10
4.914999999999999
 20
2.938000000000001
 30
0
 11
4.914999999999999
 21
2.980000000000001
 31
0
  0
LINE
  8
0
 62
7
 10
5.0122
 20
2.890000000000001
 30
0
 11
5.0122
 21
3.010000000000001
 31
0
  0
LINE
  8
0
 62
7
 10
5.0122
 20
3.010000000000001
 30
0
 11
5.063499999999999
 21
3.010000000000001
 31
0
  0
LINE
  8
0
 62
7
 10
5.063499999999999
 20
3.010000000000001
 30
0
 11
5.0743
 21
3.007000000000001
 31
0
  0
LINE
  8
0
 62
7
 10
5.0743
 20
3.007000000000001
 30
0
 11
5.0824
 21
3.001000000000001
 31
0
  0
LINE
  8
0
 62
7
 10
5.0824
 20
3.001000000000001
 30
0
 11
5.085099999999999
 21
2.995000000000001
 31
0
  0
LINE
  8
0
 62
7
 10
5.085099999999999
 20
2.995000000000001
 30
0
 11
5.0878
 21
2.986000000000001
 31
0
  0
LINE
  8
0
 62
7
 10
5.0878
 20
2.986000000000001
 30
0
 11
5.0878
 21
2.974000000000001
 31
0
  0
LINE
  8
0
 62
7
 10
5.0878
 20
2.974000000000001
 30
0
 11
5.085099999999999
 21
2.965000000000001
 31
0
  0
LINE
  8
0
 62
7
 10
5.085099999999999
 20
2.965000000000001
 30
0
 11
5.0824
 21
2.959000000000001
 31
0
  0
LINE
  8
0
 62
7
 10
5.0824
 20
2.959000000000001
 30
0
 11
5.0743
 21
2.953000000000002
 31
0
  0
LINE
  8
0
 62
7
 10
5.0743
 20
2.953000000000002
 30
0
 11
5.063499999999999
 21
2.950000000000001
 31
0
  0
LINE
  8
0
 62
7
 10
5.063499999999999
 20
2.950000000000001
 30
0
 11
5.055399999999999
 21
2.950000000000001
 31
0
  0
LINE
  8
0
 62
7
 10
5.055399999999999
 20
2.950000000000001
 30
0
 11
5.0878
 21
2.890000000000001
 31
0
  0
LINE
  8
0
 62
7
 10
5.055399999999999
 20
2.950000000000001
 30
0
 11
5.0122
 21
2.950000000000001
 31
0
  0
LINE
  8
0
 62
7
 10
5.1094
 20
2.992000000000001
 30
0
 11
5.114800000000001
 21
3.001000000000001
 31
0
  0
LINE
  8
0
 62
7
 10
5.114800000000001
 20
3.001000000000001
 30
0
 11
5.1229
 21
3.007000000000001
 31
0
  0
LINE
  8
0
 62
7
 10
5.1229
 20
3.007000000000001
 30
0
 11
5.1337
 21
3.010000000000001
 31
0
  0
LINE
  8
0
 62
7
 10
5.1337
 20
3.010000000000001
 30
0
 11
5.1499
 21
3.010000000000001
 31
0
  0
LINE
  8
0
 62
7
 10
5.1499
 20
3.010000000000001
 30
0
 11
5.158000000000001
 21
3.007000000000001
 31
0
  0
LINE
  8
0
 62
7
 10
5.158000000000001
 20
3.007000000000001
 30
0
 11
5.1661
 21
3.001000000000001
 31
0
  0
LINE
  8
0
 62
7
 10
5.1661
 20
3.001000000000001
 30
0
 11
5.171500000000001
 21
2.992000000000001
 31
0
  0
LINE
  8
0
 62
7
 10
5.171500000000001
 20
2.992000000000001
 30
0
 11
5.1742
 21
2.980000000000001
 31
0
  0
LINE
  8
0
 62
7
 10
5.1742
 20
2.980000000000001
 30
0
 11
5.1742
 21
2.971000000000001
 31
0
  0
LINE
  8
0
 62
7
 10
5.1742
 20
2.971000000000001
 30
0
 11
5.171500000000001
 21
2.962000000000001
 31
0
  0
LINE
  8
0
 62
7
 10
5.171500000000001
 20
2.962000000000001
 30
0
 11
5.1661
 21
2.956000000000001
 31
0
  0
LINE
  8
0
 62
7
 10
5.1661
 20
2.956000000000001
 30
0
 11
5.152600000000001
 21
2.950000000000001
 31
0
  0
LINE
  8
0
 62
7
 10
5.1337
 20
2.950000000000001
 30
0
 11
5.152600000000001
 21
2.950000000000001
 31
0
  0
LINE
  8
0
 62
7
 10
5.152600000000001
 20
2.950000000000001
 30
0
 11
5.1661
 21
2.944000000000001
 31
0
  0
LINE
  8
0
 62
7
 10
5.1661
 20
2.944000000000001
 30
0
 11
5.171500000000001
 21
2.938000000000001
 31
0
  0
LINE
  8
0
 62
7
 10
5.171500000000001
 20
2.938000000000001
 30
0
 11
5.1742
 21
2.929000000000001
 31
0
  0
LINE
  8
0
 62
7
 10
5.1742
 20
2.929000000000001
 30
0
 11
5.1742
 21
2.920000000000001
 31
0
  0
LINE
  8
0
 62
7
 10
5.1742
 20
2.920000000000001
 30
0
 11
5.171500000000001
 21
2.908000000000001
 31
0
  0
LINE
  8
0
 62
7
 10
5.171500000000001
 20
2.908000000000001
 30
0
 11
5.1661
 21
2.899000000000001
 31
0
  0
LINE
  8
0
 62
7
 10
5.1661
 20
2.899000000000001
 30
0
 11
5.158000000000001
 21
2.893000000000002
 31
0
  0
LINE
  8
0
 62
7
 10
5.158000000000001
 20
2.893000000000002
 30
0
 11
5.1499
 21
2.890000000000001
 31
0
  0
LINE
  8
0
 62
7
 10
5.1499
 20
2.890000000000001
 30
0
 11
5.1337
 21
2.890000000000001
 31
0
  0
LINE
  8
0
 62
7
 10
5.1337
 20
2.890000000000001
 30
0
 11
5.1229
 21
2.893000000000002
 31
0
  0
LINE
  8
0
 62
7
 10
5.1229
 20
2.893000000000002
 30
0
 11
5.114800000000001
 21
2.899000000000001
 31
0
  0
LINE
  8
0
 62
7
 10
5.114800000000001
 20
2.899000000000001
 30
0
 11
5.1094
 21
2.908000000000001
 31
0
  0
LINE
  8
0
 62
7
 10
6.875
 20
2.890000000000001
 30
0
 11
6.875
 21
2.990000000000001
 31
0
  0
LINE
  8
0
 62
7
 10
6.875
 20
2.990000000000001
 30
0
 11
6.938
 21
2.890000000000001
 31
0
  0
LINE
  8
0
 62
7
 10
6.938
 20
2.890000000000001
 30
0
 11
6.938
 21
2.990000000000001
 31
0
  0
LINE
  8
0
 62
7
 10
7.019
 20
2.890000000000001
 30
0
 11
6.965000000000001
 21
2.890000000000001
 31
0
  0
LINE
  8
0
 62
7
 10
6.965000000000001
 20
2.890000000000001
 30
0
 11
6.965000000000001
 21
2.990000000000001
 31
0
  0
LINE
  8
0
 62
7
 10
7.045999999999999
 20
2.940000000000001
 30
0
 11
7.082
 21
2.940000000000001
 31
0
  0
LINE
  8
0
 62
7
 10
7.082
 20
2.940000000000001
 30
0
 11
7.0865
 21
2.940000000000001
 31
0
  0
LINE
  8
0
 62
7
 10
7.0865
 20
2.940000000000001
 30
0
 11
7.0955
 21
2.935000000000001
 31
0
  0
LINE
  8
0
 62
7
 10
7.0955
 20
2.935000000000001
 30
0
 11
7.100000000000001
 21
2.930000000000001
 31
0
  0
LINE
  8
0
 62
7
 10
7.100000000000001
 20
2.930000000000001
 30
0
 11
7.104499999999999
 21
2.920000000000001
 31
0
  0
LINE
  8
0
 62
7
 10
7.104499999999999
 20
2.920000000000001
 30
0
 11
7.104499999999999
 21
2.910000000000001
 31
0
  0
LINE
  8
0
 62
7
 10
7.104499999999999
 20
2.910000000000001
 30
0
 11
7.100000000000001
 21
2.900000000000001
 31
0
  0
LINE
  8
0
 62
7
 10
7.100000000000001
 20
2.900000000000001
 30
0
 11
7.0955
 21
2.895000000000001
 31
0
  0
LINE
  8
0
 62
7
 10
7.0955
 20
2.895000000000001
 30
0
 11
7.0865
 21
2.890000000000001
 31
0
  0
LINE
  8
0
 62
7
 10
7.0865
 20
2.890000000000001
 30
0
 11
7.045999999999999
 21
2.890000000000001
 31
0
  0
LINE
  8
0
 62
7
 10
7.045999999999999
 20
2.890000000000001
 30
0
 11
7.045999999999999
 21
2.940000000000001
 31
0
  0
LINE
  8
0
 62
7
 10
7.045999999999999
 20
2.990000000000001
 30
0
 11
7.079750000000001
 21
2.990000000000001
 31
0
  0
LINE
  8
0
 62
7
 10
7.079750000000001
 20
2.990000000000001
 30
0
 11
7.091
 21
2.987500000000001
 31
0
  0
LINE
  8
0
 62
7
 10
7.091
 20
2.987500000000001
 30
0
 11
7.097750000000001
 21
2.980000000000001
 31
0
  0
LINE
  8
0
 62
7
 10
7.097750000000001
 20
2.980000000000001
 30
0
 11
7.100000000000001
 21
2.970000000000001
 31
0
  0
LINE
  8
0
 62
7
 10
7.100000000000001
 20
2.970000000000001
 30
0
 11
7.100000000000001
 21
2.960000000000001
 31
0
  0
LINE
  8
0
 62
7
 10
7.100000000000001
 20
2.960000000000001
 30
0
 11
7.0955
 21
2.950000000000001
 31
0
  0
LINE
  8
0
 62
7
 10
7.0955
 20
2.950000000000001
 30
0
 11
7.088750000000001
 21
2.942500000000001
 31
0
  0
LINE
  8
0
 62
7
 10
7.088750000000001
 20
2.942500000000001
 30
0
 11
7.082
 21
2.940000000000001
 31
0
  0
LINE
  8
0
 62
7
 10
7.045999999999999
 20
2.940000000000001
 30
0
 11
7.045999999999999
 21
2.990000000000001
 31
0
  0
LINE
  8
0
 62
7
 10
7.246250000000001
 20
2.942500000000001
 30
0
 11
7.2395
 21
2.952500000000001
 31
0
  0
LINE
  8
0
 62
7
 10
7.2395
 20
2.952500000000001
 30
0
 11
7.23275
 21
2.957500000000001
 31
0
  0
LINE
  8
0
 62
7
 10
7.23275
 20
2.957500000000001
 30
0
 11
7.225999999999999
 21
2.960000000000001
 31
0
  0
LINE
  8
0
 62
7
 10
7.225999999999999
 20
2.960000000000001
 30
0
 11
7.216999999999999
 21
2.960000000000001
 31
0
  0
LINE
  8
0
 62
7
 10
7.216999999999999
 20
2.960000000000001
 30
0
 11
7.210250000000001
 21
2.957500000000001
 31
0
  0
LINE
  8
0
 62
7
 10
7.210250000000001
 20
2.957500000000001
 30
0
 11
7.2035
 21
2.952500000000001
 31
0
  0
LINE
  8
0
 62
7
 10
7.2035
 20
2.952500000000001
 30
0
 11
7.196750000000001
 21
2.942500000000001
 31
0
  0
LINE
  8
0
 62
7
 10
7.196750000000001
 20
2.942500000000001
 30
0
 11
7.1945
 21
2.935000000000001
 31
0
  0
LINE
  8
0
 62
7
 10
7.1945
 20
2.935000000000001
 30
0
 11
7.1945
 21
2.915000000000001
 31
0
  0
LINE
  8
0
 62
7
 10
7.1945
 20
2.915000000000001
 30
0
 11
7.196750000000001
 21
2.907500000000001
 31
0
  0
LINE
  8
0
 62
7
 10
7.196750000000001
 20
2.907500000000001
 30
0
 11
7.2035
 21
2.897500000000001
 31
0
  0
LINE
  8
0
 62
7
 10
7.2035
 20
2.897500000000001
 30
0
 11
7.210250000000001
 21
2.892500000000001
 31
0
  0
LINE
  8
0
 62
7
 10
7.210250000000001
 20
2.892500000000001
 30
0
 11
7.216999999999999
 21
2.890000000000001
 31
0
  0
LINE
  8
0
 62
7
 10
7.216999999999999
 20
2.890000000000001
 30
0
 11
7.225999999999999
 21
2.890000000000001
 31
0
  0
LINE
  8
0
 62
7
 10
7.225999999999999
 20
2.890000000000001
 30
0
 11
7.23275
 21
2.892500000000001
 31
0
  0
LINE
  8
0
 62
7
 10
7.23275
 20
2.892500000000001
 30
0
 11
7.2395
 21
2.897500000000001
 31
0
  0
LINE
  8
0
 62
7
 10
7.2395
 20
2.897500000000001
 30
0
 11
7.246250000000001
 21
2.907500000000001
 31
0
  0
LINE
  8
0
 62
7
 10
7.318249999999999
 20
2.935000000000001
 30
0
 11
7.316
 21
2.942500000000001
 31
0
  0
LINE
  8
0
 62
7
 10
7.316
 20
2.942500000000001
 30
0
 11
7.30925
 21
2.952500000000001
 31
0
  0
LINE
  8
0
 62
7
 10
7.30925
 20
2.952500000000001
 30
0
 11
7.302500000000001
 21
2.957500000000001
 31
0
  0
LINE
  8
0
 62
7
 10
7.302500000000001
 20
2.957500000000001
 30
0
 11
7.29575
 21
2.960000000000001
 31
0
  0
LINE
  8
0
 62
7
 10
7.29575
 20
2.960000000000001
 30
0
 11
7.286750000000001
 21
2.960000000000001
 31
0
  0
LINE
  8
0
 62
7
 10
7.286750000000001
 20
2.960000000000001
 30
0
 11
7.28
 21
2.957500000000001
 31
0
  0
LINE
  8
0
 62
7
 10
7.28
 20
2.957500000000001
 30
0
 11
7.273249999999999
 21
2.952500000000001
 31
0
  0
LINE
  8
0
 62
7
 10
7.273249999999999
 20
2.952500000000001
 30
0
 11
7.266500000000001
 21
2.942500000000001
 31
0
  0
LINE
  8
0
 62
7
 10
7.266500000000001
 20
2.942500000000001
 30
0
 11
7.264250000000001
 21
2.935000000000001
 31
0
  0
LINE
  8
0
 62
7
 10
7.264250000000001
 20
2.935000000000001
 30
0
 11
7.264250000000001
 21
2.915000000000001
 31
0
  0
LINE
  8
0
 62
7
 10
7.264250000000001
 20
2.915000000000001
 30
0
 11
7.266500000000001
 21
2.907500000000001
 31
0
  0
LINE
  8
0
 62
7
 10
7.266500000000001
 20
2.907500000000001
 30
0
 11
7.273249999999999
 21
2.897500000000001
 31
0
  0
LINE
  8
0
 62
7
 10
7.273249999999999
 20
2.897500000000001
 30
0
 11
7.28
 21
2.892500000000001
 31
0
  0
LINE
  8
0
 62
7
 10
7.28
 20
2.892500000000001
 30
0
 11
7.286750000000001
 21
2.890000000000001
 31
0
  0
LINE
  8
0
 62
7
 10
7.286750000000001
 20
2.890000000000001
 30
0
 11
7.29575
 21
2.890000000000001
 31
0
  0
LINE
  8
0
 62
7
 10
7.29575
 20
2.890000000000001
 30
0
 11
7.302500000000001
 21
2.892500000000001
 31
0
  0
LINE
  8
0
 62
7
 10
7.302500000000001
 20
2.892500000000001
 30
0
 11
7.30925
 21
2.897500000000001
 31
0
  0
LINE
  8
0
 62
7
 10
7.30925
 20
2.897500000000001
 30
0
 11
7.316
 21
2.907500000000001
 31
0
  0
LINE
  8
0
 62
7
 10
7.316
 20
2.907500000000001
 30
0
 11
7.318249999999999
 21
2.915000000000001
 31
0
  0
LINE
  8
0
 62
7
 10
7.318249999999999
 20
2.960000000000001
 30
0
 11
7.318249999999999
 21
2.935000000000001
 31
0
  0
LINE
  8
0
 62
7
 10
7.318249999999999
 20
2.892500000000001
 30
0
 11
7.3205
 21
2.890000000000001
 31
0
  0
LINE
  8
0
 62
7
 10
7.3205
 20
2.890000000000001
 30
0
 11
7.322750000000001
 21
2.890000000000001
 31
0
  0
LINE
  8
0
 62
7
 10
7.318249999999999
 20
2.915000000000001
 30
0
 11
7.318249999999999
 21
2.892500000000001
 31
0
  0
LINE
  8
0
 62
7
 10
7.318249999999999
 20
2.935000000000001
 30
0
 11
7.318249999999999
 21
2.915000000000001
 31
0
  0
LINE
  8
0
 62
7
 10
7.34075
 20
2.890000000000001
 30
0
 11
7.34075
 21
2.892500000000001
 31
0
  0
LINE
  8
0
 62
7
 10
7.34075
 20
2.892500000000001
 30
0
 11
7.343000000000001
 21
2.892500000000001
 31
0
  0
LINE
  8
0
 62
7
 10
7.343000000000001
 20
2.892500000000001
 30
0
 11
7.343000000000001
 21
2.890000000000001
 31
0
  0
LINE
  8
0
 62
7
 10
7.343000000000001
 20
2.890000000000001
 30
0
 11
7.34075
 21
2.890000000000001
 31
0
  0
LINE
  8
0
 62
7
 10
7.466750000000001
 20
2.990000000000001
 30
0
 11
7.47575
 21
2.990000000000001
 31
0
  0
LINE
  8
0
 62
7
 10
7.47575
 20
2.990000000000001
 30
0
 11
7.482500000000001
 21
2.987500000000001
 31
0
  0
LINE
  8
0
 62
7
 10
7.482500000000001
 20
2.987500000000001
 30
0
 11
7.486999999999999
 21
2.982500000000001
 31
0
  0
LINE
  8
0
 62
7
 10
7.486999999999999
 20
2.982500000000001
 30
0
 11
7.491500000000001
 21
2.975000000000001
 31
0
  0
LINE
  8
0
 62
7
 10
7.491500000000001
 20
2.975000000000001
 30
0
 11
7.491500000000001
 21
2.965000000000001
 31
0
  0
LINE
  8
0
 62
7
 10
7.491500000000001
 20
2.965000000000001
 30
0
 11
7.48925
 21
2.960000000000001
 31
0
  0
LINE
  8
0
 62
7
 10
7.48925
 20
2.960000000000001
 30
0
 11
7.482500000000001
 21
2.952500000000001
 31
0
  0
LINE
  8
0
 62
7
 10
7.482500000000001
 20
2.952500000000001
 30
0
 11
7.47575
 21
2.950000000000001
 31
0
  0
LINE
  8
0
 62
7
 10
7.47575
 20
2.950000000000001
 30
0
 11
7.466750000000001
 21
2.950000000000001
 31
0
  0
LINE
  8
0
 62
7
 10
7.466750000000001
 20
2.950000000000001
 30
0
 11
7.460000000000001
 21
2.952500000000001
 31
0
  0
LINE
  8
0
 62
7
 10
7.460000000000001
 20
2.952500000000001
 30
0
 11
7.453250000000001
 21
2.960000000000001
 31
0
  0
LINE
  8
0
 62
7
 10
7.453250000000001
 20
2.960000000000001
 30
0
 11
7.451
 21
2.965000000000001
 31
0
  0
LINE
  8
0
 62
7
 10
7.451
 20
2.965000000000001
 30
0
 11
7.451
 21
2.975000000000001
 31
0
  0
LINE
  8
0
 62
7
 10
7.451
 20
2.975000000000001
 30
0
 11
7.455500000000001
 21
2.982500000000001
 31
0
  0
LINE
  8
0
 62
7
 10
7.455500000000001
 20
2.982500000000001
 30
0
 11
7.460000000000001
 21
2.987500000000001
 31
0
  0
LINE
  8
0
 62
7
 10
7.460000000000001
 20
2.987500000000001
 30
0
 11
7.466750000000001
 21
2.990000000000001
 31
0
  0
LINE
  8
0
 62
7
 10
7.466750000000001
 20
2.950000000000001
 30
0
 11
7.455500000000001
 21
2.945000000000001
 31
0
  0
LINE
  8
0
 62
7
 10
7.455500000000001
 20
2.945000000000001
 30
0
 11
7.44875
 21
2.937500000000001
 31
0
  0
LINE
  8
0
 62
7
 10
7.44875
 20
2.937500000000001
 30
0
 11
7.44425
 21
2.927500000000001
 31
0
  0
LINE
  8
0
 62
7
 10
7.44425
 20
2.927500000000001
 30
0
 11
7.44425
 21
2.912500000000001
 31
0
  0
LINE
  8
0
 62
7
 10
7.44425
 20
2.912500000000001
 30
0
 11
7.44875
 21
2.902500000000001
 31
0
  0
LINE
  8
0
 62
7
 10
7.44875
 20
2.902500000000001
 30
0
 11
7.455500000000001
 21
2.895000000000001
 31
0
  0
LINE
  8
0
 62
7
 10
7.455500000000001
 20
2.895000000000001
 30
0
 11
7.4645
 21
2.890000000000001
 31
0
  0
LINE
  8
0
 62
7
 10
7.4645
 20
2.890000000000001
 30
0
 11
7.478000000000001
 21
2.890000000000001
 31
0
  0
LINE
  8
0
 62
7
 10
7.478000000000001
 20
2.890000000000001
 30
0
 11
7.486999999999999
 21
2.895000000000001
 31
0
  0
LINE
  8
0
 62
7
 10
7.486999999999999
 20
2.895000000000001
 30
0
 11
7.49375
 21
2.902500000000001
 31
0
  0
LINE
  8
0
 62
7
 10
7.49375
 20
2.902500000000001
 30
0
 11
7.498249999999999
 21
2.912500000000001
 31
0
  0
LINE
  8
0
 62
7
 10
7.498249999999999
 20
2.912500000000001
 30
0
 11
7.498249999999999
 21
2.927500000000001
 31
0
  0
LINE
  8
0
 62
7
 10
7.498249999999999
 20
2.927500000000001
 30
0
 11
7.49375
 21
2.937500000000001
 31
0
  0
LINE
  8
0
 62
7
 10
7.49375
 20
2.937500000000001
 30
0
 11
7.486999999999999
 21
2.945000000000001
 31
0
  0
LINE
  8
0
 62
7
 10
7.486999999999999
 20
2.945000000000001
 30
0
 11
7.47575
 21
2.950000000000001
 31
0
  0
LINE
  8
0
 62
7
 10
7.583750000000001
 20
2.990000000000001
 30
0
 11
7.53425
 21
2.990000000000001
 31
0
  0
LINE
  8
0
 62
7
 10
7.53425
 20
2.990000000000001
 30
0
 11
7.53425
 21
2.940000000000001
 31
0
  0
LINE
  8
0
 62
7
 10
7.53425
 20
2.940000000000001
 30
0
 11
7.53875
 21
2.947500000000001
 31
0
  0
LINE
  8
0
 62
7
 10
7.53875
 20
2.947500000000001
 30
0
 11
7.545500000000001
 21
2.952500000000001
 31
0
  0
LINE
  8
0
 62
7
 10
7.545500000000001
 20
2.952500000000001
 30
0
 11
7.554499999999999
 21
2.955000000000001
 31
0
  0
LINE
  8
0
 62
7
 10
7.554499999999999
 20
2.955000000000001
 30
0
 11
7.568000000000001
 21
2.955000000000001
 31
0
  0
LINE
  8
0
 62
7
 10
7.568000000000001
 20
2.955000000000001
 30
0
 11
7.574749999999999
 21
2.952500000000001
 31
0
  0
LINE
  8
0
 62
7
 10
7.574749999999999
 20
2.952500000000001
 30
0
 11
7.5815
 21
2.947500000000001
 31
0
  0
LINE
  8
0
 62
7
 10
7.5815
 20
2.947500000000001
 30
0
 11
7.586
 21
2.940000000000001
 31
0
  0
LINE
  8
0
 62
7
 10
7.586
 20
2.940000000000001
 30
0
 11
7.588249999999999
 21
2.930000000000001
 31
0
  0
LINE
  8
0
 62
7
 10
7.588249999999999
 20
2.930000000000001
 30
0
 11
7.588249999999999
 21
2.915000000000001
 31
0
  0
LINE
  8
0
 62
7
 10
7.588249999999999
 20
2.915000000000001
 30
0
 11
7.586
 21
2.905000000000001
 31
0
  0
LINE
  8
0
 62
7
 10
7.586
 20
2.905000000000001
 30
0
 11
7.5815
 21
2.897500000000001
 31
0
  0
LINE
  8
0
 62
7
 10
7.5815
 20
2.897500000000001
 30
0
 11
7.574749999999999
 21
2.892500000000001
 31
0
  0
LINE
  8
0
 62
7
 10
7.574749999999999
 20
2.892500000000001
 30
0
 11
7.568000000000001
 21
2.890000000000001
 31
0
  0
LINE
  8
0
 62
7
 10
7.568000000000001
 20
2.890000000000001
 30
0
 11
7.554499999999999
 21
2.890000000000001
 31
0
  0
LINE
  8
0
 62
7
 10
7.554499999999999
 20
2.890000000000001
 30
0
 11
7.545500000000001
 21
2.892500000000001
 31
0
  0
LINE
  8
0
 62
7
 10
7.545500000000001
 20
2.892500000000001
 30
0
 11
7.53875
 21
2.897500000000001
 31
0
  0
LINE
  8
0
 62
7
 10
7.53875
 20
2.897500000000001
 30
0
 11
7.53425
 21
2.905000000000001
 31
0
  0
LINE
  8
0
 62
7
 10
7.739000000000001
 20
2.942500000000001
 30
0
 11
7.73225
 21
2.952500000000001
 31
0
  0
LINE
  8
0
 62
7
 10
7.73225
 20
2.952500000000001
 30
0
 11
7.7255
 21
2.957500000000001
 31
0
  0
LINE
  8
0
 62
7
 10
7.7255
 20
2.957500000000001
 30
0
 11
7.71875
 21
2.960000000000001
 31
0
  0
LINE
  8
0
 62
7
 10
7.71875
 20
2.960000000000001
 30
0
 11
7.70975
 21
2.960000000000001
 31
0
  0
LINE
  8
0
 62
7
 10
7.70975
 20
2.960000000000001
 30
0
 11
7.703
 21
2.957500000000001
 31
0
  0
LINE
  8
0
 62
7
 10
7.703
 20
2.957500000000001
 30
0
 11
7.696250000000001
 21
2.952500000000001
 31
0
  0
LINE
  8
0
 62
7
 10
7.696250000000001
 20
2.952500000000001
 30
0
 11
7.6895
 21
2.942500000000001
 31
0
  0
LINE
  8
0
 62
7
 10
7.6895
 20
2.942500000000001
 30
0
 11
7.687249999999999
 21
2.935000000000001
 31
0
  0
LINE
  8
0
 62
7
 10
7.687249999999999
 20
2.935000000000001
 30
0
 11
7.687249999999999
 21
2.915000000000001
 31
0
  0
LINE
  8
0
 62
7
 10
7.687249999999999
 20
2.915000000000001
 30
0
 11
7.6895
 21
2.907500000000001
 31
0
  0
LINE
  8
0
 62
7
 10
7.6895
 20
2.907500000000001
 30
0
 11
7.696250000000001
 21
2.897500000000001
 31
0
  0
LINE
  8
0
 62
7
 10
7.696250000000001
 20
2.897500000000001
 30
0
 11
7.703
 21
2.892500000000001
 31
0
  0
LINE
  8
0
 62
7
 10
7.703
 20
2.892500000000001
 30
0
 11
7.70975
 21
2.890000000000001
 31
0
  0
LINE
  8
0
 62
7
 10
7.70975
 20
2.890000000000001
 30
0
 11
7.71875
 21
2.890000000000001
 31
0
  0
LINE
  8
0
 62
7
 10
7.71875
 20
2.890000000000001
 30
0
 11
7.7255
 21
2.892500000000001
 31
0
  0
LINE
  8
0
 62
7
 10
7.7255
 20
2.892500000000001
 30
0
 11
7.73225
 21
2.897500000000001
 31
0
  0
LINE
  8
0
 62
7
 10
7.73225
 20
2.897500000000001
 30
0
 11
7.739000000000001
 21
2.907500000000001
 31
0
  0
LINE
  8
0
 62
7
 10
7.797500000000001
 20
2.935000000000001
 30
0
 11
7.797500000000001
 21
2.890000000000001
 31
0
  0
LINE
  8
0
 62
7
 10
7.757
 20
2.960000000000001
 30
0
 11
7.757
 21
2.935000000000001
 31
0
  0
LINE
  8
0
 62
7
 10
7.757
 20
2.890000000000001
 30
0
 11
7.757
 21
2.935000000000001
 31
0
  0
LINE
  8
0
 62
7
 10
7.757
 20
2.935000000000001
 30
0
 11
7.759250000000001
 21
2.947500000000001
 31
0
  0
LINE
  8
0
 62
7
 10
7.759250000000001
 20
2.947500000000001
 30
0
 11
7.7615
 21
2.952500000000001
 31
0
  0
LINE
  8
0
 62
7
 10
7.7615
 20
2.952500000000001
 30
0
 11
7.766
 21
2.957500000000001
 31
0
  0
LINE
  8
0
 62
7
 10
7.766
 20
2.957500000000001
 30
0
 11
7.772750000000001
 21
2.960000000000001
 31
0
  0
LINE
  8
0
 62
7
 10
7.772750000000001
 20
2.960000000000001
 30
0
 11
7.78175
 21
2.960000000000001
 31
0
  0
LINE
  8
0
 62
7
 10
7.78175
 20
2.960000000000001
 30
0
 11
7.788499999999999
 21
2.957500000000001
 31
0
  0
LINE
  8
0
 62
7
 10
7.788499999999999
 20
2.957500000000001
 30
0
 11
7.793000000000001
 21
2.952500000000001
 31
0
  0
LINE
  8
0
 62
7
 10
7.793000000000001
 20
2.952500000000001
 30
0
 11
7.79525
 21
2.947500000000001
 31
0
  0
LINE
  8
0
 62
7
 10
7.79525
 20
2.947500000000001
 30
0
 11
7.797500000000001
 21
2.935000000000001
 31
0
  0
LINE
  8
0
 62
7
 10
7.797500000000001
 20
2.935000000000001
 30
0
 11
7.79975
 21
2.947500000000001
 31
0
  0
LINE
  8
0
 62
7
 10
7.79975
 20
2.947500000000001
 30
0
 11
7.802
 21
2.952500000000001
 31
0
  0
LINE
  8
0
 62
7
 10
7.802
 20
2.952500000000001
 30
0
 11
7.8065
 21
2.957500000000001
 31
0
  0
LINE
  8
0
 62
7
 10
7.8065
 20
2.957500000000001
 30
0
 11
7.81325
 21
2.960000000000001
 31
0
  0
LINE
  8
0
 62
7
 10
7.81325
 20
2.960000000000001
 30
0
 11
7.82225
 21
2.960000000000001
 31
0
  0
LINE
  8
0
 62
7
 10
7.82225
 20
2.960000000000001
 30
0
 11
7.829000000000001
 21
2.957500000000001
 31
0
  0
LINE
  8
0
 62
7
 10
7.8335
 20
2.952500000000001
 30
0
 11
7.829000000000001
 21
2.957500000000001
 31
0
  0
LINE
  8
0
 62
7
 10
7.829000000000001
 20
2.957500000000001
 30
0
 11
7.8335
 21
2.952500000000001
 31
0
  0
LINE
  8
0
 62
7
 10
7.8335
 20
2.952500000000001
 30
0
 11
7.835749999999999
 21
2.947500000000001
 31
0
  0
LINE
  8
0
 62
7
 10
7.835749999999999
 20
2.947500000000001
 30
0
 11
7.838
 21
2.935000000000001
 31
0
  0
LINE
  8
0
 62
7
 10
7.838
 20
2.935000000000001
 30
0
 11
7.838
 21
2.890000000000001
 31
0
  0
ARC
  8
0
 62
7
 10
6.12904838118938
 20
3.885951618810671
 30
0
 40
0.4930000000000071
 50
89.88940410557757
 51
180.1105958907406
  0
ARC
  8
0
 62
7
 10
6.460951618810668
 20
3.885951618810644
 30
0
 40
0.4929999999999979
 50
359.8894041055751
 51
90.11059589250219
  0
CIRCLE
  8
0
 62
7
 10
5.63604929962667
 20
3.250000000000001
 30
0
 40
0.05999999999999961
  0
DIMENSION
  8
0
  6
CONTINUOUS
 62
7
  2
*D0
  3
DMST_1
 10
8.010918741554519
 20
3.35
 30
0
 11
8.010918741554519
 21
4.09891194203146
 31
0
 12
0
 22
0
 32
0
 70
0
 13
7.599999999999999
 23
4.850000000000003
 33
0
 14
7.599999999999999
 24
3.35
 34
0
 50
90
 53
0
  0
DIMENSION
  8
0
  6
CONTINUOUS
 62
7
  2
*D1
  3
DMST_1
 10
7.424999999999999
 20
5.69685471838984
 30
0
 11
6.30402532135353
 21
5.69685471838984
 31
0
 12
0
 22
0
 32
0
 70
0
 13
5.164999999999999
 23
5.369999999999995
 33
0
 14
7.424999999999999
 24
5.369999999999995
 34
0
 53
0
  0
DIMENSION
  8
0
  6
CONTINUOUS
 62
7
  2
*D2
  3
DMST_1
 10
4.64555440952703
 20
4.850000000000001
 30
0
 11
4.64555440952703
 21
4.08680631493784
 31
0
 12
0
 22
0
 32
0
 70
0
 13
4.989999999999998
 23
3.25
 33
0
 14
4.989999999999998
 24
4.850000000000001
 34
0
 50
90
 53
0
  0
DIMENSION
  8
0
  6
CONTINUOUS
 62
7
  2
*D3
  3
DMST_2
 10
7.424999999999999
 20
11.5559782317039
 30
0
 11
6.30402532135353
 21
11.5559782317039
 31
0
 12
0
 22
0
 32
0
 70
0
 13
5.164999999999999
 23
11.2
 33
0
 14
7.424999999999999
 24
11.2
 34
0
 53
0
  0
INSERT
  8
0
  2
*D4
 10
0
 20
0
 30
0
  0
ENDSEC
  0
EOF
