  0
SECTION
  2
HEADER
  9
$ACADVER
  1
AC1009
  9
$INSBASE
 10
0
 20
0
  9
$EXTMIN
 10
0.45
 20
2.500000000000001
  9
$EXTMAX
 10
8.09648482682419
 20
11.6565478315058
  9
$LIMMIN
 10
0.45
 20
2.500000000000001
  9
$LIMMAX
 10
8.09648482682419
 20
11.6565478315058
  9
$VIEWCTR
 10
10
 20
10
  9
$VIEWSIZE
 40
10
  9
$SNAPMODE
 70
0
  9
$SNAPUNIT
 10
1
 20
1
  9
$SNAPBASE
 10
0
 20
0
  9
$SNAPANG
 50
0
  9
$SNAPSTYLE
 70
0
  9
$SNAPISOPAIR
 70
0
  9
$GRIDMODE
 70
0
  9
$GRIDUNIT
 10
0
 20
0
  9
$ORTHOMODE
 70
0
  9
$REGENMODE
 70
1
  9
$FILLMODE
 70
1
  9
$QTEXTMODE
 70
0
  9
$DRAGMODE
 70
2
  9
$LTSCALE
 40
1
  9
$OSMODE
 70
0
  9
$ATTMODE
 70
1
  9
$TEXTSIZE
 40
3.5
  9
$TRACEWID
 40
0.5
  9
$TEXTSTYLE
  7
STANDARD
  9
$CLAYER
  8
0
  9
$CELTYPE
  6
BYLAYER
  9
$CECOLOR
 62
256
  9
$DIMSCALE
 40
1
  9
$DIMASZ
 40
0.18
  9
$DIMEXO
 40
0.0625
  9
$DIMDLI
 40
0.38
  9
$DIMRND
 40
0
  9
$DIMDLE
 40
0
  9
$DIMEXE
 40
0.18
  9
$DIMTP
 40
0
  9
$DIMTM
 40
0
  9
$DIMTXT
 40
0.18
  9
$DIMCEN
 40
0.09
  9
$DIMTSZ
 40
0
  9
$DIMTOL
 70
0
  9
$DIMLIM
 70
0
  9
$DIMTIH
 70
1
  9
$DIMTOH
 70
1
  9
$DIMSE1
 70
0
  9
$DIMSE2
 70
0
  9
$DIMTAD
 70
0
  9
$DIMZIN
 70
0
  9
$DIMBLK
  1

  9
$DIMASO
 70
1
  9
$DIMSHO
 70
1
  9
$DIMPOST
  1

  9
$DIMAPOST
  1

  9
$DIMALT
 70
0
  9
$DIMALTD
 70
2
  9
$DIMALTF
 40
25.4
  9
$DIMLFAC
 40
1
  9
$DIMTOFL
 70
0
  9
$DIMTVP
 40
0
  9
$DIMTIX
 70
0
  9
$DIMSOXD
 70
0
  9
$DIMSAH
 70
0
  9
$DIMBLK1
  1

  9
$DIMBLK2
  1

  9
$DIMSTYLE
  2
*UNNAMED
  9
$DIMCLRD
 70
0
  9
$DIMCLRE
 70
0
  9
$DIMCLRT
 70
0
  9
$DIMTFAC
 40
1
  9
$DIMGAP
 40
0.09
  9
$LUNITS
 70
2
  9
$LUPREC
 70
4
  9
$AXISMODE
 70
0
  9
$AXISUNIT
 10
0
 20
0
  9
$SKETCHINC
 40
0.1
  9
$FILLETRAD
 40
2
  9
$AUNITS
 70
0
  9
$AUPREC
 70
0
  9
$MENU
  1
ACAD
  9
$ELEVATION
 40
0
  9
$THICKNESS
 40
0
  9
$VIEWDIR
 10
0
 20
0
 30
1
  9
$LIMCHECK
 70
0
  9
$BLIPMODE
 70
1
  9
$CHAMFERA
 40
0
  9
$CHAMFERB
 40
0
  9
$FASTZOOM
 70
1
  9
$SKPOLY
 70
0
  9
$ANGBASE
 50
0
  9
$ANGDIR
 70
0
  9
$PDMODE
 70
0
  9
$PDSIZE
 40
0
  9
$PLINEWID
 40
0
  9
$COORDS
 70
2
  0
ENDSEC
  0
SECTION
  2
TABLES
  0
TABLE
  2
DIMSTYLE
 70
1
  0
DIMSTYLE
  2
DMST_1
 70
0
  3

  4

  5

  6

  7

 40
1
 41
0.1
 42
0
 43
0.7
 44
0.2
 45
0
 46
0
 47
0
 48
0
140
0.1
141
0
142
0.1
143
25.4
144
1
145
0
146
1
147
0.25
 71
0
 72
0
 73
0
 74
0
 75
0
 76
0
 77
0
 78
9
170
0
171
2
172
0
173
0
174
0
175
0
176
7
177
7
178
7
  0
ENDTAB
  0
TABLE
  2
LTYPE
 70
9
  0
LTYPE
  2
CONTINUOUS
 70
64
  3
Solid line
 72
65
 73
0
 40
0
  0
LTYPE
  2
BORDER
 70
64
  3
__ __ . __ __ .
 72
65
 73
6
 40
0.4216831238193461
 49
0.1204808925198132
 49
-0.06024044625990659
 49
0.1204808925198132
 49
-0.06024044625990659
 49
0
 49
-0.06024044625990659
  0
LTYPE
  2
CENTER
 70
64
  3
____ _ ____ _
 72
65
 73
4
 40
0.4819235700792527
 49
0.3012022312995329
 49
-0.06024044625990659
 49
0.06024044625990659
 49
-0.06024044625990659
  0
LTYPE
  2
DASHDOT
 70
64
  3
__ . __ . __ .
 72
65
 73
4
 40
0.2409617850396263
 49
0.1204808925198132
 49
-0.06024044625990659
 49
0
 49
-0.06024044625990659
  0
LTYPE
  2
DASHED
 70
64
  3
__ __ __ __ __
 72
65
 73
2
 40
0.1807213387797197
 49
0.1204808925198132
 49
-0.06024044625990659
  0
LTYPE
  2
DIVIDE
 70
64
  3
__ . . __ . . 
 72
65
 73
6
 40
0.3012022312995329
 49
0.1204808925198132
 49
-0.06024044625990659
 49
0
 49
-0.06024044625990659
 49
0
 49
-0.06024044625990659
  0
LTYPE
  2
DOT
 70
64
  3
..............
 72
65
 73
4
 40
0.1204808925198132
 49
0
 49
-0.06024044625990659
 49
0
 49
-0.06024044625990659
  0
LTYPE
  2
HIDDEN
 70
64
  3
_ _ _ _ _ _ _
 72
65
 73
2
 40
0.09036066938985987
 49
0.06024044625990659
 49
-0.03012022312995329
  0
LTYPE
  2
PHANTOM
 70
64
  3
_____ _ _ _____ _ _ 
 72
65
 73
6
 40
0.6024044625990659
 49
0.3012022312995329
 49
-0.06024044625990659
 49
0.06024044625990659
 49
-0.06024044625990659
 49
0.06024044625990659
 49
-0.06024044625990659
  0
ENDTAB
  0
TABLE
  2
LAYER
 70
2
  0
LAYER
  2
0
 70
0
 62
7
  6
CONTINUOUS
  0
ENDTAB
  0
TABLE
  2
STYLE
 70
4
  0
STYLE
  2
STANDARD
 70
0
 40
0
 41
1
 50
0
 71
0
 42
3.5
  3
txt
  4

  0
STYLE
  2
SIMPLEX
 70
0
 40
0
 41
1
 50
0
 71
0
 42
3.5
  3
simplex
  4

  0
STYLE
  2
COMPLEX
 70
0
 40
0
 41
1
 50
0
 71
0
 42
3.5
  3
complex
  4

  0
STYLE
  2
ITALIC
 70
0
 40
0
 41
1
 50
0
 71
0
 42
3.5
  3
italic
  4

  0
ENDTAB
  0
TABLE
  2
VIEW
 70
0
  0
ENDTAB
  0
ENDSEC
  0
SECTION
  2
BLOCKS
  0
BLOCK
  8
0
  2
*X0
 70
1
 10
0
 20
0
 30
0
  0
LINE
  8
0
 62
7
 10
4.164999999999999
 20
4.589264068711927
 30
0
 11
4.265735931288082
 21
4.690000000000002
 31
0
  0
LINE
  8
0
 62
7
 10
4.237867965644044
 20
4.450000000000002
 30
0
 11
4.477867965644045
 21
4.690000000000002
 31
0
  0
LINE
  8
0
 62
7
 10
4.450000000000008
 20
4.450000000000002
 30
0
 11
4.690000000000009
 21
4.690000000000002
 31
0
  0
LINE
  8
0
 62
7
 10
4.662132034355972
 20
4.450000000000002
 30
0
 11
4.902132034355973
 21
4.690000000000002
 31
0
  0
LINE
  8
0
 62
7
 10
4.874264068711936
 20
4.450000000000002
 30
0
 11
5.114264068711937
 21
4.690000000000002
 31
0
  0
LINE
  8
0
 62
7
 10
5.0863961030679
 20
4.450000000000002
 30
0
 11
5.326396103067901
 21
4.690000000000002
 31
0
  0
LINE
  8
0
 62
7
 10
5.298528137423864
 20
4.450000000000002
 30
0
 11
5.538528137423865
 21
4.690000000000002
 31
0
  0
LINE
  8
0
 62
7
 10
5.510660171779827
 20
4.450000000000002
 30
0
 11
5.750660171779828
 21
4.690000000000002
 31
0
  0
LINE
  8
0
 62
7
 10
5.722792206135791
 20
4.450000000000002
 30
0
 11
5.962792206135792
 21
4.690000000000002
 31
0
  0
LINE
  8
0
 62
7
 10
5.934924240491755
 20
4.450000000000002
 30
0
 11
6.174924240491756
 21
4.690000000000002
 31
0
  0
LINE
  8
0
 62
7
 10
6.147056274847719
 20
4.450000000000002
 30
0
 11
6.38705627484772
 21
4.690000000000002
 31
0
  0
LINE
  8
0
 62
7
 10
6.359188309203683
 20
4.450000000000002
 30
0
 11
6.599188309203684
 21
4.690000000000002
 31
0
  0
LINE
  8
0
 62
7
 10
6.571320343559647
 20
4.450000000000002
 30
0
 11
6.811320343559648
 21
4.690000000000002
 31
0
  0
LINE
  8
0
 62
7
 10
6.78345237791561
 20
4.450000000000002
 30
0
 11
7.023452377915611
 21
4.690000000000002
 31
0
  0
LINE
  8
0
 62
7
 10
6.995584412271574
 20
4.450000000000002
 30
0
 11
7.235584412271575
 21
4.690000000000002
 31
0
  0
LINE
  8
0
 62
7
 10
7.207716446627538
 20
4.450000000000002
 30
0
 11
7.447716446627539
 21
4.690000000000002
 31
0
  0
LINE
  8
0
 62
7
 10
7.275000000000011
 20
4.305151519016511
 30
0
 11
7.450000000000012
 21
4.480151519016511
 31
0
  0
LINE
  8
0
 62
7
 10
7.275000000000011
 20
4.093019484660547
 30
0
 11
7.450000000000012
 21
4.268019484660547
 31
0
  0
LINE
  8
0
 62
7
 10
7.275000000000011
 20
3.880887450304583
 30
0
 11
7.450000000000012
 21
4.055887450304583
 31
0
  0
LINE
  8
0
 62
7
 10
7.275000000000011
 20
3.668755415948619
 30
0
 11
7.450000000000012
 21
3.843755415948619
 31
0
  0
LINE
  8
0
 62
7
 10
7.275000000000011
 20
3.456623381592655
 30
0
 11
7.450000000000012
 21
3.631623381592655
 31
0
  0
LINE
  8
0
 62
7
 10
7.380508652763323
 20
3.350000000000001
 30
0
 11
7.450000000000012
 21
3.41949134723669
 31
0
  0
ENDBLK
  8
0
  0
BLOCK
  8
0
  2
*X1
 70
1
 10
0
 20
0
 30
0
  0
LINE
  8
0
 62
7
 10
7.275000000000013
 20
8.017462120245886
 30
0
 11
7.357537879754123
 21
8.099999999999996
 31
0
  0
LINE
  8
0
 62
7
 10
7.419669914110088
 20
7.949999999999998
 30
0
 11
7.450000000000012
 21
7.980330085889922
 31
0
  0
LINE
  8
0
 62
7
 10
7.313603896932106
 20
7.949999999999998
 30
0
 11
7.450000000000013
 21
8.086396103067905
 31
0
  0
ENDBLK
  8
0
  0
BLOCK
  8
0
  2
*X2
 70
1
 10
0
 20
0
 30
0
  0
LINE
  8
0
 62
7
 10
7.275000000000012
 20
10.77517856687342
 30
0
 11
7.34982143312659
 21
10.85
 31
0
  0
LINE
  8
0
 62
7
 10
7.275000000000012
 20
10.56304653251745
 30
0
 11
7.450000000000013
 21
10.73804653251745
 31
0
  0
LINE
  8
0
 62
7
 10
7.275000000000012
 20
10.35091449816149
 30
0
 11
7.450000000000013
 21
10.52591449816149
 31
0
  0
LINE
  8
0
 62
7
 10
7.275000000000012
 20
10.13878246380552
 30
0
 11
7.450000000000013
 21
10.31378246380553
 31
0
  0
LINE
  8
0
 62
7
 10
7.275000000000012
 20
9.926650429449561
 30
0
 11
7.450000000000013
 21
10.10165042944956
 31
0
  0
LINE
  8
0
 62
7
 10
7.275000000000012
 20
9.714518395093597
 30
0
 11
7.450000000000013
 21
9.889518395093598
 31
0
  0
LINE
  8
0
 62
7
 10
7.275000000000012
 20
9.502386360737633
 30
0
 11
7.450000000000013
 21
9.677386360737634
 31
0
  0
LINE
  8
0
 62
7
 10
7.275000000000012
 20
9.290254326381669
 30
0
 11
7.450000000000013
 21
9.46525432638167
 31
0
  0
LINE
  8
0
 62
7
 10
7.275000000000012
 20
9.078122292025705
 30
0
 11
7.450000000000013
 21
9.253122292025706
 31
0
  0
LINE
  8
0
 62
7
 10
7.275000000000012
 20
8.865990257669742
 30
0
 11
7.450000000000013
 21
9.040990257669742
 31
0
  0
LINE
  8
0
 62
7
 10
7.275000000000012
 20
8.653858223313778
 30
0
 11
7.450000000000013
 21
8.828858223313778
 31
0
  0
LINE
  8
0
 62
7
 10
7.275000000000012
 20
8.441726188957814
 30
0
 11
7.450000000000013
 21
8.616726188957815
 31
0
  0
LINE
  8
0
 62
7
 10
7.34540584539816
 20
8.299999999999997
 30
0
 11
7.450000000000013
 21
8.404594154601851
 31
0
  0
LINE
  8
0
 62
7
 10
7.275000000000013
 20
10.66911254969544
 30
0
 11
7.450000000000011
 21
10.84411254969543
 31
0
  0
LINE
  8
0
 62
7
 10
7.275000000000013
 20
10.45698051533947
 30
0
 11
7.450000000000011
 21
10.63198051533947
 31
0
  0
LINE
  8
0
 62
7
 10
7.275000000000013
 20
10.24484848098351
 30
0
 11
7.450000000000011
 21
10.41984848098351
 31
0
  0
LINE
  8
0
 62
7
 10
7.275000000000013
 20
10.03271644662754
 30
0
 11
7.450000000000011
 21
10.20771644662754
 31
0
  0
LINE
  8
0
 62
7
 10
7.275000000000013
 20
9.820584412271581
 30
0
 11
7.450000000000011
 21
9.995584412271578
 31
0
  0
LINE
  8
0
 62
7
 10
7.275000000000013
 20
9.608452377915617
 30
0
 11
7.450000000000011
 21
9.783452377915614
 31
0
  0
LINE
  8
0
 62
7
 10
7.275000000000013
 20
9.396320343559653
 30
0
 11
7.450000000000011
 21
9.57132034355965
 31
0
  0
LINE
  8
0
 62
7
 10
7.275000000000013
 20
9.184188309203689
 30
0
 11
7.450000000000011
 21
9.359188309203686
 31
0
  0
LINE
  8
0
 62
7
 10
7.275000000000013
 20
8.972056274847725
 30
0
 11
7.450000000000011
 21
9.147056274847722
 31
0
  0
LINE
  8
0
 62
7
 10
7.275000000000013
 20
8.759924240491761
 30
0
 11
7.450000000000011
 21
8.934924240491759
 31
0
  0
LINE
  8
0
 62
7
 10
7.275000000000013
 20
8.547792206135798
 30
0
 11
7.450000000000011
 21
8.722792206135795
 31
0
  0
LINE
  8
0
 62
7
 10
7.275000000000013
 20
8.335660171779834
 30
0
 11
7.450000000000011
 21
8.510660171779831
 31
0
  0
ENDBLK
  8
0
  0
BLOCK
  8
0
  2
*X3
 70
1
 10
0
 20
0
 30
0
  0
LINE
  8
0
 62
7
 10
7.275000000000012
 20
11.19944263558535
 30
0
 11
7.275557364414662
 21
11.2
 31
0
  0
LINE
  8
0
 62
7
 10
7.337689398770627
 20
11.05
 30
0
 11
7.450000000000009
 21
11.16231060122938
 31
0
  0
LINE
  8
0
 62
7
 10
7.275000000000013
 20
11.09337661840737
 30
0
 11
7.381623381592645
 21
11.2
 31
0
  0
LINE
  8
0
 62
7
 10
7.44375541594861
 20
11.05
 30
0
 11
7.450000000000012
 21
11.0562445840514
 31
0
  0
ENDBLK
  8
0
  0
BLOCK
  8
0
  2
*X4
 70
1
 10
0
 20
0
 30
0
  0
LINE
  8
0
 62
7
  6
DASHED
 10
4.125
 20
8.2615746699413
 30
0
 11
4.163425330058701
 21
8.299999999999995
 31
0
  0
LINE
  8
0
 62
7
  6
DASHED
 10
4.175557364414667
 20
8.099999999999998
 30
0
 11
4.375557364414665
 21
8.299999999999995
 31
0
  0
LINE
  8
0
 62
7
  6
DASHED
 10
4.387689398770631
 20
8.099999999999998
 30
0
 11
4.587689398770629
 21
8.299999999999995
 31
0
  0
LINE
  8
0
 62
7
  6
DASHED
 10
4.599821433126595
 20
8.099999999999998
 30
0
 11
4.799821433126593
 21
8.299999999999995
 31
0
  0
LINE
  8
0
 62
7
  6
DASHED
 10
4.811953467482558
 20
8.099999999999998
 30
0
 11
5.011953467482557
 21
8.299999999999995
 31
0
  0
LINE
  8
0
 62
7
  6
DASHED
 10
5.024085501838522
 20
8.099999999999998
 30
0
 11
5.224085501838521
 21
8.299999999999995
 31
0
  0
LINE
  8
0
 62
7
  6
DASHED
 10
5.236217536194486
 20
8.099999999999998
 30
0
 11
5.436217536194484
 21
8.299999999999995
 31
0
  0
LINE
  8
0
 62
7
  6
DASHED
 10
5.44834957055045
 20
8.099999999999998
 30
0
 11
5.648349570550448
 21
8.299999999999995
 31
0
  0
LINE
  8
0
 62
7
  6
DASHED
 10
5.660481604906414
 20
8.099999999999998
 30
0
 11
5.860481604906412
 21
8.299999999999995
 31
0
  0
LINE
  8
0
 62
7
  6
DASHED
 10
5.872613639262378
 20
8.099999999999998
 30
0
 11
6.072613639262376
 21
8.299999999999995
 31
0
  0
LINE
  8
0
 62
7
  6
DASHED
 10
6.084745673618341
 20
8.099999999999998
 30
0
 11
6.28474567361834
 21
8.299999999999995
 31
0
  0
LINE
  8
0
 62
7
  6
DASHED
 10
6.296877707974305
 20
8.099999999999998
 30
0
 11
6.496877707974304
 21
8.299999999999995
 31
0
  0
LINE
  8
0
 62
7
  6
DASHED
 10
6.509009742330269
 20
8.099999999999998
 30
0
 11
6.709009742330267
 21
8.299999999999995
 31
0
  0
LINE
  8
0
 62
7
  6
DASHED
 10
6.721141776686233
 20
8.099999999999998
 30
0
 11
6.921141776686231
 21
8.299999999999995
 31
0
  0
LINE
  8
0
 62
7
  6
DASHED
 10
6.933273811042197
 20
8.099999999999998
 30
0
 11
7.133273811042195
 21
8.299999999999995
 31
0
  0
LINE
  8
0
 62
7
  6
DASHED
 10
7.145405845398161
 20
8.099999999999998
 30
0
 11
7.345405845398159
 21
8.299999999999995
 31
0
  0
LINE
  8
0
 62
7
  6
DASHED
 10
7.357537879754124
 20
8.099999999999998
 30
0
 11
7.557537879754123
 21
8.299999999999995
 31
0
  0
LINE
  8
0
 62
7
  6
DASHED
 10
7.569669914110088
 20
8.099999999999998
 30
0
 11
7.600000000000012
 21
8.130330085889922
 31
0
  0
LINE
  8
0
 62
7
 10
4.125
 20
8.15550865276332
 30
0
 11
4.269491347236682
 21
8.299999999999995
 31
0
  0
LINE
  8
0
 62
7
 10
4.281623381592647
 20
8.099999999999996
 30
0
 11
4.481623381592646
 21
8.299999999999995
 31
0
  0
LINE
  8
0
 62
7
 10
4.493755415948611
 20
8.099999999999996
 30
0
 11
4.69375541594861
 21
8.299999999999995
 31
0
  0
LINE
  8
0
 62
7
 10
4.705887450304575
 20
8.099999999999996
 30
0
 11
4.905887450304574
 21
8.299999999999995
 31
0
  0
LINE
  8
0
 62
7
 10
4.918019484660539
 20
8.099999999999996
 30
0
 11
5.118019484660538
 21
8.299999999999995
 31
0
  0
LINE
  8
0
 62
7
 10
5.130151519016502
 20
8.099999999999996
 30
0
 11
5.330151519016502
 21
8.299999999999995
 31
0
  0
LINE
  8
0
 62
7
 10
5.342283553372466
 20
8.099999999999996
 30
0
 11
5.542283553372465
 21
8.299999999999995
 31
0
  0
LINE
  8
0
 62
7
 10
5.55441558772843
 20
8.099999999999996
 30
0
 11
5.754415587728429
 21
8.299999999999995
 31
0
  0
LINE
  8
0
 62
7
 10
5.766547622084394
 20
8.099999999999996
 30
0
 11
5.966547622084393
 21
8.299999999999995
 31
0
  0
LINE
  8
0
 62
7
 10
5.978679656440358
 20
8.099999999999996
 30
0
 11
6.178679656440357
 21
8.299999999999995
 31
0
  0
LINE
  8
0
 62
7
 10
6.190811690796322
 20
8.099999999999996
 30
0
 11
6.390811690796321
 21
8.299999999999995
 31
0
  0
LINE
  8
0
 62
7
 10
6.402943725152285
 20
8.099999999999996
 30
0
 11
6.602943725152285
 21
8.299999999999995
 31
0
  0
LINE
  8
0
 62
7
 10
6.615075759508249
 20
8.099999999999996
 30
0
 11
6.815075759508249
 21
8.299999999999995
 31
0
  0
LINE
  8
0
 62
7
 10
6.827207793864213
 20
8.099999999999996
 30
0
 11
7.027207793864212
 21
8.299999999999995
 31
0
  0
LINE
  8
0
 62
7
 10
7.039339828220177
 20
8.099999999999996
 30
0
 11
7.239339828220176
 21
8.299999999999995
 31
0
  0
LINE
  8
0
 62
7
 10
7.251471862576141
 20
8.099999999999996
 30
0
 11
7.45147186257614
 21
8.299999999999995
 31
0
  0
LINE
  8
0
 62
7
 10
7.463603896932105
 20
8.099999999999996
 30
0
 11
7.600000000000012
 21
8.236396103067904
 31
0
  0
ENDBLK
  8
0
  0
BLOCK
  8
0
  2
*X5
 70
1
 10
0
 20
0
 30
0
  0
LINE
  8
0
 62
7
  6
DASHED
 10
4.124999999999999
 20
11.01929111656884
 30
0
 11
4.15570888343117
 21
11.05
 31
0
  0
LINE
  8
0
 62
7
  6
DASHED
 10
4.167840917787133
 20
10.85
 30
0
 11
4.367840917787134
 21
11.05
 31
0
  0
LINE
  8
0
 62
7
  6
DASHED
 10
4.379972952143097
 20
10.85
 30
0
 11
4.579972952143097
 21
11.05
 31
0
  0
LINE
  8
0
 62
7
  6
DASHED
 10
4.592104986499061
 20
10.85
 30
0
 11
4.792104986499061
 21
11.05
 31
0
  0
LINE
  8
0
 62
7
  6
DASHED
 10
4.804237020855025
 20
10.85
 30
0
 11
5.004237020855025
 21
11.05
 31
0
  0
LINE
  8
0
 62
7
  6
DASHED
 10
5.016369055210989
 20
10.85
 30
0
 11
5.216369055210989
 21
11.05
 31
0
  0
LINE
  8
0
 62
7
  6
DASHED
 10
5.228501089566953
 20
10.85
 30
0
 11
5.428501089566953
 21
11.05
 31
0
  0
LINE
  8
0
 62
7
  6
DASHED
 10
5.440633123922916
 20
10.85
 30
0
 11
5.640633123922917
 21
11.05
 31
0
  0
LINE
  8
0
 62
7
  6
DASHED
 10
5.65276515827888
 20
10.85
 30
0
 11
5.85276515827888
 21
11.05
 31
0
  0
LINE
  8
0
 62
7
  6
DASHED
 10
5.864897192634844
 20
10.85
 30
0
 11
6.064897192634844
 21
11.05
 31
0
  0
LINE
  8
0
 62
7
  6
DASHED
 10
6.077029226990808
 20
10.85
 30
0
 11
6.277029226990808
 21
11.05
 31
0
  0
LINE
  8
0
 62
7
  6
DASHED
 10
6.289161261346772
 20
10.85
 30
0
 11
6.489161261346772
 21
11.05
 31
0
  0
LINE
  8
0
 62
7
  6
DASHED
 10
6.501293295702736
 20
10.85
 30
0
 11
6.701293295702736
 21
11.05
 31
0
  0
LINE
  8
0
 62
7
  6
DASHED
 10
6.713425330058699
 20
10.85
 30
0
 11
6.9134253300587
 21
11.05
 31
0
  0
LINE
  8
0
 62
7
  6
DASHED
 10
6.925557364414663
 20
10.85
 30
0
 11
7.125557364414663
 21
11.05
 31
0
  0
LINE
  8
0
 62
7
  6
DASHED
 10
7.137689398770627
 20
10.85
 30
0
 11
7.337689398770627
 21
11.05
 31
0
  0
LINE
  8
0
 62
7
  6
DASHED
 10
7.349821433126591
 20
10.85
 30
0
 11
7.549821433126591
 21
11.05
 31
0
  0
LINE
  8
0
 62
7
  6
DASHED
 10
7.561953467482555
 20
10.85
 30
0
 11
7.600000000000012
 21
10.88804653251746
 31
0
  0
LINE
  8
0
 62
7
 10
4.125
 20
10.91322509939085
 30
0
 11
4.261774900609151
 21
11.05
 31
0
  0
LINE
  8
0
 62
7
 10
4.273906934965114
 20
10.85
 30
0
 11
4.473906934965115
 21
11.05
 31
0
  0
LINE
  8
0
 62
7
 10
4.486038969321077
 20
10.85
 30
0
 11
4.686038969321078
 21
11.05
 31
0
  0
LINE
  8
0
 62
7
 10
4.698171003677041
 20
10.85
 30
0
 11
4.898171003677042
 21
11.05
 31
0
  0
LINE
  8
0
 62
7
 10
4.910303038033005
 20
10.85
 30
0
 11
5.110303038033006
 21
11.05
 31
0
  0
LINE
  8
0
 62
7
 10
5.122435072388969
 20
10.85
 30
0
 11
5.32243507238897
 21
11.05
 31
0
  0
LINE
  8
0
 62
7
 10
5.334567106744933
 20
10.85
 30
0
 11
5.534567106744934
 21
11.05
 31
0
  0
LINE
  8
0
 62
7
 10
5.546699141100897
 20
10.85
 30
0
 11
5.746699141100898
 21
11.05
 31
0
  0
LINE
  8
0
 62
7
 10
5.75883117545686
 20
10.85
 30
0
 11
5.958831175456861
 21
11.05
 31
0
  0
LINE
  8
0
 62
7
 10
5.970963209812824
 20
10.85
 30
0
 11
6.170963209812825
 21
11.05
 31
0
  0
LINE
  8
0
 62
7
 10
6.183095244168788
 20
10.85
 30
0
 11
6.383095244168789
 21
11.05
 31
0
  0
LINE
  8
0
 62
7
 10
6.395227278524752
 20
10.85
 30
0
 11
6.595227278524753
 21
11.05
 31
0
  0
LINE
  8
0
 62
7
 10
6.607359312880716
 20
10.85
 30
0
 11
6.807359312880717
 21
11.05
 31
0
  0
LINE
  8
0
 62
7
 10
6.81949134723668
 20
10.85
 30
0
 11
7.019491347236681
 21
11.05
 31
0
  0
LINE
  8
0
 62
7
 10
7.031623381592643
 20
10.85
 30
0
 11
7.231623381592645
 21
11.05
 31
0
  0
LINE
  8
0
 62
7
 10
7.243755415948607
 20
10.85
 30
0
 11
7.443755415948608
 21
11.05
 31
0
  0
LINE
  8
0
 62
7
 10
7.455887450304571
 20
10.85
 30
0
 11
7.60000000000001
 21
10.99411254969544
 31
0
  0
ENDBLK
  8
0
  0
BLOCK
  8
0
  2
*X6
 70
1
 10
0
 20
0
 30
0
  0
LINE
  8
0
 62
7
 10
0.5
 20
8.03068721963673
 30
0
 11
0.5693127803632674
 21
8.099999999999998
 31
0
  0
LINE
  8
0
 62
7
 10
0.6314448147192331
 20
7.949999999999998
 30
0
 11
0.7399999999999998
 21
8.058555185280767
 31
0
  0
LINE
  8
0
 62
7
 10
0.5253787975412521
 20
7.949999999999999
 30
0
 11
0.6753787975412497
 21
8.099999999999998
 31
0
  0
LINE
  8
0
 62
7
 10
0.7375108318972163
 20
7.949999999999999
 30
0
 11
0.7400000000000002
 21
7.952489168102783
 31
0
  0
ENDBLK
  8
0
  0
BLOCK
  8
0
  2
*X7
 70
1
 10
0
 20
0
 30
0
  0
LINE
  8
0
 62
7
 10
0.5000000000000004
 20
10.78840366626426
 30
0
 11
0.5615963337357339
 21
10.85
 31
0
  0
LINE
  8
0
 62
7
 10
0.5000000000000004
 20
10.5762716319083
 30
0
 11
0.7400000000000002
 21
10.8162716319083
 31
0
  0
LINE
  8
0
 62
7
 10
0.5000000000000004
 20
10.36413959755233
 30
0
 11
0.7400000000000002
 21
10.60413959755233
 31
0
  0
LINE
  8
0
 62
7
 10
0.5000000000000004
 20
10.15200756319637
 30
0
 11
0.7400000000000002
 21
10.39200756319637
 31
0
  0
LINE
  8
0
 62
7
 10
0.5000000000000004
 20
9.939875528840407
 30
0
 11
0.7400000000000002
 21
10.17987552884041
 31
0
  0
LINE
  8
0
 62
7
 10
0.5000000000000004
 20
9.727743494484443
 30
0
 11
0.7400000000000002
 21
9.967743494484441
 31
0
  0
LINE
  8
0
 62
7
 10
0.5000000000000004
 20
9.515611460128479
 30
0
 11
0.7400000000000002
 21
9.755611460128478
 31
0
  0
LINE
  8
0
 62
7
 10
0.5000000000000004
 20
9.303479425772515
 30
0
 11
0.7400000000000002
 21
9.543479425772514
 31
0
  0
LINE
  8
0
 62
7
 10
0.5000000000000004
 20
9.091347391416551
 30
0
 11
0.7400000000000002
 21
9.33134739141655
 31
0
  0
LINE
  8
0
 62
7
 10
0.5000000000000004
 20
8.879215357060588
 30
0
 11
0.7400000000000002
 21
9.119215357060586
 31
0
  0
LINE
  8
0
 62
7
 10
0.5000000000000004
 20
8.667083322704624
 30
0
 11
0.7400000000000002
 21
8.907083322704622
 31
0
  0
LINE
  8
0
 62
7
 10
0.5000000000000004
 20
8.45495128834866
 30
0
 11
0.7400000000000002
 21
8.694951288348658
 31
0
  0
LINE
  8
0
 62
7
 10
0.5571807460073028
 20
8.299999999999997
 30
0
 11
0.7400000000000002
 21
8.482819253992695
 31
0
  0
LINE
  8
0
 62
7
 10
0.5
 20
10.68233764908628
 30
0
 11
0.6676623509137176
 21
10.85
 31
0
  0
LINE
  8
0
 62
7
 10
0.5
 20
10.47020561473031
 30
0
 11
0.7400000000000007
 21
10.71020561473031
 31
0
  0
LINE
  8
0
 62
7
 10
0.5
 20
10.25807358037435
 30
0
 11
0.7400000000000007
 21
10.49807358037435
 31
0
  0
LINE
  8
0
 62
7
 10
0.5
 20
10.04594154601839
 30
0
 11
0.7400000000000007
 21
10.28594154601839
 31
0
  0
LINE
  8
0
 62
7
 10
0.5
 20
9.833809511662423
 30
0
 11
0.7400000000000007
 21
10.07380951166242
 31
0
  0
LINE
  8
0
 62
7
 10
0.5
 20
9.621677477306459
 30
0
 11
0.7400000000000007
 21
9.861677477306458
 31
0
  0
LINE
  8
0
 62
7
 10
0.5
 20
9.409545442950495
 30
0
 11
0.7400000000000007
 21
9.649545442950494
 31
0
  0
LINE
  8
0
 62
7
 10
0.5
 20
9.197413408594532
 30
0
 11
0.7400000000000007
 21
9.43741340859453
 31
0
  0
LINE
  8
0
 62
7
 10
0.5
 20
8.985281374238568
 30
0
 11
0.7400000000000007
 21
9.225281374238566
 31
0
  0
LINE
  8
0
 62
7
 10
0.5
 20
8.773149339882604
 30
0
 11
0.7400000000000007
 21
9.013149339882602
 31
0
  0
LINE
  8
0
 62
7
 10
0.5
 20
8.56101730552664
 30
0
 11
0.7400000000000007
 21
8.801017305526639
 31
0
  0
LINE
  8
0
 62
7
 10
0.5
 20
8.348885271170676
 30
0
 11
0.7400000000000007
 21
8.588885271170675
 31
0
  0
LINE
  8
0
 62
7
 10
0.6632467631852861
 20
8.299999999999997
 30
0
 11
0.7400000000000007
 21
8.376753236814711
 31
0
  0
ENDBLK
  8
0
  0
BLOCK
  8
0
  2
*X8
 70
1
 10
0
 20
0
 30
0
  0
LINE
  8
0
 62
7
 10
0.549464299379772
 20
11.05
 30
0
 11
0.6994642993797706
 21
11.2
 31
0
  0
LINE
  8
0
 62
7
 10
0.5
 20
11.10660171779821
 30
0
 11
0.5933982822017896
 21
11.2
 31
0
  0
LINE
  8
0
 62
7
 10
0.655530316557754
 20
11.05
 30
0
 11
0.7400000000000002
 21
11.13446968344225
 31
0
  0
ENDBLK
  8
0
  0
BLOCK
  8
0
  2
*X9
 70
1
 10
0
 20
0
 30
0
  0
LINE
  8
0
 62
7
  6
DASHED
 10
1.842104986499053
 20
8.099999999999996
 30
0
 11
2.042104986499053
 21
8.299999999999997
 31
0
  0
LINE
  8
0
 62
7
  6
DASHED
 10
2.054237020855017
 20
8.099999999999996
 30
0
 11
2.140000000000001
 21
8.185762979144981
 31
0
  0
LINE
  8
0
 62
7
 10
1.84
 20
8.203961030678926
 30
0
 11
1.936038969321071
 21
8.299999999999997
 31
0
  0
LINE
  8
0
 62
7
 10
1.948171003677037
 20
8.099999999999998
 30
0
 11
2.140000000000001
 21
8.291828996322963
 31
0
  0
ENDBLK
  8
0
  0
BLOCK
  8
0
  2
*X10
 70
1
 10
0
 20
0
 30
0
  0
LINE
  8
0
 62
7
  6
DASHED
 10
1.839999999999999
 20
10.85561146012848
 30
0
 11
2.034388539871522
 21
11.05
 31
0
  0
LINE
  8
0
 62
7
  6
DASHED
 10
2.046520574227484
 20
10.85
 30
0
 11
2.14
 21
10.94347942577252
 31
0
  0
LINE
  8
0
 62
7
 10
1.84
 20
10.96167747730646
 30
0
 11
1.92832252269354
 21
11.05
 31
0
  0
LINE
  8
0
 62
7
 10
1.940454557049502
 20
10.85
 30
0
 11
2.139999999999999
 21
11.0495454429505
 31
0
  0
ENDBLK
  8
0
  0
BLOCK
  8
0
  2
*X11
 70
1
 10
0
 20
0
 30
0
  0
LINE
  8
0
 62
7
  6
DASHED
 10
0.4999999999999991
 20
11.00053570062023
 30
0
 11
0.5494642993797729
 21
11.05
 31
0
  0
LINE
  8
0
 62
7
  6
DASHED
 10
0.5615963337357357
 20
10.85
 30
0
 11
0.7399999999999993
 21
11.02840366626426
 31
0
  0
LINE
  8
0
 62
7
 10
0.5000000000000009
 20
10.89446968344225
 30
0
 11
0.655530316557754
 21
11.05
 31
0
  0
LINE
  8
0
 62
7
 10
0.6676623509137176
 20
10.85
 30
0
 11
0.7400000000000002
 21
10.92233764908628
 31
0
  0
ENDBLK
  8
0
  0
BLOCK
  8
0
  2
*X12
 70
1
 10
0
 20
0
 30
0
  0
LINE
  8
0
 62
7
  6
DASHED
 10
0.5
 20
8.242819253992694
 30
0
 11
0.5571807460073028
 21
8.299999999999997
 31
0
  0
LINE
  8
0
 62
7
  6
DASHED
 10
0.5693127803632687
 20
8.099999999999998
 30
0
 11
0.7399999999999998
 21
8.270687219636729
 31
0
  0
LINE
  8
0
 62
7
 10
0.5
 20
8.136753236814712
 30
0
 11
0.6632467631852856
 21
8.299999999999997
 31
0
  0
LINE
  8
0
 62
7
 10
0.6753787975412497
 20
8.099999999999998
 30
0
 11
0.7400000000000007
 21
8.164621202458747
 31
0
  0
ENDBLK
  8
0
  0
BLOCK
  8
0
  2
*X13
 70
1
 10
0
 20
0
 30
0
  0
LINE
  8
0
 62
7
 10
4.165
 20
4.801396103067892
 30
0
 11
4.333603896932111
 21
4.969999999999998
 31
0
  0
LINE
  8
0
 62
7
 10
4.30573593128808
 20
4.730000000000002
 30
0
 11
4.545735931288075
 21
4.969999999999998
 31
0
  0
LINE
  8
0
 62
7
 10
4.517867965644044
 20
4.730000000000002
 30
0
 11
4.757867965644039
 21
4.969999999999998
 31
0
  0
LINE
  8
0
 62
7
 10
4.730000000000008
 20
4.730000000000002
 30
0
 11
4.970000000000002
 21
4.969999999999998
 31
0
  0
LINE
  8
0
 62
7
 10
4.942132034355971
 20
4.730000000000002
 30
0
 11
5.182132034355966
 21
4.969999999999998
 31
0
  0
LINE
  8
0
 62
7
 10
5.154264068711935
 20
4.730000000000002
 30
0
 11
5.39426406871193
 21
4.969999999999998
 31
0
  0
LINE
  8
0
 62
7
 10
5.366396103067899
 20
4.730000000000002
 30
0
 11
5.606396103067894
 21
4.969999999999998
 31
0
  0
LINE
  8
0
 62
7
 10
5.578528137423863
 20
4.730000000000002
 30
0
 11
5.818528137423858
 21
4.969999999999998
 31
0
  0
LINE
  8
0
 62
7
 10
5.790660171779827
 20
4.730000000000002
 30
0
 11
6.030660171779822
 21
4.969999999999998
 31
0
  0
LINE
  8
0
 62
7
 10
6.002792206135791
 20
4.730000000000002
 30
0
 11
6.242792206135785
 21
4.969999999999998
 31
0
  0
LINE
  8
0
 62
7
 10
6.214924240491754
 20
4.730000000000002
 30
0
 11
6.454924240491749
 21
4.969999999999998
 31
0
  0
LINE
  8
0
 62
7
 10
6.427056274847718
 20
4.730000000000002
 30
0
 11
6.667056274847713
 21
4.969999999999998
 31
0
  0
LINE
  8
0
 62
7
 10
6.639188309203682
 20
4.730000000000002
 30
0
 11
6.879188309203677
 21
4.969999999999998
 31
0
  0
LINE
  8
0
 62
7
 10
6.851320343559646
 20
4.730000000000002
 30
0
 11
7.091320343559641
 21
4.969999999999998
 31
0
  0
LINE
  8
0
 62
7
 10
7.06345237791561
 20
4.730000000000002
 30
0
 11
7.450000000000012
 21
5.116547622084403
 31
0
  0
LINE
  8
0
 62
7
 10
7.275584412271574
 20
4.730000000000002
 30
0
 11
7.450000000000012
 21
4.904415587728439
 31
0
  0
ENDBLK
  8
0
  0
BLOCK
  8
0
  2
*D0
 70
1
 10
0
 20
0
 30
0
  0
LINE
  8
0
 62
7
 10
7.97148482682419
 20
10.37106182905501
 30
0
 11
7.97148482682419
 21
11.05
 31
0
  0
LINE
  8
0
 62
7
 10
7.97148482682419
 20
8.299999999999999
 30
0
 11
7.97148482682419
 21
9.191061829055013
 31
0
  0
LINE
  8
0
 62
7
 10
7.600000000000012
 20
11.05
 30
0
 11
8.021484826824191
 21
11.05
 31
0
  0
LINE
  8
0
 62
7
 10
7.600000000000012
 20
8.299999999999999
 30
0
 11
8.021484826824191
 21
8.299999999999999
 31
0
  0
LINE
  8
0
 62
7
 10
8.006840165883517
 20
11.01464466094067
 30
0
 11
7.936129487764862
 21
11.08535533905933
 31
0
  0
LINE
  8
0
 62
7
 10
7.936129487764862
 20
8.335355339059326
 30
0
 11
8.006840165883517
 21
8.264644660940672
 31
0
  0
TEXT
  8
0
 62
7
 10
7.946484826824189
 20
9.661061829055013
 30
0
 40
0.1
  1
275
 50
90
 41
0.9
  0
TEXT
  8
0
 62
7
 10
8.09648482682419
 20
9.441061829055013
 30
0
 40
0.1
  1
(260-280)
 50
90
 41
0.9
  0
ENDBLK
  8
0
  0
BLOCK
  8
0
  2
*D1
 70
1
 10
0
 20
0
 30
0
  0
LINE
  8
0
 62
7
 10
6.256703461945311
 20
3.04840238895696
 30
0
 11
7.275000000000012
 21
3.04840238895696
 31
0
  0
LINE
  8
0
 62
7
 10
4.265000000000001
 20
3.04840238895696
 30
0
 11
5.51170346194531
 21
3.04840238895696
 31
0
  0
LINE
  8
0
 62
7
 10
7.275000000000012
 20
3.350000000000001
 30
0
 11
7.275000000000012
 21
2.99840238895696
 31
0
  0
LINE
  8
0
 62
7
 10
4.265000000000001
 20
3.350000000000001
 30
0
 11
4.265000000000001
 21
2.99840238895696
 31
0
  0
LINE
  8
0
 62
7
 10
4.300355339059328
 20
3.083757728016287
 30
0
 11
4.229644660940673
 21
3.013047049897633
 31
0
  0
LINE
  8
0
 62
7
 10
7.239644660940685
 20
3.013047049897633
 30
0
 11
7.310355339059339
 21
3.083757728016287
 31
0
  0
TEXT
  8
0
 62
7
 10
5.761703461945311
 20
3.00340238895696
 30
0
 40
0.1
  1
3,01
 41
0.9
  0
ENDBLK
  8
0
  0
BLOCK
  8
0
  2
*D2
 70
1
 10
0
 20
0
 30
0
  0
LINE
  8
0
 62
7
 10
6.21031577224788
 20
5.30831604717169
 30
0
 11
7.275000000000011
 21
5.30831604717169
 31
0
  0
LINE
  8
0
 62
7
 10
4.165000000000001
 20
5.30831604717169
 30
0
 11
5.49531577224788
 21
5.30831604717169
 31
0
  0
LINE
  8
0
 62
7
 10
7.275000000000011
 20
4.969999999999998
 30
0
 11
7.275000000000011
 21
5.35831604717169
 31
0
  0
LINE
  8
0
 62
7
 10
4.165000000000001
 20
4.969999999999998
 30
0
 11
4.165000000000001
 21
5.35831604717169
 31
0
  0
LINE
  8
0
 62
7
 10
7.239644660940684
 20
5.272960708112363
 30
0
 11
7.310355339059338
 21
5.343671386231017
 31
0
  0
LINE
  8
0
 62
7
 10
4.200355339059328
 20
5.343671386231017
 30
0
 11
4.129644660940674
 21
5.272960708112363
 31
0
  0
TEXT
  8
0
 62
7
 10
5.74531577224788
 20
5.26331604717169
 30
0
 40
0.1
  1
3,11
 41
0.9
  0
ENDBLK
  8
0
  0
BLOCK
  8
0
  2
*D3
 70
1
 10
0
 20
0
 30
0
  0
LINE
  8
0
 62
7
 10
7.76746484379091
 20
4.224063855636199
 30
0
 11
7.76746484379091
 21
4.450000000000002
 31
0
  0
LINE
  8
0
 62
7
 10
7.76746484379091
 20
3.350000000000001
 30
0
 11
7.76746484379091
 21
3.5990638556362
 31
0
  0
LINE
  8
0
 62
7
 10
7.275000000000012
 20
4.450000000000002
 30
0
 11
7.81746484379091
 21
4.450000000000002
 31
0
  0
LINE
  8
0
 62
7
 10
7.275000000000012
 20
3.350000000000001
 30
0
 11
7.81746484379091
 21
3.350000000000001
 31
0
  0
LINE
  8
0
 62
7
 10
7.802820182850238
 20
4.414644660940675
 30
0
 11
7.732109504731583
 21
4.485355339059329
 31
0
  0
LINE
  8
0
 62
7
 10
7.732109504731583
 20
3.385355339059328
 30
0
 11
7.802820182850238
 21
3.314644660940673
 31
0
  0
TEXT
  8
0
 62
7
 10
7.81246484379091
 20
3.8490638556362
 30
0
 40
0.1
  1
1,1
 50
90
 41
0.9
  0
ENDBLK
  8
0
  0
BLOCK
  8
0
  2
*D4
 70
1
 10
0
 20
0
 30
0
  0
LINE
  8
0
 62
7
 10
6.225315772247881
 20
11.6015478315058
 30
0
 11
7.275000000000011
 21
11.6015478315058
 31
0
  0
LINE
  8
0
 62
7
 10
4.265
 20
11.6015478315058
 30
0
 11
5.48031577224788
 21
11.6015478315058
 31
0
  0
LINE
  8
0
 62
7
 10
7.275000000000011
 20
11.05
 30
0
 11
7.275000000000011
 21
11.6515478315058
 31
0
  0
LINE
  8
0
 62
7
 10
4.265
 20
11.05
 30
0
 11
4.265
 21
11.6515478315058
 31
0
  0
LINE
  8
0
 62
7
 10
4.300355339059327
 20
11.63690317056513
 30
0
 11
4.229644660940672
 21
11.56619249244647
 31
0
  0
LINE
  8
0
 62
7
 10
7.239644660940684
 20
11.56619249244647
 30
0
 11
7.310355339059338
 21
11.63690317056513
 31
0
  0
TEXT
  8
0
 62
7
 10
5.730315772247881
 20
11.5565478315058
 30
0
 40
0.1
  1
3,01
 41
0.9
  0
ENDBLK
  8
0
  0
ENDSEC
  0
SECTION
  2
ENTITIES
  0
INSERT
  8
0
  2
*X0
 10
0
 20
0
 30
0
  0
INSERT
  8
0
  2
*X1
 10
0
 20
0
 30
0
  0
INSERT
  8
0
  2
*X2
 10
0
 20
0
 30
0
  0
INSERT
  8
0
  2
*X3
 10
0
 20
0
 30
0
  0
INSERT
  8
0
  2
*X4
 10
0
 20
0
 30
0
  0
INSERT
  8
0
  2
*X5
 10
0
 20
0
 30
0
  0
INSERT
  8
0
  2
*X6
 10
0
 20
0
 30
0
  0
INSERT
  8
0
  2
*X7
 10
0
 20
0
 30
0
  0
INSERT
  8
0
  2
*X8
 10
0
 20
0
 30
0
  0
INSERT
  8
0
  2
*X9
 10
0
 20
0
 30
0
  0
INSERT
  8
0
  2
*X10
 10
0
 20
0
 30
0
  0
INSERT
  8
0
  2
*X11
 10
0
 20
0
 30
0
  0
INSERT
  8
0
  2
*X12
 10
0
 20
0
 30
0
  0
INSERT
  8
0
  2
*X13
 10
0
 20
0
 30
0
  0
LINE
  8
0
 62
7
 10
6.310000000000011
 20
3.440299034406852
 30
0
 11
6.310000000000011
 21
3.39
 31
0
  0
LINE
  8
0
 62
7
 10
6.157961729706764
 20
3.542110376121084
 30
0
 11
6.310000000000011
 21
3.440299034406852
 31
0
  0
LINE
  8
0
 62
7
 10
5.999346828337093
 20
3.485
 30
0
 11
6.239657727278534
 21
3.485
 31
0
  0
LINE
  8
0
 62
7
 10
5.999346828337093
 20
3.485
 30
0
 11
6.003073869554374
 21
3.485
 31
0
  0
LINE
  8
0
 62
7
 10
5.999346828337093
 20
3.485
 30
0
 11
6.12677294887565
 21
3.485
 31
0
  0
LINE
  8
0
 62
7
 10
4.165000000000012
 20
4.395
 30
0
 11
4.165000000000012
 21
3.485
 31
0
  0
LINE
  8
0
 62
7
 10
4.165000000000012
 20
3.485
 30
0
 11
4.485000000000011
 21
3.485
 31
0
  0
LINE
  8
0
 62
7
 10
4.485000000000011
 20
4.395
 30
0
 11
4.165000000000012
 21
4.395
 31
0
  0
LINE
  8
0
 62
7
 10
4.395000000000011
 20
4.395
 30
0
 11
4.395000000000011
 21
3.485
 31
0
  0
LINE
  8
0
 62
7
 10
4.395000000000011
 20
3.485
 30
0
 11
4.715000000000011
 21
3.485
 31
0
  0
LINE
  8
0
 62
7
 10
4.715000000000011
 20
4.395
 30
0
 11
4.395000000000011
 21
4.395
 31
0
  0
LINE
  8
0
 62
7
 10
4.625000000000011
 20
4.395
 30
0
 11
4.625000000000011
 21
3.485
 31
0
  0
LINE
  8
0
 62
7
 10
4.625000000000011
 20
3.485
 30
0
 11
4.945000000000011
 21
3.485
 31
0
  0
LINE
  8
0
 62
7
 10
4.945000000000011
 20
4.395
 30
0
 11
4.625000000000011
 21
4.395
 31
0
  0
LINE
  8
0
 62
7
 10
4.855000000000011
 20
4.395
 30
0
 11
4.855000000000011
 21
3.485
 31
0
  0
LINE
  8
0
 62
7
 10
4.855000000000011
 20
3.485
 30
0
 11
5.175000000000011
 21
3.485
 31
0
  0
LINE
  8
0
 62
7
 10
5.175000000000011
 20
4.395
 30
0
 11
4.855000000000011
 21
4.395
 31
0
  0
LINE
  8
0
 62
7
 10
5.085000000000012
 20
4.395
 30
0
 11
5.085000000000012
 21
3.485
 31
0
  0
LINE
  8
0
 62
7
 10
5.085000000000012
 20
3.485
 30
0
 11
5.405000000000012
 21
3.485
 31
0
  0
LINE
  8
0
 62
7
 10
5.405000000000012
 20
4.395
 30
0
 11
5.085000000000012
 21
4.395
 31
0
  0
LINE
  8
0
 62
7
 10
5.315000000000012
 20
4.395
 30
0
 11
5.315000000000012
 21
3.485
 31
0
  0
LINE
  8
0
 62
7
 10
5.315000000000012
 20
3.485
 30
0
 11
5.635000000000011
 21
3.485
 31
0
  0
LINE
  8
0
 62
7
 10
5.635000000000011
 20
4.395
 30
0
 11
5.315000000000012
 21
4.395
 31
0
  0
LINE
  8
0
 62
7
 10
5.545000000000011
 20
4.395
 30
0
 11
5.545000000000011
 21
3.485
 31
0
  0
LINE
  8
0
 62
7
 10
5.545000000000011
 20
3.485
 30
0
 11
5.755867895483895
 21
3.485
 31
0
  0
LINE
  8
0
 62
7
 10
5.963668491932204
 20
4.394999999999999
 30
0
 11
5.545000000000011
 21
4.395
 31
0
  0
LINE
  8
0
 62
7
 10
5.871351794230043
 20
4.395
 30
0
 11
5.66355119778173
 21
3.485
 31
0
  0
LINE
  8
0
 62
7
 10
5.66355119778173
 20
3.485
 30
0
 11
5.878643807450302
 21
3.485
 31
0
  0
LINE
  8
0
 62
7
 10
6.299093976037202
 20
4.395
 30
0
 11
5.871351794230043
 21
4.395
 31
0
  0
LINE
  8
0
 62
7
 10
6.199951933825401
 20
4.395
 30
0
 11
5.779501765238503
 21
3.485
 31
0
  0
LINE
  8
0
 62
7
 10
5.779501765238503
 20
3.485
 30
0
 11
5.999346828337093
 21
3.485
 31
0
  0
LINE
  8
0
 62
7
 10
6.640377568857073
 20
4.395
 30
0
 11
6.199951933825401
 21
4.395
 31
0
  0
LINE
  8
0
 62
7
 10
6.530501340933494
 20
4.395
 30
0
 11
5.893197641630799
 21
3.485
 31
0
  0
LINE
  8
0
 62
7
 10
5.893197641630799
 20
3.485
 30
0
 11
5.999346828337093
 21
3.485
 31
0
  0
LINE
  8
0
 62
7
 10
7.038872301238252
 20
4.395
 30
0
 11
6.530501340933494
 21
4.395
 31
0
  0
LINE
  8
0
 62
7
 10
6.911446180699691
 20
4.395
 30
0
 11
5.999346828337093
 21
3.485
 31
0
  0
LINE
  8
0
 62
7
 10
7.220000000000012
 20
4.041601497795692
 30
0
 11
7.220000000000012
 21
4.395
 31
0
  0
LINE
  8
0
 62
7
 10
7.220000000000012
 20
4.395
 30
0
 11
6.911446180699691
 21
4.395
 31
0
  0
LINE
  8
0
 62
7
 10
7.220000000000012
 20
4.145095790919695
 30
0
 11
6.157961729706764
 21
3.542110376121084
 31
0
  0
LINE
  8
0
 62
7
 10
7.220000000000012
 20
3.654158135634511
 30
0
 11
7.220000000000012
 21
4.145095790919695
 31
0
  0
LINE
  8
0
 62
7
 10
7.220000000000012
 20
3.747314249717784
 30
0
 11
6.310000000000011
 21
3.504213700590553
 31
0
  0
LINE
  8
0
 62
7
 10
6.310000000000011
 20
3.504213700590553
 30
0
 11
6.310000000000011
 21
3.440299034406852
 31
0
  0
LINE
  8
0
 62
7
 10
7.220000000000012
 20
3.39
 30
0
 11
7.220000000000012
 21
3.747314249717784
 31
0
  0
LINE
  8
0
 62
7
 10
4.165000000000012
 20
3.97305639517911
 30
0
 11
6.310000000058182
 21
3.97305639517911
 31
0
  0
LINE
  8
0
 62
7
 10
6.79805639517912
 20
3.4
 30
0
 11
6.692401295917422
 21
3.461
 31
0
  0
LINE
  8
0
 62
7
 10
6.692401295917422
 20
3.461
 30
0
 11
6.903711494440822
 21
3.461
 31
0
  0
LINE
  8
0
 62
7
 10
6.903711494440822
 20
3.461
 30
0
 11
6.79805639517912
 21
3.4
 31
0
  0
LINE
  8
0
 62
7
 10
6.79805639517912
 20
3.484999999990716
 30
0
 11
6.79805639517912
 21
3.4
 31
0
  0
LINE
  8
0
 62
7
 10
4.164999980000011
 20
8.596800069999997
 30
0
 11
4.484999970000012
 21
8.596800069999997
 31
0
  0
LINE
  8
0
 62
7
 10
4.164999980000011
 20
8.531800069999996
 30
0
 11
4.164999980000011
 21
8.596800069999997
 31
0
  0
LINE
  8
0
 62
7
 10
4.484999970000012
 20
8.596800069999997
 30
0
 11
4.484999970000012
 21
8.531800069999996
 31
0
  0
LINE
  8
0
 62
7
 10
4.484999970000012
 20
8.531800069999996
 30
0
 11
4.164999980000011
 21
8.531800069999996
 31
0
  0
LINE
  8
0
 62
7
 10
4.394999970000012
 20
8.793200059999995
 30
0
 11
4.715000000000011
 21
8.793200059999995
 31
0
  0
LINE
  8
0
 62
7
 10
4.394999970000012
 20
8.728200059999997
 30
0
 11
4.394999970000012
 21
8.793200059999995
 31
0
  0
LINE
  8
0
 62
7
 10
4.715000000000011
 20
8.793200059999995
 30
0
 11
4.715000000000011
 21
8.728200059999997
 31
0
  0
LINE
  8
0
 62
7
 10
4.715000000000011
 20
8.728200059999997
 30
0
 11
4.394999970000012
 21
8.728200059999997
 31
0
  0
LINE
  8
0
 62
7
 10
4.624999970000012
 20
8.989600059999997
 30
0
 11
4.945000000000011
 21
8.989600059999997
 31
0
  0
LINE
  8
0
 62
7
 10
4.624999970000012
 20
8.924600059999998
 30
0
 11
4.624999970000012
 21
8.989600059999997
 31
0
  0
LINE
  8
0
 62
7
 10
4.945000000000011
 20
8.989600059999997
 30
0
 11
4.945000000000011
 21
8.924600059999998
 31
0
  0
LINE
  8
0
 62
7
 10
4.945000000000011
 20
8.924600059999998
 30
0
 11
4.624999970000012
 21
8.924600059999998
 31
0
  0
LINE
  8
0
 62
7
 10
4.855000000000011
 20
9.186000049999999
 30
0
 11
5.175000080000013
 21
9.186000049999999
 31
0
  0
LINE
  8
0
 62
7
 10
4.855000000000011
 20
9.121000049999999
 30
0
 11
4.855000000000011
 21
9.186000049999999
 31
0
  0
LINE
  8
0
 62
7
 10
5.175000080000013
 20
9.186000049999999
 30
0
 11
5.175000080000013
 21
9.121000049999999
 31
0
  0
LINE
  8
0
 62
7
 10
5.175000080000013
 20
9.121000049999999
 30
0
 11
4.855000000000011
 21
9.121000049999999
 31
0
  0
LINE
  8
0
 62
7
 10
5.085000000000012
 20
9.382400049999999
 30
0
 11
5.405000160000011
 21
9.382400049999999
 31
0
  0
LINE
  8
0
 62
7
 10
5.085000000000012
 20
9.31740005
 30
0
 11
5.085000000000012
 21
9.382400049999999
 31
0
  0
LINE
  8
0
 62
7
 10
5.405000160000011
 20
9.382400049999999
 30
0
 11
5.405000160000011
 21
9.31740005
 31
0
  0
LINE
  8
0
 62
7
 10
5.405000160000011
 20
9.31740005
 30
0
 11
5.085000000000012
 21
9.31740005
 31
0
  0
LINE
  8
0
 62
7
 10
5.315000000000012
 20
9.513800039999998
 30
0
 11
5.315000000000012
 21
9.578800039999999
 31
0
  0
LINE
  8
0
 62
7
 10
5.315000000000012
 20
9.578800039999999
 30
0
 11
5.635000160000015
 21
9.578800039999999
 31
0
  0
LINE
  8
0
 62
7
 10
5.635000160000015
 20
9.578800039999999
 30
0
 11
5.635000160000015
 21
9.513800039999998
 31
0
  0
LINE
  8
0
 62
7
 10
5.635000160000015
 20
9.513800039999998
 30
0
 11
5.315000000000012
 21
9.513800039999998
 31
0
  0
LINE
  8
0
 62
7
 10
5.544999850000012
 20
9.775200029999999
 30
0
 11
5.963668220000015
 21
9.775200029999999
 31
0
  0
LINE
  8
0
 62
7
 10
5.963668220000015
 20
9.710200029999999
 30
0
 11
5.544999850000012
 21
9.710200029999999
 31
0
  0
LINE
  8
0
 62
7
 10
5.544999850000012
 20
9.710200029999999
 30
0
 11
5.544999850000012
 21
9.775200029999999
 31
0
  0
LINE
  8
0
 62
7
 10
5.963668220000015
 20
9.775200029999999
 30
0
 11
5.963668220000015
 21
9.710200029999999
 31
0
  0
LINE
  8
0
 62
7
 10
6.299093020000011
 20
9.906600029999996
 30
0
 11
5.663551030000014
 21
9.906600029999996
 31
0
  0
LINE
  8
0
 62
7
 10
5.663551030000014
 20
9.971600029999998
 30
0
 11
6.299093020000011
 21
9.971600029999998
 31
0
  0
LINE
  8
0
 62
7
 10
5.663551030000014
 20
9.906600029999996
 30
0
 11
5.663551030000014
 21
9.971600029999998
 31
0
  0
LINE
  8
0
 62
7
 10
6.299093020000011
 20
9.971600029999998
 30
0
 11
6.299093020000011
 21
9.906600029999996
 31
0
  0
LINE
  8
0
 62
7
 10
6.640377200000014
 20
10.10300002
 30
0
 11
5.779500740000015
 21
10.10300002
 31
0
  0
LINE
  8
0
 62
7
 10
5.779500740000015
 20
10.16800002
 30
0
 11
6.640377200000014
 21
10.16800002
 31
0
  0
LINE
  8
0
 62
7
 10
5.779500740000015
 20
10.10300002
 30
0
 11
5.779500740000015
 21
10.16800002
 31
0
  0
LINE
  8
0
 62
7
 10
6.640377200000014
 20
10.16800002
 30
0
 11
6.640377200000014
 21
10.10300002
 31
0
  0
LINE
  8
0
 62
7
 10
7.038872070000012
 20
10.29940002
 30
0
 11
5.89319718000001
 21
10.29940002
 31
0
  0
LINE
  8
0
 62
7
 10
5.89319718000001
 20
10.36440002
 30
0
 11
7.038872070000012
 21
10.36440002
 31
0
  0
LINE
  8
0
 62
7
 10
5.89319718000001
 20
10.29940002
 30
0
 11
5.89319718000001
 21
10.36440002
 31
0
  0
LINE
  8
0
 62
7
 10
7.038872070000012
 20
10.36440002
 30
0
 11
7.038872070000012
 21
10.29940002
 31
0
  0
LINE
  8
0
 62
7
 10
7.220000000000012
 20
10.49580001
 30
0
 11
5.999346930000011
 21
10.49580001
 31
0
  0
LINE
  8
0
 62
7
 10
5.999346930000011
 20
10.56080001
 30
0
 11
7.220000000000012
 21
10.56080001
 31
0
  0
LINE
  8
0
 62
7
 10
5.999346930000011
 20
10.49580001
 30
0
 11
5.999346930000011
 21
10.56080001
 31
0
  0
LINE
  8
0
 62
7
 10
7.220000000000012
 20
10.56080001
 30
0
 11
7.220000000000012
 21
10.49580001
 31
0
  0
LINE
  8
0
 62
7
 10
6.157961280000015
 20
10.7572
 30
0
 11
7.220000000000012
 21
10.7572
 31
0
  0
LINE
  8
0
 62
7
 10
7.220000000000012
 20
10.6922
 30
0
 11
6.157961280000015
 21
10.6922
 31
0
  0
LINE
  8
0
 62
7
 10
6.157961280000015
 20
10.6922
 30
0
 11
6.157961280000015
 21
10.7572
 31
0
  0
LINE
  8
0
 62
7
 10
7.220000000000012
 20
10.7572
 30
0
 11
7.220000000000012
 21
10.6922
 31
0
  0
LINE
  8
0
 62
7
  6
DASHED
 10
6.309999850000012
 20
10.95359999999999
 30
0
 11
7.220000000000012
 21
10.95359999999999
 31
0
  0
LINE
  8
0
 62
7
  6
DASHED
 10
6.309999850000012
 20
10.88859999999999
 30
0
 11
6.309999850000012
 21
10.95359999999999
 31
0
  0
LINE
  8
0
 62
7
  6
DASHED
 10
7.220000000000012
 20
10.95359999999999
 30
0
 11
7.220000000000012
 21
10.88859999999999
 31
0
  0
LINE
  8
0
 62
7
  6
DASHED
 10
7.220000000000012
 20
10.88859999999999
 30
0
 11
6.309999850000012
 21
10.88859999999999
 31
0
  0
LINE
  8
0
 62
7
 10
0.7950004499999996
 20
8.596800069999999
 30
0
 11
1.70500057
 21
8.596800069999999
 31
0
  0
LINE
  8
0
 62
7
 10
0.7950004499999996
 20
8.531800069999997
 30
0
 11
0.7950004499999996
 21
8.596800069999999
 31
0
  0
LINE
  8
0
 62
7
 10
1.70500057
 20
8.596800069999999
 30
0
 11
1.70500057
 21
8.531800069999997
 31
0
  0
LINE
  8
0
 62
7
 10
1.70500057
 20
8.531800069999997
 30
0
 11
0.7950004499999996
 21
8.531800069999997
 31
0
  0
LINE
  8
0
 62
7
 10
0.7949982300000011
 20
8.793200059999998
 30
0
 11
1.705000029999999
 21
8.793200059999998
 31
0
  0
LINE
  8
0
 62
7
 10
0.7949982300000011
 20
8.728200059999997
 30
0
 11
0.7949982300000011
 21
8.793200059999998
 31
0
  0
LINE
  8
0
 62
7
 10
1.705000029999999
 20
8.793200059999998
 30
0
 11
1.705000029999999
 21
8.728200059999997
 31
0
  0
LINE
  8
0
 62
7
 10
1.705000029999999
 20
8.728200059999997
 30
0
 11
0.7949982300000011
 21
8.728200059999997
 31
0
  0
LINE
  8
0
 62
7
 10
0.794999670000001
 20
8.989600059999997
 30
0
 11
1.704999879999999
 21
8.989600059999997
 31
0
  0
LINE
  8
0
 62
7
 10
0.794999670000001
 20
8.924600059999998
 30
0
 11
0.794999670000001
 21
8.989600059999997
 31
0
  0
LINE
  8
0
 62
7
 10
1.704999879999999
 20
8.989600059999997
 30
0
 11
1.704999879999999
 21
8.924600059999998
 31
0
  0
LINE
  8
0
 62
7
 10
1.704999879999999
 20
8.924600059999998
 30
0
 11
0.794999670000001
 21
8.924600059999998
 31
0
  0
LINE
  8
0
 62
7
 10
0.7949991300000002
 20
9.186000049999999
 30
0
 11
1.705000029999999
 21
9.186000049999999
 31
0
  0
LINE
  8
0
 62
7
 10
0.7949991300000002
 20
9.121000049999999
 30
0
 11
0.7949991300000002
 21
9.186000049999999
 31
0
  0
LINE
  8
0
 62
7
 10
1.705000029999999
 20
9.186000049999999
 30
0
 11
1.705000029999999
 21
9.121000049999999
 31
0
  0
LINE
  8
0
 62
7
 10
1.705000029999999
 20
9.121000049999999
 30
0
 11
0.7949991300000002
 21
9.121000049999999
 31
0
  0
LINE
  8
0
 62
7
 10
0.7949989900000021
 20
9.382400049999998
 30
0
 11
1.705000029999999
 21
9.382400049999998
 31
0
  0
LINE
  8
0
 62
7
 10
0.7949989900000021
 20
9.317400049999996
 30
0
 11
0.7949989900000021
 21
9.382400049999998
 31
0
  0
LINE
  8
0
 62
7
 10
1.705000029999999
 20
9.382400049999998
 30
0
 11
1.705000029999999
 21
9.317400049999996
 31
0
  0
LINE
  8
0
 62
7
 10
1.705000029999999
 20
9.317400049999996
 30
0
 11
0.7949989900000021
 21
9.317400049999996
 31
0
  0
LINE
  8
0
 62
7
 10
0.794999240000001
 20
9.578800039999997
 30
0
 11
1.705000260000001
 21
9.578800039999997
 31
0
  0
LINE
  8
0
 62
7
 10
0.794999240000001
 20
9.513800039999998
 30
0
 11
0.794999240000001
 21
9.578800039999997
 31
0
  0
LINE
  8
0
 62
7
 10
1.705000260000001
 20
9.578800039999997
 30
0
 11
1.705000260000001
 21
9.513800039999998
 31
0
  0
LINE
  8
0
 62
7
 10
1.705000260000001
 20
9.513800039999998
 30
0
 11
0.794999240000001
 21
9.513800039999998
 31
0
  0
LINE
  8
0
 62
7
 10
0.7949993400000023
 20
9.775200029999997
 30
0
 11
1.705000029999999
 21
9.775200029999997
 31
0
  0
LINE
  8
0
 62
7
 10
0.7949993400000023
 20
9.710200029999998
 30
0
 11
0.7949993400000023
 21
9.775200029999997
 31
0
  0
LINE
  8
0
 62
7
 10
1.705000029999999
 20
9.775200029999997
 30
0
 11
1.705000029999999
 21
9.710200029999998
 31
0
  0
LINE
  8
0
 62
7
 10
1.705000029999999
 20
9.710200029999998
 30
0
 11
0.7949993400000023
 21
9.710200029999998
 31
0
  0
LINE
  8
0
 62
7
 10
0.795
 20
9.971600029999998
 30
0
 11
1.705000190000003
 21
9.971600029999998
 31
0
  0
LINE
  8
0
 62
7
 10
0.795
 20
9.90660003
 30
0
 11
0.795
 21
9.971600029999998
 31
0
  0
LINE
  8
0
 62
7
 10
1.705000190000003
 20
9.971600029999998
 30
0
 11
1.705000190000003
 21
9.90660003
 31
0
  0
LINE
  8
0
 62
7
 10
1.705000190000003
 20
9.90660003
 30
0
 11
0.795
 21
9.90660003
 31
0
  0
LINE
  8
0
 62
7
 10
0.7949999700000008
 20
10.16800002
 30
0
 11
1.216943810000001
 21
10.16800002
 31
0
  0
LINE
  8
0
 62
7
 10
0.7949999700000008
 20
10.10300002
 30
0
 11
0.7949999700000008
 21
10.16800002
 31
0
  0
LINE
  8
0
 62
7
 10
1.216943810000001
 20
10.16800002
 30
0
 11
1.705000110000001
 21
10.16800002
 31
0
  0
LINE
  8
0
 62
7
 10
1.705000110000001
 20
10.16800002
 30
0
 11
1.705000110000001
 21
10.10300002
 31
0
  0
LINE
  8
0
 62
7
 10
1.705000110000001
 20
10.10300002
 30
0
 11
0.7949999700000008
 21
10.10300002
 31
0
  0
LINE
  8
0
 62
7
 10
0.7950001300000005
 20
10.36440002
 30
0
 11
1.705000340000003
 21
10.36440002
 31
0
  0
LINE
  8
0
 62
7
 10
0.7950001300000005
 20
10.29940002
 30
0
 11
0.7950001300000005
 21
10.36440002
 31
0
  0
LINE
  8
0
 62
7
 10
1.705000340000003
 20
10.36440002
 30
0
 11
1.705000340000003
 21
10.29940002
 31
0
  0
LINE
  8
0
 62
7
 10
1.705000340000003
 20
10.29940002
 30
0
 11
0.7950001300000005
 21
10.29940002
 31
0
  0
LINE
  8
0
 62
7
 10
0.7950001600000015
 20
10.56080001
 30
0
 11
1.705000110000001
 21
10.56080001
 31
0
  0
LINE
  8
0
 62
7
 10
1.705000110000001
 20
10.49580001
 30
0
 11
0.7950001600000015
 21
10.49580001
 31
0
  0
LINE
  8
0
 62
7
 10
0.7950001600000015
 20
10.49580001
 30
0
 11
0.7950001600000015
 21
10.56080001
 31
0
  0
LINE
  8
0
 62
7
 10
1.705000110000001
 20
10.56080001
 30
0
 11
1.705000110000001
 21
10.49580001
 31
0
  0
LINE
  8
0
 62
7
 10
1.770603900000002
 20
10.6922
 30
0
 11
1.044904399999999
 21
10.6922
 31
0
  0
LINE
  8
0
 62
7
 10
1.044904399999999
 20
10.7572
 30
0
 11
1.770603900000002
 21
10.7572
 31
0
  0
LINE
  8
0
 62
7
 10
1.044904399999999
 20
10.6922
 30
0
 11
1.044904399999999
 21
10.7572
 31
0
  0
LINE
  8
0
 62
7
 10
1.770603900000002
 20
10.7572
 30
0
 11
1.770603900000002
 21
10.6922
 31
0
  0
LINE
  8
0
 62
7
 10
1.442685960000001
 20
10.9536
 30
0
 11
1.800000260000001
 21
10.9536
 31
0
  0
LINE
  8
0
 62
7
 10
1.800000260000001
 20
10.8886
 30
0
 11
1.442685960000001
 21
10.8886
 31
0
  0
LINE
  8
0
 62
7
 10
1.442685960000001
 20
10.8886
 30
0
 11
1.442685960000001
 21
10.9536
 31
0
  0
LINE
  8
0
 62
7
 10
1.800000260000001
 20
10.9536
 30
0
 11
1.800000260000001
 21
10.8886
 31
0
  0
LINE
  8
0
 62
7
 10
4.265
 20
8.099999999999998
 30
0
 11
7.275000000000012
 21
8.099999999999998
 31
0
  0
LINE
  8
0
 62
7
 10
4.265
 20
8.299999999999997
 30
0
 11
4.265
 21
8.099999999999998
 31
0
  0
LINE
  8
0
 62
7
 10
0.7400000000000001
 20
8.399999999999997
 30
0
 11
0.7400000000000001
 21
8.299999999999997
 31
0
  0
LINE
  8
0
 62
7
  6
DASHED
 10
1.84
 20
8.399999999999997
 30
0
 11
0.7400000000000001
 21
8.399999999999997
 31
0
  0
LINE
  8
0
 62
7
 10
4.165
 20
4.969999999999999
 30
0
 11
7.275000000000012
 21
4.969999999999999
 31
0
  0
LINE
  8
0
 62
7
 10
4.165
 20
4.730000000000002
 30
0
 11
7.450000000000012
 21
4.730000000000002
 31
0
  0
LINE
  8
0
 62
7
 10
4.165
 20
4.730000000000002
 30
0
 11
4.165
 21
4.969999999999999
 31
0
  0
LINE
  8
0
 62
7
 10
4.165
 20
4.690000000000002
 30
0
 11
7.450000000000012
 21
4.690000000000002
 31
0
  0
LINE
  8
0
 62
7
 10
4.165
 20
4.450000000000002
 30
0
 11
4.265
 21
4.450000000000002
 31
0
  0
LINE
  8
0
 62
7
 10
4.165
 20
4.450000000000002
 30
0
 11
4.165
 21
4.690000000000002
 31
0
  0
LINE
  8
0
 62
7
  6
DASHDOT
 10
4.265
 20
3.400000000000001
 30
0
 11
4.265
 21
4.450000000000002
 31
0
  0
LINE
  8
0
 62
7
 10
7.275000000000012
 20
3.400000000000001
 30
0
 11
7.275000000000012
 21
3.350000000000001
 31
0
  0
LINE
  8
0
 62
7
 10
7.275000000000012
 20
3.400000000000001
 30
0
 11
4.265
 21
3.400000000000001
 31
0
  0
LINE
  8
0
 62
7
 10
4.125
 20
11.05
 30
0
 11
4.265
 21
11.05
 31
0
  0
LINE
  8
0
 62
7
 10
4.125
 20
11.05
 30
0
 11
4.265
 21
11.05
 31
0
  0
LINE
  8
0
 62
7
 10
4.125
 20
8.099999999999998
 30
0
 11
4.265
 21
8.099999999999998
 31
0
  0
LINE
  8
0
 62
7
 10
4.265
 20
8.299999999999997
 30
0
 11
7.275000000000012
 21
8.299999999999997
 31
0
  0
LINE
  8
0
 62
7
 10
4.265
 20
10.85
 30
0
 11
7.275000000000012
 21
10.85
 31
0
  0
LINE
  8
0
 62
7
 10
4.265
 20
11.05
 30
0
 11
7.275000000000012
 21
11.05
 31
0
  0
LINE
  8
0
 62
7
 10
7.275000000000012
 20
7.949999999999998
 30
0
 11
7.275000000000012
 21
8.099999999999998
 31
0
  0
LINE
  8
0
 62
7
 10
7.275000000000012
 20
8.099999999999998
 30
0
 11
7.450000000000012
 21
8.099999999999998
 31
0
  0
LINE
  8
0
 62
7
 10
7.275000000000012
 20
8.299999999999997
 30
0
 11
7.450000000000012
 21
8.299999999999997
 31
0
  0
LINE
  8
0
 62
7
 10
7.275000000000012
 20
10.85
 30
0
 11
7.450000000000012
 21
10.85
 31
0
  0
LINE
  8
0
 62
7
 10
7.275000000000012
 20
11.05
 30
0
 11
7.450000000000012
 21
11.05
 31
0
  0
LINE
  8
0
 62
7
 10
7.450000000000012
 20
7.949999999999998
 30
0
 11
7.450000000000012
 21
8.099999999999998
 31
0
  0
LINE
  8
0
 62
7
 10
7.450000000000012
 20
8.099999999999998
 30
0
 11
7.600000000000012
 21
8.099999999999998
 31
0
  0
LINE
  8
0
 62
7
 10
7.450000000000012
 20
8.299999999999997
 30
0
 11
7.450000000000012
 21
8.399999999999997
 31
0
  0
LINE
  8
0
 62
7
 10
7.450000000000012
 20
8.299999999999997
 30
0
 11
7.600000000000012
 21
8.299999999999997
 31
0
  0
LINE
  8
0
 62
7
 10
7.450000000000012
 20
10.85
 30
0
 11
7.600000000000012
 21
10.85
 31
0
  0
LINE
  8
0
 62
7
 10
7.450000000000012
 20
11.05
 30
0
 11
7.450000000000012
 21
11.15
 31
0
  0
LINE
  8
0
 62
7
 10
7.450000000000012
 20
11.05
 30
0
 11
7.600000000000012
 21
11.05
 31
0
  0
LINE
  8
0
 62
7
  6
DASHDOT
 10
4.125
 20
8.049999999999997
 30
0
 11
4.125
 21
8.099999999999998
 31
0
  0
LINE
  8
0
 62
7
  6
DASHDOT
 10
4.125
 20
10.8
 30
0
 11
4.125
 21
10.85
 31
0
  0
LINE
  8
0
 62
7
  6
DASHDOT
 10
7.600000000000012
 20
8.049999999999997
 30
0
 11
7.600000000000012
 21
8.099999999999998
 31
0
  0
LINE
  8
0
 62
7
  6
DASHDOT
 10
7.600000000000012
 20
10.8
 30
0
 11
7.600000000000012
 21
10.85
 31
0
  0
LINE
  8
0
 62
7
  6
DASHDOT
 10
7.225000000000012
 20
11.2
 30
0
 11
7.275000000000012
 21
11.2
 31
0
  0
LINE
  8
0
 62
7
  6
DASHDOT
 10
7.225000000000012
 20
7.949999999999998
 30
0
 11
7.275000000000012
 21
7.949999999999998
 31
0
  0
LINE
  8
0
 62
7
  6
DASHDOT
 10
4.125
 20
8.399999999999997
 30
0
 11
4.125
 21
8.449999999999998
 31
0
  0
LINE
  8
0
 62
7
 10
7.275000000000012
 20
8.399999999999997
 30
0
 11
7.275000000000012
 21
10.85
 31
0
  0
LINE
  8
0
 62
7
 10
7.450000000000012
 20
8.399999999999997
 30
0
 11
7.600000000000012
 21
8.399999999999997
 31
0
  0
LINE
  8
0
 62
7
 10
7.450000000000012
 20
8.399999999999997
 30
0
 11
7.450000000000012
 21
10.85
 31
0
  0
LINE
  8
0
 62
7
  6
DASHDOT
 10
7.600000000000012
 20
8.399999999999997
 30
0
 11
7.600000000000012
 21
8.449999999999998
 31
0
  0
LINE
  8
0
 62
7
  6
DASHDOT
 10
4.125
 20
11.15
 30
0
 11
4.125
 21
11.2
 31
0
  0
LINE
  8
0
 62
7
 10
7.275000000000012
 20
11.15
 30
0
 11
7.275000000000012
 21
11.2
 31
0
  0
LINE
  8
0
 62
7
 10
7.450000000000012
 20
11.15
 30
0
 11
7.600000000000012
 21
11.15
 31
0
  0
LINE
  8
0
 62
7
 10
7.450000000000012
 20
11.15
 30
0
 11
7.450000000000012
 21
11.2
 31
0
  0
LINE
  8
0
 62
7
  6
DASHDOT
 10
7.600000000000012
 20
11.15
 30
0
 11
7.600000000000012
 21
11.2
 31
0
  0
LINE
  8
0
 62
7
  6
DASHDOT
 10
7.600000000000012
 20
8.099999999999998
 30
0
 11
7.600000000000012
 21
8.299999999999997
 31
0
  0
LINE
  8
0
 62
7
  6
DASHDOT
 10
7.600000000000012
 20
8.299999999999997
 30
0
 11
7.600000000000012
 21
8.399999999999997
 31
0
  0
LINE
  8
0
 62
7
  6
DASHDOT
 10
7.275000000000012
 20
7.949999999999998
 30
0
 11
7.450000000000012
 21
7.949999999999998
 31
0
  0
LINE
  8
0
 62
7
  6
DASHDOT
 10
7.450000000000012
 20
7.949999999999998
 30
0
 11
7.500000000000012
 21
7.949999999999998
 31
0
  0
LINE
  8
0
 62
7
  6
DASHDOT
 10
4.125
 20
8.099999999999998
 30
0
 11
4.125
 21
8.299999999999997
 31
0
  0
LINE
  8
0
 62
7
  6
DASHDOT
 10
4.125
 20
8.299999999999997
 30
0
 11
4.125
 21
8.399999999999997
 31
0
  0
LINE
  8
0
 62
7
  6
DASHDOT
 10
4.125
 20
10.85
 30
0
 11
4.125
 21
11.05
 31
0
  0
LINE
  8
0
 62
7
  6
DASHDOT
 10
4.125
 20
11.05
 30
0
 11
4.125
 21
11.15
 31
0
  0
LINE
  8
0
 62
7
  6
DASHDOT
 10
7.600000000000012
 20
10.85
 30
0
 11
7.600000000000012
 21
11.05
 31
0
  0
LINE
  8
0
 62
7
  6
DASHDOT
 10
7.600000000000012
 20
11.05
 30
0
 11
7.600000000000012
 21
11.15
 31
0
  0
LINE
  8
0
 62
7
  6
DASHDOT
 10
7.275000000000012
 20
11.2
 30
0
 11
7.450000000000012
 21
11.2
 31
0
  0
LINE
  8
0
 62
7
  6
DASHDOT
 10
7.450000000000012
 20
11.2
 30
0
 11
7.500000000000012
 21
11.2
 31
0
  0
LINE
  8
0
 62
7
 10
0.5
 20
7.949999999999998
 30
0
 11
0.5
 21
8.099999999999998
 31
0
  0
LINE
  8
0
 62
7
 10
0.7400000000000001
 20
11.2
 30
0
 11
0.7400000000000001
 21
11.15
 31
0
  0
LINE
  8
0
 62
7
 10
0.5
 20
11.05
 30
0
 11
0.7400000000000001
 21
11.05
 31
0
  0
LINE
  8
0
 62
7
 10
0.5
 20
11.05
 30
0
 11
0.5
 21
11.2
 31
0
  0
LINE
  8
0
 62
7
 10
0.7400000000000001
 20
11.05
 30
0
 11
0.7400000000000001
 21
10.85
 31
0
  0
LINE
  8
0
 62
7
 10
0.5
 20
10.85
 30
0
 11
0.7400000000000001
 21
10.85
 31
0
  0
LINE
  8
0
 62
7
 10
0.5
 20
10.85
 30
0
 11
0.5
 21
11.05
 31
0
  0
LINE
  8
0
 62
7
 10
0.7400000000000001
 20
10.85
 30
0
 11
0.7400000000000001
 21
8.399999999999997
 31
0
  0
LINE
  8
0
 62
7
 10
0.5
 20
8.299999999999997
 30
0
 11
0.7400000000000001
 21
8.299999999999997
 31
0
  0
LINE
  8
0
 62
7
 10
0.5
 20
8.299999999999997
 30
0
 11
0.5
 21
10.85
 31
0
  0
LINE
  8
0
 62
7
 10
0.7400000000000001
 20
8.299999999999997
 30
0
 11
0.7400000000000001
 21
8.099999999999998
 31
0
  0
LINE
  8
0
 62
7
 10
0.5
 20
8.099999999999998
 30
0
 11
0.7400000000000001
 21
8.099999999999998
 31
0
  0
LINE
  8
0
 62
7
 10
0.5
 20
8.099999999999998
 30
0
 11
0.5
 21
8.299999999999997
 31
0
  0
LINE
  8
0
 62
7
 10
0.7400000000000001
 20
8.099999999999998
 30
0
 11
0.7400000000000001
 21
7.949999999999998
 31
0
  0
LINE
  8
0
 62
7
 10
1.84
 20
11.05
 30
0
 11
1.84
 21
10.85
 31
0
  0
LINE
  8
0
 62
7
 10
1.84
 20
10.85
 30
0
 11
2.14
 21
10.85
 31
0
  0
LINE
  8
0
 62
7
 10
1.84
 20
11.05
 30
0
 11
2.14
 21
11.05
 31
0
  0
LINE
  8
0
 62
7
 10
1.84
 20
8.299999999999997
 30
0
 11
2.14
 21
8.299999999999997
 31
0
  0
LINE
  8
0
 62
7
 10
1.84
 20
8.299999999999997
 30
0
 11
1.84
 21
8.099999999999998
 31
0
  0
LINE
  8
0
 62
7
 10
1.84
 20
8.099999999999998
 30
0
 11
2.14
 21
8.099999999999998
 31
0
  0
LINE
  8
0
 62
7
  6
DASHDOT
 10
0.45
 20
11.2
 30
0
 11
0.5
 21
11.2
 31
0
  0
LINE
  8
0
 62
7
  6
DASHDOT
 10
2.14
 20
11.2
 30
0
 11
2.14
 21
11.15
 31
0
  0
LINE
  8
0
 62
7
  6
DASHDOT
 10
2.14
 20
8.049999999999997
 30
0
 11
2.14
 21
8.099999999999998
 31
0
  0
LINE
  8
0
 62
7
  6
DASHDOT
 10
0.45
 20
7.949999999999998
 30
0
 11
0.5
 21
7.949999999999998
 31
0
  0
LINE
  8
0
 62
7
 10
1.84
 20
8.399999999999997
 30
0
 11
2.14
 21
8.399999999999997
 31
0
  0
LINE
  8
0
 62
7
  6
DASHDOT
 10
2.14
 20
8.399999999999997
 30
0
 11
2.14
 21
8.449999999999998
 31
0
  0
LINE
  8
0
 62
7
 10
1.84
 20
11.15
 30
0
 11
2.14
 21
11.15
 31
0
  0
LINE
  8
0
 62
7
  6
DASHDOT
 10
2.14
 20
11.15
 30
0
 11
2.14
 21
11.05
 31
0
  0
LINE
  8
0
 62
7
  6
DASHDOT
 10
2.14
 20
8.299999999999997
 30
0
 11
2.14
 21
8.399999999999997
 31
0
  0
LINE
  8
0
 62
7
  6
DASHDOT
 10
2.14
 20
8.099999999999998
 30
0
 11
2.14
 21
8.299999999999997
 31
0
  0
LINE
  8
0
 62
7
  6
DASHDOT
 10
0.5
 20
7.949999999999998
 30
0
 11
0.7400000000000001
 21
7.949999999999998
 31
0
  0
LINE
  8
0
 62
7
  6
DASHDOT
 10
0.7400000000000001
 20
7.949999999999998
 30
0
 11
0.79
 21
7.949999999999998
 31
0
  0
LINE
  8
0
 62
7
  6
DASHDOT
 10
0.7400000000000001
 20
11.2
 30
0
 11
0.79
 21
11.2
 31
0
  0
LINE
  8
0
 62
7
  6
DASHDOT
 10
0.5
 20
11.2
 30
0
 11
0.7400000000000001
 21
11.2
 31
0
  0
LINE
  8
0
 62
7
  6
DASHDOT
 10
2.14
 20
10.85
 30
0
 11
2.14
 21
10.8
 31
0
  0
LINE
  8
0
 62
7
  6
DASHDOT
 10
2.14
 20
11.05
 30
0
 11
2.14
 21
10.85
 31
0
  0
LINE
  8
0
 62
7
  6
DASHED
 10
0.7400000000000001
 20
11.05
 30
0
 11
1.84
 21
11.05
 31
0
  0
LINE
  8
0
 62
7
  6
DASHED
 10
0.7400000000000001
 20
10.85
 30
0
 11
1.84
 21
10.85
 31
0
  0
LINE
  8
0
 62
7
  6
DASHED
 10
0.7400000000000001
 20
8.299999999999997
 30
0
 11
1.84
 21
8.299999999999997
 31
0
  0
LINE
  8
0
 62
7
  6
DASHED
 10
0.7400000000000001
 20
8.099999999999998
 30
0
 11
1.84
 21
8.099999999999998
 31
0
  0
LINE
  8
0
 62
7
 10
7.275000000000012
 20
4.969999999999999
 30
0
 11
7.275000000000012
 21
5.119999999999998
 31
0
  0
LINE
  8
0
 62
7
 10
7.275000000000012
 20
3.350000000000001
 30
0
 11
7.450000000000012
 21
3.350000000000001
 31
0
  0
LINE
  8
0
 62
7
 10
7.450000000000012
 20
3.350000000000001
 30
0
 11
7.450000000000012
 21
4.690000000000002
 31
0
  0
LINE
  8
0
 62
7
 10
4.265
 20
4.450000000000002
 30
0
 11
7.275000000000012
 21
4.450000000000002
 31
0
  0
LINE
  8
0
 62
7
  6
DASHDOT
 10
4.265
 20
3.350000000000001
 30
0
 11
4.265
 21
3.400000000000001
 31
0
  0
LINE
  8
0
 62
7
  6
DASHDOT
 10
7.275000000000012
 20
3.350000000000001
 30
0
 11
4.265
 21
3.350000000000001
 31
0
  0
LINE
  8
0
 62
7
 10
7.275000000000012
 20
4.450000000000002
 30
0
 11
7.275000000000012
 21
3.400000000000001
 31
0
  0
LINE
  8
0
 62
7
  6
DASHDOT
 10
7.450000000000012
 20
5.119999999999998
 30
0
 11
7.500000000000012
 21
5.119999999999998
 31
0
  0
LINE
  8
0
 62
7
  6
DASHDOT
 10
7.275000000000012
 20
5.119999999999998
 30
0
 11
7.450000000000012
 21
5.119999999999998
 31
0
  0
LINE
  8
0
 62
7
  6
DASHDOT
 10
7.225000000000012
 20
5.119999999999998
 30
0
 11
7.275000000000012
 21
5.119999999999998
 31
0
  0
LINE
  8
0
 62
7
 10
7.450000000000012
 20
4.730000000000002
 30
0
 11
7.450000000000012
 21
5.119999999999998
 31
0
  0
LINE
  8
0
 62
7
 10
4.125
 20
8.399999999999997
 30
0
 11
7.275000000000012
 21
8.399999999999997
 31
0
  0
LINE
  8
0
 62
7
 10
7.275000000000012
 20
8.299999999999997
 30
0
 11
7.275000000000012
 21
8.399999999999997
 31
0
  0
LINE
  8
0
 62
7
 10
4.125
 20
8.299999999999997
 30
0
 11
4.265
 21
8.299999999999997
 31
0
  0
LINE
  8
0
 62
7
 10
7.275000000000012
 20
11.15
 30
0
 11
4.125
 21
11.15
 31
0
  0
LINE
  8
0
 62
7
 10
7.275000000000012
 20
11.05
 30
0
 11
7.275000000000012
 21
11.15
 31
0
  0
LINE
  8
0
 62
7
 10
4.265
 20
10.85
 30
0
 11
4.265
 21
11.05
 31
0
  0
LINE
  8
0
 62
7
 10
4.125
 20
10.85
 30
0
 11
4.265
 21
10.85
 31
0
  0
LINE
  8
0
 62
7
  6
DASHED
 10
1.84
 20
11.15
 30
0
 11
0.7400000000000001
 21
11.15
 31
0
  0
LINE
  8
0
 62
7
 10
0.7400000000000001
 20
11.15
 30
0
 11
0.7400000000000001
 21
11.05
 31
0
  0
LINE
  8
0
 62
7
 10
4.84862450647249
 20
4.151696138079831
 30
0
 11
4.84862450647249
 21
4.271696138079832
 31
0
  0
LINE
  8
0
 62
7
 10
4.924224506472491
 20
4.271696138079832
 30
0
 11
4.870224506472492
 21
4.211696138079832
 31
0
  0
LINE
  8
0
 62
7
 10
4.870224506472492
 20
4.211696138079832
 30
0
 11
4.924224506472491
 21
4.151696138079831
 31
0
  0
LINE
  8
0
 62
7
 10
4.870224506472492
 20
4.211696138079832
 30
0
 11
4.84862450647249
 21
4.187696138079832
 31
0
  0
LINE
  8
0
 62
7
 10
5.032224506472491
 20
4.271696138079832
 30
0
 11
4.95662450647249
 21
4.271696138079832
 31
0
  0
LINE
  8
0
 62
7
 10
4.95662450647249
 20
4.271696138079832
 30
0
 11
4.95662450647249
 21
4.211696138079832
 31
0
  0
LINE
  8
0
 62
7
 10
4.95662450647249
 20
4.151696138079831
 30
0
 11
5.032224506472491
 21
4.151696138079831
 31
0
  0
LINE
  8
0
 62
7
 10
5.02142450647249
 20
4.211696138079832
 30
0
 11
4.95662450647249
 21
4.211696138079832
 31
0
  0
LINE
  8
0
 62
7
 10
4.95662450647249
 20
4.211696138079832
 30
0
 11
4.95662450647249
 21
4.151696138079831
 31
0
  0
LINE
  8
0
 62
7
 10
5.064624506472491
 20
4.151696138079831
 30
0
 11
5.064624506472491
 21
4.271696138079832
 31
0
  0
LINE
  8
0
 62
7
 10
5.064624506472491
 20
4.271696138079832
 30
0
 11
5.140224506472491
 21
4.151696138079831
 31
0
  0
LINE
  8
0
 62
7
 10
5.140224506472491
 20
4.151696138079831
 30
0
 11
5.140224506472491
 21
4.271696138079832
 31
0
  0
LINE
  8
0
 62
7
 10
5.172624506472491
 20
4.151696138079831
 30
0
 11
5.172624506472491
 21
4.271696138079832
 31
0
  0
LINE
  8
0
 62
7
 10
5.172624506472491
 20
4.271696138079832
 30
0
 11
5.248224506472491
 21
4.151696138079831
 31
0
  0
LINE
  8
0
 62
7
 10
5.248224506472491
 20
4.151696138079831
 30
0
 11
5.248224506472491
 21
4.271696138079832
 31
0
  0
LINE
  8
0
 62
7
 10
5.356224506472491
 20
4.235696138079833
 30
0
 11
5.35352450647249
 21
4.247696138079831
 31
0
  0
LINE
  8
0
 62
7
 10
5.35352450647249
 20
4.247696138079831
 30
0
 11
5.348124506472491
 21
4.256696138079831
 31
0
  0
LINE
  8
0
 62
7
 10
5.348124506472491
 20
4.256696138079831
 30
0
 11
5.34272450647249
 21
4.262696138079831
 31
0
  0
LINE
  8
0
 62
7
 10
5.34272450647249
 20
4.262696138079831
 30
0
 11
5.334624506472491
 21
4.268696138079831
 31
0
  0
LINE
  8
0
 62
7
 10
5.334624506472491
 20
4.268696138079831
 30
0
 11
5.32652450647249
 21
4.271696138079832
 31
0
  0
LINE
  8
0
 62
7
 10
5.32652450647249
 20
4.271696138079832
 30
0
 11
5.31032450647249
 21
4.271696138079832
 31
0
  0
LINE
  8
0
 62
7
 10
5.31032450647249
 20
4.271696138079832
 30
0
 11
5.302224506472491
 21
4.268696138079831
 31
0
  0
LINE
  8
0
 62
7
 10
5.302224506472491
 20
4.268696138079831
 30
0
 11
5.294124506472491
 21
4.262696138079831
 31
0
  0
LINE
  8
0
 62
7
 10
5.294124506472491
 20
4.262696138079831
 30
0
 11
5.288724506472491
 21
4.256696138079831
 31
0
  0
LINE
  8
0
 62
7
 10
5.288724506472491
 20
4.256696138079831
 30
0
 11
5.28332450647249
 21
4.247696138079831
 31
0
  0
LINE
  8
0
 62
7
 10
5.28332450647249
 20
4.247696138079831
 30
0
 11
5.28062450647249
 21
4.235696138079833
 31
0
  0
LINE
  8
0
 62
7
 10
5.28062450647249
 20
4.235696138079833
 30
0
 11
5.28062450647249
 21
4.187696138079832
 31
0
  0
LINE
  8
0
 62
7
 10
5.28062450647249
 20
4.187696138079832
 30
0
 11
5.28332450647249
 21
4.175696138079832
 31
0
  0
LINE
  8
0
 62
7
 10
5.28332450647249
 20
4.175696138079832
 30
0
 11
5.288724506472491
 21
4.166696138079831
 31
0
  0
LINE
  8
0
 62
7
 10
5.288724506472491
 20
4.166696138079831
 30
0
 11
5.294124506472491
 21
4.160696138079833
 31
0
  0
LINE
  8
0
 62
7
 10
5.294124506472491
 20
4.160696138079833
 30
0
 11
5.302224506472491
 21
4.154696138079832
 31
0
  0
LINE
  8
0
 62
7
 10
5.302224506472491
 20
4.154696138079832
 30
0
 11
5.31032450647249
 21
4.151696138079831
 31
0
  0
LINE
  8
0
 62
7
 10
5.31032450647249
 20
4.151696138079831
 30
0
 11
5.32652450647249
 21
4.151696138079831
 31
0
  0
LINE
  8
0
 62
7
 10
5.32652450647249
 20
4.151696138079831
 30
0
 11
5.334624506472491
 21
4.154696138079832
 31
0
  0
LINE
  8
0
 62
7
 10
5.334624506472491
 20
4.154696138079832
 30
0
 11
5.34272450647249
 21
4.160696138079833
 31
0
  0
LINE
  8
0
 62
7
 10
5.34272450647249
 20
4.160696138079833
 30
0
 11
5.348124506472491
 21
4.166696138079831
 31
0
  0
LINE
  8
0
 62
7
 10
5.348124506472491
 20
4.166696138079831
 30
0
 11
5.35352450647249
 21
4.175696138079832
 31
0
  0
LINE
  8
0
 62
7
 10
5.35352450647249
 20
4.175696138079832
 30
0
 11
5.356224506472491
 21
4.187696138079832
 31
0
  0
LINE
  8
0
 62
7
 10
5.356224506472491
 20
4.187696138079832
 30
0
 11
5.356224506472491
 21
4.211696138079832
 31
0
  0
LINE
  8
0
 62
7
 10
5.356224506472491
 20
4.211696138079832
 30
0
 11
5.323824506472491
 21
4.211696138079832
 31
0
  0
LINE
  8
0
 62
7
 10
5.43452450647249
 20
4.271696138079832
 30
0
 11
5.418324506472491
 21
4.271696138079832
 31
0
  0
LINE
  8
0
 62
7
 10
5.418324506472491
 20
4.271696138079832
 30
0
 11
5.410224506472491
 21
4.268696138079831
 31
0
  0
LINE
  8
0
 62
7
 10
5.410224506472491
 20
4.268696138079831
 30
0
 11
5.402124506472491
 21
4.262696138079831
 31
0
  0
LINE
  8
0
 62
7
 10
5.402124506472491
 20
4.262696138079831
 30
0
 11
5.396724506472491
 21
4.256696138079831
 31
0
  0
LINE
  8
0
 62
7
 10
5.396724506472491
 20
4.256696138079831
 30
0
 11
5.391324506472491
 21
4.247696138079831
 31
0
  0
LINE
  8
0
 62
7
 10
5.391324506472491
 20
4.247696138079831
 30
0
 11
5.388624506472491
 21
4.235696138079833
 31
0
  0
LINE
  8
0
 62
7
 10
5.388624506472491
 20
4.235696138079833
 30
0
 11
5.388624506472491
 21
4.187696138079832
 31
0
  0
LINE
  8
0
 62
7
 10
5.388624506472491
 20
4.187696138079832
 30
0
 11
5.391324506472491
 21
4.175696138079832
 31
0
  0
LINE
  8
0
 62
7
 10
5.391324506472491
 20
4.175696138079832
 30
0
 11
5.396724506472491
 21
4.166696138079831
 31
0
  0
LINE
  8
0
 62
7
 10
5.396724506472491
 20
4.166696138079831
 30
0
 11
5.402124506472491
 21
4.160696138079833
 31
0
  0
LINE
  8
0
 62
7
 10
5.402124506472491
 20
4.160696138079833
 30
0
 11
5.410224506472491
 21
4.154696138079832
 31
0
  0
LINE
  8
0
 62
7
 10
5.410224506472491
 20
4.154696138079832
 30
0
 11
5.418324506472491
 21
4.151696138079831
 31
0
  0
LINE
  8
0
 62
7
 10
5.418324506472491
 20
4.151696138079831
 30
0
 11
5.43452450647249
 21
4.151696138079831
 31
0
  0
LINE
  8
0
 62
7
 10
5.43452450647249
 20
4.151696138079831
 30
0
 11
5.442624506472491
 21
4.154696138079832
 31
0
  0
LINE
  8
0
 62
7
 10
5.442624506472491
 20
4.154696138079832
 30
0
 11
5.450724506472491
 21
4.160696138079833
 31
0
  0
LINE
  8
0
 62
7
 10
5.450724506472491
 20
4.160696138079833
 30
0
 11
5.456124506472491
 21
4.166696138079831
 31
0
  0
LINE
  8
0
 62
7
 10
5.456124506472491
 20
4.166696138079831
 30
0
 11
5.46152450647249
 21
4.175696138079832
 31
0
  0
LINE
  8
0
 62
7
 10
5.46152450647249
 20
4.175696138079832
 30
0
 11
5.464224506472491
 21
4.187696138079832
 31
0
  0
LINE
  8
0
 62
7
 10
5.464224506472491
 20
4.187696138079832
 30
0
 11
5.464224506472491
 21
4.235696138079833
 31
0
  0
LINE
  8
0
 62
7
 10
5.464224506472491
 20
4.235696138079833
 30
0
 11
5.46152450647249
 21
4.247696138079831
 31
0
  0
LINE
  8
0
 62
7
 10
5.46152450647249
 20
4.247696138079831
 30
0
 11
5.456124506472491
 21
4.256696138079831
 31
0
  0
LINE
  8
0
 62
7
 10
5.456124506472491
 20
4.256696138079831
 30
0
 11
5.450724506472491
 21
4.262696138079831
 31
0
  0
LINE
  8
0
 62
7
 10
5.450724506472491
 20
4.262696138079831
 30
0
 11
5.442624506472491
 21
4.268696138079831
 31
0
  0
LINE
  8
0
 62
7
 10
5.442624506472491
 20
4.268696138079831
 30
0
 11
5.43452450647249
 21
4.271696138079832
 31
0
  0
LINE
  8
0
 62
7
 10
5.485824506472491
 20
4.271696138079832
 30
0
 11
5.523624506472492
 21
4.271696138079832
 31
0
  0
LINE
  8
0
 62
7
 10
5.523624506472492
 20
4.271696138079832
 30
0
 11
5.523624506472492
 21
4.151696138079831
 31
0
  0
LINE
  8
0
 62
7
 10
5.523624506472492
 20
4.271696138079832
 30
0
 11
5.561424506472491
 21
4.271696138079832
 31
0
  0
LINE
  8
0
 62
7
 10
5.593824506472492
 20
4.271696138079832
 30
0
 11
5.631624506472491
 21
4.271696138079832
 31
0
  0
LINE
  8
0
 62
7
 10
5.631624506472491
 20
4.271696138079832
 30
0
 11
5.631624506472491
 21
4.151696138079831
 31
0
  0
LINE
  8
0
 62
7
 10
5.631624506472491
 20
4.271696138079832
 30
0
 11
5.669424506472492
 21
4.271696138079832
 31
0
  0
LINE
  8
0
 62
7
 10
5.788224506472491
 20
4.193696138079832
 30
0
 11
5.84222450647249
 21
4.193696138079832
 31
0
  0
LINE
  8
0
 62
7
 10
5.950224506472491
 20
4.271696138079832
 30
0
 11
5.988024506472492
 21
4.271696138079832
 31
0
  0
LINE
  8
0
 62
7
 10
5.988024506472492
 20
4.271696138079832
 30
0
 11
5.988024506472492
 21
4.151696138079831
 31
0
  0
LINE
  8
0
 62
7
 10
5.988024506472492
 20
4.271696138079832
 30
0
 11
6.025824506472492
 21
4.271696138079832
 31
0
  0
LINE
  8
0
 62
7
 10
6.058224506472491
 20
4.151696138079831
 30
0
 11
6.058224506472491
 21
4.271696138079832
 31
0
  0
LINE
  8
0
 62
7
 10
6.058224506472491
 20
4.271696138079832
 30
0
 11
6.109524506472491
 21
4.271696138079832
 31
0
  0
LINE
  8
0
 62
7
 10
6.109524506472491
 20
4.271696138079832
 30
0
 11
6.120324506472492
 21
4.268696138079831
 31
0
  0
LINE
  8
0
 62
7
 10
6.120324506472492
 20
4.268696138079831
 30
0
 11
6.128424506472491
 21
4.262696138079831
 31
0
  0
LINE
  8
0
 62
7
 10
6.128424506472491
 20
4.262696138079831
 30
0
 11
6.13112450647249
 21
4.256696138079831
 31
0
  0
LINE
  8
0
 62
7
 10
6.13112450647249
 20
4.256696138079831
 30
0
 11
6.133824506472492
 21
4.247696138079831
 31
0
  0
LINE
  8
0
 62
7
 10
6.133824506472492
 20
4.247696138079831
 30
0
 11
6.133824506472492
 21
4.235696138079833
 31
0
  0
LINE
  8
0
 62
7
 10
6.133824506472492
 20
4.235696138079833
 30
0
 11
6.13112450647249
 21
4.226696138079832
 31
0
  0
LINE
  8
0
 62
7
 10
6.13112450647249
 20
4.226696138079832
 30
0
 11
6.128424506472491
 21
4.220696138079832
 31
0
  0
LINE
  8
0
 62
7
 10
6.128424506472491
 20
4.220696138079832
 30
0
 11
6.120324506472492
 21
4.214696138079831
 31
0
  0
LINE
  8
0
 62
7
 10
6.120324506472492
 20
4.214696138079831
 30
0
 11
6.109524506472491
 21
4.211696138079832
 31
0
  0
LINE
  8
0
 62
7
 10
6.109524506472491
 20
4.211696138079832
 30
0
 11
6.10142450647249
 21
4.211696138079832
 31
0
  0
LINE
  8
0
 62
7
 10
6.10142450647249
 20
4.211696138079832
 30
0
 11
6.133824506472492
 21
4.151696138079831
 31
0
  0
LINE
  8
0
 62
7
 10
6.10142450647249
 20
4.211696138079832
 30
0
 11
6.058224506472491
 21
4.211696138079832
 31
0
  0
LINE
  8
0
 62
7
 10
6.231024506472492
 20
4.271696138079832
 30
0
 11
6.155424506472492
 21
4.271696138079832
 31
0
  0
LINE
  8
0
 62
7
 10
6.155424506472492
 20
4.271696138079832
 30
0
 11
6.155424506472492
 21
4.211696138079832
 31
0
  0
LINE
  8
0
 62
7
 10
6.155424506472492
 20
4.151696138079831
 30
0
 11
6.231024506472492
 21
4.151696138079831
 31
0
  0
LINE
  8
0
 62
7
 10
6.220224506472491
 20
4.211696138079832
 30
0
 11
6.155424506472492
 21
4.211696138079832
 31
0
  0
LINE
  8
0
 62
7
 10
6.155424506472492
 20
4.211696138079832
 30
0
 11
6.155424506472492
 21
4.151696138079831
 31
0
  0
LINE
  8
0
 62
7
 10
6.263424506472493
 20
4.151696138079831
 30
0
 11
6.263424506472493
 21
4.211696138079832
 31
0
  0
LINE
  8
0
 62
7
 10
6.263424506472493
 20
4.271696138079832
 30
0
 11
6.314724506472492
 21
4.271696138079832
 31
0
  0
LINE
  8
0
 62
7
 10
6.314724506472492
 20
4.271696138079832
 30
0
 11
6.325524506472493
 21
4.268696138079831
 31
0
  0
LINE
  8
0
 62
7
 10
6.325524506472493
 20
4.268696138079831
 30
0
 11
6.333624506472493
 21
4.262696138079831
 31
0
  0
LINE
  8
0
 62
7
 10
6.333624506472493
 20
4.262696138079831
 30
0
 11
6.336324506472492
 21
4.256696138079831
 31
0
  0
LINE
  8
0
 62
7
 10
6.336324506472492
 20
4.256696138079831
 30
0
 11
6.339024506472493
 21
4.247696138079831
 31
0
  0
LINE
  8
0
 62
7
 10
6.339024506472493
 20
4.247696138079831
 30
0
 11
6.339024506472493
 21
4.235696138079833
 31
0
  0
LINE
  8
0
 62
7
 10
6.339024506472493
 20
4.235696138079833
 30
0
 11
6.336324506472492
 21
4.226696138079832
 31
0
  0
LINE
  8
0
 62
7
 10
6.336324506472492
 20
4.226696138079832
 30
0
 11
6.333624506472493
 21
4.220696138079832
 31
0
  0
LINE
  8
0
 62
7
 10
6.333624506472493
 20
4.220696138079832
 30
0
 11
6.325524506472493
 21
4.214696138079831
 31
0
  0
LINE
  8
0
 62
7
 10
6.325524506472493
 20
4.214696138079831
 30
0
 11
6.314724506472492
 21
4.211696138079832
 31
0
  0
LINE
  8
0
 62
7
 10
6.314724506472492
 20
4.211696138079832
 30
0
 11
6.263424506472493
 21
4.211696138079832
 31
0
  0
LINE
  8
0
 62
7
 10
6.263424506472493
 20
4.211696138079832
 30
0
 11
6.263424506472493
 21
4.271696138079832
 31
0
  0
LINE
  8
0
 62
7
 10
6.360624506472491
 20
4.151696138079831
 30
0
 11
6.360624506472491
 21
4.211696138079832
 31
0
  0
LINE
  8
0
 62
7
 10
6.360624506472491
 20
4.271696138079832
 30
0
 11
6.411924506472492
 21
4.271696138079832
 31
0
  0
LINE
  8
0
 62
7
 10
6.411924506472492
 20
4.271696138079832
 30
0
 11
6.422724506472491
 21
4.268696138079831
 31
0
  0
LINE
  8
0
 62
7
 10
6.422724506472491
 20
4.268696138079831
 30
0
 11
6.43082450647249
 21
4.262696138079831
 31
0
  0
LINE
  8
0
 62
7
 10
6.43082450647249
 20
4.262696138079831
 30
0
 11
6.433524506472491
 21
4.256696138079831
 31
0
  0
LINE
  8
0
 62
7
 10
6.433524506472491
 20
4.256696138079831
 30
0
 11
6.436224506472492
 21
4.247696138079831
 31
0
  0
LINE
  8
0
 62
7
 10
6.436224506472492
 20
4.247696138079831
 30
0
 11
6.436224506472492
 21
4.235696138079833
 31
0
  0
LINE
  8
0
 62
7
 10
6.436224506472492
 20
4.235696138079833
 30
0
 11
6.433524506472491
 21
4.226696138079832
 31
0
  0
LINE
  8
0
 62
7
 10
6.433524506472491
 20
4.226696138079832
 30
0
 11
6.43082450647249
 21
4.220696138079832
 31
0
  0
LINE
  8
0
 62
7
 10
6.43082450647249
 20
4.220696138079832
 30
0
 11
6.422724506472491
 21
4.214696138079831
 31
0
  0
LINE
  8
0
 62
7
 10
6.422724506472491
 20
4.214696138079831
 30
0
 11
6.411924506472492
 21
4.211696138079832
 31
0
  0
LINE
  8
0
 62
7
 10
6.411924506472492
 20
4.211696138079832
 30
0
 11
6.360624506472491
 21
4.211696138079832
 31
0
  0
LINE
  8
0
 62
7
 10
6.360624506472491
 20
4.211696138079832
 30
0
 11
6.360624506472491
 21
4.271696138079832
 31
0
  0
LINE
  8
0
 62
7
 10
6.533424506472493
 20
4.271696138079832
 30
0
 11
6.457824506472491
 21
4.271696138079832
 31
0
  0
LINE
  8
0
 62
7
 10
6.457824506472491
 20
4.271696138079832
 30
0
 11
6.457824506472491
 21
4.211696138079832
 31
0
  0
LINE
  8
0
 62
7
 10
6.457824506472491
 20
4.151696138079831
 30
0
 11
6.533424506472493
 21
4.151696138079831
 31
0
  0
LINE
  8
0
 62
7
 10
6.522624506472493
 20
4.211696138079832
 30
0
 11
6.457824506472491
 21
4.211696138079832
 31
0
  0
LINE
  8
0
 62
7
 10
6.457824506472491
 20
4.211696138079832
 30
0
 11
6.457824506472491
 21
4.151696138079831
 31
0
  0
LINE
  8
0
 62
7
 10
4.325000000000011
 20
2.500000000000001
 30
0
 11
4.325000000000011
 21
2.620000000000001
 31
0
  0
LINE
  8
0
 62
7
 10
4.400600000000011
 20
2.620000000000001
 30
0
 11
4.346600000000012
 21
2.560000000000001
 31
0
  0
LINE
  8
0
 62
7
 10
4.346600000000012
 20
2.560000000000001
 30
0
 11
4.400600000000011
 21
2.500000000000001
 31
0
  0
LINE
  8
0
 62
7
 10
4.346600000000012
 20
2.560000000000001
 30
0
 11
4.325000000000011
 21
2.536000000000001
 31
0
  0
LINE
  8
0
 62
7
 10
4.478900000000012
 20
2.620000000000001
 30
0
 11
4.462700000000011
 21
2.620000000000001
 31
0
  0
LINE
  8
0
 62
7
 10
4.462700000000011
 20
2.620000000000001
 30
0
 11
4.454600000000012
 21
2.617000000000001
 31
0
  0
LINE
  8
0
 62
7
 10
4.454600000000012
 20
2.617000000000001
 30
0
 11
4.446500000000011
 21
2.611000000000001
 31
0
  0
LINE
  8
0
 62
7
 10
4.446500000000011
 20
2.611000000000001
 30
0
 11
4.441100000000012
 21
2.605000000000001
 31
0
  0
LINE
  8
0
 62
7
 10
4.441100000000012
 20
2.605000000000001
 30
0
 11
4.43570000000001
 21
2.596000000000001
 31
0
  0
LINE
  8
0
 62
7
 10
4.43570000000001
 20
2.596000000000001
 30
0
 11
4.433000000000011
 21
2.584000000000001
 31
0
  0
LINE
  8
0
 62
7
 10
4.433000000000011
 20
2.584000000000001
 30
0
 11
4.433000000000011
 21
2.536000000000001
 31
0
  0
LINE
  8
0
 62
7
 10
4.433000000000011
 20
2.536000000000001
 30
0
 11
4.43570000000001
 21
2.524000000000001
 31
0
  0
LINE
  8
0
 62
7
 10
4.43570000000001
 20
2.524000000000001
 30
0
 11
4.441100000000012
 21
2.515000000000001
 31
0
  0
LINE
  8
0
 62
7
 10
4.441100000000012
 20
2.515000000000001
 30
0
 11
4.446500000000011
 21
2.509000000000001
 31
0
  0
LINE
  8
0
 62
7
 10
4.446500000000011
 20
2.509000000000001
 30
0
 11
4.454600000000012
 21
2.503000000000001
 31
0
  0
LINE
  8
0
 62
7
 10
4.454600000000012
 20
2.503000000000001
 30
0
 11
4.462700000000011
 21
2.500000000000001
 31
0
  0
LINE
  8
0
 62
7
 10
4.462700000000011
 20
2.500000000000001
 30
0
 11
4.478900000000012
 21
2.500000000000001
 31
0
  0
LINE
  8
0
 62
7
 10
4.478900000000012
 20
2.500000000000001
 30
0
 11
4.487000000000012
 21
2.503000000000001
 31
0
  0
LINE
  8
0
 62
7
 10
4.487000000000012
 20
2.503000000000001
 30
0
 11
4.495100000000011
 21
2.509000000000001
 31
0
  0
LINE
  8
0
 62
7
 10
4.495100000000011
 20
2.509000000000001
 30
0
 11
4.500500000000011
 21
2.515000000000001
 31
0
  0
LINE
  8
0
 62
7
 10
4.500500000000011
 20
2.515000000000001
 30
0
 11
4.505900000000012
 21
2.524000000000001
 31
0
  0
LINE
  8
0
 62
7
 10
4.505900000000012
 20
2.524000000000001
 30
0
 11
4.508600000000012
 21
2.536000000000001
 31
0
  0
LINE
  8
0
 62
7
 10
4.508600000000012
 20
2.536000000000001
 30
0
 11
4.508600000000012
 21
2.584000000000001
 31
0
  0
LINE
  8
0
 62
7
 10
4.508600000000012
 20
2.584000000000001
 30
0
 11
4.505900000000012
 21
2.596000000000001
 31
0
  0
LINE
  8
0
 62
7
 10
4.505900000000012
 20
2.596000000000001
 30
0
 11
4.500500000000011
 21
2.605000000000001
 31
0
  0
LINE
  8
0
 62
7
 10
4.500500000000011
 20
2.605000000000001
 30
0
 11
4.495100000000011
 21
2.611000000000001
 31
0
  0
LINE
  8
0
 62
7
 10
4.495100000000011
 20
2.611000000000001
 30
0
 11
4.487000000000012
 21
2.617000000000001
 31
0
  0
LINE
  8
0
 62
7
 10
4.487000000000012
 20
2.617000000000001
 30
0
 11
4.478900000000012
 21
2.620000000000001
 31
0
  0
LINE
  8
0
 62
7
 10
4.530200000000012
 20
2.620000000000001
 30
0
 11
4.568000000000011
 21
2.500000000000001
 31
0
  0
LINE
  8
0
 62
7
 10
4.568000000000011
 20
2.500000000000001
 30
0
 11
4.605800000000012
 21
2.620000000000001
 31
0
  0
LINE
  8
0
 62
7
 10
4.638200000000011
 20
2.602000000000001
 30
0
 11
4.643600000000009
 21
2.611000000000001
 31
0
  0
LINE
  8
0
 62
7
 10
4.643600000000009
 20
2.611000000000001
 30
0
 11
4.651700000000011
 21
2.617000000000001
 31
0
  0
LINE
  8
0
 62
7
 10
4.651700000000011
 20
2.617000000000001
 30
0
 11
4.662500000000011
 21
2.620000000000001
 31
0
  0
LINE
  8
0
 62
7
 10
4.662500000000011
 20
2.620000000000001
 30
0
 11
4.678700000000011
 21
2.620000000000001
 31
0
  0
LINE
  8
0
 62
7
 10
4.678700000000011
 20
2.620000000000001
 30
0
 11
4.686800000000011
 21
2.617000000000001
 31
0
  0
LINE
  8
0
 62
7
 10
4.686800000000011
 20
2.617000000000001
 30
0
 11
4.69490000000001
 21
2.611000000000001
 31
0
  0
LINE
  8
0
 62
7
 10
4.69490000000001
 20
2.611000000000001
 30
0
 11
4.700300000000012
 21
2.602000000000001
 31
0
  0
LINE
  8
0
 62
7
 10
4.700300000000012
 20
2.602000000000001
 30
0
 11
4.703000000000011
 21
2.590000000000001
 31
0
  0
LINE
  8
0
 62
7
 10
4.703000000000011
 20
2.590000000000001
 30
0
 11
4.703000000000011
 21
2.581000000000001
 31
0
  0
LINE
  8
0
 62
7
 10
4.703000000000011
 20
2.581000000000001
 30
0
 11
4.700300000000012
 21
2.572000000000001
 31
0
  0
LINE
  8
0
 62
7
 10
4.700300000000012
 20
2.572000000000001
 30
0
 11
4.69490000000001
 21
2.566000000000001
 31
0
  0
LINE
  8
0
 62
7
 10
4.69490000000001
 20
2.566000000000001
 30
0
 11
4.681400000000012
 21
2.560000000000001
 31
0
  0
LINE
  8
0
 62
7
 10
4.662500000000011
 20
2.560000000000001
 30
0
 11
4.681400000000012
 21
2.560000000000001
 31
0
  0
LINE
  8
0
 62
7
 10
4.681400000000012
 20
2.560000000000001
 30
0
 11
4.69490000000001
 21
2.554000000000001
 31
0
  0
LINE
  8
0
 62
7
 10
4.69490000000001
 20
2.554000000000001
 30
0
 11
4.700300000000012
 21
2.548000000000001
 31
0
  0
LINE
  8
0
 62
7
 10
4.700300000000012
 20
2.548000000000001
 30
0
 11
4.703000000000011
 21
2.539000000000001
 31
0
  0
LINE
  8
0
 62
7
 10
4.703000000000011
 20
2.539000000000001
 30
0
 11
4.703000000000011
 21
2.530000000000001
 31
0
  0
LINE
  8
0
 62
7
 10
4.703000000000011
 20
2.530000000000001
 30
0
 11
4.700300000000012
 21
2.518000000000001
 31
0
  0
LINE
  8
0
 62
7
 10
4.700300000000012
 20
2.518000000000001
 30
0
 11
4.69490000000001
 21
2.509000000000001
 31
0
  0
LINE
  8
0
 62
7
 10
4.69490000000001
 20
2.509000000000001
 30
0
 11
4.686800000000011
 21
2.503000000000001
 31
0
  0
LINE
  8
0
 62
7
 10
4.686800000000011
 20
2.503000000000001
 30
0
 11
4.678700000000011
 21
2.500000000000001
 31
0
  0
LINE
  8
0
 62
7
 10
4.678700000000011
 20
2.500000000000001
 30
0
 11
4.662500000000011
 21
2.500000000000001
 31
0
  0
LINE
  8
0
 62
7
 10
4.662500000000011
 20
2.500000000000001
 30
0
 11
4.651700000000011
 21
2.503000000000001
 31
0
  0
LINE
  8
0
 62
7
 10
4.651700000000011
 20
2.503000000000001
 30
0
 11
4.643600000000009
 21
2.509000000000001
 31
0
  0
LINE
  8
0
 62
7
 10
4.643600000000009
 20
2.509000000000001
 30
0
 11
4.638200000000011
 21
2.518000000000001
 31
0
  0
LINE
  8
0
 62
7
 10
4.735400000000011
 20
2.590000000000001
 30
0
 11
4.738100000000012
 21
2.602000000000001
 31
0
  0
LINE
  8
0
 62
7
 10
4.738100000000012
 20
2.602000000000001
 30
0
 11
4.743500000000011
 21
2.611000000000001
 31
0
  0
LINE
  8
0
 62
7
 10
4.743500000000011
 20
2.611000000000001
 30
0
 11
4.75160000000001
 21
2.617000000000001
 31
0
  0
LINE
  8
0
 62
7
 10
4.75160000000001
 20
2.617000000000001
 30
0
 11
4.759700000000011
 21
2.620000000000001
 31
0
  0
LINE
  8
0
 62
7
 10
4.759700000000011
 20
2.620000000000001
 30
0
 11
4.775900000000012
 21
2.620000000000001
 31
0
  0
LINE
  8
0
 62
7
 10
4.775900000000012
 20
2.620000000000001
 30
0
 11
4.784000000000011
 21
2.617000000000001
 31
0
  0
LINE
  8
0
 62
7
 10
4.784000000000011
 20
2.617000000000001
 30
0
 11
4.792100000000011
 21
2.611000000000001
 31
0
  0
LINE
  8
0
 62
7
 10
4.792100000000011
 20
2.611000000000001
 30
0
 11
4.797500000000011
 21
2.602000000000001
 31
0
  0
LINE
  8
0
 62
7
 10
4.797500000000011
 20
2.602000000000001
 30
0
 11
4.800200000000012
 21
2.590000000000001
 31
0
  0
LINE
  8
0
 62
7
 10
4.800200000000012
 20
2.590000000000001
 30
0
 11
4.800200000000012
 21
2.530000000000001
 31
0
  0
LINE
  8
0
 62
7
 10
4.800200000000012
 20
2.530000000000001
 30
0
 11
4.797500000000011
 21
2.518000000000001
 31
0
  0
LINE
  8
0
 62
7
 10
4.797500000000011
 20
2.518000000000001
 30
0
 11
4.792100000000011
 21
2.509000000000001
 31
0
  0
LINE
  8
0
 62
7
 10
4.792100000000011
 20
2.509000000000001
 30
0
 11
4.784000000000011
 21
2.503000000000001
 31
0
  0
LINE
  8
0
 62
7
 10
4.784000000000011
 20
2.503000000000001
 30
0
 11
4.775900000000012
 21
2.500000000000001
 31
0
  0
LINE
  8
0
 62
7
 10
4.775900000000012
 20
2.500000000000001
 30
0
 11
4.759700000000011
 21
2.500000000000001
 31
0
  0
LINE
  8
0
 62
7
 10
4.759700000000011
 20
2.500000000000001
 30
0
 11
4.75160000000001
 21
2.503000000000001
 31
0
  0
LINE
  8
0
 62
7
 10
4.75160000000001
 20
2.503000000000001
 30
0
 11
4.743500000000011
 21
2.509000000000001
 31
0
  0
LINE
  8
0
 62
7
 10
4.743500000000011
 20
2.509000000000001
 30
0
 11
4.738100000000012
 21
2.518000000000001
 31
0
  0
LINE
  8
0
 62
7
 10
4.738100000000012
 20
2.518000000000001
 30
0
 11
4.735400000000011
 21
2.530000000000001
 31
0
  0
LINE
  8
0
 62
7
 10
4.735400000000011
 20
2.530000000000001
 30
0
 11
4.735400000000011
 21
2.590000000000001
 31
0
  0
LINE
  8
0
 62
7
 10
4.832600000000012
 20
2.584000000000001
 30
0
 11
4.865000000000012
 21
2.620000000000001
 31
0
  0
LINE
  8
0
 62
7
 10
4.865000000000012
 20
2.620000000000001
 30
0
 11
4.865000000000012
 21
2.500000000000001
 31
0
  0
LINE
  8
0
 62
7
 10
4.897400000000011
 20
2.500000000000001
 30
0
 11
4.897400000000011
 21
2.620000000000001
 31
0
  0
LINE
  8
0
 62
7
 10
4.897400000000011
 20
2.620000000000001
 30
0
 11
4.948700000000011
 21
2.620000000000001
 31
0
  0
LINE
  8
0
 62
7
 10
4.948700000000011
 20
2.620000000000001
 30
0
 11
4.959500000000012
 21
2.617000000000001
 31
0
  0
LINE
  8
0
 62
7
 10
4.959500000000012
 20
2.617000000000001
 30
0
 11
4.967600000000012
 21
2.611000000000001
 31
0
  0
LINE
  8
0
 62
7
 10
4.967600000000012
 20
2.611000000000001
 30
0
 11
4.970300000000011
 21
2.605000000000001
 31
0
  0
LINE
  8
0
 62
7
 10
4.970300000000011
 20
2.605000000000001
 30
0
 11
4.973000000000011
 21
2.596000000000001
 31
0
  0
LINE
  8
0
 62
7
 10
4.973000000000011
 20
2.596000000000001
 30
0
 11
4.973000000000011
 21
2.584000000000001
 31
0
  0
LINE
  8
0
 62
7
 10
4.973000000000011
 20
2.584000000000001
 30
0
 11
4.970300000000011
 21
2.575000000000001
 31
0
  0
LINE
  8
0
 62
7
 10
4.970300000000011
 20
2.575000000000001
 30
0
 11
4.967600000000012
 21
2.569000000000001
 31
0
  0
LINE
  8
0
 62
7
 10
4.967600000000012
 20
2.569000000000001
 30
0
 11
4.959500000000012
 21
2.563000000000001
 31
0
  0
LINE
  8
0
 62
7
 10
4.959500000000012
 20
2.563000000000001
 30
0
 11
4.948700000000011
 21
2.560000000000001
 31
0
  0
LINE
  8
0
 62
7
 10
4.948700000000011
 20
2.560000000000001
 30
0
 11
4.940600000000011
 21
2.560000000000001
 31
0
  0
LINE
  8
0
 62
7
 10
4.940600000000011
 20
2.560000000000001
 30
0
 11
4.973000000000011
 21
2.500000000000001
 31
0
  0
LINE
  8
0
 62
7
 10
4.940600000000011
 20
2.560000000000001
 30
0
 11
4.897400000000011
 21
2.560000000000001
 31
0
  0
LINE
  8
0
 62
7
 10
4.994600000000012
 20
2.602000000000001
 30
0
 11
5.000000000000012
 21
2.611000000000001
 31
0
  0
LINE
  8
0
 62
7
 10
5.000000000000012
 20
2.611000000000001
 30
0
 11
5.008100000000012
 21
2.617000000000001
 31
0
  0
LINE
  8
0
 62
7
 10
5.008100000000012
 20
2.617000000000001
 30
0
 11
5.018900000000012
 21
2.620000000000001
 31
0
  0
LINE
  8
0
 62
7
 10
5.018900000000012
 20
2.620000000000001
 30
0
 11
5.035100000000011
 21
2.620000000000001
 31
0
  0
LINE
  8
0
 62
7
 10
5.035100000000011
 20
2.620000000000001
 30
0
 11
5.043200000000012
 21
2.617000000000001
 31
0
  0
LINE
  8
0
 62
7
 10
5.043200000000012
 20
2.617000000000001
 30
0
 11
5.051300000000012
 21
2.611000000000001
 31
0
  0
LINE
  8
0
 62
7
 10
5.051300000000012
 20
2.611000000000001
 30
0
 11
5.056700000000013
 21
2.602000000000001
 31
0
  0
LINE
  8
0
 62
7
 10
5.056700000000013
 20
2.602000000000001
 30
0
 11
5.059400000000013
 21
2.590000000000001
 31
0
  0
LINE
  8
0
 62
7
 10
5.059400000000013
 20
2.590000000000001
 30
0
 11
5.059400000000013
 21
2.581000000000001
 31
0
  0
LINE
  8
0
 62
7
 10
5.059400000000013
 20
2.581000000000001
 30
0
 11
5.056700000000013
 21
2.572000000000001
 31
0
  0
LINE
  8
0
 62
7
 10
5.056700000000013
 20
2.572000000000001
 30
0
 11
5.051300000000012
 21
2.566000000000001
 31
0
  0
LINE
  8
0
 62
7
 10
5.051300000000012
 20
2.566000000000001
 30
0
 11
5.037800000000011
 21
2.560000000000001
 31
0
  0
LINE
  8
0
 62
7
 10
5.018900000000012
 20
2.560000000000001
 30
0
 11
5.037800000000011
 21
2.560000000000001
 31
0
  0
LINE
  8
0
 62
7
 10
5.037800000000011
 20
2.560000000000001
 30
0
 11
5.051300000000012
 21
2.554000000000001
 31
0
  0
LINE
  8
0
 62
7
 10
5.051300000000012
 20
2.554000000000001
 30
0
 11
5.056700000000013
 21
2.548000000000001
 31
0
  0
LINE
  8
0
 62
7
 10
5.056700000000013
 20
2.548000000000001
 30
0
 11
5.059400000000013
 21
2.539000000000001
 31
0
  0
LINE
  8
0
 62
7
 10
5.059400000000013
 20
2.539000000000001
 30
0
 11
5.059400000000013
 21
2.530000000000001
 31
0
  0
LINE
  8
0
 62
7
 10
5.059400000000013
 20
2.530000000000001
 30
0
 11
5.056700000000013
 21
2.518000000000001
 31
0
  0
LINE
  8
0
 62
7
 10
5.056700000000013
 20
2.518000000000001
 30
0
 11
5.051300000000012
 21
2.509000000000001
 31
0
  0
LINE
  8
0
 62
7
 10
5.051300000000012
 20
2.509000000000001
 30
0
 11
5.043200000000012
 21
2.503000000000001
 31
0
  0
LINE
  8
0
 62
7
 10
5.043200000000012
 20
2.503000000000001
 30
0
 11
5.035100000000011
 21
2.500000000000001
 31
0
  0
LINE
  8
0
 62
7
 10
5.035100000000011
 20
2.500000000000001
 30
0
 11
5.018900000000012
 21
2.500000000000001
 31
0
  0
LINE
  8
0
 62
7
 10
5.018900000000012
 20
2.500000000000001
 30
0
 11
5.008100000000012
 21
2.503000000000001
 31
0
  0
LINE
  8
0
 62
7
 10
5.008100000000012
 20
2.503000000000001
 30
0
 11
5.000000000000012
 21
2.509000000000001
 31
0
  0
LINE
  8
0
 62
7
 10
5.000000000000012
 20
2.509000000000001
 30
0
 11
4.994600000000012
 21
2.518000000000001
 31
0
  0
LINE
  8
0
 62
7
 10
6.825000000000012
 20
2.500000000000001
 30
0
 11
6.825000000000012
 21
2.600000000000001
 31
0
  0
LINE
  8
0
 62
7
 10
6.825000000000012
 20
2.600000000000001
 30
0
 11
6.888000000000011
 21
2.500000000000001
 31
0
  0
LINE
  8
0
 62
7
 10
6.888000000000011
 20
2.500000000000001
 30
0
 11
6.888000000000011
 21
2.600000000000001
 31
0
  0
LINE
  8
0
 62
7
 10
6.969000000000012
 20
2.500000000000001
 30
0
 11
6.915000000000011
 21
2.500000000000001
 31
0
  0
LINE
  8
0
 62
7
 10
6.915000000000011
 20
2.500000000000001
 30
0
 11
6.915000000000011
 21
2.600000000000001
 31
0
  0
LINE
  8
0
 62
7
 10
6.996000000000013
 20
2.550000000000001
 30
0
 11
7.032000000000012
 21
2.550000000000001
 31
0
  0
LINE
  8
0
 62
7
 10
7.032000000000012
 20
2.550000000000001
 30
0
 11
7.036500000000011
 21
2.550000000000001
 31
0
  0
LINE
  8
0
 62
7
 10
7.036500000000011
 20
2.550000000000001
 30
0
 11
7.045500000000011
 21
2.545000000000001
 31
0
  0
LINE
  8
0
 62
7
 10
7.045500000000011
 20
2.545000000000001
 30
0
 11
7.050000000000011
 21
2.540000000000001
 31
0
  0
LINE
  8
0
 62
7
 10
7.050000000000011
 20
2.540000000000001
 30
0
 11
7.054500000000012
 21
2.530000000000001
 31
0
  0
LINE
  8
0
 62
7
 10
7.054500000000012
 20
2.530000000000001
 30
0
 11
7.054500000000012
 21
2.520000000000001
 31
0
  0
LINE
  8
0
 62
7
 10
7.054500000000012
 20
2.520000000000001
 30
0
 11
7.050000000000011
 21
2.510000000000001
 31
0
  0
LINE
  8
0
 62
7
 10
7.050000000000011
 20
2.510000000000001
 30
0
 11
7.045500000000011
 21
2.505000000000001
 31
0
  0
LINE
  8
0
 62
7
 10
7.045500000000011
 20
2.505000000000001
 30
0
 11
7.036500000000011
 21
2.500000000000001
 31
0
  0
LINE
  8
0
 62
7
 10
7.036500000000011
 20
2.500000000000001
 30
0
 11
6.996000000000013
 21
2.500000000000001
 31
0
  0
LINE
  8
0
 62
7
 10
6.996000000000013
 20
2.500000000000001
 30
0
 11
6.996000000000013
 21
2.550000000000001
 31
0
  0
LINE
  8
0
 62
7
 10
6.996000000000013
 20
2.600000000000001
 30
0
 11
7.029750000000011
 21
2.600000000000001
 31
0
  0
LINE
  8
0
 62
7
 10
7.029750000000011
 20
2.600000000000001
 30
0
 11
7.041000000000013
 21
2.597500000000001
 31
0
  0
LINE
  8
0
 62
7
 10
7.041000000000013
 20
2.597500000000001
 30
0
 11
7.047750000000011
 21
2.590000000000001
 31
0
  0
LINE
  8
0
 62
7
 10
7.047750000000011
 20
2.590000000000001
 30
0
 11
7.050000000000011
 21
2.580000000000001
 31
0
  0
LINE
  8
0
 62
7
 10
7.050000000000011
 20
2.580000000000001
 30
0
 11
7.050000000000011
 21
2.570000000000001
 31
0
  0
LINE
  8
0
 62
7
 10
7.050000000000011
 20
2.570000000000001
 30
0
 11
7.045500000000011
 21
2.560000000000001
 31
0
  0
LINE
  8
0
 62
7
 10
7.045500000000011
 20
2.560000000000001
 30
0
 11
7.038750000000012
 21
2.552500000000001
 31
0
  0
LINE
  8
0
 62
7
 10
7.038750000000012
 20
2.552500000000001
 30
0
 11
7.032000000000012
 21
2.550000000000001
 31
0
  0
LINE
  8
0
 62
7
 10
6.996000000000013
 20
2.550000000000001
 30
0
 11
6.996000000000013
 21
2.600000000000001
 31
0
  0
LINE
  8
0
 62
7
 10
7.196250000000011
 20
2.552500000000001
 30
0
 11
7.189500000000013
 21
2.562500000000001
 31
0
  0
LINE
  8
0
 62
7
 10
7.189500000000013
 20
2.562500000000001
 30
0
 11
7.182750000000012
 21
2.567500000000001
 31
0
  0
LINE
  8
0
 62
7
 10
7.182750000000012
 20
2.567500000000001
 30
0
 11
7.176000000000013
 21
2.570000000000001
 31
0
  0
LINE
  8
0
 62
7
 10
7.176000000000013
 20
2.570000000000001
 30
0
 11
7.167000000000012
 21
2.570000000000001
 31
0
  0
LINE
  8
0
 62
7
 10
7.167000000000012
 20
2.570000000000001
 30
0
 11
7.160250000000011
 21
2.567500000000001
 31
0
  0
LINE
  8
0
 62
7
 10
7.160250000000011
 20
2.567500000000001
 30
0
 11
7.153500000000013
 21
2.562500000000001
 31
0
  0
LINE
  8
0
 62
7
 10
7.153500000000013
 20
2.562500000000001
 30
0
 11
7.146750000000011
 21
2.552500000000001
 31
0
  0
LINE
  8
0
 62
7
 10
7.146750000000011
 20
2.552500000000001
 30
0
 11
7.144500000000012
 21
2.545000000000001
 31
0
  0
LINE
  8
0
 62
7
 10
7.144500000000012
 20
2.545000000000001
 30
0
 11
7.144500000000012
 21
2.525000000000001
 31
0
  0
LINE
  8
0
 62
7
 10
7.144500000000012
 20
2.525000000000001
 30
0
 11
7.146750000000011
 21
2.517500000000001
 31
0
  0
LINE
  8
0
 62
7
 10
7.146750000000011
 20
2.517500000000001
 30
0
 11
7.153500000000013
 21
2.507500000000001
 31
0
  0
LINE
  8
0
 62
7
 10
7.153500000000013
 20
2.507500000000001
 30
0
 11
7.160250000000011
 21
2.502500000000001
 31
0
  0
LINE
  8
0
 62
7
 10
7.160250000000011
 20
2.502500000000001
 30
0
 11
7.167000000000012
 21
2.500000000000001
 31
0
  0
LINE
  8
0
 62
7
 10
7.167000000000012
 20
2.500000000000001
 30
0
 11
7.176000000000013
 21
2.500000000000001
 31
0
  0
LINE
  8
0
 62
7
 10
7.176000000000013
 20
2.500000000000001
 30
0
 11
7.182750000000012
 21
2.502500000000001
 31
0
  0
LINE
  8
0
 62
7
 10
7.182750000000012
 20
2.502500000000001
 30
0
 11
7.189500000000013
 21
2.507500000000001
 31
0
  0
LINE
  8
0
 62
7
 10
7.189500000000013
 20
2.507500000000001
 30
0
 11
7.196250000000011
 21
2.517500000000001
 31
0
  0
LINE
  8
0
 62
7
 10
7.268250000000013
 20
2.545000000000001
 30
0
 11
7.266000000000012
 21
2.552500000000001
 31
0
  0
LINE
  8
0
 62
7
 10
7.266000000000012
 20
2.552500000000001
 30
0
 11
7.259250000000012
 21
2.562500000000001
 31
0
  0
LINE
  8
0
 62
7
 10
7.259250000000012
 20
2.562500000000001
 30
0
 11
7.252500000000011
 21
2.567500000000001
 31
0
  0
LINE
  8
0
 62
7
 10
7.252500000000011
 20
2.567500000000001
 30
0
 11
7.245750000000013
 21
2.570000000000001
 31
0
  0
LINE
  8
0
 62
7
 10
7.245750000000013
 20
2.570000000000001
 30
0
 11
7.236750000000011
 21
2.570000000000001
 31
0
  0
LINE
  8
0
 62
7
 10
7.236750000000011
 20
2.570000000000001
 30
0
 11
7.230000000000011
 21
2.567500000000001
 31
0
  0
LINE
  8
0
 62
7
 10
7.230000000000011
 20
2.567500000000001
 30
0
 11
7.223250000000012
 21
2.562500000000001
 31
0
  0
LINE
  8
0
 62
7
 10
7.223250000000012
 20
2.562500000000001
 30
0
 11
7.216500000000011
 21
2.552500000000001
 31
0
  0
LINE
  8
0
 62
7
 10
7.216500000000011
 20
2.552500000000001
 30
0
 11
7.214250000000011
 21
2.545000000000001
 31
0
  0
LINE
  8
0
 62
7
 10
7.214250000000011
 20
2.545000000000001
 30
0
 11
7.214250000000011
 21
2.525000000000001
 31
0
  0
LINE
  8
0
 62
7
 10
7.214250000000011
 20
2.525000000000001
 30
0
 11
7.216500000000011
 21
2.517500000000001
 31
0
  0
LINE
  8
0
 62
7
 10
7.216500000000011
 20
2.517500000000001
 30
0
 11
7.223250000000012
 21
2.507500000000001
 31
0
  0
LINE
  8
0
 62
7
 10
7.223250000000012
 20
2.507500000000001
 30
0
 11
7.230000000000011
 21
2.502500000000001
 31
0
  0
LINE
  8
0
 62
7
 10
7.230000000000011
 20
2.502500000000001
 30
0
 11
7.236750000000011
 21
2.500000000000001
 31
0
  0
LINE
  8
0
 62
7
 10
7.236750000000011
 20
2.500000000000001
 30
0
 11
7.245750000000013
 21
2.500000000000001
 31
0
  0
LINE
  8
0
 62
7
 10
7.245750000000013
 20
2.500000000000001
 30
0
 11
7.252500000000011
 21
2.502500000000001
 31
0
  0
LINE
  8
0
 62
7
 10
7.252500000000011
 20
2.502500000000001
 30
0
 11
7.259250000000012
 21
2.507500000000001
 31
0
  0
LINE
  8
0
 62
7
 10
7.259250000000012
 20
2.507500000000001
 30
0
 11
7.266000000000012
 21
2.517500000000001
 31
0
  0
LINE
  8
0
 62
7
 10
7.266000000000012
 20
2.517500000000001
 30
0
 11
7.268250000000013
 21
2.525000000000001
 31
0
  0
LINE
  8
0
 62
7
 10
7.268250000000013
 20
2.570000000000001
 30
0
 11
7.268250000000013
 21
2.545000000000001
 31
0
  0
LINE
  8
0
 62
7
 10
7.268250000000013
 20
2.502500000000001
 30
0
 11
7.270500000000012
 21
2.500000000000001
 31
0
  0
LINE
  8
0
 62
7
 10
7.270500000000012
 20
2.500000000000001
 30
0
 11
7.272750000000011
 21
2.500000000000001
 31
0
  0
LINE
  8
0
 62
7
 10
7.268250000000013
 20
2.525000000000001
 30
0
 11
7.268250000000013
 21
2.502500000000001
 31
0
  0
LINE
  8
0
 62
7
 10
7.268250000000013
 20
2.545000000000001
 30
0
 11
7.268250000000013
 21
2.525000000000001
 31
0
  0
LINE
  8
0
 62
7
 10
7.290750000000013
 20
2.500000000000001
 30
0
 11
7.290750000000013
 21
2.502500000000001
 31
0
  0
LINE
  8
0
 62
7
 10
7.290750000000013
 20
2.502500000000001
 30
0
 11
7.293000000000011
 21
2.502500000000001
 31
0
  0
LINE
  8
0
 62
7
 10
7.293000000000011
 20
2.502500000000001
 30
0
 11
7.293000000000011
 21
2.500000000000001
 31
0
  0
LINE
  8
0
 62
7
 10
7.293000000000011
 20
2.500000000000001
 30
0
 11
7.290750000000013
 21
2.500000000000001
 31
0
  0
LINE
  8
0
 62
7
 10
7.416750000000012
 20
2.600000000000001
 30
0
 11
7.425750000000012
 21
2.600000000000001
 31
0
  0
LINE
  8
0
 62
7
 10
7.425750000000012
 20
2.600000000000001
 30
0
 11
7.432500000000012
 21
2.597500000000001
 31
0
  0
LINE
  8
0
 62
7
 10
7.432500000000012
 20
2.597500000000001
 30
0
 11
7.437000000000012
 21
2.592500000000001
 31
0
  0
LINE
  8
0
 62
7
 10
7.437000000000012
 20
2.592500000000001
 30
0
 11
7.441500000000011
 21
2.585000000000001
 31
0
  0
LINE
  8
0
 62
7
 10
7.441500000000011
 20
2.585000000000001
 30
0
 11
7.441500000000011
 21
2.575000000000001
 31
0
  0
LINE
  8
0
 62
7
 10
7.441500000000011
 20
2.575000000000001
 30
0
 11
7.439250000000012
 21
2.570000000000001
 31
0
  0
LINE
  8
0
 62
7
 10
7.439250000000012
 20
2.570000000000001
 30
0
 11
7.432500000000012
 21
2.562500000000001
 31
0
  0
LINE
  8
0
 62
7
 10
7.432500000000012
 20
2.562500000000001
 30
0
 11
7.425750000000012
 21
2.560000000000001
 31
0
  0
LINE
  8
0
 62
7
 10
7.425750000000012
 20
2.560000000000001
 30
0
 11
7.416750000000012
 21
2.560000000000001
 31
0
  0
LINE
  8
0
 62
7
 10
7.416750000000012
 20
2.560000000000001
 30
0
 11
7.410000000000011
 21
2.562500000000001
 31
0
  0
LINE
  8
0
 62
7
 10
7.410000000000011
 20
2.562500000000001
 30
0
 11
7.403250000000013
 21
2.570000000000001
 31
0
  0
LINE
  8
0
 62
7
 10
7.403250000000013
 20
2.570000000000001
 30
0
 11
7.401000000000012
 21
2.575000000000001
 31
0
  0
LINE
  8
0
 62
7
 10
7.401000000000012
 20
2.575000000000001
 30
0
 11
7.401000000000012
 21
2.585000000000001
 31
0
  0
LINE
  8
0
 62
7
 10
7.401000000000012
 20
2.585000000000001
 30
0
 11
7.405500000000011
 21
2.592500000000001
 31
0
  0
LINE
  8
0
 62
7
 10
7.405500000000011
 20
2.592500000000001
 30
0
 11
7.410000000000011
 21
2.597500000000001
 31
0
  0
LINE
  8
0
 62
7
 10
7.410000000000011
 20
2.597500000000001
 30
0
 11
7.416750000000012
 21
2.600000000000001
 31
0
  0
LINE
  8
0
 62
7
 10
7.416750000000012
 20
2.560000000000001
 30
0
 11
7.405500000000011
 21
2.555000000000001
 31
0
  0
LINE
  8
0
 62
7
 10
7.405500000000011
 20
2.555000000000001
 30
0
 11
7.398750000000011
 21
2.547500000000001
 31
0
  0
LINE
  8
0
 62
7
 10
7.398750000000011
 20
2.547500000000001
 30
0
 11
7.394250000000011
 21
2.537500000000001
 31
0
  0
LINE
  8
0
 62
7
 10
7.394250000000011
 20
2.537500000000001
 30
0
 11
7.394250000000011
 21
2.522500000000001
 31
0
  0
LINE
  8
0
 62
7
 10
7.394250000000011
 20
2.522500000000001
 30
0
 11
7.398750000000011
 21
2.512500000000001
 31
0
  0
LINE
  8
0
 62
7
 10
7.398750000000011
 20
2.512500000000001
 30
0
 11
7.405500000000011
 21
2.505000000000001
 31
0
  0
LINE
  8
0
 62
7
 10
7.405500000000011
 20
2.505000000000001
 30
0
 11
7.414500000000013
 21
2.500000000000001
 31
0
  0
LINE
  8
0
 62
7
 10
7.414500000000013
 20
2.500000000000001
 30
0
 11
7.428000000000011
 21
2.500000000000001
 31
0
  0
LINE
  8
0
 62
7
 10
7.428000000000011
 20
2.500000000000001
 30
0
 11
7.437000000000012
 21
2.505000000000001
 31
0
  0
LINE
  8
0
 62
7
 10
7.437000000000012
 20
2.505000000000001
 30
0
 11
7.443750000000012
 21
2.512500000000001
 31
0
  0
LINE
  8
0
 62
7
 10
7.443750000000012
 20
2.512500000000001
 30
0
 11
7.448250000000012
 21
2.522500000000001
 31
0
  0
LINE
  8
0
 62
7
 10
7.448250000000012
 20
2.522500000000001
 30
0
 11
7.448250000000012
 21
2.537500000000001
 31
0
  0
LINE
  8
0
 62
7
 10
7.448250000000012
 20
2.537500000000001
 30
0
 11
7.443750000000012
 21
2.547500000000001
 31
0
  0
LINE
  8
0
 62
7
 10
7.443750000000012
 20
2.547500000000001
 30
0
 11
7.437000000000012
 21
2.555000000000001
 31
0
  0
LINE
  8
0
 62
7
 10
7.437000000000012
 20
2.555000000000001
 30
0
 11
7.425750000000012
 21
2.560000000000001
 31
0
  0
LINE
  8
0
 62
7
 10
7.533750000000011
 20
2.600000000000001
 30
0
 11
7.484250000000012
 21
2.600000000000001
 31
0
  0
LINE
  8
0
 62
7
 10
7.484250000000012
 20
2.600000000000001
 30
0
 11
7.484250000000012
 21
2.550000000000001
 31
0
  0
LINE
  8
0
 62
7
 10
7.484250000000012
 20
2.550000000000001
 30
0
 11
7.488750000000012
 21
2.557500000000001
 31
0
  0
LINE
  8
0
 62
7
 10
7.488750000000012
 20
2.557500000000001
 30
0
 11
7.495500000000011
 21
2.562500000000001
 31
0
  0
LINE
  8
0
 62
7
 10
7.495500000000011
 20
2.562500000000001
 30
0
 11
7.504500000000012
 21
2.565000000000001
 31
0
  0
LINE
  8
0
 62
7
 10
7.504500000000012
 20
2.565000000000001
 30
0
 11
7.518000000000011
 21
2.565000000000001
 31
0
  0
LINE
  8
0
 62
7
 10
7.518000000000011
 20
2.565000000000001
 30
0
 11
7.524750000000012
 21
2.562500000000001
 31
0
  0
LINE
  8
0
 62
7
 10
7.524750000000012
 20
2.562500000000001
 30
0
 11
7.531500000000012
 21
2.557500000000001
 31
0
  0
LINE
  8
0
 62
7
 10
7.531500000000012
 20
2.557500000000001
 30
0
 11
7.536000000000012
 21
2.550000000000001
 31
0
  0
LINE
  8
0
 62
7
 10
7.536000000000012
 20
2.550000000000001
 30
0
 11
7.538250000000012
 21
2.540000000000001
 31
0
  0
LINE
  8
0
 62
7
 10
7.538250000000012
 20
2.540000000000001
 30
0
 11
7.538250000000012
 21
2.525000000000001
 31
0
  0
LINE
  8
0
 62
7
 10
7.538250000000012
 20
2.525000000000001
 30
0
 11
7.536000000000012
 21
2.515000000000001
 31
0
  0
LINE
  8
0
 62
7
 10
7.536000000000012
 20
2.515000000000001
 30
0
 11
7.531500000000012
 21
2.507500000000001
 31
0
  0
LINE
  8
0
 62
7
 10
7.531500000000012
 20
2.507500000000001
 30
0
 11
7.524750000000012
 21
2.502500000000001
 31
0
  0
LINE
  8
0
 62
7
 10
7.524750000000012
 20
2.502500000000001
 30
0
 11
7.518000000000011
 21
2.500000000000001
 31
0
  0
LINE
  8
0
 62
7
 10
7.518000000000011
 20
2.500000000000001
 30
0
 11
7.504500000000012
 21
2.500000000000001
 31
0
  0
LINE
  8
0
 62
7
 10
7.504500000000012
 20
2.500000000000001
 30
0
 11
7.495500000000011
 21
2.502500000000001
 31
0
  0
LINE
  8
0
 62
7
 10
7.495500000000011
 20
2.502500000000001
 30
0
 11
7.488750000000012
 21
2.507500000000001
 31
0
  0
LINE
  8
0
 62
7
 10
7.488750000000012
 20
2.507500000000001
 30
0
 11
7.484250000000012
 21
2.515000000000001
 31
0
  0
LINE
  8
0
 62
7
 10
7.689000000000012
 20
2.552500000000001
 30
0
 11
7.682250000000012
 21
2.562500000000001
 31
0
  0
LINE
  8
0
 62
7
 10
7.682250000000012
 20
2.562500000000001
 30
0
 11
7.675500000000011
 21
2.567500000000001
 31
0
  0
LINE
  8
0
 62
7
 10
7.675500000000011
 20
2.567500000000001
 30
0
 11
7.668750000000012
 21
2.570000000000001
 31
0
  0
LINE
  8
0
 62
7
 10
7.668750000000012
 20
2.570000000000001
 30
0
 11
7.659750000000013
 21
2.570000000000001
 31
0
  0
LINE
  8
0
 62
7
 10
7.659750000000013
 20
2.570000000000001
 30
0
 11
7.653000000000012
 21
2.567500000000001
 31
0
  0
LINE
  8
0
 62
7
 10
7.653000000000012
 20
2.567500000000001
 30
0
 11
7.646250000000011
 21
2.562500000000001
 31
0
  0
LINE
  8
0
 62
7
 10
7.646250000000011
 20
2.562500000000001
 30
0
 11
7.639500000000012
 21
2.552500000000001
 31
0
  0
LINE
  8
0
 62
7
 10
7.639500000000012
 20
2.552500000000001
 30
0
 11
7.637250000000012
 21
2.545000000000001
 31
0
  0
LINE
  8
0
 62
7
 10
7.637250000000012
 20
2.545000000000001
 30
0
 11
7.637250000000012
 21
2.525000000000001
 31
0
  0
LINE
  8
0
 62
7
 10
7.637250000000012
 20
2.525000000000001
 30
0
 11
7.639500000000012
 21
2.517500000000001
 31
0
  0
LINE
  8
0
 62
7
 10
7.639500000000012
 20
2.517500000000001
 30
0
 11
7.646250000000011
 21
2.507500000000001
 31
0
  0
LINE
  8
0
 62
7
 10
7.646250000000011
 20
2.507500000000001
 30
0
 11
7.653000000000012
 21
2.502500000000001
 31
0
  0
LINE
  8
0
 62
7
 10
7.653000000000012
 20
2.502500000000001
 30
0
 11
7.659750000000013
 21
2.500000000000001
 31
0
  0
LINE
  8
0
 62
7
 10
7.659750000000013
 20
2.500000000000001
 30
0
 11
7.668750000000012
 21
2.500000000000001
 31
0
  0
LINE
  8
0
 62
7
 10
7.668750000000012
 20
2.500000000000001
 30
0
 11
7.675500000000011
 21
2.502500000000001
 31
0
  0
LINE
  8
0
 62
7
 10
7.675500000000011
 20
2.502500000000001
 30
0
 11
7.682250000000012
 21
2.507500000000001
 31
0
  0
LINE
  8
0
 62
7
 10
7.682250000000012
 20
2.507500000000001
 30
0
 11
7.689000000000012
 21
2.517500000000001
 31
0
  0
LINE
  8
0
 62
7
 10
7.747500000000011
 20
2.545000000000001
 30
0
 11
7.747500000000011
 21
2.500000000000001
 31
0
  0
LINE
  8
0
 62
7
 10
7.707000000000012
 20
2.570000000000001
 30
0
 11
7.707000000000012
 21
2.545000000000001
 31
0
  0
LINE
  8
0
 62
7
 10
7.707000000000012
 20
2.500000000000001
 30
0
 11
7.707000000000012
 21
2.545000000000001
 31
0
  0
LINE
  8
0
 62
7
 10
7.707000000000012
 20
2.545000000000001
 30
0
 11
7.709250000000011
 21
2.557500000000001
 31
0
  0
LINE
  8
0
 62
7
 10
7.709250000000011
 20
2.557500000000001
 30
0
 11
7.711500000000012
 21
2.562500000000001
 31
0
  0
LINE
  8
0
 62
7
 10
7.711500000000012
 20
2.562500000000001
 30
0
 11
7.716000000000013
 21
2.567500000000001
 31
0
  0
LINE
  8
0
 62
7
 10
7.716000000000013
 20
2.567500000000001
 30
0
 11
7.722750000000011
 21
2.570000000000001
 31
0
  0
LINE
  8
0
 62
7
 10
7.722750000000011
 20
2.570000000000001
 30
0
 11
7.731750000000011
 21
2.570000000000001
 31
0
  0
LINE
  8
0
 62
7
 10
7.731750000000011
 20
2.570000000000001
 30
0
 11
7.738500000000013
 21
2.567500000000001
 31
0
  0
LINE
  8
0
 62
7
 10
7.738500000000013
 20
2.567500000000001
 30
0
 11
7.743000000000011
 21
2.562500000000001
 31
0
  0
LINE
  8
0
 62
7
 10
7.743000000000011
 20
2.562500000000001
 30
0
 11
7.745250000000012
 21
2.557500000000001
 31
0
  0
LINE
  8
0
 62
7
 10
7.745250000000012
 20
2.557500000000001
 30
0
 11
7.747500000000011
 21
2.545000000000001
 31
0
  0
LINE
  8
0
 62
7
 10
7.747500000000011
 20
2.545000000000001
 30
0
 11
7.749750000000012
 21
2.557500000000001
 31
0
  0
LINE
  8
0
 62
7
 10
7.749750000000012
 20
2.557500000000001
 30
0
 11
7.752000000000013
 21
2.562500000000001
 31
0
  0
LINE
  8
0
 62
7
 10
7.752000000000013
 20
2.562500000000001
 30
0
 11
7.756500000000011
 21
2.567500000000001
 31
0
  0
LINE
  8
0
 62
7
 10
7.756500000000011
 20
2.567500000000001
 30
0
 11
7.763250000000013
 21
2.570000000000001
 31
0
  0
LINE
  8
0
 62
7
 10
7.763250000000013
 20
2.570000000000001
 30
0
 11
7.772250000000013
 21
2.570000000000001
 31
0
  0
LINE
  8
0
 62
7
 10
7.772250000000013
 20
2.570000000000001
 30
0
 11
7.779000000000011
 21
2.567500000000001
 31
0
  0
LINE
  8
0
 62
7
 10
7.783500000000013
 20
2.562500000000001
 30
0
 11
7.779000000000011
 21
2.567500000000001
 31
0
  0
LINE
  8
0
 62
7
 10
7.779000000000011
 20
2.567500000000001
 30
0
 11
7.783500000000013
 21
2.562500000000001
 31
0
  0
LINE
  8
0
 62
7
 10
7.783500000000013
 20
2.562500000000001
 30
0
 11
7.785750000000012
 21
2.557500000000001
 31
0
  0
LINE
  8
0
 62
7
 10
7.785750000000012
 20
2.557500000000001
 30
0
 11
7.788000000000011
 21
2.545000000000001
 31
0
  0
LINE
  8
0
 62
7
 10
7.788000000000011
 20
2.545000000000001
 30
0
 11
7.788000000000011
 21
2.500000000000001
 31
0
  0
ARC
  8
0
 62
7
 10
6.310056398438124
 20
3.485056398438104
 30
0
 40
0.4879999999999976
 50
359.9933782930049
 51
90.00662169907625
  0
CIRCLE
  8
0
 62
7
 10
4.165000000000012
 20
3.97305639517911
 30
0
 40
0.0600000000000005
  0
DIMENSION
  8
0
  6
CONTINUOUS
 62
7
  2
*D1
  3
DMST_1
 10
7.275000000000012
 20
3.04840238895696
 30
0
 11
5.884203461945311
 21
3.04840238895696
 31
0
 12
0
 22
0
 32
0
 70
0
 13
4.265
 23
3.350000000000001
 33
0
 14
7.275000000000012
 24
3.350000000000001
 34
0
 53
0
  0
DIMENSION
  8
0
  6
CONTINUOUS
 62
7
  2
*D2
  3
DMST_1
 10
7.275000000000011
 20
5.30831604717169
 30
0
 11
5.85281577224788
 21
5.30831604717169
 31
0
 12
0
 22
0
 32
0
 70
0
 13
4.165
 23
4.969999999999999
 33
0
 14
7.275000000000012
 24
4.969999999999999
 34
0
 53
0
  0
DIMENSION
  8
0
  6
CONTINUOUS
 62
7
  2
*D3
  3
DMST_1
 10
7.76746484379091
 20
4.450000000000002
 30
0
 11
7.76746484379091
 21
3.9115638556362
 31
0
 12
0
 22
0
 32
0
 70
0
 13
7.275000000000012
 23
3.350000000000001
 33
0
 14
7.275000000000012
 24
4.450000000000002
 34
0
 50
90
 53
0
  0
DIMENSION
  8
0
  6
CONTINUOUS
 62
7
  2
*D4
  3
DMST_1
 10
7.275000000000011
 20
11.6015478315058
 30
0
 11
5.85281577224788
 21
11.6015478315058
 31
0
 12
0
 22
0
 32
0
 70
0
 13
4.265
 23
11.05
 33
0
 14
7.275000000000012
 24
11.05
 34
0
 53
0
  0
INSERT
  8
0
  2
*D0
 10
0
 20
0
 30
0
  0
ENDSEC
  0
EOF
