  0
SECTION
  2
HEADER
  9
$ACADVER
  1
AC1009
  9
$INSBASE
 10
0
 20
0
  9
$EXTMIN
 10
0.625
 20
2.890000000000001
  9
$EXTMAX
 10
8.25
 20
11.6030876850299
  9
$LIMMIN
 10
0.625
 20
2.890000000000001
  9
$LIMMAX
 10
8.25
 20
11.6030876850299
  9
$VIEWCTR
 10
10
 20
10
  9
$VIEWSIZE
 40
10
  9
$SNAPMODE
 70
0
  9
$SNAPUNIT
 10
1
 20
1
  9
$SNAPBASE
 10
0
 20
0
  9
$SNAPANG
 50
0
  9
$SNAPSTYLE
 70
0
  9
$SNAPISOPAIR
 70
0
  9
$GRIDMODE
 70
0
  9
$GRIDUNIT
 10
0
 20
0
  9
$ORTHOMODE
 70
0
  9
$REGENMODE
 70
1
  9
$FILLMODE
 70
1
  9
$QTEXTMODE
 70
0
  9
$DRAGMODE
 70
2
  9
$LTSCALE
 40
1
  9
$OSMODE
 70
0
  9
$ATTMODE
 70
1
  9
$TEXTSIZE
 40
3.5
  9
$TRACEWID
 40
0.5
  9
$TEXTSTYLE
  7
STANDARD
  9
$CLAYER
  8
0
  9
$CELTYPE
  6
BYLAYER
  9
$CECOLOR
 62
256
  9
$DIMSCALE
 40
1
  9
$DIMASZ
 40
0.18
  9
$DIMEXO
 40
0.0625
  9
$DIMDLI
 40
0.38
  9
$DIMRND
 40
0
  9
$DIMDLE
 40
0
  9
$DIMEXE
 40
0.18
  9
$DIMTP
 40
0
  9
$DIMTM
 40
0
  9
$DIMTXT
 40
0.18
  9
$DIMCEN
 40
0.09
  9
$DIMTSZ
 40
0
  9
$DIMTOL
 70
0
  9
$DIMLIM
 70
0
  9
$DIMTIH
 70
1
  9
$DIMTOH
 70
1
  9
$DIMSE1
 70
0
  9
$DIMSE2
 70
0
  9
$DIMTAD
 70
0
  9
$DIMZIN
 70
0
  9
$DIMBLK
  1

  9
$DIMASO
 70
1
  9
$DIMSHO
 70
1
  9
$DIMPOST
  1

  9
$DIMAPOST
  1

  9
$DIMALT
 70
0
  9
$DIMALTD
 70
2
  9
$DIMALTF
 40
25.4
  9
$DIMLFAC
 40
1
  9
$DIMTOFL
 70
0
  9
$DIMTVP
 40
0
  9
$DIMTIX
 70
0
  9
$DIMSOXD
 70
0
  9
$DIMSAH
 70
0
  9
$DIMBLK1
  1

  9
$DIMBLK2
  1

  9
$DIMSTYLE
  2
*UNNAMED
  9
$DIMCLRD
 70
0
  9
$DIMCLRE
 70
0
  9
$DIMCLRT
 70
0
  9
$DIMTFAC
 40
1
  9
$DIMGAP
 40
0.09
  9
$LUNITS
 70
2
  9
$LUPREC
 70
4
  9
$AXISMODE
 70
0
  9
$AXISUNIT
 10
0
 20
0
  9
$SKETCHINC
 40
0.1
  9
$FILLETRAD
 40
2
  9
$AUNITS
 70
0
  9
$AUPREC
 70
0
  9
$MENU
  1
ACAD
  9
$ELEVATION
 40
0
  9
$THICKNESS
 40
0
  9
$VIEWDIR
 10
0
 20
0
 30
1
  9
$LIMCHECK
 70
0
  9
$BLIPMODE
 70
1
  9
$CHAMFERA
 40
0
  9
$CHAMFERB
 40
0
  9
$FASTZOOM
 70
1
  9
$SKPOLY
 70
0
  9
$ANGBASE
 50
0
  9
$ANGDIR
 70
0
  9
$PDMODE
 70
0
  9
$PDSIZE
 40
0
  9
$PLINEWID
 40
0
  9
$COORDS
 70
2
  0
ENDSEC
  0
SECTION
  2
TABLES
  0
TABLE
  2
DIMSTYLE
 70
1
  0
DIMSTYLE
  2
DMST_1
 70
0
  3

  4

  5

  6

  7

 40
1
 41
0.1
 42
0
 43
0.7
 44
0.2
 45
0
 46
0
 47
0
 48
0
140
0.1
141
0
142
0.1
143
25.4
144
1
145
0
146
1
147
0.25
 71
0
 72
0
 73
0
 74
0
 75
0
 76
0
 77
0
 78
9
170
0
171
2
172
0
173
0
174
0
175
0
176
7
177
7
178
7
  0
ENDTAB
  0
TABLE
  2
LTYPE
 70
9
  0
LTYPE
  2
CONTINUOUS
 70
64
  3
Solid line
 72
65
 73
0
 40
0
  0
LTYPE
  2
BORDER
 70
64
  3
__ __ . __ __ .
 72
65
 73
6
 40
0.4012606170737454
 49
0.1146458905924987
 49
-0.05732294529624934
 49
0.1146458905924987
 49
-0.05732294529624934
 49
0
 49
-0.05732294529624934
  0
LTYPE
  2
CENTER
 70
64
  3
____ _ ____ _
 72
65
 73
4
 40
0.4585835623699947
 49
0.2866147264812467
 49
-0.05732294529624934
 49
0.05732294529624934
 49
-0.05732294529624934
  0
LTYPE
  2
DASHDOT
 70
64
  3
__ . __ . __ .
 72
65
 73
4
 40
0.2292917811849974
 49
0.1146458905924987
 49
-0.05732294529624934
 49
0
 49
-0.05732294529624934
  0
LTYPE
  2
DASHED
 70
64
  3
__ __ __ __ __
 72
65
 73
2
 40
0.171968835888748
 49
0.1146458905924987
 49
-0.05732294529624934
  0
LTYPE
  2
DIVIDE
 70
64
  3
__ . . __ . . 
 72
65
 73
6
 40
0.2866147264812467
 49
0.1146458905924987
 49
-0.05732294529624934
 49
0
 49
-0.05732294529624934
 49
0
 49
-0.05732294529624934
  0
LTYPE
  2
DOT
 70
64
  3
..............
 72
65
 73
4
 40
0.1146458905924987
 49
0
 49
-0.05732294529624934
 49
0
 49
-0.05732294529624934
  0
LTYPE
  2
HIDDEN
 70
64
  3
_ _ _ _ _ _ _
 72
65
 73
2
 40
0.085984417944374
 49
0.05732294529624934
 49
-0.02866147264812467
  0
LTYPE
  2
PHANTOM
 70
64
  3
_____ _ _ _____ _ _ 
 72
65
 73
6
 40
0.5732294529624934
 49
0.2866147264812467
 49
-0.05732294529624934
 49
0.05732294529624934
 49
-0.05732294529624934
 49
0.05732294529624934
 49
-0.05732294529624934
  0
ENDTAB
  0
TABLE
  2
LAYER
 70
2
  0
LAYER
  2
0
 70
0
 62
7
  6
CONTINUOUS
  0
ENDTAB
  0
TABLE
  2
STYLE
 70
4
  0
STYLE
  2
STANDARD
 70
0
 40
0
 41
1
 50
0
 71
0
 42
3.5
  3
txt
  4

  0
STYLE
  2
SIMPLEX
 70
0
 40
0
 41
1
 50
0
 71
0
 42
3.5
  3
simplex
  4

  0
STYLE
  2
COMPLEX
 70
0
 40
0
 41
1
 50
0
 71
0
 42
3.5
  3
complex
  4

  0
STYLE
  2
ITALIC
 70
0
 40
0
 41
1
 50
0
 71
0
 42
3.5
  3
italic
  4

  0
ENDTAB
  0
TABLE
  2
VIEW
 70
0
  0
ENDTAB
  0
ENDSEC
  0
SECTION
  2
BLOCKS
  0
BLOCK
  8
0
  2
*X0
 70
1
 10
0
 20
0
 30
0
  0
LINE
  8
0
 62
7
 10
4.250000000000001
 20
7.962310601229374
 30
0
 11
4.387689398770624
 21
8.099999999999998
 31
0
  0
LINE
  8
0
 62
7
 10
4.250000000000002
 20
8.068376618407358
 30
0
 11
4.281623381592643
 21
8.099999999999998
 31
0
  0
LINE
  8
0
 62
7
 10
4.343755415948607
 20
7.949999999999998
 30
0
 11
4.425000000000001
 21
8.031244584051393
 31
0
  0
ENDBLK
  8
0
  0
BLOCK
  8
0
  2
*X1
 70
1
 10
0
 20
0
 30
0
  0
LINE
  8
0
 62
7
 10
4.250000000000002
 20
10.72002704785691
 30
0
 11
4.379972952143091
 21
10.85
 31
0
  0
LINE
  8
0
 62
7
 10
4.250000000000002
 20
10.50789501350094
 30
0
 11
4.425000000000001
 21
10.68289501350094
 31
0
  0
LINE
  8
0
 62
7
 10
4.250000000000002
 20
10.29576297914498
 30
0
 11
4.425000000000001
 21
10.47076297914498
 31
0
  0
LINE
  8
0
 62
7
 10
4.250000000000002
 20
10.08363094478901
 30
0
 11
4.425000000000001
 21
10.25863094478901
 31
0
  0
LINE
  8
0
 62
7
 10
4.250000000000002
 20
9.871498910433051
 30
0
 11
4.425000000000001
 21
10.04649891043305
 31
0
  0
LINE
  8
0
 62
7
 10
4.250000000000002
 20
9.659366876077087
 30
0
 11
4.425000000000001
 21
9.834366876077086
 31
0
  0
LINE
  8
0
 62
7
 10
4.250000000000002
 20
9.447234841721123
 30
0
 11
4.425000000000001
 21
9.622234841721122
 31
0
  0
LINE
  8
0
 62
7
 10
4.250000000000002
 20
9.235102807365159
 30
0
 11
4.425000000000001
 21
9.410102807365158
 31
0
  0
LINE
  8
0
 62
7
 10
4.250000000000002
 20
9.022970773009195
 30
0
 11
4.425000000000001
 21
9.197970773009194
 31
0
  0
LINE
  8
0
 62
7
 10
4.250000000000002
 20
8.810838738653231
 30
0
 11
4.425000000000001
 21
8.98583873865323
 31
0
  0
LINE
  8
0
 62
7
 10
4.250000000000002
 20
8.598706704297268
 30
0
 11
4.425000000000001
 21
8.773706704297267
 31
0
  0
LINE
  8
0
 62
7
 10
4.250000000000002
 20
8.386574669941304
 30
0
 11
4.425000000000001
 21
8.561574669941303
 31
0
  0
LINE
  8
0
 62
7
 10
4.375557364414659
 20
8.299999999999997
 30
0
 11
4.425000000000001
 21
8.349442635585339
 31
0
  0
LINE
  8
0
 62
7
 10
4.250000000000002
 20
10.82609306503489
 30
0
 11
4.273906934965108
 21
10.85
 31
0
  0
LINE
  8
0
 62
7
 10
4.250000000000002
 20
10.61396103067892
 30
0
 11
4.425000000000001
 21
10.78896103067892
 31
0
  0
LINE
  8
0
 62
7
 10
4.250000000000002
 20
10.40182899632296
 30
0
 11
4.425000000000001
 21
10.57682899632296
 31
0
  0
LINE
  8
0
 62
7
 10
4.250000000000002
 20
10.189696961967
 30
0
 11
4.425000000000001
 21
10.364696961967
 31
0
  0
LINE
  8
0
 62
7
 10
4.250000000000002
 20
9.977564927611033
 30
0
 11
4.425000000000001
 21
10.15256492761103
 31
0
  0
LINE
  8
0
 62
7
 10
4.250000000000002
 20
9.765432893255069
 30
0
 11
4.425000000000001
 21
9.940432893255068
 31
0
  0
LINE
  8
0
 62
7
 10
4.250000000000002
 20
9.553300858899105
 30
0
 11
4.425000000000001
 21
9.728300858899104
 31
0
  0
LINE
  8
0
 62
7
 10
4.250000000000002
 20
9.341168824543141
 30
0
 11
4.425000000000001
 21
9.51616882454314
 31
0
  0
LINE
  8
0
 62
7
 10
4.250000000000002
 20
9.129036790187177
 30
0
 11
4.425000000000001
 21
9.304036790187176
 31
0
  0
LINE
  8
0
 62
7
 10
4.250000000000002
 20
8.916904755831213
 30
0
 11
4.425000000000001
 21
9.091904755831212
 31
0
  0
LINE
  8
0
 62
7
 10
4.250000000000002
 20
8.704772721475249
 30
0
 11
4.425000000000001
 21
8.879772721475248
 31
0
  0
LINE
  8
0
 62
7
 10
4.250000000000002
 20
8.492640687119286
 30
0
 11
4.425000000000001
 21
8.667640687119285
 31
0
  0
LINE
  8
0
 62
7
 10
4.269491347236678
 20
8.299999999999997
 30
0
 11
4.425000000000001
 21
8.455508652763321
 31
0
  0
ENDBLK
  8
0
  0
BLOCK
  8
0
  2
*X2
 70
1
 10
0
 20
0
 30
0
  0
LINE
  8
0
 62
7
 10
4.250000000000002
 20
11.14429111656884
 30
0
 11
4.305708883431162
 21
11.2
 31
0
  0
LINE
  8
0
 62
7
 10
4.367840917787128
 20
11.05
 30
0
 11
4.425000000000001
 21
11.10715908221287
 31
0
  0
LINE
  8
0
 62
7
 10
4.261774900609145
 20
11.05
 30
0
 11
4.411774900609145
 21
11.2
 31
0
  0
ENDBLK
  8
0
  0
BLOCK
  8
0
  2
*X3
 70
1
 10
0
 20
0
 30
0
  0
LINE
  8
0
 62
7
  6
DASHED
 10
1.1
 20
8.206423150924802
 30
0
 11
1.193576849075195
 21
8.299999999999997
 31
0
  0
LINE
  8
0
 62
7
  6
DASHED
 10
1.20570888343116
 20
8.099999999999998
 30
0
 11
1.40570888343116
 21
8.299999999999997
 31
0
  0
LINE
  8
0
 62
7
  6
DASHED
 10
1.417840917787124
 20
8.099999999999998
 30
0
 11
1.617840917787124
 21
8.299999999999997
 31
0
  0
LINE
  8
0
 62
7
  6
DASHED
 10
1.629972952143088
 20
8.099999999999998
 30
0
 11
1.829972952143088
 21
8.299999999999997
 31
0
  0
LINE
  8
0
 62
7
  6
DASHED
 10
1.842104986499053
 20
8.099999999999998
 30
0
 11
2.042104986499052
 21
8.299999999999997
 31
0
  0
LINE
  8
0
 62
7
  6
DASHED
 10
2.054237020855017
 20
8.099999999999998
 30
0
 11
2.254237020855017
 21
8.299999999999997
 31
0
  0
LINE
  8
0
 62
7
  6
DASHED
 10
2.266369055210981
 20
8.099999999999998
 30
0
 11
2.466369055210981
 21
8.299999999999997
 31
0
  0
LINE
  8
0
 62
7
  6
DASHED
 10
2.478501089566945
 20
8.099999999999998
 30
0
 11
2.678501089566945
 21
8.299999999999997
 31
0
  0
LINE
  8
0
 62
7
  6
DASHED
 10
2.69063312392291
 20
8.099999999999998
 30
0
 11
2.890633123922909
 21
8.299999999999997
 31
0
  0
LINE
  8
0
 62
7
  6
DASHED
 10
2.902765158278874
 20
8.099999999999998
 30
0
 11
3.102765158278874
 21
8.299999999999997
 31
0
  0
LINE
  8
0
 62
7
  6
DASHED
 10
3.114897192634838
 20
8.099999999999998
 30
0
 11
3.314897192634838
 21
8.299999999999997
 31
0
  0
LINE
  8
0
 62
7
  6
DASHED
 10
3.327029226990803
 20
8.099999999999998
 30
0
 11
3.527029226990802
 21
8.299999999999997
 31
0
  0
LINE
  8
0
 62
7
  6
DASHED
 10
3.539161261346767
 20
8.099999999999998
 30
0
 11
3.739161261346767
 21
8.299999999999997
 31
0
  0
LINE
  8
0
 62
7
  6
DASHED
 10
3.751293295702731
 20
8.099999999999998
 30
0
 11
3.951293295702731
 21
8.299999999999997
 31
0
  0
LINE
  8
0
 62
7
  6
DASHED
 10
3.963425330058695
 20
8.099999999999998
 30
0
 11
4.163425330058695
 21
8.299999999999997
 31
0
  0
LINE
  8
0
 62
7
  6
DASHED
 10
4.17555736441466
 20
8.099999999999998
 30
0
 11
4.375557364414659
 21
8.299999999999997
 31
0
  0
LINE
  8
0
 62
7
  6
DASHED
 10
4.387689398770624
 20
8.099999999999998
 30
0
 11
4.575000000000002
 21
8.287310601229375
 31
0
  0
LINE
  8
0
 62
7
 10
1.100000000000001
 20
8.100357133746821
 30
0
 11
1.299642866253178
 21
8.299999999999997
 31
0
  0
LINE
  8
0
 62
7
 10
1.311774900609143
 20
8.099999999999998
 30
0
 11
1.511774900609143
 21
8.299999999999997
 31
0
  0
LINE
  8
0
 62
7
 10
1.523906934965107
 20
8.099999999999998
 30
0
 11
1.723906934965107
 21
8.299999999999997
 31
0
  0
LINE
  8
0
 62
7
 10
1.736038969321072
 20
8.099999999999998
 30
0
 11
1.936038969321071
 21
8.299999999999997
 31
0
  0
LINE
  8
0
 62
7
 10
1.948171003677036
 20
8.099999999999998
 30
0
 11
2.148171003677036
 21
8.299999999999997
 31
0
  0
LINE
  8
0
 62
7
 10
2.160303038033
 20
8.099999999999998
 30
0
 11
2.360303038033
 21
8.299999999999997
 31
0
  0
LINE
  8
0
 62
7
 10
2.372435072388964
 20
8.099999999999998
 30
0
 11
2.572435072388964
 21
8.299999999999997
 31
0
  0
LINE
  8
0
 62
7
 10
2.584567106744929
 20
8.099999999999998
 30
0
 11
2.784567106744928
 21
8.299999999999997
 31
0
  0
LINE
  8
0
 62
7
 10
2.796699141100893
 20
8.099999999999998
 30
0
 11
2.996699141100893
 21
8.299999999999997
 31
0
  0
LINE
  8
0
 62
7
 10
3.008831175456857
 20
8.099999999999998
 30
0
 11
3.208831175456857
 21
8.299999999999997
 31
0
  0
LINE
  8
0
 62
7
 10
3.220963209812822
 20
8.099999999999998
 30
0
 11
3.420963209812821
 21
8.299999999999997
 31
0
  0
LINE
  8
0
 62
7
 10
3.433095244168786
 20
8.099999999999998
 30
0
 11
3.633095244168786
 21
8.299999999999997
 31
0
  0
LINE
  8
0
 62
7
 10
3.64522727852475
 20
8.099999999999998
 30
0
 11
3.84522727852475
 21
8.299999999999997
 31
0
  0
LINE
  8
0
 62
7
 10
3.857359312880714
 20
8.099999999999998
 30
0
 11
4.057359312880714
 21
8.299999999999997
 31
0
  0
LINE
  8
0
 62
7
 10
4.069491347236679
 20
8.099999999999998
 30
0
 11
4.269491347236678
 21
8.299999999999997
 31
0
  0
LINE
  8
0
 62
7
 10
4.281623381592643
 20
8.099999999999998
 30
0
 11
4.481623381592642
 21
8.299999999999997
 31
0
  0
LINE
  8
0
 62
7
 10
4.493755415948606
 20
8.099999999999998
 30
0
 11
4.575000000000001
 21
8.181244584051392
 31
0
  0
ENDBLK
  8
0
  0
BLOCK
  8
0
  2
*X4
 70
1
 10
0
 20
0
 30
0
  0
LINE
  8
0
 62
7
  6
DASHED
 10
1.100000000000001
 20
10.96413959755234
 30
0
 11
1.185860402447664
 21
11.05
 31
0
  0
LINE
  8
0
 62
7
  6
DASHED
 10
1.197992436803628
 20
10.85
 30
0
 11
1.397992436803629
 21
11.05
 31
0
  0
LINE
  8
0
 62
7
  6
DASHED
 10
1.410124471159592
 20
10.85
 30
0
 11
1.610124471159593
 21
11.05
 31
0
  0
LINE
  8
0
 62
7
  6
DASHED
 10
1.622256505515557
 20
10.85
 30
0
 11
1.822256505515557
 21
11.05
 31
0
  0
LINE
  8
0
 62
7
  6
DASHED
 10
1.834388539871521
 20
10.85
 30
0
 11
2.034388539871522
 21
11.05
 31
0
  0
LINE
  8
0
 62
7
  6
DASHED
 10
2.046520574227485
 20
10.85
 30
0
 11
2.246520574227486
 21
11.05
 31
0
  0
LINE
  8
0
 62
7
  6
DASHED
 10
2.25865260858345
 20
10.85
 30
0
 11
2.45865260858345
 21
11.05
 31
0
  0
LINE
  8
0
 62
7
  6
DASHED
 10
2.470784642939414
 20
10.85
 30
0
 11
2.670784642939414
 21
11.05
 31
0
  0
LINE
  8
0
 62
7
  6
DASHED
 10
2.682916677295378
 20
10.85
 30
0
 11
2.882916677295379
 21
11.05
 31
0
  0
LINE
  8
0
 62
7
  6
DASHED
 10
2.895048711651342
 20
10.85
 30
0
 11
3.095048711651343
 21
11.05
 31
0
  0
LINE
  8
0
 62
7
  6
DASHED
 10
3.107180746007307
 20
10.85
 30
0
 11
3.307180746007307
 21
11.05
 31
0
  0
LINE
  8
0
 62
7
  6
DASHED
 10
3.319312780363271
 20
10.85
 30
0
 11
3.519312780363272
 21
11.05
 31
0
  0
LINE
  8
0
 62
7
  6
DASHED
 10
3.531444814719235
 20
10.85
 30
0
 11
3.731444814719236
 21
11.05
 31
0
  0
LINE
  8
0
 62
7
  6
DASHED
 10
3.743576849075199
 20
10.85
 30
0
 11
3.9435768490752
 21
11.05
 31
0
  0
LINE
  8
0
 62
7
  6
DASHED
 10
3.955708883431164
 20
10.85
 30
0
 11
4.155708883431164
 21
11.05
 31
0
  0
LINE
  8
0
 62
7
  6
DASHED
 10
4.167840917787128
 20
10.85
 30
0
 11
4.367840917787128
 21
11.05
 31
0
  0
LINE
  8
0
 62
7
  6
DASHED
 10
4.379972952143092
 20
10.85
 30
0
 11
4.575000000000001
 21
11.04502704785691
 31
0
  0
LINE
  8
0
 62
7
 10
1.1
 20
10.85807358037435
 30
0
 11
1.291926419625646
 21
11.05
 31
0
  0
LINE
  8
0
 62
7
 10
1.30405845398161
 20
10.85
 30
0
 11
1.50405845398161
 21
11.05
 31
0
  0
LINE
  8
0
 62
7
 10
1.516190488337575
 20
10.85
 30
0
 11
1.716190488337574
 21
11.05
 31
0
  0
LINE
  8
0
 62
7
 10
1.728322522693539
 20
10.85
 30
0
 11
1.928322522693539
 21
11.05
 31
0
  0
LINE
  8
0
 62
7
 10
1.940454557049503
 20
10.85
 30
0
 11
2.140454557049503
 21
11.05
 31
0
  0
LINE
  8
0
 62
7
 10
2.152586591405468
 20
10.85
 30
0
 11
2.352586591405467
 21
11.05
 31
0
  0
LINE
  8
0
 62
7
 10
2.364718625761432
 20
10.85
 30
0
 11
2.564718625761432
 21
11.05
 31
0
  0
LINE
  8
0
 62
7
 10
2.576850660117396
 20
10.85
 30
0
 11
2.776850660117396
 21
11.05
 31
0
  0
LINE
  8
0
 62
7
 10
2.78898269447336
 20
10.85
 30
0
 11
2.98898269447336
 21
11.05
 31
0
  0
LINE
  8
0
 62
7
 10
3.001114728829325
 20
10.85
 30
0
 11
3.201114728829324
 21
11.05
 31
0
  0
LINE
  8
0
 62
7
 10
3.213246763185289
 20
10.85
 30
0
 11
3.413246763185289
 21
11.05
 31
0
  0
LINE
  8
0
 62
7
 10
3.425378797541253
 20
10.85
 30
0
 11
3.625378797541253
 21
11.05
 31
0
  0
LINE
  8
0
 62
7
 10
3.637510831897218
 20
10.85
 30
0
 11
3.837510831897217
 21
11.05
 31
0
  0
LINE
  8
0
 62
7
 10
3.849642866253182
 20
10.85
 30
0
 11
4.049642866253182
 21
11.05
 31
0
  0
LINE
  8
0
 62
7
 10
4.061774900609146
 20
10.85
 30
0
 11
4.261774900609145
 21
11.05
 31
0
  0
LINE
  8
0
 62
7
 10
4.27390693496511
 20
10.85
 30
0
 11
4.473906934965109
 21
11.05
 31
0
  0
LINE
  8
0
 62
7
 10
4.486038969321074
 20
10.85
 30
0
 11
4.574999999999999
 21
10.93896103067893
 31
0
  0
ENDBLK
  8
0
  0
BLOCK
  8
0
  2
*X5
 70
1
 10
0
 20
0
 30
0
  0
LINE
  8
0
 62
7
 10
7.960000000000004
 20
8.066066017177985
 30
0
 11
7.993933982822015
 21
8.099999999999998
 31
0
  0
LINE
  8
0
 62
7
 10
8.056066017177983
 20
7.949999999999998
 30
0
 11
8.200000000000001
 21
8.093933982822016
 31
0
  0
LINE
  8
0
 62
7
 10
7.960000000000002
 20
7.960000000000001
 30
0
 11
8.099999999999998
 21
8.099999999999998
 31
0
  0
LINE
  8
0
 62
7
 10
8.162132034355965
 20
7.949999999999999
 30
0
 11
8.200000000000003
 21
7.987867965644037
 31
0
  0
ENDBLK
  8
0
  0
BLOCK
  8
0
  2
*X6
 70
1
 10
0
 20
0
 30
0
  0
LINE
  8
0
 62
7
 10
7.960000000000001
 20
10.82378246380551
 30
0
 11
7.986217536194484
 21
10.85
 31
0
  0
LINE
  8
0
 62
7
 10
7.960000000000001
 20
10.61165042944955
 30
0
 11
8.198349570550448
 21
10.85
 31
0
  0
LINE
  8
0
 62
7
 10
7.960000000000001
 20
10.39951839509358
 30
0
 11
8.200000000000001
 21
10.63951839509359
 31
0
  0
LINE
  8
0
 62
7
 10
7.960000000000001
 20
10.18738636073762
 30
0
 11
8.200000000000001
 21
10.42738636073762
 31
0
  0
LINE
  8
0
 62
7
 10
7.960000000000001
 20
9.975254326381657
 30
0
 11
8.200000000000001
 21
10.21525432638166
 31
0
  0
LINE
  8
0
 62
7
 10
7.960000000000001
 20
9.763122292025693
 30
0
 11
8.200000000000001
 21
10.0031222920257
 31
0
  0
LINE
  8
0
 62
7
 10
7.960000000000001
 20
9.55099025766973
 30
0
 11
8.200000000000001
 21
9.790990257669732
 31
0
  0
LINE
  8
0
 62
7
 10
7.960000000000001
 20
9.338858223313766
 30
0
 11
8.200000000000001
 21
9.578858223313768
 31
0
  0
LINE
  8
0
 62
7
 10
7.960000000000001
 20
9.126726188957802
 30
0
 11
8.200000000000001
 21
9.366726188957804
 31
0
  0
LINE
  8
0
 62
7
 10
7.960000000000001
 20
8.914594154601838
 30
0
 11
8.200000000000001
 21
9.15459415460184
 31
0
  0
LINE
  8
0
 62
7
 10
7.960000000000001
 20
8.702462120245874
 30
0
 11
8.200000000000001
 21
8.942462120245876
 31
0
  0
LINE
  8
0
 62
7
 10
7.960000000000001
 20
8.49033008588991
 30
0
 11
8.200000000000001
 21
8.730330085889912
 31
0
  0
LINE
  8
0
 62
7
 10
7.98180194846605
 20
8.299999999999997
 30
0
 11
8.200000000000001
 21
8.518198051533949
 31
0
  0
LINE
  8
0
 62
7
 10
8.193933982822013
 20
8.299999999999997
 30
0
 11
8.200000000000001
 21
8.306066017177985
 31
0
  0
LINE
  8
0
 62
7
 10
7.960000000000003
 20
10.71771644662753
 30
0
 11
8.092283553372464
 21
10.85
 31
0
  0
LINE
  8
0
 62
7
 10
7.960000000000003
 20
10.50558441227157
 30
0
 11
8.200000000000001
 21
10.74558441227157
 31
0
  0
LINE
  8
0
 62
7
 10
7.960000000000003
 20
10.2934523779156
 30
0
 11
8.200000000000001
 21
10.5334523779156
 31
0
  0
LINE
  8
0
 62
7
 10
7.960000000000003
 20
10.08132034355964
 30
0
 11
8.200000000000001
 21
10.32132034355964
 31
0
  0
LINE
  8
0
 62
7
 10
7.960000000000003
 20
9.869188309203675
 30
0
 11
8.200000000000001
 21
10.10918830920367
 31
0
  0
LINE
  8
0
 62
7
 10
7.960000000000003
 20
9.657056274847712
 30
0
 11
8.200000000000001
 21
9.89705627484771
 31
0
  0
LINE
  8
0
 62
7
 10
7.960000000000003
 20
9.444924240491748
 30
0
 11
8.200000000000001
 21
9.684924240491746
 31
0
  0
LINE
  8
0
 62
7
 10
7.960000000000003
 20
9.232792206135784
 30
0
 11
8.200000000000001
 21
9.472792206135782
 31
0
  0
LINE
  8
0
 62
7
 10
7.960000000000003
 20
9.02066017177982
 30
0
 11
8.200000000000001
 21
9.260660171779818
 31
0
  0
LINE
  8
0
 62
7
 10
7.960000000000003
 20
8.808528137423856
 30
0
 11
8.200000000000001
 21
9.048528137423855
 31
0
  0
LINE
  8
0
 62
7
 10
7.960000000000003
 20
8.596396103067892
 30
0
 11
8.200000000000001
 21
8.836396103067891
 31
0
  0
LINE
  8
0
 62
7
 10
7.960000000000003
 20
8.384264068711929
 30
0
 11
8.200000000000001
 21
8.624264068711927
 31
0
  0
LINE
  8
0
 62
7
 10
8.087867965644033
 20
8.299999999999995
 30
0
 11
8.200000000000001
 21
8.412132034355963
 31
0
  0
ENDBLK
  8
0
  0
BLOCK
  8
0
  2
*X7
 70
1
 10
0
 20
0
 30
0
  0
LINE
  8
0
 62
7
 10
7.97408550183852
 20
11.05
 30
0
 11
8.12408550183852
 21
11.2
 31
0
  0
LINE
  8
0
 62
7
 10
8.186217536194484
 20
11.05
 30
0
 11
8.200000000000001
 21
11.06378246380552
 31
0
  0
LINE
  8
0
 62
7
 10
7.960000000000002
 20
11.14198051533946
 30
0
 11
8.018019484660535
 21
11.2
 31
0
  0
LINE
  8
0
 62
7
 10
8.0801515190165
 20
11.05
 30
0
 11
8.199999999999999
 21
11.1698484809835
 31
0
  0
ENDBLK
  8
0
  0
BLOCK
  8
0
  2
*X8
 70
1
 10
0
 20
0
 30
0
  0
LINE
  8
0
 62
7
  6
DASHED
 10
6.610000000000007
 20
8.200990257669737
 30
0
 11
6.709009742330267
 21
8.299999999999997
 31
0
  0
LINE
  8
0
 62
7
  6
DASHED
 10
6.721141776686233
 20
8.099999999999998
 30
0
 11
6.910000000000005
 21
8.288858223313772
 31
0
  0
LINE
  8
0
 62
7
 10
6.61507575950825
 20
8.099999999999998
 30
0
 11
6.815075759508249
 21
8.299999999999997
 31
0
  0
LINE
  8
0
 62
7
 10
6.827207793864214
 20
8.099999999999998
 30
0
 11
6.910000000000005
 21
8.182792206135789
 31
0
  0
ENDBLK
  8
0
  0
BLOCK
  8
0
  2
*X9
 70
1
 10
0
 20
0
 30
0
  0
LINE
  8
0
 62
7
  6
DASHED
 10
6.610000000000003
 20
10.95870670429727
 30
0
 11
6.701293295702735
 21
11.05
 31
0
  0
LINE
  8
0
 62
7
  6
DASHED
 10
6.713425330058697
 20
10.85
 30
0
 11
6.910000000000005
 21
11.04657466994131
 31
0
  0
LINE
  8
0
 62
7
 10
6.610000000000005
 20
10.85264068711929
 30
0
 11
6.807359312880719
 21
11.05
 31
0
  0
LINE
  8
0
 62
7
 10
6.819491347236681
 20
10.85
 30
0
 11
6.910000000000004
 21
10.94050865276332
 31
0
  0
ENDBLK
  8
0
  0
BLOCK
  8
0
  2
*X10
 70
1
 10
0
 20
0
 30
0
  0
LINE
  8
0
 62
7
  6
DASHED
 10
7.959999999999999
 20
11.03591449816148
 30
0
 11
7.97408550183852
 21
11.05
 31
0
  0
LINE
  8
0
 62
7
  6
DASHED
 10
7.986217536194484
 20
10.85
 30
0
 11
8.186217536194484
 21
11.05
 31
0
  0
LINE
  8
0
 62
7
  6
DASHED
 10
8.198349570550448
 20
10.85
 30
0
 11
8.200000000000001
 21
10.85165042944955
 31
0
  0
LINE
  8
0
 62
7
 10
7.960000000000002
 20
10.9298484809835
 30
0
 11
8.0801515190165
 21
11.05
 31
0
  0
LINE
  8
0
 62
7
 10
8.092283553372464
 20
10.85
 30
0
 11
8.199999999999999
 21
10.95771644662753
 31
0
  0
ENDBLK
  8
0
  0
BLOCK
  8
0
  2
*X11
 70
1
 10
0
 20
0
 30
0
  0
LINE
  8
0
 62
7
  6
DASHED
 10
7.960000000000002
 20
8.278198051533948
 30
0
 11
7.98180194846605
 21
8.299999999999997
 31
0
  0
LINE
  8
0
 62
7
  6
DASHED
 10
7.993933982822015
 20
8.099999999999998
 30
0
 11
8.193933982822013
 21
8.299999999999997
 31
0
  0
LINE
  8
0
 62
7
 10
7.960000000000001
 20
8.172132034355965
 30
0
 11
8.087867965644033
 21
8.299999999999995
 31
0
  0
LINE
  8
0
 62
7
 10
8.099999999999998
 20
8.099999999999998
 30
0
 11
8.200000000000003
 21
8.200000000000001
 31
0
  0
ENDBLK
  8
0
  0
BLOCK
  8
0
  2
*X12
 70
1
 10
0
 20
0
 30
0
  0
LINE
  8
0
 62
7
 10
1.1
 20
4.918376618407356
 30
0
 11
1.101623381592641
 21
4.919999999999998
 31
0
  0
LINE
  8
0
 62
7
 10
1.1
 20
4.706244584051392
 30
0
 11
1.313755415948605
 21
4.919999999999998
 31
0
  0
LINE
  8
0
 62
7
 10
1.285887450304574
 20
4.680000000000001
 30
0
 11
1.52588745030457
 21
4.919999999999998
 31
0
  0
LINE
  8
0
 62
7
 10
1.498019484660539
 20
4.680000000000001
 30
0
 11
1.738019484660534
 21
4.919999999999998
 31
0
  0
LINE
  8
0
 62
7
 10
1.710151519016503
 20
4.680000000000001
 30
0
 11
1.950151519016498
 21
4.919999999999998
 31
0
  0
LINE
  8
0
 62
7
 10
1.922283553372467
 20
4.680000000000001
 30
0
 11
2.162283553372462
 21
4.919999999999998
 31
0
  0
LINE
  8
0
 62
7
 10
2.134415587728431
 20
4.680000000000001
 30
0
 11
2.374415587728427
 21
4.919999999999998
 31
0
  0
LINE
  8
0
 62
7
 10
2.346547622084396
 20
4.680000000000001
 30
0
 11
2.586547622084391
 21
4.919999999999998
 31
0
  0
LINE
  8
0
 62
7
 10
2.55867965644036
 20
4.680000000000001
 30
0
 11
2.798679656440355
 21
4.919999999999998
 31
0
  0
LINE
  8
0
 62
7
 10
2.770811690796324
 20
4.680000000000001
 30
0
 11
3.01081169079632
 21
4.919999999999998
 31
0
  0
LINE
  8
0
 62
7
 10
2.982943725152289
 20
4.680000000000001
 30
0
 11
3.222943725152284
 21
4.919999999999998
 31
0
  0
LINE
  8
0
 62
7
 10
3.195075759508253
 20
4.680000000000001
 30
0
 11
3.435075759508248
 21
4.919999999999998
 31
0
  0
LINE
  8
0
 62
7
 10
3.407207793864217
 20
4.680000000000001
 30
0
 11
3.647207793864212
 21
4.919999999999998
 31
0
  0
LINE
  8
0
 62
7
 10
3.619339828220181
 20
4.680000000000001
 30
0
 11
3.859339828220177
 21
4.919999999999998
 31
0
  0
LINE
  8
0
 62
7
 10
3.831471862576146
 20
4.680000000000001
 30
0
 11
4.071471862576141
 21
4.919999999999998
 31
0
  0
LINE
  8
0
 62
7
 10
4.04360389693211
 20
4.680000000000001
 30
0
 11
4.425000000000001
 21
5.061396103067891
 31
0
  0
LINE
  8
0
 62
7
 10
4.255735931288074
 20
4.680000000000001
 30
0
 11
4.425000000000001
 21
4.849264068711928
 31
0
  0
ENDBLK
  8
0
  0
BLOCK
  8
0
  2
*X13
 70
1
 10
0
 20
0
 30
0
  0
LINE
  8
0
 62
7
 10
1.099999999999999
 20
4.494112549695426
 30
0
 11
1.245887450304573
 21
4.640000000000001
 31
0
  0
LINE
  8
0
 62
7
 10
1.218019484660537
 20
4.4
 30
0
 11
1.458019484660538
 21
4.640000000000001
 31
0
  0
LINE
  8
0
 62
7
 10
1.430151519016503
 20
4.400000000000001
 30
0
 11
1.670151519016502
 21
4.640000000000001
 31
0
  0
LINE
  8
0
 62
7
 10
1.642283553372467
 20
4.400000000000001
 30
0
 11
1.882283553372466
 21
4.640000000000001
 31
0
  0
LINE
  8
0
 62
7
 10
1.854415587728431
 20
4.400000000000001
 30
0
 11
2.094415587728431
 21
4.640000000000001
 31
0
  0
LINE
  8
0
 62
7
 10
2.066547622084395
 20
4.400000000000001
 30
0
 11
2.306547622084395
 21
4.640000000000001
 31
0
  0
LINE
  8
0
 62
7
 10
2.27867965644036
 20
4.400000000000001
 30
0
 11
2.518679656440359
 21
4.640000000000001
 31
0
  0
LINE
  8
0
 62
7
 10
2.490811690796324
 20
4.400000000000001
 30
0
 11
2.730811690796323
 21
4.640000000000001
 31
0
  0
LINE
  8
0
 62
7
 10
2.702943725152288
 20
4.400000000000001
 30
0
 11
2.942943725152288
 21
4.640000000000001
 31
0
  0
LINE
  8
0
 62
7
 10
2.915075759508253
 20
4.400000000000001
 30
0
 11
3.155075759508252
 21
4.640000000000001
 31
0
  0
LINE
  8
0
 62
7
 10
3.127207793864217
 20
4.400000000000001
 30
0
 11
3.367207793864216
 21
4.640000000000001
 31
0
  0
LINE
  8
0
 62
7
 10
3.339339828220181
 20
4.400000000000001
 30
0
 11
3.57933982822018
 21
4.640000000000001
 31
0
  0
LINE
  8
0
 62
7
 10
3.551471862576145
 20
4.400000000000001
 30
0
 11
3.791471862576145
 21
4.640000000000001
 31
0
  0
LINE
  8
0
 62
7
 10
3.76360389693211
 20
4.400000000000001
 30
0
 11
4.003603896932109
 21
4.640000000000001
 31
0
  0
LINE
  8
0
 62
7
 10
3.975735931288074
 20
4.400000000000001
 30
0
 11
4.215735931288073
 21
4.640000000000001
 31
0
  0
LINE
  8
0
 62
7
 10
4.187867965644038
 20
4.400000000000001
 30
0
 11
4.425000000000001
 21
4.637132034355964
 31
0
  0
LINE
  8
0
 62
7
 10
4.250000000000005
 20
4.250000000000003
 30
0
 11
4.425000000000001
 21
4.425
 31
0
  0
LINE
  8
0
 62
7
 10
4.250000000000007
 20
4.037867965644041
 30
0
 11
4.425000000000001
 21
4.212867965644036
 31
0
  0
LINE
  8
0
 62
7
 10
4.250000000000009
 20
3.825735931288079
 30
0
 11
4.425000000000001
 21
4.000735931288072
 31
0
  0
LINE
  8
0
 62
7
 10
4.250000000000011
 20
3.613603896932116
 30
0
 11
4.425000000000001
 21
3.788603896932108
 31
0
  0
LINE
  8
0
 62
7
 10
4.250000000000012
 20
3.401471862576154
 30
0
 11
4.425000000000001
 21
3.576471862576144
 31
0
  0
LINE
  8
0
 62
7
 10
4.310660171779823
 20
3.250000000000001
 30
0
 11
4.425000000000001
 21
3.364339828220179
 31
0
  0
ENDBLK
  8
0
  0
BLOCK
  8
0
  2
*D0
 70
1
 10
0
 20
0
 30
0
  0
LINE
  8
0
 62
7
 10
0.7661666995028771
 20
10.20501767280819
 30
0
 11
0.7661666995028771
 21
11.05
 31
0
  0
LINE
  8
0
 62
7
 10
0.7661666995028771
 20
8.299999999999997
 30
0
 11
0.7661666995028771
 21
9.125017672808189
 31
0
  0
LINE
  8
0
 62
7
 10
1.1
 20
11.05
 30
0
 11
0.716166699502877
 21
11.05
 31
0
  0
LINE
  8
0
 62
7
 10
1.1
 20
8.299999999999997
 30
0
 11
0.716166699502877
 21
8.299999999999997
 31
0
  0
LINE
  8
0
 62
7
 10
0.7308113604435497
 20
8.335355339059324
 30
0
 11
0.8015220385622045
 21
8.26464466094067
 31
0
  0
LINE
  8
0
 62
7
 10
0.8015220385622045
 20
11.01464466094067
 30
0
 11
0.7308113604435497
 21
11.08535533905933
 31
0
  0
TEXT
  8
0
 62
7
 10
0.7361666995028771
 20
9.527517672808191
 30
0
 40
0.1
  1
2,75
 50
90
 41
0.9
  0
TEXT
  8
0
 62
7
 10
0.8961666995028771
 20
9.32501767280819
 30
0
 40
0.1
  1
(260-280)
 50
90
 41
0.9
  0
ENDBLK
  8
0
  0
BLOCK
  8
0
  2
*D1
 70
1
 10
0
 20
0
 30
0
  0
LINE
  8
0
 62
7
 10
4.76019417765471
 20
4.241372794522361
 30
0
 11
4.76019417765471
 21
4.4
 31
0
  0
LINE
  8
0
 62
7
 10
4.76019417765471
 20
3.250000000000001
 30
0
 11
4.76019417765471
 21
3.526372794522361
 31
0
  0
LINE
  8
0
 62
7
 10
4.250000000000003
 20
4.4
 30
0
 11
4.81019417765471
 21
4.4
 31
0
  0
LINE
  8
0
 62
7
 10
4.250000000000001
 20
3.250000000000001
 30
0
 11
4.81019417765471
 21
3.250000000000001
 31
0
  0
LINE
  8
0
 62
7
 10
4.795549516714037
 20
4.364644660940673
 30
0
 11
4.724838838595383
 21
4.435355339059328
 31
0
  0
LINE
  8
0
 62
7
 10
4.724838838595383
 20
3.285355339059329
 30
0
 11
4.795549516714037
 21
3.214644660940674
 31
0
  0
TEXT
  8
0
 62
7
 10
4.80519417765471
 20
3.776372794522361
 30
0
 40
0.1
  1
1,15
 50
90
 41
0.9
  0
ENDBLK
  8
0
  0
BLOCK
  8
0
  2
*D2
 70
1
 10
0
 20
0
 30
0
  0
LINE
  8
0
 62
7
 10
0.8861074646125421
 20
4.256372794522362
 30
0
 11
0.8861074646125421
 21
4.4
 31
0
  0
LINE
  8
0
 62
7
 10
0.8861074646125421
 20
3.350000000000001
 30
0
 11
0.8861074646125421
 21
3.511372794522361
 31
0
  0
LINE
  8
0
 62
7
 10
1.24
 20
4.4
 30
0
 11
0.836107464612542
 21
4.4
 31
0
  0
LINE
  8
0
 62
7
 10
1.24
 20
3.350000000000001
 30
0
 11
0.836107464612542
 21
3.350000000000001
 31
0
  0
LINE
  8
0
 62
7
 10
0.9214628036718695
 20
4.364644660940673
 30
0
 11
0.8507521255532147
 21
4.435355339059328
 31
0
  0
LINE
  8
0
 62
7
 10
0.8507521255532147
 20
3.385355339059329
 30
0
 11
0.9214628036718695
 21
3.314644660940674
 31
0
  0
TEXT
  8
0
 62
7
 10
0.9311074646125421
 20
3.761372794522361
 30
0
 40
0.1
  1
1,05
 50
90
 41
0.9
  0
ENDBLK
  8
0
  0
BLOCK
  8
0
  2
*D3
 70
1
 10
0
 20
0
 30
0
  0
LINE
  8
0
 62
7
 10
3.10569524730138
 20
5.28717974630543
 30
0
 11
4.250000000000004
 21
5.28717974630543
 31
0
  0
LINE
  8
0
 62
7
 10
1.24
 20
5.28717974630543
 30
0
 11
2.36069524730138
 21
5.28717974630543
 31
0
  0
LINE
  8
0
 62
7
 10
4.250000000000004
 20
4.4
 30
0
 11
4.250000000000004
 21
5.33717974630543
 31
0
  0
LINE
  8
0
 62
7
 10
1.24
 20
4.4
 30
0
 11
1.24
 21
5.33717974630543
 31
0
  0
LINE
  8
0
 62
7
 10
1.275355339059327
 20
5.322535085364757
 30
0
 11
1.204644660940673
 21
5.251824407246103
 31
0
  0
LINE
  8
0
 62
7
 10
4.214644660940676
 20
5.251824407246103
 30
0
 11
4.285355339059331
 21
5.322535085364757
 31
0
  0
TEXT
  8
0
 62
7
 10
2.61069524730138
 20
5.24217974630543
 30
0
 40
0.1
  1
3,01
 41
0.9
  0
ENDBLK
  8
0
  0
BLOCK
  8
0
  2
*D4
 70
1
 10
0
 20
0
 30
0
  0
LINE
  8
0
 62
7
 10
3.12968340032331
 20
11.5480876850299
 30
0
 11
4.250000000000001
 21
11.5480876850299
 31
0
  0
LINE
  8
0
 62
7
 10
1.24
 20
11.5480876850299
 30
0
 11
2.38468340032331
 21
11.5480876850299
 31
0
  0
LINE
  8
0
 62
7
 10
4.250000000000001
 20
11.05
 30
0
 11
4.250000000000001
 21
11.5980876850299
 31
0
  0
LINE
  8
0
 62
7
 10
1.24
 20
11.05
 30
0
 11
1.24
 21
11.5980876850299
 31
0
  0
LINE
  8
0
 62
7
 10
1.275355339059327
 20
11.58344302408923
 30
0
 11
1.204644660940673
 21
11.51273234597057
 31
0
  0
LINE
  8
0
 62
7
 10
4.214644660940674
 20
11.51273234597057
 30
0
 11
4.285355339059328
 21
11.58344302408923
 31
0
  0
TEXT
  8
0
 62
7
 10
2.63468340032331
 20
11.5030876850299
 30
0
 40
0.1
  1
3,01
 41
0.9
  0
ENDBLK
  8
0
  0
ENDSEC
  0
SECTION
  2
ENTITIES
  0
INSERT
  8
0
  2
*X0
 10
0
 20
0
 30
0
  0
INSERT
  8
0
  2
*X1
 10
0
 20
0
 30
0
  0
INSERT
  8
0
  2
*X2
 10
0
 20
0
 30
0
  0
INSERT
  8
0
  2
*X3
 10
0
 20
0
 30
0
  0
INSERT
  8
0
  2
*X4
 10
0
 20
0
 30
0
  0
INSERT
  8
0
  2
*X5
 10
0
 20
0
 30
0
  0
INSERT
  8
0
  2
*X6
 10
0
 20
0
 30
0
  0
INSERT
  8
0
  2
*X7
 10
0
 20
0
 30
0
  0
INSERT
  8
0
  2
*X8
 10
0
 20
0
 30
0
  0
INSERT
  8
0
  2
*X9
 10
0
 20
0
 30
0
  0
INSERT
  8
0
  2
*X10
 10
0
 20
0
 30
0
  0
INSERT
  8
0
  2
*X11
 10
0
 20
0
 30
0
  0
INSERT
  8
0
  2
*X12
 10
0
 20
0
 30
0
  0
INSERT
  8
0
  2
*X13
 10
0
 20
0
 30
0
  0
LINE
  8
0
 62
7
 10
3.211826158928391
 20
3.435
 30
0
 11
3.217223218637502
 21
3.437736974053486
 31
0
  0
LINE
  8
0
 62
7
 10
3.217223218637502
 20
3.437736974053486
 30
0
 11
3.285000000000005
 21
3.394406906752756
 31
0
  0
LINE
  8
0
 62
7
 10
3.285000000000005
 20
3.394406906752756
 30
0
 11
3.285000000000005
 21
3.25
 31
0
  0
LINE
  8
0
 62
7
 10
1.520197993707341
 20
3.435
 30
0
 11
1.520198084923551
 21
4.344999995231631
 31
0
  0
LINE
  8
0
 62
7
 10
1.280000000000003
 20
3.435
 30
0
 11
1.520197993707341
 21
3.435
 31
0
  0
LINE
  8
0
 62
7
 10
1.520198084923551
 20
4.344999995231631
 30
0
 11
1.280000000000003
 21
4.345000000000001
 31
0
  0
LINE
  8
0
 62
7
 10
1.750197993707342
 20
3.435
 30
0
 11
1.750198084923551
 21
4.345000000000001
 31
0
  0
LINE
  8
0
 62
7
 10
1.430197993707341
 20
3.435
 30
0
 11
1.750197993707342
 21
3.435
 31
0
  0
LINE
  8
0
 62
7
 10
1.750198084923551
 20
4.345000000000001
 30
0
 11
1.430198084923551
 21
4.345000000000001
 31
0
  0
LINE
  8
0
 62
7
 10
1.980197993707342
 20
3.435
 30
0
 11
1.980198084923551
 21
4.345000000000001
 31
0
  0
LINE
  8
0
 62
7
 10
1.660197993707342
 20
3.435
 30
0
 11
1.980197993707342
 21
3.435
 31
0
  0
LINE
  8
0
 62
7
 10
1.980198084923551
 20
4.345000000000001
 30
0
 11
1.660198084923551
 21
4.345000000000001
 31
0
  0
LINE
  8
0
 62
7
 10
2.210197993707341
 20
3.435
 30
0
 11
2.210198084923551
 21
4.345000000000001
 31
0
  0
LINE
  8
0
 62
7
 10
1.890197993707342
 20
3.435
 30
0
 11
2.210197993707341
 21
3.435
 31
0
  0
LINE
  8
0
 62
7
 10
2.210198084923551
 20
4.345000000000001
 30
0
 11
1.890198084923551
 21
4.345000000000001
 31
0
  0
LINE
  8
0
 62
7
 10
2.440197993707341
 20
3.43499999523163
 30
0
 11
2.440198084923551
 21
4.344999995231631
 31
0
  0
LINE
  8
0
 62
7
 10
2.120197993707341
 20
3.435
 30
0
 11
2.440197993707341
 21
3.43499999523163
 31
0
  0
LINE
  8
0
 62
7
 10
2.440198084923551
 20
4.344999995231631
 30
0
 11
2.120198084923551
 21
4.345000000000001
 31
0
  0
LINE
  8
0
 62
7
 10
2.670197993707341
 20
3.435
 30
0
 11
2.670198084923551
 21
4.345000000000001
 31
0
  0
LINE
  8
0
 62
7
 10
2.350197993707341
 20
3.435
 30
0
 11
2.670197993707341
 21
3.435
 31
0
  0
LINE
  8
0
 62
7
 10
2.670198084923551
 20
4.345000000000001
 30
0
 11
2.350198084923551
 21
4.345000000000001
 31
0
  0
LINE
  8
0
 62
7
 10
2.779337979911912
 20
3.435
 30
0
 11
2.991069761217453
 21
4.345000000000001
 31
0
  0
LINE
  8
0
 62
7
 10
2.580197993707341
 20
3.435
 30
0
 11
2.779337979911912
 21
3.435
 31
0
  0
LINE
  8
0
 62
7
 10
2.991069761217453
 20
4.345000000000001
 30
0
 11
2.580198084923551
 21
4.345000000000001
 31
0
  0
LINE
  8
0
 62
7
 10
2.89092479138211
 20
3.435
 30
0
 11
3.310101729683231
 21
4.345000000000001
 31
0
  0
LINE
  8
0
 62
7
 10
2.686933949778061
 20
3.435
 30
0
 11
2.89092479138211
 21
3.435
 31
0
  0
LINE
  8
0
 62
7
 10
3.310101729683231
 20
4.345000000000001
 30
0
 11
2.898665731083601
 21
4.345000000000001
 31
0
  0
LINE
  8
0
 62
7
 10
3.004099644114423
 20
3.435
 30
0
 11
3.634445478657092
 21
4.345000000000001
 31
0
  0
LINE
  8
0
 62
7
 10
2.791835499276901
 20
3.435
 30
0
 11
3.004099644114423
 21
3.435
 31
0
  0
LINE
  8
0
 62
7
 10
3.634445478657092
 20
4.345000000000001
 30
0
 11
3.211012437578022
 21
4.345000000000001
 31
0
  0
LINE
  8
0
 62
7
 10
3.113847257854211
 20
3.435
 30
0
 11
4.086186725156682
 21
4.345000000000001
 31
0
  0
LINE
  8
0
 62
7
 10
2.894616714109503
 20
3.435
 30
0
 11
3.113847257854211
 21
3.435
 31
0
  0
LINE
  8
0
 62
7
 10
4.086186725156682
 20
4.345000000000001
 30
0
 11
3.524962548652173
 21
4.345000000000001
 31
0
  0
LINE
  8
0
 62
7
 10
3.217223218637502
 20
3.437736974053486
 30
0
 11
4.195000000000003
 21
3.9335902395215
 31
0
  0
LINE
  8
0
 62
7
 10
2.982136240089363
 20
3.435
 30
0
 11
3.211826158928391
 21
3.435
 31
0
  0
LINE
  8
0
 62
7
 10
4.195000000000003
 20
4.345000000000001
 30
0
 11
3.954475707391833
 21
4.345000000000001
 31
0
  0
LINE
  8
0
 62
7
 10
4.195000000000003
 20
3.9335902395215
 30
0
 11
4.195000000000003
 21
4.345000000000001
 31
0
  0
LINE
  8
0
 62
7
 10
3.313421509871512
 20
3.37623687992699
 30
0
 11
4.195000000000003
 21
3.5632920850631
 31
0
  0
LINE
  8
0
 62
7
 10
3.285000000000005
 20
3.394406906752756
 30
0
 11
3.313421509871512
 21
3.37623687992699
 31
0
  0
LINE
  8
0
 62
7
 10
4.195000000000003
 20
3.5632920850631
 30
0
 11
4.195000000000003
 21
4.0345016298875
 31
0
  0
LINE
  8
0
 62
7
 10
3.285000000000005
 20
3.25
 30
0
 11
4.195000000000003
 21
3.25
 31
0
  0
LINE
  8
0
 62
7
 10
4.195000000000003
 20
3.25
 30
0
 11
4.195000000000003
 21
3.65529573819153
 31
0
  0
LINE
  8
0
 62
7
 10
3.804443322383352
 20
3.435000000001011
 30
0
 11
3.804443322383352
 21
3.25
 31
0
  0
LINE
  8
0
 62
7
 10
1.351000000000001
 20
3.848788223121649
 30
0
 11
1.290000000000003
 21
3.954443322383352
 31
0
  0
LINE
  8
0
 62
7
 10
1.351000000000001
 20
4.060098421645052
 30
0
 11
1.351000000000001
 21
3.848788223121649
 31
0
  0
LINE
  8
0
 62
7
 10
1.290000000000003
 20
3.954443322383352
 30
0
 11
1.351000000000001
 21
4.060098421645052
 31
0
  0
LINE
  8
0
 62
7
 10
1.290000000000003
 20
3.954443322383352
 30
0
 11
3.284999999990122
 21
3.954443322383352
 31
0
  0
LINE
  8
0
 62
7
  6
DASHED
 10
1.520197609999966
 20
10.95319993
 30
0
 11
1.520197609999966
 21
10.88819993
 31
0
  0
LINE
  8
0
 62
7
  6
DASHED
 10
1.279999859999967
 20
10.95319993
 30
0
 11
1.520197609999966
 21
10.95319993
 31
0
  0
LINE
  8
0
 62
7
  6
DASHED
 10
1.279999859999967
 20
10.88819993
 30
0
 11
1.279999859999967
 21
10.95319993
 31
0
  0
LINE
  8
0
 62
7
  6
DASHED
 10
1.520197609999966
 20
10.88819993
 30
0
 11
1.279999859999967
 21
10.88819993
 31
0
  0
LINE
  8
0
 62
7
 10
1.750197609999966
 20
10.75679993
 30
0
 11
1.750197609999966
 21
10.69179993
 31
0
  0
LINE
  8
0
 62
7
 10
1.430197609999966
 20
10.75679993
 30
0
 11
1.750197609999966
 21
10.75679993
 31
0
  0
LINE
  8
0
 62
7
 10
1.430197609999966
 20
10.69179993
 30
0
 11
1.430197609999966
 21
10.75679993
 31
0
  0
LINE
  8
0
 62
7
 10
1.750197609999966
 20
10.69179993
 30
0
 11
1.430197609999966
 21
10.69179993
 31
0
  0
LINE
  8
0
 62
7
 10
1.980197459999966
 20
10.56039994
 30
0
 11
1.980197459999966
 21
10.49539994
 31
0
  0
LINE
  8
0
 62
7
 10
1.660197609999966
 20
10.56039994
 30
0
 11
1.980197459999966
 21
10.56039994
 31
0
  0
LINE
  8
0
 62
7
 10
1.660197609999966
 20
10.49539994
 30
0
 11
1.660197609999966
 21
10.56039994
 31
0
  0
LINE
  8
0
 62
7
 10
1.980197459999966
 20
10.49539994
 30
0
 11
1.660197609999966
 21
10.49539994
 31
0
  0
LINE
  8
0
 62
7
 10
2.210197609999966
 20
10.36399995
 30
0
 11
2.210197609999966
 21
10.29899995
 31
0
  0
LINE
  8
0
 62
7
 10
1.890197609999966
 20
10.36399995
 30
0
 11
2.210197609999966
 21
10.36399995
 31
0
  0
LINE
  8
0
 62
7
 10
1.890197609999966
 20
10.29899995
 30
0
 11
1.890197609999966
 21
10.36399995
 31
0
  0
LINE
  8
0
 62
7
 10
2.210197609999966
 20
10.29899995
 30
0
 11
1.890197609999966
 21
10.29899995
 31
0
  0
LINE
  8
0
 62
7
 10
2.440197459999966
 20
10.16759995
 30
0
 11
2.440197609999966
 21
10.16759995
 31
0
  0
LINE
  8
0
 62
7
 10
2.440197609999966
 20
10.16759995
 30
0
 11
2.440197609999966
 21
10.10259995
 31
0
  0
LINE
  8
0
 62
7
 10
2.120197609999966
 20
10.16759995
 30
0
 11
2.440197459999966
 21
10.16759995
 31
0
  0
LINE
  8
0
 62
7
 10
2.120197609999966
 20
10.10259995
 30
0
 11
2.120197609999966
 21
10.16759995
 31
0
  0
LINE
  8
0
 62
7
 10
2.440197609999966
 20
10.10259995
 30
0
 11
2.120197609999966
 21
10.10259995
 31
0
  0
LINE
  8
0
 62
7
 10
2.670197609999966
 20
9.971199959999998
 30
0
 11
2.670197609999966
 21
9.906199959999995
 31
0
  0
LINE
  8
0
 62
7
 10
2.350197459999966
 20
9.971199959999998
 30
0
 11
2.670197609999966
 21
9.971199959999998
 31
0
  0
LINE
  8
0
 62
7
 10
2.350197459999966
 20
9.906199959999995
 30
0
 11
2.350197459999966
 21
9.971199959999998
 31
0
  0
LINE
  8
0
 62
7
 10
2.670197609999966
 20
9.906199959999995
 30
0
 11
2.350197459999966
 21
9.906199959999995
 31
0
  0
LINE
  8
0
 62
7
 10
2.580197609999966
 20
9.774799959999998
 30
0
 11
2.991069039999966
 21
9.774799959999998
 31
0
  0
LINE
  8
0
 62
7
 10
2.991069039999966
 20
9.709799959999998
 30
0
 11
2.580197609999966
 21
9.709799959999998
 31
0
  0
LINE
  8
0
 62
7
 10
2.991069039999966
 20
9.774799959999998
 30
0
 11
2.991069039999966
 21
9.709799959999998
 31
0
  0
LINE
  8
0
 62
7
 10
2.580197609999966
 20
9.709799959999998
 30
0
 11
2.580197609999966
 21
9.774799959999998
 31
0
  0
LINE
  8
0
 62
7
 10
3.310101169999966
 20
9.513399969999998
 30
0
 11
2.686933599999967
 21
9.513399969999998
 31
0
  0
LINE
  8
0
 62
7
 10
2.686933599999967
 20
9.578399969999998
 30
0
 11
3.310101169999966
 21
9.578399969999998
 31
0
  0
LINE
  8
0
 62
7
 10
3.310101169999966
 20
9.578399969999998
 30
0
 11
3.310101169999966
 21
9.513399969999998
 31
0
  0
LINE
  8
0
 62
7
 10
2.686933599999967
 20
9.513399969999998
 30
0
 11
2.686933599999967
 21
9.578399969999998
 31
0
  0
LINE
  8
0
 62
7
 10
3.634445659999967
 20
9.316999979999997
 30
0
 11
2.791834569999966
 21
9.316999979999997
 31
0
  0
LINE
  8
0
 62
7
 10
2.791834569999966
 20
9.381999979999998
 30
0
 11
3.634445659999967
 21
9.381999979999998
 31
0
  0
LINE
  8
0
 62
7
 10
3.634445659999967
 20
9.381999979999998
 30
0
 11
3.634445659999967
 21
9.316999979999997
 31
0
  0
LINE
  8
0
 62
7
 10
2.791834569999966
 20
9.316999979999997
 30
0
 11
2.791834569999966
 21
9.381999979999998
 31
0
  0
LINE
  8
0
 62
7
 10
4.086186399999967
 20
9.120599979999998
 30
0
 11
2.894616399999966
 21
9.120599979999998
 31
0
  0
LINE
  8
0
 62
7
 10
2.894616399999966
 20
9.185599979999997
 30
0
 11
4.086186399999967
 21
9.185599979999997
 31
0
  0
LINE
  8
0
 62
7
 10
4.086186399999967
 20
9.185599979999997
 30
0
 11
4.086186399999967
 21
9.120599979999998
 31
0
  0
LINE
  8
0
 62
7
 10
2.894616399999966
 20
9.120599979999998
 30
0
 11
2.894616399999966
 21
9.185599979999997
 31
0
  0
LINE
  8
0
 62
7
 10
4.194999909999968
 20
8.924199989999998
 30
0
 11
2.982136089999965
 21
8.924199989999998
 31
0
  0
LINE
  8
0
 62
7
 10
2.982136089999965
 20
8.989199989999998
 30
0
 11
4.194999909999968
 21
8.989199989999998
 31
0
  0
LINE
  8
0
 62
7
 10
4.194999909999968
 20
8.989199989999998
 30
0
 11
4.194999909999968
 21
8.924199989999998
 31
0
  0
LINE
  8
0
 62
7
 10
2.982136089999965
 20
8.924199989999998
 30
0
 11
2.982136089999965
 21
8.989199989999998
 31
0
  0
LINE
  8
0
 62
7
 10
3.129200219999966
 20
8.792799989999997
 30
0
 11
4.194999929999965
 21
8.792799989999997
 31
0
  0
LINE
  8
0
 62
7
 10
4.194999929999965
 20
8.727799989999996
 30
0
 11
3.129200219999966
 21
8.727799989999996
 31
0
  0
LINE
  8
0
 62
7
 10
4.194999929999965
 20
8.792799989999997
 30
0
 11
4.194999929999965
 21
8.727799989999996
 31
0
  0
LINE
  8
0
 62
7
 10
3.129200219999966
 20
8.727799989999996
 30
0
 11
3.129200219999966
 21
8.792799989999997
 31
0
  0
LINE
  8
0
 62
7
 10
3.284999859999965
 20
8.596399999999996
 30
0
 11
4.194999999999966
 21
8.596399999999996
 31
0
  0
LINE
  8
0
 62
7
 10
4.194999999999966
 20
8.596399999999996
 30
0
 11
4.194999999999966
 21
8.531399999999996
 31
0
  0
LINE
  8
0
 62
7
 10
3.284999859999965
 20
8.531399999999996
 30
0
 11
3.284999859999965
 21
8.596399999999996
 31
0
  0
LINE
  8
0
 62
7
 10
4.194999999999966
 20
8.531399999999996
 30
0
 11
3.284999859999965
 21
8.531399999999996
 31
0
  0
LINE
  8
0
 62
7
 10
6.994999810000003
 20
10.95319993
 30
0
 11
7.904999700000004
 21
10.95319993
 31
0
  0
LINE
  8
0
 62
7
 10
6.994999810000003
 20
10.88819993
 30
0
 11
6.994999810000003
 21
10.95319993
 31
0
  0
LINE
  8
0
 62
7
 10
7.904999700000004
 20
10.95319993
 30
0
 11
7.904999700000004
 21
10.88819993
 31
0
  0
LINE
  8
0
 62
7
 10
7.904999700000004
 20
10.88819993
 30
0
 11
6.994999810000003
 21
10.88819993
 31
0
  0
LINE
  8
0
 62
7
 10
6.994999810000003
 20
10.75679993
 30
0
 11
7.905000390000004
 21
10.75679993
 31
0
  0
LINE
  8
0
 62
7
 10
6.994999810000003
 20
10.69179993
 30
0
 11
6.994999810000003
 21
10.75679993
 31
0
  0
LINE
  8
0
 62
7
 10
7.905000390000004
 20
10.75679993
 30
0
 11
7.905000390000004
 21
10.69179993
 31
0
  0
LINE
  8
0
 62
7
 10
7.905000390000004
 20
10.69179993
 30
0
 11
6.994999810000003
 21
10.69179993
 31
0
  0
LINE
  8
0
 62
7
 10
6.994999580000004
 20
10.56039994
 30
0
 11
7.904999930000004
 21
10.56039994
 31
0
  0
LINE
  8
0
 62
7
 10
6.994999580000004
 20
10.49539994
 30
0
 11
6.994999580000004
 21
10.56039994
 31
0
  0
LINE
  8
0
 62
7
 10
7.904999930000004
 20
10.56039994
 30
0
 11
7.904999930000004
 21
10.49539994
 31
0
  0
LINE
  8
0
 62
7
 10
7.904999930000004
 20
10.49539994
 30
0
 11
6.994999580000004
 21
10.49539994
 31
0
  0
LINE
  8
0
 62
7
 10
6.995000390000003
 20
10.36399995
 30
0
 11
7.904999770000005
 21
10.36399995
 31
0
  0
LINE
  8
0
 62
7
 10
6.995000390000003
 20
10.29899995
 30
0
 11
6.995000390000003
 21
10.36399995
 31
0
  0
LINE
  8
0
 62
7
 10
7.904999770000005
 20
10.36399995
 30
0
 11
7.904999770000005
 21
10.29899995
 31
0
  0
LINE
  8
0
 62
7
 10
7.904999770000005
 20
10.29899995
 30
0
 11
6.995000390000003
 21
10.29899995
 31
0
  0
LINE
  8
0
 62
7
 10
6.994999620000003
 20
10.16759995
 30
0
 11
7.904999930000004
 21
10.16759995
 31
0
  0
LINE
  8
0
 62
7
 10
6.994999620000003
 20
10.10259995
 30
0
 11
6.994999620000003
 21
10.16759995
 31
0
  0
LINE
  8
0
 62
7
 10
7.904999930000004
 20
10.16759995
 30
0
 11
7.904999930000004
 21
10.10259995
 31
0
  0
LINE
  8
0
 62
7
 10
7.904999930000004
 20
10.10259995
 30
0
 11
6.994999620000003
 21
10.10259995
 31
0
  0
LINE
  8
0
 62
7
 10
6.995000310000004
 20
9.971199959999998
 30
0
 11
7.905000000000001
 21
9.971199959999998
 31
0
  0
LINE
  8
0
 62
7
 10
6.995000310000004
 20
9.906199959999997
 30
0
 11
6.995000310000004
 21
9.971199959999998
 31
0
  0
LINE
  8
0
 62
7
 10
7.905000000000001
 20
9.971199959999998
 30
0
 11
7.905000000000001
 21
9.906199959999997
 31
0
  0
LINE
  8
0
 62
7
 10
7.905000000000001
 20
9.906199959999997
 30
0
 11
6.995000310000004
 21
9.906199959999997
 31
0
  0
LINE
  8
0
 62
7
 10
6.995000000000004
 20
9.774799959999999
 30
0
 11
7.905000310000003
 21
9.774799959999999
 31
0
  0
LINE
  8
0
 62
7
 10
6.995000000000004
 20
9.709799959999998
 30
0
 11
6.995000000000004
 21
9.774799959999999
 31
0
  0
LINE
  8
0
 62
7
 10
7.905000310000003
 20
9.774799959999999
 30
0
 11
7.905000310000003
 21
9.709799959999998
 31
0
  0
LINE
  8
0
 62
7
 10
7.905000310000003
 20
9.709799959999998
 30
0
 11
6.995000000000004
 21
9.709799959999998
 31
0
  0
LINE
  8
0
 62
7
 10
6.994999970000004
 20
9.578399969999998
 30
0
 11
7.90500016
 21
9.578399969999998
 31
0
  0
LINE
  8
0
 62
7
 10
6.994999970000004
 20
9.513399969999998
 30
0
 11
6.994999970000004
 21
9.578399969999998
 31
0
  0
LINE
  8
0
 62
7
 10
7.90500016
 20
9.578399969999998
 30
0
 11
7.90500016
 21
9.513399969999998
 31
0
  0
LINE
  8
0
 62
7
 10
7.90500016
 20
9.513399969999998
 30
0
 11
6.994999970000004
 21
9.513399969999998
 31
0
  0
LINE
  8
0
 62
7
 10
6.994999810000003
 20
9.381999979999998
 30
0
 11
7.905000000000001
 21
9.381999979999998
 31
0
  0
LINE
  8
0
 62
7
 10
6.994999810000003
 20
9.316999979999997
 30
0
 11
6.994999810000003
 21
9.381999979999998
 31
0
  0
LINE
  8
0
 62
7
 10
7.905000000000001
 20
9.381999979999998
 30
0
 11
7.905000000000001
 21
9.316999979999997
 31
0
  0
LINE
  8
0
 62
7
 10
7.905000000000001
 20
9.316999979999997
 30
0
 11
6.994999810000003
 21
9.316999979999997
 31
0
  0
LINE
  8
0
 62
7
 10
6.994999810000003
 20
9.185599979999997
 30
0
 11
7.905000000000001
 21
9.185599979999997
 31
0
  0
LINE
  8
0
 62
7
 10
6.994999810000003
 20
9.120599979999998
 30
0
 11
6.994999810000003
 21
9.185599979999997
 31
0
  0
LINE
  8
0
 62
7
 10
7.905000000000001
 20
9.185599979999997
 30
0
 11
7.905000000000001
 21
9.120599979999998
 31
0
  0
LINE
  8
0
 62
7
 10
7.905000000000001
 20
9.120599979999998
 30
0
 11
6.994999810000003
 21
9.120599979999998
 31
0
  0
LINE
  8
0
 62
7
 10
6.994999970000004
 20
8.989199989999998
 30
0
 11
7.905000000000001
 21
8.989199989999998
 31
0
  0
LINE
  8
0
 62
7
 10
7.905000000000001
 20
8.924199989999998
 30
0
 11
6.994999970000004
 21
8.924199989999998
 31
0
  0
LINE
  8
0
 62
7
 10
6.994999970000004
 20
8.924199989999998
 30
0
 11
6.994999970000004
 21
8.989199989999998
 31
0
  0
LINE
  8
0
 62
7
 10
7.905000000000001
 20
8.989199989999998
 30
0
 11
7.905000000000001
 21
8.924199989999998
 31
0
  0
LINE
  8
0
 62
7
 10
7.594501650000002
 20
8.727799989999996
 30
0
 11
6.936237030000003
 21
8.727799989999996
 31
0
  0
LINE
  8
0
 62
7
 10
6.936237030000003
 20
8.792799989999997
 30
0
 11
7.594501650000002
 21
8.792799989999997
 31
0
  0
LINE
  8
0
 62
7
 10
6.936237030000003
 20
8.727799989999996
 30
0
 11
6.936237030000003
 21
8.792799989999997
 31
0
  0
LINE
  8
0
 62
7
 10
7.594501650000002
 20
8.792799989999997
 30
0
 11
7.594501650000002
 21
8.727799989999996
 31
0
  0
LINE
  8
0
 62
7
 10
6.810000130000002
 20
8.596399999999996
 30
0
 11
7.215295870000005
 21
8.596399999999996
 31
0
  0
LINE
  8
0
 62
7
 10
7.215295870000005
 20
8.531399999999996
 30
0
 11
6.810000130000002
 21
8.531399999999996
 31
0
  0
LINE
  8
0
 62
7
 10
6.810000130000002
 20
8.531399999999996
 30
0
 11
6.810000130000002
 21
8.596399999999996
 31
0
  0
LINE
  8
0
 62
7
 10
7.215295870000005
 20
8.596399999999996
 30
0
 11
7.215295870000005
 21
8.531399999999996
 31
0
  0
LINE
  8
0
 62
7
 10
1.1
 20
11.05
 30
0
 11
1.24
 21
11.05
 31
0
  0
LINE
  8
0
 62
7
 10
1.065
 20
11.05
 30
0
 11
1.24
 21
11.05
 31
0
  0
LINE
  8
0
 62
7
 10
1.1
 20
8.099999999999998
 30
0
 11
4.250000000000001
 21
8.099999999999998
 31
0
  0
LINE
  8
0
 62
7
 10
1.24
 20
8.299999999999997
 30
0
 11
4.250000000000001
 21
8.299999999999997
 31
0
  0
LINE
  8
0
 62
7
 10
1.24
 20
10.85
 30
0
 11
4.250000000000001
 21
10.85
 31
0
  0
LINE
  8
0
 62
7
 10
1.24
 20
11.05
 30
0
 11
4.250000000000001
 21
11.05
 31
0
  0
LINE
  8
0
 62
7
 10
4.250000000000001
 20
7.949999999999998
 30
0
 11
4.250000000000001
 21
8.099999999999998
 31
0
  0
LINE
  8
0
 62
7
 10
4.250000000000001
 20
8.099999999999998
 30
0
 11
4.425000000000001
 21
8.099999999999998
 31
0
  0
LINE
  8
0
 62
7
 10
4.250000000000001
 20
8.299999999999997
 30
0
 11
4.425000000000001
 21
8.299999999999997
 31
0
  0
LINE
  8
0
 62
7
 10
4.250000000000001
 20
10.85
 30
0
 11
4.425000000000001
 21
10.85
 31
0
  0
LINE
  8
0
 62
7
 10
4.250000000000001
 20
11.05
 30
0
 11
4.425000000000001
 21
11.05
 31
0
  0
LINE
  8
0
 62
7
 10
4.425000000000001
 20
7.949999999999998
 30
0
 11
4.425000000000001
 21
8.099999999999998
 31
0
  0
LINE
  8
0
 62
7
 10
4.425000000000001
 20
8.099999999999998
 30
0
 11
4.575000000000001
 21
8.099999999999998
 31
0
  0
LINE
  8
0
 62
7
 10
4.425000000000001
 20
8.299999999999997
 30
0
 11
4.425000000000001
 21
8.399999999999997
 31
0
  0
LINE
  8
0
 62
7
 10
4.425000000000001
 20
8.299999999999997
 30
0
 11
4.575000000000001
 21
8.299999999999997
 31
0
  0
LINE
  8
0
 62
7
 10
4.425000000000001
 20
10.85
 30
0
 11
4.575000000000001
 21
10.85
 31
0
  0
LINE
  8
0
 62
7
 10
4.425000000000001
 20
11.05
 30
0
 11
4.425000000000001
 21
11.15
 31
0
  0
LINE
  8
0
 62
7
 10
4.425000000000001
 20
11.05
 30
0
 11
4.575000000000001
 21
11.05
 31
0
  0
LINE
  8
0
 62
7
  6
DASHDOT
 10
1.1
 20
8.049999999999997
 30
0
 11
1.1
 21
8.099999999999998
 31
0
  0
LINE
  8
0
 62
7
  6
DASHDOT
 10
1.1
 20
10.8
 30
0
 11
1.1
 21
10.85
 31
0
  0
LINE
  8
0
 62
7
  6
DASHDOT
 10
4.575000000000001
 20
8.049999999999997
 30
0
 11
4.575000000000001
 21
8.099999999999998
 31
0
  0
LINE
  8
0
 62
7
  6
DASHDOT
 10
4.575000000000001
 20
10.8
 30
0
 11
4.575000000000001
 21
10.85
 31
0
  0
LINE
  8
0
 62
7
  6
DASHDOT
 10
4.200000000000001
 20
11.2
 30
0
 11
4.250000000000001
 21
11.2
 31
0
  0
LINE
  8
0
 62
7
  6
DASHDOT
 10
4.200000000000001
 20
7.949999999999998
 30
0
 11
4.250000000000001
 21
7.949999999999998
 31
0
  0
LINE
  8
0
 62
7
  6
DASHDOT
 10
1.1
 20
8.399999999999997
 30
0
 11
1.1
 21
8.449999999999998
 31
0
  0
LINE
  8
0
 62
7
 10
4.250000000000001
 20
8.399999999999997
 30
0
 11
4.250000000000001
 21
10.85
 31
0
  0
LINE
  8
0
 62
7
 10
4.425000000000001
 20
8.399999999999997
 30
0
 11
4.575000000000001
 21
8.399999999999997
 31
0
  0
LINE
  8
0
 62
7
 10
4.425000000000001
 20
8.399999999999997
 30
0
 11
4.425000000000001
 21
10.85
 31
0
  0
LINE
  8
0
 62
7
  6
DASHDOT
 10
4.575000000000001
 20
8.399999999999997
 30
0
 11
4.575000000000001
 21
8.449999999999998
 31
0
  0
LINE
  8
0
 62
7
  6
DASHDOT
 10
1.1
 20
11.15
 30
0
 11
1.1
 21
11.2
 31
0
  0
LINE
  8
0
 62
7
 10
4.249999999999999
 20
11.15
 30
0
 11
4.250000000000001
 21
11.2
 31
0
  0
LINE
  8
0
 62
7
 10
4.425000000000001
 20
11.15
 30
0
 11
4.575000000000001
 21
11.15
 31
0
  0
LINE
  8
0
 62
7
 10
4.425000000000001
 20
11.15
 30
0
 11
4.425000000000001
 21
11.2
 31
0
  0
LINE
  8
0
 62
7
  6
DASHDOT
 10
4.575000000000001
 20
11.15
 30
0
 11
4.575000000000001
 21
11.2
 31
0
  0
LINE
  8
0
 62
7
  6
DASHDOT
 10
4.575000000000001
 20
8.099999999999998
 30
0
 11
4.575000000000001
 21
8.299999999999997
 31
0
  0
LINE
  8
0
 62
7
  6
DASHDOT
 10
4.575000000000001
 20
8.299999999999997
 30
0
 11
4.575000000000001
 21
8.399999999999997
 31
0
  0
LINE
  8
0
 62
7
  6
DASHDOT
 10
4.250000000000001
 20
7.949999999999998
 30
0
 11
4.425000000000001
 21
7.949999999999998
 31
0
  0
LINE
  8
0
 62
7
  6
DASHDOT
 10
4.425000000000001
 20
7.949999999999998
 30
0
 11
4.475000000000001
 21
7.949999999999998
 31
0
  0
LINE
  8
0
 62
7
  6
DASHDOT
 10
1.1
 20
8.099999999999998
 30
0
 11
1.1
 21
8.299999999999997
 31
0
  0
LINE
  8
0
 62
7
  6
DASHDOT
 10
1.1
 20
8.299999999999997
 30
0
 11
1.1
 21
8.399999999999997
 31
0
  0
LINE
  8
0
 62
7
  6
DASHDOT
 10
1.1
 20
10.85
 30
0
 11
1.1
 21
11.05
 31
0
  0
LINE
  8
0
 62
7
  6
DASHDOT
 10
1.1
 20
11.05
 30
0
 11
1.1
 21
11.15
 31
0
  0
LINE
  8
0
 62
7
  6
DASHDOT
 10
4.575000000000001
 20
10.85
 30
0
 11
4.575000000000001
 21
11.05
 31
0
  0
LINE
  8
0
 62
7
  6
DASHDOT
 10
4.575000000000001
 20
11.05
 30
0
 11
4.575000000000001
 21
11.15
 31
0
  0
LINE
  8
0
 62
7
  6
DASHDOT
 10
4.250000000000001
 20
11.2
 30
0
 11
4.425000000000001
 21
11.2
 31
0
  0
LINE
  8
0
 62
7
  6
DASHDOT
 10
4.425000000000001
 20
11.2
 30
0
 11
4.475000000000001
 21
11.2
 31
0
  0
LINE
  8
0
 62
7
 10
8.200000000000001
 20
8.099999999999998
 30
0
 11
8.200000000000001
 21
7.949999999999998
 31
0
  0
LINE
  8
0
 62
7
 10
7.960000000000001
 20
11.15
 30
0
 11
7.960000000000001
 21
11.2
 31
0
  0
LINE
  8
0
 62
7
 10
7.960000000000001
 20
11.05
 30
0
 11
8.200000000000001
 21
11.05
 31
0
  0
LINE
  8
0
 62
7
 10
8.200000000000001
 20
11.2
 30
0
 11
8.200000000000001
 21
11.05
 31
0
  0
LINE
  8
0
 62
7
 10
7.960000000000001
 20
10.85
 30
0
 11
7.960000000000001
 21
11.05
 31
0
  0
LINE
  8
0
 62
7
 10
7.960000000000001
 20
10.85
 30
0
 11
8.200000000000001
 21
10.85
 31
0
  0
LINE
  8
0
 62
7
 10
8.200000000000001
 20
11.05
 30
0
 11
8.200000000000001
 21
10.85
 31
0
  0
LINE
  8
0
 62
7
 10
7.960000000000001
 20
8.299999999999997
 30
0
 11
7.960000000000001
 21
10.85
 31
0
  0
LINE
  8
0
 62
7
 10
7.960000000000001
 20
8.299999999999997
 30
0
 11
8.200000000000001
 21
8.299999999999997
 31
0
  0
LINE
  8
0
 62
7
 10
8.200000000000001
 20
10.85
 30
0
 11
8.200000000000001
 21
8.299999999999997
 31
0
  0
LINE
  8
0
 62
7
 10
7.960000000000001
 20
8.099999999999998
 30
0
 11
7.960000000000001
 21
8.299999999999997
 31
0
  0
LINE
  8
0
 62
7
 10
7.960000000000001
 20
8.099999999999998
 30
0
 11
8.200000000000001
 21
8.099999999999998
 31
0
  0
LINE
  8
0
 62
7
 10
8.200000000000001
 20
8.299999999999997
 30
0
 11
8.200000000000001
 21
8.099999999999998
 31
0
  0
LINE
  8
0
 62
7
 10
7.960000000000001
 20
7.949999999999998
 30
0
 11
7.960000000000001
 21
8.099999999999998
 31
0
  0
LINE
  8
0
 62
7
 10
6.910000000000005
 20
10.85
 30
0
 11
6.910000000000005
 21
11.05
 31
0
  0
LINE
  8
0
 62
7
 10
6.610000000000006
 20
10.85
 30
0
 11
6.910000000000005
 21
10.85
 31
0
  0
LINE
  8
0
 62
7
 10
6.610000000000006
 20
11.05
 30
0
 11
6.910000000000005
 21
11.05
 31
0
  0
LINE
  8
0
 62
7
 10
6.610000000000006
 20
8.299999999999997
 30
0
 11
6.910000000000005
 21
8.299999999999997
 31
0
  0
LINE
  8
0
 62
7
 10
6.910000000000005
 20
8.099999999999998
 30
0
 11
6.910000000000005
 21
8.299999999999997
 31
0
  0
LINE
  8
0
 62
7
 10
6.610000000000006
 20
8.099999999999998
 30
0
 11
6.910000000000005
 21
8.099999999999998
 31
0
  0
LINE
  8
0
 62
7
  6
DASHDOT
 10
8.200000000000001
 20
11.2
 30
0
 11
8.25
 21
11.2
 31
0
  0
LINE
  8
0
 62
7
  6
DASHDOT
 10
6.610000000000006
 20
11.15
 30
0
 11
6.610000000000006
 21
11.2
 31
0
  0
LINE
  8
0
 62
7
  6
DASHDOT
 10
6.610000000000006
 20
8.099999999999998
 30
0
 11
6.610000000000006
 21
8.049999999999997
 31
0
  0
LINE
  8
0
 62
7
  6
DASHDOT
 10
8.200000000000001
 20
7.949999999999998
 30
0
 11
8.25
 21
7.949999999999998
 31
0
  0
LINE
  8
0
 62
7
 10
6.610000000000006
 20
8.399999999999997
 30
0
 11
6.910000000000005
 21
8.399999999999997
 31
0
  0
LINE
  8
0
 62
7
  6
DASHDOT
 10
6.610000000000006
 20
8.449999999999998
 30
0
 11
6.610000000000006
 21
8.399999999999997
 31
0
  0
LINE
  8
0
 62
7
 10
6.610000000000006
 20
11.15
 30
0
 11
6.910000000000005
 21
11.15
 31
0
  0
LINE
  8
0
 62
7
  6
DASHDOT
 10
6.610000000000006
 20
11.05
 30
0
 11
6.610000000000006
 21
11.15
 31
0
  0
LINE
  8
0
 62
7
  6
DASHDOT
 10
6.610000000000006
 20
8.399999999999997
 30
0
 11
6.610000000000006
 21
8.299999999999997
 31
0
  0
LINE
  8
0
 62
7
  6
DASHDOT
 10
6.610000000000006
 20
8.299999999999997
 30
0
 11
6.610000000000006
 21
8.099999999999998
 31
0
  0
LINE
  8
0
 62
7
  6
DASHDOT
 10
7.960000000000001
 20
7.949999999999998
 30
0
 11
8.200000000000001
 21
7.949999999999998
 31
0
  0
LINE
  8
0
 62
7
  6
DASHDOT
 10
7.910000000000001
 20
7.949999999999998
 30
0
 11
7.960000000000001
 21
7.949999999999998
 31
0
  0
LINE
  8
0
 62
7
  6
DASHDOT
 10
7.910000000000001
 20
11.2
 30
0
 11
7.960000000000001
 21
11.2
 31
0
  0
LINE
  8
0
 62
7
  6
DASHDOT
 10
7.960000000000001
 20
11.2
 30
0
 11
8.200000000000001
 21
11.2
 31
0
  0
LINE
  8
0
 62
7
  6
DASHDOT
 10
6.610000000000006
 20
10.8
 30
0
 11
6.610000000000006
 21
10.85
 31
0
  0
LINE
  8
0
 62
7
  6
DASHDOT
 10
6.610000000000006
 20
10.85
 30
0
 11
6.610000000000006
 21
11.05
 31
0
  0
LINE
  8
0
 62
7
  6
DASHED
 10
6.910000000000005
 20
11.05
 30
0
 11
7.960000000000001
 21
11.05
 31
0
  0
LINE
  8
0
 62
7
  6
DASHED
 10
6.910000000000005
 20
10.85
 30
0
 11
7.960000000000001
 21
10.85
 31
0
  0
LINE
  8
0
 62
7
  6
DASHED
 10
6.910000000000005
 20
8.299999999999997
 30
0
 11
7.960000000000001
 21
8.299999999999997
 31
0
  0
LINE
  8
0
 62
7
  6
DASHED
 10
6.910000000000005
 20
8.099999999999998
 30
0
 11
7.960000000000001
 21
8.099999999999998
 31
0
  0
LINE
  8
0
 62
7
 10
4.250000000000001
 20
4.919999999999998
 30
0
 11
4.250000000000001
 21
5.069999999999998
 31
0
  0
LINE
  8
0
 62
7
 10
1.1
 20
4.919999999999998
 30
0
 11
4.250000000000001
 21
4.919999999999998
 31
0
  0
LINE
  8
0
 62
7
 10
4.250000000000012
 20
3.350000000000001
 30
0
 11
4.250000000000001
 21
3.250000000000001
 31
0
  0
LINE
  8
0
 62
7
 10
4.250000000000001
 20
3.250000000000001
 30
0
 11
4.425000000000001
 21
3.250000000000001
 31
0
  0
LINE
  8
0
 62
7
 10
4.425000000000001
 20
3.250000000000001
 30
0
 11
4.425000000000001
 21
4.640000000000001
 31
0
  0
LINE
  8
0
 62
7
 10
1.29
 20
4.4
 30
0
 11
4.250000000000003
 21
4.4
 31
0
  0
LINE
  8
0
 62
7
  6
DASHDOT
 10
1.24
 20
3.350000000000001
 30
0
 11
1.24
 21
4.4
 31
0
  0
LINE
  8
0
 62
7
  6
DASHDOT
 10
1.29
 20
3.350000000000001
 30
0
 11
1.24
 21
3.350000000000001
 31
0
  0
LINE
  8
0
 62
7
 10
4.250000000000003
 20
4.4
 30
0
 11
4.250000000000012
 21
3.350000000000001
 31
0
  0
LINE
  8
0
 62
7
  6
DASHDOT
 10
4.425000000000001
 20
5.069999999999998
 30
0
 11
4.475000000000001
 21
5.069999999999998
 31
0
  0
LINE
  8
0
 62
7
  6
DASHDOT
 10
1.1
 20
4.919999999999998
 30
0
 11
1.1
 21
4.969999999999998
 31
0
  0
LINE
  8
0
 62
7
  6
DASHDOT
 10
1.1
 20
4.680000000000001
 30
0
 11
1.1
 21
4.919999999999998
 31
0
  0
LINE
  8
0
 62
7
  6
DASHDOT
 10
4.250000000000001
 20
5.069999999999998
 30
0
 11
4.425000000000001
 21
5.069999999999998
 31
0
  0
LINE
  8
0
 62
7
  6
DASHDOT
 10
4.200000000000001
 20
5.069999999999998
 30
0
 11
4.250000000000001
 21
5.069999999999998
 31
0
  0
LINE
  8
0
 62
7
  6
DASHDOT
 10
1.1
 20
4.640000000000001
 30
0
 11
1.1
 21
4.680000000000001
 31
0
  0
LINE
  8
0
 62
7
  6
DASHDOT
 10
1.1
 20
4.4
 30
0
 11
1.1
 21
4.640000000000001
 31
0
  0
LINE
  8
0
 62
7
 10
1.1
 20
4.640000000000001
 30
0
 11
4.425000000000001
 21
4.640000000000001
 31
0
  0
LINE
  8
0
 62
7
 10
4.425000000000001
 20
4.680000000000001
 30
0
 11
4.425000000000001
 21
5.069999999999998
 31
0
  0
LINE
  8
0
 62
7
 10
1.1
 20
4.680000000000001
 30
0
 11
4.425000000000001
 21
4.680000000000001
 31
0
  0
LINE
  8
0
 62
7
 10
1.1
 20
4.4
 30
0
 11
1.24
 21
4.4
 31
0
  0
LINE
  8
0
 62
7
  6
DASHDOT
 10
1.1
 20
4.350000000000001
 30
0
 11
1.1
 21
4.4
 31
0
  0
LINE
  8
0
 62
7
 10
1.29
 20
3.350000000000001
 30
0
 11
1.29
 21
4.4
 31
0
  0
LINE
  8
0
 62
7
 10
1.24
 20
4.4
 30
0
 11
1.29
 21
4.4
 31
0
  0
LINE
  8
0
 62
7
  6
DASHDOT
 10
4.250000000000012
 20
3.350000000000001
 30
0
 11
1.29
 21
3.350000000000001
 31
0
  0
LINE
  8
0
 62
7
 10
1.1
 20
8.399999999999997
 30
0
 11
4.250000000000001
 21
8.399999999999997
 31
0
  0
LINE
  8
0
 62
7
 10
4.250000000000001
 20
8.299999999999997
 30
0
 11
4.250000000000001
 21
8.399999999999997
 31
0
  0
LINE
  8
0
 62
7
 10
1.1
 20
8.299999999999997
 30
0
 11
1.24
 21
8.299999999999997
 31
0
  0
LINE
  8
0
 62
7
 10
4.249999999999999
 20
11.15
 30
0
 11
1.1
 21
11.15
 31
0
  0
LINE
  8
0
 62
7
 10
4.250000000000001
 20
11.05
 30
0
 11
4.249999999999999
 21
11.15
 31
0
  0
LINE
  8
0
 62
7
 10
1.24
 20
10.85
 30
0
 11
1.24
 21
11.05
 31
0
  0
LINE
  8
0
 62
7
 10
1.1
 20
10.85
 30
0
 11
1.24
 21
10.85
 31
0
  0
LINE
  8
0
 62
7
 10
7.960000000000001
 20
11.15
 30
0
 11
6.910000000000005
 21
11.15
 31
0
  0
LINE
  8
0
 62
7
 10
7.960000000000001
 20
11.05
 30
0
 11
7.960000000000001
 21
11.15
 31
0
  0
LINE
  8
0
 62
7
 10
1.89861639967638
 20
4.100797152103561
 30
0
 11
1.89861639967638
 21
4.220797152103561
 31
0
  0
LINE
  8
0
 62
7
 10
1.97421639967638
 20
4.220797152103561
 30
0
 11
1.92021639967638
 21
4.160797152103561
 31
0
  0
LINE
  8
0
 62
7
 10
1.92021639967638
 20
4.160797152103561
 30
0
 11
1.97421639967638
 21
4.100797152103561
 31
0
  0
LINE
  8
0
 62
7
 10
1.92021639967638
 20
4.160797152103561
 30
0
 11
1.89861639967638
 21
4.136797152103561
 31
0
  0
LINE
  8
0
 62
7
 10
2.08221639967638
 20
4.220797152103561
 30
0
 11
2.00661639967638
 21
4.220797152103561
 31
0
  0
LINE
  8
0
 62
7
 10
2.00661639967638
 20
4.220797152103561
 30
0
 11
2.00661639967638
 21
4.160797152103561
 31
0
  0
LINE
  8
0
 62
7
 10
2.00661639967638
 20
4.100797152103561
 30
0
 11
2.08221639967638
 21
4.100797152103561
 31
0
  0
LINE
  8
0
 62
7
 10
2.07141639967638
 20
4.160797152103561
 30
0
 11
2.00661639967638
 21
4.160797152103561
 31
0
  0
LINE
  8
0
 62
7
 10
2.00661639967638
 20
4.160797152103561
 30
0
 11
2.00661639967638
 21
4.100797152103561
 31
0
  0
LINE
  8
0
 62
7
 10
2.11461639967638
 20
4.100797152103561
 30
0
 11
2.11461639967638
 21
4.220797152103561
 31
0
  0
LINE
  8
0
 62
7
 10
2.11461639967638
 20
4.220797152103561
 30
0
 11
2.19021639967638
 21
4.100797152103561
 31
0
  0
LINE
  8
0
 62
7
 10
2.19021639967638
 20
4.100797152103561
 30
0
 11
2.19021639967638
 21
4.220797152103561
 31
0
  0
LINE
  8
0
 62
7
 10
2.22261639967638
 20
4.100797152103561
 30
0
 11
2.22261639967638
 21
4.220797152103561
 31
0
  0
LINE
  8
0
 62
7
 10
2.22261639967638
 20
4.220797152103561
 30
0
 11
2.29821639967638
 21
4.100797152103561
 31
0
  0
LINE
  8
0
 62
7
 10
2.29821639967638
 20
4.100797152103561
 30
0
 11
2.29821639967638
 21
4.220797152103561
 31
0
  0
LINE
  8
0
 62
7
 10
2.406216399676381
 20
4.184797152103562
 30
0
 11
2.40351639967638
 21
4.196797152103562
 31
0
  0
LINE
  8
0
 62
7
 10
2.40351639967638
 20
4.196797152103562
 30
0
 11
2.39811639967638
 21
4.20579715210356
 31
0
  0
LINE
  8
0
 62
7
 10
2.39811639967638
 20
4.20579715210356
 30
0
 11
2.392716399676381
 21
4.211797152103562
 31
0
  0
LINE
  8
0
 62
7
 10
2.392716399676381
 20
4.211797152103562
 30
0
 11
2.38461639967638
 21
4.217797152103561
 31
0
  0
LINE
  8
0
 62
7
 10
2.38461639967638
 20
4.217797152103561
 30
0
 11
2.37651639967638
 21
4.220797152103561
 31
0
  0
LINE
  8
0
 62
7
 10
2.37651639967638
 20
4.220797152103561
 30
0
 11
2.36031639967638
 21
4.220797152103561
 31
0
  0
LINE
  8
0
 62
7
 10
2.36031639967638
 20
4.220797152103561
 30
0
 11
2.35221639967638
 21
4.217797152103561
 31
0
  0
LINE
  8
0
 62
7
 10
2.35221639967638
 20
4.217797152103561
 30
0
 11
2.34411639967638
 21
4.211797152103562
 31
0
  0
LINE
  8
0
 62
7
 10
2.34411639967638
 20
4.211797152103562
 30
0
 11
2.33871639967638
 21
4.20579715210356
 31
0
  0
LINE
  8
0
 62
7
 10
2.33871639967638
 20
4.20579715210356
 30
0
 11
2.33331639967638
 21
4.196797152103562
 31
0
  0
LINE
  8
0
 62
7
 10
2.33331639967638
 20
4.196797152103562
 30
0
 11
2.33061639967638
 21
4.184797152103562
 31
0
  0
LINE
  8
0
 62
7
 10
2.33061639967638
 20
4.184797152103562
 30
0
 11
2.33061639967638
 21
4.136797152103561
 31
0
  0
LINE
  8
0
 62
7
 10
2.33061639967638
 20
4.136797152103561
 30
0
 11
2.33331639967638
 21
4.124797152103562
 31
0
  0
LINE
  8
0
 62
7
 10
2.33331639967638
 20
4.124797152103562
 30
0
 11
2.33871639967638
 21
4.115797152103561
 31
0
  0
LINE
  8
0
 62
7
 10
2.33871639967638
 20
4.115797152103561
 30
0
 11
2.34411639967638
 21
4.109797152103562
 31
0
  0
LINE
  8
0
 62
7
 10
2.34411639967638
 20
4.109797152103562
 30
0
 11
2.35221639967638
 21
4.103797152103561
 31
0
  0
LINE
  8
0
 62
7
 10
2.35221639967638
 20
4.103797152103561
 30
0
 11
2.36031639967638
 21
4.100797152103561
 31
0
  0
LINE
  8
0
 62
7
 10
2.36031639967638
 20
4.100797152103561
 30
0
 11
2.37651639967638
 21
4.100797152103561
 31
0
  0
LINE
  8
0
 62
7
 10
2.37651639967638
 20
4.100797152103561
 30
0
 11
2.38461639967638
 21
4.103797152103561
 31
0
  0
LINE
  8
0
 62
7
 10
2.38461639967638
 20
4.103797152103561
 30
0
 11
2.392716399676381
 21
4.109797152103562
 31
0
  0
LINE
  8
0
 62
7
 10
2.392716399676381
 20
4.109797152103562
 30
0
 11
2.39811639967638
 21
4.115797152103561
 31
0
  0
LINE
  8
0
 62
7
 10
2.39811639967638
 20
4.115797152103561
 30
0
 11
2.40351639967638
 21
4.124797152103562
 31
0
  0
LINE
  8
0
 62
7
 10
2.40351639967638
 20
4.124797152103562
 30
0
 11
2.406216399676381
 21
4.136797152103561
 31
0
  0
LINE
  8
0
 62
7
 10
2.406216399676381
 20
4.136797152103561
 30
0
 11
2.406216399676381
 21
4.160797152103561
 31
0
  0
LINE
  8
0
 62
7
 10
2.406216399676381
 20
4.160797152103561
 30
0
 11
2.37381639967638
 21
4.160797152103561
 31
0
  0
LINE
  8
0
 62
7
 10
2.48451639967638
 20
4.220797152103561
 30
0
 11
2.468316399676381
 21
4.220797152103561
 31
0
  0
LINE
  8
0
 62
7
 10
2.468316399676381
 20
4.220797152103561
 30
0
 11
2.46021639967638
 21
4.217797152103561
 31
0
  0
LINE
  8
0
 62
7
 10
2.46021639967638
 20
4.217797152103561
 30
0
 11
2.45211639967638
 21
4.211797152103562
 31
0
  0
LINE
  8
0
 62
7
 10
2.45211639967638
 20
4.211797152103562
 30
0
 11
2.44671639967638
 21
4.20579715210356
 31
0
  0
LINE
  8
0
 62
7
 10
2.44671639967638
 20
4.20579715210356
 30
0
 11
2.44131639967638
 21
4.196797152103562
 31
0
  0
LINE
  8
0
 62
7
 10
2.44131639967638
 20
4.196797152103562
 30
0
 11
2.438616399676381
 21
4.184797152103562
 31
0
  0
LINE
  8
0
 62
7
 10
2.438616399676381
 20
4.184797152103562
 30
0
 11
2.438616399676381
 21
4.136797152103561
 31
0
  0
LINE
  8
0
 62
7
 10
2.438616399676381
 20
4.136797152103561
 30
0
 11
2.44131639967638
 21
4.124797152103562
 31
0
  0
LINE
  8
0
 62
7
 10
2.44131639967638
 20
4.124797152103562
 30
0
 11
2.44671639967638
 21
4.115797152103561
 31
0
  0
LINE
  8
0
 62
7
 10
2.44671639967638
 20
4.115797152103561
 30
0
 11
2.45211639967638
 21
4.109797152103562
 31
0
  0
LINE
  8
0
 62
7
 10
2.45211639967638
 20
4.109797152103562
 30
0
 11
2.46021639967638
 21
4.103797152103561
 31
0
  0
LINE
  8
0
 62
7
 10
2.46021639967638
 20
4.103797152103561
 30
0
 11
2.468316399676381
 21
4.100797152103561
 31
0
  0
LINE
  8
0
 62
7
 10
2.468316399676381
 20
4.100797152103561
 30
0
 11
2.48451639967638
 21
4.100797152103561
 31
0
  0
LINE
  8
0
 62
7
 10
2.48451639967638
 20
4.100797152103561
 30
0
 11
2.49261639967638
 21
4.103797152103561
 31
0
  0
LINE
  8
0
 62
7
 10
2.49261639967638
 20
4.103797152103561
 30
0
 11
2.50071639967638
 21
4.109797152103562
 31
0
  0
LINE
  8
0
 62
7
 10
2.50071639967638
 20
4.109797152103562
 30
0
 11
2.50611639967638
 21
4.115797152103561
 31
0
  0
LINE
  8
0
 62
7
 10
2.50611639967638
 20
4.115797152103561
 30
0
 11
2.51151639967638
 21
4.124797152103562
 31
0
  0
LINE
  8
0
 62
7
 10
2.51151639967638
 20
4.124797152103562
 30
0
 11
2.51421639967638
 21
4.136797152103561
 31
0
  0
LINE
  8
0
 62
7
 10
2.51421639967638
 20
4.136797152103561
 30
0
 11
2.51421639967638
 21
4.184797152103562
 31
0
  0
LINE
  8
0
 62
7
 10
2.51421639967638
 20
4.184797152103562
 30
0
 11
2.51151639967638
 21
4.196797152103562
 31
0
  0
LINE
  8
0
 62
7
 10
2.51151639967638
 20
4.196797152103562
 30
0
 11
2.50611639967638
 21
4.20579715210356
 31
0
  0
LINE
  8
0
 62
7
 10
2.50611639967638
 20
4.20579715210356
 30
0
 11
2.50071639967638
 21
4.211797152103562
 31
0
  0
LINE
  8
0
 62
7
 10
2.50071639967638
 20
4.211797152103562
 30
0
 11
2.49261639967638
 21
4.217797152103561
 31
0
  0
LINE
  8
0
 62
7
 10
2.49261639967638
 20
4.217797152103561
 30
0
 11
2.48451639967638
 21
4.220797152103561
 31
0
  0
LINE
  8
0
 62
7
 10
2.535816399676381
 20
4.220797152103561
 30
0
 11
2.57361639967638
 21
4.220797152103561
 31
0
  0
LINE
  8
0
 62
7
 10
2.57361639967638
 20
4.220797152103561
 30
0
 11
2.57361639967638
 21
4.100797152103561
 31
0
  0
LINE
  8
0
 62
7
 10
2.57361639967638
 20
4.220797152103561
 30
0
 11
2.61141639967638
 21
4.220797152103561
 31
0
  0
LINE
  8
0
 62
7
 10
2.64381639967638
 20
4.220797152103561
 30
0
 11
2.68161639967638
 21
4.220797152103561
 31
0
  0
LINE
  8
0
 62
7
 10
2.68161639967638
 20
4.220797152103561
 30
0
 11
2.68161639967638
 21
4.100797152103561
 31
0
  0
LINE
  8
0
 62
7
 10
2.68161639967638
 20
4.220797152103561
 30
0
 11
2.71941639967638
 21
4.220797152103561
 31
0
  0
LINE
  8
0
 62
7
 10
2.838216399676381
 20
4.142797152103561
 30
0
 11
2.89221639967638
 21
4.142797152103561
 31
0
  0
LINE
  8
0
 62
7
 10
3.00021639967638
 20
4.220797152103561
 30
0
 11
3.03801639967638
 21
4.220797152103561
 31
0
  0
LINE
  8
0
 62
7
 10
3.03801639967638
 20
4.220797152103561
 30
0
 11
3.03801639967638
 21
4.100797152103561
 31
0
  0
LINE
  8
0
 62
7
 10
3.03801639967638
 20
4.220797152103561
 30
0
 11
3.075816399676381
 21
4.220797152103561
 31
0
  0
LINE
  8
0
 62
7
 10
3.108216399676381
 20
4.100797152103561
 30
0
 11
3.108216399676381
 21
4.220797152103561
 31
0
  0
LINE
  8
0
 62
7
 10
3.108216399676381
 20
4.220797152103561
 30
0
 11
3.159516399676381
 21
4.220797152103561
 31
0
  0
LINE
  8
0
 62
7
 10
3.159516399676381
 20
4.220797152103561
 30
0
 11
3.170316399676381
 21
4.217797152103561
 31
0
  0
LINE
  8
0
 62
7
 10
3.170316399676381
 20
4.217797152103561
 30
0
 11
3.17841639967638
 21
4.211797152103562
 31
0
  0
LINE
  8
0
 62
7
 10
3.17841639967638
 20
4.211797152103562
 30
0
 11
3.18111639967638
 21
4.20579715210356
 31
0
  0
LINE
  8
0
 62
7
 10
3.18111639967638
 20
4.20579715210356
 30
0
 11
3.18381639967638
 21
4.196797152103562
 31
0
  0
LINE
  8
0
 62
7
 10
3.18381639967638
 20
4.196797152103562
 30
0
 11
3.18381639967638
 21
4.184797152103562
 31
0
  0
LINE
  8
0
 62
7
 10
3.18381639967638
 20
4.184797152103562
 30
0
 11
3.18111639967638
 21
4.175797152103561
 31
0
  0
LINE
  8
0
 62
7
 10
3.18111639967638
 20
4.175797152103561
 30
0
 11
3.17841639967638
 21
4.169797152103562
 31
0
  0
LINE
  8
0
 62
7
 10
3.17841639967638
 20
4.169797152103562
 30
0
 11
3.170316399676381
 21
4.163797152103561
 31
0
  0
LINE
  8
0
 62
7
 10
3.170316399676381
 20
4.163797152103561
 30
0
 11
3.159516399676381
 21
4.160797152103561
 31
0
  0
LINE
  8
0
 62
7
 10
3.159516399676381
 20
4.160797152103561
 30
0
 11
3.15141639967638
 21
4.160797152103561
 31
0
  0
LINE
  8
0
 62
7
 10
3.15141639967638
 20
4.160797152103561
 30
0
 11
3.18381639967638
 21
4.100797152103561
 31
0
  0
LINE
  8
0
 62
7
 10
3.15141639967638
 20
4.160797152103561
 30
0
 11
3.108216399676381
 21
4.160797152103561
 31
0
  0
LINE
  8
0
 62
7
 10
3.28101639967638
 20
4.220797152103561
 30
0
 11
3.20541639967638
 21
4.220797152103561
 31
0
  0
LINE
  8
0
 62
7
 10
3.20541639967638
 20
4.220797152103561
 30
0
 11
3.20541639967638
 21
4.160797152103561
 31
0
  0
LINE
  8
0
 62
7
 10
3.20541639967638
 20
4.100797152103561
 30
0
 11
3.28101639967638
 21
4.100797152103561
 31
0
  0
LINE
  8
0
 62
7
 10
3.270216399676382
 20
4.160797152103561
 30
0
 11
3.20541639967638
 21
4.160797152103561
 31
0
  0
LINE
  8
0
 62
7
 10
3.20541639967638
 20
4.160797152103561
 30
0
 11
3.20541639967638
 21
4.100797152103561
 31
0
  0
LINE
  8
0
 62
7
 10
3.313416399676381
 20
4.100797152103561
 30
0
 11
3.313416399676381
 21
4.160797152103561
 31
0
  0
LINE
  8
0
 62
7
 10
3.313416399676381
 20
4.220797152103561
 30
0
 11
3.364716399676381
 21
4.220797152103561
 31
0
  0
LINE
  8
0
 62
7
 10
3.364716399676381
 20
4.220797152103561
 30
0
 11
3.37551639967638
 21
4.217797152103561
 31
0
  0
LINE
  8
0
 62
7
 10
3.37551639967638
 20
4.217797152103561
 30
0
 11
3.38361639967638
 21
4.211797152103562
 31
0
  0
LINE
  8
0
 62
7
 10
3.38361639967638
 20
4.211797152103562
 30
0
 11
3.38631639967638
 21
4.20579715210356
 31
0
  0
LINE
  8
0
 62
7
 10
3.38631639967638
 20
4.20579715210356
 30
0
 11
3.389016399676381
 21
4.196797152103562
 31
0
  0
LINE
  8
0
 62
7
 10
3.389016399676381
 20
4.196797152103562
 30
0
 11
3.389016399676381
 21
4.184797152103562
 31
0
  0
LINE
  8
0
 62
7
 10
3.389016399676381
 20
4.184797152103562
 30
0
 11
3.38631639967638
 21
4.175797152103561
 31
0
  0
LINE
  8
0
 62
7
 10
3.38631639967638
 20
4.175797152103561
 30
0
 11
3.38361639967638
 21
4.169797152103562
 31
0
  0
LINE
  8
0
 62
7
 10
3.38361639967638
 20
4.169797152103562
 30
0
 11
3.37551639967638
 21
4.163797152103561
 31
0
  0
LINE
  8
0
 62
7
 10
3.37551639967638
 20
4.163797152103561
 30
0
 11
3.364716399676381
 21
4.160797152103561
 31
0
  0
LINE
  8
0
 62
7
 10
3.364716399676381
 20
4.160797152103561
 30
0
 11
3.313416399676381
 21
4.160797152103561
 31
0
  0
LINE
  8
0
 62
7
 10
3.313416399676381
 20
4.160797152103561
 30
0
 11
3.313416399676381
 21
4.220797152103561
 31
0
  0
LINE
  8
0
 62
7
 10
3.41061639967638
 20
4.100797152103561
 30
0
 11
3.41061639967638
 21
4.160797152103561
 31
0
  0
LINE
  8
0
 62
7
 10
3.41061639967638
 20
4.220797152103561
 30
0
 11
3.46191639967638
 21
4.220797152103561
 31
0
  0
LINE
  8
0
 62
7
 10
3.46191639967638
 20
4.220797152103561
 30
0
 11
3.47271639967638
 21
4.217797152103561
 31
0
  0
LINE
  8
0
 62
7
 10
3.47271639967638
 20
4.217797152103561
 30
0
 11
3.48081639967638
 21
4.211797152103562
 31
0
  0
LINE
  8
0
 62
7
 10
3.48081639967638
 20
4.211797152103562
 30
0
 11
3.483516399676381
 21
4.20579715210356
 31
0
  0
LINE
  8
0
 62
7
 10
3.483516399676381
 20
4.20579715210356
 30
0
 11
3.48621639967638
 21
4.196797152103562
 31
0
  0
LINE
  8
0
 62
7
 10
3.48621639967638
 20
4.196797152103562
 30
0
 11
3.48621639967638
 21
4.184797152103562
 31
0
  0
LINE
  8
0
 62
7
 10
3.48621639967638
 20
4.184797152103562
 30
0
 11
3.483516399676381
 21
4.175797152103561
 31
0
  0
LINE
  8
0
 62
7
 10
3.483516399676381
 20
4.175797152103561
 30
0
 11
3.48081639967638
 21
4.169797152103562
 31
0
  0
LINE
  8
0
 62
7
 10
3.48081639967638
 20
4.169797152103562
 30
0
 11
3.47271639967638
 21
4.163797152103561
 31
0
  0
LINE
  8
0
 62
7
 10
3.47271639967638
 20
4.163797152103561
 30
0
 11
3.46191639967638
 21
4.160797152103561
 31
0
  0
LINE
  8
0
 62
7
 10
3.46191639967638
 20
4.160797152103561
 30
0
 11
3.41061639967638
 21
4.160797152103561
 31
0
  0
LINE
  8
0
 62
7
 10
3.41061639967638
 20
4.160797152103561
 30
0
 11
3.41061639967638
 21
4.220797152103561
 31
0
  0
LINE
  8
0
 62
7
 10
3.58341639967638
 20
4.220797152103561
 30
0
 11
3.507816399676381
 21
4.220797152103561
 31
0
  0
LINE
  8
0
 62
7
 10
3.507816399676381
 20
4.220797152103561
 30
0
 11
3.507816399676381
 21
4.160797152103561
 31
0
  0
LINE
  8
0
 62
7
 10
3.507816399676381
 20
4.100797152103561
 30
0
 11
3.58341639967638
 21
4.100797152103561
 31
0
  0
LINE
  8
0
 62
7
 10
3.572616399676381
 20
4.160797152103561
 30
0
 11
3.507816399676381
 21
4.160797152103561
 31
0
  0
LINE
  8
0
 62
7
 10
3.507816399676381
 20
4.160797152103561
 30
0
 11
3.507816399676381
 21
4.100797152103561
 31
0
  0
LINE
  8
0
 62
7
 10
0.625
 20
2.890000000000001
 30
0
 11
0.625
 21
3.01
 31
0
  0
LINE
  8
0
 62
7
 10
0.7006000000000001
 20
3.01
 30
0
 11
0.6466000000000002
 21
2.95
 31
0
  0
LINE
  8
0
 62
7
 10
0.6466000000000002
 20
2.95
 30
0
 11
0.7006000000000001
 21
2.890000000000001
 31
0
  0
LINE
  8
0
 62
7
 10
0.6466000000000002
 20
2.95
 30
0
 11
0.625
 21
2.926
 31
0
  0
LINE
  8
0
 62
7
 10
0.8086000000000002
 20
3.01
 30
0
 11
0.8086000000000002
 21
2.926
 31
0
  0
LINE
  8
0
 62
7
 10
0.8086000000000002
 20
2.926
 30
0
 11
0.8059000000000002
 21
2.914
 31
0
  0
LINE
  8
0
 62
7
 10
0.8059000000000002
 20
2.914
 30
0
 11
0.8005000000000001
 21
2.905
 31
0
  0
LINE
  8
0
 62
7
 10
0.8005000000000001
 20
2.905
 30
0
 11
0.7951000000000001
 21
2.899
 31
0
  0
LINE
  8
0
 62
7
 10
0.7951000000000001
 20
2.899
 30
0
 11
0.787
 21
2.893
 31
0
  0
LINE
  8
0
 62
7
 10
0.787
 20
2.893
 30
0
 11
0.7789
 21
2.890000000000001
 31
0
  0
LINE
  8
0
 62
7
 10
0.7789
 20
2.890000000000001
 30
0
 11
0.7627000000000002
 21
2.890000000000001
 31
0
  0
LINE
  8
0
 62
7
 10
0.7627000000000002
 20
2.890000000000001
 30
0
 11
0.7546000000000002
 21
2.893
 31
0
  0
LINE
  8
0
 62
7
 10
0.7546000000000002
 20
2.893
 30
0
 11
0.7465000000000001
 21
2.899
 31
0
  0
LINE
  8
0
 62
7
 10
0.7465000000000001
 20
2.899
 30
0
 11
0.7411000000000001
 21
2.905
 31
0
  0
LINE
  8
0
 62
7
 10
0.7411000000000001
 20
2.905
 30
0
 11
0.7357
 21
2.914
 31
0
  0
LINE
  8
0
 62
7
 10
0.7357
 20
2.914
 30
0
 11
0.7330000000000001
 21
2.926
 31
0
  0
LINE
  8
0
 62
7
 10
0.7330000000000001
 20
2.926
 30
0
 11
0.7330000000000001
 21
3.01
 31
0
  0
LINE
  8
0
 62
7
 10
0.8410000000000002
 20
3.01
 30
0
 11
0.8788
 21
2.890000000000001
 31
0
  0
LINE
  8
0
 62
7
 10
0.8788
 20
2.890000000000001
 30
0
 11
0.9166000000000003
 21
3.01
 31
0
  0
LINE
  8
0
 62
7
 10
0.9490000000000001
 20
2.992
 30
0
 11
0.9544000000000001
 21
3.001
 31
0
  0
LINE
  8
0
 62
7
 10
0.9544000000000001
 20
3.001
 30
0
 11
0.9625
 21
3.007
 31
0
  0
LINE
  8
0
 62
7
 10
0.9625
 20
3.007
 30
0
 11
0.9733000000000001
 21
3.01
 31
0
  0
LINE
  8
0
 62
7
 10
0.9733000000000001
 20
3.01
 30
0
 11
0.9895
 21
3.01
 31
0
  0
LINE
  8
0
 62
7
 10
0.9895
 20
3.01
 30
0
 11
0.9976000000000002
 21
3.007
 31
0
  0
LINE
  8
0
 62
7
 10
0.9976000000000002
 20
3.007
 30
0
 11
1.0057
 21
3.001
 31
0
  0
LINE
  8
0
 62
7
 10
1.0057
 20
3.001
 30
0
 11
1.0111
 21
2.992
 31
0
  0
LINE
  8
0
 62
7
 10
1.0111
 20
2.992
 30
0
 11
1.0138
 21
2.98
 31
0
  0
LINE
  8
0
 62
7
 10
1.0138
 20
2.98
 30
0
 11
1.0138
 21
2.971
 31
0
  0
LINE
  8
0
 62
7
 10
1.0138
 20
2.971
 30
0
 11
1.0111
 21
2.962
 31
0
  0
LINE
  8
0
 62
7
 10
1.0111
 20
2.962
 30
0
 11
1.0057
 21
2.956
 31
0
  0
LINE
  8
0
 62
7
 10
1.0057
 20
2.956
 30
0
 11
0.9922000000000003
 21
2.95
 31
0
  0
LINE
  8
0
 62
7
 10
0.9733000000000001
 20
2.95
 30
0
 11
0.9922000000000003
 21
2.95
 31
0
  0
LINE
  8
0
 62
7
 10
0.9922000000000003
 20
2.95
 30
0
 11
1.0057
 21
2.944
 31
0
  0
LINE
  8
0
 62
7
 10
1.0057
 20
2.944
 30
0
 11
1.0111
 21
2.938
 31
0
  0
LINE
  8
0
 62
7
 10
1.0111
 20
2.938
 30
0
 11
1.0138
 21
2.929
 31
0
  0
LINE
  8
0
 62
7
 10
1.0138
 20
2.929
 30
0
 11
1.0138
 21
2.92
 31
0
  0
LINE
  8
0
 62
7
 10
1.0138
 20
2.92
 30
0
 11
1.0111
 21
2.908
 31
0
  0
LINE
  8
0
 62
7
 10
1.0111
 20
2.908
 30
0
 11
1.0057
 21
2.899
 31
0
  0
LINE
  8
0
 62
7
 10
1.0057
 20
2.899
 30
0
 11
0.9976000000000002
 21
2.893
 31
0
  0
LINE
  8
0
 62
7
 10
0.9976000000000002
 20
2.893
 30
0
 11
0.9895
 21
2.890000000000001
 31
0
  0
LINE
  8
0
 62
7
 10
0.9895
 20
2.890000000000001
 30
0
 11
0.9733000000000001
 21
2.890000000000001
 31
0
  0
LINE
  8
0
 62
7
 10
0.9733000000000001
 20
2.890000000000001
 30
0
 11
0.9625
 21
2.893
 31
0
  0
LINE
  8
0
 62
7
 10
0.9625
 20
2.893
 30
0
 11
0.9544000000000001
 21
2.899
 31
0
  0
LINE
  8
0
 62
7
 10
0.9544000000000001
 20
2.899
 30
0
 11
0.9490000000000001
 21
2.908
 31
0
  0
LINE
  8
0
 62
7
 10
1.0462
 20
2.98
 30
0
 11
1.0489
 21
2.992
 31
0
  0
LINE
  8
0
 62
7
 10
1.0489
 20
2.992
 30
0
 11
1.0543
 21
3.001
 31
0
  0
LINE
  8
0
 62
7
 10
1.0543
 20
3.001
 30
0
 11
1.0624
 21
3.007
 31
0
  0
LINE
  8
0
 62
7
 10
1.0624
 20
3.007
 30
0
 11
1.0705
 21
3.01
 31
0
  0
LINE
  8
0
 62
7
 10
1.0705
 20
3.01
 30
0
 11
1.0867
 21
3.01
 31
0
  0
LINE
  8
0
 62
7
 10
1.0867
 20
3.01
 30
0
 11
1.0948
 21
3.007
 31
0
  0
LINE
  8
0
 62
7
 10
1.0948
 20
3.007
 30
0
 11
1.1029
 21
3.001
 31
0
  0
LINE
  8
0
 62
7
 10
1.1029
 20
3.001
 30
0
 11
1.1083
 21
2.992
 31
0
  0
LINE
  8
0
 62
7
 10
1.1083
 20
2.992
 30
0
 11
1.111
 21
2.98
 31
0
  0
LINE
  8
0
 62
7
 10
1.111
 20
2.98
 30
0
 11
1.111
 21
2.92
 31
0
  0
LINE
  8
0
 62
7
 10
1.111
 20
2.92
 30
0
 11
1.1083
 21
2.908
 31
0
  0
LINE
  8
0
 62
7
 10
1.1083
 20
2.908
 30
0
 11
1.1029
 21
2.899
 31
0
  0
LINE
  8
0
 62
7
 10
1.1029
 20
2.899
 30
0
 11
1.0948
 21
2.893
 31
0
  0
LINE
  8
0
 62
7
 10
1.0948
 20
2.893
 30
0
 11
1.0867
 21
2.890000000000001
 31
0
  0
LINE
  8
0
 62
7
 10
1.0867
 20
2.890000000000001
 30
0
 11
1.0705
 21
2.890000000000001
 31
0
  0
LINE
  8
0
 62
7
 10
1.0705
 20
2.890000000000001
 30
0
 11
1.0624
 21
2.893
 31
0
  0
LINE
  8
0
 62
7
 10
1.0624
 20
2.893
 30
0
 11
1.0543
 21
2.899
 31
0
  0
LINE
  8
0
 62
7
 10
1.0543
 20
2.899
 30
0
 11
1.0489
 21
2.908
 31
0
  0
LINE
  8
0
 62
7
 10
1.0489
 20
2.908
 30
0
 11
1.0462
 21
2.92
 31
0
  0
LINE
  8
0
 62
7
 10
1.0462
 20
2.92
 30
0
 11
1.0462
 21
2.98
 31
0
  0
LINE
  8
0
 62
7
 10
1.1434
 20
2.974
 30
0
 11
1.1758
 21
3.01
 31
0
  0
LINE
  8
0
 62
7
 10
1.1758
 20
3.01
 30
0
 11
1.1758
 21
2.890000000000001
 31
0
  0
LINE
  8
0
 62
7
 10
1.273
 20
2.890000000000001
 30
0
 11
1.2082
 21
2.890000000000001
 31
0
  0
LINE
  8
0
 62
7
 10
1.2082
 20
2.890000000000001
 30
0
 11
1.2082
 21
3.01
 31
0
  0
LINE
  8
0
 62
7
 10
1.3054
 20
2.992
 30
0
 11
1.3108
 21
3.001
 31
0
  0
LINE
  8
0
 62
7
 10
1.3108
 20
3.001
 30
0
 11
1.3189
 21
3.007
 31
0
  0
LINE
  8
0
 62
7
 10
1.3189
 20
3.007
 30
0
 11
1.3297
 21
3.01
 31
0
  0
LINE
  8
0
 62
7
 10
1.3297
 20
3.01
 30
0
 11
1.3459
 21
3.01
 31
0
  0
LINE
  8
0
 62
7
 10
1.3459
 20
3.01
 30
0
 11
1.354
 21
3.007
 31
0
  0
LINE
  8
0
 62
7
 10
1.354
 20
3.007
 30
0
 11
1.3621
 21
3.001
 31
0
  0
LINE
  8
0
 62
7
 10
1.3621
 20
3.001
 30
0
 11
1.3675
 21
2.992
 31
0
  0
LINE
  8
0
 62
7
 10
1.3675
 20
2.992
 30
0
 11
1.3702
 21
2.98
 31
0
  0
LINE
  8
0
 62
7
 10
1.3702
 20
2.98
 30
0
 11
1.3702
 21
2.971
 31
0
  0
LINE
  8
0
 62
7
 10
1.3702
 20
2.971
 30
0
 11
1.3675
 21
2.962
 31
0
  0
LINE
  8
0
 62
7
 10
1.3675
 20
2.962
 30
0
 11
1.3621
 21
2.956
 31
0
  0
LINE
  8
0
 62
7
 10
1.3621
 20
2.956
 30
0
 11
1.3486
 21
2.95
 31
0
  0
LINE
  8
0
 62
7
 10
1.3297
 20
2.95
 30
0
 11
1.3486
 21
2.95
 31
0
  0
LINE
  8
0
 62
7
 10
1.3486
 20
2.95
 30
0
 11
1.3621
 21
2.944
 31
0
  0
LINE
  8
0
 62
7
 10
1.3621
 20
2.944
 30
0
 11
1.3675
 21
2.938
 31
0
  0
LINE
  8
0
 62
7
 10
1.3675
 20
2.938
 30
0
 11
1.3702
 21
2.929
 31
0
  0
LINE
  8
0
 62
7
 10
1.3702
 20
2.929
 30
0
 11
1.3702
 21
2.92
 31
0
  0
LINE
  8
0
 62
7
 10
1.3702
 20
2.92
 30
0
 11
1.3675
 21
2.908
 31
0
  0
LINE
  8
0
 62
7
 10
1.3675
 20
2.908
 30
0
 11
1.3621
 21
2.899
 31
0
  0
LINE
  8
0
 62
7
 10
1.3621
 20
2.899
 30
0
 11
1.354
 21
2.893
 31
0
  0
LINE
  8
0
 62
7
 10
1.354
 20
2.893
 30
0
 11
1.3459
 21
2.890000000000001
 31
0
  0
LINE
  8
0
 62
7
 10
1.3459
 20
2.890000000000001
 30
0
 11
1.3297
 21
2.890000000000001
 31
0
  0
LINE
  8
0
 62
7
 10
1.3297
 20
2.890000000000001
 30
0
 11
1.3189
 21
2.893
 31
0
  0
LINE
  8
0
 62
7
 10
1.3189
 20
2.893
 30
0
 11
1.3108
 21
2.899
 31
0
  0
LINE
  8
0
 62
7
 10
1.3108
 20
2.899
 30
0
 11
1.3054
 21
2.908
 31
0
  0
LINE
  8
0
 62
7
 10
3.125
 20
2.890000000000001
 30
0
 11
3.125
 21
2.99
 31
0
  0
LINE
  8
0
 62
7
 10
3.125
 20
2.99
 30
0
 11
3.188
 21
2.890000000000001
 31
0
  0
LINE
  8
0
 62
7
 10
3.188
 20
2.890000000000001
 30
0
 11
3.188
 21
2.99
 31
0
  0
LINE
  8
0
 62
7
 10
3.269
 20
2.890000000000001
 30
0
 11
3.215
 21
2.890000000000001
 31
0
  0
LINE
  8
0
 62
7
 10
3.215
 20
2.890000000000001
 30
0
 11
3.215
 21
2.99
 31
0
  0
LINE
  8
0
 62
7
 10
3.296
 20
2.94
 30
0
 11
3.332
 21
2.94
 31
0
  0
LINE
  8
0
 62
7
 10
3.332
 20
2.94
 30
0
 11
3.3365
 21
2.94
 31
0
  0
LINE
  8
0
 62
7
 10
3.3365
 20
2.94
 30
0
 11
3.3455
 21
2.935
 31
0
  0
LINE
  8
0
 62
7
 10
3.3455
 20
2.935
 30
0
 11
3.35
 21
2.93
 31
0
  0
LINE
  8
0
 62
7
 10
3.35
 20
2.93
 30
0
 11
3.3545
 21
2.92
 31
0
  0
LINE
  8
0
 62
7
 10
3.3545
 20
2.92
 30
0
 11
3.3545
 21
2.91
 31
0
  0
LINE
  8
0
 62
7
 10
3.3545
 20
2.91
 30
0
 11
3.35
 21
2.9
 31
0
  0
LINE
  8
0
 62
7
 10
3.35
 20
2.9
 30
0
 11
3.3455
 21
2.895
 31
0
  0
LINE
  8
0
 62
7
 10
3.3455
 20
2.895
 30
0
 11
3.3365
 21
2.890000000000001
 31
0
  0
LINE
  8
0
 62
7
 10
3.3365
 20
2.890000000000001
 30
0
 11
3.296
 21
2.890000000000001
 31
0
  0
LINE
  8
0
 62
7
 10
3.296
 20
2.890000000000001
 30
0
 11
3.296
 21
2.94
 31
0
  0
LINE
  8
0
 62
7
 10
3.296
 20
2.99
 30
0
 11
3.32975
 21
2.99
 31
0
  0
LINE
  8
0
 62
7
 10
3.32975
 20
2.99
 30
0
 11
3.341000000000001
 21
2.9875
 31
0
  0
LINE
  8
0
 62
7
 10
3.341000000000001
 20
2.9875
 30
0
 11
3.34775
 21
2.98
 31
0
  0
LINE
  8
0
 62
7
 10
3.34775
 20
2.98
 30
0
 11
3.35
 21
2.97
 31
0
  0
LINE
  8
0
 62
7
 10
3.35
 20
2.97
 30
0
 11
3.35
 21
2.96
 31
0
  0
LINE
  8
0
 62
7
 10
3.35
 20
2.96
 30
0
 11
3.3455
 21
2.95
 31
0
  0
LINE
  8
0
 62
7
 10
3.3455
 20
2.95
 30
0
 11
3.338750000000001
 21
2.9425
 31
0
  0
LINE
  8
0
 62
7
 10
3.338750000000001
 20
2.9425
 30
0
 11
3.332
 21
2.94
 31
0
  0
LINE
  8
0
 62
7
 10
3.296
 20
2.94
 30
0
 11
3.296
 21
2.99
 31
0
  0
LINE
  8
0
 62
7
 10
3.49625
 20
2.9425
 30
0
 11
3.4895
 21
2.952500000000001
 31
0
  0
LINE
  8
0
 62
7
 10
3.4895
 20
2.952500000000001
 30
0
 11
3.48275
 21
2.9575
 31
0
  0
LINE
  8
0
 62
7
 10
3.48275
 20
2.9575
 30
0
 11
3.476
 21
2.96
 31
0
  0
LINE
  8
0
 62
7
 10
3.476
 20
2.96
 30
0
 11
3.467000000000001
 21
2.96
 31
0
  0
LINE
  8
0
 62
7
 10
3.467000000000001
 20
2.96
 30
0
 11
3.46025
 21
2.9575
 31
0
  0
LINE
  8
0
 62
7
 10
3.46025
 20
2.9575
 30
0
 11
3.4535
 21
2.952500000000001
 31
0
  0
LINE
  8
0
 62
7
 10
3.4535
 20
2.952500000000001
 30
0
 11
3.44675
 21
2.9425
 31
0
  0
LINE
  8
0
 62
7
 10
3.44675
 20
2.9425
 30
0
 11
3.4445
 21
2.935
 31
0
  0
LINE
  8
0
 62
7
 10
3.4445
 20
2.935
 30
0
 11
3.4445
 21
2.915
 31
0
  0
LINE
  8
0
 62
7
 10
3.4445
 20
2.915
 30
0
 11
3.44675
 21
2.9075
 31
0
  0
LINE
  8
0
 62
7
 10
3.44675
 20
2.9075
 30
0
 11
3.4535
 21
2.8975
 31
0
  0
LINE
  8
0
 62
7
 10
3.4535
 20
2.8975
 30
0
 11
3.46025
 21
2.8925
 31
0
  0
LINE
  8
0
 62
7
 10
3.46025
 20
2.8925
 30
0
 11
3.467000000000001
 21
2.890000000000001
 31
0
  0
LINE
  8
0
 62
7
 10
3.467000000000001
 20
2.890000000000001
 30
0
 11
3.476
 21
2.890000000000001
 31
0
  0
LINE
  8
0
 62
7
 10
3.476
 20
2.890000000000001
 30
0
 11
3.48275
 21
2.8925
 31
0
  0
LINE
  8
0
 62
7
 10
3.48275
 20
2.8925
 30
0
 11
3.4895
 21
2.8975
 31
0
  0
LINE
  8
0
 62
7
 10
3.4895
 20
2.8975
 30
0
 11
3.49625
 21
2.9075
 31
0
  0
LINE
  8
0
 62
7
 10
3.56825
 20
2.935
 30
0
 11
3.566000000000001
 21
2.9425
 31
0
  0
LINE
  8
0
 62
7
 10
3.566000000000001
 20
2.9425
 30
0
 11
3.55925
 21
2.952500000000001
 31
0
  0
LINE
  8
0
 62
7
 10
3.55925
 20
2.952500000000001
 30
0
 11
3.5525
 21
2.9575
 31
0
  0
LINE
  8
0
 62
7
 10
3.5525
 20
2.9575
 30
0
 11
3.54575
 21
2.96
 31
0
  0
LINE
  8
0
 62
7
 10
3.54575
 20
2.96
 30
0
 11
3.53675
 21
2.96
 31
0
  0
LINE
  8
0
 62
7
 10
3.53675
 20
2.96
 30
0
 11
3.530000000000001
 21
2.9575
 31
0
  0
LINE
  8
0
 62
7
 10
3.530000000000001
 20
2.9575
 30
0
 11
3.52325
 21
2.952500000000001
 31
0
  0
LINE
  8
0
 62
7
 10
3.52325
 20
2.952500000000001
 30
0
 11
3.5165
 21
2.9425
 31
0
  0
LINE
  8
0
 62
7
 10
3.5165
 20
2.9425
 30
0
 11
3.51425
 21
2.935
 31
0
  0
LINE
  8
0
 62
7
 10
3.51425
 20
2.935
 30
0
 11
3.51425
 21
2.915
 31
0
  0
LINE
  8
0
 62
7
 10
3.51425
 20
2.915
 30
0
 11
3.5165
 21
2.9075
 31
0
  0
LINE
  8
0
 62
7
 10
3.5165
 20
2.9075
 30
0
 11
3.52325
 21
2.8975
 31
0
  0
LINE
  8
0
 62
7
 10
3.52325
 20
2.8975
 30
0
 11
3.530000000000001
 21
2.8925
 31
0
  0
LINE
  8
0
 62
7
 10
3.530000000000001
 20
2.8925
 30
0
 11
3.53675
 21
2.890000000000001
 31
0
  0
LINE
  8
0
 62
7
 10
3.53675
 20
2.890000000000001
 30
0
 11
3.54575
 21
2.890000000000001
 31
0
  0
LINE
  8
0
 62
7
 10
3.54575
 20
2.890000000000001
 30
0
 11
3.5525
 21
2.8925
 31
0
  0
LINE
  8
0
 62
7
 10
3.5525
 20
2.8925
 30
0
 11
3.55925
 21
2.8975
 31
0
  0
LINE
  8
0
 62
7
 10
3.55925
 20
2.8975
 30
0
 11
3.566000000000001
 21
2.9075
 31
0
  0
LINE
  8
0
 62
7
 10
3.566000000000001
 20
2.9075
 30
0
 11
3.56825
 21
2.915
 31
0
  0
LINE
  8
0
 62
7
 10
3.56825
 20
2.96
 30
0
 11
3.56825
 21
2.935
 31
0
  0
LINE
  8
0
 62
7
 10
3.56825
 20
2.8925
 30
0
 11
3.5705
 21
2.890000000000001
 31
0
  0
LINE
  8
0
 62
7
 10
3.5705
 20
2.890000000000001
 30
0
 11
3.57275
 21
2.890000000000001
 31
0
  0
LINE
  8
0
 62
7
 10
3.56825
 20
2.915
 30
0
 11
3.56825
 21
2.8925
 31
0
  0
LINE
  8
0
 62
7
 10
3.56825
 20
2.935
 30
0
 11
3.56825
 21
2.915
 31
0
  0
LINE
  8
0
 62
7
 10
3.59075
 20
2.890000000000001
 30
0
 11
3.59075
 21
2.8925
 31
0
  0
LINE
  8
0
 62
7
 10
3.59075
 20
2.8925
 30
0
 11
3.593
 21
2.8925
 31
0
  0
LINE
  8
0
 62
7
 10
3.593
 20
2.8925
 30
0
 11
3.593
 21
2.890000000000001
 31
0
  0
LINE
  8
0
 62
7
 10
3.593
 20
2.890000000000001
 30
0
 11
3.59075
 21
2.890000000000001
 31
0
  0
LINE
  8
0
 62
7
 10
3.716750000000001
 20
2.99
 30
0
 11
3.72575
 21
2.99
 31
0
  0
LINE
  8
0
 62
7
 10
3.72575
 20
2.99
 30
0
 11
3.7325
 21
2.9875
 31
0
  0
LINE
  8
0
 62
7
 10
3.7325
 20
2.9875
 30
0
 11
3.737
 21
2.9825
 31
0
  0
LINE
  8
0
 62
7
 10
3.737
 20
2.9825
 30
0
 11
3.7415
 21
2.975
 31
0
  0
LINE
  8
0
 62
7
 10
3.7415
 20
2.975
 30
0
 11
3.7415
 21
2.965
 31
0
  0
LINE
  8
0
 62
7
 10
3.7415
 20
2.965
 30
0
 11
3.73925
 21
2.96
 31
0
  0
LINE
  8
0
 62
7
 10
3.73925
 20
2.96
 30
0
 11
3.7325
 21
2.952500000000001
 31
0
  0
LINE
  8
0
 62
7
 10
3.7325
 20
2.952500000000001
 30
0
 11
3.72575
 21
2.95
 31
0
  0
LINE
  8
0
 62
7
 10
3.72575
 20
2.95
 30
0
 11
3.716750000000001
 21
2.95
 31
0
  0
LINE
  8
0
 62
7
 10
3.716750000000001
 20
2.95
 30
0
 11
3.71
 21
2.952500000000001
 31
0
  0
LINE
  8
0
 62
7
 10
3.71
 20
2.952500000000001
 30
0
 11
3.70325
 21
2.96
 31
0
  0
LINE
  8
0
 62
7
 10
3.70325
 20
2.96
 30
0
 11
3.701
 21
2.965
 31
0
  0
LINE
  8
0
 62
7
 10
3.701
 20
2.965
 30
0
 11
3.701
 21
2.975
 31
0
  0
LINE
  8
0
 62
7
 10
3.701
 20
2.975
 30
0
 11
3.7055
 21
2.9825
 31
0
  0
LINE
  8
0
 62
7
 10
3.7055
 20
2.9825
 30
0
 11
3.71
 21
2.9875
 31
0
  0
LINE
  8
0
 62
7
 10
3.71
 20
2.9875
 30
0
 11
3.716750000000001
 21
2.99
 31
0
  0
LINE
  8
0
 62
7
 10
3.716750000000001
 20
2.95
 30
0
 11
3.7055
 21
2.945
 31
0
  0
LINE
  8
0
 62
7
 10
3.7055
 20
2.945
 30
0
 11
3.69875
 21
2.9375
 31
0
  0
LINE
  8
0
 62
7
 10
3.69875
 20
2.9375
 30
0
 11
3.69425
 21
2.9275
 31
0
  0
LINE
  8
0
 62
7
 10
3.69425
 20
2.9275
 30
0
 11
3.69425
 21
2.9125
 31
0
  0
LINE
  8
0
 62
7
 10
3.69425
 20
2.9125
 30
0
 11
3.69875
 21
2.9025
 31
0
  0
LINE
  8
0
 62
7
 10
3.69875
 20
2.9025
 30
0
 11
3.7055
 21
2.895
 31
0
  0
LINE
  8
0
 62
7
 10
3.7055
 20
2.895
 30
0
 11
3.714500000000001
 21
2.890000000000001
 31
0
  0
LINE
  8
0
 62
7
 10
3.714500000000001
 20
2.890000000000001
 30
0
 11
3.728
 21
2.890000000000001
 31
0
  0
LINE
  8
0
 62
7
 10
3.728
 20
2.890000000000001
 30
0
 11
3.737
 21
2.895
 31
0
  0
LINE
  8
0
 62
7
 10
3.737
 20
2.895
 30
0
 11
3.74375
 21
2.9025
 31
0
  0
LINE
  8
0
 62
7
 10
3.74375
 20
2.9025
 30
0
 11
3.748250000000001
 21
2.9125
 31
0
  0
LINE
  8
0
 62
7
 10
3.748250000000001
 20
2.9125
 30
0
 11
3.748250000000001
 21
2.9275
 31
0
  0
LINE
  8
0
 62
7
 10
3.748250000000001
 20
2.9275
 30
0
 11
3.74375
 21
2.9375
 31
0
  0
LINE
  8
0
 62
7
 10
3.74375
 20
2.9375
 30
0
 11
3.737
 21
2.945
 31
0
  0
LINE
  8
0
 62
7
 10
3.737
 20
2.945
 30
0
 11
3.72575
 21
2.95
 31
0
  0
LINE
  8
0
 62
7
 10
3.83375
 20
2.99
 30
0
 11
3.78425
 21
2.99
 31
0
  0
LINE
  8
0
 62
7
 10
3.78425
 20
2.99
 30
0
 11
3.78425
 21
2.94
 31
0
  0
LINE
  8
0
 62
7
 10
3.78425
 20
2.94
 30
0
 11
3.78875
 21
2.9475
 31
0
  0
LINE
  8
0
 62
7
 10
3.78875
 20
2.9475
 30
0
 11
3.7955
 21
2.952500000000001
 31
0
  0
LINE
  8
0
 62
7
 10
3.7955
 20
2.952500000000001
 30
0
 11
3.8045
 21
2.955
 31
0
  0
LINE
  8
0
 62
7
 10
3.8045
 20
2.955
 30
0
 11
3.818
 21
2.955
 31
0
  0
LINE
  8
0
 62
7
 10
3.818
 20
2.955
 30
0
 11
3.82475
 21
2.952500000000001
 31
0
  0
LINE
  8
0
 62
7
 10
3.82475
 20
2.952500000000001
 30
0
 11
3.8315
 21
2.9475
 31
0
  0
LINE
  8
0
 62
7
 10
3.8315
 20
2.9475
 30
0
 11
3.836
 21
2.94
 31
0
  0
LINE
  8
0
 62
7
 10
3.836
 20
2.94
 30
0
 11
3.83825
 21
2.93
 31
0
  0
LINE
  8
0
 62
7
 10
3.83825
 20
2.93
 30
0
 11
3.83825
 21
2.915
 31
0
  0
LINE
  8
0
 62
7
 10
3.83825
 20
2.915
 30
0
 11
3.836
 21
2.905
 31
0
  0
LINE
  8
0
 62
7
 10
3.836
 20
2.905
 30
0
 11
3.8315
 21
2.8975
 31
0
  0
LINE
  8
0
 62
7
 10
3.8315
 20
2.8975
 30
0
 11
3.82475
 21
2.8925
 31
0
  0
LINE
  8
0
 62
7
 10
3.82475
 20
2.8925
 30
0
 11
3.818
 21
2.890000000000001
 31
0
  0
LINE
  8
0
 62
7
 10
3.818
 20
2.890000000000001
 30
0
 11
3.8045
 21
2.890000000000001
 31
0
  0
LINE
  8
0
 62
7
 10
3.8045
 20
2.890000000000001
 30
0
 11
3.7955
 21
2.8925
 31
0
  0
LINE
  8
0
 62
7
 10
3.7955
 20
2.8925
 30
0
 11
3.78875
 21
2.8975
 31
0
  0
LINE
  8
0
 62
7
 10
3.78875
 20
2.8975
 30
0
 11
3.78425
 21
2.905
 31
0
  0
LINE
  8
0
 62
7
 10
3.989
 20
2.9425
 30
0
 11
3.98225
 21
2.952500000000001
 31
0
  0
LINE
  8
0
 62
7
 10
3.98225
 20
2.952500000000001
 30
0
 11
3.9755
 21
2.9575
 31
0
  0
LINE
  8
0
 62
7
 10
3.9755
 20
2.9575
 30
0
 11
3.96875
 21
2.96
 31
0
  0
LINE
  8
0
 62
7
 10
3.96875
 20
2.96
 30
0
 11
3.959750000000001
 21
2.96
 31
0
  0
LINE
  8
0
 62
7
 10
3.959750000000001
 20
2.96
 30
0
 11
3.953
 21
2.9575
 31
0
  0
LINE
  8
0
 62
7
 10
3.953
 20
2.9575
 30
0
 11
3.94625
 21
2.952500000000001
 31
0
  0
LINE
  8
0
 62
7
 10
3.94625
 20
2.952500000000001
 30
0
 11
3.939500000000001
 21
2.9425
 31
0
  0
LINE
  8
0
 62
7
 10
3.939500000000001
 20
2.9425
 30
0
 11
3.937250000000001
 21
2.935
 31
0
  0
LINE
  8
0
 62
7
 10
3.937250000000001
 20
2.935
 30
0
 11
3.937250000000001
 21
2.915
 31
0
  0
LINE
  8
0
 62
7
 10
3.937250000000001
 20
2.915
 30
0
 11
3.939500000000001
 21
2.9075
 31
0
  0
LINE
  8
0
 62
7
 10
3.939500000000001
 20
2.9075
 30
0
 11
3.94625
 21
2.8975
 31
0
  0
LINE
  8
0
 62
7
 10
3.94625
 20
2.8975
 30
0
 11
3.953
 21
2.8925
 31
0
  0
LINE
  8
0
 62
7
 10
3.953
 20
2.8925
 30
0
 11
3.959750000000001
 21
2.890000000000001
 31
0
  0
LINE
  8
0
 62
7
 10
3.959750000000001
 20
2.890000000000001
 30
0
 11
3.96875
 21
2.890000000000001
 31
0
  0
LINE
  8
0
 62
7
 10
3.96875
 20
2.890000000000001
 30
0
 11
3.9755
 21
2.8925
 31
0
  0
LINE
  8
0
 62
7
 10
3.9755
 20
2.8925
 30
0
 11
3.98225
 21
2.8975
 31
0
  0
LINE
  8
0
 62
7
 10
3.98225
 20
2.8975
 30
0
 11
3.989
 21
2.9075
 31
0
  0
LINE
  8
0
 62
7
 10
4.0475
 20
2.935
 30
0
 11
4.0475
 21
2.890000000000001
 31
0
  0
LINE
  8
0
 62
7
 10
4.007000000000001
 20
2.96
 30
0
 11
4.007000000000001
 21
2.935
 31
0
  0
LINE
  8
0
 62
7
 10
4.007000000000001
 20
2.890000000000001
 30
0
 11
4.007000000000001
 21
2.935
 31
0
  0
LINE
  8
0
 62
7
 10
4.007000000000001
 20
2.935
 30
0
 11
4.009250000000001
 21
2.9475
 31
0
  0
LINE
  8
0
 62
7
 10
4.009250000000001
 20
2.9475
 30
0
 11
4.011500000000001
 21
2.952500000000001
 31
0
  0
LINE
  8
0
 62
7
 10
4.011500000000001
 20
2.952500000000001
 30
0
 11
4.016000000000001
 21
2.9575
 31
0
  0
LINE
  8
0
 62
7
 10
4.016000000000001
 20
2.9575
 30
0
 11
4.02275
 21
2.96
 31
0
  0
LINE
  8
0
 62
7
 10
4.02275
 20
2.96
 30
0
 11
4.031750000000001
 21
2.96
 31
0
  0
LINE
  8
0
 62
7
 10
4.031750000000001
 20
2.96
 30
0
 11
4.0385
 21
2.9575
 31
0
  0
LINE
  8
0
 62
7
 10
4.0385
 20
2.9575
 30
0
 11
4.043
 21
2.952500000000001
 31
0
  0
LINE
  8
0
 62
7
 10
4.043
 20
2.952500000000001
 30
0
 11
4.04525
 21
2.9475
 31
0
  0
LINE
  8
0
 62
7
 10
4.04525
 20
2.9475
 30
0
 11
4.0475
 21
2.935
 31
0
  0
LINE
  8
0
 62
7
 10
4.0475
 20
2.935
 30
0
 11
4.04975
 21
2.9475
 31
0
  0
LINE
  8
0
 62
7
 10
4.04975
 20
2.9475
 30
0
 11
4.052
 21
2.952500000000001
 31
0
  0
LINE
  8
0
 62
7
 10
4.052
 20
2.952500000000001
 30
0
 11
4.0565
 21
2.9575
 31
0
  0
LINE
  8
0
 62
7
 10
4.0565
 20
2.9575
 30
0
 11
4.06325
 21
2.96
 31
0
  0
LINE
  8
0
 62
7
 10
4.06325
 20
2.96
 30
0
 11
4.07225
 21
2.96
 31
0
  0
LINE
  8
0
 62
7
 10
4.07225
 20
2.96
 30
0
 11
4.079
 21
2.9575
 31
0
  0
LINE
  8
0
 62
7
 10
4.0835
 20
2.952500000000001
 30
0
 11
4.079
 21
2.9575
 31
0
  0
LINE
  8
0
 62
7
 10
4.079
 20
2.9575
 30
0
 11
4.0835
 21
2.952500000000001
 31
0
  0
LINE
  8
0
 62
7
 10
4.0835
 20
2.952500000000001
 30
0
 11
4.08575
 21
2.9475
 31
0
  0
LINE
  8
0
 62
7
 10
4.08575
 20
2.9475
 30
0
 11
4.088
 21
2.935
 31
0
  0
LINE
  8
0
 62
7
 10
4.088
 20
2.935
 30
0
 11
4.088
 21
2.890000000000001
 31
0
  0
ARC
  8
0
 62
7
 10
3.285443511885112
 20
3.43544351188512
 30
0
 40
0.5190000000000003
 50
359.9510378377338
 51
90.04896216346741
  0
CIRCLE
  8
0
 62
7
 10
3.804443322383352
 20
3.25
 30
0
 40
0.06000000000000005
  0
DIMENSION
  8
0
  6
CONTINUOUS
 62
7
  2
*D1
  3
DMST_1
 10
4.76019417765471
 20
4.4
 30
0
 11
4.76019417765471
 21
3.883872794522361
 31
0
 12
0
 22
0
 32
0
 70
0
 13
4.250000000000001
 23
3.250000000000001
 33
0
 14
4.250000000000003
 24
4.4
 34
0
 50
90
 53
0
  0
DIMENSION
  8
0
  6
CONTINUOUS
 62
7
  2
*D2
  3
DMST_1
 10
0.8861074646125421
 20
4.4
 30
0
 11
0.8861074646125421
 21
3.883872794522361
 31
0
 12
0
 22
0
 32
0
 70
0
 13
1.24
 23
3.350000000000001
 33
0
 14
1.24
 24
4.4
 34
0
 50
90
 53
0
  0
DIMENSION
  8
0
  6
CONTINUOUS
 62
7
  2
*D3
  3
DMST_1
 10
1.24
 20
5.28717974630543
 30
0
 11
2.73319524730138
 21
5.28717974630543
 31
0
 12
0
 22
0
 32
0
 70
0
 13
4.250000000000003
 23
4.4
 33
0
 14
1.24
 24
4.4
 34
0
 53
0
  0
DIMENSION
  8
0
  6
CONTINUOUS
 62
7
  2
*D4
  3
DMST_1
 10
4.250000000000001
 20
11.5480876850299
 30
0
 11
2.75718340032331
 21
11.5480876850299
 31
0
 12
0
 22
0
 32
0
 70
0
 13
1.24
 23
11.05
 33
0
 14
4.250000000000001
 24
11.05
 34
0
 53
0
  0
INSERT
  8
0
  2
*D0
 10
0
 20
0
 30
0
  0
ENDSEC
  0
EOF
