  0
SECTION
  2
HEADER
  9
$ACADVER
  1
AC1009
  9
$INSBASE
 10
0
 20
0
  9
$EXTMIN
 10
0.4500000000000009
 20
2.890000000000001
  9
$EXTMAX
 10
7.9847356531144
 20
11.5773835267348
  9
$LIMMIN
 10
0.4500000000000009
 20
2.890000000000001
  9
$LIMMAX
 10
7.9847356531144
 20
11.5773835267348
  9
$VIEWCTR
 10
10
 20
10
  9
$VIEWSIZE
 40
10
  9
$SNAPMODE
 70
0
  9
$SNAPUNIT
 10
1
 20
1
  9
$SNAPBASE
 10
0
 20
0
  9
$SNAPANG
 50
0
  9
$SNAPSTYLE
 70
0
  9
$SNAPISOPAIR
 70
0
  9
$GRIDMODE
 70
0
  9
$GRIDUNIT
 10
0
 20
0
  9
$ORTHOMODE
 70
0
  9
$REGENMODE
 70
1
  9
$FILLMODE
 70
1
  9
$QTEXTMODE
 70
0
  9
$DRAGMODE
 70
2
  9
$LTSCALE
 40
1
  9
$OSMODE
 70
0
  9
$ATTMODE
 70
1
  9
$TEXTSIZE
 40
3.5
  9
$TRACEWID
 40
0.5
  9
$TEXTSTYLE
  7
STANDARD
  9
$CLAYER
  8
0
  9
$CELTYPE
  6
BYLAYER
  9
$CECOLOR
 62
256
  9
$DIMSCALE
 40
1
  9
$DIMASZ
 40
0.18
  9
$DIMEXO
 40
0.0625
  9
$DIMDLI
 40
0.38
  9
$DIMRND
 40
0
  9
$DIMDLE
 40
0
  9
$DIMEXE
 40
0.18
  9
$DIMTP
 40
0
  9
$DIMTM
 40
0
  9
$DIMTXT
 40
0.18
  9
$DIMCEN
 40
0.09
  9
$DIMTSZ
 40
0
  9
$DIMTOL
 70
0
  9
$DIMLIM
 70
0
  9
$DIMTIH
 70
1
  9
$DIMTOH
 70
1
  9
$DIMSE1
 70
0
  9
$DIMSE2
 70
0
  9
$DIMTAD
 70
0
  9
$DIMZIN
 70
0
  9
$DIMBLK
  1

  9
$DIMASO
 70
1
  9
$DIMSHO
 70
1
  9
$DIMPOST
  1

  9
$DIMAPOST
  1

  9
$DIMALT
 70
0
  9
$DIMALTD
 70
2
  9
$DIMALTF
 40
25.4
  9
$DIMLFAC
 40
1
  9
$DIMTOFL
 70
0
  9
$DIMTVP
 40
0
  9
$DIMTIX
 70
0
  9
$DIMSOXD
 70
0
  9
$DIMSAH
 70
0
  9
$DIMBLK1
  1

  9
$DIMBLK2
  1

  9
$DIMSTYLE
  2
*UNNAMED
  9
$DIMCLRD
 70
0
  9
$DIMCLRE
 70
0
  9
$DIMCLRT
 70
0
  9
$DIMTFAC
 40
1
  9
$DIMGAP
 40
0.09
  9
$LUNITS
 70
2
  9
$LUPREC
 70
4
  9
$AXISMODE
 70
0
  9
$AXISUNIT
 10
0
 20
0
  9
$SKETCHINC
 40
0.1
  9
$FILLETRAD
 40
2
  9
$AUNITS
 70
0
  9
$AUPREC
 70
0
  9
$MENU
  1
ACAD
  9
$ELEVATION
 40
0
  9
$THICKNESS
 40
0
  9
$VIEWDIR
 10
0
 20
0
 30
1
  9
$LIMCHECK
 70
0
  9
$BLIPMODE
 70
1
  9
$CHAMFERA
 40
0
  9
$CHAMFERB
 40
0
  9
$FASTZOOM
 70
1
  9
$SKPOLY
 70
0
  9
$ANGBASE
 50
0
  9
$ANGDIR
 70
0
  9
$PDMODE
 70
0
  9
$PDSIZE
 40
0
  9
$PLINEWID
 40
0
  9
$COORDS
 70
2
  0
ENDSEC
  0
SECTION
  2
TABLES
  0
TABLE
  2
DIMSTYLE
 70
1
  0
DIMSTYLE
  2
DMST_1
 70
0
  3

  4

  5

  6

  7

 40
1
 41
0.1
 42
0
 43
0.7
 44
0.2
 45
0
 46
0
 47
0
 48
0
140
0.1
141
0
142
0.1
143
25.4
144
1
145
0
146
1
147
0.25
 71
0
 72
0
 73
0
 74
0
 75
0
 76
0
 77
0
 78
9
170
0
171
2
172
0
173
0
174
0
175
0
176
7
177
7
178
7
  0
ENDTAB
  0
TABLE
  2
LTYPE
 70
9
  0
LTYPE
  2
CONTINUOUS
 70
64
  3
Solid line
 72
65
 73
0
 40
0
  0
LTYPE
  2
BORDER
 70
64
  3
__ __ . __ __ .
 72
65
 73
6
 40
0.4000768729417342
 49
0.1143076779833526
 49
-0.05715383899167632
 49
0.1143076779833526
 49
-0.05715383899167632
 49
0
 49
-0.05715383899167632
  0
LTYPE
  2
CENTER
 70
64
  3
____ _ ____ _
 72
65
 73
4
 40
0.4572307119334105
 49
0.2857691949583816
 49
-0.05715383899167632
 49
0.05715383899167632
 49
-0.05715383899167632
  0
LTYPE
  2
DASHDOT
 70
64
  3
__ . __ . __ .
 72
65
 73
4
 40
0.2286153559667053
 49
0.1143076779833526
 49
-0.05715383899167632
 49
0
 49
-0.05715383899167632
  0
LTYPE
  2
DASHED
 70
64
  3
__ __ __ __ __
 72
65
 73
2
 40
0.171461516975029
 49
0.1143076779833526
 49
-0.05715383899167632
  0
LTYPE
  2
DIVIDE
 70
64
  3
__ . . __ . . 
 72
65
 73
6
 40
0.2857691949583816
 49
0.1143076779833526
 49
-0.05715383899167632
 49
0
 49
-0.05715383899167632
 49
0
 49
-0.05715383899167632
  0
LTYPE
  2
DOT
 70
64
  3
..............
 72
65
 73
4
 40
0.1143076779833526
 49
0
 49
-0.05715383899167632
 49
0
 49
-0.05715383899167632
  0
LTYPE
  2
HIDDEN
 70
64
  3
_ _ _ _ _ _ _
 72
65
 73
2
 40
0.08573075848751448
 49
0.05715383899167632
 49
-0.02857691949583816
  0
LTYPE
  2
PHANTOM
 70
64
  3
_____ _ _ _____ _ _ 
 72
65
 73
6
 40
0.5715383899167632
 49
0.2857691949583816
 49
-0.05715383899167632
 49
0.05715383899167632
 49
-0.05715383899167632
 49
0.05715383899167632
 49
-0.05715383899167632
  0
ENDTAB
  0
TABLE
  2
LAYER
 70
2
  0
LAYER
  2
0
 70
0
 62
7
  6
CONTINUOUS
  0
ENDTAB
  0
TABLE
  2
STYLE
 70
4
  0
STYLE
  2
STANDARD
 70
0
 40
0
 41
1
 50
0
 71
0
 42
3.5
  3
txt
  4

  0
STYLE
  2
SIMPLEX
 70
0
 40
0
 41
1
 50
0
 71
0
 42
3.5
  3
simplex
  4

  0
STYLE
  2
COMPLEX
 70
0
 40
0
 41
1
 50
0
 71
0
 42
3.5
  3
complex
  4

  0
STYLE
  2
ITALIC
 70
0
 40
0
 41
1
 50
0
 71
0
 42
3.5
  3
italic
  4

  0
ENDTAB
  0
TABLE
  2
VIEW
 70
0
  0
ENDTAB
  0
ENDSEC
  0
SECTION
  2
BLOCKS
  0
BLOCK
  8
0
  2
*X0
 70
1
 10
0
 20
0
 30
0
  0
LINE
  8
0
 62
7
 10
4.275000000000007
 20
7.987310601229381
 30
0
 11
4.387689398770624
 21
8.099999999999998
 31
0
  0
LINE
  8
0
 62
7
 10
4.449821433126589
 20
7.949999999999998
 30
0
 11
4.450000000000007
 21
7.950178566873417
 31
0
  0
LINE
  8
0
 62
7
 10
4.275000000000007
 20
8.093376618407362
 30
0
 11
4.281623381592643
 21
8.099999999999998
 31
0
  0
LINE
  8
0
 62
7
 10
4.343755415948607
 20
7.949999999999998
 30
0
 11
4.450000000000007
 21
8.056244584051399
 31
0
  0
ENDBLK
  8
0
  0
BLOCK
  8
0
  2
*X1
 70
1
 10
0
 20
0
 30
0
  0
LINE
  8
0
 62
7
 10
4.275000000000006
 20
10.74502704785691
 30
0
 11
4.379972952143091
 21
10.85
 31
0
  0
LINE
  8
0
 62
7
 10
4.275000000000006
 20
10.53289501350095
 30
0
 11
4.450000000000008
 21
10.70789501350095
 31
0
  0
LINE
  8
0
 62
7
 10
4.275000000000006
 20
10.32076297914498
 30
0
 11
4.450000000000008
 21
10.49576297914498
 31
0
  0
LINE
  8
0
 62
7
 10
4.275000000000006
 20
10.10863094478902
 30
0
 11
4.450000000000008
 21
10.28363094478902
 31
0
  0
LINE
  8
0
 62
7
 10
4.275000000000006
 20
9.896498910433055
 30
0
 11
4.450000000000008
 21
10.07149891043306
 31
0
  0
LINE
  8
0
 62
7
 10
4.275000000000006
 20
9.684366876077091
 30
0
 11
4.450000000000008
 21
9.859366876077093
 31
0
  0
LINE
  8
0
 62
7
 10
4.275000000000006
 20
9.472234841721127
 30
0
 11
4.450000000000008
 21
9.647234841721129
 31
0
  0
LINE
  8
0
 62
7
 10
4.275000000000006
 20
9.260102807365163
 30
0
 11
4.450000000000008
 21
9.435102807365165
 31
0
  0
LINE
  8
0
 62
7
 10
4.275000000000006
 20
9.047970773009199
 30
0
 11
4.450000000000008
 21
9.222970773009202
 31
0
  0
LINE
  8
0
 62
7
 10
4.275000000000006
 20
8.835838738653235
 30
0
 11
4.450000000000008
 21
9.010838738653238
 31
0
  0
LINE
  8
0
 62
7
 10
4.275000000000006
 20
8.623706704297271
 30
0
 11
4.450000000000008
 21
8.798706704297274
 31
0
  0
LINE
  8
0
 62
7
 10
4.275000000000006
 20
8.411574669941308
 30
0
 11
4.450000000000008
 21
8.58657466994131
 31
0
  0
LINE
  8
0
 62
7
 10
4.375557364414659
 20
8.299999999999997
 30
0
 11
4.450000000000008
 21
8.374442635585346
 31
0
  0
LINE
  8
0
 62
7
 10
4.275000000000006
 20
10.63896103067893
 30
0
 11
4.450000000000007
 21
10.81396103067893
 31
0
  0
LINE
  8
0
 62
7
 10
4.275000000000006
 20
10.42682899632296
 30
0
 11
4.450000000000007
 21
10.60182899632296
 31
0
  0
LINE
  8
0
 62
7
 10
4.275000000000006
 20
10.214696961967
 30
0
 11
4.450000000000007
 21
10.389696961967
 31
0
  0
LINE
  8
0
 62
7
 10
4.275000000000006
 20
10.00256492761104
 30
0
 11
4.450000000000007
 21
10.17756492761104
 31
0
  0
LINE
  8
0
 62
7
 10
4.275000000000006
 20
9.790432893255073
 30
0
 11
4.450000000000007
 21
9.965432893255073
 31
0
  0
LINE
  8
0
 62
7
 10
4.275000000000006
 20
9.578300858899109
 30
0
 11
4.450000000000007
 21
9.753300858899109
 31
0
  0
LINE
  8
0
 62
7
 10
4.275000000000006
 20
9.366168824543145
 30
0
 11
4.450000000000007
 21
9.541168824543146
 31
0
  0
LINE
  8
0
 62
7
 10
4.275000000000006
 20
9.154036790187181
 30
0
 11
4.450000000000007
 21
9.329036790187182
 31
0
  0
LINE
  8
0
 62
7
 10
4.275000000000006
 20
8.941904755831217
 30
0
 11
4.450000000000007
 21
9.116904755831218
 31
0
  0
LINE
  8
0
 62
7
 10
4.275000000000006
 20
8.729772721475253
 30
0
 11
4.450000000000007
 21
8.904772721475254
 31
0
  0
LINE
  8
0
 62
7
 10
4.275000000000006
 20
8.51764068711929
 30
0
 11
4.450000000000007
 21
8.69264068711929
 31
0
  0
LINE
  8
0
 62
7
 10
4.275000000000006
 20
8.305508652763326
 30
0
 11
4.450000000000007
 21
8.480508652763326
 31
0
  0
ENDBLK
  8
0
  0
BLOCK
  8
0
  2
*X2
 70
1
 10
0
 20
0
 30
0
  0
LINE
  8
0
 62
7
 10
4.275000000000006
 20
11.16929111656884
 30
0
 11
4.305708883431162
 21
11.2
 31
0
  0
LINE
  8
0
 62
7
 10
4.367840917787128
 20
11.05
 30
0
 11
4.450000000000008
 21
11.13215908221288
 31
0
  0
LINE
  8
0
 62
7
 10
4.275000000000007
 20
11.06322509939086
 30
0
 11
4.411774900609145
 21
11.2
 31
0
  0
ENDBLK
  8
0
  0
BLOCK
  8
0
  2
*X3
 70
1
 10
0
 20
0
 30
0
  0
LINE
  8
0
 62
7
  6
DASHED
 10
4.125000000000007
 20
8.261574669941309
 30
0
 11
4.163425330058701
 21
8.299999999999995
 31
0
  0
LINE
  8
0
 62
7
  6
DASHED
 10
4.175557364414667
 20
8.099999999999998
 30
0
 11
4.375557364414665
 21
8.299999999999995
 31
0
  0
LINE
  8
0
 62
7
  6
DASHED
 10
4.387689398770631
 20
8.099999999999998
 30
0
 11
4.587689398770629
 21
8.299999999999995
 31
0
  0
LINE
  8
0
 62
7
  6
DASHED
 10
4.599821433126595
 20
8.099999999999998
 30
0
 11
4.799821433126593
 21
8.299999999999995
 31
0
  0
LINE
  8
0
 62
7
  6
DASHED
 10
4.811953467482558
 20
8.099999999999998
 30
0
 11
5.011953467482557
 21
8.299999999999995
 31
0
  0
LINE
  8
0
 62
7
  6
DASHED
 10
5.024085501838522
 20
8.099999999999998
 30
0
 11
5.224085501838521
 21
8.299999999999995
 31
0
  0
LINE
  8
0
 62
7
  6
DASHED
 10
5.236217536194486
 20
8.099999999999998
 30
0
 11
5.436217536194484
 21
8.299999999999995
 31
0
  0
LINE
  8
0
 62
7
  6
DASHED
 10
5.44834957055045
 20
8.099999999999998
 30
0
 11
5.648349570550448
 21
8.299999999999995
 31
0
  0
LINE
  8
0
 62
7
  6
DASHED
 10
5.660481604906414
 20
8.099999999999998
 30
0
 11
5.860481604906412
 21
8.299999999999995
 31
0
  0
LINE
  8
0
 62
7
  6
DASHED
 10
5.872613639262378
 20
8.099999999999998
 30
0
 11
6.072613639262376
 21
8.299999999999995
 31
0
  0
LINE
  8
0
 62
7
  6
DASHED
 10
6.084745673618341
 20
8.099999999999998
 30
0
 11
6.28474567361834
 21
8.299999999999995
 31
0
  0
LINE
  8
0
 62
7
  6
DASHED
 10
6.296877707974305
 20
8.099999999999998
 30
0
 11
6.496877707974304
 21
8.299999999999995
 31
0
  0
LINE
  8
0
 62
7
  6
DASHED
 10
6.509009742330269
 20
8.099999999999998
 30
0
 11
6.709009742330267
 21
8.299999999999995
 31
0
  0
LINE
  8
0
 62
7
  6
DASHED
 10
6.721141776686233
 20
8.099999999999998
 30
0
 11
6.921141776686231
 21
8.299999999999995
 31
0
  0
LINE
  8
0
 62
7
  6
DASHED
 10
6.933273811042197
 20
8.099999999999998
 30
0
 11
7.133273811042195
 21
8.299999999999995
 31
0
  0
LINE
  8
0
 62
7
  6
DASHED
 10
7.145405845398161
 20
8.099999999999998
 30
0
 11
7.345405845398159
 21
8.299999999999995
 31
0
  0
LINE
  8
0
 62
7
  6
DASHED
 10
7.357537879754124
 20
8.099999999999998
 30
0
 11
7.557537879754123
 21
8.299999999999995
 31
0
  0
LINE
  8
0
 62
7
  6
DASHED
 10
7.569669914110088
 20
8.099999999999998
 30
0
 11
7.600000000000009
 21
8.130330085889918
 31
0
  0
LINE
  8
0
 62
7
 10
4.125000000000007
 20
8.155508652763327
 30
0
 11
4.269491347236685
 21
8.299999999999997
 31
0
  0
LINE
  8
0
 62
7
 10
4.281623381592648
 20
8.099999999999998
 30
0
 11
4.481623381592649
 21
8.299999999999997
 31
0
  0
LINE
  8
0
 62
7
 10
4.493755415948612
 20
8.099999999999998
 30
0
 11
4.693755415948613
 21
8.299999999999997
 31
0
  0
LINE
  8
0
 62
7
 10
4.705887450304576
 20
8.099999999999998
 30
0
 11
4.905887450304577
 21
8.299999999999997
 31
0
  0
LINE
  8
0
 62
7
 10
4.918019484660539
 20
8.099999999999998
 30
0
 11
5.11801948466054
 21
8.299999999999997
 31
0
  0
LINE
  8
0
 62
7
 10
5.130151519016503
 20
8.099999999999998
 30
0
 11
5.330151519016504
 21
8.299999999999997
 31
0
  0
LINE
  8
0
 62
7
 10
5.342283553372467
 20
8.099999999999998
 30
0
 11
5.542283553372468
 21
8.299999999999997
 31
0
  0
LINE
  8
0
 62
7
 10
5.554415587728431
 20
8.099999999999998
 30
0
 11
5.754415587728432
 21
8.299999999999997
 31
0
  0
LINE
  8
0
 62
7
 10
5.766547622084395
 20
8.099999999999998
 30
0
 11
5.966547622084396
 21
8.299999999999997
 31
0
  0
LINE
  8
0
 62
7
 10
5.978679656440359
 20
8.099999999999998
 30
0
 11
6.17867965644036
 21
8.299999999999997
 31
0
  0
LINE
  8
0
 62
7
 10
6.190811690796322
 20
8.099999999999998
 30
0
 11
6.390811690796323
 21
8.299999999999997
 31
0
  0
LINE
  8
0
 62
7
 10
6.402943725152286
 20
8.099999999999998
 30
0
 11
6.602943725152287
 21
8.299999999999997
 31
0
  0
LINE
  8
0
 62
7
 10
6.61507575950825
 20
8.099999999999998
 30
0
 11
6.815075759508251
 21
8.299999999999997
 31
0
  0
LINE
  8
0
 62
7
 10
6.827207793864214
 20
8.099999999999998
 30
0
 11
7.027207793864215
 21
8.299999999999997
 31
0
  0
LINE
  8
0
 62
7
 10
7.039339828220178
 20
8.099999999999998
 30
0
 11
7.239339828220179
 21
8.299999999999997
 31
0
  0
LINE
  8
0
 62
7
 10
7.251471862576142
 20
8.099999999999998
 30
0
 11
7.451471862576143
 21
8.299999999999997
 31
0
  0
LINE
  8
0
 62
7
 10
7.463603896932105
 20
8.099999999999998
 30
0
 11
7.600000000000008
 21
8.236396103067898
 31
0
  0
ENDBLK
  8
0
  0
BLOCK
  8
0
  2
*X4
 70
1
 10
0
 20
0
 30
0
  0
LINE
  8
0
 62
7
  6
DASHED
 10
4.125000000000007
 20
11.01929111656884
 30
0
 11
4.155708883431172
 21
11.05
 31
0
  0
LINE
  8
0
 62
7
  6
DASHED
 10
4.167840917787135
 20
10.85
 30
0
 11
4.367840917787135
 21
11.05
 31
0
  0
LINE
  8
0
 62
7
  6
DASHED
 10
4.379972952143099
 20
10.85
 30
0
 11
4.579972952143099
 21
11.05
 31
0
  0
LINE
  8
0
 62
7
  6
DASHED
 10
4.592104986499063
 20
10.85
 30
0
 11
4.792104986499063
 21
11.05
 31
0
  0
LINE
  8
0
 62
7
  6
DASHED
 10
4.804237020855027
 20
10.85
 30
0
 11
5.004237020855027
 21
11.05
 31
0
  0
LINE
  8
0
 62
7
  6
DASHED
 10
5.016369055210991
 20
10.85
 30
0
 11
5.216369055210991
 21
11.05
 31
0
  0
LINE
  8
0
 62
7
  6
DASHED
 10
5.228501089566954
 20
10.85
 30
0
 11
5.428501089566955
 21
11.05
 31
0
  0
LINE
  8
0
 62
7
  6
DASHED
 10
5.440633123922918
 20
10.85
 30
0
 11
5.640633123922918
 21
11.05
 31
0
  0
LINE
  8
0
 62
7
  6
DASHED
 10
5.652765158278882
 20
10.85
 30
0
 11
5.852765158278882
 21
11.05
 31
0
  0
LINE
  8
0
 62
7
  6
DASHED
 10
5.864897192634846
 20
10.85
 30
0
 11
6.064897192634846
 21
11.05
 31
0
  0
LINE
  8
0
 62
7
  6
DASHED
 10
6.07702922699081
 20
10.85
 30
0
 11
6.27702922699081
 21
11.05
 31
0
  0
LINE
  8
0
 62
7
  6
DASHED
 10
6.289161261346774
 20
10.85
 30
0
 11
6.489161261346774
 21
11.05
 31
0
  0
LINE
  8
0
 62
7
  6
DASHED
 10
6.501293295702737
 20
10.85
 30
0
 11
6.701293295702738
 21
11.05
 31
0
  0
LINE
  8
0
 62
7
  6
DASHED
 10
6.713425330058701
 20
10.85
 30
0
 11
6.913425330058701
 21
11.05
 31
0
  0
LINE
  8
0
 62
7
  6
DASHED
 10
6.925557364414665
 20
10.85
 30
0
 11
7.125557364414665
 21
11.05
 31
0
  0
LINE
  8
0
 62
7
  6
DASHED
 10
7.137689398770629
 20
10.85
 30
0
 11
7.337689398770629
 21
11.05
 31
0
  0
LINE
  8
0
 62
7
  6
DASHED
 10
7.349821433126593
 20
10.85
 30
0
 11
7.549821433126593
 21
11.05
 31
0
  0
LINE
  8
0
 62
7
  6
DASHED
 10
7.561953467482557
 20
10.85
 30
0
 11
7.600000000000009
 21
10.88804653251745
 31
0
  0
LINE
  8
0
 62
7
 10
4.125000000000006
 20
10.91322509939086
 30
0
 11
4.261774900609153
 21
11.05
 31
0
  0
LINE
  8
0
 62
7
 10
4.273906934965115
 20
10.85
 30
0
 11
4.473906934965116
 21
11.05
 31
0
  0
LINE
  8
0
 62
7
 10
4.486038969321079
 20
10.85
 30
0
 11
4.68603896932108
 21
11.05
 31
0
  0
LINE
  8
0
 62
7
 10
4.698171003677043
 20
10.85
 30
0
 11
4.898171003677044
 21
11.05
 31
0
  0
LINE
  8
0
 62
7
 10
4.910303038033007
 20
10.85
 30
0
 11
5.110303038033008
 21
11.05
 31
0
  0
LINE
  8
0
 62
7
 10
5.122435072388971
 20
10.85
 30
0
 11
5.322435072388972
 21
11.05
 31
0
  0
LINE
  8
0
 62
7
 10
5.334567106744935
 20
10.85
 30
0
 11
5.534567106744936
 21
11.05
 31
0
  0
LINE
  8
0
 62
7
 10
5.546699141100898
 20
10.85
 30
0
 11
5.746699141100899
 21
11.05
 31
0
  0
LINE
  8
0
 62
7
 10
5.758831175456862
 20
10.85
 30
0
 11
5.958831175456863
 21
11.05
 31
0
  0
LINE
  8
0
 62
7
 10
5.970963209812826
 20
10.85
 30
0
 11
6.170963209812827
 21
11.05
 31
0
  0
LINE
  8
0
 62
7
 10
6.18309524416879
 20
10.85
 30
0
 11
6.383095244168791
 21
11.05
 31
0
  0
LINE
  8
0
 62
7
 10
6.395227278524754
 20
10.85
 30
0
 11
6.595227278524755
 21
11.05
 31
0
  0
LINE
  8
0
 62
7
 10
6.607359312880718
 20
10.85
 30
0
 11
6.807359312880719
 21
11.05
 31
0
  0
LINE
  8
0
 62
7
 10
6.819491347236681
 20
10.85
 30
0
 11
7.019491347236682
 21
11.05
 31
0
  0
LINE
  8
0
 62
7
 10
7.031623381592645
 20
10.85
 30
0
 11
7.231623381592646
 21
11.05
 31
0
  0
LINE
  8
0
 62
7
 10
7.243755415948609
 20
10.85
 30
0
 11
7.44375541594861
 21
11.05
 31
0
  0
LINE
  8
0
 62
7
 10
7.455887450304573
 20
10.85
 30
0
 11
7.600000000000005
 21
10.99411254969543
 31
0
  0
ENDBLK
  8
0
  0
BLOCK
  8
0
  2
*X5
 70
1
 10
0
 20
0
 30
0
  0
LINE
  8
0
 62
7
 10
0.5000000000000018
 20
8.030687219636732
 30
0
 11
0.5693127803632665
 21
8.099999999999996
 31
0
  0
LINE
  8
0
 62
7
 10
0.6314448147192322
 20
7.949999999999998
 30
0
 11
0.7400000000000007
 21
8.058555185280767
 31
0
  0
LINE
  8
0
 62
7
 10
0.5253787975412521
 20
7.949999999999999
 30
0
 11
0.6753787975412506
 21
8.099999999999998
 31
0
  0
LINE
  8
0
 62
7
 10
0.7375108318972163
 20
7.949999999999999
 30
0
 11
0.740000000000002
 21
7.952489168102785
 31
0
  0
ENDBLK
  8
0
  0
BLOCK
  8
0
  2
*X6
 70
1
 10
0
 20
0
 30
0
  0
LINE
  8
0
 62
7
 10
0.5000000000000004
 20
10.78840366626426
 30
0
 11
0.5615963337357339
 21
10.85
 31
0
  0
LINE
  8
0
 62
7
 10
0.5000000000000004
 20
10.5762716319083
 30
0
 11
0.740000000000002
 21
10.8162716319083
 31
0
  0
LINE
  8
0
 62
7
 10
0.5000000000000004
 20
10.36413959755233
 30
0
 11
0.740000000000002
 21
10.60413959755233
 31
0
  0
LINE
  8
0
 62
7
 10
0.5000000000000004
 20
10.15200756319637
 30
0
 11
0.740000000000002
 21
10.39200756319637
 31
0
  0
LINE
  8
0
 62
7
 10
0.5000000000000004
 20
9.939875528840407
 30
0
 11
0.740000000000002
 21
10.17987552884041
 31
0
  0
LINE
  8
0
 62
7
 10
0.5000000000000004
 20
9.727743494484443
 30
0
 11
0.740000000000002
 21
9.967743494484443
 31
0
  0
LINE
  8
0
 62
7
 10
0.5000000000000004
 20
9.515611460128479
 30
0
 11
0.740000000000002
 21
9.755611460128479
 31
0
  0
LINE
  8
0
 62
7
 10
0.5000000000000004
 20
9.303479425772515
 30
0
 11
0.740000000000002
 21
9.543479425772516
 31
0
  0
LINE
  8
0
 62
7
 10
0.5000000000000004
 20
9.091347391416551
 30
0
 11
0.740000000000002
 21
9.331347391416552
 31
0
  0
LINE
  8
0
 62
7
 10
0.5000000000000004
 20
8.879215357060588
 30
0
 11
0.740000000000002
 21
9.119215357060588
 31
0
  0
LINE
  8
0
 62
7
 10
0.5000000000000004
 20
8.667083322704624
 30
0
 11
0.740000000000002
 21
8.907083322704624
 31
0
  0
LINE
  8
0
 62
7
 10
0.5000000000000004
 20
8.45495128834866
 30
0
 11
0.740000000000002
 21
8.69495128834866
 31
0
  0
LINE
  8
0
 62
7
 10
0.5571807460073019
 20
8.299999999999995
 30
0
 11
0.740000000000002
 21
8.482819253992696
 31
0
  0
LINE
  8
0
 62
7
 10
0.5000000000000018
 20
10.68233764908628
 30
0
 11
0.6676623509137176
 21
10.85
 31
0
  0
LINE
  8
0
 62
7
 10
0.5000000000000018
 20
10.47020561473032
 30
0
 11
0.7400000000000007
 21
10.71020561473031
 31
0
  0
LINE
  8
0
 62
7
 10
0.5000000000000018
 20
10.25807358037435
 30
0
 11
0.7400000000000007
 21
10.49807358037435
 31
0
  0
LINE
  8
0
 62
7
 10
0.5000000000000018
 20
10.04594154601839
 30
0
 11
0.7400000000000007
 21
10.28594154601839
 31
0
  0
LINE
  8
0
 62
7
 10
0.5000000000000018
 20
9.833809511662425
 30
0
 11
0.7400000000000007
 21
10.07380951166242
 31
0
  0
LINE
  8
0
 62
7
 10
0.5000000000000018
 20
9.621677477306461
 30
0
 11
0.7400000000000007
 21
9.861677477306458
 31
0
  0
LINE
  8
0
 62
7
 10
0.5000000000000018
 20
9.409545442950497
 30
0
 11
0.7400000000000007
 21
9.649545442950494
 31
0
  0
LINE
  8
0
 62
7
 10
0.5000000000000018
 20
9.197413408594533
 30
0
 11
0.7400000000000007
 21
9.43741340859453
 31
0
  0
LINE
  8
0
 62
7
 10
0.5000000000000018
 20
8.98528137423857
 30
0
 11
0.7400000000000007
 21
9.225281374238566
 31
0
  0
LINE
  8
0
 62
7
 10
0.5000000000000018
 20
8.773149339882606
 30
0
 11
0.7400000000000007
 21
9.013149339882602
 31
0
  0
LINE
  8
0
 62
7
 10
0.5000000000000018
 20
8.561017305526642
 30
0
 11
0.7400000000000007
 21
8.801017305526639
 31
0
  0
LINE
  8
0
 62
7
 10
0.5000000000000018
 20
8.348885271170678
 30
0
 11
0.7400000000000007
 21
8.588885271170675
 31
0
  0
LINE
  8
0
 62
7
 10
0.6632467631852861
 20
8.299999999999997
 30
0
 11
0.7400000000000007
 21
8.376753236814711
 31
0
  0
ENDBLK
  8
0
  0
BLOCK
  8
0
  2
*X7
 70
1
 10
0
 20
0
 30
0
  0
LINE
  8
0
 62
7
 10
0.549464299379772
 20
11.05
 30
0
 11
0.6994642993797715
 21
11.2
 31
0
  0
LINE
  8
0
 62
7
 10
0.5000000000000009
 20
11.10660171779821
 30
0
 11
0.5933982822017896
 21
11.2
 31
0
  0
LINE
  8
0
 62
7
 10
0.655530316557754
 20
11.05
 30
0
 11
0.740000000000002
 21
11.13446968344225
 31
0
  0
ENDBLK
  8
0
  0
BLOCK
  8
0
  2
*X8
 70
1
 10
0
 20
0
 30
0
  0
LINE
  8
0
 62
7
  6
DASHED
 10
1.790000000000001
 20
8.260027047856909
 30
0
 11
1.829972952143089
 21
8.299999999999997
 31
0
  0
LINE
  8
0
 62
7
  6
DASHED
 10
1.842104986499053
 20
8.099999999999996
 30
0
 11
2.042104986499053
 21
8.299999999999997
 31
0
  0
LINE
  8
0
 62
7
  6
DASHED
 10
2.054237020855017
 20
8.099999999999996
 30
0
 11
2.090000000000001
 21
8.135762979144982
 31
0
  0
LINE
  8
0
 62
7
 10
1.79
 20
8.153961030678927
 30
0
 11
1.936038969321071
 21
8.299999999999997
 31
0
  0
LINE
  8
0
 62
7
 10
1.948171003677037
 20
8.099999999999998
 30
0
 11
2.090000000000002
 21
8.241828996322964
 31
0
  0
ENDBLK
  8
0
  0
BLOCK
  8
0
  2
*X9
 70
1
 10
0
 20
0
 30
0
  0
LINE
  8
0
 62
7
  6
DASHED
 10
1.790000000000002
 20
11.01774349448445
 30
0
 11
1.822256505515557
 21
11.05
 31
0
  0
LINE
  8
0
 62
7
  6
DASHED
 10
1.83438853987152
 20
10.85
 30
0
 11
2.034388539871522
 21
11.05
 31
0
  0
LINE
  8
0
 62
7
  6
DASHED
 10
2.046520574227484
 20
10.85
 30
0
 11
2.090000000000001
 21
10.89347942577252
 31
0
  0
LINE
  8
0
 62
7
 10
1.79
 20
10.91167747730646
 30
0
 11
1.92832252269354
 21
11.05
 31
0
  0
LINE
  8
0
 62
7
 10
1.940454557049502
 20
10.85
 30
0
 11
2.089999999999999
 21
10.9995454429505
 31
0
  0
ENDBLK
  8
0
  0
BLOCK
  8
0
  2
*X10
 70
1
 10
0
 20
0
 30
0
  0
LINE
  8
0
 62
7
  6
DASHED
 10
0.5
 20
11.00053570062023
 30
0
 11
0.5494642993797729
 21
11.05
 31
0
  0
LINE
  8
0
 62
7
  6
DASHED
 10
0.5615963337357357
 20
10.85
 30
0
 11
0.7400000000000011
 21
11.02840366626426
 31
0
  0
LINE
  8
0
 62
7
 10
0.5000000000000009
 20
10.89446968344225
 30
0
 11
0.655530316557754
 21
11.05
 31
0
  0
LINE
  8
0
 62
7
 10
0.6676623509137176
 20
10.85
 30
0
 11
0.7400000000000011
 21
10.92233764908628
 31
0
  0
ENDBLK
  8
0
  0
BLOCK
  8
0
  2
*X11
 70
1
 10
0
 20
0
 30
0
  0
LINE
  8
0
 62
7
  6
DASHED
 10
0.5000000000000009
 20
8.242819253992694
 30
0
 11
0.5571807460073019
 21
8.299999999999995
 31
0
  0
LINE
  8
0
 62
7
  6
DASHED
 10
0.5693127803632687
 20
8.099999999999998
 30
0
 11
0.7400000000000015
 21
8.270687219636731
 31
0
  0
LINE
  8
0
 62
7
 10
0.5000000000000009
 20
8.136753236814712
 30
0
 11
0.6632467631852856
 21
8.299999999999997
 31
0
  0
LINE
  8
0
 62
7
 10
0.6753787975412506
 20
8.099999999999998
 30
0
 11
0.7400000000000007
 21
8.164621202458749
 31
0
  0
ENDBLK
  8
0
  0
BLOCK
  8
0
  2
*X12
 70
1
 10
0
 20
0
 30
0
  0
LINE
  8
0
 62
7
 10
4.275000000000007
 20
4.911396103067899
 30
0
 11
4.433603896932105
 21
5.069999999999998
 31
0
  0
LINE
  8
0
 62
7
 10
4.275000000000007
 20
4.699264068711935
 30
0
 11
4.495735931288076
 21
4.919999999999998
 31
0
  0
LINE
  8
0
 62
7
 10
4.467867965644043
 20
4.680000000000001
 30
0
 11
4.70786796564404
 21
4.919999999999998
 31
0
  0
LINE
  8
0
 62
7
 10
4.680000000000007
 20
4.680000000000001
 30
0
 11
4.920000000000003
 21
4.919999999999998
 31
0
  0
LINE
  8
0
 62
7
 10
4.892132034355971
 20
4.680000000000001
 30
0
 11
5.132132034355967
 21
4.919999999999998
 31
0
  0
LINE
  8
0
 62
7
 10
5.104264068711934
 20
4.680000000000001
 30
0
 11
5.344264068711931
 21
4.919999999999998
 31
0
  0
LINE
  8
0
 62
7
 10
5.316396103067898
 20
4.680000000000001
 30
0
 11
5.556396103067895
 21
4.919999999999998
 31
0
  0
LINE
  8
0
 62
7
 10
5.528528137423862
 20
4.680000000000001
 30
0
 11
5.768528137423859
 21
4.919999999999998
 31
0
  0
LINE
  8
0
 62
7
 10
5.740660171779826
 20
4.680000000000001
 30
0
 11
5.980660171779823
 21
4.919999999999998
 31
0
  0
LINE
  8
0
 62
7
 10
5.95279220613579
 20
4.680000000000001
 30
0
 11
6.192792206135787
 21
4.919999999999998
 31
0
  0
LINE
  8
0
 62
7
 10
6.164924240491754
 20
4.680000000000001
 30
0
 11
6.40492424049175
 21
4.919999999999998
 31
0
  0
LINE
  8
0
 62
7
 10
6.377056274847718
 20
4.680000000000001
 30
0
 11
6.617056274847714
 21
4.919999999999998
 31
0
  0
LINE
  8
0
 62
7
 10
6.589188309203681
 20
4.680000000000001
 30
0
 11
6.829188309203678
 21
4.919999999999998
 31
0
  0
LINE
  8
0
 62
7
 10
6.801320343559645
 20
4.680000000000001
 30
0
 11
7.041320343559642
 21
4.919999999999998
 31
0
  0
LINE
  8
0
 62
7
 10
7.013452377915609
 20
4.680000000000001
 30
0
 11
7.253452377915606
 21
4.919999999999998
 31
0
  0
LINE
  8
0
 62
7
 10
7.225584412271573
 20
4.680000000000001
 30
0
 11
7.46558441227157
 21
4.919999999999998
 31
0
  0
LINE
  8
0
 62
7
 10
7.437716446627537
 20
4.680000000000001
 30
0
 11
7.600000000000008
 21
4.842283553372471
 31
0
  0
ENDBLK
  8
0
  0
BLOCK
  8
0
  2
*X13
 70
1
 10
0
 20
0
 30
0
  0
LINE
  8
0
 62
7
 10
4.275000000000007
 20
4.48713203435597
 30
0
 11
4.427867965644043
 21
4.640000000000001
 31
0
  0
LINE
  8
0
 62
7
 10
4.275000000000007
 20
4.275000000000006
 30
0
 11
4.640000000000007
 21
4.640000000000001
 31
0
  0
LINE
  8
0
 62
7
 10
4.612132034355971
 20
4.400000000000001
 30
0
 11
4.852132034355971
 21
4.640000000000001
 31
0
  0
LINE
  8
0
 62
7
 10
4.275000000000007
 20
4.062867965644042
 30
0
 11
4.450000000000006
 21
4.23786796564404
 31
0
  0
LINE
  8
0
 62
7
 10
4.824264068711935
 20
4.400000000000001
 30
0
 11
5.064264068711934
 21
4.640000000000001
 31
0
  0
LINE
  8
0
 62
7
 10
4.275000000000007
 20
3.850735931288078
 30
0
 11
4.450000000000004
 21
4.025735931288073
 31
0
  0
LINE
  8
0
 62
7
 10
5.036396103067899
 20
4.400000000000001
 30
0
 11
5.276396103067898
 21
4.640000000000001
 31
0
  0
LINE
  8
0
 62
7
 10
4.275000000000007
 20
3.638603896932113
 30
0
 11
4.450000000000001
 21
3.813603896932107
 31
0
  0
LINE
  8
0
 62
7
 10
5.248528137423863
 20
4.400000000000001
 30
0
 11
5.488528137423862
 21
4.640000000000001
 31
0
  0
LINE
  8
0
 62
7
 10
4.275000000000007
 20
3.426471862576149
 30
0
 11
4.449999999999998
 21
3.60147186257614
 31
0
  0
LINE
  8
0
 62
7
 10
5.460660171779827
 20
4.400000000000001
 30
0
 11
5.700660171779826
 21
4.640000000000001
 31
0
  0
LINE
  8
0
 62
7
 10
4.310660171779823
 20
3.250000000000001
 30
0
 11
4.449999999999996
 21
3.389339828220174
 31
0
  0
LINE
  8
0
 62
7
 10
5.67279220613579
 20
4.400000000000001
 30
0
 11
5.91279220613579
 21
4.640000000000001
 31
0
  0
LINE
  8
0
 62
7
 10
5.884924240491754
 20
4.400000000000001
 30
0
 11
6.124924240491754
 21
4.640000000000001
 31
0
  0
LINE
  8
0
 62
7
 10
6.097056274847718
 20
4.400000000000001
 30
0
 11
6.337056274847717
 21
4.640000000000001
 31
0
  0
LINE
  8
0
 62
7
 10
6.309188309203682
 20
4.400000000000001
 30
0
 11
6.549188309203681
 21
4.640000000000001
 31
0
  0
LINE
  8
0
 62
7
 10
6.521320343559646
 20
4.400000000000001
 30
0
 11
6.761320343559645
 21
4.640000000000001
 31
0
  0
LINE
  8
0
 62
7
 10
6.73345237791561
 20
4.400000000000001
 30
0
 11
6.973452377915609
 21
4.640000000000001
 31
0
  0
LINE
  8
0
 62
7
 10
6.945584412271574
 20
4.400000000000001
 30
0
 11
7.185584412271573
 21
4.640000000000001
 31
0
  0
LINE
  8
0
 62
7
 10
7.157716446627537
 20
4.400000000000001
 30
0
 11
7.397716446627537
 21
4.640000000000001
 31
0
  0
LINE
  8
0
 62
7
 10
7.369848480983501
 20
4.400000000000001
 30
0
 11
7.600000000000008
 21
4.630151519016508
 31
0
  0
LINE
  8
0
 62
7
 10
7.581980515339465
 20
4.4
 30
0
 11
7.600000000000008
 21
4.418019484660544
 31
0
  0
ENDBLK
  8
0
  0
BLOCK
  8
0
  2
*D0
 70
1
 10
0
 20
0
 30
0
  0
LINE
  8
0
 62
7
 10
7.854735653114401
 20
10.23829019010003
 30
0
 11
7.854735653114401
 21
11.05
 31
0
  0
LINE
  8
0
 62
7
 10
7.854735653114401
 20
8.299999999999999
 30
0
 11
7.854735653114401
 21
9.158290190100031
 31
0
  0
LINE
  8
0
 62
7
 10
7.600000000000008
 20
11.05
 30
0
 11
7.9047356531144
 21
11.05
 31
0
  0
LINE
  8
0
 62
7
 10
7.600000000000008
 20
8.299999999999999
 30
0
 11
7.9047356531144
 21
8.299999999999999
 31
0
  0
LINE
  8
0
 62
7
 10
7.819380314055073
 20
8.335355339059326
 30
0
 11
7.890090992173728
 21
8.264644660940672
 31
0
  0
LINE
  8
0
 62
7
 10
7.890090992173728
 20
11.01464466094068
 30
0
 11
7.819380314055073
 21
11.08535533905933
 31
0
  0
TEXT
  8
0
 62
7
 10
7.8247356531144
 20
9.560790190100033
 30
0
 40
0.1
  1
2,75
 50
90
 41
0.9
  0
TEXT
  8
0
 62
7
 10
7.9847356531144
 20
9.358290190100032
 30
0
 40
0.1
  1
(260-280)
 50
90
 41
0.9
  0
ENDBLK
  8
0
  0
BLOCK
  8
0
  2
*D1
 70
1
 10
0
 20
0
 30
0
  0
LINE
  8
0
 62
7
 10
3.93901529047183
 20
4.25517337960156
 30
0
 11
3.93901529047183
 21
4.4
 31
0
  0
LINE
  8
0
 62
7
 10
3.93901529047183
 20
3.250000000000001
 30
0
 11
3.93901529047183
 21
3.54017337960156
 31
0
  0
LINE
  8
0
 62
7
 10
4.450000000000006
 20
4.4
 30
0
 11
3.88901529047183
 21
4.4
 31
0
  0
LINE
  8
0
 62
7
 10
4.450000000000007
 20
3.250000000000001
 30
0
 11
3.88901529047183
 21
3.250000000000001
 31
0
  0
LINE
  8
0
 62
7
 10
3.974370629531157
 20
4.364644660940673
 30
0
 11
3.903659951412503
 21
4.435355339059328
 31
0
  0
LINE
  8
0
 62
7
 10
3.903659951412503
 20
3.285355339059328
 30
0
 11
3.974370629531157
 21
3.214644660940674
 31
0
  0
TEXT
  8
0
 62
7
 10
3.98401529047183
 20
3.79017337960156
 30
0
 40
0.1
  1
1,15
 50
90
 41
0.9
  0
ENDBLK
  8
0
  0
BLOCK
  8
0
  2
*D2
 70
1
 10
0
 20
0
 30
0
  0
LINE
  8
0
 62
7
 10
7.460000000000009
 20
4.399999999999999
 30
0
 11
7.84393254189324
 21
4.399999999999999
 31
0
  0
LINE
  8
0
 62
7
 10
7.460000000000009
 20
3.350000000000001
 30
0
 11
7.84393254189324
 21
3.350000000000001
 31
0
  0
LINE
  8
0
 62
7
 10
7.758577202833913
 20
4.435355339059327
 30
0
 11
7.829287880952568
 21
4.364644660940672
 31
0
  0
LINE
  8
0
 62
7
 10
7.829287880952568
 20
3.314644660940673
 30
0
 11
7.758577202833913
 21
3.385355339059328
 31
0
  0
TEXT
  8
0
 62
7
 10
7.83893254189324
 20
3.79949462409002
 30
0
 40
0.1
  1
1,05
 50
90
 41
0.9
  0
ENDBLK
  8
0
  0
BLOCK
  8
0
  2
*D3
 70
1
 10
0
 20
0
 30
0
  0
LINE
  8
0
 62
7
 10
6.29369671628158
 20
5.36910867115358
 30
0
 11
7.460000000000008
 21
5.36910867115358
 31
0
  0
LINE
  8
0
 62
7
 10
4.450000000000006
 20
5.36910867115358
 30
0
 11
5.548696716281579
 21
5.36910867115358
 31
0
  0
LINE
  8
0
 62
7
 10
7.460000000000008
 20
4.4
 30
0
 11
7.460000000000008
 21
5.419108671153579
 31
0
  0
LINE
  8
0
 62
7
 10
4.450000000000006
 20
4.4
 30
0
 11
4.450000000000006
 21
5.419108671153579
 31
0
  0
LINE
  8
0
 62
7
 10
7.424644660940681
 20
5.333753332094252
 30
0
 11
7.495355339059335
 21
5.404464010212907
 31
0
  0
LINE
  8
0
 62
7
 10
4.485355339059334
 20
5.404464010212907
 30
0
 11
4.414644660940679
 21
5.333753332094252
 31
0
  0
TEXT
  8
0
 62
7
 10
5.79869671628158
 20
5.32410867115358
 30
0
 40
0.1
  1
3,01
 41
0.9
  0
ENDBLK
  8
0
  0
BLOCK
  8
0
  2
*D4
 70
1
 10
0
 20
0
 30
0
  0
LINE
  8
0
 62
7
 10
6.29369671628158
 20
11.5223835267348
 30
0
 11
7.460000000000008
 21
11.5223835267348
 31
0
  0
LINE
  8
0
 62
7
 10
4.450000000000007
 20
11.5223835267348
 30
0
 11
5.548696716281579
 21
11.5223835267348
 31
0
  0
LINE
  8
0
 62
7
 10
7.460000000000008
 20
11.05
 30
0
 11
7.460000000000008
 21
11.5723835267348
 31
0
  0
LINE
  8
0
 62
7
 10
4.450000000000007
 20
11.05
 30
0
 11
4.450000000000007
 21
11.5723835267348
 31
0
  0
LINE
  8
0
 62
7
 10
7.424644660940681
 20
11.48702818767547
 30
0
 11
7.495355339059335
 21
11.55773886579413
 31
0
  0
LINE
  8
0
 62
7
 10
4.485355339059335
 20
11.55773886579413
 30
0
 11
4.41464466094068
 21
11.48702818767547
 31
0
  0
TEXT
  8
0
 62
7
 10
5.79869671628158
 20
11.4773835267348
 30
0
 40
0.1
  1
3,01
 41
0.9
  0
ENDBLK
  8
0
  0
ENDSEC
  0
SECTION
  2
ENTITIES
  0
INSERT
  8
0
  2
*X0
 10
0
 20
0
 30
0
  0
INSERT
  8
0
  2
*X1
 10
0
 20
0
 30
0
  0
INSERT
  8
0
  2
*X2
 10
0
 20
0
 30
0
  0
INSERT
  8
0
  2
*X3
 10
0
 20
0
 30
0
  0
INSERT
  8
0
  2
*X4
 10
0
 20
0
 30
0
  0
INSERT
  8
0
  2
*X5
 10
0
 20
0
 30
0
  0
INSERT
  8
0
  2
*X6
 10
0
 20
0
 30
0
  0
INSERT
  8
0
  2
*X7
 10
0
 20
0
 30
0
  0
INSERT
  8
0
  2
*X8
 10
0
 20
0
 30
0
  0
INSERT
  8
0
  2
*X9
 10
0
 20
0
 30
0
  0
INSERT
  8
0
  2
*X10
 10
0
 20
0
 30
0
  0
INSERT
  8
0
  2
*X11
 10
0
 20
0
 30
0
  0
INSERT
  8
0
  2
*X12
 10
0
 20
0
 30
0
  0
INSERT
  8
0
  2
*X13
 10
0
 20
0
 30
0
  0
LINE
  8
0
 62
7
 10
5.482776781362507
 20
3.437736974053486
 30
0
 11
5.488173841071617
 21
3.435
 31
0
  0
LINE
  8
0
 62
7
 10
5.415000000000002
 20
3.394406906752756
 30
0
 11
5.482776781362507
 21
3.437736974053486
 31
0
  0
LINE
  8
0
 62
7
 10
5.415000000000002
 20
3.25
 30
0
 11
5.415000000000002
 21
3.394406906752756
 31
0
  0
LINE
  8
0
 62
7
 10
7.179801915076455
 20
4.344999995231631
 30
0
 11
7.179802006292667
 21
3.435
 31
0
  0
LINE
  8
0
 62
7
 10
7.179802006292667
 20
3.435
 30
0
 11
7.420000000000003
 21
3.435
 31
0
  0
LINE
  8
0
 62
7
 10
7.420000000000003
 20
4.345000000000001
 30
0
 11
7.179801915076455
 21
4.344999995231631
 31
0
  0
LINE
  8
0
 62
7
 10
6.949801915076455
 20
4.345000000000001
 30
0
 11
6.949802006292668
 21
3.435
 31
0
  0
LINE
  8
0
 62
7
 10
6.949802006292668
 20
3.435
 30
0
 11
7.269802006292666
 21
3.435
 31
0
  0
LINE
  8
0
 62
7
 10
7.269801915076456
 20
4.345000000000001
 30
0
 11
6.949801915076455
 21
4.345000000000001
 31
0
  0
LINE
  8
0
 62
7
 10
6.719801915076456
 20
4.345000000000001
 30
0
 11
6.719802006292666
 21
3.435
 31
0
  0
LINE
  8
0
 62
7
 10
6.719802006292666
 20
3.435
 30
0
 11
7.039802006292667
 21
3.435
 31
0
  0
LINE
  8
0
 62
7
 10
7.039801915076456
 20
4.345000000000001
 30
0
 11
6.719801915076456
 21
4.345000000000001
 31
0
  0
LINE
  8
0
 62
7
 10
6.489801915076455
 20
4.345000000000001
 30
0
 11
6.489802006292667
 21
3.435
 31
0
  0
LINE
  8
0
 62
7
 10
6.489802006292667
 20
3.435
 30
0
 11
6.809802006292667
 21
3.435
 31
0
  0
LINE
  8
0
 62
7
 10
6.809801915076455
 20
4.345000000000001
 30
0
 11
6.489801915076455
 21
4.345000000000001
 31
0
  0
LINE
  8
0
 62
7
 10
6.259801915076455
 20
4.344999995231631
 30
0
 11
6.259802006292666
 21
3.43499999523163
 31
0
  0
LINE
  8
0
 62
7
 10
6.259802006292666
 20
3.43499999523163
 30
0
 11
6.579802006292667
 21
3.435
 31
0
  0
LINE
  8
0
 62
7
 10
6.579801915076455
 20
4.345000000000001
 30
0
 11
6.259801915076455
 21
4.344999995231631
 31
0
  0
LINE
  8
0
 62
7
 10
6.029801915076455
 20
4.345000000000001
 30
0
 11
6.029802006292666
 21
3.435
 31
0
  0
LINE
  8
0
 62
7
 10
6.029802006292666
 20
3.435
 30
0
 11
6.349802006292666
 21
3.435
 31
0
  0
LINE
  8
0
 62
7
 10
6.349801915076455
 20
4.345000000000001
 30
0
 11
6.029801915076455
 21
4.345000000000001
 31
0
  0
LINE
  8
0
 62
7
 10
5.708930238782555
 20
4.345000000000001
 30
0
 11
5.920662020088095
 21
3.435
 31
0
  0
LINE
  8
0
 62
7
 10
5.920662020088095
 20
3.435
 30
0
 11
6.119802006292666
 21
3.435
 31
0
  0
LINE
  8
0
 62
7
 10
6.119801915076455
 20
4.345000000000001
 30
0
 11
5.708930238782555
 21
4.345000000000001
 31
0
  0
LINE
  8
0
 62
7
 10
5.389898270316777
 20
4.345000000000001
 30
0
 11
5.809075208617898
 21
3.435
 31
0
  0
LINE
  8
0
 62
7
 10
5.809075208617898
 20
3.435
 30
0
 11
6.013066050221947
 21
3.435
 31
0
  0
LINE
  8
0
 62
7
 10
5.801334268916406
 20
4.345000000000001
 30
0
 11
5.389898270316777
 21
4.345000000000001
 31
0
  0
LINE
  8
0
 62
7
 10
5.065554521342915
 20
4.345000000000001
 30
0
 11
5.695900355885586
 21
3.435
 31
0
  0
LINE
  8
0
 62
7
 10
5.695900355885586
 20
3.435
 30
0
 11
5.908164500723107
 21
3.435
 31
0
  0
LINE
  8
0
 62
7
 10
5.488987562421985
 20
4.345000000000001
 30
0
 11
5.065554521342915
 21
4.345000000000001
 31
0
  0
LINE
  8
0
 62
7
 10
4.613813274843324
 20
4.345000000000001
 30
0
 11
5.586152742145797
 21
3.435
 31
0
  0
LINE
  8
0
 62
7
 10
5.586152742145797
 20
3.435
 30
0
 11
5.805383285890503
 21
3.435
 31
0
  0
LINE
  8
0
 62
7
 10
5.175037451347836
 20
4.345000000000001
 30
0
 11
4.613813274843324
 21
4.345000000000001
 31
0
  0
LINE
  8
0
 62
7
 10
4.505000000000005
 20
3.9335902395215
 30
0
 11
5.482776781362507
 21
3.437736974053486
 31
0
  0
LINE
  8
0
 62
7
 10
5.488173841071617
 20
3.435
 30
0
 11
5.717863759910643
 21
3.435
 31
0
  0
LINE
  8
0
 62
7
 10
4.745524292608176
 20
4.345000000000001
 30
0
 11
4.505000000000005
 21
4.345000000000001
 31
0
  0
LINE
  8
0
 62
7
 10
4.505000000000005
 20
4.345000000000001
 30
0
 11
4.505000000000005
 21
3.9335902395215
 31
0
  0
LINE
  8
0
 62
7
 10
4.505000000000005
 20
3.5632920850631
 30
0
 11
5.386578490128496
 21
3.37623687992699
 31
0
  0
LINE
  8
0
 62
7
 10
5.386578490128496
 20
3.37623687992699
 30
0
 11
5.415000000000002
 21
3.394406906752756
 31
0
  0
LINE
  8
0
 62
7
 10
4.505000000000005
 20
4.0345016298875
 30
0
 11
4.505000000000005
 21
3.5632920850631
 31
0
  0
LINE
  8
0
 62
7
 10
4.505000000000005
 20
3.25
 30
0
 11
5.415000000000002
 21
3.25
 31
0
  0
LINE
  8
0
 62
7
 10
4.505000000000005
 20
3.65529573819153
 30
0
 11
4.505000000000005
 21
3.25
 31
0
  0
LINE
  8
0
 62
7
 10
4.895556677616656
 20
3.25
 30
0
 11
4.895556677616656
 21
3.435000000001011
 31
0
  0
LINE
  8
0
 62
7
 10
7.410000000000004
 20
3.954443322383352
 30
0
 11
7.349000000000007
 21
3.848788223121649
 31
0
  0
LINE
  8
0
 62
7
 10
7.349000000000007
 20
3.848788223121649
 30
0
 11
7.349000000000007
 21
4.060098421645052
 31
0
  0
LINE
  8
0
 62
7
 10
7.349000000000007
 20
4.060098421645052
 30
0
 11
7.410000000000004
 21
3.954443322383352
 31
0
  0
LINE
  8
0
 62
7
 10
5.415000000009887
 20
3.954443322383352
 30
0
 11
7.410000000000004
 21
3.954443322383352
 31
0
  0
LINE
  8
0
 62
7
  6
DASHED
 10
7.179802390000042
 20
10.88819993
 30
0
 11
7.179802390000042
 21
10.95319993
 31
0
  0
LINE
  8
0
 62
7
  6
DASHED
 10
7.179802390000042
 20
10.95319993
 30
0
 11
7.420000140000039
 21
10.95319993
 31
0
  0
LINE
  8
0
 62
7
  6
DASHED
 10
7.420000140000039
 20
10.95319993
 30
0
 11
7.420000140000039
 21
10.88819993
 31
0
  0
LINE
  8
0
 62
7
  6
DASHED
 10
7.420000140000039
 20
10.88819993
 30
0
 11
7.179802390000042
 21
10.88819993
 31
0
  0
LINE
  8
0
 62
7
 10
6.949802390000041
 20
10.69179993
 30
0
 11
6.949802390000041
 21
10.75679993
 31
0
  0
LINE
  8
0
 62
7
 10
6.949802390000041
 20
10.75679993
 30
0
 11
7.269802390000041
 21
10.75679993
 31
0
  0
LINE
  8
0
 62
7
 10
7.269802390000041
 20
10.75679993
 30
0
 11
7.269802390000041
 21
10.69179993
 31
0
  0
LINE
  8
0
 62
7
 10
7.269802390000041
 20
10.69179993
 30
0
 11
6.949802390000041
 21
10.69179993
 31
0
  0
LINE
  8
0
 62
7
 10
6.719802540000041
 20
10.49539994
 30
0
 11
6.719802540000041
 21
10.56039994
 31
0
  0
LINE
  8
0
 62
7
 10
6.719802540000041
 20
10.56039994
 30
0
 11
7.039802390000041
 21
10.56039994
 31
0
  0
LINE
  8
0
 62
7
 10
7.039802390000041
 20
10.56039994
 30
0
 11
7.039802390000041
 21
10.49539994
 31
0
  0
LINE
  8
0
 62
7
 10
7.039802390000041
 20
10.49539994
 30
0
 11
6.719802540000041
 21
10.49539994
 31
0
  0
LINE
  8
0
 62
7
 10
6.489802390000041
 20
10.29899995
 30
0
 11
6.489802390000041
 21
10.36399995
 31
0
  0
LINE
  8
0
 62
7
 10
6.489802390000041
 20
10.36399995
 30
0
 11
6.809802390000042
 21
10.36399995
 31
0
  0
LINE
  8
0
 62
7
 10
6.809802390000042
 20
10.36399995
 30
0
 11
6.809802390000042
 21
10.29899995
 31
0
  0
LINE
  8
0
 62
7
 10
6.809802390000042
 20
10.29899995
 30
0
 11
6.489802390000041
 21
10.29899995
 31
0
  0
LINE
  8
0
 62
7
 10
6.259802390000041
 20
10.16759995
 30
0
 11
6.259802540000042
 21
10.16759995
 31
0
  0
LINE
  8
0
 62
7
 10
6.259802390000041
 20
10.10259995
 30
0
 11
6.259802390000041
 21
10.16759995
 31
0
  0
LINE
  8
0
 62
7
 10
6.259802540000042
 20
10.16759995
 30
0
 11
6.57980239000004
 21
10.16759995
 31
0
  0
LINE
  8
0
 62
7
 10
6.57980239000004
 20
10.16759995
 30
0
 11
6.57980239000004
 21
10.10259995
 31
0
  0
LINE
  8
0
 62
7
 10
6.57980239000004
 20
10.10259995
 30
0
 11
6.259802390000041
 21
10.10259995
 31
0
  0
LINE
  8
0
 62
7
 10
6.02980239000004
 20
9.906199959999995
 30
0
 11
6.02980239000004
 21
9.971199959999998
 31
0
  0
LINE
  8
0
 62
7
 10
6.02980239000004
 20
9.971199959999998
 30
0
 11
6.349802540000042
 21
9.971199959999998
 31
0
  0
LINE
  8
0
 62
7
 10
6.349802540000042
 20
9.971199959999998
 30
0
 11
6.349802540000042
 21
9.906199959999995
 31
0
  0
LINE
  8
0
 62
7
 10
6.349802540000042
 20
9.906199959999995
 30
0
 11
6.02980239000004
 21
9.906199959999995
 31
0
  0
LINE
  8
0
 62
7
 10
5.708930960000043
 20
9.774799959999998
 30
0
 11
6.11980239000004
 21
9.774799959999998
 31
0
  0
LINE
  8
0
 62
7
 10
6.11980239000004
 20
9.709799959999998
 30
0
 11
5.708930960000043
 21
9.709799959999998
 31
0
  0
LINE
  8
0
 62
7
 10
5.708930960000043
 20
9.709799959999998
 30
0
 11
5.708930960000043
 21
9.774799959999998
 31
0
  0
LINE
  8
0
 62
7
 10
6.11980239000004
 20
9.774799959999998
 30
0
 11
6.11980239000004
 21
9.709799959999998
 31
0
  0
LINE
  8
0
 62
7
 10
6.013066400000042
 20
9.513399969999998
 30
0
 11
5.389898830000043
 21
9.513399969999998
 31
0
  0
LINE
  8
0
 62
7
 10
5.389898830000043
 20
9.578399969999998
 30
0
 11
6.013066400000042
 21
9.578399969999998
 31
0
  0
LINE
  8
0
 62
7
 10
5.389898830000043
 20
9.513399969999998
 30
0
 11
5.389898830000043
 21
9.578399969999998
 31
0
  0
LINE
  8
0
 62
7
 10
6.013066400000042
 20
9.578399969999998
 30
0
 11
6.013066400000042
 21
9.513399969999998
 31
0
  0
LINE
  8
0
 62
7
 10
5.908165430000043
 20
9.316999979999997
 30
0
 11
5.065554340000041
 21
9.316999979999997
 31
0
  0
LINE
  8
0
 62
7
 10
5.065554340000041
 20
9.381999979999998
 30
0
 11
5.908165430000043
 21
9.381999979999998
 31
0
  0
LINE
  8
0
 62
7
 10
5.065554340000041
 20
9.316999979999997
 30
0
 11
5.065554340000041
 21
9.381999979999998
 31
0
  0
LINE
  8
0
 62
7
 10
5.908165430000043
 20
9.381999979999998
 30
0
 11
5.908165430000043
 21
9.316999979999997
 31
0
  0
LINE
  8
0
 62
7
 10
5.805383600000041
 20
9.120599979999998
 30
0
 11
4.613813600000042
 21
9.120599979999998
 31
0
  0
LINE
  8
0
 62
7
 10
4.613813600000042
 20
9.185599979999997
 30
0
 11
5.805383600000041
 21
9.185599979999997
 31
0
  0
LINE
  8
0
 62
7
 10
4.613813600000042
 20
9.120599979999998
 30
0
 11
4.613813600000042
 21
9.185599979999997
 31
0
  0
LINE
  8
0
 62
7
 10
5.805383600000041
 20
9.185599979999997
 30
0
 11
5.805383600000041
 21
9.120599979999998
 31
0
  0
LINE
  8
0
 62
7
 10
5.717863910000041
 20
8.924199989999998
 30
0
 11
4.505000090000041
 21
8.924199989999998
 31
0
  0
LINE
  8
0
 62
7
 10
4.505000090000041
 20
8.989199989999998
 30
0
 11
5.717863910000041
 21
8.989199989999998
 31
0
  0
LINE
  8
0
 62
7
 10
4.505000090000041
 20
8.924199989999998
 30
0
 11
4.505000090000041
 21
8.989199989999998
 31
0
  0
LINE
  8
0
 62
7
 10
5.717863910000041
 20
8.989199989999998
 30
0
 11
5.717863910000041
 21
8.924199989999998
 31
0
  0
LINE
  8
0
 62
7
 10
4.505000070000041
 20
8.792799989999997
 30
0
 11
5.570799780000042
 21
8.792799989999997
 31
0
  0
LINE
  8
0
 62
7
 10
5.570799780000042
 20
8.727799989999996
 30
0
 11
4.505000070000041
 21
8.727799989999996
 31
0
  0
LINE
  8
0
 62
7
 10
4.505000070000041
 20
8.727799989999996
 30
0
 11
4.505000070000041
 21
8.792799989999997
 31
0
  0
LINE
  8
0
 62
7
 10
5.570799780000042
 20
8.792799989999997
 30
0
 11
5.570799780000042
 21
8.727799989999996
 31
0
  0
LINE
  8
0
 62
7
 10
4.505000000000041
 20
8.596399999999996
 30
0
 11
5.415000140000043
 21
8.596399999999996
 31
0
  0
LINE
  8
0
 62
7
 10
4.505000000000041
 20
8.531399999999996
 30
0
 11
4.505000000000041
 21
8.596399999999996
 31
0
  0
LINE
  8
0
 62
7
 10
5.415000140000043
 20
8.596399999999996
 30
0
 11
5.415000140000043
 21
8.531399999999996
 31
0
  0
LINE
  8
0
 62
7
 10
5.415000140000043
 20
8.531399999999996
 30
0
 11
4.505000000000041
 21
8.531399999999996
 31
0
  0
LINE
  8
0
 62
7
 10
0.7950003000000021
 20
10.95319993
 30
0
 11
1.705000190000002
 21
10.95319993
 31
0
  0
LINE
  8
0
 62
7
 10
1.705000190000002
 20
10.95319993
 30
0
 11
1.705000190000002
 21
10.88819993
 31
0
  0
LINE
  8
0
 62
7
 10
0.7950003000000021
 20
10.88819993
 30
0
 11
0.7950003000000021
 21
10.95319993
 31
0
  0
LINE
  8
0
 62
7
 10
1.705000190000002
 20
10.88819993
 30
0
 11
0.7950003000000021
 21
10.88819993
 31
0
  0
LINE
  8
0
 62
7
 10
0.7949996100000017
 20
10.75679993
 30
0
 11
1.705000190000002
 21
10.75679993
 31
0
  0
LINE
  8
0
 62
7
 10
1.705000190000002
 20
10.75679993
 30
0
 11
1.705000190000002
 21
10.69179993
 31
0
  0
LINE
  8
0
 62
7
 10
0.7949996100000017
 20
10.69179993
 30
0
 11
0.7949996100000017
 21
10.75679993
 31
0
  0
LINE
  8
0
 62
7
 10
1.705000190000002
 20
10.69179993
 30
0
 11
0.7949996100000017
 21
10.69179993
 31
0
  0
LINE
  8
0
 62
7
 10
0.7950000700000028
 20
10.56039994
 30
0
 11
1.705000420000002
 21
10.56039994
 31
0
  0
LINE
  8
0
 62
7
 10
1.705000420000002
 20
10.56039994
 30
0
 11
1.705000420000002
 21
10.49539994
 31
0
  0
LINE
  8
0
 62
7
 10
0.7950000700000028
 20
10.49539994
 30
0
 11
0.7950000700000028
 21
10.56039994
 31
0
  0
LINE
  8
0
 62
7
 10
1.705000420000002
 20
10.49539994
 30
0
 11
0.7950000700000028
 21
10.49539994
 31
0
  0
LINE
  8
0
 62
7
 10
0.7950002300000034
 20
10.36399995
 30
0
 11
1.704999610000002
 21
10.36399995
 31
0
  0
LINE
  8
0
 62
7
 10
1.704999610000002
 20
10.36399995
 30
0
 11
1.704999610000002
 21
10.29899995
 31
0
  0
LINE
  8
0
 62
7
 10
0.7950002300000034
 20
10.29899995
 30
0
 11
0.7950002300000034
 21
10.36399995
 31
0
  0
LINE
  8
0
 62
7
 10
1.704999610000002
 20
10.29899995
 30
0
 11
0.7950002300000034
 21
10.29899995
 31
0
  0
LINE
  8
0
 62
7
 10
0.7950000700000016
 20
10.16759995
 30
0
 11
1.705000380000002
 21
10.16759995
 31
0
  0
LINE
  8
0
 62
7
 10
1.705000380000002
 20
10.16759995
 30
0
 11
1.705000380000002
 21
10.10259995
 31
0
  0
LINE
  8
0
 62
7
 10
0.7950000700000016
 20
10.10259995
 30
0
 11
0.7950000700000016
 21
10.16759995
 31
0
  0
LINE
  8
0
 62
7
 10
1.705000380000002
 20
10.10259995
 30
0
 11
0.7950000700000016
 21
10.10259995
 31
0
  0
LINE
  8
0
 62
7
 10
0.7950000000000012
 20
9.971199959999998
 30
0
 11
1.704999690000002
 21
9.971199959999998
 31
0
  0
LINE
  8
0
 62
7
 10
1.704999690000002
 20
9.971199959999998
 30
0
 11
1.704999690000002
 21
9.906199959999997
 31
0
  0
LINE
  8
0
 62
7
 10
0.7950000000000012
 20
9.906199959999997
 30
0
 11
0.7950000000000012
 21
9.971199959999998
 31
0
  0
LINE
  8
0
 62
7
 10
1.704999690000002
 20
9.906199959999997
 30
0
 11
0.7950000000000012
 21
9.906199959999997
 31
0
  0
LINE
  8
0
 62
7
 10
0.7949996900000026
 20
9.774799959999999
 30
0
 11
1.705000000000003
 21
9.774799959999999
 31
0
  0
LINE
  8
0
 62
7
 10
1.705000000000003
 20
9.774799959999999
 30
0
 11
1.705000000000003
 21
9.709799959999998
 31
0
  0
LINE
  8
0
 62
7
 10
0.7949996900000026
 20
9.709799959999998
 30
0
 11
0.7949996900000026
 21
9.774799959999999
 31
0
  0
LINE
  8
0
 62
7
 10
1.705000000000003
 20
9.709799959999998
 30
0
 11
0.7949996900000026
 21
9.709799959999998
 31
0
  0
LINE
  8
0
 62
7
 10
0.7949998400000015
 20
9.578399969999998
 30
0
 11
1.705000030000002
 21
9.578399969999998
 31
0
  0
LINE
  8
0
 62
7
 10
1.705000030000002
 20
9.578399969999998
 30
0
 11
1.705000030000002
 21
9.513399969999998
 31
0
  0
LINE
  8
0
 62
7
 10
0.7949998400000015
 20
9.513399969999998
 30
0
 11
0.7949998400000015
 21
9.578399969999998
 31
0
  0
LINE
  8
0
 62
7
 10
1.705000030000002
 20
9.513399969999998
 30
0
 11
0.7949998400000015
 21
9.513399969999998
 31
0
  0
LINE
  8
0
 62
7
 10
0.7950000000000012
 20
9.381999979999998
 30
0
 11
1.705000190000002
 21
9.381999979999998
 31
0
  0
LINE
  8
0
 62
7
 10
1.705000190000002
 20
9.381999979999998
 30
0
 11
1.705000190000002
 21
9.316999979999997
 31
0
  0
LINE
  8
0
 62
7
 10
0.7950000000000012
 20
9.316999979999997
 30
0
 11
0.7950000000000012
 21
9.381999979999998
 31
0
  0
LINE
  8
0
 62
7
 10
1.705000190000002
 20
9.316999979999997
 30
0
 11
0.7950000000000012
 21
9.316999979999997
 31
0
  0
LINE
  8
0
 62
7
 10
0.7950000000000012
 20
9.185599979999997
 30
0
 11
1.705000190000002
 21
9.185599979999997
 31
0
  0
LINE
  8
0
 62
7
 10
1.705000190000002
 20
9.185599979999997
 30
0
 11
1.705000190000002
 21
9.120599979999998
 31
0
  0
LINE
  8
0
 62
7
 10
0.7950000000000012
 20
9.120599979999998
 30
0
 11
0.7950000000000012
 21
9.185599979999997
 31
0
  0
LINE
  8
0
 62
7
 10
1.705000190000002
 20
9.120599979999998
 30
0
 11
0.7950000000000012
 21
9.120599979999998
 31
0
  0
LINE
  8
0
 62
7
 10
0.7950000000000012
 20
8.989199989999998
 30
0
 11
1.705000030000002
 21
8.989199989999998
 31
0
  0
LINE
  8
0
 62
7
 10
1.705000030000002
 20
8.924199989999998
 30
0
 11
0.7950000000000012
 21
8.924199989999998
 31
0
  0
LINE
  8
0
 62
7
 10
1.705000030000002
 20
8.989199989999998
 30
0
 11
1.705000030000002
 21
8.924199989999998
 31
0
  0
LINE
  8
0
 62
7
 10
0.7950000000000012
 20
8.924199989999998
 30
0
 11
0.7950000000000012
 21
8.989199989999998
 31
0
  0
LINE
  8
0
 62
7
 10
1.763762970000003
 20
8.727799989999996
 30
0
 11
1.105498350000003
 21
8.727799989999996
 31
0
  0
LINE
  8
0
 62
7
 10
1.105498350000003
 20
8.792799989999997
 30
0
 11
1.763762970000003
 21
8.792799989999997
 31
0
  0
LINE
  8
0
 62
7
 10
1.763762970000003
 20
8.792799989999997
 30
0
 11
1.763762970000003
 21
8.727799989999996
 31
0
  0
LINE
  8
0
 62
7
 10
1.105498350000003
 20
8.727799989999996
 30
0
 11
1.105498350000003
 21
8.792799989999997
 31
0
  0
LINE
  8
0
 62
7
 10
1.484704130000003
 20
8.596399999999996
 30
0
 11
1.889999870000002
 21
8.596399999999996
 31
0
  0
LINE
  8
0
 62
7
 10
1.889999870000002
 20
8.531399999999996
 30
0
 11
1.484704130000003
 21
8.531399999999996
 31
0
  0
LINE
  8
0
 62
7
 10
1.889999870000002
 20
8.596399999999996
 30
0
 11
1.889999870000002
 21
8.531399999999996
 31
0
  0
LINE
  8
0
 62
7
 10
1.484704130000003
 20
8.531399999999996
 30
0
 11
1.484704130000003
 21
8.596399999999996
 31
0
  0
LINE
  8
0
 62
7
 10
7.460000000000008
 20
11.05
 30
0
 11
7.600000000000008
 21
11.05
 31
0
  0
LINE
  8
0
 62
7
 10
7.460000000000008
 20
11.05
 30
0
 11
7.635000000000009
 21
11.05
 31
0
  0
LINE
  8
0
 62
7
 10
4.450000000000006
 20
8.099999999999998
 30
0
 11
7.600000000000008
 21
8.099999999999998
 31
0
  0
LINE
  8
0
 62
7
 10
4.450000000000007
 20
8.299999999999997
 30
0
 11
7.460000000000008
 21
8.299999999999997
 31
0
  0
LINE
  8
0
 62
7
 10
4.450000000000007
 20
10.85
 30
0
 11
7.460000000000008
 21
10.85
 31
0
  0
LINE
  8
0
 62
7
 10
4.450000000000007
 20
11.05
 30
0
 11
7.460000000000008
 21
11.05
 31
0
  0
LINE
  8
0
 62
7
 10
4.450000000000006
 20
8.099999999999998
 30
0
 11
4.450000000000007
 21
7.949999999999998
 31
0
  0
LINE
  8
0
 62
7
 10
4.275000000000007
 20
8.099999999999998
 30
0
 11
4.450000000000006
 21
8.099999999999998
 31
0
  0
LINE
  8
0
 62
7
 10
4.275000000000007
 20
8.299999999999997
 30
0
 11
4.450000000000007
 21
8.299999999999997
 31
0
  0
LINE
  8
0
 62
7
 10
4.275000000000007
 20
10.85
 30
0
 11
4.450000000000007
 21
10.85
 31
0
  0
LINE
  8
0
 62
7
 10
4.275000000000007
 20
11.05
 30
0
 11
4.450000000000007
 21
11.05
 31
0
  0
LINE
  8
0
 62
7
 10
4.275000000000007
 20
8.099999999999998
 30
0
 11
4.275000000000007
 21
7.949999999999998
 31
0
  0
LINE
  8
0
 62
7
 10
4.125000000000007
 20
8.099999999999998
 30
0
 11
4.275000000000007
 21
8.099999999999998
 31
0
  0
LINE
  8
0
 62
7
 10
4.275000000000007
 20
8.399999999999997
 30
0
 11
4.275000000000007
 21
8.299999999999997
 31
0
  0
LINE
  8
0
 62
7
 10
4.125000000000007
 20
8.299999999999997
 30
0
 11
4.275000000000007
 21
8.299999999999997
 31
0
  0
LINE
  8
0
 62
7
 10
4.125000000000007
 20
10.85
 30
0
 11
4.275000000000007
 21
10.85
 31
0
  0
LINE
  8
0
 62
7
 10
4.275000000000007
 20
11.15
 30
0
 11
4.275000000000007
 21
11.05
 31
0
  0
LINE
  8
0
 62
7
 10
4.125000000000007
 20
11.05
 30
0
 11
4.275000000000007
 21
11.05
 31
0
  0
LINE
  8
0
 62
7
  6
DASHDOT
 10
7.600000000000008
 20
8.099999999999998
 30
0
 11
7.600000000000008
 21
8.049999999999997
 31
0
  0
LINE
  8
0
 62
7
  6
DASHDOT
 10
7.600000000000008
 20
10.85
 30
0
 11
7.600000000000008
 21
10.8
 31
0
  0
LINE
  8
0
 62
7
  6
DASHDOT
 10
4.125000000000007
 20
8.099999999999998
 30
0
 11
4.125000000000007
 21
8.049999999999997
 31
0
  0
LINE
  8
0
 62
7
  6
DASHDOT
 10
4.125000000000007
 20
10.85
 30
0
 11
4.125000000000007
 21
10.8
 31
0
  0
LINE
  8
0
 62
7
  6
DASHDOT
 10
4.450000000000006
 20
11.2
 30
0
 11
4.500000000000007
 21
11.2
 31
0
  0
LINE
  8
0
 62
7
  6
DASHDOT
 10
4.450000000000007
 20
7.949999999999998
 30
0
 11
4.500000000000007
 21
7.949999999999998
 31
0
  0
LINE
  8
0
 62
7
  6
DASHDOT
 10
7.600000000000006
 20
8.449999999999998
 30
0
 11
7.600000000000008
 21
8.399999999999997
 31
0
  0
LINE
  8
0
 62
7
 10
4.450000000000007
 20
10.85
 30
0
 11
4.450000000000007
 21
8.399999999999997
 31
0
  0
LINE
  8
0
 62
7
 10
4.125000000000007
 20
8.399999999999997
 30
0
 11
4.275000000000007
 21
8.399999999999997
 31
0
  0
LINE
  8
0
 62
7
 10
4.275000000000007
 20
10.85
 30
0
 11
4.275000000000007
 21
8.399999999999997
 31
0
  0
LINE
  8
0
 62
7
  6
DASHDOT
 10
4.125000000000006
 20
8.449999999999998
 30
0
 11
4.125000000000007
 21
8.399999999999997
 31
0
  0
LINE
  8
0
 62
7
  6
DASHDOT
 10
7.600000000000006
 20
11.2
 30
0
 11
7.600000000000008
 21
11.15
 31
0
  0
LINE
  8
0
 62
7
 10
4.450000000000006
 20
11.2
 30
0
 11
4.450000000000007
 21
11.15
 31
0
  0
LINE
  8
0
 62
7
 10
4.125000000000007
 20
11.15
 30
0
 11
4.275000000000007
 21
11.15
 31
0
  0
LINE
  8
0
 62
7
 10
4.275000000000007
 20
11.2
 30
0
 11
4.275000000000007
 21
11.15
 31
0
  0
LINE
  8
0
 62
7
  6
DASHDOT
 10
4.125000000000006
 20
11.2
 30
0
 11
4.125000000000007
 21
11.15
 31
0
  0
LINE
  8
0
 62
7
  6
DASHDOT
 10
4.125000000000007
 20
8.299999999999997
 30
0
 11
4.125000000000007
 21
8.099999999999998
 31
0
  0
LINE
  8
0
 62
7
  6
DASHDOT
 10
4.125000000000007
 20
8.399999999999997
 30
0
 11
4.125000000000007
 21
8.299999999999997
 31
0
  0
LINE
  8
0
 62
7
  6
DASHDOT
 10
4.275000000000007
 20
7.949999999999998
 30
0
 11
4.450000000000007
 21
7.949999999999998
 31
0
  0
LINE
  8
0
 62
7
  6
DASHDOT
 10
4.225000000000008
 20
7.949999999999998
 30
0
 11
4.275000000000007
 21
7.949999999999998
 31
0
  0
LINE
  8
0
 62
7
  6
DASHDOT
 10
7.600000000000008
 20
8.299999999999997
 30
0
 11
7.600000000000008
 21
8.099999999999998
 31
0
  0
LINE
  8
0
 62
7
  6
DASHDOT
 10
7.600000000000008
 20
8.399999999999997
 30
0
 11
7.600000000000008
 21
8.299999999999997
 31
0
  0
LINE
  8
0
 62
7
  6
DASHDOT
 10
7.600000000000008
 20
11.05
 30
0
 11
7.600000000000008
 21
10.85
 31
0
  0
LINE
  8
0
 62
7
  6
DASHDOT
 10
7.600000000000008
 20
11.15
 30
0
 11
7.600000000000008
 21
11.05
 31
0
  0
LINE
  8
0
 62
7
  6
DASHDOT
 10
4.125000000000007
 20
11.05
 30
0
 11
4.125000000000007
 21
10.85
 31
0
  0
LINE
  8
0
 62
7
  6
DASHDOT
 10
4.125000000000007
 20
11.15
 30
0
 11
4.125000000000007
 21
11.05
 31
0
  0
LINE
  8
0
 62
7
  6
DASHDOT
 10
4.275000000000007
 20
11.2
 30
0
 11
4.450000000000006
 21
11.2
 31
0
  0
LINE
  8
0
 62
7
  6
DASHDOT
 10
4.225000000000008
 20
11.2
 30
0
 11
4.275000000000007
 21
11.2
 31
0
  0
LINE
  8
0
 62
7
 10
0.5000000000000009
 20
7.949999999999998
 30
0
 11
0.5000000000000006
 21
8.099999999999998
 31
0
  0
LINE
  8
0
 62
7
 10
0.7400000000000005
 20
11.2
 30
0
 11
0.7400000000000011
 21
11.15
 31
0
  0
LINE
  8
0
 62
7
 10
0.5000000000000009
 20
11.05
 30
0
 11
0.7400000000000011
 21
11.05
 31
0
  0
LINE
  8
0
 62
7
 10
0.5000000000000009
 20
11.05
 30
0
 11
0.5000000000000006
 21
11.2
 31
0
  0
LINE
  8
0
 62
7
 10
0.7400000000000011
 20
11.05
 30
0
 11
0.7400000000000011
 21
10.85
 31
0
  0
LINE
  8
0
 62
7
 10
0.5000000000000009
 20
10.85
 30
0
 11
0.7400000000000011
 21
10.85
 31
0
  0
LINE
  8
0
 62
7
 10
0.5000000000000009
 20
10.85
 30
0
 11
0.5000000000000009
 21
11.05
 31
0
  0
LINE
  8
0
 62
7
 10
0.7400000000000011
 20
10.85
 30
0
 11
0.7400000000000011
 21
8.299999999999997
 31
0
  0
LINE
  8
0
 62
7
 10
0.5000000000000009
 20
8.299999999999997
 30
0
 11
0.7400000000000011
 21
8.299999999999997
 31
0
  0
LINE
  8
0
 62
7
 10
0.5000000000000009
 20
8.299999999999997
 30
0
 11
0.5000000000000009
 21
10.85
 31
0
  0
LINE
  8
0
 62
7
 10
0.7400000000000011
 20
8.299999999999997
 30
0
 11
0.7400000000000005
 21
8.099999999999998
 31
0
  0
LINE
  8
0
 62
7
 10
0.5000000000000006
 20
8.099999999999998
 30
0
 11
0.7400000000000005
 21
8.099999999999998
 31
0
  0
LINE
  8
0
 62
7
 10
0.5000000000000006
 20
8.099999999999998
 30
0
 11
0.5000000000000009
 21
8.299999999999997
 31
0
  0
LINE
  8
0
 62
7
 10
0.7400000000000005
 20
8.099999999999998
 30
0
 11
0.7400000000000011
 21
7.949999999999998
 31
0
  0
LINE
  8
0
 62
7
 10
1.790000000000001
 20
11.05
 30
0
 11
1.790000000000001
 21
10.85
 31
0
  0
LINE
  8
0
 62
7
 10
1.790000000000001
 20
10.85
 30
0
 11
2.090000000000001
 21
10.85
 31
0
  0
LINE
  8
0
 62
7
 10
1.790000000000001
 20
11.05
 30
0
 11
2.090000000000001
 21
11.05
 31
0
  0
LINE
  8
0
 62
7
 10
1.790000000000001
 20
8.299999999999997
 30
0
 11
2.090000000000001
 21
8.299999999999997
 31
0
  0
LINE
  8
0
 62
7
 10
1.790000000000001
 20
8.299999999999997
 30
0
 11
1.790000000000001
 21
8.099999999999998
 31
0
  0
LINE
  8
0
 62
7
 10
1.790000000000001
 20
8.099999999999998
 30
0
 11
2.090000000000001
 21
8.099999999999998
 31
0
  0
LINE
  8
0
 62
7
  6
DASHDOT
 10
0.4500000000000009
 20
11.2
 30
0
 11
0.5000000000000006
 21
11.2
 31
0
  0
LINE
  8
0
 62
7
  6
DASHDOT
 10
2.090000000000001
 20
11.2
 30
0
 11
2.090000000000001
 21
11.15
 31
0
  0
LINE
  8
0
 62
7
  6
DASHDOT
 10
2.090000000000001
 20
8.049999999999997
 30
0
 11
2.090000000000001
 21
8.099999999999998
 31
0
  0
LINE
  8
0
 62
7
  6
DASHDOT
 10
0.4500000000000009
 20
7.949999999999998
 30
0
 11
0.5000000000000009
 21
7.949999999999998
 31
0
  0
LINE
  8
0
 62
7
 10
1.790000000000001
 20
8.399999999999997
 30
0
 11
2.090000000000001
 21
8.399999999999997
 31
0
  0
LINE
  8
0
 62
7
  6
DASHDOT
 10
2.090000000000001
 20
8.399999999999997
 30
0
 11
2.090000000000001
 21
8.449999999999998
 31
0
  0
LINE
  8
0
 62
7
 10
1.790000000000001
 20
11.15
 30
0
 11
2.090000000000001
 21
11.15
 31
0
  0
LINE
  8
0
 62
7
  6
DASHDOT
 10
2.090000000000001
 20
11.15
 30
0
 11
2.090000000000001
 21
11.05
 31
0
  0
LINE
  8
0
 62
7
  6
DASHDOT
 10
2.090000000000001
 20
8.299999999999997
 30
0
 11
2.090000000000001
 21
8.399999999999997
 31
0
  0
LINE
  8
0
 62
7
  6
DASHDOT
 10
2.090000000000001
 20
8.099999999999998
 30
0
 11
2.090000000000001
 21
8.299999999999997
 31
0
  0
LINE
  8
0
 62
7
  6
DASHDOT
 10
0.5000000000000009
 20
7.949999999999998
 30
0
 11
0.7400000000000011
 21
7.949999999999998
 31
0
  0
LINE
  8
0
 62
7
  6
DASHDOT
 10
0.7400000000000011
 20
7.949999999999998
 30
0
 11
0.790000000000001
 21
7.949999999999998
 31
0
  0
LINE
  8
0
 62
7
  6
DASHDOT
 10
0.7400000000000005
 20
11.2
 30
0
 11
0.790000000000001
 21
11.2
 31
0
  0
LINE
  8
0
 62
7
  6
DASHDOT
 10
0.5000000000000006
 20
11.2
 30
0
 11
0.7400000000000005
 21
11.2
 31
0
  0
LINE
  8
0
 62
7
  6
DASHDOT
 10
2.090000000000001
 20
10.85
 30
0
 11
2.090000000000001
 21
10.8
 31
0
  0
LINE
  8
0
 62
7
  6
DASHDOT
 10
2.090000000000001
 20
11.05
 30
0
 11
2.090000000000001
 21
10.85
 31
0
  0
LINE
  8
0
 62
7
  6
DASHED
 10
0.7400000000000011
 20
11.05
 30
0
 11
1.790000000000001
 21
11.05
 31
0
  0
LINE
  8
0
 62
7
  6
DASHED
 10
0.7400000000000011
 20
10.85
 30
0
 11
1.790000000000001
 21
10.85
 31
0
  0
LINE
  8
0
 62
7
  6
DASHED
 10
0.7400000000000011
 20
8.299999999999997
 30
0
 11
1.790000000000001
 21
8.299999999999997
 31
0
  0
LINE
  8
0
 62
7
  6
DASHED
 10
0.7400000000000005
 20
8.099999999999998
 30
0
 11
1.790000000000001
 21
8.099999999999998
 31
0
  0
LINE
  8
0
 62
7
 10
4.450000000000006
 20
5.069999999999998
 30
0
 11
4.450000000000007
 21
4.919999999999998
 31
0
  0
LINE
  8
0
 62
7
 10
4.450000000000007
 20
4.919999999999998
 30
0
 11
7.600000000000008
 21
4.919999999999998
 31
0
  0
LINE
  8
0
 62
7
 10
4.450000000000007
 20
3.250000000000001
 30
0
 11
4.449999999999995
 21
3.350000000000001
 31
0
  0
LINE
  8
0
 62
7
 10
4.275000000000007
 20
3.250000000000001
 30
0
 11
4.450000000000007
 21
3.250000000000001
 31
0
  0
LINE
  8
0
 62
7
 10
4.275000000000007
 20
4.640000000000001
 30
0
 11
4.275000000000007
 21
3.250000000000001
 31
0
  0
LINE
  8
0
 62
7
 10
4.450000000000006
 20
4.4
 30
0
 11
7.410000000000008
 21
4.4
 31
0
  0
LINE
  8
0
 62
7
  6
DASHDOT
 10
7.460000000000008
 20
4.4
 30
0
 11
7.460000000000008
 21
3.350000000000001
 31
0
  0
LINE
  8
0
 62
7
  6
DASHDOT
 10
7.460000000000008
 20
3.350000000000001
 30
0
 11
7.410000000000008
 21
3.350000000000001
 31
0
  0
LINE
  8
0
 62
7
 10
4.449999999999995
 20
3.350000000000001
 30
0
 11
4.450000000000006
 21
4.4
 31
0
  0
LINE
  8
0
 62
7
  6
DASHDOT
 10
4.225000000000008
 20
5.069999999999998
 30
0
 11
4.275000000000007
 21
5.069999999999998
 31
0
  0
LINE
  8
0
 62
7
  6
DASHDOT
 10
7.600000000000008
 20
4.969999999999998
 30
0
 11
7.600000000000008
 21
4.919999999999998
 31
0
  0
LINE
  8
0
 62
7
  6
DASHDOT
 10
7.600000000000008
 20
4.919999999999998
 30
0
 11
7.600000000000008
 21
4.680000000000001
 31
0
  0
LINE
  8
0
 62
7
  6
DASHDOT
 10
4.275000000000007
 20
5.069999999999998
 30
0
 11
4.450000000000006
 21
5.069999999999998
 31
0
  0
LINE
  8
0
 62
7
  6
DASHDOT
 10
4.450000000000006
 20
5.069999999999998
 30
0
 11
4.500000000000007
 21
5.069999999999998
 31
0
  0
LINE
  8
0
 62
7
  6
DASHDOT
 10
7.600000000000008
 20
4.680000000000001
 30
0
 11
7.600000000000008
 21
4.640000000000001
 31
0
  0
LINE
  8
0
 62
7
  6
DASHDOT
 10
7.600000000000008
 20
4.640000000000001
 30
0
 11
7.600000000000008
 21
4.4
 31
0
  0
LINE
  8
0
 62
7
 10
4.275000000000007
 20
4.640000000000001
 30
0
 11
7.600000000000008
 21
4.640000000000001
 31
0
  0
LINE
  8
0
 62
7
 10
4.275000000000007
 20
5.069999999999998
 30
0
 11
4.275000000000007
 21
4.680000000000001
 31
0
  0
LINE
  8
0
 62
7
 10
4.275000000000007
 20
4.680000000000001
 30
0
 11
7.600000000000008
 21
4.680000000000001
 31
0
  0
LINE
  8
0
 62
7
 10
7.460000000000008
 20
4.4
 30
0
 11
7.600000000000008
 21
4.4
 31
0
  0
LINE
  8
0
 62
7
  6
DASHDOT
 10
7.600000000000008
 20
4.4
 30
0
 11
7.600000000000008
 21
4.350000000000001
 31
0
  0
LINE
  8
0
 62
7
 10
7.410000000000008
 20
4.4
 30
0
 11
7.410000000000008
 21
3.350000000000001
 31
0
  0
LINE
  8
0
 62
7
 10
7.410000000000008
 20
4.4
 30
0
 11
7.460000000000008
 21
4.4
 31
0
  0
LINE
  8
0
 62
7
  6
DASHDOT
 10
7.410000000000008
 20
3.350000000000001
 30
0
 11
4.449999999999995
 21
3.350000000000001
 31
0
  0
LINE
  8
0
 62
7
 10
4.450000000000007
 20
8.399999999999997
 30
0
 11
7.600000000000008
 21
8.399999999999997
 31
0
  0
LINE
  8
0
 62
7
 10
4.450000000000007
 20
8.399999999999997
 30
0
 11
4.450000000000007
 21
8.299999999999997
 31
0
  0
LINE
  8
0
 62
7
 10
7.460000000000008
 20
8.299999999999997
 30
0
 11
7.600000000000008
 21
8.299999999999997
 31
0
  0
LINE
  8
0
 62
7
 10
7.600000000000008
 20
11.15
 30
0
 11
4.450000000000007
 21
11.15
 31
0
  0
LINE
  8
0
 62
7
 10
4.450000000000007
 20
11.15
 30
0
 11
4.450000000000007
 21
11.05
 31
0
  0
LINE
  8
0
 62
7
 10
7.460000000000008
 20
11.05
 30
0
 11
7.460000000000008
 21
10.85
 31
0
  0
LINE
  8
0
 62
7
 10
7.460000000000008
 20
10.85
 30
0
 11
7.600000000000008
 21
10.85
 31
0
  0
LINE
  8
0
 62
7
 10
1.790000000000001
 20
11.15
 30
0
 11
0.7400000000000011
 21
11.15
 31
0
  0
LINE
  8
0
 62
7
 10
0.7400000000000011
 20
11.15
 30
0
 11
0.7400000000000011
 21
11.05
 31
0
  0
LINE
  8
0
 62
7
 10
5.125195639158583
 20
4.09832276159655
 30
0
 11
5.125195639158583
 21
4.21832276159655
 31
0
  0
LINE
  8
0
 62
7
 10
5.200795639158581
 20
4.21832276159655
 30
0
 11
5.146795639158582
 21
4.15832276159655
 31
0
  0
LINE
  8
0
 62
7
 10
5.146795639158582
 20
4.15832276159655
 30
0
 11
5.200795639158581
 21
4.09832276159655
 31
0
  0
LINE
  8
0
 62
7
 10
5.146795639158582
 20
4.15832276159655
 30
0
 11
5.125195639158583
 21
4.134322761596549
 31
0
  0
LINE
  8
0
 62
7
 10
5.308795639158582
 20
4.21832276159655
 30
0
 11
5.233195639158581
 21
4.21832276159655
 31
0
  0
LINE
  8
0
 62
7
 10
5.233195639158581
 20
4.21832276159655
 30
0
 11
5.233195639158581
 21
4.15832276159655
 31
0
  0
LINE
  8
0
 62
7
 10
5.233195639158581
 20
4.09832276159655
 30
0
 11
5.308795639158582
 21
4.09832276159655
 31
0
  0
LINE
  8
0
 62
7
 10
5.297995639158581
 20
4.15832276159655
 30
0
 11
5.233195639158581
 21
4.15832276159655
 31
0
  0
LINE
  8
0
 62
7
 10
5.233195639158581
 20
4.15832276159655
 30
0
 11
5.233195639158581
 21
4.09832276159655
 31
0
  0
LINE
  8
0
 62
7
 10
5.341195639158581
 20
4.09832276159655
 30
0
 11
5.341195639158581
 21
4.21832276159655
 31
0
  0
LINE
  8
0
 62
7
 10
5.341195639158581
 20
4.21832276159655
 30
0
 11
5.416795639158582
 21
4.09832276159655
 31
0
  0
LINE
  8
0
 62
7
 10
5.416795639158582
 20
4.09832276159655
 30
0
 11
5.416795639158582
 21
4.21832276159655
 31
0
  0
LINE
  8
0
 62
7
 10
5.449195639158582
 20
4.09832276159655
 30
0
 11
5.449195639158582
 21
4.21832276159655
 31
0
  0
LINE
  8
0
 62
7
 10
5.449195639158582
 20
4.21832276159655
 30
0
 11
5.524795639158583
 21
4.09832276159655
 31
0
  0
LINE
  8
0
 62
7
 10
5.524795639158583
 20
4.09832276159655
 30
0
 11
5.524795639158583
 21
4.21832276159655
 31
0
  0
LINE
  8
0
 62
7
 10
5.632795639158582
 20
4.18232276159655
 30
0
 11
5.630095639158581
 21
4.19432276159655
 31
0
  0
LINE
  8
0
 62
7
 10
5.630095639158581
 20
4.19432276159655
 30
0
 11
5.624695639158581
 21
4.20332276159655
 31
0
  0
LINE
  8
0
 62
7
 10
5.624695639158581
 20
4.20332276159655
 30
0
 11
5.619295639158582
 21
4.20932276159655
 31
0
  0
LINE
  8
0
 62
7
 10
5.619295639158582
 20
4.20932276159655
 30
0
 11
5.611195639158581
 21
4.21532276159655
 31
0
  0
LINE
  8
0
 62
7
 10
5.611195639158581
 20
4.21532276159655
 30
0
 11
5.603095639158582
 21
4.21832276159655
 31
0
  0
LINE
  8
0
 62
7
 10
5.603095639158582
 20
4.21832276159655
 30
0
 11
5.586895639158582
 21
4.21832276159655
 31
0
  0
LINE
  8
0
 62
7
 10
5.586895639158582
 20
4.21832276159655
 30
0
 11
5.578795639158582
 21
4.21532276159655
 31
0
  0
LINE
  8
0
 62
7
 10
5.578795639158582
 20
4.21532276159655
 30
0
 11
5.570695639158582
 21
4.20932276159655
 31
0
  0
LINE
  8
0
 62
7
 10
5.570695639158582
 20
4.20932276159655
 30
0
 11
5.565295639158581
 21
4.20332276159655
 31
0
  0
LINE
  8
0
 62
7
 10
5.565295639158581
 20
4.20332276159655
 30
0
 11
5.559895639158581
 21
4.19432276159655
 31
0
  0
LINE
  8
0
 62
7
 10
5.559895639158581
 20
4.19432276159655
 30
0
 11
5.557195639158581
 21
4.18232276159655
 31
0
  0
LINE
  8
0
 62
7
 10
5.557195639158581
 20
4.18232276159655
 30
0
 11
5.557195639158581
 21
4.134322761596549
 31
0
  0
LINE
  8
0
 62
7
 10
5.557195639158581
 20
4.134322761596549
 30
0
 11
5.559895639158581
 21
4.12232276159655
 31
0
  0
LINE
  8
0
 62
7
 10
5.559895639158581
 20
4.12232276159655
 30
0
 11
5.565295639158581
 21
4.11332276159655
 31
0
  0
LINE
  8
0
 62
7
 10
5.565295639158581
 20
4.11332276159655
 30
0
 11
5.570695639158582
 21
4.10732276159655
 31
0
  0
LINE
  8
0
 62
7
 10
5.570695639158582
 20
4.10732276159655
 30
0
 11
5.578795639158582
 21
4.10132276159655
 31
0
  0
LINE
  8
0
 62
7
 10
5.578795639158582
 20
4.10132276159655
 30
0
 11
5.586895639158582
 21
4.09832276159655
 31
0
  0
LINE
  8
0
 62
7
 10
5.586895639158582
 20
4.09832276159655
 30
0
 11
5.603095639158582
 21
4.09832276159655
 31
0
  0
LINE
  8
0
 62
7
 10
5.603095639158582
 20
4.09832276159655
 30
0
 11
5.611195639158581
 21
4.10132276159655
 31
0
  0
LINE
  8
0
 62
7
 10
5.611195639158581
 20
4.10132276159655
 30
0
 11
5.619295639158582
 21
4.10732276159655
 31
0
  0
LINE
  8
0
 62
7
 10
5.619295639158582
 20
4.10732276159655
 30
0
 11
5.624695639158581
 21
4.11332276159655
 31
0
  0
LINE
  8
0
 62
7
 10
5.624695639158581
 20
4.11332276159655
 30
0
 11
5.630095639158581
 21
4.12232276159655
 31
0
  0
LINE
  8
0
 62
7
 10
5.630095639158581
 20
4.12232276159655
 30
0
 11
5.632795639158582
 21
4.134322761596549
 31
0
  0
LINE
  8
0
 62
7
 10
5.632795639158582
 20
4.134322761596549
 30
0
 11
5.632795639158582
 21
4.15832276159655
 31
0
  0
LINE
  8
0
 62
7
 10
5.632795639158582
 20
4.15832276159655
 30
0
 11
5.600395639158582
 21
4.15832276159655
 31
0
  0
LINE
  8
0
 62
7
 10
5.711095639158581
 20
4.21832276159655
 30
0
 11
5.694895639158581
 21
4.21832276159655
 31
0
  0
LINE
  8
0
 62
7
 10
5.694895639158581
 20
4.21832276159655
 30
0
 11
5.686795639158582
 21
4.21532276159655
 31
0
  0
LINE
  8
0
 62
7
 10
5.686795639158582
 20
4.21532276159655
 30
0
 11
5.678695639158581
 21
4.20932276159655
 31
0
  0
LINE
  8
0
 62
7
 10
5.678695639158581
 20
4.20932276159655
 30
0
 11
5.673295639158582
 21
4.20332276159655
 31
0
  0
LINE
  8
0
 62
7
 10
5.673295639158582
 20
4.20332276159655
 30
0
 11
5.667895639158582
 21
4.19432276159655
 31
0
  0
LINE
  8
0
 62
7
 10
5.667895639158582
 20
4.19432276159655
 30
0
 11
5.665195639158583
 21
4.18232276159655
 31
0
  0
LINE
  8
0
 62
7
 10
5.665195639158583
 20
4.18232276159655
 30
0
 11
5.665195639158583
 21
4.134322761596549
 31
0
  0
LINE
  8
0
 62
7
 10
5.665195639158583
 20
4.134322761596549
 30
0
 11
5.667895639158582
 21
4.12232276159655
 31
0
  0
LINE
  8
0
 62
7
 10
5.667895639158582
 20
4.12232276159655
 30
0
 11
5.673295639158582
 21
4.11332276159655
 31
0
  0
LINE
  8
0
 62
7
 10
5.673295639158582
 20
4.11332276159655
 30
0
 11
5.678695639158581
 21
4.10732276159655
 31
0
  0
LINE
  8
0
 62
7
 10
5.678695639158581
 20
4.10732276159655
 30
0
 11
5.686795639158582
 21
4.10132276159655
 31
0
  0
LINE
  8
0
 62
7
 10
5.686795639158582
 20
4.10132276159655
 30
0
 11
5.694895639158581
 21
4.09832276159655
 31
0
  0
LINE
  8
0
 62
7
 10
5.694895639158581
 20
4.09832276159655
 30
0
 11
5.711095639158581
 21
4.09832276159655
 31
0
  0
LINE
  8
0
 62
7
 10
5.711095639158581
 20
4.09832276159655
 30
0
 11
5.719195639158581
 21
4.10132276159655
 31
0
  0
LINE
  8
0
 62
7
 10
5.719195639158581
 20
4.10132276159655
 30
0
 11
5.727295639158583
 21
4.10732276159655
 31
0
  0
LINE
  8
0
 62
7
 10
5.727295639158583
 20
4.10732276159655
 30
0
 11
5.732695639158582
 21
4.11332276159655
 31
0
  0
LINE
  8
0
 62
7
 10
5.732695639158582
 20
4.11332276159655
 30
0
 11
5.738095639158582
 21
4.12232276159655
 31
0
  0
LINE
  8
0
 62
7
 10
5.738095639158582
 20
4.12232276159655
 30
0
 11
5.740795639158581
 21
4.134322761596549
 31
0
  0
LINE
  8
0
 62
7
 10
5.740795639158581
 20
4.134322761596549
 30
0
 11
5.740795639158581
 21
4.18232276159655
 31
0
  0
LINE
  8
0
 62
7
 10
5.740795639158581
 20
4.18232276159655
 30
0
 11
5.738095639158582
 21
4.19432276159655
 31
0
  0
LINE
  8
0
 62
7
 10
5.738095639158582
 20
4.19432276159655
 30
0
 11
5.732695639158582
 21
4.20332276159655
 31
0
  0
LINE
  8
0
 62
7
 10
5.732695639158582
 20
4.20332276159655
 30
0
 11
5.727295639158583
 21
4.20932276159655
 31
0
  0
LINE
  8
0
 62
7
 10
5.727295639158583
 20
4.20932276159655
 30
0
 11
5.719195639158581
 21
4.21532276159655
 31
0
  0
LINE
  8
0
 62
7
 10
5.719195639158581
 20
4.21532276159655
 30
0
 11
5.711095639158581
 21
4.21832276159655
 31
0
  0
LINE
  8
0
 62
7
 10
5.762395639158581
 20
4.21832276159655
 30
0
 11
5.800195639158582
 21
4.21832276159655
 31
0
  0
LINE
  8
0
 62
7
 10
5.800195639158582
 20
4.21832276159655
 30
0
 11
5.800195639158582
 21
4.09832276159655
 31
0
  0
LINE
  8
0
 62
7
 10
5.800195639158582
 20
4.21832276159655
 30
0
 11
5.837995639158581
 21
4.21832276159655
 31
0
  0
LINE
  8
0
 62
7
 10
5.870395639158582
 20
4.21832276159655
 30
0
 11
5.908195639158581
 21
4.21832276159655
 31
0
  0
LINE
  8
0
 62
7
 10
5.908195639158581
 20
4.21832276159655
 30
0
 11
5.908195639158581
 21
4.09832276159655
 31
0
  0
LINE
  8
0
 62
7
 10
5.908195639158581
 20
4.21832276159655
 30
0
 11
5.945995639158582
 21
4.21832276159655
 31
0
  0
LINE
  8
0
 62
7
 10
6.064795639158582
 20
4.14032276159655
 30
0
 11
6.118795639158581
 21
4.14032276159655
 31
0
  0
LINE
  8
0
 62
7
 10
6.226795639158581
 20
4.21832276159655
 30
0
 11
6.264595639158581
 21
4.21832276159655
 31
0
  0
LINE
  8
0
 62
7
 10
6.264595639158581
 20
4.21832276159655
 30
0
 11
6.264595639158581
 21
4.09832276159655
 31
0
  0
LINE
  8
0
 62
7
 10
6.264595639158581
 20
4.21832276159655
 30
0
 11
6.302395639158581
 21
4.21832276159655
 31
0
  0
LINE
  8
0
 62
7
 10
6.334795639158582
 20
4.09832276159655
 30
0
 11
6.334795639158582
 21
4.21832276159655
 31
0
  0
LINE
  8
0
 62
7
 10
6.334795639158582
 20
4.21832276159655
 30
0
 11
6.386095639158581
 21
4.21832276159655
 31
0
  0
LINE
  8
0
 62
7
 10
6.386095639158581
 20
4.21832276159655
 30
0
 11
6.396895639158583
 21
4.21532276159655
 31
0
  0
LINE
  8
0
 62
7
 10
6.396895639158583
 20
4.21532276159655
 30
0
 11
6.404995639158582
 21
4.20932276159655
 31
0
  0
LINE
  8
0
 62
7
 10
6.404995639158582
 20
4.20932276159655
 30
0
 11
6.407695639158582
 21
4.20332276159655
 31
0
  0
LINE
  8
0
 62
7
 10
6.407695639158582
 20
4.20332276159655
 30
0
 11
6.410395639158581
 21
4.19432276159655
 31
0
  0
LINE
  8
0
 62
7
 10
6.410395639158581
 20
4.19432276159655
 30
0
 11
6.410395639158581
 21
4.18232276159655
 31
0
  0
LINE
  8
0
 62
7
 10
6.410395639158581
 20
4.18232276159655
 30
0
 11
6.407695639158582
 21
4.17332276159655
 31
0
  0
LINE
  8
0
 62
7
 10
6.407695639158582
 20
4.17332276159655
 30
0
 11
6.404995639158582
 21
4.167322761596551
 31
0
  0
LINE
  8
0
 62
7
 10
6.404995639158582
 20
4.167322761596551
 30
0
 11
6.396895639158583
 21
4.16132276159655
 31
0
  0
LINE
  8
0
 62
7
 10
6.396895639158583
 20
4.16132276159655
 30
0
 11
6.386095639158581
 21
4.15832276159655
 31
0
  0
LINE
  8
0
 62
7
 10
6.386095639158581
 20
4.15832276159655
 30
0
 11
6.377995639158581
 21
4.15832276159655
 31
0
  0
LINE
  8
0
 62
7
 10
6.377995639158581
 20
4.15832276159655
 30
0
 11
6.410395639158581
 21
4.09832276159655
 31
0
  0
LINE
  8
0
 62
7
 10
6.377995639158581
 20
4.15832276159655
 30
0
 11
6.334795639158582
 21
4.15832276159655
 31
0
  0
LINE
  8
0
 62
7
 10
6.507595639158581
 20
4.21832276159655
 30
0
 11
6.431995639158581
 21
4.21832276159655
 31
0
  0
LINE
  8
0
 62
7
 10
6.431995639158581
 20
4.21832276159655
 30
0
 11
6.431995639158581
 21
4.15832276159655
 31
0
  0
LINE
  8
0
 62
7
 10
6.431995639158581
 20
4.09832276159655
 30
0
 11
6.507595639158581
 21
4.09832276159655
 31
0
  0
LINE
  8
0
 62
7
 10
6.496795639158582
 20
4.15832276159655
 30
0
 11
6.431995639158581
 21
4.15832276159655
 31
0
  0
LINE
  8
0
 62
7
 10
6.431995639158581
 20
4.15832276159655
 30
0
 11
6.431995639158581
 21
4.09832276159655
 31
0
  0
LINE
  8
0
 62
7
 10
6.539995639158581
 20
4.09832276159655
 30
0
 11
6.539995639158581
 21
4.15832276159655
 31
0
  0
LINE
  8
0
 62
7
 10
6.539995639158581
 20
4.21832276159655
 30
0
 11
6.591295639158581
 21
4.21832276159655
 31
0
  0
LINE
  8
0
 62
7
 10
6.591295639158581
 20
4.21832276159655
 30
0
 11
6.602095639158581
 21
4.21532276159655
 31
0
  0
LINE
  8
0
 62
7
 10
6.602095639158581
 20
4.21532276159655
 30
0
 11
6.610195639158582
 21
4.20932276159655
 31
0
  0
LINE
  8
0
 62
7
 10
6.610195639158582
 20
4.20932276159655
 30
0
 11
6.61289563915858
 21
4.20332276159655
 31
0
  0
LINE
  8
0
 62
7
 10
6.61289563915858
 20
4.20332276159655
 30
0
 11
6.615595639158582
 21
4.19432276159655
 31
0
  0
LINE
  8
0
 62
7
 10
6.615595639158582
 20
4.19432276159655
 30
0
 11
6.615595639158582
 21
4.18232276159655
 31
0
  0
LINE
  8
0
 62
7
 10
6.615595639158582
 20
4.18232276159655
 30
0
 11
6.61289563915858
 21
4.17332276159655
 31
0
  0
LINE
  8
0
 62
7
 10
6.61289563915858
 20
4.17332276159655
 30
0
 11
6.610195639158582
 21
4.167322761596551
 31
0
  0
LINE
  8
0
 62
7
 10
6.610195639158582
 20
4.167322761596551
 30
0
 11
6.602095639158581
 21
4.16132276159655
 31
0
  0
LINE
  8
0
 62
7
 10
6.602095639158581
 20
4.16132276159655
 30
0
 11
6.591295639158581
 21
4.15832276159655
 31
0
  0
LINE
  8
0
 62
7
 10
6.591295639158581
 20
4.15832276159655
 30
0
 11
6.539995639158581
 21
4.15832276159655
 31
0
  0
LINE
  8
0
 62
7
 10
6.539995639158581
 20
4.15832276159655
 30
0
 11
6.539995639158581
 21
4.21832276159655
 31
0
  0
LINE
  8
0
 62
7
 10
6.637195639158581
 20
4.09832276159655
 30
0
 11
6.637195639158581
 21
4.15832276159655
 31
0
  0
LINE
  8
0
 62
7
 10
6.637195639158581
 20
4.21832276159655
 30
0
 11
6.688495639158582
 21
4.21832276159655
 31
0
  0
LINE
  8
0
 62
7
 10
6.688495639158582
 20
4.21832276159655
 30
0
 11
6.699295639158581
 21
4.21532276159655
 31
0
  0
LINE
  8
0
 62
7
 10
6.699295639158581
 20
4.21532276159655
 30
0
 11
6.707395639158581
 21
4.20932276159655
 31
0
  0
LINE
  8
0
 62
7
 10
6.707395639158581
 20
4.20932276159655
 30
0
 11
6.710095639158581
 21
4.20332276159655
 31
0
  0
LINE
  8
0
 62
7
 10
6.710095639158581
 20
4.20332276159655
 30
0
 11
6.712795639158582
 21
4.19432276159655
 31
0
  0
LINE
  8
0
 62
7
 10
6.712795639158582
 20
4.19432276159655
 30
0
 11
6.712795639158582
 21
4.18232276159655
 31
0
  0
LINE
  8
0
 62
7
 10
6.712795639158582
 20
4.18232276159655
 30
0
 11
6.710095639158581
 21
4.17332276159655
 31
0
  0
LINE
  8
0
 62
7
 10
6.710095639158581
 20
4.17332276159655
 30
0
 11
6.707395639158581
 21
4.167322761596551
 31
0
  0
LINE
  8
0
 62
7
 10
6.707395639158581
 20
4.167322761596551
 30
0
 11
6.699295639158581
 21
4.16132276159655
 31
0
  0
LINE
  8
0
 62
7
 10
6.699295639158581
 20
4.16132276159655
 30
0
 11
6.688495639158582
 21
4.15832276159655
 31
0
  0
LINE
  8
0
 62
7
 10
6.688495639158582
 20
4.15832276159655
 30
0
 11
6.637195639158581
 21
4.15832276159655
 31
0
  0
LINE
  8
0
 62
7
 10
6.637195639158581
 20
4.15832276159655
 30
0
 11
6.637195639158581
 21
4.21832276159655
 31
0
  0
LINE
  8
0
 62
7
 10
6.809995639158583
 20
4.21832276159655
 30
0
 11
6.734395639158582
 21
4.21832276159655
 31
0
  0
LINE
  8
0
 62
7
 10
6.734395639158582
 20
4.21832276159655
 30
0
 11
6.734395639158582
 21
4.15832276159655
 31
0
  0
LINE
  8
0
 62
7
 10
6.734395639158582
 20
4.09832276159655
 30
0
 11
6.809995639158583
 21
4.09832276159655
 31
0
  0
LINE
  8
0
 62
7
 10
6.799195639158582
 20
4.15832276159655
 30
0
 11
6.734395639158582
 21
4.15832276159655
 31
0
  0
LINE
  8
0
 62
7
 10
6.734395639158582
 20
4.15832276159655
 30
0
 11
6.734395639158582
 21
4.09832276159655
 31
0
  0
LINE
  8
0
 62
7
 10
4.37500000000001
 20
2.890000000000001
 30
0
 11
4.37500000000001
 21
3.01
 31
0
  0
LINE
  8
0
 62
7
 10
4.450600000000009
 20
3.01
 30
0
 11
4.396600000000009
 21
2.95
 31
0
  0
LINE
  8
0
 62
7
 10
4.396600000000009
 20
2.95
 30
0
 11
4.450600000000009
 21
2.890000000000001
 31
0
  0
LINE
  8
0
 62
7
 10
4.396600000000009
 20
2.95
 30
0
 11
4.37500000000001
 21
2.926
 31
0
  0
LINE
  8
0
 62
7
 10
4.55860000000001
 20
3.01
 30
0
 11
4.55860000000001
 21
2.926
 31
0
  0
LINE
  8
0
 62
7
 10
4.55860000000001
 20
2.926
 30
0
 11
4.555900000000009
 21
2.914
 31
0
  0
LINE
  8
0
 62
7
 10
4.555900000000009
 20
2.914
 30
0
 11
4.550500000000009
 21
2.905
 31
0
  0
LINE
  8
0
 62
7
 10
4.550500000000009
 20
2.905
 30
0
 11
4.545100000000009
 21
2.899
 31
0
  0
LINE
  8
0
 62
7
 10
4.545100000000009
 20
2.899
 30
0
 11
4.537000000000009
 21
2.893
 31
0
  0
LINE
  8
0
 62
7
 10
4.537000000000009
 20
2.893
 30
0
 11
4.528900000000008
 21
2.890000000000001
 31
0
  0
LINE
  8
0
 62
7
 10
4.528900000000008
 20
2.890000000000001
 30
0
 11
4.512700000000009
 21
2.890000000000001
 31
0
  0
LINE
  8
0
 62
7
 10
4.512700000000009
 20
2.890000000000001
 30
0
 11
4.504600000000009
 21
2.893
 31
0
  0
LINE
  8
0
 62
7
 10
4.504600000000009
 20
2.893
 30
0
 11
4.496500000000007
 21
2.899
 31
0
  0
LINE
  8
0
 62
7
 10
4.496500000000007
 20
2.899
 30
0
 11
4.491100000000009
 21
2.905
 31
0
  0
LINE
  8
0
 62
7
 10
4.491100000000009
 20
2.905
 30
0
 11
4.485700000000008
 21
2.914
 31
0
  0
LINE
  8
0
 62
7
 10
4.485700000000008
 20
2.914
 30
0
 11
4.483000000000009
 21
2.926
 31
0
  0
LINE
  8
0
 62
7
 10
4.483000000000009
 20
2.926
 30
0
 11
4.483000000000009
 21
3.01
 31
0
  0
LINE
  8
0
 62
7
 10
4.591000000000008
 20
3.01
 30
0
 11
4.628800000000008
 21
2.890000000000001
 31
0
  0
LINE
  8
0
 62
7
 10
4.628800000000008
 20
2.890000000000001
 30
0
 11
4.666600000000009
 21
3.01
 31
0
  0
LINE
  8
0
 62
7
 10
4.699000000000008
 20
2.992
 30
0
 11
4.704400000000009
 21
3.001
 31
0
  0
LINE
  8
0
 62
7
 10
4.704400000000009
 20
3.001
 30
0
 11
4.712500000000009
 21
3.007
 31
0
  0
LINE
  8
0
 62
7
 10
4.712500000000009
 20
3.007
 30
0
 11
4.723300000000008
 21
3.01
 31
0
  0
LINE
  8
0
 62
7
 10
4.723300000000008
 20
3.01
 30
0
 11
4.739500000000008
 21
3.01
 31
0
  0
LINE
  8
0
 62
7
 10
4.739500000000008
 20
3.01
 30
0
 11
4.74760000000001
 21
3.007
 31
0
  0
LINE
  8
0
 62
7
 10
4.74760000000001
 20
3.007
 30
0
 11
4.755700000000008
 21
3.001
 31
0
  0
LINE
  8
0
 62
7
 10
4.755700000000008
 20
3.001
 30
0
 11
4.76110000000001
 21
2.992
 31
0
  0
LINE
  8
0
 62
7
 10
4.76110000000001
 20
2.992
 30
0
 11
4.763800000000009
 21
2.98
 31
0
  0
LINE
  8
0
 62
7
 10
4.763800000000009
 20
2.98
 30
0
 11
4.763800000000009
 21
2.971
 31
0
  0
LINE
  8
0
 62
7
 10
4.763800000000009
 20
2.971
 30
0
 11
4.76110000000001
 21
2.962
 31
0
  0
LINE
  8
0
 62
7
 10
4.76110000000001
 20
2.962
 30
0
 11
4.755700000000008
 21
2.956
 31
0
  0
LINE
  8
0
 62
7
 10
4.755700000000008
 20
2.956
 30
0
 11
4.742200000000008
 21
2.95
 31
0
  0
LINE
  8
0
 62
7
 10
4.723300000000008
 20
2.95
 30
0
 11
4.742200000000008
 21
2.95
 31
0
  0
LINE
  8
0
 62
7
 10
4.742200000000008
 20
2.95
 30
0
 11
4.755700000000008
 21
2.944
 31
0
  0
LINE
  8
0
 62
7
 10
4.755700000000008
 20
2.944
 30
0
 11
4.76110000000001
 21
2.938
 31
0
  0
LINE
  8
0
 62
7
 10
4.76110000000001
 20
2.938
 30
0
 11
4.763800000000009
 21
2.929
 31
0
  0
LINE
  8
0
 62
7
 10
4.763800000000009
 20
2.929
 30
0
 11
4.763800000000009
 21
2.92
 31
0
  0
LINE
  8
0
 62
7
 10
4.763800000000009
 20
2.92
 30
0
 11
4.76110000000001
 21
2.908
 31
0
  0
LINE
  8
0
 62
7
 10
4.76110000000001
 20
2.908
 30
0
 11
4.755700000000008
 21
2.899
 31
0
  0
LINE
  8
0
 62
7
 10
4.755700000000008
 20
2.899
 30
0
 11
4.74760000000001
 21
2.893
 31
0
  0
LINE
  8
0
 62
7
 10
4.74760000000001
 20
2.893
 30
0
 11
4.739500000000008
 21
2.890000000000001
 31
0
  0
LINE
  8
0
 62
7
 10
4.739500000000008
 20
2.890000000000001
 30
0
 11
4.723300000000008
 21
2.890000000000001
 31
0
  0
LINE
  8
0
 62
7
 10
4.723300000000008
 20
2.890000000000001
 30
0
 11
4.712500000000009
 21
2.893
 31
0
  0
LINE
  8
0
 62
7
 10
4.712500000000009
 20
2.893
 30
0
 11
4.704400000000009
 21
2.899
 31
0
  0
LINE
  8
0
 62
7
 10
4.704400000000009
 20
2.899
 30
0
 11
4.699000000000008
 21
2.908
 31
0
  0
LINE
  8
0
 62
7
 10
4.796200000000009
 20
2.98
 30
0
 11
4.798900000000009
 21
2.992
 31
0
  0
LINE
  8
0
 62
7
 10
4.798900000000009
 20
2.992
 30
0
 11
4.804300000000009
 21
3.001
 31
0
  0
LINE
  8
0
 62
7
 10
4.804300000000009
 20
3.001
 30
0
 11
4.812400000000008
 21
3.007
 31
0
  0
LINE
  8
0
 62
7
 10
4.812400000000008
 20
3.007
 30
0
 11
4.82050000000001
 21
3.01
 31
0
  0
LINE
  8
0
 62
7
 10
4.82050000000001
 20
3.01
 30
0
 11
4.836700000000008
 21
3.01
 31
0
  0
LINE
  8
0
 62
7
 10
4.836700000000008
 20
3.01
 30
0
 11
4.84480000000001
 21
3.007
 31
0
  0
LINE
  8
0
 62
7
 10
4.84480000000001
 20
3.007
 30
0
 11
4.852900000000009
 21
3.001
 31
0
  0
LINE
  8
0
 62
7
 10
4.852900000000009
 20
3.001
 30
0
 11
4.858300000000008
 21
2.992
 31
0
  0
LINE
  8
0
 62
7
 10
4.858300000000008
 20
2.992
 30
0
 11
4.861000000000009
 21
2.98
 31
0
  0
LINE
  8
0
 62
7
 10
4.861000000000009
 20
2.98
 30
0
 11
4.861000000000009
 21
2.92
 31
0
  0
LINE
  8
0
 62
7
 10
4.861000000000009
 20
2.92
 30
0
 11
4.858300000000008
 21
2.908
 31
0
  0
LINE
  8
0
 62
7
 10
4.858300000000008
 20
2.908
 30
0
 11
4.852900000000009
 21
2.899
 31
0
  0
LINE
  8
0
 62
7
 10
4.852900000000009
 20
2.899
 30
0
 11
4.84480000000001
 21
2.893
 31
0
  0
LINE
  8
0
 62
7
 10
4.84480000000001
 20
2.893
 30
0
 11
4.836700000000008
 21
2.890000000000001
 31
0
  0
LINE
  8
0
 62
7
 10
4.836700000000008
 20
2.890000000000001
 30
0
 11
4.82050000000001
 21
2.890000000000001
 31
0
  0
LINE
  8
0
 62
7
 10
4.82050000000001
 20
2.890000000000001
 30
0
 11
4.812400000000008
 21
2.893
 31
0
  0
LINE
  8
0
 62
7
 10
4.812400000000008
 20
2.893
 30
0
 11
4.804300000000009
 21
2.899
 31
0
  0
LINE
  8
0
 62
7
 10
4.804300000000009
 20
2.899
 30
0
 11
4.798900000000009
 21
2.908
 31
0
  0
LINE
  8
0
 62
7
 10
4.798900000000009
 20
2.908
 30
0
 11
4.796200000000009
 21
2.92
 31
0
  0
LINE
  8
0
 62
7
 10
4.796200000000009
 20
2.92
 30
0
 11
4.796200000000009
 21
2.98
 31
0
  0
LINE
  8
0
 62
7
 10
4.89340000000001
 20
2.974
 30
0
 11
4.925800000000008
 21
3.01
 31
0
  0
LINE
  8
0
 62
7
 10
4.925800000000008
 20
3.01
 30
0
 11
4.925800000000008
 21
2.890000000000001
 31
0
  0
LINE
  8
0
 62
7
 10
4.958200000000009
 20
2.890000000000001
 30
0
 11
4.958200000000009
 21
3.01
 31
0
  0
LINE
  8
0
 62
7
 10
4.958200000000009
 20
3.01
 30
0
 11
5.009500000000009
 21
3.01
 31
0
  0
LINE
  8
0
 62
7
 10
5.009500000000009
 20
3.01
 30
0
 11
5.02030000000001
 21
3.007
 31
0
  0
LINE
  8
0
 62
7
 10
5.02030000000001
 20
3.007
 30
0
 11
5.028400000000009
 21
3.001
 31
0
  0
LINE
  8
0
 62
7
 10
5.028400000000009
 20
3.001
 30
0
 11
5.031100000000008
 21
2.995
 31
0
  0
LINE
  8
0
 62
7
 10
5.031100000000008
 20
2.995
 30
0
 11
5.033800000000009
 21
2.986
 31
0
  0
LINE
  8
0
 62
7
 10
5.033800000000009
 20
2.986
 30
0
 11
5.033800000000009
 21
2.974
 31
0
  0
LINE
  8
0
 62
7
 10
5.033800000000009
 20
2.974
 30
0
 11
5.031100000000008
 21
2.965
 31
0
  0
LINE
  8
0
 62
7
 10
5.031100000000008
 20
2.965
 30
0
 11
5.028400000000009
 21
2.959
 31
0
  0
LINE
  8
0
 62
7
 10
5.028400000000009
 20
2.959
 30
0
 11
5.02030000000001
 21
2.953
 31
0
  0
LINE
  8
0
 62
7
 10
5.02030000000001
 20
2.953
 30
0
 11
5.009500000000009
 21
2.95
 31
0
  0
LINE
  8
0
 62
7
 10
5.009500000000009
 20
2.95
 30
0
 11
5.001400000000008
 21
2.95
 31
0
  0
LINE
  8
0
 62
7
 10
5.001400000000008
 20
2.95
 30
0
 11
5.033800000000009
 21
2.890000000000001
 31
0
  0
LINE
  8
0
 62
7
 10
5.001400000000008
 20
2.95
 30
0
 11
4.958200000000009
 21
2.95
 31
0
  0
LINE
  8
0
 62
7
 10
5.055400000000009
 20
2.992
 30
0
 11
5.060800000000008
 21
3.001
 31
0
  0
LINE
  8
0
 62
7
 10
5.060800000000008
 20
3.001
 30
0
 11
5.068900000000008
 21
3.007
 31
0
  0
LINE
  8
0
 62
7
 10
5.068900000000008
 20
3.007
 30
0
 11
5.079700000000009
 21
3.01
 31
0
  0
LINE
  8
0
 62
7
 10
5.079700000000009
 20
3.01
 30
0
 11
5.095900000000009
 21
3.01
 31
0
  0
LINE
  8
0
 62
7
 10
5.095900000000009
 20
3.01
 30
0
 11
5.104000000000008
 21
3.007
 31
0
  0
LINE
  8
0
 62
7
 10
5.104000000000008
 20
3.007
 30
0
 11
5.112100000000009
 21
3.001
 31
0
  0
LINE
  8
0
 62
7
 10
5.112100000000009
 20
3.001
 30
0
 11
5.117500000000009
 21
2.992
 31
0
  0
LINE
  8
0
 62
7
 10
5.117500000000009
 20
2.992
 30
0
 11
5.120200000000009
 21
2.98
 31
0
  0
LINE
  8
0
 62
7
 10
5.120200000000009
 20
2.98
 30
0
 11
5.120200000000009
 21
2.971
 31
0
  0
LINE
  8
0
 62
7
 10
5.120200000000009
 20
2.971
 30
0
 11
5.117500000000009
 21
2.962
 31
0
  0
LINE
  8
0
 62
7
 10
5.117500000000009
 20
2.962
 30
0
 11
5.112100000000009
 21
2.956
 31
0
  0
LINE
  8
0
 62
7
 10
5.112100000000009
 20
2.956
 30
0
 11
5.098600000000008
 21
2.95
 31
0
  0
LINE
  8
0
 62
7
 10
5.079700000000009
 20
2.95
 30
0
 11
5.098600000000008
 21
2.95
 31
0
  0
LINE
  8
0
 62
7
 10
5.098600000000008
 20
2.95
 30
0
 11
5.112100000000009
 21
2.944
 31
0
  0
LINE
  8
0
 62
7
 10
5.112100000000009
 20
2.944
 30
0
 11
5.117500000000009
 21
2.938
 31
0
  0
LINE
  8
0
 62
7
 10
5.117500000000009
 20
2.938
 30
0
 11
5.120200000000009
 21
2.929
 31
0
  0
LINE
  8
0
 62
7
 10
5.120200000000009
 20
2.929
 30
0
 11
5.120200000000009
 21
2.92
 31
0
  0
LINE
  8
0
 62
7
 10
5.120200000000009
 20
2.92
 30
0
 11
5.117500000000009
 21
2.908
 31
0
  0
LINE
  8
0
 62
7
 10
5.117500000000009
 20
2.908
 30
0
 11
5.112100000000009
 21
2.899
 31
0
  0
LINE
  8
0
 62
7
 10
5.112100000000009
 20
2.899
 30
0
 11
5.104000000000008
 21
2.893
 31
0
  0
LINE
  8
0
 62
7
 10
5.104000000000008
 20
2.893
 30
0
 11
5.095900000000009
 21
2.890000000000001
 31
0
  0
LINE
  8
0
 62
7
 10
5.095900000000009
 20
2.890000000000001
 30
0
 11
5.079700000000009
 21
2.890000000000001
 31
0
  0
LINE
  8
0
 62
7
 10
5.079700000000009
 20
2.890000000000001
 30
0
 11
5.068900000000008
 21
2.893
 31
0
  0
LINE
  8
0
 62
7
 10
5.068900000000008
 20
2.893
 30
0
 11
5.060800000000008
 21
2.899
 31
0
  0
LINE
  8
0
 62
7
 10
5.060800000000008
 20
2.899
 30
0
 11
5.055400000000009
 21
2.908
 31
0
  0
LINE
  8
0
 62
7
 10
6.875000000000011
 20
2.890000000000001
 30
0
 11
6.875000000000011
 21
2.99
 31
0
  0
LINE
  8
0
 62
7
 10
6.875000000000011
 20
2.99
 30
0
 11
6.938000000000009
 21
2.890000000000001
 31
0
  0
LINE
  8
0
 62
7
 10
6.938000000000009
 20
2.890000000000001
 30
0
 11
6.938000000000009
 21
2.99
 31
0
  0
LINE
  8
0
 62
7
 10
7.01900000000001
 20
2.890000000000001
 30
0
 11
6.96500000000001
 21
2.890000000000001
 31
0
  0
LINE
  8
0
 62
7
 10
6.96500000000001
 20
2.890000000000001
 30
0
 11
6.96500000000001
 21
2.99
 31
0
  0
LINE
  8
0
 62
7
 10
7.046000000000008
 20
2.94
 30
0
 11
7.082000000000008
 21
2.94
 31
0
  0
LINE
  8
0
 62
7
 10
7.082000000000008
 20
2.94
 30
0
 11
7.08650000000001
 21
2.94
 31
0
  0
LINE
  8
0
 62
7
 10
7.08650000000001
 20
2.94
 30
0
 11
7.09550000000001
 21
2.935
 31
0
  0
LINE
  8
0
 62
7
 10
7.09550000000001
 20
2.935
 30
0
 11
7.10000000000001
 21
2.93
 31
0
  0
LINE
  8
0
 62
7
 10
7.10000000000001
 20
2.93
 30
0
 11
7.104500000000009
 21
2.92
 31
0
  0
LINE
  8
0
 62
7
 10
7.104500000000009
 20
2.92
 30
0
 11
7.104500000000009
 21
2.91
 31
0
  0
LINE
  8
0
 62
7
 10
7.104500000000009
 20
2.91
 30
0
 11
7.10000000000001
 21
2.9
 31
0
  0
LINE
  8
0
 62
7
 10
7.10000000000001
 20
2.9
 30
0
 11
7.09550000000001
 21
2.895
 31
0
  0
LINE
  8
0
 62
7
 10
7.09550000000001
 20
2.895
 30
0
 11
7.08650000000001
 21
2.890000000000001
 31
0
  0
LINE
  8
0
 62
7
 10
7.08650000000001
 20
2.890000000000001
 30
0
 11
7.046000000000008
 21
2.890000000000001
 31
0
  0
LINE
  8
0
 62
7
 10
7.046000000000008
 20
2.890000000000001
 30
0
 11
7.046000000000008
 21
2.94
 31
0
  0
LINE
  8
0
 62
7
 10
7.046000000000008
 20
2.99
 30
0
 11
7.079750000000009
 21
2.99
 31
0
  0
LINE
  8
0
 62
7
 10
7.079750000000009
 20
2.99
 30
0
 11
7.091000000000008
 21
2.9875
 31
0
  0
LINE
  8
0
 62
7
 10
7.091000000000008
 20
2.9875
 30
0
 11
7.097750000000009
 21
2.98
 31
0
  0
LINE
  8
0
 62
7
 10
7.097750000000009
 20
2.98
 30
0
 11
7.10000000000001
 21
2.97
 31
0
  0
LINE
  8
0
 62
7
 10
7.10000000000001
 20
2.97
 30
0
 11
7.10000000000001
 21
2.96
 31
0
  0
LINE
  8
0
 62
7
 10
7.10000000000001
 20
2.96
 30
0
 11
7.09550000000001
 21
2.95
 31
0
  0
LINE
  8
0
 62
7
 10
7.09550000000001
 20
2.95
 30
0
 11
7.088750000000009
 21
2.9425
 31
0
  0
LINE
  8
0
 62
7
 10
7.088750000000009
 20
2.9425
 30
0
 11
7.082000000000008
 21
2.94
 31
0
  0
LINE
  8
0
 62
7
 10
7.046000000000008
 20
2.94
 30
0
 11
7.046000000000008
 21
2.99
 31
0
  0
LINE
  8
0
 62
7
 10
7.24625000000001
 20
2.9425
 30
0
 11
7.239500000000008
 21
2.952500000000001
 31
0
  0
LINE
  8
0
 62
7
 10
7.239500000000008
 20
2.952500000000001
 30
0
 11
7.232750000000009
 21
2.9575
 31
0
  0
LINE
  8
0
 62
7
 10
7.232750000000009
 20
2.9575
 30
0
 11
7.22600000000001
 21
2.96
 31
0
  0
LINE
  8
0
 62
7
 10
7.22600000000001
 20
2.96
 30
0
 11
7.217000000000009
 21
2.96
 31
0
  0
LINE
  8
0
 62
7
 10
7.217000000000009
 20
2.96
 30
0
 11
7.210250000000009
 21
2.9575
 31
0
  0
LINE
  8
0
 62
7
 10
7.210250000000009
 20
2.9575
 30
0
 11
7.203500000000009
 21
2.952500000000001
 31
0
  0
LINE
  8
0
 62
7
 10
7.203500000000009
 20
2.952500000000001
 30
0
 11
7.196750000000009
 21
2.9425
 31
0
  0
LINE
  8
0
 62
7
 10
7.196750000000009
 20
2.9425
 30
0
 11
7.194500000000009
 21
2.935
 31
0
  0
LINE
  8
0
 62
7
 10
7.194500000000009
 20
2.935
 30
0
 11
7.194500000000009
 21
2.915
 31
0
  0
LINE
  8
0
 62
7
 10
7.194500000000009
 20
2.915
 30
0
 11
7.196750000000009
 21
2.9075
 31
0
  0
LINE
  8
0
 62
7
 10
7.196750000000009
 20
2.9075
 30
0
 11
7.203500000000009
 21
2.8975
 31
0
  0
LINE
  8
0
 62
7
 10
7.203500000000009
 20
2.8975
 30
0
 11
7.210250000000009
 21
2.8925
 31
0
  0
LINE
  8
0
 62
7
 10
7.210250000000009
 20
2.8925
 30
0
 11
7.217000000000009
 21
2.890000000000001
 31
0
  0
LINE
  8
0
 62
7
 10
7.217000000000009
 20
2.890000000000001
 30
0
 11
7.22600000000001
 21
2.890000000000001
 31
0
  0
LINE
  8
0
 62
7
 10
7.22600000000001
 20
2.890000000000001
 30
0
 11
7.232750000000009
 21
2.8925
 31
0
  0
LINE
  8
0
 62
7
 10
7.232750000000009
 20
2.8925
 30
0
 11
7.239500000000008
 21
2.8975
 31
0
  0
LINE
  8
0
 62
7
 10
7.239500000000008
 20
2.8975
 30
0
 11
7.24625000000001
 21
2.9075
 31
0
  0
LINE
  8
0
 62
7
 10
7.31825000000001
 20
2.935
 30
0
 11
7.316000000000009
 21
2.9425
 31
0
  0
LINE
  8
0
 62
7
 10
7.316000000000009
 20
2.9425
 30
0
 11
7.309250000000009
 21
2.952500000000001
 31
0
  0
LINE
  8
0
 62
7
 10
7.309250000000009
 20
2.952500000000001
 30
0
 11
7.302500000000009
 21
2.9575
 31
0
  0
LINE
  8
0
 62
7
 10
7.302500000000009
 20
2.9575
 30
0
 11
7.295750000000009
 21
2.96
 31
0
  0
LINE
  8
0
 62
7
 10
7.295750000000009
 20
2.96
 30
0
 11
7.286750000000009
 21
2.96
 31
0
  0
LINE
  8
0
 62
7
 10
7.286750000000009
 20
2.96
 30
0
 11
7.28000000000001
 21
2.9575
 31
0
  0
LINE
  8
0
 62
7
 10
7.28000000000001
 20
2.9575
 30
0
 11
7.273250000000009
 21
2.952500000000001
 31
0
  0
LINE
  8
0
 62
7
 10
7.273250000000009
 20
2.952500000000001
 30
0
 11
7.26650000000001
 21
2.9425
 31
0
  0
LINE
  8
0
 62
7
 10
7.26650000000001
 20
2.9425
 30
0
 11
7.26425000000001
 21
2.935
 31
0
  0
LINE
  8
0
 62
7
 10
7.26425000000001
 20
2.935
 30
0
 11
7.26425000000001
 21
2.915
 31
0
  0
LINE
  8
0
 62
7
 10
7.26425000000001
 20
2.915
 30
0
 11
7.26650000000001
 21
2.9075
 31
0
  0
LINE
  8
0
 62
7
 10
7.26650000000001
 20
2.9075
 30
0
 11
7.273250000000009
 21
2.8975
 31
0
  0
LINE
  8
0
 62
7
 10
7.273250000000009
 20
2.8975
 30
0
 11
7.28000000000001
 21
2.8925
 31
0
  0
LINE
  8
0
 62
7
 10
7.28000000000001
 20
2.8925
 30
0
 11
7.286750000000009
 21
2.890000000000001
 31
0
  0
LINE
  8
0
 62
7
 10
7.286750000000009
 20
2.890000000000001
 30
0
 11
7.295750000000009
 21
2.890000000000001
 31
0
  0
LINE
  8
0
 62
7
 10
7.295750000000009
 20
2.890000000000001
 30
0
 11
7.302500000000009
 21
2.8925
 31
0
  0
LINE
  8
0
 62
7
 10
7.302500000000009
 20
2.8925
 30
0
 11
7.309250000000009
 21
2.8975
 31
0
  0
LINE
  8
0
 62
7
 10
7.309250000000009
 20
2.8975
 30
0
 11
7.316000000000009
 21
2.9075
 31
0
  0
LINE
  8
0
 62
7
 10
7.316000000000009
 20
2.9075
 30
0
 11
7.31825000000001
 21
2.915
 31
0
  0
LINE
  8
0
 62
7
 10
7.31825000000001
 20
2.96
 30
0
 11
7.31825000000001
 21
2.935
 31
0
  0
LINE
  8
0
 62
7
 10
7.31825000000001
 20
2.8925
 30
0
 11
7.32050000000001
 21
2.890000000000001
 31
0
  0
LINE
  8
0
 62
7
 10
7.32050000000001
 20
2.890000000000001
 30
0
 11
7.32275000000001
 21
2.890000000000001
 31
0
  0
LINE
  8
0
 62
7
 10
7.31825000000001
 20
2.915
 30
0
 11
7.31825000000001
 21
2.8925
 31
0
  0
LINE
  8
0
 62
7
 10
7.31825000000001
 20
2.935
 30
0
 11
7.31825000000001
 21
2.915
 31
0
  0
LINE
  8
0
 62
7
 10
7.340750000000009
 20
2.890000000000001
 30
0
 11
7.340750000000009
 21
2.8925
 31
0
  0
LINE
  8
0
 62
7
 10
7.340750000000009
 20
2.8925
 30
0
 11
7.34300000000001
 21
2.8925
 31
0
  0
LINE
  8
0
 62
7
 10
7.34300000000001
 20
2.8925
 30
0
 11
7.34300000000001
 21
2.890000000000001
 31
0
  0
LINE
  8
0
 62
7
 10
7.34300000000001
 20
2.890000000000001
 30
0
 11
7.340750000000009
 21
2.890000000000001
 31
0
  0
LINE
  8
0
 62
7
 10
7.466750000000009
 20
2.99
 30
0
 11
7.475750000000009
 21
2.99
 31
0
  0
LINE
  8
0
 62
7
 10
7.475750000000009
 20
2.99
 30
0
 11
7.482500000000009
 21
2.9875
 31
0
  0
LINE
  8
0
 62
7
 10
7.482500000000009
 20
2.9875
 30
0
 11
7.487000000000009
 21
2.9825
 31
0
  0
LINE
  8
0
 62
7
 10
7.487000000000009
 20
2.9825
 30
0
 11
7.491500000000009
 21
2.975
 31
0
  0
LINE
  8
0
 62
7
 10
7.491500000000009
 20
2.975
 30
0
 11
7.491500000000009
 21
2.965
 31
0
  0
LINE
  8
0
 62
7
 10
7.491500000000009
 20
2.965
 30
0
 11
7.48925000000001
 21
2.96
 31
0
  0
LINE
  8
0
 62
7
 10
7.48925000000001
 20
2.96
 30
0
 11
7.482500000000009
 21
2.952500000000001
 31
0
  0
LINE
  8
0
 62
7
 10
7.482500000000009
 20
2.952500000000001
 30
0
 11
7.475750000000009
 21
2.95
 31
0
  0
LINE
  8
0
 62
7
 10
7.475750000000009
 20
2.95
 30
0
 11
7.466750000000009
 21
2.95
 31
0
  0
LINE
  8
0
 62
7
 10
7.466750000000009
 20
2.95
 30
0
 11
7.46000000000001
 21
2.952500000000001
 31
0
  0
LINE
  8
0
 62
7
 10
7.46000000000001
 20
2.952500000000001
 30
0
 11
7.453250000000009
 21
2.96
 31
0
  0
LINE
  8
0
 62
7
 10
7.453250000000009
 20
2.96
 30
0
 11
7.451000000000009
 21
2.965
 31
0
  0
LINE
  8
0
 62
7
 10
7.451000000000009
 20
2.965
 30
0
 11
7.451000000000009
 21
2.975
 31
0
  0
LINE
  8
0
 62
7
 10
7.451000000000009
 20
2.975
 30
0
 11
7.45550000000001
 21
2.9825
 31
0
  0
LINE
  8
0
 62
7
 10
7.45550000000001
 20
2.9825
 30
0
 11
7.46000000000001
 21
2.9875
 31
0
  0
LINE
  8
0
 62
7
 10
7.46000000000001
 20
2.9875
 30
0
 11
7.466750000000009
 21
2.99
 31
0
  0
LINE
  8
0
 62
7
 10
7.466750000000009
 20
2.95
 30
0
 11
7.45550000000001
 21
2.945
 31
0
  0
LINE
  8
0
 62
7
 10
7.45550000000001
 20
2.945
 30
0
 11
7.44875000000001
 21
2.9375
 31
0
  0
LINE
  8
0
 62
7
 10
7.44875000000001
 20
2.9375
 30
0
 11
7.44425000000001
 21
2.9275
 31
0
  0
LINE
  8
0
 62
7
 10
7.44425000000001
 20
2.9275
 30
0
 11
7.44425000000001
 21
2.9125
 31
0
  0
LINE
  8
0
 62
7
 10
7.44425000000001
 20
2.9125
 30
0
 11
7.44875000000001
 21
2.9025
 31
0
  0
LINE
  8
0
 62
7
 10
7.44875000000001
 20
2.9025
 30
0
 11
7.45550000000001
 21
2.895
 31
0
  0
LINE
  8
0
 62
7
 10
7.45550000000001
 20
2.895
 30
0
 11
7.464500000000008
 21
2.890000000000001
 31
0
  0
LINE
  8
0
 62
7
 10
7.464500000000008
 20
2.890000000000001
 30
0
 11
7.478000000000009
 21
2.890000000000001
 31
0
  0
LINE
  8
0
 62
7
 10
7.478000000000009
 20
2.890000000000001
 30
0
 11
7.487000000000009
 21
2.895
 31
0
  0
LINE
  8
0
 62
7
 10
7.487000000000009
 20
2.895
 30
0
 11
7.49375000000001
 21
2.9025
 31
0
  0
LINE
  8
0
 62
7
 10
7.49375000000001
 20
2.9025
 30
0
 11
7.498250000000009
 21
2.9125
 31
0
  0
LINE
  8
0
 62
7
 10
7.498250000000009
 20
2.9125
 30
0
 11
7.498250000000009
 21
2.9275
 31
0
  0
LINE
  8
0
 62
7
 10
7.498250000000009
 20
2.9275
 30
0
 11
7.49375000000001
 21
2.9375
 31
0
  0
LINE
  8
0
 62
7
 10
7.49375000000001
 20
2.9375
 30
0
 11
7.487000000000009
 21
2.945
 31
0
  0
LINE
  8
0
 62
7
 10
7.487000000000009
 20
2.945
 30
0
 11
7.475750000000009
 21
2.95
 31
0
  0
LINE
  8
0
 62
7
 10
7.583750000000009
 20
2.99
 30
0
 11
7.534250000000009
 21
2.99
 31
0
  0
LINE
  8
0
 62
7
 10
7.534250000000009
 20
2.99
 30
0
 11
7.534250000000009
 21
2.94
 31
0
  0
LINE
  8
0
 62
7
 10
7.534250000000009
 20
2.94
 30
0
 11
7.538750000000009
 21
2.9475
 31
0
  0
LINE
  8
0
 62
7
 10
7.538750000000009
 20
2.9475
 30
0
 11
7.54550000000001
 21
2.952500000000001
 31
0
  0
LINE
  8
0
 62
7
 10
7.54550000000001
 20
2.952500000000001
 30
0
 11
7.554500000000009
 21
2.955
 31
0
  0
LINE
  8
0
 62
7
 10
7.554500000000009
 20
2.955
 30
0
 11
7.568000000000009
 21
2.955
 31
0
  0
LINE
  8
0
 62
7
 10
7.568000000000009
 20
2.955
 30
0
 11
7.574750000000009
 21
2.952500000000001
 31
0
  0
LINE
  8
0
 62
7
 10
7.574750000000009
 20
2.952500000000001
 30
0
 11
7.58150000000001
 21
2.9475
 31
0
  0
LINE
  8
0
 62
7
 10
7.58150000000001
 20
2.9475
 30
0
 11
7.586000000000009
 21
2.94
 31
0
  0
LINE
  8
0
 62
7
 10
7.586000000000009
 20
2.94
 30
0
 11
7.588250000000008
 21
2.93
 31
0
  0
LINE
  8
0
 62
7
 10
7.588250000000008
 20
2.93
 30
0
 11
7.588250000000008
 21
2.915
 31
0
  0
LINE
  8
0
 62
7
 10
7.588250000000008
 20
2.915
 30
0
 11
7.586000000000009
 21
2.905
 31
0
  0
LINE
  8
0
 62
7
 10
7.586000000000009
 20
2.905
 30
0
 11
7.58150000000001
 21
2.8975
 31
0
  0
LINE
  8
0
 62
7
 10
7.58150000000001
 20
2.8975
 30
0
 11
7.574750000000009
 21
2.8925
 31
0
  0
LINE
  8
0
 62
7
 10
7.574750000000009
 20
2.8925
 30
0
 11
7.568000000000009
 21
2.890000000000001
 31
0
  0
LINE
  8
0
 62
7
 10
7.568000000000009
 20
2.890000000000001
 30
0
 11
7.554500000000009
 21
2.890000000000001
 31
0
  0
LINE
  8
0
 62
7
 10
7.554500000000009
 20
2.890000000000001
 30
0
 11
7.54550000000001
 21
2.8925
 31
0
  0
LINE
  8
0
 62
7
 10
7.54550000000001
 20
2.8925
 30
0
 11
7.538750000000009
 21
2.8975
 31
0
  0
LINE
  8
0
 62
7
 10
7.538750000000009
 20
2.8975
 30
0
 11
7.534250000000009
 21
2.905
 31
0
  0
LINE
  8
0
 62
7
 10
7.739000000000009
 20
2.9425
 30
0
 11
7.732250000000009
 21
2.952500000000001
 31
0
  0
LINE
  8
0
 62
7
 10
7.732250000000009
 20
2.952500000000001
 30
0
 11
7.72550000000001
 21
2.9575
 31
0
  0
LINE
  8
0
 62
7
 10
7.72550000000001
 20
2.9575
 30
0
 11
7.718750000000011
 21
2.96
 31
0
  0
LINE
  8
0
 62
7
 10
7.718750000000011
 20
2.96
 30
0
 11
7.709750000000009
 21
2.96
 31
0
  0
LINE
  8
0
 62
7
 10
7.709750000000009
 20
2.96
 30
0
 11
7.703000000000009
 21
2.9575
 31
0
  0
LINE
  8
0
 62
7
 10
7.703000000000009
 20
2.9575
 30
0
 11
7.69625000000001
 21
2.952500000000001
 31
0
  0
LINE
  8
0
 62
7
 10
7.69625000000001
 20
2.952500000000001
 30
0
 11
7.689500000000009
 21
2.9425
 31
0
  0
LINE
  8
0
 62
7
 10
7.689500000000009
 20
2.9425
 30
0
 11
7.687250000000009
 21
2.935
 31
0
  0
LINE
  8
0
 62
7
 10
7.687250000000009
 20
2.935
 30
0
 11
7.687250000000009
 21
2.915
 31
0
  0
LINE
  8
0
 62
7
 10
7.687250000000009
 20
2.915
 30
0
 11
7.689500000000009
 21
2.9075
 31
0
  0
LINE
  8
0
 62
7
 10
7.689500000000009
 20
2.9075
 30
0
 11
7.69625000000001
 21
2.8975
 31
0
  0
LINE
  8
0
 62
7
 10
7.69625000000001
 20
2.8975
 30
0
 11
7.703000000000009
 21
2.8925
 31
0
  0
LINE
  8
0
 62
7
 10
7.703000000000009
 20
2.8925
 30
0
 11
7.709750000000009
 21
2.890000000000001
 31
0
  0
LINE
  8
0
 62
7
 10
7.709750000000009
 20
2.890000000000001
 30
0
 11
7.718750000000011
 21
2.890000000000001
 31
0
  0
LINE
  8
0
 62
7
 10
7.718750000000011
 20
2.890000000000001
 30
0
 11
7.72550000000001
 21
2.8925
 31
0
  0
LINE
  8
0
 62
7
 10
7.72550000000001
 20
2.8925
 30
0
 11
7.732250000000009
 21
2.8975
 31
0
  0
LINE
  8
0
 62
7
 10
7.732250000000009
 20
2.8975
 30
0
 11
7.739000000000009
 21
2.9075
 31
0
  0
LINE
  8
0
 62
7
 10
7.79750000000001
 20
2.935
 30
0
 11
7.79750000000001
 21
2.890000000000001
 31
0
  0
LINE
  8
0
 62
7
 10
7.757000000000009
 20
2.96
 30
0
 11
7.757000000000009
 21
2.935
 31
0
  0
LINE
  8
0
 62
7
 10
7.757000000000009
 20
2.890000000000001
 30
0
 11
7.757000000000009
 21
2.935
 31
0
  0
LINE
  8
0
 62
7
 10
7.757000000000009
 20
2.935
 30
0
 11
7.759250000000009
 21
2.9475
 31
0
  0
LINE
  8
0
 62
7
 10
7.759250000000009
 20
2.9475
 30
0
 11
7.76150000000001
 21
2.952500000000001
 31
0
  0
LINE
  8
0
 62
7
 10
7.76150000000001
 20
2.952500000000001
 30
0
 11
7.766000000000009
 21
2.9575
 31
0
  0
LINE
  8
0
 62
7
 10
7.766000000000009
 20
2.9575
 30
0
 11
7.772750000000009
 21
2.96
 31
0
  0
LINE
  8
0
 62
7
 10
7.772750000000009
 20
2.96
 30
0
 11
7.781750000000009
 21
2.96
 31
0
  0
LINE
  8
0
 62
7
 10
7.781750000000009
 20
2.96
 30
0
 11
7.78850000000001
 21
2.9575
 31
0
  0
LINE
  8
0
 62
7
 10
7.78850000000001
 20
2.9575
 30
0
 11
7.79300000000001
 21
2.952500000000001
 31
0
  0
LINE
  8
0
 62
7
 10
7.79300000000001
 20
2.952500000000001
 30
0
 11
7.795250000000009
 21
2.9475
 31
0
  0
LINE
  8
0
 62
7
 10
7.795250000000009
 20
2.9475
 30
0
 11
7.79750000000001
 21
2.935
 31
0
  0
LINE
  8
0
 62
7
 10
7.79750000000001
 20
2.935
 30
0
 11
7.799750000000009
 21
2.9475
 31
0
  0
LINE
  8
0
 62
7
 10
7.799750000000009
 20
2.9475
 30
0
 11
7.802000000000008
 21
2.952500000000001
 31
0
  0
LINE
  8
0
 62
7
 10
7.802000000000008
 20
2.952500000000001
 30
0
 11
7.80650000000001
 21
2.9575
 31
0
  0
LINE
  8
0
 62
7
 10
7.80650000000001
 20
2.9575
 30
0
 11
7.813250000000008
 21
2.96
 31
0
  0
LINE
  8
0
 62
7
 10
7.813250000000008
 20
2.96
 30
0
 11
7.822250000000008
 21
2.96
 31
0
  0
LINE
  8
0
 62
7
 10
7.822250000000008
 20
2.96
 30
0
 11
7.82900000000001
 21
2.9575
 31
0
  0
LINE
  8
0
 62
7
 10
7.833500000000008
 20
2.952500000000001
 30
0
 11
7.82900000000001
 21
2.9575
 31
0
  0
LINE
  8
0
 62
7
 10
7.82900000000001
 20
2.9575
 30
0
 11
7.833500000000008
 21
2.952500000000001
 31
0
  0
LINE
  8
0
 62
7
 10
7.833500000000008
 20
2.952500000000001
 30
0
 11
7.835750000000009
 21
2.9475
 31
0
  0
LINE
  8
0
 62
7
 10
7.835750000000009
 20
2.9475
 30
0
 11
7.83800000000001
 21
2.935
 31
0
  0
LINE
  8
0
 62
7
 10
7.83800000000001
 20
2.935
 30
0
 11
7.83800000000001
 21
2.890000000000001
 31
0
  0
ARC
  8
0
 62
7
 10
5.414556488114896
 20
3.43544351188512
 30
0
 40
0.5190000000000017
 50
89.95103783653248
 51
180.0489621622662
  0
CIRCLE
  8
0
 62
7
 10
4.895556677616656
 20
3.25
 30
0
 40
0.05999999999999961
  0
DIMENSION
  8
0
  6
CONTINUOUS
 62
7
  2
*D1
  3
DMST_1
 10
3.93901529047183
 20
4.4
 30
0
 11
3.93901529047183
 21
3.89767337960156
 31
0
 12
0
 22
0
 32
0
 70
0
 13
4.450000000000007
 23
3.250000000000001
 33
0
 14
4.450000000000006
 24
4.4
 34
0
 50
90
 53
0
  0
DIMENSION
  8
0
  6
CONTINUOUS
 62
7
  2
*D3
  3
DMST_1
 10
4.450000000000006
 20
5.36910867115358
 30
0
 11
5.92119671628158
 21
5.36910867115358
 31
0
 12
0
 22
0
 32
0
 70
0
 13
7.460000000000008
 23
4.4
 33
0
 14
4.450000000000006
 24
4.4
 34
0
 53
0
  0
DIMENSION
  8
0
  6
CONTINUOUS
 62
7
  2
*D4
  3
DMST_1
 10
4.450000000000007
 20
11.5223835267348
 30
0
 11
5.92119671628158
 21
11.5223835267348
 31
0
 12
0
 22
0
 32
0
 70
0
 13
7.460000000000008
 23
11.05
 33
0
 14
4.450000000000007
 24
11.05
 34
0
 53
0
  0
INSERT
  8
0
  2
*D0
 10
0
 20
0
 30
0
  0
INSERT
  8
0
  2
*D2
 10
0
 20
0
 30
0
  0
ENDSEC
  0
EOF
