  0
SECTION
  2
HEADER
  9
$ACADVER
  1
AC1009
  9
$INSBASE
 10
0
 20
0
  9
$EXTMIN
 10
0.5760294293987401
 20
2.890000000000003
  9
$EXTMAX
 10
8.25
 20
11.5417439635497
  9
$LIMMIN
 10
0.5760294293987401
 20
2.890000000000003
  9
$LIMMAX
 10
8.25
 20
11.5417439635497
  9
$VIEWCTR
 10
10
 20
10
  9
$VIEWSIZE
 40
10
  9
$SNAPMODE
 70
0
  9
$SNAPUNIT
 10
1
 20
1
  9
$SNAPBASE
 10
0
 20
0
  9
$SNAPANG
 50
0
  9
$SNAPSTYLE
 70
0
  9
$SNAPISOPAIR
 70
0
  9
$GRIDMODE
 70
0
  9
$GRIDUNIT
 10
0
 20
0
  9
$ORTHOMODE
 70
0
  9
$REGENMODE
 70
1
  9
$FILLMODE
 70
1
  9
$QTEXTMODE
 70
0
  9
$DRAGMODE
 70
2
  9
$LTSCALE
 40
1
  9
$OSMODE
 70
0
  9
$ATTMODE
 70
1
  9
$TEXTSIZE
 40
3.5
  9
$TRACEWID
 40
0.5
  9
$TEXTSTYLE
  7
STANDARD
  9
$CLAYER
  8
0
  9
$CELTYPE
  6
BYLAYER
  9
$CECOLOR
 62
256
  9
$DIMSCALE
 40
1
  9
$DIMASZ
 40
0.18
  9
$DIMEXO
 40
0.0625
  9
$DIMDLI
 40
0.38
  9
$DIMRND
 40
0
  9
$DIMDLE
 40
0
  9
$DIMEXE
 40
0.18
  9
$DIMTP
 40
0
  9
$DIMTM
 40
0
  9
$DIMTXT
 40
0.18
  9
$DIMCEN
 40
0.09
  9
$DIMTSZ
 40
0
  9
$DIMTOL
 70
0
  9
$DIMLIM
 70
0
  9
$DIMTIH
 70
1
  9
$DIMTOH
 70
1
  9
$DIMSE1
 70
0
  9
$DIMSE2
 70
0
  9
$DIMTAD
 70
0
  9
$DIMZIN
 70
0
  9
$DIMBLK
  1

  9
$DIMASO
 70
1
  9
$DIMSHO
 70
1
  9
$DIMPOST
  1

  9
$DIMAPOST
  1

  9
$DIMALT
 70
0
  9
$DIMALTD
 70
2
  9
$DIMALTF
 40
25.4
  9
$DIMLFAC
 40
1
  9
$DIMTOFL
 70
0
  9
$DIMTVP
 40
0
  9
$DIMTIX
 70
0
  9
$DIMSOXD
 70
0
  9
$DIMSAH
 70
0
  9
$DIMBLK1
  1

  9
$DIMBLK2
  1

  9
$DIMSTYLE
  2
*UNNAMED
  9
$DIMCLRD
 70
0
  9
$DIMCLRE
 70
0
  9
$DIMCLRT
 70
0
  9
$DIMTFAC
 40
1
  9
$DIMGAP
 40
0.09
  9
$LUNITS
 70
2
  9
$LUPREC
 70
4
  9
$AXISMODE
 70
0
  9
$AXISUNIT
 10
0
 20
0
  9
$SKETCHINC
 40
0.1
  9
$FILLETRAD
 40
2
  9
$AUNITS
 70
0
  9
$AUPREC
 70
0
  9
$MENU
  1
ACAD
  9
$ELEVATION
 40
0
  9
$THICKNESS
 40
0
  9
$VIEWDIR
 10
0
 20
0
 30
1
  9
$LIMCHECK
 70
0
  9
$BLIPMODE
 70
1
  9
$CHAMFERA
 40
0
  9
$CHAMFERB
 40
0
  9
$FASTZOOM
 70
1
  9
$SKPOLY
 70
0
  9
$ANGBASE
 50
0
  9
$ANGDIR
 70
0
  9
$PDMODE
 70
0
  9
$PDSIZE
 40
0
  9
$PLINEWID
 40
0
  9
$COORDS
 70
2
  0
ENDSEC
  0
SECTION
  2
TABLES
  0
TABLE
  2
DIMSTYLE
 70
2
  0
DIMSTYLE
  2
DMST_1
 70
0
  3

  4

  5

  6

  7

 40
1
 41
0.1
 42
0
 43
0.7
 44
0.2
 45
0
 46
0
 47
0
 48
0
140
0.1
141
0
142
0.1
143
25.4
144
1
145
0
146
1
147
0.2
 71
0
 72
0
 73
0
 74
0
 75
0
 76
0
 77
0
 78
9
170
0
171
2
172
0
173
0
174
0
175
0
176
7
177
7
178
7
  0
DIMSTYLE
  2
DMST_2
 70
0
  3

  4

  5

  6

  7

 40
1
 41
0.1
 42
0
 43
0.7
 44
0.2
 45
0
 46
0
 47
0
 48
0
140
0.1
141
0
142
0.1
143
25.4
144
1
145
0
146
1
147
0.25
 71
0
 72
0
 73
0
 74
0
 75
0
 76
0
 77
0
 78
9
170
0
171
2
172
0
173
0
174
0
175
0
176
7
177
7
178
7
  0
ENDTAB
  0
TABLE
  2
LTYPE
 70
9
  0
LTYPE
  2
CONTINUOUS
 70
64
  3
Solid line
 72
65
 73
0
 40
0
  0
LTYPE
  2
BORDER
 70
64
  3
__ __ . __ __ .
 72
65
 73
6
 40
0.3984355772687361
 49
0.113838736362496
 49
-0.05691936818124801
 49
0.113838736362496
 49
-0.05691936818124801
 49
0
 49
-0.05691936818124801
  0
LTYPE
  2
CENTER
 70
64
  3
____ _ ____ _
 72
65
 73
4
 40
0.4553549454499841
 49
0.28459684090624
 49
-0.05691936818124801
 49
0.05691936818124801
 49
-0.05691936818124801
  0
LTYPE
  2
DASHDOT
 70
64
  3
__ . __ . __ .
 72
65
 73
4
 40
0.2276774727249921
 49
0.113838736362496
 49
-0.05691936818124801
 49
0
 49
-0.05691936818124801
  0
LTYPE
  2
DASHED
 70
64
  3
__ __ __ __ __
 72
65
 73
2
 40
0.170758104543744
 49
0.113838736362496
 49
-0.05691936818124801
  0
LTYPE
  2
DIVIDE
 70
64
  3
__ . . __ . . 
 72
65
 73
6
 40
0.28459684090624
 49
0.113838736362496
 49
-0.05691936818124801
 49
0
 49
-0.05691936818124801
 49
0
 49
-0.05691936818124801
  0
LTYPE
  2
DOT
 70
64
  3
..............
 72
65
 73
4
 40
0.113838736362496
 49
0
 49
-0.05691936818124801
 49
0
 49
-0.05691936818124801
  0
LTYPE
  2
HIDDEN
 70
64
  3
_ _ _ _ _ _ _
 72
65
 73
2
 40
0.08537905227187202
 49
0.05691936818124801
 49
-0.02845968409062401
  0
LTYPE
  2
PHANTOM
 70
64
  3
_____ _ _ _____ _ _ 
 72
65
 73
6
 40
0.5691936818124801
 49
0.28459684090624
 49
-0.05691936818124801
 49
0.05691936818124801
 49
-0.05691936818124801
 49
0.05691936818124801
 49
-0.05691936818124801
  0
ENDTAB
  0
TABLE
  2
LAYER
 70
2
  0
LAYER
  2
0
 70
0
 62
7
  6
CONTINUOUS
  0
ENDTAB
  0
TABLE
  2
STYLE
 70
4
  0
STYLE
  2
STANDARD
 70
0
 40
0
 41
1
 50
0
 71
0
 42
3.5
  3
txt
  4

  0
STYLE
  2
SIMPLEX
 70
0
 40
0
 41
1
 50
0
 71
0
 42
3.5
  3
simplex
  4

  0
STYLE
  2
COMPLEX
 70
0
 40
0
 41
1
 50
0
 71
0
 42
3.5
  3
complex
  4

  0
STYLE
  2
ITALIC
 70
0
 40
0
 41
1
 50
0
 71
0
 42
3.5
  3
italic
  4

  0
ENDTAB
  0
TABLE
  2
VIEW
 70
0
  0
ENDTAB
  0
ENDSEC
  0
SECTION
  2
BLOCKS
  0
BLOCK
  8
0
  2
*X0
 70
1
 10
0
 20
0
 30
0
  0
LINE
  8
0
 62
7
 10
1.1
 20
7.994291116568838
 30
0
 11
1.205708883431158
 21
8.099999999999996
 31
0
  0
LINE
  8
0
 62
7
 10
1.267840917787124
 20
7.949999999999998
 30
0
 11
1.275
 21
7.957159082212874
 31
0
  0
LINE
  8
0
 62
7
 10
1.161774900609143
 20
7.949999999999999
 30
0
 11
1.274999999999999
 21
8.063225099390854
 31
0
  0
ENDBLK
  8
0
  0
BLOCK
  8
0
  2
*X1
 70
1
 10
0
 20
0
 30
0
  0
LINE
  8
0
 62
7
 10
1.1
 20
10.75200756319637
 30
0
 11
1.197992436803626
 21
10.85
 31
0
  0
LINE
  8
0
 62
7
 10
1.1
 20
10.5398755288404
 30
0
 11
1.275
 21
10.7148755288404
 31
0
  0
LINE
  8
0
 62
7
 10
1.1
 20
10.32774349448444
 30
0
 11
1.275
 21
10.50274349448444
 31
0
  0
LINE
  8
0
 62
7
 10
1.1
 20
10.11561146012848
 30
0
 11
1.275
 21
10.29061146012848
 31
0
  0
LINE
  8
0
 62
7
 10
1.1
 20
9.903479425772513
 30
0
 11
1.275
 21
10.07847942577251
 31
0
  0
LINE
  8
0
 62
7
 10
1.1
 20
9.691347391416549
 30
0
 11
1.275
 21
9.866347391416548
 31
0
  0
LINE
  8
0
 62
7
 10
1.1
 20
9.479215357060585
 30
0
 11
1.275
 21
9.654215357060584
 31
0
  0
LINE
  8
0
 62
7
 10
1.1
 20
9.267083322704622
 30
0
 11
1.275
 21
9.442083322704621
 31
0
  0
LINE
  8
0
 62
7
 10
1.1
 20
9.054951288348658
 30
0
 11
1.275
 21
9.229951288348657
 31
0
  0
LINE
  8
0
 62
7
 10
1.1
 20
8.842819253992694
 30
0
 11
1.275
 21
9.017819253992693
 31
0
  0
LINE
  8
0
 62
7
 10
1.1
 20
8.63068721963673
 30
0
 11
1.275
 21
8.805687219636729
 31
0
  0
LINE
  8
0
 62
7
 10
1.1
 20
8.418555185280766
 30
0
 11
1.275
 21
8.593555185280765
 31
0
  0
LINE
  8
0
 62
7
 10
1.193576849075197
 20
8.299999999999997
 30
0
 11
1.275
 21
8.381423150924801
 31
0
  0
LINE
  8
0
 62
7
 10
1.100000000000001
 20
10.64594154601839
 30
0
 11
1.274999999999999
 21
10.82094154601838
 31
0
  0
LINE
  8
0
 62
7
 10
1.100000000000001
 20
10.43380951166242
 30
0
 11
1.274999999999999
 21
10.60880951166242
 31
0
  0
LINE
  8
0
 62
7
 10
1.100000000000001
 20
10.22167747730646
 30
0
 11
1.274999999999999
 21
10.39667747730646
 31
0
  0
LINE
  8
0
 62
7
 10
1.100000000000001
 20
10.0095454429505
 30
0
 11
1.274999999999999
 21
10.18454544295049
 31
0
  0
LINE
  8
0
 62
7
 10
1.100000000000001
 20
9.797413408594531
 30
0
 11
1.274999999999999
 21
9.972413408594528
 31
0
  0
LINE
  8
0
 62
7
 10
1.100000000000001
 20
9.585281374238567
 30
0
 11
1.274999999999999
 21
9.760281374238565
 31
0
  0
LINE
  8
0
 62
7
 10
1.100000000000001
 20
9.373149339882604
 30
0
 11
1.274999999999999
 21
9.548149339882601
 31
0
  0
LINE
  8
0
 62
7
 10
1.100000000000001
 20
9.16101730552664
 30
0
 11
1.274999999999999
 21
9.336017305526637
 31
0
  0
LINE
  8
0
 62
7
 10
1.100000000000001
 20
8.948885271170676
 30
0
 11
1.274999999999999
 21
9.123885271170673
 31
0
  0
LINE
  8
0
 62
7
 10
1.100000000000001
 20
8.736753236814712
 30
0
 11
1.274999999999999
 21
8.911753236814709
 31
0
  0
LINE
  8
0
 62
7
 10
1.100000000000001
 20
8.524621202458748
 30
0
 11
1.274999999999999
 21
8.699621202458745
 31
0
  0
LINE
  8
0
 62
7
 10
1.100000000000001
 20
8.312489168102784
 30
0
 11
1.274999999999999
 21
8.487489168102782
 31
0
  0
ENDBLK
  8
0
  0
BLOCK
  8
0
  2
*X2
 70
1
 10
0
 20
0
 30
0
  0
LINE
  8
0
 62
7
 10
1.100000000000001
 20
11.1762716319083
 30
0
 11
1.123728368091698
 21
11.2
 31
0
  0
LINE
  8
0
 62
7
 10
1.185860402447664
 20
11.05
 30
0
 11
1.274999999999999
 21
11.13913959755234
 31
0
  0
LINE
  8
0
 62
7
 10
1.1
 20
11.07020561473032
 30
0
 11
1.229794385269681
 21
11.2
 31
0
  0
ENDBLK
  8
0
  0
BLOCK
  8
0
  2
*X3
 70
1
 10
0
 20
0
 30
0
  0
LINE
  8
0
 62
7
 10
3.813425330058696
 20
7.949999999999998
 30
0
 11
3.96
 21
8.096574669941301
 31
0
  0
LINE
  8
0
 62
7
 10
3.784999999999999
 20
8.027640687119282
 30
0
 11
3.857359312880712
 21
8.099999999999996
 31
0
  0
LINE
  8
0
 62
7
 10
3.919491347236678
 20
7.949999999999998
 30
0
 11
3.96
 21
7.990508652763319
 31
0
  0
ENDBLK
  8
0
  0
BLOCK
  8
0
  2
*X4
 70
1
 10
0
 20
0
 30
0
  0
LINE
  8
0
 62
7
 10
3.785000000000001
 20
10.67929111656883
 30
0
 11
3.955708883431162
 21
10.85
 31
0
  0
LINE
  8
0
 62
7
 10
3.785000000000001
 20
10.46715908221287
 30
0
 11
3.96
 21
10.64215908221287
 31
0
  0
LINE
  8
0
 62
7
 10
3.785000000000001
 20
10.25502704785691
 30
0
 11
3.96
 21
10.4300270478569
 31
0
  0
LINE
  8
0
 62
7
 10
3.785000000000001
 20
10.04289501350094
 30
0
 11
3.96
 21
10.21789501350094
 31
0
  0
LINE
  8
0
 62
7
 10
3.785000000000001
 20
9.830762979144978
 30
0
 11
3.96
 21
10.00576297914498
 31
0
  0
LINE
  8
0
 62
7
 10
3.785000000000001
 20
9.618630944789015
 30
0
 11
3.96
 21
9.793630944789012
 31
0
  0
LINE
  8
0
 62
7
 10
3.785000000000001
 20
9.406498910433051
 30
0
 11
3.96
 21
9.581498910433048
 31
0
  0
LINE
  8
0
 62
7
 10
3.785000000000001
 20
9.194366876077087
 30
0
 11
3.96
 21
9.369366876077084
 31
0
  0
LINE
  8
0
 62
7
 10
3.785000000000001
 20
8.982234841721123
 30
0
 11
3.96
 21
9.15723484172112
 31
0
  0
LINE
  8
0
 62
7
 10
3.785000000000001
 20
8.770102807365159
 30
0
 11
3.96
 21
8.945102807365156
 31
0
  0
LINE
  8
0
 62
7
 10
3.785000000000001
 20
8.557970773009195
 30
0
 11
3.96
 21
8.732970773009193
 31
0
  0
LINE
  8
0
 62
7
 10
3.785000000000001
 20
8.345838738653232
 30
0
 11
3.96
 21
8.520838738653229
 31
0
  0
LINE
  8
0
 62
7
 10
3.95129329570273
 20
8.299999999999995
 30
0
 11
3.96
 21
8.308706704297265
 31
0
  0
LINE
  8
0
 62
7
 10
3.785000000000001
 20
10.78535713374682
 30
0
 11
3.849642866253181
 21
10.85
 31
0
  0
LINE
  8
0
 62
7
 10
3.785000000000001
 20
10.57322509939085
 30
0
 11
3.96
 21
10.74822509939085
 31
0
  0
LINE
  8
0
 62
7
 10
3.785000000000001
 20
10.36109306503489
 30
0
 11
3.96
 21
10.53609306503489
 31
0
  0
LINE
  8
0
 62
7
 10
3.785000000000001
 20
10.14896103067892
 30
0
 11
3.96
 21
10.32396103067892
 31
0
  0
LINE
  8
0
 62
7
 10
3.785000000000001
 20
9.93682899632296
 30
0
 11
3.96
 21
10.11182899632296
 31
0
  0
LINE
  8
0
 62
7
 10
3.785000000000001
 20
9.724696961966997
 30
0
 11
3.96
 21
9.899696961966995
 31
0
  0
LINE
  8
0
 62
7
 10
3.785000000000001
 20
9.512564927611033
 30
0
 11
3.96
 21
9.687564927611032
 31
0
  0
LINE
  8
0
 62
7
 10
3.785000000000001
 20
9.300432893255069
 30
0
 11
3.96
 21
9.475432893255068
 31
0
  0
LINE
  8
0
 62
7
 10
3.785000000000001
 20
9.088300858899105
 30
0
 11
3.96
 21
9.263300858899104
 31
0
  0
LINE
  8
0
 62
7
 10
3.785000000000001
 20
8.876168824543141
 30
0
 11
3.96
 21
9.05116882454314
 31
0
  0
LINE
  8
0
 62
7
 10
3.785000000000001
 20
8.664036790187177
 30
0
 11
3.96
 21
8.839036790187176
 31
0
  0
LINE
  8
0
 62
7
 10
3.785000000000001
 20
8.451904755831213
 30
0
 11
3.96
 21
8.626904755831212
 31
0
  0
LINE
  8
0
 62
7
 10
3.84522727852475
 20
8.299999999999997
 30
0
 11
3.96
 21
8.414772721475249
 31
0
  0
ENDBLK
  8
0
  0
BLOCK
  8
0
  2
*X5
 70
1
 10
0
 20
0
 30
0
  0
LINE
  8
0
 62
7
 10
3.784999999999999
 20
11.10355518528077
 30
0
 11
3.881444814719234
 21
11.2
 31
0
  0
LINE
  8
0
 62
7
 10
3.943576849075201
 20
11.05
 30
0
 11
3.960000000000001
 21
11.0664231509248
 31
0
  0
LINE
  8
0
 62
7
 10
3.837510831897218
 20
11.05
 30
0
 11
3.960000000000001
 21
11.17248916810278
 31
0
  0
ENDBLK
  8
0
  0
BLOCK
  8
0
  2
*X6
 70
1
 10
0
 20
0
 30
0
  0
LINE
  8
0
 62
7
  6
DASHED
 10
0.9499999999999997
 20
8.268555185280764
 30
0
 11
0.9814448147192318
 21
8.299999999999997
 31
0
  0
LINE
  8
0
 62
7
  6
DASHED
 10
0.9935768490751942
 20
8.099999999999996
 30
0
 11
1.193576849075196
 21
8.299999999999997
 31
0
  0
LINE
  8
0
 62
7
  6
DASHED
 10
1.205708883431158
 20
8.099999999999996
 30
0
 11
1.40570888343116
 21
8.299999999999997
 31
0
  0
LINE
  8
0
 62
7
  6
DASHED
 10
1.417840917787123
 20
8.099999999999996
 30
0
 11
1.617840917787125
 21
8.299999999999997
 31
0
  0
LINE
  8
0
 62
7
  6
DASHED
 10
1.629972952143087
 20
8.099999999999996
 30
0
 11
1.829972952143089
 21
8.299999999999997
 31
0
  0
LINE
  8
0
 62
7
  6
DASHED
 10
1.842104986499051
 20
8.099999999999996
 30
0
 11
2.042104986499053
 21
8.299999999999997
 31
0
  0
LINE
  8
0
 62
7
  6
DASHED
 10
2.054237020855016
 20
8.099999999999996
 30
0
 11
2.254237020855018
 21
8.299999999999997
 31
0
  0
LINE
  8
0
 62
7
  6
DASHED
 10
2.26636905521098
 20
8.099999999999996
 30
0
 11
2.466369055210982
 21
8.299999999999997
 31
0
  0
LINE
  8
0
 62
7
  6
DASHED
 10
2.478501089566944
 20
8.099999999999996
 30
0
 11
2.678501089566946
 21
8.299999999999997
 31
0
  0
LINE
  8
0
 62
7
  6
DASHED
 10
2.690633123922908
 20
8.099999999999996
 30
0
 11
2.89063312392291
 21
8.299999999999997
 31
0
  0
LINE
  8
0
 62
7
  6
DASHED
 10
2.902765158278873
 20
8.099999999999996
 30
0
 11
3.102765158278875
 21
8.299999999999997
 31
0
  0
LINE
  8
0
 62
7
  6
DASHED
 10
3.114897192634837
 20
8.099999999999996
 30
0
 11
3.314897192634839
 21
8.299999999999997
 31
0
  0
LINE
  8
0
 62
7
  6
DASHED
 10
3.327029226990801
 20
8.099999999999996
 30
0
 11
3.527029226990803
 21
8.299999999999997
 31
0
  0
LINE
  8
0
 62
7
  6
DASHED
 10
3.539161261346766
 20
8.099999999999996
 30
0
 11
3.739161261346768
 21
8.299999999999997
 31
0
  0
LINE
  8
0
 62
7
  6
DASHED
 10
3.75129329570273
 20
8.099999999999996
 30
0
 11
3.951293295702732
 21
8.299999999999997
 31
0
  0
LINE
  8
0
 62
7
  6
DASHED
 10
3.963425330058694
 20
8.099999999999996
 30
0
 11
4.11
 21
8.246574669941301
 31
0
  0
LINE
  8
0
 62
7
 10
0.9499999999999988
 20
8.162489168102784
 30
0
 11
1.087510831897213
 21
8.299999999999997
 31
0
  0
LINE
  8
0
 62
7
 10
1.099642866253177
 20
8.099999999999996
 30
0
 11
1.299642866253178
 21
8.299999999999997
 31
0
  0
LINE
  8
0
 62
7
 10
1.311774900609141
 20
8.099999999999996
 30
0
 11
1.511774900609142
 21
8.299999999999997
 31
0
  0
LINE
  8
0
 62
7
 10
1.523906934965106
 20
8.099999999999996
 30
0
 11
1.723906934965106
 21
8.299999999999997
 31
0
  0
LINE
  8
0
 62
7
 10
1.73603896932107
 20
8.099999999999996
 30
0
 11
1.93603896932107
 21
8.299999999999997
 31
0
  0
LINE
  8
0
 62
7
 10
1.948171003677034
 20
8.099999999999996
 30
0
 11
2.148171003677035
 21
8.299999999999997
 31
0
  0
LINE
  8
0
 62
7
 10
2.160303038032998
 20
8.099999999999996
 30
0
 11
2.360303038032999
 21
8.299999999999997
 31
0
  0
LINE
  8
0
 62
7
 10
2.372435072388963
 20
8.099999999999996
 30
0
 11
2.572435072388963
 21
8.299999999999997
 31
0
  0
LINE
  8
0
 62
7
 10
2.584567106744927
 20
8.099999999999996
 30
0
 11
2.784567106744928
 21
8.299999999999997
 31
0
  0
LINE
  8
0
 62
7
 10
2.796699141100891
 20
8.099999999999996
 30
0
 11
2.996699141100892
 21
8.299999999999997
 31
0
  0
LINE
  8
0
 62
7
 10
3.008831175456856
 20
8.099999999999996
 30
0
 11
3.208831175456856
 21
8.299999999999997
 31
0
  0
LINE
  8
0
 62
7
 10
3.22096320981282
 20
8.099999999999996
 30
0
 11
3.42096320981282
 21
8.299999999999997
 31
0
  0
LINE
  8
0
 62
7
 10
3.433095244168784
 20
8.099999999999996
 30
0
 11
3.633095244168785
 21
8.299999999999997
 31
0
  0
LINE
  8
0
 62
7
 10
3.645227278524748
 20
8.099999999999996
 30
0
 11
3.845227278524749
 21
8.299999999999997
 31
0
  0
LINE
  8
0
 62
7
 10
3.857359312880713
 20
8.099999999999996
 30
0
 11
4.057359312880713
 21
8.299999999999997
 31
0
  0
LINE
  8
0
 62
7
 10
4.069491347236677
 20
8.099999999999996
 30
0
 11
4.109999999999999
 21
8.140508652763319
 31
0
  0
ENDBLK
  8
0
  0
BLOCK
  8
0
  2
*X7
 70
1
 10
0
 20
0
 30
0
  0
LINE
  8
0
 62
7
  6
DASHED
 10
0.9500000000000002
 20
11.0262716319083
 30
0
 11
0.9737283680917002
 21
11.05
 31
0
  0
LINE
  8
0
 62
7
  6
DASHED
 10
0.9858604024476643
 20
10.85
 30
0
 11
1.185860402447664
 21
11.05
 31
0
  0
LINE
  8
0
 62
7
  6
DASHED
 10
1.197992436803629
 20
10.85
 30
0
 11
1.397992436803629
 21
11.05
 31
0
  0
LINE
  8
0
 62
7
  6
DASHED
 10
1.410124471159593
 20
10.85
 30
0
 11
1.610124471159593
 21
11.05
 31
0
  0
LINE
  8
0
 62
7
  6
DASHED
 10
1.622256505515557
 20
10.85
 30
0
 11
1.822256505515557
 21
11.05
 31
0
  0
LINE
  8
0
 62
7
  6
DASHED
 10
1.834388539871521
 20
10.85
 30
0
 11
2.034388539871522
 21
11.05
 31
0
  0
LINE
  8
0
 62
7
  6
DASHED
 10
2.046520574227486
 20
10.85
 30
0
 11
2.246520574227486
 21
11.05
 31
0
  0
LINE
  8
0
 62
7
  6
DASHED
 10
2.25865260858345
 20
10.85
 30
0
 11
2.45865260858345
 21
11.05
 31
0
  0
LINE
  8
0
 62
7
  6
DASHED
 10
2.470784642939414
 20
10.85
 30
0
 11
2.670784642939414
 21
11.05
 31
0
  0
LINE
  8
0
 62
7
  6
DASHED
 10
2.682916677295379
 20
10.85
 30
0
 11
2.882916677295379
 21
11.05
 31
0
  0
LINE
  8
0
 62
7
  6
DASHED
 10
2.895048711651343
 20
10.85
 30
0
 11
3.095048711651343
 21
11.05
 31
0
  0
LINE
  8
0
 62
7
  6
DASHED
 10
3.107180746007307
 20
10.85
 30
0
 11
3.307180746007307
 21
11.05
 31
0
  0
LINE
  8
0
 62
7
  6
DASHED
 10
3.319312780363271
 20
10.85
 30
0
 11
3.519312780363272
 21
11.05
 31
0
  0
LINE
  8
0
 62
7
  6
DASHED
 10
3.531444814719236
 20
10.85
 30
0
 11
3.731444814719236
 21
11.05
 31
0
  0
LINE
  8
0
 62
7
  6
DASHED
 10
3.7435768490752
 20
10.85
 30
0
 11
3.9435768490752
 21
11.05
 31
0
  0
LINE
  8
0
 62
7
  6
DASHED
 10
3.955708883431164
 20
10.85
 30
0
 11
4.11
 21
11.00429111656884
 31
0
  0
LINE
  8
0
 62
7
 10
0.9500000000000002
 20
10.92020561473032
 30
0
 11
1.079794385269682
 21
11.05
 31
0
  0
LINE
  8
0
 62
7
 10
1.091926419625644
 20
10.85
 30
0
 11
1.291926419625646
 21
11.05
 31
0
  0
LINE
  8
0
 62
7
 10
1.304058453981609
 20
10.85
 30
0
 11
1.50405845398161
 21
11.05
 31
0
  0
LINE
  8
0
 62
7
 10
1.516190488337573
 20
10.85
 30
0
 11
1.716190488337574
 21
11.05
 31
0
  0
LINE
  8
0
 62
7
 10
1.728322522693537
 20
10.85
 30
0
 11
1.928322522693539
 21
11.05
 31
0
  0
LINE
  8
0
 62
7
 10
1.940454557049502
 20
10.85
 30
0
 11
2.140454557049503
 21
11.05
 31
0
  0
LINE
  8
0
 62
7
 10
2.152586591405466
 20
10.85
 30
0
 11
2.352586591405467
 21
11.05
 31
0
  0
LINE
  8
0
 62
7
 10
2.36471862576143
 20
10.85
 30
0
 11
2.564718625761432
 21
11.05
 31
0
  0
LINE
  8
0
 62
7
 10
2.576850660117394
 20
10.85
 30
0
 11
2.776850660117396
 21
11.05
 31
0
  0
LINE
  8
0
 62
7
 10
2.788982694473359
 20
10.85
 30
0
 11
2.98898269447336
 21
11.05
 31
0
  0
LINE
  8
0
 62
7
 10
3.001114728829323
 20
10.85
 30
0
 11
3.201114728829324
 21
11.05
 31
0
  0
LINE
  8
0
 62
7
 10
3.213246763185287
 20
10.85
 30
0
 11
3.413246763185289
 21
11.05
 31
0
  0
LINE
  8
0
 62
7
 10
3.425378797541252
 20
10.85
 30
0
 11
3.625378797541253
 21
11.05
 31
0
  0
LINE
  8
0
 62
7
 10
3.637510831897216
 20
10.85
 30
0
 11
3.837510831897217
 21
11.05
 31
0
  0
LINE
  8
0
 62
7
 10
3.84964286625318
 20
10.85
 30
0
 11
4.049642866253182
 21
11.05
 31
0
  0
LINE
  8
0
 62
7
 10
4.061774900609144
 20
10.85
 30
0
 11
4.109999999999999
 21
10.89822509939085
 31
0
  0
ENDBLK
  8
0
  0
BLOCK
  8
0
  2
*X8
 70
1
 10
0
 20
0
 30
0
  0
LINE
  8
0
 62
7
 10
7.96
 20
8.066066017177983
 30
0
 11
7.993933982822015
 21
8.099999999999996
 31
0
  0
LINE
  8
0
 62
7
 10
8.056066017177983
 20
7.949999999999998
 30
0
 11
8.200000000000001
 21
8.093933982822016
 31
0
  0
LINE
  8
0
 62
7
 10
7.960000000000001
 20
7.96
 30
0
 11
8.099999999999998
 21
8.099999999999996
 31
0
  0
LINE
  8
0
 62
7
 10
8.162132034355965
 20
7.949999999999999
 30
0
 11
8.200000000000001
 21
7.987867965644037
 31
0
  0
ENDBLK
  8
0
  0
BLOCK
  8
0
  2
*X9
 70
1
 10
0
 20
0
 30
0
  0
LINE
  8
0
 62
7
 10
7.960000000000001
 20
10.82378246380551
 30
0
 11
7.986217536194484
 21
10.85
 31
0
  0
LINE
  8
0
 62
7
 10
7.960000000000001
 20
10.61165042944955
 30
0
 11
8.198349570550448
 21
10.85
 31
0
  0
LINE
  8
0
 62
7
 10
7.960000000000001
 20
10.39951839509358
 30
0
 11
8.200000000000001
 21
10.63951839509359
 31
0
  0
LINE
  8
0
 62
7
 10
7.960000000000001
 20
10.18738636073762
 30
0
 11
8.200000000000001
 21
10.42738636073762
 31
0
  0
LINE
  8
0
 62
7
 10
7.960000000000001
 20
9.975254326381657
 30
0
 11
8.200000000000001
 21
10.21525432638166
 31
0
  0
LINE
  8
0
 62
7
 10
7.960000000000001
 20
9.763122292025693
 30
0
 11
8.200000000000001
 21
10.0031222920257
 31
0
  0
LINE
  8
0
 62
7
 10
7.960000000000001
 20
9.55099025766973
 30
0
 11
8.200000000000001
 21
9.790990257669732
 31
0
  0
LINE
  8
0
 62
7
 10
7.960000000000001
 20
9.338858223313766
 30
0
 11
8.200000000000001
 21
9.578858223313768
 31
0
  0
LINE
  8
0
 62
7
 10
7.960000000000001
 20
9.126726188957802
 30
0
 11
8.200000000000001
 21
9.366726188957804
 31
0
  0
LINE
  8
0
 62
7
 10
7.960000000000001
 20
8.914594154601838
 30
0
 11
8.200000000000001
 21
9.15459415460184
 31
0
  0
LINE
  8
0
 62
7
 10
7.960000000000001
 20
8.702462120245874
 30
0
 11
8.200000000000001
 21
8.942462120245876
 31
0
  0
LINE
  8
0
 62
7
 10
7.960000000000001
 20
8.49033008588991
 30
0
 11
8.200000000000001
 21
8.730330085889912
 31
0
  0
LINE
  8
0
 62
7
 10
7.98180194846605
 20
8.299999999999997
 30
0
 11
8.200000000000001
 21
8.518198051533949
 31
0
  0
LINE
  8
0
 62
7
 10
8.193933982822013
 20
8.299999999999997
 30
0
 11
8.200000000000001
 21
8.306066017177985
 31
0
  0
LINE
  8
0
 62
7
 10
7.960000000000003
 20
10.71771644662753
 30
0
 11
8.092283553372464
 21
10.85
 31
0
  0
LINE
  8
0
 62
7
 10
7.960000000000003
 20
10.50558441227157
 30
0
 11
8.200000000000001
 21
10.74558441227157
 31
0
  0
LINE
  8
0
 62
7
 10
7.960000000000003
 20
10.2934523779156
 30
0
 11
8.200000000000001
 21
10.5334523779156
 31
0
  0
LINE
  8
0
 62
7
 10
7.960000000000003
 20
10.08132034355964
 30
0
 11
8.200000000000001
 21
10.32132034355964
 31
0
  0
LINE
  8
0
 62
7
 10
7.960000000000003
 20
9.869188309203675
 30
0
 11
8.200000000000001
 21
10.10918830920367
 31
0
  0
LINE
  8
0
 62
7
 10
7.960000000000003
 20
9.657056274847712
 30
0
 11
8.200000000000001
 21
9.89705627484771
 31
0
  0
LINE
  8
0
 62
7
 10
7.960000000000003
 20
9.444924240491748
 30
0
 11
8.200000000000001
 21
9.684924240491746
 31
0
  0
LINE
  8
0
 62
7
 10
7.960000000000003
 20
9.232792206135784
 30
0
 11
8.200000000000001
 21
9.472792206135782
 31
0
  0
LINE
  8
0
 62
7
 10
7.960000000000003
 20
9.02066017177982
 30
0
 11
8.200000000000001
 21
9.260660171779818
 31
0
  0
LINE
  8
0
 62
7
 10
7.960000000000003
 20
8.808528137423856
 30
0
 11
8.200000000000001
 21
9.048528137423855
 31
0
  0
LINE
  8
0
 62
7
 10
7.960000000000003
 20
8.596396103067892
 30
0
 11
8.200000000000001
 21
8.836396103067891
 31
0
  0
LINE
  8
0
 62
7
 10
7.960000000000003
 20
8.384264068711929
 30
0
 11
8.200000000000001
 21
8.624264068711927
 31
0
  0
LINE
  8
0
 62
7
 10
8.087867965644033
 20
8.299999999999995
 30
0
 11
8.200000000000001
 21
8.412132034355963
 31
0
  0
ENDBLK
  8
0
  0
BLOCK
  8
0
  2
*X10
 70
1
 10
0
 20
0
 30
0
  0
LINE
  8
0
 62
7
 10
7.97408550183852
 20
11.05
 30
0
 11
8.12408550183852
 21
11.2
 31
0
  0
LINE
  8
0
 62
7
 10
8.186217536194484
 20
11.05
 30
0
 11
8.200000000000001
 21
11.06378246380552
 31
0
  0
LINE
  8
0
 62
7
 10
7.960000000000002
 20
11.14198051533946
 30
0
 11
8.018019484660535
 21
11.2
 31
0
  0
LINE
  8
0
 62
7
 10
8.0801515190165
 20
11.05
 30
0
 11
8.199999999999999
 21
11.1698484809835
 31
0
  0
ENDBLK
  8
0
  0
BLOCK
  8
0
  2
*X11
 70
1
 10
0
 20
0
 30
0
  0
LINE
  8
0
 62
7
  6
DASHED
 10
5.879999999999999
 20
8.107386360737623
 30
0
 11
6.072613639262374
 21
8.299999999999997
 31
0
  0
LINE
  8
0
 62
7
  6
DASHED
 10
6.084745673618336
 20
8.099999999999996
 30
0
 11
6.180000000000001
 21
8.19525432638166
 31
0
  0
LINE
  8
0
 62
7
 10
5.879999999999999
 20
8.213452377915605
 30
0
 11
5.966547622084393
 21
8.299999999999999
 31
0
  0
LINE
  8
0
 62
7
 10
5.978679656440355
 20
8.099999999999996
 30
0
 11
6.178679656440357
 21
8.299999999999999
 31
0
  0
ENDBLK
  8
0
  0
BLOCK
  8
0
  2
*X12
 70
1
 10
0
 20
0
 30
0
  0
LINE
  8
0
 62
7
  6
DASHED
 10
5.880000000000001
 20
10.86510280736516
 30
0
 11
6.064897192634843
 21
11.05
 31
0
  0
LINE
  8
0
 62
7
  6
DASHED
 10
6.077029226990806
 20
10.85
 30
0
 11
6.180000000000001
 21
10.95297077300919
 31
0
  0
LINE
  8
0
 62
7
 10
5.880000000000001
 20
10.97116882454314
 30
0
 11
5.958831175456859
 21
11.05
 31
0
  0
LINE
  8
0
 62
7
 10
5.970963209812825
 20
10.85
 30
0
 11
6.170963209812823
 21
11.05
 31
0
  0
ENDBLK
  8
0
  0
BLOCK
  8
0
  2
*X13
 70
1
 10
0
 20
0
 30
0
  0
LINE
  8
0
 62
7
  6
DASHED
 10
7.959999999999999
 20
11.03591449816148
 30
0
 11
7.97408550183852
 21
11.05
 31
0
  0
LINE
  8
0
 62
7
  6
DASHED
 10
7.986217536194484
 20
10.85
 30
0
 11
8.186217536194484
 21
11.05
 31
0
  0
LINE
  8
0
 62
7
  6
DASHED
 10
8.198349570550448
 20
10.85
 30
0
 11
8.200000000000001
 21
10.85165042944955
 31
0
  0
LINE
  8
0
 62
7
 10
7.960000000000002
 20
10.9298484809835
 30
0
 11
8.0801515190165
 21
11.05
 31
0
  0
LINE
  8
0
 62
7
 10
8.092283553372464
 20
10.85
 30
0
 11
8.199999999999999
 21
10.95771644662753
 31
0
  0
ENDBLK
  8
0
  0
BLOCK
  8
0
  2
*X14
 70
1
 10
0
 20
0
 30
0
  0
LINE
  8
0
 62
7
  6
DASHED
 10
7.960000000000002
 20
8.278198051533947
 30
0
 11
7.98180194846605
 21
8.299999999999997
 31
0
  0
LINE
  8
0
 62
7
  6
DASHED
 10
7.993933982822015
 20
8.099999999999996
 30
0
 11
8.193933982822013
 21
8.299999999999997
 31
0
  0
LINE
  8
0
 62
7
 10
7.960000000000001
 20
8.172132034355963
 30
0
 11
8.087867965644033
 21
8.299999999999995
 31
0
  0
LINE
  8
0
 62
7
 10
8.099999999999998
 20
8.099999999999996
 30
0
 11
8.200000000000001
 21
8.199999999999999
 31
0
  0
ENDBLK
  8
0
  0
BLOCK
  8
0
  2
*X15
 70
1
 10
0
 20
0
 30
0
  0
LINE
  8
0
 62
7
 10
1.1
 20
5.66083873865323
 30
0
 11
1.239161261346766
 21
5.799999999999997
 31
0
  0
LINE
  8
0
 62
7
 10
0.9349999999999996
 20
5.49583873865323
 30
0
 11
1.089161261346765
 21
5.649999999999995
 31
0
  0
LINE
  8
0
 62
7
 10
1.061293295702738
 20
5.410000000000004
 30
0
 11
1.301293295702729
 21
5.649999999999995
 31
0
  0
LINE
  8
0
 62
7
 10
1.273425330058702
 20
5.410000000000004
 30
0
 11
1.513425330058693
 21
5.649999999999995
 31
0
  0
LINE
  8
0
 62
7
 10
1.485557364414666
 20
5.410000000000004
 30
0
 11
1.725557364414657
 21
5.649999999999995
 31
0
  0
LINE
  8
0
 62
7
 10
1.697689398770631
 20
5.410000000000004
 30
0
 11
1.937689398770622
 21
5.649999999999995
 31
0
  0
LINE
  8
0
 62
7
 10
1.909821433126595
 20
5.410000000000004
 30
0
 11
2.149821433126586
 21
5.649999999999995
 31
0
  0
LINE
  8
0
 62
7
 10
2.121953467482559
 20
5.410000000000004
 30
0
 11
2.36195346748255
 21
5.649999999999995
 31
0
  0
LINE
  8
0
 62
7
 10
2.334085501838524
 20
5.410000000000004
 30
0
 11
2.574085501838514
 21
5.649999999999995
 31
0
  0
LINE
  8
0
 62
7
 10
2.546217536194488
 20
5.410000000000004
 30
0
 11
2.786217536194479
 21
5.649999999999995
 31
0
  0
LINE
  8
0
 62
7
 10
2.758349570550452
 20
5.410000000000004
 30
0
 11
2.998349570550443
 21
5.649999999999995
 31
0
  0
LINE
  8
0
 62
7
 10
2.970481604906416
 20
5.410000000000004
 30
0
 11
3.210481604906407
 21
5.649999999999995
 31
0
  0
LINE
  8
0
 62
7
 10
3.182613639262381
 20
5.410000000000004
 30
0
 11
3.422613639262372
 21
5.649999999999995
 31
0
  0
LINE
  8
0
 62
7
 10
3.394745673618345
 20
5.410000000000004
 30
0
 11
3.634745673618336
 21
5.649999999999995
 31
0
  0
LINE
  8
0
 62
7
 10
3.606877707974309
 20
5.410000000000004
 30
0
 11
3.96
 21
5.763122292025695
 31
0
  0
LINE
  8
0
 62
7
 10
3.819009742330274
 20
5.410000000000004
 30
0
 11
4.059009742330264
 21
5.649999999999996
 31
0
  0
LINE
  8
0
 62
7
 10
4.031141776686238
 20
5.410000000000004
 30
0
 11
4.109999999999999
 21
5.488858223313766
 31
0
  0
LINE
  8
0
 62
7
 10
1.1
 20
5.766904755831213
 30
0
 11
1.133095244168783
 21
5.799999999999996
 31
0
  0
LINE
  8
0
 62
7
 10
0.9350000000000001
 20
5.601904755831213
 30
0
 11
0.983095244168783
 21
5.649999999999996
 31
0
  0
LINE
  8
0
 62
7
 10
0.9552272785247546
 20
5.410000000000004
 30
0
 11
1.274999999999999
 21
5.729772721475248
 31
0
  0
LINE
  8
0
 62
7
 10
1.167359312880719
 20
5.410000000000004
 30
0
 11
1.407359312880711
 21
5.649999999999996
 31
0
  0
LINE
  8
0
 62
7
 10
1.379491347236683
 20
5.410000000000004
 30
0
 11
1.619491347236675
 21
5.649999999999996
 31
0
  0
LINE
  8
0
 62
7
 10
1.591623381592647
 20
5.410000000000004
 30
0
 11
1.831623381592639
 21
5.649999999999996
 31
0
  0
LINE
  8
0
 62
7
 10
1.803755415948612
 20
5.410000000000004
 30
0
 11
2.043755415948604
 21
5.649999999999996
 31
0
  0
LINE
  8
0
 62
7
 10
2.015887450304576
 20
5.410000000000004
 30
0
 11
2.255887450304568
 21
5.649999999999996
 31
0
  0
LINE
  8
0
 62
7
 10
2.22801948466054
 20
5.410000000000004
 30
0
 11
2.468019484660532
 21
5.649999999999996
 31
0
  0
LINE
  8
0
 62
7
 10
2.440151519016505
 20
5.410000000000004
 30
0
 11
2.680151519016496
 21
5.649999999999996
 31
0
  0
LINE
  8
0
 62
7
 10
2.652283553372469
 20
5.410000000000004
 30
0
 11
2.892283553372461
 21
5.649999999999996
 31
0
  0
LINE
  8
0
 62
7
 10
2.864415587728433
 20
5.410000000000004
 30
0
 11
3.104415587728425
 21
5.649999999999996
 31
0
  0
LINE
  8
0
 62
7
 10
3.076547622084397
 20
5.410000000000004
 30
0
 11
3.316547622084389
 21
5.649999999999996
 31
0
  0
LINE
  8
0
 62
7
 10
3.288679656440362
 20
5.410000000000004
 30
0
 11
3.528679656440354
 21
5.649999999999996
 31
0
  0
LINE
  8
0
 62
7
 10
3.785
 20
5.694188309203677
 30
0
 11
3.890811690796319
 21
5.799999999999996
 31
0
  0
LINE
  8
0
 62
7
 10
3.500811690796326
 20
5.410000000000004
 30
0
 11
3.740811690796318
 21
5.649999999999996
 31
0
  0
LINE
  8
0
 62
7
 10
3.71294372515229
 20
5.410000000000004
 30
0
 11
3.96
 21
5.657056274847713
 31
0
  0
LINE
  8
0
 62
7
 10
3.925075759508255
 20
5.410000000000004
 30
0
 11
4.109999999999999
 21
5.594924240491749
 31
0
  0
ENDBLK
  8
0
  0
BLOCK
  8
0
  2
*X16
 70
1
 10
0
 20
0
 30
0
  0
LINE
  8
0
 62
7
 10
0.9349999999999996
 20
5.283706704297266
 30
0
 11
1.021293295702738
 21
5.370000000000005
 31
0
  0
LINE
  8
0
 62
7
 10
0.9934253300587019
 20
5.130000000000004
 30
0
 11
1.233425330058703
 21
5.370000000000005
 31
0
  0
LINE
  8
0
 62
7
 10
1.1
 20
5.024442635585336
 30
0
 11
1.445557364414667
 21
5.370000000000005
 31
0
  0
LINE
  8
0
 62
7
 10
1.417689398770631
 20
5.130000000000004
 30
0
 11
1.657689398770631
 21
5.370000000000005
 31
0
  0
LINE
  8
0
 62
7
 10
1.1
 20
4.812310601229372
 30
0
 11
1.274999999999999
 21
4.987310601229372
 31
0
  0
LINE
  8
0
 62
7
 10
1.629821433126595
 20
5.130000000000004
 30
0
 11
1.869821433126595
 21
5.370000000000005
 31
0
  0
LINE
  8
0
 62
7
 10
1.1
 20
4.600178566873408
 30
0
 11
1.274999999999999
 21
4.775178566873408
 31
0
  0
LINE
  8
0
 62
7
 10
1.84195346748256
 20
5.130000000000004
 30
0
 11
2.08195346748256
 21
5.370000000000005
 31
0
  0
LINE
  8
0
 62
7
 10
1.1
 20
4.388046532517444
 30
0
 11
1.274999999999999
 21
4.563046532517444
 31
0
  0
LINE
  8
0
 62
7
 10
2.054085501838524
 20
5.130000000000004
 30
0
 11
2.294085501838524
 21
5.370000000000005
 31
0
  0
LINE
  8
0
 62
7
 10
1.1
 20
4.175914498161481
 30
0
 11
1.274999999999999
 21
4.35091449816148
 31
0
  0
LINE
  8
0
 62
7
 10
2.266217536194488
 20
5.130000000000004
 30
0
 11
2.506217536194488
 21
5.370000000000005
 31
0
  0
LINE
  8
0
 62
7
 10
1.1
 20
3.963782463805517
 30
0
 11
1.274999999999999
 21
4.138782463805517
 31
0
  0
LINE
  8
0
 62
7
 10
2.478349570550452
 20
5.130000000000004
 30
0
 11
2.718349570550453
 21
5.370000000000005
 31
0
  0
LINE
  8
0
 62
7
 10
1.1
 20
3.751650429449553
 30
0
 11
1.274999999999999
 21
3.926650429449553
 31
0
  0
LINE
  8
0
 62
7
 10
2.690481604906417
 20
5.130000000000004
 30
0
 11
2.930481604906417
 21
5.370000000000005
 31
0
  0
LINE
  8
0
 62
7
 10
1.1
 20
3.539518395093588
 30
0
 11
1.274999999999999
 21
3.714518395093588
 31
0
  0
LINE
  8
0
 62
7
 10
2.902613639262381
 20
5.130000000000004
 30
0
 11
3.142613639262381
 21
5.370000000000005
 31
0
  0
LINE
  8
0
 62
7
 10
1.122613639262378
 20
3.350000000000002
 30
0
 11
1.274999999999999
 21
3.502386360737624
 31
0
  0
LINE
  8
0
 62
7
 10
3.114745673618345
 20
5.130000000000004
 30
0
 11
3.354745673618345
 21
5.370000000000005
 31
0
  0
LINE
  8
0
 62
7
 10
3.326877707974309
 20
5.130000000000004
 30
0
 11
3.56687770797431
 21
5.370000000000005
 31
0
  0
LINE
  8
0
 62
7
 10
3.539009742330274
 20
5.130000000000004
 30
0
 11
3.779009742330274
 21
5.370000000000005
 31
0
  0
LINE
  8
0
 62
7
 10
3.751141776686238
 20
5.130000000000004
 30
0
 11
3.991141776686238
 21
5.370000000000005
 31
0
  0
LINE
  8
0
 62
7
 10
3.963273811042201
 20
5.130000000000004
 30
0
 11
4.11
 21
5.276726188957802
 31
0
  0
LINE
  8
0
 62
7
 10
3.785
 20
4.9517261889578
 30
0
 11
3.96
 21
5.1267261889578
 31
0
  0
LINE
  8
0
 62
7
 10
3.785
 20
4.739594154601837
 30
0
 11
3.96
 21
4.914594154601836
 31
0
  0
LINE
  8
0
 62
7
 10
3.785
 20
4.527462120245873
 30
0
 11
3.96
 21
4.702462120245873
 31
0
  0
LINE
  8
0
 62
7
 10
3.785
 20
4.315330085889909
 30
0
 11
3.96
 21
4.490330085889909
 31
0
  0
LINE
  8
0
 62
7
 10
3.785
 20
4.103198051533945
 30
0
 11
3.96
 21
4.278198051533945
 31
0
  0
LINE
  8
0
 62
7
 10
3.785
 20
3.891066017177981
 30
0
 11
3.96
 21
4.066066017177981
 31
0
  0
LINE
  8
0
 62
7
 10
3.785
 20
3.678933982822017
 30
0
 11
3.96
 21
3.853933982822017
 31
0
  0
LINE
  8
0
 62
7
 10
3.785
 20
3.466801948466053
 30
0
 11
3.96
 21
3.641801948466053
 31
0
  0
LINE
  8
0
 62
7
 10
3.785
 20
3.254669914110089
 30
0
 11
3.96
 21
3.429669914110089
 31
0
  0
LINE
  8
0
 62
7
 10
0.9350000000000001
 20
5.177640687119284
 30
0
 11
1.127359312880722
 21
5.370000000000005
 31
0
  0
LINE
  8
0
 62
7
 10
1.099491347236685
 20
5.130000000000004
 30
0
 11
1.339491347236686
 21
5.370000000000005
 31
0
  0
LINE
  8
0
 62
7
 10
1.311623381592647
 20
5.130000000000003
 30
0
 11
1.55162338159265
 21
5.370000000000005
 31
0
  0
LINE
  8
0
 62
7
 10
1.1
 20
4.918376618407354
 30
0
 11
1.274999999999999
 21
5.093376618407353
 31
0
  0
LINE
  8
0
 62
7
 10
1.523755415948612
 20
5.130000000000003
 30
0
 11
1.763755415948614
 21
5.370000000000005
 31
0
  0
LINE
  8
0
 62
7
 10
1.1
 20
4.70624458405139
 30
0
 11
1.274999999999999
 21
4.881244584051389
 31
0
  0
LINE
  8
0
 62
7
 10
1.735887450304576
 20
5.130000000000003
 30
0
 11
1.975887450304579
 21
5.370000000000005
 31
0
  0
LINE
  8
0
 62
7
 10
1.1
 20
4.494112549695426
 30
0
 11
1.274999999999999
 21
4.669112549695425
 31
0
  0
LINE
  8
0
 62
7
 10
1.94801948466054
 20
5.130000000000003
 30
0
 11
2.188019484660543
 21
5.370000000000005
 31
0
  0
LINE
  8
0
 62
7
 10
1.1
 20
4.281980515339463
 30
0
 11
1.274999999999999
 21
4.456980515339461
 31
0
  0
LINE
  8
0
 62
7
 10
2.160151519016504
 20
5.130000000000003
 30
0
 11
2.400151519016507
 21
5.370000000000005
 31
0
  0
LINE
  8
0
 62
7
 10
1.1
 20
4.069848480983499
 30
0
 11
1.274999999999999
 21
4.244848480983498
 31
0
  0
LINE
  8
0
 62
7
 10
2.372283553372469
 20
5.130000000000003
 30
0
 11
2.612283553372472
 21
5.370000000000005
 31
0
  0
LINE
  8
0
 62
7
 10
1.1
 20
3.857716446627535
 30
0
 11
1.274999999999999
 21
4.032716446627534
 31
0
  0
LINE
  8
0
 62
7
 10
2.584415587728433
 20
5.130000000000003
 30
0
 11
2.824415587728436
 21
5.370000000000005
 31
0
  0
LINE
  8
0
 62
7
 10
1.1
 20
3.645584412271571
 30
0
 11
1.274999999999999
 21
3.82058441227157
 31
0
  0
LINE
  8
0
 62
7
 10
2.796547622084397
 20
5.130000000000003
 30
0
 11
3.0365476220844
 21
5.370000000000005
 31
0
  0
LINE
  8
0
 62
7
 10
1.1
 20
3.433452377915606
 30
0
 11
1.274999999999999
 21
3.608452377915606
 31
0
  0
LINE
  8
0
 62
7
 10
3.008679656440362
 20
5.130000000000003
 30
0
 11
3.248679656440364
 21
5.370000000000005
 31
0
  0
LINE
  8
0
 62
7
 10
1.22867965644036
 20
3.350000000000003
 30
0
 11
1.275
 21
3.396320343559642
 31
0
  0
LINE
  8
0
 62
7
 10
3.220811690796326
 20
5.130000000000003
 30
0
 11
3.460811690796329
 21
5.370000000000005
 31
0
  0
LINE
  8
0
 62
7
 10
3.43294372515229
 20
5.130000000000003
 30
0
 11
3.672943725152293
 21
5.370000000000005
 31
0
  0
LINE
  8
0
 62
7
 10
3.645075759508254
 20
5.130000000000003
 30
0
 11
3.885075759508257
 21
5.370000000000005
 31
0
  0
LINE
  8
0
 62
7
 10
3.785
 20
5.057792206135783
 30
0
 11
4.097207793864222
 21
5.370000000000005
 31
0
  0
LINE
  8
0
 62
7
 10
4.069339828220184
 20
5.130000000000004
 30
0
 11
4.11
 21
5.17066017177982
 31
0
  0
LINE
  8
0
 62
7
 10
3.785
 20
4.845660171779819
 30
0
 11
3.96
 21
5.020660171779818
 31
0
  0
LINE
  8
0
 62
7
 10
3.785
 20
4.633528137423855
 30
0
 11
3.96
 21
4.808528137423854
 31
0
  0
LINE
  8
0
 62
7
 10
3.785
 20
4.421396103067892
 30
0
 11
3.96
 21
4.596396103067891
 31
0
  0
LINE
  8
0
 62
7
 10
3.785
 20
4.209264068711928
 30
0
 11
3.96
 21
4.384264068711927
 31
0
  0
LINE
  8
0
 62
7
 10
3.785
 20
3.997132034355964
 30
0
 11
3.96
 21
4.172132034355963
 31
0
  0
LINE
  8
0
 62
7
 10
3.785
 20
3.784999999999999
 30
0
 11
3.96
 21
3.959999999999999
 31
0
  0
LINE
  8
0
 62
7
 10
3.785
 20
3.572867965644035
 30
0
 11
3.96
 21
3.747867965644035
 31
0
  0
LINE
  8
0
 62
7
 10
3.785
 20
3.360735931288071
 30
0
 11
3.96
 21
3.535735931288071
 31
0
  0
LINE
  8
0
 62
7
 10
3.886396103067896
 20
3.250000000000003
 30
0
 11
3.96
 21
3.323603896932106
 31
0
  0
ENDBLK
  8
0
  0
BLOCK
  8
0
  2
*D0
 70
1
 10
0
 20
0
 30
0
  0
LINE
  8
0
 62
7
 10
0.7060294293987401
 20
10.1433833946517
 30
0
 11
0.7060294293987401
 21
11.05
 31
0
  0
LINE
  8
0
 62
7
 10
0.7060294293987401
 20
8.299999999999997
 30
0
 11
0.7060294293987401
 21
9.0633833946517
 31
0
  0
LINE
  8
0
 62
7
 10
0.9500000000000002
 20
11.05
 30
0
 11
0.6560294293987401
 21
11.05
 31
0
  0
LINE
  8
0
 62
7
 10
0.9500000000000002
 20
8.299999999999997
 30
0
 11
0.6560294293987401
 21
8.299999999999997
 31
0
  0
LINE
  8
0
 62
7
 10
0.6706740903394127
 20
8.335355339059324
 30
0
 11
0.7413847684580676
 21
8.26464466094067
 31
0
  0
LINE
  8
0
 62
7
 10
0.7413847684580676
 20
11.01464466094067
 30
0
 11
0.6706740903394127
 21
11.08535533905933
 31
0
  0
TEXT
  8
0
 62
7
 10
0.6760294293987401
 20
9.465883394651701
 30
0
 40
0.1
  1
2,75
 50
90
 41
0.9
  0
TEXT
  8
0
 62
7
 10
0.8360294293987401
 20
9.263383394651701
 30
0
 40
0.1
  1
(260-280)
 50
90
 41
0.9
  0
ENDBLK
  8
0
  0
BLOCK
  8
0
  2
*D1
 70
1
 10
0
 20
0
 30
0
  0
LINE
  8
0
 62
7
 10
2.82096914324647
 20
11.4867439635497
 30
0
 11
3.785
 21
11.4867439635497
 31
0
  0
LINE
  8
0
 62
7
 10
1.275
 20
11.4867439635497
 30
0
 11
2.17596914324647
 21
11.4867439635497
 31
0
  0
LINE
  8
0
 62
7
 10
3.785
 20
11.2
 30
0
 11
3.785
 21
11.5367439635497
 31
0
  0
LINE
  8
0
 62
7
 10
1.275
 20
11.2
 30
0
 11
1.275
 21
11.5367439635497
 31
0
  0
LINE
  8
0
 62
7
 10
1.310355339059327
 20
11.52209930260903
 30
0
 11
1.239644660940673
 21
11.45138862449037
 31
0
  0
LINE
  8
0
 62
7
 10
3.749644660940673
 20
11.45138862449037
 30
0
 11
3.820355339059327
 21
11.52209930260903
 31
0
  0
TEXT
  8
0
 62
7
 10
2.37596914324647
 20
11.4417439635497
 30
0
 40
0.1
  1
2,51
 41
0.9
  0
ENDBLK
  8
0
  0
BLOCK
  8
0
  2
*D2
 70
1
 10
0
 20
0
 30
0
  0
LINE
  8
0
 62
7
 10
4.30389755067281
 20
4.650519027422931
 30
0
 11
4.30389755067281
 21
5.130000000000004
 31
0
  0
LINE
  8
0
 62
7
 10
4.30389755067281
 20
3.250000000000003
 30
0
 11
4.30389755067281
 21
3.90551902742293
 31
0
  0
LINE
  8
0
 62
7
 10
3.96
 20
5.130000000000004
 30
0
 11
4.353897550672809
 21
5.130000000000004
 31
0
  0
LINE
  8
0
 62
7
 10
3.96
 20
3.250000000000003
 30
0
 11
4.353897550672809
 21
3.250000000000003
 31
0
  0
LINE
  8
0
 62
7
 10
4.268542211613482
 20
3.28535533905933
 30
0
 11
4.339252889732137
 21
3.214644660940676
 31
0
  0
LINE
  8
0
 62
7
 10
4.339252889732137
 20
5.094644660940677
 30
0
 11
4.268542211613482
 21
5.165355339059332
 31
0
  0
TEXT
  8
0
 62
7
 10
4.34889755067281
 20
4.155519027422931
 30
0
 40
0.1
  1
1,88
 50
90
 41
0.9
  0
ENDBLK
  8
0
  0
BLOCK
  8
0
  2
*D3
 70
1
 10
0
 20
0
 30
0
  0
LINE
  8
0
 62
7
 10
2.97487869187532
 20
5.953560499063201
 30
0
 11
3.785
 21
5.953560499063201
 31
0
  0
LINE
  8
0
 62
7
 10
1.275
 20
5.953560499063201
 30
0
 11
2.22987869187532
 21
5.953560499063201
 31
0
  0
LINE
  8
0
 62
7
 10
3.785
 20
5.649999999999997
 30
0
 11
3.785
 21
6.003560499063201
 31
0
  0
LINE
  8
0
 62
7
 10
1.275
 20
5.649999999999997
 30
0
 11
1.275
 21
6.003560499063201
 31
0
  0
LINE
  8
0
 62
7
 10
3.749644660940673
 20
5.918205160003874
 30
0
 11
3.820355339059327
 21
5.988915838122528
 31
0
  0
LINE
  8
0
 62
7
 10
1.310355339059327
 20
5.988915838122528
 30
0
 11
1.239644660940673
 21
5.918205160003874
 31
0
  0
TEXT
  8
0
 62
7
 10
2.47987869187532
 20
5.908560499063201
 30
0
 40
0.1
  1
2,51
 41
0.9
  0
ENDBLK
  8
0
  0
BLOCK
  8
0
  2
*D4
 70
1
 10
0
 20
0
 30
0
  0
LINE
  8
0
 62
7
 10
0.796950284448987
 20
4.611552946687111
 30
0
 11
0.796950284448987
 21
5.130000000000004
 31
0
  0
LINE
  8
0
 62
7
 10
0.796950284448987
 20
3.350000000000003
 30
0
 11
0.796950284448987
 21
3.86655294668711
 31
0
  0
LINE
  8
0
 62
7
 10
1.1
 20
5.130000000000004
 30
0
 11
0.7469502844489869
 21
5.130000000000004
 31
0
  0
LINE
  8
0
 62
7
 10
1.1
 20
3.350000000000003
 30
0
 11
0.7469502844489869
 21
3.350000000000003
 31
0
  0
LINE
  8
0
 62
7
 10
0.8323056235083144
 20
5.094644660940677
 30
0
 11
0.7615949453896596
 21
5.165355339059332
 31
0
  0
LINE
  8
0
 62
7
 10
0.7615949453896596
 20
3.38535533905933
 30
0
 11
0.8323056235083144
 21
3.314644660940675
 31
0
  0
TEXT
  8
0
 62
7
 10
0.841950284448987
 20
4.11655294668711
 30
0
 40
0.1
  1
1,78
 50
90
 41
0.9
  0
ENDBLK
  8
0
  0
ENDSEC
  0
SECTION
  2
ENTITIES
  0
INSERT
  8
0
  2
*X0
 10
0
 20
0
 30
0
  0
INSERT
  8
0
  2
*X1
 10
0
 20
0
 30
0
  0
INSERT
  8
0
  2
*X2
 10
0
 20
0
 30
0
  0
INSERT
  8
0
  2
*X3
 10
0
 20
0
 30
0
  0
INSERT
  8
0
  2
*X4
 10
0
 20
0
 30
0
  0
INSERT
  8
0
  2
*X5
 10
0
 20
0
 30
0
  0
INSERT
  8
0
  2
*X6
 10
0
 20
0
 30
0
  0
INSERT
  8
0
  2
*X7
 10
0
 20
0
 30
0
  0
INSERT
  8
0
  2
*X8
 10
0
 20
0
 30
0
  0
INSERT
  8
0
  2
*X9
 10
0
 20
0
 30
0
  0
INSERT
  8
0
  2
*X10
 10
0
 20
0
 30
0
  0
INSERT
  8
0
  2
*X11
 10
0
 20
0
 30
0
  0
INSERT
  8
0
  2
*X12
 10
0
 20
0
 30
0
  0
INSERT
  8
0
  2
*X13
 10
0
 20
0
 30
0
  0
INSERT
  8
0
  2
*X14
 10
0
 20
0
 30
0
  0
INSERT
  8
0
  2
*X15
 10
0
 20
0
 30
0
  0
INSERT
  8
0
  2
*X16
 10
0
 20
0
 30
0
  0
LINE
  8
0
 62
7
 10
6.49885742
 20
8.583333333333329
 30
0
 11
6.49885742
 21
8.518333333333329
 31
0
  0
LINE
  8
0
 62
7
 10
6.079999960000002
 20
8.518333333333329
 30
0
 11
6.079999960000002
 21
8.583333333333329
 31
0
  0
LINE
  8
0
 62
7
 10
6.49885742
 20
8.518333333333329
 30
0
 11
6.079999960000002
 21
8.518333333333329
 31
0
  0
LINE
  8
0
 62
7
 10
6.079999960000002
 20
8.583333333333329
 30
0
 11
6.49885742
 21
8.583333333333329
 31
0
  0
LINE
  8
0
 62
7
 10
6.858569329999999
 20
8.766666666666664
 30
0
 11
6.858569329999999
 21
8.701666666666663
 31
0
  0
LINE
  8
0
 62
7
 10
6.23909362
 20
8.701666666666663
 30
0
 11
6.23909362
 21
8.766666666666664
 31
0
  0
LINE
  8
0
 62
7
 10
6.23909362
 20
8.766666666666664
 30
0
 11
6.858569329999999
 21
8.766666666666664
 31
0
  0
LINE
  8
0
 62
7
 10
6.858569329999999
 20
8.701666666666663
 30
0
 11
6.23909362
 21
8.701666666666663
 31
0
  0
LINE
  8
0
 62
7
 10
7.223616939999999
 20
8.949999999999998
 30
0
 11
7.223616939999999
 21
8.884999999999996
 31
0
  0
LINE
  8
0
 62
7
 10
6.358252060000001
 20
8.884999999999996
 30
0
 11
6.358252060000001
 21
8.949999999999998
 31
0
  0
LINE
  8
0
 62
7
 10
6.358252060000001
 20
8.949999999999998
 30
0
 11
7.223616939999999
 21
8.949999999999998
 31
0
  0
LINE
  8
0
 62
7
 10
7.223616939999999
 20
8.884999999999996
 30
0
 11
6.358252060000001
 21
8.884999999999996
 31
0
  0
LINE
  8
0
 62
7
 10
7.683017569999997
 20
9.133333333333329
 30
0
 11
7.683017569999997
 21
9.068333333333326
 31
0
  0
LINE
  8
0
 62
7
 10
6.475301509999999
 20
9.068333333333326
 30
0
 11
6.475301509999999
 21
9.133333333333329
 31
0
  0
LINE
  8
0
 62
7
 10
6.475301509999999
 20
9.133333333333329
 30
0
 11
7.683017569999997
 21
9.133333333333329
 31
0
  0
LINE
  8
0
 62
7
 10
7.683017569999997
 20
9.068333333333326
 30
0
 11
6.475301509999999
 21
9.068333333333326
 31
0
  0
LINE
  8
0
 62
7
 10
7.905
 20
9.316666666666663
 30
0
 11
7.905
 21
9.251666666666663
 31
0
  0
LINE
  8
0
 62
7
 10
6.58233108
 20
9.251666666666663
 30
0
 11
6.58233108
 21
9.316666666666663
 31
0
  0
LINE
  8
0
 62
7
 10
6.58233108
 20
9.316666666666663
 30
0
 11
7.905
 21
9.316666666666663
 31
0
  0
LINE
  8
0
 62
7
 10
7.905
 20
9.251666666666663
 30
0
 11
6.58233108
 21
9.251666666666663
 31
0
  0
LINE
  8
0
 62
7
 10
7.905000150000001
 20
9.499999999999998
 30
0
 11
7.905000150000001
 21
9.434999999999997
 31
0
  0
LINE
  8
0
 62
7
 10
6.758103790000002
 20
9.434999999999997
 30
0
 11
6.758103790000002
 21
9.499999999999998
 31
0
  0
LINE
  8
0
 62
7
 10
7.905000150000001
 20
9.434999999999997
 30
0
 11
6.758103790000002
 21
9.434999999999997
 31
0
  0
LINE
  8
0
 62
7
 10
6.758103790000002
 20
9.499999999999998
 30
0
 11
7.905000150000001
 21
9.499999999999998
 31
0
  0
LINE
  8
0
 62
7
 10
7.905000150000001
 20
9.618333333333332
 30
0
 11
6.844999840000002
 21
9.618333333333329
 31
0
  0
LINE
  8
0
 62
7
 10
7.905000150000001
 20
9.68333333333333
 30
0
 11
7.905000150000001
 21
9.618333333333332
 31
0
  0
LINE
  8
0
 62
7
 10
6.844999840000002
 20
9.618333333333329
 30
0
 11
6.844999840000002
 21
9.68333333333333
 31
0
  0
LINE
  8
0
 62
7
 10
6.844999840000002
 20
9.68333333333333
 30
0
 11
7.905000150000001
 21
9.68333333333333
 31
0
  0
LINE
  8
0
 62
7
 10
7.905
 20
9.801666666666662
 30
0
 11
6.84499977
 21
9.801666666666662
 31
0
  0
LINE
  8
0
 62
7
 10
7.905
 20
9.866666666666664
 30
0
 11
7.905
 21
9.801666666666662
 31
0
  0
LINE
  8
0
 62
7
 10
6.84499977
 20
9.801666666666662
 30
0
 11
6.84499977
 21
9.866666666666664
 31
0
  0
LINE
  8
0
 62
7
 10
6.84499977
 20
9.866666666666664
 30
0
 11
7.905
 21
9.866666666666664
 31
0
  0
LINE
  8
0
 62
7
 10
7.905000150000001
 20
10.05
 30
0
 11
7.905000150000001
 21
9.984999999999998
 31
0
  0
LINE
  8
0
 62
7
 10
6.703418189999998
 20
9.984999999999998
 30
0
 11
6.703418189999998
 21
10.05
 31
0
  0
LINE
  8
0
 62
7
 10
7.905000150000001
 20
9.984999999999998
 30
0
 11
6.703418189999998
 21
9.984999999999998
 31
0
  0
LINE
  8
0
 62
7
 10
6.703418189999998
 20
10.05
 30
0
 11
7.905000150000001
 21
10.05
 31
0
  0
LINE
  8
0
 62
7
 10
7.905
 20
10.23333333333333
 30
0
 11
7.905
 21
10.16833333333333
 31
0
  0
LINE
  8
0
 62
7
 10
6.547049939999997
 20
10.16833333333333
 30
0
 11
6.547049939999997
 21
10.23333333333333
 31
0
  0
LINE
  8
0
 62
7
 10
6.547049939999997
 20
10.23333333333333
 30
0
 11
7.905
 21
10.23333333333333
 31
0
  0
LINE
  8
0
 62
7
 10
7.905
 20
10.16833333333333
 30
0
 11
6.547049939999997
 21
10.16833333333333
 31
0
  0
LINE
  8
0
 62
7
 10
7.877924650000002
 20
10.41666666666666
 30
0
 11
7.877924650000002
 21
10.35166666666666
 31
0
  0
LINE
  8
0
 62
7
 10
6.462182309999998
 20
10.35166666666666
 30
0
 11
6.462182309999998
 21
10.41666666666666
 31
0
  0
LINE
  8
0
 62
7
 10
6.462182309999998
 20
10.41666666666666
 30
0
 11
7.877924650000002
 21
10.41666666666666
 31
0
  0
LINE
  8
0
 62
7
 10
7.877924650000002
 20
10.35166666666666
 30
0
 11
6.462182309999998
 21
10.35166666666666
 31
0
  0
LINE
  8
0
 62
7
 10
7.328269040000001
 20
10.6
 30
0
 11
7.328269040000001
 21
10.535
 31
0
  0
LINE
  8
0
 62
7
 10
6.360005870000002
 20
10.535
 30
0
 11
6.360005870000002
 21
10.6
 31
0
  0
LINE
  8
0
 62
7
 10
6.360005870000002
 20
10.6
 30
0
 11
7.328269040000001
 21
10.6
 31
0
  0
LINE
  8
0
 62
7
 10
7.328269040000001
 20
10.535
 30
0
 11
6.360005870000002
 21
10.535
 31
0
  0
LINE
  8
0
 62
7
 10
6.94600997
 20
10.78333333333333
 30
0
 11
6.94600997
 21
10.71833333333333
 31
0
  0
LINE
  8
0
 62
7
 10
6.254091530000002
 20
10.71833333333333
 30
0
 11
6.254091530000002
 21
10.78333333333333
 31
0
  0
LINE
  8
0
 62
7
 10
6.254091530000002
 20
10.78333333333333
 30
0
 11
6.94600997
 21
10.78333333333333
 31
0
  0
LINE
  8
0
 62
7
 10
6.94600997
 20
10.71833333333333
 30
0
 11
6.254091530000002
 21
10.71833333333333
 31
0
  0
LINE
  8
0
 62
7
 10
6.587123480000002
 20
10.96666666666666
 30
0
 11
6.587123480000002
 21
10.90166666666666
 31
0
  0
LINE
  8
0
 62
7
 10
6.209999690000001
 20
10.90166666666666
 30
0
 11
6.209999690000001
 21
10.96666666666666
 31
0
  0
LINE
  8
0
 62
7
 10
6.587123480000002
 20
10.90166666666666
 30
0
 11
6.209999690000001
 21
10.90166666666666
 31
0
  0
LINE
  8
0
 62
7
 10
6.209999690000001
 20
10.96666666666666
 30
0
 11
6.587123480000002
 21
10.96666666666666
 31
0
  0
LINE
  8
0
 62
7
 10
3.730002909999999
 20
8.518333333333329
 30
0
 11
2.670000379999998
 21
8.518333333333329
 31
0
  0
LINE
  8
0
 62
7
 10
2.670000379999998
 20
8.518333333333329
 30
0
 11
2.670000379999998
 21
8.583333333333329
 31
0
  0
LINE
  8
0
 62
7
 10
3.730002909999999
 20
8.583333333333329
 30
0
 11
3.730002909999999
 21
8.518333333333329
 31
0
  0
LINE
  8
0
 62
7
 10
2.670000379999998
 20
8.583333333333329
 30
0
 11
3.730002909999999
 21
8.583333333333329
 31
0
  0
LINE
  8
0
 62
7
 10
3.730001250000001
 20
8.701666666666663
 30
0
 11
2.670000229999999
 21
8.701666666666663
 31
0
  0
LINE
  8
0
 62
7
 10
2.670000229999999
 20
8.701666666666663
 30
0
 11
2.670000229999999
 21
8.766666666666664
 31
0
  0
LINE
  8
0
 62
7
 10
3.730001250000001
 20
8.766666666666664
 30
0
 11
3.730001250000001
 21
8.701666666666663
 31
0
  0
LINE
  8
0
 62
7
 10
2.670000229999999
 20
8.766666666666664
 30
0
 11
3.730001250000001
 21
8.766666666666664
 31
0
  0
LINE
  8
0
 62
7
 10
3.730000350000003
 20
8.884999999999996
 30
0
 11
2.67000015
 21
8.884999999999996
 31
0
  0
LINE
  8
0
 62
7
 10
2.67000015
 20
8.884999999999996
 30
0
 11
2.67000015
 21
8.949999999999998
 31
0
  0
LINE
  8
0
 62
7
 10
3.730000350000003
 20
8.949999999999998
 30
0
 11
3.730000350000003
 21
8.884999999999996
 31
0
  0
LINE
  8
0
 62
7
 10
2.67000015
 20
8.949999999999998
 30
0
 11
3.730000350000003
 21
8.949999999999998
 31
0
  0
LINE
  8
0
 62
7
 10
3.730000379999998
 20
9.068333333333326
 30
0
 11
2.67
 21
9.068333333333326
 31
0
  0
LINE
  8
0
 62
7
 10
2.67
 20
9.068333333333326
 30
0
 11
2.67
 21
9.133333333333328
 31
0
  0
LINE
  8
0
 62
7
 10
3.730000379999998
 20
9.133333333333328
 30
0
 11
3.730000379999998
 21
9.068333333333326
 31
0
  0
LINE
  8
0
 62
7
 10
2.67
 20
9.133333333333328
 30
0
 11
3.730000379999998
 21
9.133333333333328
 31
0
  0
LINE
  8
0
 62
7
 10
2.669999920000002
 20
9.25166666666666
 30
0
 11
2.669999920000002
 21
9.316666666666663
 31
0
  0
LINE
  8
0
 62
7
 10
3.730000219999998
 20
9.316666666666663
 30
0
 11
3.730000219999998
 21
9.25166666666666
 31
0
  0
LINE
  8
0
 62
7
 10
3.730000219999998
 20
9.25166666666666
 30
0
 11
2.669999920000002
 21
9.25166666666666
 31
0
  0
LINE
  8
0
 62
7
 10
2.669999920000002
 20
9.316666666666663
 30
0
 11
3.730000219999998
 21
9.316666666666663
 31
0
  0
LINE
  8
0
 62
7
 10
2.578097689999999
 20
9.434999999999997
 30
0
 11
2.578097689999999
 21
9.499999999999998
 31
0
  0
LINE
  8
0
 62
7
 10
3.454867060000001
 20
9.499999999999998
 30
0
 11
3.454867060000001
 21
9.434999999999997
 31
0
  0
LINE
  8
0
 62
7
 10
2.578097689999999
 20
9.499999999999998
 30
0
 11
3.454867060000001
 21
9.499999999999998
 31
0
  0
LINE
  8
0
 62
7
 10
3.454867060000001
 20
9.434999999999997
 30
0
 11
2.578097689999999
 21
9.434999999999997
 31
0
  0
LINE
  8
0
 62
7
 10
2.46626831
 20
9.618333333333329
 30
0
 11
2.46626831
 21
9.68333333333333
 31
0
  0
LINE
  8
0
 62
7
 10
3.013826369999999
 20
9.68333333333333
 30
0
 11
3.013826369999999
 21
9.618333333333329
 31
0
  0
LINE
  8
0
 62
7
 10
2.46626831
 20
9.68333333333333
 30
0
 11
3.013826369999999
 21
9.68333333333333
 31
0
  0
LINE
  8
0
 62
7
 10
3.013826369999999
 20
9.618333333333329
 30
0
 11
2.46626831
 21
9.618333333333329
 31
0
  0
LINE
  8
0
 62
7
 10
2.181845549999998
 20
9.801666666666662
 30
0
 11
2.181845549999998
 21
9.866666666666664
 31
0
  0
LINE
  8
0
 62
7
 10
2.637615739999998
 20
9.866666666666664
 30
0
 11
2.637615739999998
 21
9.801666666666662
 31
0
  0
LINE
  8
0
 62
7
 10
2.181845549999998
 20
9.866666666666664
 30
0
 11
2.637615739999998
 21
9.866666666666664
 31
0
  0
LINE
  8
0
 62
7
 10
2.637615739999998
 20
9.801666666666662
 30
0
 11
2.181845549999998
 21
9.801666666666662
 31
0
  0
LINE
  8
0
 62
7
 10
1.760982509999998
 20
9.984999999999998
 30
0
 11
1.760982509999998
 21
10.05
 31
0
  0
LINE
  8
0
 62
7
 10
2.447165219999999
 20
10.05
 30
0
 11
2.447165219999999
 21
9.984999999999998
 31
0
  0
LINE
  8
0
 62
7
 10
1.760982509999998
 20
10.05
 30
0
 11
2.447165219999999
 21
10.05
 31
0
  0
LINE
  8
0
 62
7
 10
2.447165219999999
 20
9.984999999999998
 30
0
 11
1.760982509999998
 21
9.984999999999998
 31
0
  0
LINE
  8
0
 62
7
 10
1.33
 20
10.16833333333333
 30
0
 11
1.33
 21
10.23333333333333
 31
0
  0
LINE
  8
0
 62
7
 10
2.39000015
 20
10.23333333333333
 30
0
 11
2.39000015
 21
10.16833333333333
 31
0
  0
LINE
  8
0
 62
7
 10
2.39000015
 20
10.16833333333333
 30
0
 11
1.33
 21
10.16833333333333
 31
0
  0
LINE
  8
0
 62
7
 10
1.33
 20
10.23333333333333
 30
0
 11
2.39000015
 21
10.23333333333333
 31
0
  0
LINE
  8
0
 62
7
 10
2.39
 20
10.35166666666666
 30
0
 11
1.33
 21
10.35166666666666
 31
0
  0
LINE
  8
0
 62
7
 10
1.33
 20
10.35166666666666
 30
0
 11
1.33
 21
10.41666666666666
 31
0
  0
LINE
  8
0
 62
7
 10
2.39
 20
10.41666666666666
 30
0
 11
2.39
 21
10.35166666666666
 31
0
  0
LINE
  8
0
 62
7
 10
1.33
 20
10.41666666666666
 30
0
 11
2.39
 21
10.41666666666666
 31
0
  0
LINE
  8
0
 62
7
 10
2.39000031
 20
10.535
 30
0
 11
1.33000015
 21
10.535
 31
0
  0
LINE
  8
0
 62
7
 10
1.33000015
 20
10.535
 30
0
 11
1.33000015
 21
10.6
 31
0
  0
LINE
  8
0
 62
7
 10
2.39000031
 20
10.6
 30
0
 11
2.39000031
 21
10.535
 31
0
  0
LINE
  8
0
 62
7
 10
1.33000015
 20
10.6
 30
0
 11
2.39000031
 21
10.6
 31
0
  0
LINE
  8
0
 62
7
 10
2.39000015
 20
10.71833333333333
 30
0
 11
1.33000015
 21
10.71833333333333
 31
0
  0
LINE
  8
0
 62
7
 10
1.33000015
 20
10.71833333333333
 30
0
 11
1.33000015
 21
10.78333333333333
 31
0
  0
LINE
  8
0
 62
7
 10
2.39000015
 20
10.78333333333333
 30
0
 11
2.39000015
 21
10.71833333333333
 31
0
  0
LINE
  8
0
 62
7
 10
1.33000015
 20
10.78333333333333
 30
0
 11
2.39000015
 21
10.78333333333333
 31
0
  0
LINE
  8
0
 62
7
  6
DASHED
 10
2.39000015
 20
10.90166666666666
 30
0
 11
1.33
 21
10.90166666666666
 31
0
  0
LINE
  8
0
 62
7
  6
DASHED
 10
1.33
 20
10.90166666666666
 30
0
 11
1.33
 21
10.96666666666666
 31
0
  0
LINE
  8
0
 62
7
  6
DASHED
 10
2.39000015
 20
10.96666666666666
 30
0
 11
2.39000015
 21
10.90166666666666
 31
0
  0
LINE
  8
0
 62
7
  6
DASHED
 10
1.33
 20
10.96666666666666
 30
0
 11
2.39000015
 21
10.96666666666666
 31
0
  0
LINE
  8
0
 62
7
 10
1.755714096065978
 20
3.400000000000003
 30
0
 11
1.755714096065978
 21
4.015000296625665
 31
0
  0
LINE
  8
0
 62
7
 10
1.755714096065978
 20
3.400000000000003
 30
0
 11
1.65005899680427
 21
3.461000000000004
 31
0
  0
LINE
  8
0
 62
7
 10
1.65005899680427
 20
3.461000000000004
 30
0
 11
1.861369195327679
 21
3.461000000000004
 31
0
  0
LINE
  8
0
 62
7
 10
1.861369195327679
 20
3.461000000000004
 30
0
 11
1.755714096065978
 21
3.400000000000003
 31
0
  0
LINE
  8
0
 62
7
 10
2.389999703349091
 20
4.649285903934024
 30
0
 11
2.670000296625571
 21
4.649285903934024
 31
0
  0
LINE
  8
0
 62
7
 10
3.304285903934019
 20
4.015000296679794
 30
0
 11
3.304285903934019
 21
3.250000000000003
 31
0
  0
LINE
  8
0
 62
7
 10
3.73
 20
3.250000000000003
 30
0
 11
3.73
 21
3.668857249282594
 31
0
  0
LINE
  8
0
 62
7
 10
2.67
 20
3.500225278097263
 30
0
 11
2.67
 21
3.250000000000003
 31
0
  0
LINE
  8
0
 62
7
 10
2.67
 20
3.250000000000003
 30
0
 11
3.73
 21
3.250000000000003
 31
0
  0
LINE
  8
0
 62
7
 10
3.73
 20
3.577725478472633
 30
0
 11
3.73
 21
4.028569349454904
 31
0
  0
LINE
  8
0
 62
7
 10
2.67
 20
3.624567395772493
 30
0
 11
2.67
 21
3.409093507287305
 31
0
  0
LINE
  8
0
 62
7
 10
2.67
 20
3.409093507287305
 30
0
 11
3.73
 21
3.577725478472633
 31
0
  0
LINE
  8
0
 62
7
 10
3.73
 20
3.932254081623404
 30
0
 11
3.73
 21
4.393616596488275
 31
0
  0
LINE
  8
0
 62
7
 10
2.67
 20
3.750567782358374
 30
0
 11
2.67
 21
3.528252127940983
 31
0
  0
LINE
  8
0
 62
7
 10
2.67
 20
3.528252127940983
 30
0
 11
3.73
 21
3.932254081623404
 31
0
  0
LINE
  8
0
 62
7
 10
3.73
 20
4.288350293812794
 30
0
 11
3.73
 21
4.853017698091953
 31
0
  0
LINE
  8
0
 62
7
 10
2.67
 20
3.752331227779233
 30
0
 11
2.67
 21
3.645301479682893
 31
0
  0
LINE
  8
0
 62
7
 10
2.67
 20
3.645301479682893
 30
0
 11
3.73
 21
4.288350293812794
 31
0
  0
LINE
  8
0
 62
7
 10
3.73
 20
4.730549947128146
 30
0
 11
3.73
 21
5.075000000000003
 31
0
  0
LINE
  8
0
 62
7
 10
3.73
 20
5.075000000000003
 30
0
 11
3.348690310485508
 21
5.075000000000003
 31
0
  0
LINE
  8
0
 62
7
 10
2.67
 20
3.752331227779233
 30
0
 11
3.73
 21
4.730549947128146
 31
0
  0
LINE
  8
0
 62
7
 10
3.454866820630601
 20
5.075000000000003
 30
0
 11
2.91904262955099
 21
5.075000000000003
 31
0
  0
LINE
  8
0
 62
7
 10
2.669999999999989
 20
3.976505596602795
 30
0
 11
2.736993753107731
 21
3.928103439819363
 31
0
  0
LINE
  8
0
 62
7
 10
2.736993753107731
 20
3.928103439819363
 30
0
 11
3.454866820630601
 21
5.075000000000003
 31
0
  0
LINE
  8
0
 62
7
 10
3.013826174201699
 20
5.075000000000003
 30
0
 11
2.547352556691
 21
5.075000000000003
 31
0
  0
LINE
  8
0
 62
7
 10
2.6167196354749
 20
4.015000000000005
 30
0
 11
2.66366344480907
 21
4.015000000000003
 31
0
  0
LINE
  8
0
 62
7
 10
2.66366344480907
 20
4.015000000000003
 30
0
 11
3.013826174201699
 21
5.075000000000003
 31
0
  0
LINE
  8
0
 62
7
 10
2.637615486519768
 20
5.075000000000003
 30
0
 11
2.181845300821209
 21
5.075000000000003
 31
0
  0
LINE
  8
0
 62
7
 10
2.556531237671759
 20
4.015000000000003
 30
0
 11
2.637615486519768
 21
5.075000000000003
 31
0
  0
LINE
  8
0
 62
7
 10
2.2731119638036
 20
5.075000000000003
 30
0
 11
1.7609821250803
 21
5.075000000000003
 31
0
  0
LINE
  8
0
 62
7
 10
2.428340475533511
 20
4.015000000000005
 30
0
 11
2.447164792093499
 21
4.041205814851364
 31
0
  0
LINE
  8
0
 62
7
 10
2.447164792093499
 20
4.041205814851364
 30
0
 11
2.2731119638036
 21
5.075000000000003
 31
0
  0
LINE
  8
0
 62
7
 10
1.86045613806578
 20
5.075000000000003
 30
0
 11
1.33
 21
5.075000000000003
 31
0
  0
LINE
  8
0
 62
7
 10
1.33
 20
5.075000000000003
 30
0
 11
1.33
 21
4.912283062100995
 31
0
  0
LINE
  8
0
 62
7
 10
2.39
 20
3.717050133428424
 30
0
 11
2.39
 21
3.950129225820953
 31
0
  0
LINE
  8
0
 62
7
 10
2.386730698672749
 20
3.957073960297854
 30
0
 11
1.86045613806578
 21
5.075000000000003
 31
0
  0
LINE
  8
0
 62
7
 10
1.33
 20
5.047924518406223
 30
0
 11
1.33
 21
4.387745220174394
 31
0
  0
LINE
  8
0
 62
7
 10
2.39
 20
3.632182145816794
 30
0
 11
2.39
 21
3.852691589733654
 31
0
  0
LINE
  8
0
 62
7
 10
2.39
 20
3.852691589733654
 30
0
 11
1.33
 21
5.047924518406223
 31
0
  0
LINE
  8
0
 62
7
 10
1.33
 20
4.498268635998953
 30
0
 11
1.33
 21
4.016967168821143
 31
0
  0
LINE
  8
0
 62
7
 10
2.39
 20
3.530005569100704
 30
0
 11
2.39
 21
3.742705561641352
 31
0
  0
LINE
  8
0
 62
7
 10
2.39
 20
3.742705561641352
 30
0
 11
1.33
 21
4.498268635998953
 31
0
  0
LINE
  8
0
 62
7
 10
1.33
 20
4.116009961914004
 30
0
 11
1.33
 21
3.664830936552383
 31
0
  0
LINE
  8
0
 62
7
 10
2.39
 20
3.424091699907364
 30
0
 11
2.39
 21
3.629048362193554
 31
0
  0
LINE
  8
0
 62
7
 10
2.39
 20
3.629048362193554
 30
0
 11
1.33
 21
4.116009961914004
 31
0
  0
LINE
  8
0
 62
7
 10
1.33
 20
3.757122857453735
 30
0
 11
1.33
 21
3.380000000000003
 31
0
  0
LINE
  8
0
 62
7
 10
2.39
 20
3.380000000000003
 30
0
 11
2.39
 21
3.516383620808713
 31
0
  0
LINE
  8
0
 62
7
 10
2.39
 20
3.516383620808713
 30
0
 11
1.33
 21
3.757122857453735
 31
0
  0
LINE
  8
0
 62
7
 10
2.669999999999989
 20
3.976505596602795
 30
0
 11
2.67
 21
3.752331227779233
 31
0
  0
LINE
  8
0
 62
7
 10
2.67
 20
3.874798978743044
 30
0
 11
2.67
 21
3.752331227779233
 31
0
  0
LINE
  8
0
 62
7
 10
2.6167196354749
 20
4.015000000000005
 30
0
 11
2.669999999999989
 21
3.976505596602795
 31
0
  0
LINE
  8
0
 62
7
 10
2.556531237671759
 20
4.015000000000003
 30
0
 11
2.6167196354749
 21
4.015000000000005
 31
0
  0
LINE
  8
0
 62
7
 10
2.428340475533511
 20
4.015000000000005
 30
0
 11
2.556531237671759
 21
4.015000000000003
 31
0
  0
LINE
  8
0
 62
7
 10
2.466268307842999
 20
4.015000000000003
 30
0
 11
2.556531237671759
 21
4.015000000000003
 31
0
  0
LINE
  8
0
 62
7
 10
2.386730698672749
 20
3.957073960297854
 30
0
 11
2.428340475533511
 21
4.015000000000005
 31
0
  0
LINE
  8
0
 62
7
 10
2.39
 20
3.950129225820953
 30
0
 11
2.386730698672749
 21
3.957073960297854
 31
0
  0
LINE
  8
0
 62
7
 10
0.9500000000000001
 20
8.099999999999996
 30
0
 11
1.1
 21
8.099999999999996
 31
0
  0
LINE
  8
0
 62
7
 10
0.9500000000000001
 20
8.299999999999997
 30
0
 11
1.1
 21
8.299999999999997
 31
0
  0
LINE
  8
0
 62
7
 10
0.9500000000000001
 20
10.85
 30
0
 11
1.1
 21
10.85
 31
0
  0
LINE
  8
0
 62
7
 10
0.9500000000000001
 20
11.05
 30
0
 11
1.1
 21
11.05
 31
0
  0
LINE
  8
0
 62
7
 10
1.1
 20
7.949999999999998
 30
0
 11
1.1
 21
8.099999999999996
 31
0
  0
LINE
  8
0
 62
7
 10
1.1
 20
8.099999999999996
 30
0
 11
1.275
 21
8.099999999999996
 31
0
  0
LINE
  8
0
 62
7
 10
1.1
 20
8.299999999999997
 30
0
 11
1.1
 21
8.399999999999997
 31
0
  0
LINE
  8
0
 62
7
 10
1.1
 20
8.299999999999997
 30
0
 11
1.275
 21
8.299999999999997
 31
0
  0
LINE
  8
0
 62
7
 10
1.1
 20
10.85
 30
0
 11
1.275
 21
10.85
 31
0
  0
LINE
  8
0
 62
7
 10
1.1
 20
11.05
 30
0
 11
1.1
 21
11.15
 31
0
  0
LINE
  8
0
 62
7
 10
1.1
 20
11.05
 30
0
 11
1.275
 21
11.05
 31
0
  0
LINE
  8
0
 62
7
 10
1.275
 20
7.949999999999998
 30
0
 11
1.275
 21
8.099999999999996
 31
0
  0
LINE
  8
0
 62
7
 10
1.275
 20
8.099999999999996
 30
0
 11
3.785
 21
8.099999999999996
 31
0
  0
LINE
  8
0
 62
7
 10
1.275
 20
8.299999999999997
 30
0
 11
1.275
 21
8.399999999999997
 31
0
  0
LINE
  8
0
 62
7
 10
1.275
 20
8.299999999999997
 30
0
 11
3.785
 21
8.299999999999997
 31
0
  0
LINE
  8
0
 62
7
 10
1.275
 20
10.85
 30
0
 11
3.785
 21
10.85
 31
0
  0
LINE
  8
0
 62
7
 10
1.275
 20
11.05
 30
0
 11
1.275
 21
11.15
 31
0
  0
LINE
  8
0
 62
7
 10
1.275
 20
11.05
 30
0
 11
3.785
 21
11.05
 31
0
  0
LINE
  8
0
 62
7
 10
3.785
 20
7.949999999999998
 30
0
 11
3.785
 21
8.099999999999996
 31
0
  0
LINE
  8
0
 62
7
 10
3.785
 20
8.099999999999996
 30
0
 11
3.96
 21
8.099999999999996
 31
0
  0
LINE
  8
0
 62
7
 10
3.785
 20
8.299999999999997
 30
0
 11
3.785
 21
8.399999999999997
 31
0
  0
LINE
  8
0
 62
7
 10
3.785
 20
8.299999999999997
 30
0
 11
3.96
 21
8.299999999999997
 31
0
  0
LINE
  8
0
 62
7
 10
3.785
 20
10.85
 30
0
 11
3.96
 21
10.85
 31
0
  0
LINE
  8
0
 62
7
 10
3.785
 20
11.05
 30
0
 11
3.785
 21
11.15
 31
0
  0
LINE
  8
0
 62
7
 10
3.785
 20
11.05
 30
0
 11
3.96
 21
11.05
 31
0
  0
LINE
  8
0
 62
7
 10
3.96
 20
7.949999999999998
 30
0
 11
3.96
 21
8.099999999999996
 31
0
  0
LINE
  8
0
 62
7
 10
3.96
 20
8.099999999999996
 30
0
 11
4.11
 21
8.099999999999996
 31
0
  0
LINE
  8
0
 62
7
 10
3.96
 20
8.299999999999997
 30
0
 11
3.96
 21
8.399999999999997
 31
0
  0
LINE
  8
0
 62
7
 10
3.96
 20
8.299999999999997
 30
0
 11
4.11
 21
8.299999999999997
 31
0
  0
LINE
  8
0
 62
7
 10
3.96
 20
10.85
 30
0
 11
4.11
 21
10.85
 31
0
  0
LINE
  8
0
 62
7
 10
3.96
 20
11.05
 30
0
 11
3.96
 21
11.15
 31
0
  0
LINE
  8
0
 62
7
 10
3.96
 20
11.05
 30
0
 11
4.11
 21
11.05
 31
0
  0
LINE
  8
0
 62
7
  6
DASHDOT
 10
0.9500000000000001
 20
8.049999999999995
 30
0
 11
0.9500000000000001
 21
8.099999999999996
 31
0
  0
LINE
  8
0
 62
7
  6
DASHDOT
 10
0.9500000000000001
 20
10.8
 30
0
 11
0.9500000000000001
 21
10.85
 31
0
  0
LINE
  8
0
 62
7
  6
DASHDOT
 10
4.11
 20
8.049999999999995
 30
0
 11
4.11
 21
8.099999999999996
 31
0
  0
LINE
  8
0
 62
7
  6
DASHDOT
 10
4.11
 20
10.8
 30
0
 11
4.11
 21
10.85
 31
0
  0
LINE
  8
0
 62
7
  6
DASHDOT
 10
1.05
 20
11.2
 30
0
 11
1.1
 21
11.2
 31
0
  0
LINE
  8
0
 62
7
  6
DASHDOT
 10
1.05
 20
7.949999999999998
 30
0
 11
1.1
 21
7.949999999999998
 31
0
  0
LINE
  8
0
 62
7
  6
DASHDOT
 10
3.735
 20
11.2
 30
0
 11
3.785
 21
11.2
 31
0
  0
LINE
  8
0
 62
7
  6
DASHDOT
 10
3.735
 20
7.949999999999998
 30
0
 11
3.785
 21
7.949999999999998
 31
0
  0
LINE
  8
0
 62
7
 10
0.9500000000000001
 20
8.399999999999997
 30
0
 11
1.1
 21
8.399999999999997
 31
0
  0
LINE
  8
0
 62
7
 10
1.1
 20
8.399999999999997
 30
0
 11
1.1
 21
10.85
 31
0
  0
LINE
  8
0
 62
7
  6
DASHDOT
 10
0.9500000000000001
 20
8.399999999999997
 30
0
 11
0.9500000000000001
 21
8.449999999999998
 31
0
  0
LINE
  8
0
 62
7
 10
1.275
 20
8.399999999999997
 30
0
 11
3.785
 21
8.399999999999997
 31
0
  0
LINE
  8
0
 62
7
 10
1.275
 20
8.399999999999997
 30
0
 11
1.275
 21
10.85
 31
0
  0
LINE
  8
0
 62
7
 10
3.785
 20
8.399999999999997
 30
0
 11
3.785
 21
10.85
 31
0
  0
LINE
  8
0
 62
7
 10
3.96
 20
8.399999999999997
 30
0
 11
4.11
 21
8.399999999999997
 31
0
  0
LINE
  8
0
 62
7
 10
3.96
 20
8.399999999999997
 30
0
 11
3.96
 21
10.85
 31
0
  0
LINE
  8
0
 62
7
  6
DASHDOT
 10
4.11
 20
8.399999999999997
 30
0
 11
4.11
 21
8.449999999999998
 31
0
  0
LINE
  8
0
 62
7
 10
0.9500000000000001
 20
11.15
 30
0
 11
1.1
 21
11.15
 31
0
  0
LINE
  8
0
 62
7
 10
1.1
 20
11.15
 30
0
 11
1.1
 21
11.2
 31
0
  0
LINE
  8
0
 62
7
  6
DASHDOT
 10
0.9500000000000001
 20
11.15
 30
0
 11
0.9500000000000001
 21
11.2
 31
0
  0
LINE
  8
0
 62
7
 10
1.275
 20
11.15
 30
0
 11
3.785
 21
11.15
 31
0
  0
LINE
  8
0
 62
7
 10
1.275
 20
11.15
 30
0
 11
1.275
 21
11.2
 31
0
  0
LINE
  8
0
 62
7
 10
3.785
 20
11.15
 30
0
 11
3.785
 21
11.2
 31
0
  0
LINE
  8
0
 62
7
 10
3.96
 20
11.15
 30
0
 11
4.11
 21
11.15
 31
0
  0
LINE
  8
0
 62
7
 10
3.96
 20
11.15
 30
0
 11
3.96
 21
11.2
 31
0
  0
LINE
  8
0
 62
7
  6
DASHDOT
 10
4.11
 20
11.15
 30
0
 11
4.11
 21
11.2
 31
0
  0
LINE
  8
0
 62
7
  6
DASHDOT
 10
4.11
 20
8.099999999999996
 30
0
 11
4.11
 21
8.299999999999997
 31
0
  0
LINE
  8
0
 62
7
  6
DASHDOT
 10
4.11
 20
8.299999999999997
 30
0
 11
4.11
 21
8.399999999999997
 31
0
  0
LINE
  8
0
 62
7
  6
DASHDOT
 10
3.785
 20
7.949999999999998
 30
0
 11
3.96
 21
7.949999999999998
 31
0
  0
LINE
  8
0
 62
7
  6
DASHDOT
 10
3.96
 20
7.949999999999998
 30
0
 11
4.010000000000001
 21
7.949999999999998
 31
0
  0
LINE
  8
0
 62
7
  6
DASHDOT
 10
0.9500000000000001
 20
8.099999999999996
 30
0
 11
0.9500000000000001
 21
8.299999999999997
 31
0
  0
LINE
  8
0
 62
7
  6
DASHDOT
 10
0.9500000000000001
 20
8.299999999999997
 30
0
 11
0.9500000000000001
 21
8.399999999999997
 31
0
  0
LINE
  8
0
 62
7
  6
DASHDOT
 10
1.1
 20
7.949999999999998
 30
0
 11
1.275
 21
7.949999999999998
 31
0
  0
LINE
  8
0
 62
7
  6
DASHDOT
 10
1.275
 20
7.949999999999998
 30
0
 11
1.325
 21
7.949999999999998
 31
0
  0
LINE
  8
0
 62
7
  6
DASHDOT
 10
0.9500000000000001
 20
10.85
 30
0
 11
0.9500000000000001
 21
11.05
 31
0
  0
LINE
  8
0
 62
7
  6
DASHDOT
 10
0.9500000000000001
 20
11.05
 30
0
 11
0.9500000000000001
 21
11.15
 31
0
  0
LINE
  8
0
 62
7
  6
DASHDOT
 10
1.1
 20
11.2
 30
0
 11
1.275
 21
11.2
 31
0
  0
LINE
  8
0
 62
7
  6
DASHDOT
 10
1.275
 20
11.2
 30
0
 11
1.325
 21
11.2
 31
0
  0
LINE
  8
0
 62
7
  6
DASHDOT
 10
4.11
 20
10.85
 30
0
 11
4.11
 21
11.05
 31
0
  0
LINE
  8
0
 62
7
  6
DASHDOT
 10
4.11
 20
11.05
 30
0
 11
4.11
 21
11.15
 31
0
  0
LINE
  8
0
 62
7
  6
DASHDOT
 10
3.785
 20
11.2
 30
0
 11
3.96
 21
11.2
 31
0
  0
LINE
  8
0
 62
7
  6
DASHDOT
 10
3.96
 20
11.2
 30
0
 11
4.010000000000001
 21
11.2
 31
0
  0
LINE
  8
0
 62
7
 10
8.200000000000001
 20
8.099999999999996
 30
0
 11
8.200000000000001
 21
7.949999999999998
 31
0
  0
LINE
  8
0
 62
7
 10
7.960000000000001
 20
11.05
 30
0
 11
7.960000000000001
 21
11.2
 31
0
  0
LINE
  8
0
 62
7
 10
7.960000000000001
 20
11.05
 30
0
 11
8.200000000000001
 21
11.05
 31
0
  0
LINE
  8
0
 62
7
 10
8.200000000000001
 20
11.2
 30
0
 11
8.200000000000001
 21
11.05
 31
0
  0
LINE
  8
0
 62
7
 10
7.960000000000001
 20
10.85
 30
0
 11
7.960000000000001
 21
11.05
 31
0
  0
LINE
  8
0
 62
7
 10
7.960000000000001
 20
10.85
 30
0
 11
8.200000000000001
 21
10.85
 31
0
  0
LINE
  8
0
 62
7
 10
8.200000000000001
 20
11.05
 30
0
 11
8.200000000000001
 21
10.85
 31
0
  0
LINE
  8
0
 62
7
 10
7.960000000000001
 20
8.299999999999997
 30
0
 11
7.960000000000001
 21
10.85
 31
0
  0
LINE
  8
0
 62
7
 10
7.960000000000001
 20
8.299999999999997
 30
0
 11
8.200000000000001
 21
8.299999999999997
 31
0
  0
LINE
  8
0
 62
7
 10
8.200000000000001
 20
10.85
 30
0
 11
8.200000000000001
 21
8.299999999999997
 31
0
  0
LINE
  8
0
 62
7
 10
7.960000000000001
 20
8.099999999999996
 30
0
 11
7.960000000000001
 21
8.299999999999997
 31
0
  0
LINE
  8
0
 62
7
 10
7.960000000000001
 20
8.099999999999996
 30
0
 11
8.200000000000001
 21
8.099999999999996
 31
0
  0
LINE
  8
0
 62
7
 10
8.200000000000001
 20
8.299999999999997
 30
0
 11
8.200000000000001
 21
8.099999999999996
 31
0
  0
LINE
  8
0
 62
7
 10
7.960000000000001
 20
7.949999999999998
 30
0
 11
7.960000000000001
 21
8.099999999999996
 31
0
  0
LINE
  8
0
 62
7
 10
6.180000000000001
 20
10.85
 30
0
 11
6.180000000000001
 21
11.05
 31
0
  0
LINE
  8
0
 62
7
 10
5.880000000000001
 20
10.85
 30
0
 11
6.180000000000001
 21
10.85
 31
0
  0
LINE
  8
0
 62
7
 10
5.880000000000001
 20
11.05
 30
0
 11
6.180000000000001
 21
11.05
 31
0
  0
LINE
  8
0
 62
7
 10
5.880000000000001
 20
8.299999999999997
 30
0
 11
6.180000000000001
 21
8.299999999999997
 31
0
  0
LINE
  8
0
 62
7
 10
6.180000000000001
 20
8.099999999999996
 30
0
 11
6.180000000000001
 21
8.299999999999997
 31
0
  0
LINE
  8
0
 62
7
 10
5.880000000000001
 20
8.099999999999996
 30
0
 11
6.180000000000001
 21
8.099999999999996
 31
0
  0
LINE
  8
0
 62
7
  6
DASHDOT
 10
8.200000000000001
 20
11.2
 30
0
 11
8.25
 21
11.2
 31
0
  0
LINE
  8
0
 62
7
  6
DASHDOT
 10
5.880000000000001
 20
11.15
 30
0
 11
5.880000000000001
 21
11.2
 31
0
  0
LINE
  8
0
 62
7
  6
DASHDOT
 10
5.880000000000001
 20
8.099999999999996
 30
0
 11
5.880000000000001
 21
8.049999999999995
 31
0
  0
LINE
  8
0
 62
7
  6
DASHDOT
 10
8.200000000000001
 20
7.949999999999998
 30
0
 11
8.25
 21
7.949999999999998
 31
0
  0
LINE
  8
0
 62
7
 10
5.880000000000001
 20
8.399999999999997
 30
0
 11
6.180000000000001
 21
8.399999999999997
 31
0
  0
LINE
  8
0
 62
7
  6
DASHDOT
 10
5.880000000000001
 20
8.449999999999998
 30
0
 11
5.880000000000001
 21
8.399999999999997
 31
0
  0
LINE
  8
0
 62
7
 10
5.880000000000001
 20
11.15
 30
0
 11
6.180000000000001
 21
11.15
 31
0
  0
LINE
  8
0
 62
7
  6
DASHDOT
 10
5.880000000000001
 20
11.05
 30
0
 11
5.880000000000001
 21
11.15
 31
0
  0
LINE
  8
0
 62
7
  6
DASHDOT
 10
5.880000000000001
 20
8.399999999999997
 30
0
 11
5.880000000000001
 21
8.299999999999997
 31
0
  0
LINE
  8
0
 62
7
  6
DASHDOT
 10
5.880000000000001
 20
8.299999999999997
 30
0
 11
5.880000000000001
 21
8.099999999999996
 31
0
  0
LINE
  8
0
 62
7
  6
DASHDOT
 10
7.960000000000001
 20
7.949999999999998
 30
0
 11
8.200000000000001
 21
7.949999999999998
 31
0
  0
LINE
  8
0
 62
7
  6
DASHDOT
 10
7.910000000000001
 20
7.949999999999998
 30
0
 11
7.960000000000001
 21
7.949999999999998
 31
0
  0
LINE
  8
0
 62
7
  6
DASHDOT
 10
7.910000000000001
 20
11.2
 30
0
 11
7.960000000000001
 21
11.2
 31
0
  0
LINE
  8
0
 62
7
  6
DASHDOT
 10
7.960000000000001
 20
11.2
 30
0
 11
8.200000000000001
 21
11.2
 31
0
  0
LINE
  8
0
 62
7
  6
DASHDOT
 10
5.880000000000001
 20
10.8
 30
0
 11
5.880000000000001
 21
10.85
 31
0
  0
LINE
  8
0
 62
7
  6
DASHDOT
 10
5.880000000000001
 20
10.85
 30
0
 11
5.880000000000001
 21
11.05
 31
0
  0
LINE
  8
0
 62
7
  6
DASHED
 10
6.180000000000001
 20
11.05
 30
0
 11
7.960000000000001
 21
11.05
 31
0
  0
LINE
  8
0
 62
7
  6
DASHED
 10
6.180000000000001
 20
10.85
 30
0
 11
7.960000000000001
 21
10.85
 31
0
  0
LINE
  8
0
 62
7
  6
DASHED
 10
6.180000000000001
 20
8.299999999999997
 30
0
 11
7.960000000000001
 21
8.299999999999997
 31
0
  0
LINE
  8
0
 62
7
  6
DASHED
 10
6.180000000000001
 20
8.099999999999996
 30
0
 11
7.960000000000001
 21
8.099999999999996
 31
0
  0
LINE
  8
0
 62
7
 10
3.96
 20
5.649999999999996
 30
0
 11
4.11
 21
5.649999999999996
 31
0
  0
LINE
  8
0
 62
7
 10
3.96
 20
5.799999999999996
 30
0
 11
3.96
 21
5.649999999999996
 31
0
  0
LINE
  8
0
 62
7
 10
3.785
 20
5.649999999999996
 30
0
 11
3.785
 21
5.799999999999996
 31
0
  0
LINE
  8
0
 62
7
 10
1.275
 20
5.649999999999996
 30
0
 11
3.785
 21
5.649999999999996
 31
0
  0
LINE
  8
0
 62
7
 10
1.275
 20
5.799999999999996
 30
0
 11
1.275
 21
5.649999999999996
 31
0
  0
LINE
  8
0
 62
7
 10
1.1
 20
5.649999999999996
 30
0
 11
1.1
 21
5.799999999999996
 31
0
  0
LINE
  8
0
 62
7
 10
0.9350000000000001
 20
5.649999999999996
 30
0
 11
1.1
 21
5.649999999999996
 31
0
  0
LINE
  8
0
 62
7
 10
0.9350000000000001
 20
5.410000000000004
 30
0
 11
4.11
 21
5.410000000000004
 31
0
  0
LINE
  8
0
 62
7
 10
0.9350000000000001
 20
5.370000000000005
 30
0
 11
4.11
 21
5.370000000000005
 31
0
  0
LINE
  8
0
 62
7
 10
3.96
 20
5.130000000000004
 30
0
 11
4.11
 21
5.130000000000004
 31
0
  0
LINE
  8
0
 62
7
 10
3.785
 20
3.350000000000003
 30
0
 11
3.785
 21
3.250000000000003
 31
0
  0
LINE
  8
0
 62
7
 10
3.785
 20
3.250000000000003
 30
0
 11
3.96
 21
3.250000000000003
 31
0
  0
LINE
  8
0
 62
7
 10
3.96
 20
3.250000000000003
 30
0
 11
3.96
 21
5.130000000000004
 31
0
  0
LINE
  8
0
 62
7
 10
1.275
 20
5.130000000000004
 30
0
 11
3.785
 21
5.130000000000004
 31
0
  0
LINE
  8
0
 62
7
 10
1.275
 20
3.400000000000003
 30
0
 11
1.275
 21
5.130000000000004
 31
0
  0
LINE
  8
0
 62
7
 10
1.1
 20
5.130000000000004
 30
0
 11
1.1
 21
3.350000000000003
 31
0
  0
LINE
  8
0
 62
7
 10
0.9350000000000001
 20
5.130000000000004
 30
0
 11
1.1
 21
5.130000000000004
 31
0
  0
LINE
  8
0
 62
7
 10
1.1
 20
3.350000000000003
 30
0
 11
1.275
 21
3.350000000000003
 31
0
  0
LINE
  8
0
 62
7
 10
3.785
 20
3.400000000000003
 30
0
 11
1.275
 21
3.400000000000003
 31
0
  0
LINE
  8
0
 62
7
 10
3.785
 20
5.130000000000004
 30
0
 11
3.785
 21
3.400000000000003
 31
0
  0
LINE
  8
0
 62
7
 10
1.275
 20
3.350000000000003
 30
0
 11
1.275
 21
3.400000000000003
 31
0
  0
LINE
  8
0
 62
7
  6
DASHDOT
 10
3.785
 20
3.350000000000003
 30
0
 11
1.275
 21
3.350000000000003
 31
0
  0
LINE
  8
0
 62
7
 10
3.785
 20
3.400000000000003
 30
0
 11
3.785
 21
3.350000000000003
 31
0
  0
LINE
  8
0
 62
7
  6
DASHDOT
 10
3.96
 20
5.799999999999996
 30
0
 11
4.010000000000001
 21
5.799999999999996
 31
0
  0
LINE
  8
0
 62
7
  6
DASHDOT
 10
1.275
 20
5.799999999999996
 30
0
 11
1.325
 21
5.799999999999996
 31
0
  0
LINE
  8
0
 62
7
  6
DASHDOT
 10
4.11
 20
5.649999999999996
 30
0
 11
4.11
 21
5.699999999999996
 31
0
  0
LINE
  8
0
 62
7
  6
DASHDOT
 10
0.9350000000000001
 20
5.649999999999996
 30
0
 11
0.9350000000000001
 21
5.699999999999996
 31
0
  0
LINE
  8
0
 62
7
  6
DASHDOT
 10
0.9350000000000001
 20
5.410000000000004
 30
0
 11
0.9350000000000001
 21
5.649999999999996
 31
0
  0
LINE
  8
0
 62
7
  6
DASHDOT
 10
0.9350000000000001
 20
5.080000000000003
 30
0
 11
0.9350000000000001
 21
5.130000000000004
 31
0
  0
LINE
  8
0
 62
7
  6
DASHDOT
 10
3.785
 20
5.799999999999996
 30
0
 11
3.96
 21
5.799999999999996
 31
0
  0
LINE
  8
0
 62
7
  6
DASHDOT
 10
3.735
 20
5.799999999999996
 30
0
 11
3.785
 21
5.799999999999996
 31
0
  0
LINE
  8
0
 62
7
  6
DASHDOT
 10
4.11
 20
5.410000000000004
 30
0
 11
4.11
 21
5.649999999999996
 31
0
  0
LINE
  8
0
 62
7
  6
DASHDOT
 10
4.11
 20
5.080000000000003
 30
0
 11
4.11
 21
5.130000000000004
 31
0
  0
LINE
  8
0
 62
7
  6
DASHDOT
 10
0.9350000000000001
 20
5.370000000000005
 30
0
 11
0.9350000000000001
 21
5.410000000000004
 31
0
  0
LINE
  8
0
 62
7
  6
DASHDOT
 10
4.11
 20
5.370000000000005
 30
0
 11
4.11
 21
5.410000000000004
 31
0
  0
LINE
  8
0
 62
7
  6
DASHDOT
 10
0.9350000000000001
 20
5.130000000000004
 30
0
 11
0.9350000000000001
 21
5.370000000000005
 31
0
  0
LINE
  8
0
 62
7
  6
DASHDOT
 10
4.11
 20
5.130000000000004
 30
0
 11
4.11
 21
5.370000000000005
 31
0
  0
LINE
  8
0
 62
7
  6
DASHDOT
 10
1.05
 20
5.799999999999996
 30
0
 11
1.1
 21
5.799999999999996
 31
0
  0
LINE
  8
0
 62
7
  6
DASHDOT
 10
1.1
 20
5.799999999999996
 30
0
 11
1.275
 21
5.799999999999996
 31
0
  0
LINE
  8
0
 62
7
 10
1.6716780609493
 20
4.81207810140238
 30
0
 11
1.6716780609493
 21
4.93207810140238
 31
0
  0
LINE
  8
0
 62
7
 10
1.7472780609493
 20
4.93207810140238
 30
0
 11
1.6932780609493
 21
4.87207810140238
 31
0
  0
LINE
  8
0
 62
7
 10
1.6932780609493
 20
4.87207810140238
 30
0
 11
1.7472780609493
 21
4.81207810140238
 31
0
  0
LINE
  8
0
 62
7
 10
1.6932780609493
 20
4.87207810140238
 30
0
 11
1.6716780609493
 21
4.848078101402381
 31
0
  0
LINE
  8
0
 62
7
 10
1.8552780609493
 20
4.93207810140238
 30
0
 11
1.7796780609493
 21
4.93207810140238
 31
0
  0
LINE
  8
0
 62
7
 10
1.7796780609493
 20
4.93207810140238
 30
0
 11
1.7796780609493
 21
4.87207810140238
 31
0
  0
LINE
  8
0
 62
7
 10
1.7796780609493
 20
4.81207810140238
 30
0
 11
1.8552780609493
 21
4.81207810140238
 31
0
  0
LINE
  8
0
 62
7
 10
1.8444780609493
 20
4.87207810140238
 30
0
 11
1.7796780609493
 21
4.87207810140238
 31
0
  0
LINE
  8
0
 62
7
 10
1.7796780609493
 20
4.87207810140238
 30
0
 11
1.7796780609493
 21
4.81207810140238
 31
0
  0
LINE
  8
0
 62
7
 10
1.8876780609493
 20
4.81207810140238
 30
0
 11
1.8876780609493
 21
4.93207810140238
 31
0
  0
LINE
  8
0
 62
7
 10
1.8876780609493
 20
4.93207810140238
 30
0
 11
1.9632780609493
 21
4.81207810140238
 31
0
  0
LINE
  8
0
 62
7
 10
1.9632780609493
 20
4.81207810140238
 30
0
 11
1.9632780609493
 21
4.93207810140238
 31
0
  0
LINE
  8
0
 62
7
 10
1.9956780609493
 20
4.81207810140238
 30
0
 11
1.9956780609493
 21
4.93207810140238
 31
0
  0
LINE
  8
0
 62
7
 10
1.9956780609493
 20
4.93207810140238
 30
0
 11
2.0712780609493
 21
4.81207810140238
 31
0
  0
LINE
  8
0
 62
7
 10
2.0712780609493
 20
4.81207810140238
 30
0
 11
2.0712780609493
 21
4.93207810140238
 31
0
  0
LINE
  8
0
 62
7
 10
2.1792780609493
 20
4.89607810140238
 30
0
 11
2.1765780609493
 21
4.908078101402381
 31
0
  0
LINE
  8
0
 62
7
 10
2.1765780609493
 20
4.908078101402381
 30
0
 11
2.1711780609493
 21
4.91707810140238
 31
0
  0
LINE
  8
0
 62
7
 10
2.1711780609493
 20
4.91707810140238
 30
0
 11
2.1657780609493
 21
4.923078101402381
 31
0
  0
LINE
  8
0
 62
7
 10
2.1657780609493
 20
4.923078101402381
 30
0
 11
2.1576780609493
 21
4.92907810140238
 31
0
  0
LINE
  8
0
 62
7
 10
2.1576780609493
 20
4.92907810140238
 30
0
 11
2.1495780609493
 21
4.93207810140238
 31
0
  0
LINE
  8
0
 62
7
 10
2.1495780609493
 20
4.93207810140238
 30
0
 11
2.1333780609493
 21
4.93207810140238
 31
0
  0
LINE
  8
0
 62
7
 10
2.1333780609493
 20
4.93207810140238
 30
0
 11
2.1252780609493
 21
4.92907810140238
 31
0
  0
LINE
  8
0
 62
7
 10
2.1252780609493
 20
4.92907810140238
 30
0
 11
2.1171780609493
 21
4.923078101402381
 31
0
  0
LINE
  8
0
 62
7
 10
2.1171780609493
 20
4.923078101402381
 30
0
 11
2.1117780609493
 21
4.91707810140238
 31
0
  0
LINE
  8
0
 62
7
 10
2.1117780609493
 20
4.91707810140238
 30
0
 11
2.1063780609493
 21
4.908078101402381
 31
0
  0
LINE
  8
0
 62
7
 10
2.1063780609493
 20
4.908078101402381
 30
0
 11
2.1036780609493
 21
4.89607810140238
 31
0
  0
LINE
  8
0
 62
7
 10
2.1036780609493
 20
4.89607810140238
 30
0
 11
2.1036780609493
 21
4.848078101402381
 31
0
  0
LINE
  8
0
 62
7
 10
2.1036780609493
 20
4.848078101402381
 30
0
 11
2.1063780609493
 21
4.83607810140238
 31
0
  0
LINE
  8
0
 62
7
 10
2.1063780609493
 20
4.83607810140238
 30
0
 11
2.1117780609493
 21
4.82707810140238
 31
0
  0
LINE
  8
0
 62
7
 10
2.1117780609493
 20
4.82707810140238
 30
0
 11
2.1171780609493
 21
4.82107810140238
 31
0
  0
LINE
  8
0
 62
7
 10
2.1171780609493
 20
4.82107810140238
 30
0
 11
2.1252780609493
 21
4.81507810140238
 31
0
  0
LINE
  8
0
 62
7
 10
2.1252780609493
 20
4.81507810140238
 30
0
 11
2.1333780609493
 21
4.81207810140238
 31
0
  0
LINE
  8
0
 62
7
 10
2.1333780609493
 20
4.81207810140238
 30
0
 11
2.1495780609493
 21
4.81207810140238
 31
0
  0
LINE
  8
0
 62
7
 10
2.1495780609493
 20
4.81207810140238
 30
0
 11
2.1576780609493
 21
4.81507810140238
 31
0
  0
LINE
  8
0
 62
7
 10
2.1576780609493
 20
4.81507810140238
 30
0
 11
2.1657780609493
 21
4.82107810140238
 31
0
  0
LINE
  8
0
 62
7
 10
2.1657780609493
 20
4.82107810140238
 30
0
 11
2.1711780609493
 21
4.82707810140238
 31
0
  0
LINE
  8
0
 62
7
 10
2.1711780609493
 20
4.82707810140238
 30
0
 11
2.1765780609493
 21
4.83607810140238
 31
0
  0
LINE
  8
0
 62
7
 10
2.1765780609493
 20
4.83607810140238
 30
0
 11
2.1792780609493
 21
4.848078101402381
 31
0
  0
LINE
  8
0
 62
7
 10
2.1792780609493
 20
4.848078101402381
 30
0
 11
2.1792780609493
 21
4.87207810140238
 31
0
  0
LINE
  8
0
 62
7
 10
2.1792780609493
 20
4.87207810140238
 30
0
 11
2.1468780609493
 21
4.87207810140238
 31
0
  0
LINE
  8
0
 62
7
 10
2.2575780609493
 20
4.93207810140238
 30
0
 11
2.2413780609493
 21
4.93207810140238
 31
0
  0
LINE
  8
0
 62
7
 10
2.2413780609493
 20
4.93207810140238
 30
0
 11
2.233278060949301
 21
4.92907810140238
 31
0
  0
LINE
  8
0
 62
7
 10
2.233278060949301
 20
4.92907810140238
 30
0
 11
2.2251780609493
 21
4.923078101402381
 31
0
  0
LINE
  8
0
 62
7
 10
2.2251780609493
 20
4.923078101402381
 30
0
 11
2.2197780609493
 21
4.91707810140238
 31
0
  0
LINE
  8
0
 62
7
 10
2.2197780609493
 20
4.91707810140238
 30
0
 11
2.2143780609493
 21
4.908078101402381
 31
0
  0
LINE
  8
0
 62
7
 10
2.2143780609493
 20
4.908078101402381
 30
0
 11
2.2116780609493
 21
4.89607810140238
 31
0
  0
LINE
  8
0
 62
7
 10
2.2116780609493
 20
4.89607810140238
 30
0
 11
2.2116780609493
 21
4.848078101402381
 31
0
  0
LINE
  8
0
 62
7
 10
2.2116780609493
 20
4.848078101402381
 30
0
 11
2.2143780609493
 21
4.83607810140238
 31
0
  0
LINE
  8
0
 62
7
 10
2.2143780609493
 20
4.83607810140238
 30
0
 11
2.2197780609493
 21
4.82707810140238
 31
0
  0
LINE
  8
0
 62
7
 10
2.2197780609493
 20
4.82707810140238
 30
0
 11
2.2251780609493
 21
4.82107810140238
 31
0
  0
LINE
  8
0
 62
7
 10
2.2251780609493
 20
4.82107810140238
 30
0
 11
2.233278060949301
 21
4.81507810140238
 31
0
  0
LINE
  8
0
 62
7
 10
2.233278060949301
 20
4.81507810140238
 30
0
 11
2.2413780609493
 21
4.81207810140238
 31
0
  0
LINE
  8
0
 62
7
 10
2.2413780609493
 20
4.81207810140238
 30
0
 11
2.2575780609493
 21
4.81207810140238
 31
0
  0
LINE
  8
0
 62
7
 10
2.2575780609493
 20
4.81207810140238
 30
0
 11
2.2656780609493
 21
4.81507810140238
 31
0
  0
LINE
  8
0
 62
7
 10
2.2656780609493
 20
4.81507810140238
 30
0
 11
2.2737780609493
 21
4.82107810140238
 31
0
  0
LINE
  8
0
 62
7
 10
2.2737780609493
 20
4.82107810140238
 30
0
 11
2.2791780609493
 21
4.82707810140238
 31
0
  0
LINE
  8
0
 62
7
 10
2.2791780609493
 20
4.82707810140238
 30
0
 11
2.2845780609493
 21
4.83607810140238
 31
0
  0
LINE
  8
0
 62
7
 10
2.2845780609493
 20
4.83607810140238
 30
0
 11
2.2872780609493
 21
4.848078101402381
 31
0
  0
LINE
  8
0
 62
7
 10
2.2872780609493
 20
4.848078101402381
 30
0
 11
2.2872780609493
 21
4.89607810140238
 31
0
  0
LINE
  8
0
 62
7
 10
2.2872780609493
 20
4.89607810140238
 30
0
 11
2.2845780609493
 21
4.908078101402381
 31
0
  0
LINE
  8
0
 62
7
 10
2.2845780609493
 20
4.908078101402381
 30
0
 11
2.2791780609493
 21
4.91707810140238
 31
0
  0
LINE
  8
0
 62
7
 10
2.2791780609493
 20
4.91707810140238
 30
0
 11
2.2737780609493
 21
4.923078101402381
 31
0
  0
LINE
  8
0
 62
7
 10
2.2737780609493
 20
4.923078101402381
 30
0
 11
2.2656780609493
 21
4.92907810140238
 31
0
  0
LINE
  8
0
 62
7
 10
2.2656780609493
 20
4.92907810140238
 30
0
 11
2.2575780609493
 21
4.93207810140238
 31
0
  0
LINE
  8
0
 62
7
 10
2.3088780609493
 20
4.93207810140238
 30
0
 11
2.3466780609493
 21
4.93207810140238
 31
0
  0
LINE
  8
0
 62
7
 10
2.3466780609493
 20
4.93207810140238
 30
0
 11
2.3466780609493
 21
4.81207810140238
 31
0
  0
LINE
  8
0
 62
7
 10
2.3466780609493
 20
4.93207810140238
 30
0
 11
2.3844780609493
 21
4.93207810140238
 31
0
  0
LINE
  8
0
 62
7
 10
2.4168780609493
 20
4.93207810140238
 30
0
 11
2.4546780609493
 21
4.93207810140238
 31
0
  0
LINE
  8
0
 62
7
 10
2.4546780609493
 20
4.93207810140238
 30
0
 11
2.4546780609493
 21
4.81207810140238
 31
0
  0
LINE
  8
0
 62
7
 10
2.4546780609493
 20
4.93207810140238
 30
0
 11
2.4924780609493
 21
4.93207810140238
 31
0
  0
LINE
  8
0
 62
7
 10
2.6112780609493
 20
4.85407810140238
 30
0
 11
2.6652780609493
 21
4.85407810140238
 31
0
  0
LINE
  8
0
 62
7
 10
2.773278060949302
 20
4.93207810140238
 30
0
 11
2.811078060949301
 21
4.93207810140238
 31
0
  0
LINE
  8
0
 62
7
 10
2.811078060949301
 20
4.93207810140238
 30
0
 11
2.811078060949301
 21
4.81207810140238
 31
0
  0
LINE
  8
0
 62
7
 10
2.811078060949301
 20
4.93207810140238
 30
0
 11
2.8488780609493
 21
4.93207810140238
 31
0
  0
LINE
  8
0
 62
7
 10
2.881278060949301
 20
4.81207810140238
 30
0
 11
2.881278060949301
 21
4.93207810140238
 31
0
  0
LINE
  8
0
 62
7
 10
2.881278060949301
 20
4.93207810140238
 30
0
 11
2.932578060949302
 21
4.93207810140238
 31
0
  0
LINE
  8
0
 62
7
 10
2.932578060949302
 20
4.93207810140238
 30
0
 11
2.9433780609493
 21
4.92907810140238
 31
0
  0
LINE
  8
0
 62
7
 10
2.9433780609493
 20
4.92907810140238
 30
0
 11
2.951478060949301
 21
4.923078101402381
 31
0
  0
LINE
  8
0
 62
7
 10
2.951478060949301
 20
4.923078101402381
 30
0
 11
2.9541780609493
 21
4.91707810140238
 31
0
  0
LINE
  8
0
 62
7
 10
2.9541780609493
 20
4.91707810140238
 30
0
 11
2.9568780609493
 21
4.908078101402381
 31
0
  0
LINE
  8
0
 62
7
 10
2.9568780609493
 20
4.908078101402381
 30
0
 11
2.9568780609493
 21
4.89607810140238
 31
0
  0
LINE
  8
0
 62
7
 10
2.9568780609493
 20
4.89607810140238
 30
0
 11
2.9541780609493
 21
4.887078101402381
 31
0
  0
LINE
  8
0
 62
7
 10
2.9541780609493
 20
4.887078101402381
 30
0
 11
2.951478060949301
 21
4.88107810140238
 31
0
  0
LINE
  8
0
 62
7
 10
2.951478060949301
 20
4.88107810140238
 30
0
 11
2.9433780609493
 21
4.87507810140238
 31
0
  0
LINE
  8
0
 62
7
 10
2.9433780609493
 20
4.87507810140238
 30
0
 11
2.932578060949302
 21
4.87207810140238
 31
0
  0
LINE
  8
0
 62
7
 10
2.932578060949302
 20
4.87207810140238
 30
0
 11
2.9244780609493
 21
4.87207810140238
 31
0
  0
LINE
  8
0
 62
7
 10
2.9244780609493
 20
4.87207810140238
 30
0
 11
2.9568780609493
 21
4.81207810140238
 31
0
  0
LINE
  8
0
 62
7
 10
2.9244780609493
 20
4.87207810140238
 30
0
 11
2.881278060949301
 21
4.87207810140238
 31
0
  0
LINE
  8
0
 62
7
 10
3.0540780609493
 20
4.93207810140238
 30
0
 11
2.9784780609493
 21
4.93207810140238
 31
0
  0
LINE
  8
0
 62
7
 10
2.9784780609493
 20
4.93207810140238
 30
0
 11
2.9784780609493
 21
4.87207810140238
 31
0
  0
LINE
  8
0
 62
7
 10
2.9784780609493
 20
4.81207810140238
 30
0
 11
3.0540780609493
 21
4.81207810140238
 31
0
  0
LINE
  8
0
 62
7
 10
3.043278060949302
 20
4.87207810140238
 30
0
 11
2.9784780609493
 21
4.87207810140238
 31
0
  0
LINE
  8
0
 62
7
 10
2.9784780609493
 20
4.87207810140238
 30
0
 11
2.9784780609493
 21
4.81207810140238
 31
0
  0
LINE
  8
0
 62
7
 10
3.0864780609493
 20
4.81207810140238
 30
0
 11
3.0864780609493
 21
4.87207810140238
 31
0
  0
LINE
  8
0
 62
7
 10
3.0864780609493
 20
4.93207810140238
 30
0
 11
3.1377780609493
 21
4.93207810140238
 31
0
  0
LINE
  8
0
 62
7
 10
3.1377780609493
 20
4.93207810140238
 30
0
 11
3.148578060949301
 21
4.92907810140238
 31
0
  0
LINE
  8
0
 62
7
 10
3.148578060949301
 20
4.92907810140238
 30
0
 11
3.1566780609493
 21
4.923078101402381
 31
0
  0
LINE
  8
0
 62
7
 10
3.1566780609493
 20
4.923078101402381
 30
0
 11
3.159378060949301
 21
4.91707810140238
 31
0
  0
LINE
  8
0
 62
7
 10
3.159378060949301
 20
4.91707810140238
 30
0
 11
3.1620780609493
 21
4.908078101402381
 31
0
  0
LINE
  8
0
 62
7
 10
3.1620780609493
 20
4.908078101402381
 30
0
 11
3.1620780609493
 21
4.89607810140238
 31
0
  0
LINE
  8
0
 62
7
 10
3.1620780609493
 20
4.89607810140238
 30
0
 11
3.159378060949301
 21
4.887078101402381
 31
0
  0
LINE
  8
0
 62
7
 10
3.159378060949301
 20
4.887078101402381
 30
0
 11
3.1566780609493
 21
4.88107810140238
 31
0
  0
LINE
  8
0
 62
7
 10
3.1566780609493
 20
4.88107810140238
 30
0
 11
3.148578060949301
 21
4.87507810140238
 31
0
  0
LINE
  8
0
 62
7
 10
3.148578060949301
 20
4.87507810140238
 30
0
 11
3.1377780609493
 21
4.87207810140238
 31
0
  0
LINE
  8
0
 62
7
 10
3.1377780609493
 20
4.87207810140238
 30
0
 11
3.0864780609493
 21
4.87207810140238
 31
0
  0
LINE
  8
0
 62
7
 10
3.0864780609493
 20
4.87207810140238
 30
0
 11
3.0864780609493
 21
4.93207810140238
 31
0
  0
LINE
  8
0
 62
7
 10
3.183678060949301
 20
4.81207810140238
 30
0
 11
3.183678060949301
 21
4.87207810140238
 31
0
  0
LINE
  8
0
 62
7
 10
3.183678060949301
 20
4.93207810140238
 30
0
 11
3.234978060949301
 21
4.93207810140238
 31
0
  0
LINE
  8
0
 62
7
 10
3.234978060949301
 20
4.93207810140238
 30
0
 11
3.2457780609493
 21
4.92907810140238
 31
0
  0
LINE
  8
0
 62
7
 10
3.2457780609493
 20
4.92907810140238
 30
0
 11
3.253878060949301
 21
4.923078101402381
 31
0
  0
LINE
  8
0
 62
7
 10
3.253878060949301
 20
4.923078101402381
 30
0
 11
3.2565780609493
 21
4.91707810140238
 31
0
  0
LINE
  8
0
 62
7
 10
3.2565780609493
 20
4.91707810140238
 30
0
 11
3.259278060949301
 21
4.908078101402381
 31
0
  0
LINE
  8
0
 62
7
 10
3.259278060949301
 20
4.908078101402381
 30
0
 11
3.259278060949301
 21
4.89607810140238
 31
0
  0
LINE
  8
0
 62
7
 10
3.259278060949301
 20
4.89607810140238
 30
0
 11
3.2565780609493
 21
4.887078101402381
 31
0
  0
LINE
  8
0
 62
7
 10
3.2565780609493
 20
4.887078101402381
 30
0
 11
3.253878060949301
 21
4.88107810140238
 31
0
  0
LINE
  8
0
 62
7
 10
3.253878060949301
 20
4.88107810140238
 30
0
 11
3.2457780609493
 21
4.87507810140238
 31
0
  0
LINE
  8
0
 62
7
 10
3.2457780609493
 20
4.87507810140238
 30
0
 11
3.234978060949301
 21
4.87207810140238
 31
0
  0
LINE
  8
0
 62
7
 10
3.234978060949301
 20
4.87207810140238
 30
0
 11
3.183678060949301
 21
4.87207810140238
 31
0
  0
LINE
  8
0
 62
7
 10
3.183678060949301
 20
4.87207810140238
 30
0
 11
3.183678060949301
 21
4.93207810140238
 31
0
  0
LINE
  8
0
 62
7
 10
3.3564780609493
 20
4.93207810140238
 30
0
 11
3.2808780609493
 21
4.93207810140238
 31
0
  0
LINE
  8
0
 62
7
 10
3.2808780609493
 20
4.93207810140238
 30
0
 11
3.2808780609493
 21
4.87207810140238
 31
0
  0
LINE
  8
0
 62
7
 10
3.2808780609493
 20
4.81207810140238
 30
0
 11
3.3564780609493
 21
4.81207810140238
 31
0
  0
LINE
  8
0
 62
7
 10
3.345678060949301
 20
4.87207810140238
 30
0
 11
3.2808780609493
 21
4.87207810140238
 31
0
  0
LINE
  8
0
 62
7
 10
3.2808780609493
 20
4.87207810140238
 30
0
 11
3.2808780609493
 21
4.81207810140238
 31
0
  0
LINE
  8
0
 62
7
 10
0.625
 20
2.890000000000003
 30
0
 11
0.625
 21
3.010000000000003
 31
0
  0
LINE
  8
0
 62
7
 10
0.625
 20
3.010000000000003
 30
0
 11
0.6682
 21
2.914000000000003
 31
0
  0
LINE
  8
0
 62
7
 10
0.6682
 20
2.914000000000003
 30
0
 11
0.7113999999999999
 21
3.010000000000003
 31
0
  0
LINE
  8
0
 62
7
 10
0.7113999999999999
 20
3.010000000000003
 30
0
 11
0.7113999999999999
 21
2.890000000000003
 31
0
  0
LINE
  8
0
 62
7
 10
0.7437999999999999
 20
2.992000000000003
 30
0
 11
0.7491999999999999
 21
3.001000000000003
 31
0
  0
LINE
  8
0
 62
7
 10
0.7491999999999999
 20
3.001000000000003
 30
0
 11
0.7573
 21
3.007000000000003
 31
0
  0
LINE
  8
0
 62
7
 10
0.7573
 20
3.007000000000003
 30
0
 11
0.7681
 21
3.010000000000003
 31
0
  0
LINE
  8
0
 62
7
 10
0.7681
 20
3.010000000000003
 30
0
 11
0.7843
 21
3.010000000000003
 31
0
  0
LINE
  8
0
 62
7
 10
0.7843
 20
3.010000000000003
 30
0
 11
0.7951
 21
3.007000000000003
 31
0
  0
LINE
  8
0
 62
7
 10
0.7951
 20
3.007000000000003
 30
0
 11
0.8032
 21
3.001000000000003
 31
0
  0
LINE
  8
0
 62
7
 10
0.8032
 20
3.001000000000003
 30
0
 11
0.8085999999999999
 21
2.992000000000003
 31
0
  0
LINE
  8
0
 62
7
 10
0.8085999999999999
 20
2.992000000000003
 30
0
 11
0.8085999999999999
 21
2.980000000000003
 31
0
  0
LINE
  8
0
 62
7
 10
0.8085999999999999
 20
2.980000000000003
 30
0
 11
0.8032
 21
2.968000000000003
 31
0
  0
LINE
  8
0
 62
7
 10
0.8032
 20
2.968000000000003
 30
0
 11
0.7437999999999999
 21
2.890000000000003
 31
0
  0
LINE
  8
0
 62
7
 10
0.7437999999999999
 20
2.890000000000003
 30
0
 11
0.8085999999999999
 21
2.890000000000003
 31
0
  0
LINE
  8
0
 62
7
 10
0.8410000000000001
 20
3.010000000000003
 30
0
 11
0.8788
 21
2.890000000000003
 31
0
  0
LINE
  8
0
 62
7
 10
0.8788
 20
2.890000000000003
 30
0
 11
0.9165999999999999
 21
3.010000000000003
 31
0
  0
LINE
  8
0
 62
7
 10
0.9489999999999998
 20
2.992000000000003
 30
0
 11
0.9544000000000001
 21
3.001000000000003
 31
0
  0
LINE
  8
0
 62
7
 10
0.9544000000000001
 20
3.001000000000003
 30
0
 11
0.9625
 21
3.007000000000003
 31
0
  0
LINE
  8
0
 62
7
 10
0.9625
 20
3.007000000000003
 30
0
 11
0.9732999999999999
 21
3.010000000000003
 31
0
  0
LINE
  8
0
 62
7
 10
0.9732999999999999
 20
3.010000000000003
 30
0
 11
0.9895
 21
3.010000000000003
 31
0
  0
LINE
  8
0
 62
7
 10
0.9895
 20
3.010000000000003
 30
0
 11
1.0003
 21
3.007000000000003
 31
0
  0
LINE
  8
0
 62
7
 10
1.0003
 20
3.007000000000003
 30
0
 11
1.0084
 21
3.001000000000003
 31
0
  0
LINE
  8
0
 62
7
 10
1.0084
 20
3.001000000000003
 30
0
 11
1.0138
 21
2.992000000000003
 31
0
  0
LINE
  8
0
 62
7
 10
1.0138
 20
2.992000000000003
 30
0
 11
1.0138
 21
2.980000000000003
 31
0
  0
LINE
  8
0
 62
7
 10
1.0138
 20
2.980000000000003
 30
0
 11
1.0084
 21
2.968000000000003
 31
0
  0
LINE
  8
0
 62
7
 10
1.0084
 20
2.968000000000003
 30
0
 11
0.9489999999999998
 21
2.890000000000003
 31
0
  0
LINE
  8
0
 62
7
 10
0.9489999999999998
 20
2.890000000000003
 30
0
 11
1.0138
 21
2.890000000000003
 31
0
  0
LINE
  8
0
 62
7
 10
1.1056
 20
3.010000000000003
 30
0
 11
1.0462
 21
3.010000000000003
 31
0
  0
LINE
  8
0
 62
7
 10
1.0462
 20
3.010000000000003
 30
0
 11
1.0462
 21
2.950000000000003
 31
0
  0
LINE
  8
0
 62
7
 10
1.0462
 20
2.950000000000003
 30
0
 11
1.0516
 21
2.959000000000003
 31
0
  0
LINE
  8
0
 62
7
 10
1.0516
 20
2.959000000000003
 30
0
 11
1.0597
 21
2.965000000000003
 31
0
  0
LINE
  8
0
 62
7
 10
1.0597
 20
2.965000000000003
 30
0
 11
1.0705
 21
2.968000000000003
 31
0
  0
LINE
  8
0
 62
7
 10
1.0705
 20
2.968000000000003
 30
0
 11
1.0867
 21
2.968000000000003
 31
0
  0
LINE
  8
0
 62
7
 10
1.0867
 20
2.968000000000003
 30
0
 11
1.0948
 21
2.965000000000003
 31
0
  0
LINE
  8
0
 62
7
 10
1.0948
 20
2.965000000000003
 30
0
 11
1.1029
 21
2.959000000000003
 31
0
  0
LINE
  8
0
 62
7
 10
1.1029
 20
2.959000000000003
 30
0
 11
1.1083
 21
2.950000000000003
 31
0
  0
LINE
  8
0
 62
7
 10
1.1083
 20
2.950000000000003
 30
0
 11
1.111
 21
2.938000000000003
 31
0
  0
LINE
  8
0
 62
7
 10
1.111
 20
2.938000000000003
 30
0
 11
1.111
 21
2.920000000000003
 31
0
  0
LINE
  8
0
 62
7
 10
1.111
 20
2.920000000000003
 30
0
 11
1.1083
 21
2.908000000000003
 31
0
  0
LINE
  8
0
 62
7
 10
1.1083
 20
2.908000000000003
 30
0
 11
1.1029
 21
2.899000000000004
 31
0
  0
LINE
  8
0
 62
7
 10
1.1029
 20
2.899000000000004
 30
0
 11
1.0948
 21
2.893000000000003
 31
0
  0
LINE
  8
0
 62
7
 10
1.0948
 20
2.893000000000003
 30
0
 11
1.0867
 21
2.890000000000003
 31
0
  0
LINE
  8
0
 62
7
 10
1.0867
 20
2.890000000000003
 30
0
 11
1.0705
 21
2.890000000000003
 31
0
  0
LINE
  8
0
 62
7
 10
1.0705
 20
2.890000000000003
 30
0
 11
1.0597
 21
2.893000000000003
 31
0
  0
LINE
  8
0
 62
7
 10
1.0597
 20
2.893000000000003
 30
0
 11
1.0516
 21
2.899000000000004
 31
0
  0
LINE
  8
0
 62
7
 10
1.0516
 20
2.899000000000004
 30
0
 11
1.0462
 21
2.908000000000003
 31
0
  0
LINE
  8
0
 62
7
 10
1.1434
 20
2.974000000000004
 30
0
 11
1.1758
 21
3.010000000000003
 31
0
  0
LINE
  8
0
 62
7
 10
1.1758
 20
3.010000000000003
 30
0
 11
1.1758
 21
2.890000000000003
 31
0
  0
LINE
  8
0
 62
7
 10
1.273
 20
2.890000000000003
 30
0
 11
1.2082
 21
2.890000000000003
 31
0
  0
LINE
  8
0
 62
7
 10
1.2082
 20
2.890000000000003
 30
0
 11
1.2082
 21
3.010000000000003
 31
0
  0
LINE
  8
0
 62
7
 10
1.3054
 20
2.938000000000003
 30
0
 11
1.3081
 21
2.950000000000003
 31
0
  0
LINE
  8
0
 62
7
 10
1.3081
 20
2.950000000000003
 30
0
 11
1.3135
 21
2.959000000000003
 31
0
  0
LINE
  8
0
 62
7
 10
1.3135
 20
2.959000000000003
 30
0
 11
1.3216
 21
2.965000000000003
 31
0
  0
LINE
  8
0
 62
7
 10
1.3216
 20
2.965000000000003
 30
0
 11
1.3297
 21
2.968000000000003
 31
0
  0
LINE
  8
0
 62
7
 10
1.3297
 20
2.968000000000003
 30
0
 11
1.3459
 21
2.968000000000003
 31
0
  0
LINE
  8
0
 62
7
 10
1.3459
 20
2.968000000000003
 30
0
 11
1.354
 21
2.965000000000003
 31
0
  0
LINE
  8
0
 62
7
 10
1.354
 20
2.965000000000003
 30
0
 11
1.3621
 21
2.959000000000003
 31
0
  0
LINE
  8
0
 62
7
 10
1.3621
 20
2.959000000000003
 30
0
 11
1.3675
 21
2.950000000000003
 31
0
  0
LINE
  8
0
 62
7
 10
1.3675
 20
2.950000000000003
 30
0
 11
1.3702
 21
2.938000000000003
 31
0
  0
LINE
  8
0
 62
7
 10
1.3702
 20
2.938000000000003
 30
0
 11
1.3702
 21
2.920000000000003
 31
0
  0
LINE
  8
0
 62
7
 10
1.3702
 20
2.920000000000003
 30
0
 11
1.3675
 21
2.908000000000003
 31
0
  0
LINE
  8
0
 62
7
 10
1.3675
 20
2.908000000000003
 30
0
 11
1.3621
 21
2.899000000000004
 31
0
  0
LINE
  8
0
 62
7
 10
1.3621
 20
2.899000000000004
 30
0
 11
1.354
 21
2.893000000000003
 31
0
  0
LINE
  8
0
 62
7
 10
1.354
 20
2.893000000000003
 30
0
 11
1.3459
 21
2.890000000000003
 31
0
  0
LINE
  8
0
 62
7
 10
1.3459
 20
2.890000000000003
 30
0
 11
1.3297
 21
2.890000000000003
 31
0
  0
LINE
  8
0
 62
7
 10
1.3297
 20
2.890000000000003
 30
0
 11
1.3216
 21
2.893000000000003
 31
0
  0
LINE
  8
0
 62
7
 10
1.3216
 20
2.893000000000003
 30
0
 11
1.3135
 21
2.899000000000004
 31
0
  0
LINE
  8
0
 62
7
 10
1.3135
 20
2.899000000000004
 30
0
 11
1.3081
 21
2.908000000000003
 31
0
  0
LINE
  8
0
 62
7
 10
1.3081
 20
2.908000000000003
 30
0
 11
1.3054
 21
2.920000000000003
 31
0
  0
LINE
  8
0
 62
7
 10
1.3054
 20
2.920000000000003
 30
0
 11
1.3054
 21
2.938000000000003
 31
0
  0
LINE
  8
0
 62
7
 10
1.3054
 20
2.980000000000003
 30
0
 11
1.3081
 21
2.992000000000003
 31
0
  0
LINE
  8
0
 62
7
 10
1.3081
 20
2.992000000000003
 30
0
 11
1.3135
 21
3.001000000000003
 31
0
  0
LINE
  8
0
 62
7
 10
1.3135
 20
3.001000000000003
 30
0
 11
1.3216
 21
3.007000000000003
 31
0
  0
LINE
  8
0
 62
7
 10
1.3216
 20
3.007000000000003
 30
0
 11
1.3297
 21
3.010000000000003
 31
0
  0
LINE
  8
0
 62
7
 10
1.3297
 20
3.010000000000003
 30
0
 11
1.3459
 21
3.010000000000003
 31
0
  0
LINE
  8
0
 62
7
 10
1.3459
 20
3.010000000000003
 30
0
 11
1.354
 21
3.007000000000003
 31
0
  0
LINE
  8
0
 62
7
 10
1.354
 20
3.007000000000003
 30
0
 11
1.3621
 21
3.001000000000003
 31
0
  0
LINE
  8
0
 62
7
 10
1.3621
 20
3.001000000000003
 30
0
 11
1.3675
 21
2.992000000000003
 31
0
  0
LINE
  8
0
 62
7
 10
1.3054
 20
2.938000000000003
 30
0
 11
1.3054
 21
2.980000000000003
 31
0
  0
LINE
  8
0
 62
7
 10
3.125
 20
2.890000000000003
 30
0
 11
3.125
 21
2.990000000000003
 31
0
  0
LINE
  8
0
 62
7
 10
3.125
 20
2.990000000000003
 30
0
 11
3.188
 21
2.890000000000003
 31
0
  0
LINE
  8
0
 62
7
 10
3.188
 20
2.890000000000003
 30
0
 11
3.188
 21
2.990000000000003
 31
0
  0
LINE
  8
0
 62
7
 10
3.269
 20
2.890000000000003
 30
0
 11
3.215
 21
2.890000000000003
 31
0
  0
LINE
  8
0
 62
7
 10
3.215
 20
2.890000000000003
 30
0
 11
3.215
 21
2.990000000000003
 31
0
  0
LINE
  8
0
 62
7
 10
3.296
 20
2.940000000000003
 30
0
 11
3.332
 21
2.940000000000003
 31
0
  0
LINE
  8
0
 62
7
 10
3.332
 20
2.940000000000003
 30
0
 11
3.3365
 21
2.940000000000003
 31
0
  0
LINE
  8
0
 62
7
 10
3.3365
 20
2.940000000000003
 30
0
 11
3.3455
 21
2.935000000000003
 31
0
  0
LINE
  8
0
 62
7
 10
3.3455
 20
2.935000000000003
 30
0
 11
3.35
 21
2.930000000000003
 31
0
  0
LINE
  8
0
 62
7
 10
3.35
 20
2.930000000000003
 30
0
 11
3.3545
 21
2.920000000000003
 31
0
  0
LINE
  8
0
 62
7
 10
3.3545
 20
2.920000000000003
 30
0
 11
3.3545
 21
2.910000000000003
 31
0
  0
LINE
  8
0
 62
7
 10
3.3545
 20
2.910000000000003
 30
0
 11
3.35
 21
2.900000000000003
 31
0
  0
LINE
  8
0
 62
7
 10
3.35
 20
2.900000000000003
 30
0
 11
3.3455
 21
2.895000000000003
 31
0
  0
LINE
  8
0
 62
7
 10
3.3455
 20
2.895000000000003
 30
0
 11
3.3365
 21
2.890000000000003
 31
0
  0
LINE
  8
0
 62
7
 10
3.3365
 20
2.890000000000003
 30
0
 11
3.296
 21
2.890000000000003
 31
0
  0
LINE
  8
0
 62
7
 10
3.296
 20
2.890000000000003
 30
0
 11
3.296
 21
2.940000000000003
 31
0
  0
LINE
  8
0
 62
7
 10
3.296
 20
2.990000000000003
 30
0
 11
3.32975
 21
2.990000000000003
 31
0
  0
LINE
  8
0
 62
7
 10
3.32975
 20
2.990000000000003
 30
0
 11
3.341000000000001
 21
2.987500000000003
 31
0
  0
LINE
  8
0
 62
7
 10
3.341000000000001
 20
2.987500000000003
 30
0
 11
3.34775
 21
2.980000000000003
 31
0
  0
LINE
  8
0
 62
7
 10
3.34775
 20
2.980000000000003
 30
0
 11
3.35
 21
2.970000000000003
 31
0
  0
LINE
  8
0
 62
7
 10
3.35
 20
2.970000000000003
 30
0
 11
3.35
 21
2.960000000000003
 31
0
  0
LINE
  8
0
 62
7
 10
3.35
 20
2.960000000000003
 30
0
 11
3.3455
 21
2.950000000000003
 31
0
  0
LINE
  8
0
 62
7
 10
3.3455
 20
2.950000000000003
 30
0
 11
3.338750000000001
 21
2.942500000000003
 31
0
  0
LINE
  8
0
 62
7
 10
3.338750000000001
 20
2.942500000000003
 30
0
 11
3.332
 21
2.940000000000003
 31
0
  0
LINE
  8
0
 62
7
 10
3.296
 20
2.940000000000003
 30
0
 11
3.296
 21
2.990000000000003
 31
0
  0
LINE
  8
0
 62
7
 10
3.49625
 20
2.942500000000003
 30
0
 11
3.4895
 21
2.952500000000003
 31
0
  0
LINE
  8
0
 62
7
 10
3.4895
 20
2.952500000000003
 30
0
 11
3.48275
 21
2.957500000000003
 31
0
  0
LINE
  8
0
 62
7
 10
3.48275
 20
2.957500000000003
 30
0
 11
3.476
 21
2.960000000000003
 31
0
  0
LINE
  8
0
 62
7
 10
3.476
 20
2.960000000000003
 30
0
 11
3.467000000000001
 21
2.960000000000003
 31
0
  0
LINE
  8
0
 62
7
 10
3.467000000000001
 20
2.960000000000003
 30
0
 11
3.46025
 21
2.957500000000003
 31
0
  0
LINE
  8
0
 62
7
 10
3.46025
 20
2.957500000000003
 30
0
 11
3.4535
 21
2.952500000000003
 31
0
  0
LINE
  8
0
 62
7
 10
3.4535
 20
2.952500000000003
 30
0
 11
3.44675
 21
2.942500000000003
 31
0
  0
LINE
  8
0
 62
7
 10
3.44675
 20
2.942500000000003
 30
0
 11
3.4445
 21
2.935000000000003
 31
0
  0
LINE
  8
0
 62
7
 10
3.4445
 20
2.935000000000003
 30
0
 11
3.4445
 21
2.915000000000003
 31
0
  0
LINE
  8
0
 62
7
 10
3.4445
 20
2.915000000000003
 30
0
 11
3.44675
 21
2.907500000000003
 31
0
  0
LINE
  8
0
 62
7
 10
3.44675
 20
2.907500000000003
 30
0
 11
3.4535
 21
2.897500000000003
 31
0
  0
LINE
  8
0
 62
7
 10
3.4535
 20
2.897500000000003
 30
0
 11
3.46025
 21
2.892500000000003
 31
0
  0
LINE
  8
0
 62
7
 10
3.46025
 20
2.892500000000003
 30
0
 11
3.467000000000001
 21
2.890000000000003
 31
0
  0
LINE
  8
0
 62
7
 10
3.467000000000001
 20
2.890000000000003
 30
0
 11
3.476
 21
2.890000000000003
 31
0
  0
LINE
  8
0
 62
7
 10
3.476
 20
2.890000000000003
 30
0
 11
3.48275
 21
2.892500000000003
 31
0
  0
LINE
  8
0
 62
7
 10
3.48275
 20
2.892500000000003
 30
0
 11
3.4895
 21
2.897500000000003
 31
0
  0
LINE
  8
0
 62
7
 10
3.4895
 20
2.897500000000003
 30
0
 11
3.49625
 21
2.907500000000003
 31
0
  0
LINE
  8
0
 62
7
 10
3.56825
 20
2.935000000000003
 30
0
 11
3.566000000000001
 21
2.942500000000003
 31
0
  0
LINE
  8
0
 62
7
 10
3.566000000000001
 20
2.942500000000003
 30
0
 11
3.55925
 21
2.952500000000003
 31
0
  0
LINE
  8
0
 62
7
 10
3.55925
 20
2.952500000000003
 30
0
 11
3.5525
 21
2.957500000000003
 31
0
  0
LINE
  8
0
 62
7
 10
3.5525
 20
2.957500000000003
 30
0
 11
3.54575
 21
2.960000000000003
 31
0
  0
LINE
  8
0
 62
7
 10
3.54575
 20
2.960000000000003
 30
0
 11
3.53675
 21
2.960000000000003
 31
0
  0
LINE
  8
0
 62
7
 10
3.53675
 20
2.960000000000003
 30
0
 11
3.530000000000001
 21
2.957500000000003
 31
0
  0
LINE
  8
0
 62
7
 10
3.530000000000001
 20
2.957500000000003
 30
0
 11
3.52325
 21
2.952500000000003
 31
0
  0
LINE
  8
0
 62
7
 10
3.52325
 20
2.952500000000003
 30
0
 11
3.5165
 21
2.942500000000003
 31
0
  0
LINE
  8
0
 62
7
 10
3.5165
 20
2.942500000000003
 30
0
 11
3.51425
 21
2.935000000000003
 31
0
  0
LINE
  8
0
 62
7
 10
3.51425
 20
2.935000000000003
 30
0
 11
3.51425
 21
2.915000000000003
 31
0
  0
LINE
  8
0
 62
7
 10
3.51425
 20
2.915000000000003
 30
0
 11
3.5165
 21
2.907500000000003
 31
0
  0
LINE
  8
0
 62
7
 10
3.5165
 20
2.907500000000003
 30
0
 11
3.52325
 21
2.897500000000003
 31
0
  0
LINE
  8
0
 62
7
 10
3.52325
 20
2.897500000000003
 30
0
 11
3.530000000000001
 21
2.892500000000003
 31
0
  0
LINE
  8
0
 62
7
 10
3.530000000000001
 20
2.892500000000003
 30
0
 11
3.53675
 21
2.890000000000003
 31
0
  0
LINE
  8
0
 62
7
 10
3.53675
 20
2.890000000000003
 30
0
 11
3.54575
 21
2.890000000000003
 31
0
  0
LINE
  8
0
 62
7
 10
3.54575
 20
2.890000000000003
 30
0
 11
3.5525
 21
2.892500000000003
 31
0
  0
LINE
  8
0
 62
7
 10
3.5525
 20
2.892500000000003
 30
0
 11
3.55925
 21
2.897500000000003
 31
0
  0
LINE
  8
0
 62
7
 10
3.55925
 20
2.897500000000003
 30
0
 11
3.566000000000001
 21
2.907500000000003
 31
0
  0
LINE
  8
0
 62
7
 10
3.566000000000001
 20
2.907500000000003
 30
0
 11
3.56825
 21
2.915000000000003
 31
0
  0
LINE
  8
0
 62
7
 10
3.56825
 20
2.960000000000003
 30
0
 11
3.56825
 21
2.935000000000003
 31
0
  0
LINE
  8
0
 62
7
 10
3.56825
 20
2.892500000000003
 30
0
 11
3.5705
 21
2.890000000000003
 31
0
  0
LINE
  8
0
 62
7
 10
3.5705
 20
2.890000000000003
 30
0
 11
3.57275
 21
2.890000000000003
 31
0
  0
LINE
  8
0
 62
7
 10
3.56825
 20
2.915000000000003
 30
0
 11
3.56825
 21
2.892500000000003
 31
0
  0
LINE
  8
0
 62
7
 10
3.56825
 20
2.935000000000003
 30
0
 11
3.56825
 21
2.915000000000003
 31
0
  0
LINE
  8
0
 62
7
 10
3.59075
 20
2.890000000000003
 30
0
 11
3.59075
 21
2.892500000000003
 31
0
  0
LINE
  8
0
 62
7
 10
3.59075
 20
2.892500000000003
 30
0
 11
3.593
 21
2.892500000000003
 31
0
  0
LINE
  8
0
 62
7
 10
3.593
 20
2.892500000000003
 30
0
 11
3.593
 21
2.890000000000003
 31
0
  0
LINE
  8
0
 62
7
 10
3.593
 20
2.890000000000003
 30
0
 11
3.59075
 21
2.890000000000003
 31
0
  0
LINE
  8
0
 62
7
 10
3.69425
 20
2.960000000000003
 30
0
 11
3.72125
 21
2.990000000000003
 31
0
  0
LINE
  8
0
 62
7
 10
3.72125
 20
2.990000000000003
 30
0
 11
3.72125
 21
2.890000000000003
 31
0
  0
LINE
  8
0
 62
7
 10
3.748250000000001
 20
2.965000000000003
 30
0
 11
3.750500000000001
 21
2.975000000000003
 31
0
  0
LINE
  8
0
 62
7
 10
3.750500000000001
 20
2.975000000000003
 30
0
 11
3.755000000000001
 21
2.982500000000003
 31
0
  0
LINE
  8
0
 62
7
 10
3.755000000000001
 20
2.982500000000003
 30
0
 11
3.76175
 21
2.987500000000003
 31
0
  0
LINE
  8
0
 62
7
 10
3.76175
 20
2.987500000000003
 30
0
 11
3.7685
 21
2.990000000000003
 31
0
  0
LINE
  8
0
 62
7
 10
3.7685
 20
2.990000000000003
 30
0
 11
3.782
 21
2.990000000000003
 31
0
  0
LINE
  8
0
 62
7
 10
3.782
 20
2.990000000000003
 30
0
 11
3.78875
 21
2.987500000000003
 31
0
  0
LINE
  8
0
 62
7
 10
3.78875
 20
2.987500000000003
 30
0
 11
3.7955
 21
2.982500000000003
 31
0
  0
LINE
  8
0
 62
7
 10
3.7955
 20
2.982500000000003
 30
0
 11
3.8
 21
2.975000000000003
 31
0
  0
LINE
  8
0
 62
7
 10
3.8
 20
2.975000000000003
 30
0
 11
3.80225
 21
2.965000000000003
 31
0
  0
LINE
  8
0
 62
7
 10
3.80225
 20
2.965000000000003
 30
0
 11
3.80225
 21
2.915000000000003
 31
0
  0
LINE
  8
0
 62
7
 10
3.80225
 20
2.915000000000003
 30
0
 11
3.8
 21
2.905000000000003
 31
0
  0
LINE
  8
0
 62
7
 10
3.8
 20
2.905000000000003
 30
0
 11
3.7955
 21
2.897500000000003
 31
0
  0
LINE
  8
0
 62
7
 10
3.7955
 20
2.897500000000003
 30
0
 11
3.78875
 21
2.892500000000003
 31
0
  0
LINE
  8
0
 62
7
 10
3.78875
 20
2.892500000000003
 30
0
 11
3.782
 21
2.890000000000003
 31
0
  0
LINE
  8
0
 62
7
 10
3.782
 20
2.890000000000003
 30
0
 11
3.7685
 21
2.890000000000003
 31
0
  0
LINE
  8
0
 62
7
 10
3.7685
 20
2.890000000000003
 30
0
 11
3.76175
 21
2.892500000000003
 31
0
  0
LINE
  8
0
 62
7
 10
3.76175
 20
2.892500000000003
 30
0
 11
3.755000000000001
 21
2.897500000000003
 31
0
  0
LINE
  8
0
 62
7
 10
3.755000000000001
 20
2.897500000000003
 30
0
 11
3.750500000000001
 21
2.905000000000003
 31
0
  0
LINE
  8
0
 62
7
 10
3.750500000000001
 20
2.905000000000003
 30
0
 11
3.748250000000001
 21
2.915000000000003
 31
0
  0
LINE
  8
0
 62
7
 10
3.748250000000001
 20
2.915000000000003
 30
0
 11
3.748250000000001
 21
2.965000000000003
 31
0
  0
LINE
  8
0
 62
7
 10
3.82925
 20
2.965000000000003
 30
0
 11
3.8315
 21
2.975000000000003
 31
0
  0
LINE
  8
0
 62
7
 10
3.8315
 20
2.975000000000003
 30
0
 11
3.836
 21
2.982500000000003
 31
0
  0
LINE
  8
0
 62
7
 10
3.836
 20
2.982500000000003
 30
0
 11
3.842750000000001
 21
2.987500000000003
 31
0
  0
LINE
  8
0
 62
7
 10
3.842750000000001
 20
2.987500000000003
 30
0
 11
3.8495
 21
2.990000000000003
 31
0
  0
LINE
  8
0
 62
7
 10
3.8495
 20
2.990000000000003
 30
0
 11
3.863
 21
2.990000000000003
 31
0
  0
LINE
  8
0
 62
7
 10
3.863
 20
2.990000000000003
 30
0
 11
3.86975
 21
2.987500000000003
 31
0
  0
LINE
  8
0
 62
7
 10
3.86975
 20
2.987500000000003
 30
0
 11
3.8765
 21
2.982500000000003
 31
0
  0
LINE
  8
0
 62
7
 10
3.8765
 20
2.982500000000003
 30
0
 11
3.881
 21
2.975000000000003
 31
0
  0
LINE
  8
0
 62
7
 10
3.881
 20
2.975000000000003
 30
0
 11
3.88325
 21
2.965000000000003
 31
0
  0
LINE
  8
0
 62
7
 10
3.88325
 20
2.965000000000003
 30
0
 11
3.88325
 21
2.915000000000003
 31
0
  0
LINE
  8
0
 62
7
 10
3.88325
 20
2.915000000000003
 30
0
 11
3.881
 21
2.905000000000003
 31
0
  0
LINE
  8
0
 62
7
 10
3.881
 20
2.905000000000003
 30
0
 11
3.8765
 21
2.897500000000003
 31
0
  0
LINE
  8
0
 62
7
 10
3.8765
 20
2.897500000000003
 30
0
 11
3.86975
 21
2.892500000000003
 31
0
  0
LINE
  8
0
 62
7
 10
3.86975
 20
2.892500000000003
 30
0
 11
3.863
 21
2.890000000000003
 31
0
  0
LINE
  8
0
 62
7
 10
3.863
 20
2.890000000000003
 30
0
 11
3.8495
 21
2.890000000000003
 31
0
  0
LINE
  8
0
 62
7
 10
3.8495
 20
2.890000000000003
 30
0
 11
3.842750000000001
 21
2.892500000000003
 31
0
  0
LINE
  8
0
 62
7
 10
3.842750000000001
 20
2.892500000000003
 30
0
 11
3.836
 21
2.897500000000003
 31
0
  0
LINE
  8
0
 62
7
 10
3.836
 20
2.897500000000003
 30
0
 11
3.8315
 21
2.905000000000003
 31
0
  0
LINE
  8
0
 62
7
 10
3.8315
 20
2.905000000000003
 30
0
 11
3.82925
 21
2.915000000000003
 31
0
  0
LINE
  8
0
 62
7
 10
3.82925
 20
2.915000000000003
 30
0
 11
3.82925
 21
2.965000000000003
 31
0
  0
LINE
  8
0
 62
7
 10
4.034000000000001
 20
2.942500000000003
 30
0
 11
4.02725
 21
2.952500000000003
 31
0
  0
LINE
  8
0
 62
7
 10
4.02725
 20
2.952500000000003
 30
0
 11
4.0205
 21
2.957500000000003
 31
0
  0
LINE
  8
0
 62
7
 10
4.0205
 20
2.957500000000003
 30
0
 11
4.013750000000001
 21
2.960000000000003
 31
0
  0
LINE
  8
0
 62
7
 10
4.013750000000001
 20
2.960000000000003
 30
0
 11
4.00475
 21
2.960000000000003
 31
0
  0
LINE
  8
0
 62
7
 10
4.00475
 20
2.960000000000003
 30
0
 11
3.998000000000001
 21
2.957500000000003
 31
0
  0
LINE
  8
0
 62
7
 10
3.998000000000001
 20
2.957500000000003
 30
0
 11
3.99125
 21
2.952500000000003
 31
0
  0
LINE
  8
0
 62
7
 10
3.99125
 20
2.952500000000003
 30
0
 11
3.9845
 21
2.942500000000003
 31
0
  0
LINE
  8
0
 62
7
 10
3.9845
 20
2.942500000000003
 30
0
 11
3.98225
 21
2.935000000000003
 31
0
  0
LINE
  8
0
 62
7
 10
3.98225
 20
2.935000000000003
 30
0
 11
3.98225
 21
2.915000000000003
 31
0
  0
LINE
  8
0
 62
7
 10
3.98225
 20
2.915000000000003
 30
0
 11
3.9845
 21
2.907500000000003
 31
0
  0
LINE
  8
0
 62
7
 10
3.9845
 20
2.907500000000003
 30
0
 11
3.99125
 21
2.897500000000003
 31
0
  0
LINE
  8
0
 62
7
 10
3.99125
 20
2.897500000000003
 30
0
 11
3.998000000000001
 21
2.892500000000003
 31
0
  0
LINE
  8
0
 62
7
 10
3.998000000000001
 20
2.892500000000003
 30
0
 11
4.00475
 21
2.890000000000003
 31
0
  0
LINE
  8
0
 62
7
 10
4.00475
 20
2.890000000000003
 30
0
 11
4.013750000000001
 21
2.890000000000003
 31
0
  0
LINE
  8
0
 62
7
 10
4.013750000000001
 20
2.890000000000003
 30
0
 11
4.0205
 21
2.892500000000003
 31
0
  0
LINE
  8
0
 62
7
 10
4.0205
 20
2.892500000000003
 30
0
 11
4.02725
 21
2.897500000000003
 31
0
  0
LINE
  8
0
 62
7
 10
4.02725
 20
2.897500000000003
 30
0
 11
4.034000000000001
 21
2.907500000000003
 31
0
  0
LINE
  8
0
 62
7
 10
4.0925
 20
2.935000000000003
 30
0
 11
4.0925
 21
2.890000000000003
 31
0
  0
LINE
  8
0
 62
7
 10
4.052
 20
2.960000000000003
 30
0
 11
4.052
 21
2.935000000000003
 31
0
  0
LINE
  8
0
 62
7
 10
4.052
 20
2.890000000000003
 30
0
 11
4.052
 21
2.935000000000003
 31
0
  0
LINE
  8
0
 62
7
 10
4.052
 20
2.935000000000003
 30
0
 11
4.054250000000001
 21
2.947500000000003
 31
0
  0
LINE
  8
0
 62
7
 10
4.054250000000001
 20
2.947500000000003
 30
0
 11
4.0565
 21
2.952500000000003
 31
0
  0
LINE
  8
0
 62
7
 10
4.0565
 20
2.952500000000003
 30
0
 11
4.061
 21
2.957500000000003
 31
0
  0
LINE
  8
0
 62
7
 10
4.061
 20
2.957500000000003
 30
0
 11
4.06775
 21
2.960000000000003
 31
0
  0
LINE
  8
0
 62
7
 10
4.06775
 20
2.960000000000003
 30
0
 11
4.07675
 21
2.960000000000003
 31
0
  0
LINE
  8
0
 62
7
 10
4.07675
 20
2.960000000000003
 30
0
 11
4.0835
 21
2.957500000000003
 31
0
  0
LINE
  8
0
 62
7
 10
4.0835
 20
2.957500000000003
 30
0
 11
4.088
 21
2.952500000000003
 31
0
  0
LINE
  8
0
 62
7
 10
4.088
 20
2.952500000000003
 30
0
 11
4.09025
 21
2.947500000000003
 31
0
  0
LINE
  8
0
 62
7
 10
4.09025
 20
2.947500000000003
 30
0
 11
4.0925
 21
2.935000000000003
 31
0
  0
LINE
  8
0
 62
7
 10
4.0925
 20
2.935000000000003
 30
0
 11
4.09475
 21
2.947500000000003
 31
0
  0
LINE
  8
0
 62
7
 10
4.09475
 20
2.947500000000003
 30
0
 11
4.097
 21
2.952500000000003
 31
0
  0
LINE
  8
0
 62
7
 10
4.097
 20
2.952500000000003
 30
0
 11
4.101500000000001
 21
2.957500000000003
 31
0
  0
LINE
  8
0
 62
7
 10
4.101500000000001
 20
2.957500000000003
 30
0
 11
4.108250000000001
 21
2.960000000000003
 31
0
  0
LINE
  8
0
 62
7
 10
4.108250000000001
 20
2.960000000000003
 30
0
 11
4.11725
 21
2.960000000000003
 31
0
  0
LINE
  8
0
 62
7
 10
4.11725
 20
2.960000000000003
 30
0
 11
4.124000000000001
 21
2.957500000000003
 31
0
  0
LINE
  8
0
 62
7
 10
4.128500000000001
 20
2.952500000000003
 30
0
 11
4.124000000000001
 21
2.957500000000003
 31
0
  0
LINE
  8
0
 62
7
 10
4.124000000000001
 20
2.957500000000003
 30
0
 11
4.128500000000001
 21
2.952500000000003
 31
0
  0
LINE
  8
0
 62
7
 10
4.128500000000001
 20
2.952500000000003
 30
0
 11
4.13075
 21
2.947500000000003
 31
0
  0
LINE
  8
0
 62
7
 10
4.13075
 20
2.947500000000003
 30
0
 11
4.133
 21
2.935000000000003
 31
0
  0
LINE
  8
0
 62
7
 10
4.133
 20
2.935000000000003
 30
0
 11
4.133
 21
2.890000000000003
 31
0
  0
ARC
  8
0
 62
7
 10
2.388712787888111
 20
4.016287212111833
 30
0
 40
0.6330000000000072
 50
89.88351520489961
 51
180.1164847973803
  0
ARC
  8
0
 62
7
 10
2.671287212111769
 20
4.016287212111893
 30
0
 40
0.6330000000000072
 50
359.8835152075138
 51
90.11648479738301
  0
CIRCLE
  8
0
 62
7
 10
3.304285903934019
 20
3.250000000000003
 30
0
 40
0.06000000000000005
  0
DIMENSION
  8
0
  6
CONTINUOUS
 62
7
  2
*D1
  3
DMST_1
 10
1.275
 20
11.4867439635497
 30
0
 11
2.49846914324647
 21
11.4867439635497
 31
0
 12
0
 22
0
 32
0
 70
0
 13
3.785
 23
11.2
 33
0
 14
1.275
 24
11.2
 34
0
 53
0
  0
DIMENSION
  8
0
  6
CONTINUOUS
 62
7
  2
*D2
  3
DMST_2
 10
4.30389755067281
 20
5.130000000000004
 30
0
 11
4.30389755067281
 21
4.27801902742293
 31
0
 12
0
 22
0
 32
0
 70
0
 13
3.96
 23
3.250000000000003
 33
0
 14
3.96
 24
5.130000000000004
 34
0
 50
90
 53
0
  0
DIMENSION
  8
0
  6
CONTINUOUS
 62
7
  2
*D3
  3
DMST_2
 10
3.785
 20
5.953560499063201
 30
0
 11
2.60237869187532
 21
5.953560499063201
 31
0
 12
0
 22
0
 32
0
 70
0
 13
1.275
 23
5.649999999999996
 33
0
 14
3.785
 24
5.649999999999996
 34
0
 53
0
  0
DIMENSION
  8
0
  6
CONTINUOUS
 62
7
  2
*D4
  3
DMST_2
 10
0.796950284448987
 20
3.350000000000002
 30
0
 11
0.796950284448987
 21
4.23905294668711
 31
0
 12
0
 22
0
 32
0
 70
0
 13
1.1
 23
5.130000000000004
 33
0
 14
1.1
 24
3.350000000000003
 34
0
 50
90
 53
0
  0
INSERT
  8
0
  2
*D0
 10
0
 20
0
 30
0
  0
ENDSEC
  0
EOF
