  0
SECTION
  2
HEADER
  9
$ACADVER
  1
AC1009
  9
$INSBASE
 10
0
 20
0
  9
$EXTMIN
 10
0.45
 20
2.890000000000003
  9
$EXTMAX
 10
8.226990458184309
 20
11.5417439635497
  9
$LIMMIN
 10
0.45
 20
2.890000000000003
  9
$LIMMAX
 10
8.226990458184309
 20
11.5417439635497
  9
$VIEWCTR
 10
10
 20
10
  9
$VIEWSIZE
 40
10
  9
$SNAPMODE
 70
0
  9
$SNAPUNIT
 10
1
 20
1
  9
$SNAPBASE
 10
0
 20
0
  9
$SNAPANG
 50
0
  9
$SNAPSTYLE
 70
0
  9
$SNAPISOPAIR
 70
0
  9
$GRIDMODE
 70
0
  9
$GRIDUNIT
 10
0
 20
0
  9
$ORTHOMODE
 70
0
  9
$REGENMODE
 70
1
  9
$FILLMODE
 70
1
  9
$QTEXTMODE
 70
0
  9
$DRAGMODE
 70
2
  9
$LTSCALE
 40
1
  9
$OSMODE
 70
0
  9
$ATTMODE
 70
1
  9
$TEXTSIZE
 40
3.5
  9
$TRACEWID
 40
0.5
  9
$TEXTSTYLE
  7
STANDARD
  9
$CLAYER
  8
0
  9
$CELTYPE
  6
BYLAYER
  9
$CECOLOR
 62
256
  9
$DIMSCALE
 40
1
  9
$DIMASZ
 40
0.18
  9
$DIMEXO
 40
0.0625
  9
$DIMDLI
 40
0.38
  9
$DIMRND
 40
0
  9
$DIMDLE
 40
0
  9
$DIMEXE
 40
0.18
  9
$DIMTP
 40
0
  9
$DIMTM
 40
0
  9
$DIMTXT
 40
0.18
  9
$DIMCEN
 40
0.09
  9
$DIMTSZ
 40
0
  9
$DIMTOL
 70
0
  9
$DIMLIM
 70
0
  9
$DIMTIH
 70
1
  9
$DIMTOH
 70
1
  9
$DIMSE1
 70
0
  9
$DIMSE2
 70
0
  9
$DIMTAD
 70
0
  9
$DIMZIN
 70
0
  9
$DIMBLK
  1

  9
$DIMASO
 70
1
  9
$DIMSHO
 70
1
  9
$DIMPOST
  1

  9
$DIMAPOST
  1

  9
$DIMALT
 70
0
  9
$DIMALTD
 70
2
  9
$DIMALTF
 40
25.4
  9
$DIMLFAC
 40
1
  9
$DIMTOFL
 70
0
  9
$DIMTVP
 40
0
  9
$DIMTIX
 70
0
  9
$DIMSOXD
 70
0
  9
$DIMSAH
 70
0
  9
$DIMBLK1
  1

  9
$DIMBLK2
  1

  9
$DIMSTYLE
  2
*UNNAMED
  9
$DIMCLRD
 70
0
  9
$DIMCLRE
 70
0
  9
$DIMCLRT
 70
0
  9
$DIMTFAC
 40
1
  9
$DIMGAP
 40
0.09
  9
$LUNITS
 70
2
  9
$LUPREC
 70
4
  9
$AXISMODE
 70
0
  9
$AXISUNIT
 10
0
 20
0
  9
$SKETCHINC
 40
0.1
  9
$FILLETRAD
 40
2
  9
$AUNITS
 70
0
  9
$AUPREC
 70
0
  9
$MENU
  1
ACAD
  9
$ELEVATION
 40
0
  9
$THICKNESS
 40
0
  9
$VIEWDIR
 10
0
 20
0
 30
1
  9
$LIMCHECK
 70
0
  9
$BLIPMODE
 70
1
  9
$CHAMFERA
 40
0
  9
$CHAMFERB
 40
0
  9
$FASTZOOM
 70
1
  9
$SKPOLY
 70
0
  9
$ANGBASE
 50
0
  9
$ANGDIR
 70
0
  9
$PDMODE
 70
0
  9
$PDSIZE
 40
0
  9
$PLINEWID
 40
0
  9
$COORDS
 70
2
  0
ENDSEC
  0
SECTION
  2
TABLES
  0
TABLE
  2
DIMSTYLE
 70
2
  0
DIMSTYLE
  2
DMST_1
 70
0
  3

  4

  5

  6

  7

 40
1
 41
0.1
 42
0
 43
0.7
 44
0.2
 45
0
 46
0
 47
0
 48
0
140
0.1
141
0
142
0.1
143
25.4
144
1
145
0
146
1
147
0.2
 71
0
 72
0
 73
0
 74
0
 75
0
 76
0
 77
0
 78
9
170
0
171
2
172
0
173
0
174
0
175
0
176
7
177
7
178
7
  0
DIMSTYLE
  2
DMST_2
 70
0
  3

  4

  5

  6

  7

 40
1
 41
0.1
 42
0
 43
0.7
 44
0.2
 45
0
 46
0
 47
0
 48
0
140
0.1
141
0
142
0.1
143
25.4
144
1
145
0
146
1
147
0.25
 71
0
 72
0
 73
0
 74
0
 75
0
 76
0
 77
0
 78
9
170
0
171
2
172
0
173
0
174
0
175
0
176
7
177
7
178
7
  0
ENDTAB
  0
TABLE
  2
LTYPE
 70
9
  0
LTYPE
  2
CONTINUOUS
 70
64
  3
Solid line
 72
65
 73
0
 40
0
  0
LTYPE
  2
BORDER
 70
64
  3
__ __ . __ __ .
 72
65
 73
6
 40
0.3984355772687361
 49
0.113838736362496
 49
-0.05691936818124801
 49
0.113838736362496
 49
-0.05691936818124801
 49
0
 49
-0.05691936818124801
  0
LTYPE
  2
CENTER
 70
64
  3
____ _ ____ _
 72
65
 73
4
 40
0.4553549454499841
 49
0.28459684090624
 49
-0.05691936818124801
 49
0.05691936818124801
 49
-0.05691936818124801
  0
LTYPE
  2
DASHDOT
 70
64
  3
__ . __ . __ .
 72
65
 73
4
 40
0.2276774727249921
 49
0.113838736362496
 49
-0.05691936818124801
 49
0
 49
-0.05691936818124801
  0
LTYPE
  2
DASHED
 70
64
  3
__ __ __ __ __
 72
65
 73
2
 40
0.170758104543744
 49
0.113838736362496
 49
-0.05691936818124801
  0
LTYPE
  2
DIVIDE
 70
64
  3
__ . . __ . . 
 72
65
 73
6
 40
0.28459684090624
 49
0.113838736362496
 49
-0.05691936818124801
 49
0
 49
-0.05691936818124801
 49
0
 49
-0.05691936818124801
  0
LTYPE
  2
DOT
 70
64
  3
..............
 72
65
 73
4
 40
0.113838736362496
 49
0
 49
-0.05691936818124801
 49
0
 49
-0.05691936818124801
  0
LTYPE
  2
HIDDEN
 70
64
  3
_ _ _ _ _ _ _
 72
65
 73
2
 40
0.08537905227187202
 49
0.05691936818124801
 49
-0.02845968409062401
  0
LTYPE
  2
PHANTOM
 70
64
  3
_____ _ _ _____ _ _ 
 72
65
 73
6
 40
0.5691936818124801
 49
0.28459684090624
 49
-0.05691936818124801
 49
0.05691936818124801
 49
-0.05691936818124801
 49
0.05691936818124801
 49
-0.05691936818124801
  0
ENDTAB
  0
TABLE
  2
LAYER
 70
2
  0
LAYER
  2
0
 70
0
 62
7
  6
CONTINUOUS
  0
ENDTAB
  0
TABLE
  2
STYLE
 70
4
  0
STYLE
  2
STANDARD
 70
0
 40
0
 41
1
 50
0
 71
0
 42
3.5
  3
txt
  4

  0
STYLE
  2
SIMPLEX
 70
0
 40
0
 41
1
 50
0
 71
0
 42
3.5
  3
simplex
  4

  0
STYLE
  2
COMPLEX
 70
0
 40
0
 41
1
 50
0
 71
0
 42
3.5
  3
complex
  4

  0
STYLE
  2
ITALIC
 70
0
 40
0
 41
1
 50
0
 71
0
 42
3.5
  3
italic
  4

  0
ENDTAB
  0
TABLE
  2
VIEW
 70
0
  0
ENDTAB
  0
ENDSEC
  0
SECTION
  2
BLOCKS
  0
BLOCK
  8
0
  2
*X0
 70
1
 10
0
 20
0
 30
0
  0
LINE
  8
0
 62
7
 10
7.425000000000001
 20
7.955330085889911
 30
0
 11
7.569669914110086
 21
8.099999999999996
 31
0
  0
LINE
  8
0
 62
7
 10
7.425000000000002
 20
8.061396103067892
 30
0
 11
7.463603896932104
 21
8.099999999999994
 31
0
  0
LINE
  8
0
 62
7
 10
7.525735931288072
 20
7.949999999999999
 30
0
 11
7.600000000000001
 21
8.024264068711929
 31
0
  0
ENDBLK
  8
0
  0
BLOCK
  8
0
  2
*X1
 70
1
 10
0
 20
0
 30
0
  0
LINE
  8
0
 62
7
 10
7.425
 20
10.71304653251744
 30
0
 11
7.561953467482555
 21
10.85
 31
0
  0
LINE
  8
0
 62
7
 10
7.425
 20
10.50091449816148
 30
0
 11
7.600000000000002
 21
10.67591449816148
 31
0
  0
LINE
  8
0
 62
7
 10
7.425
 20
10.28878246380551
 30
0
 11
7.600000000000002
 21
10.46378246380551
 31
0
  0
LINE
  8
0
 62
7
 10
7.425
 20
10.07665042944955
 30
0
 11
7.600000000000002
 21
10.25165042944955
 31
0
  0
LINE
  8
0
 62
7
 10
7.425
 20
9.864518395093585
 30
0
 11
7.600000000000002
 21
10.03951839509359
 31
0
  0
LINE
  8
0
 62
7
 10
7.425
 20
9.652386360737621
 30
0
 11
7.600000000000002
 21
9.827386360737622
 31
0
  0
LINE
  8
0
 62
7
 10
7.425
 20
9.440254326381657
 30
0
 11
7.600000000000002
 21
9.615254326381658
 31
0
  0
LINE
  8
0
 62
7
 10
7.425
 20
9.228122292025693
 30
0
 11
7.600000000000002
 21
9.403122292025694
 31
0
  0
LINE
  8
0
 62
7
 10
7.425
 20
9.01599025766973
 30
0
 11
7.600000000000002
 21
9.19099025766973
 31
0
  0
LINE
  8
0
 62
7
 10
7.425
 20
8.803858223313766
 30
0
 11
7.600000000000002
 21
8.978858223313766
 31
0
  0
LINE
  8
0
 62
7
 10
7.425
 20
8.591726188957802
 30
0
 11
7.600000000000002
 21
8.766726188957803
 31
0
  0
LINE
  8
0
 62
7
 10
7.425
 20
8.379594154601838
 30
0
 11
7.600000000000002
 21
8.554594154601839
 31
0
  0
LINE
  8
0
 62
7
 10
7.557537879754124
 20
8.299999999999997
 30
0
 11
7.600000000000002
 21
8.342462120245875
 31
0
  0
LINE
  8
0
 62
7
 10
7.425000000000001
 20
10.81911254969542
 30
0
 11
7.455887450304573
 21
10.85
 31
0
  0
LINE
  8
0
 62
7
 10
7.425000000000001
 20
10.60698051533946
 30
0
 11
7.600000000000002
 21
10.78198051533946
 31
0
  0
LINE
  8
0
 62
7
 10
7.425000000000001
 20
10.3948484809835
 30
0
 11
7.600000000000002
 21
10.5698484809835
 31
0
  0
LINE
  8
0
 62
7
 10
7.425000000000001
 20
10.18271644662753
 30
0
 11
7.600000000000002
 21
10.35771644662753
 31
0
  0
LINE
  8
0
 62
7
 10
7.425000000000001
 20
9.970584412271569
 30
0
 11
7.600000000000002
 21
10.14558441227157
 31
0
  0
LINE
  8
0
 62
7
 10
7.425000000000001
 20
9.758452377915605
 30
0
 11
7.600000000000002
 21
9.933452377915604
 31
0
  0
LINE
  8
0
 62
7
 10
7.425000000000001
 20
9.546320343559641
 30
0
 11
7.600000000000002
 21
9.72132034355964
 31
0
  0
LINE
  8
0
 62
7
 10
7.425000000000001
 20
9.334188309203677
 30
0
 11
7.600000000000002
 21
9.509188309203676
 31
0
  0
LINE
  8
0
 62
7
 10
7.425000000000001
 20
9.122056274847713
 30
0
 11
7.600000000000002
 21
9.297056274847712
 31
0
  0
LINE
  8
0
 62
7
 10
7.425000000000001
 20
8.909924240491749
 30
0
 11
7.600000000000002
 21
9.084924240491748
 31
0
  0
LINE
  8
0
 62
7
 10
7.425000000000001
 20
8.697792206135786
 30
0
 11
7.600000000000002
 21
8.872792206135784
 31
0
  0
LINE
  8
0
 62
7
 10
7.425000000000001
 20
8.485660171779822
 30
0
 11
7.600000000000002
 21
8.660660171779821
 31
0
  0
LINE
  8
0
 62
7
 10
7.451471862576141
 20
8.299999999999997
 30
0
 11
7.600000000000002
 21
8.448528137423857
 31
0
  0
ENDBLK
  8
0
  0
BLOCK
  8
0
  2
*X2
 70
1
 10
0
 20
0
 30
0
  0
LINE
  8
0
 62
7
 10
7.425000000000002
 20
11.13731060122938
 30
0
 11
7.487689398770626
 21
11.2
 31
0
  0
LINE
  8
0
 62
7
 10
7.549821433126593
 20
11.05
 30
0
 11
7.600000000000002
 21
11.10017856687341
 31
0
  0
LINE
  8
0
 62
7
 10
7.44375541594861
 20
11.05
 30
0
 11
7.593755415948609
 21
11.2
 31
0
  0
ENDBLK
  8
0
  0
BLOCK
  8
0
  2
*X3
 70
1
 10
0
 20
0
 30
0
  0
LINE
  8
0
 62
7
 10
4.74
 20
8.028046532517445
 30
0
 11
4.811953467482551
 21
8.099999999999996
 31
0
  0
LINE
  8
0
 62
7
 10
4.874085501838518
 20
7.949999999999998
 30
0
 11
4.914999999999999
 21
7.99091449816148
 31
0
  0
LINE
  8
0
 62
7
 10
4.768019484660536
 20
7.949999999999999
 30
0
 11
4.915
 21
8.096980515339462
 31
0
  0
ENDBLK
  8
0
  0
BLOCK
  8
0
  2
*X4
 70
1
 10
0
 20
0
 30
0
  0
LINE
  8
0
 62
7
 10
4.74
 20
10.78576297914498
 30
0
 11
4.80423702085502
 21
10.85
 31
0
  0
LINE
  8
0
 62
7
 10
4.74
 20
10.57363094478901
 30
0
 11
4.915000000000001
 21
10.74863094478901
 31
0
  0
LINE
  8
0
 62
7
 10
4.74
 20
10.36149891043305
 30
0
 11
4.915000000000001
 21
10.53649891043305
 31
0
  0
LINE
  8
0
 62
7
 10
4.74
 20
10.14936687607709
 30
0
 11
4.915000000000001
 21
10.32436687607709
 31
0
  0
LINE
  8
0
 62
7
 10
4.74
 20
9.937234841721121
 30
0
 11
4.915000000000001
 21
10.11223484172112
 31
0
  0
LINE
  8
0
 62
7
 10
4.74
 20
9.725102807365158
 30
0
 11
4.915000000000001
 21
9.900102807365158
 31
0
  0
LINE
  8
0
 62
7
 10
4.74
 20
9.512970773009194
 30
0
 11
4.915000000000001
 21
9.687970773009194
 31
0
  0
LINE
  8
0
 62
7
 10
4.74
 20
9.30083873865323
 30
0
 11
4.915000000000001
 21
9.475838738653231
 31
0
  0
LINE
  8
0
 62
7
 10
4.74
 20
9.088706704297266
 30
0
 11
4.915000000000001
 21
9.263706704297267
 31
0
  0
LINE
  8
0
 62
7
 10
4.74
 20
8.876574669941302
 30
0
 11
4.915000000000001
 21
9.051574669941303
 31
0
  0
LINE
  8
0
 62
7
 10
4.74
 20
8.664442635585338
 30
0
 11
4.915000000000001
 21
8.839442635585339
 31
0
  0
LINE
  8
0
 62
7
 10
4.74
 20
8.452310601229374
 30
0
 11
4.915000000000001
 21
8.627310601229375
 31
0
  0
LINE
  8
0
 62
7
 10
4.799821433126588
 20
8.299999999999997
 30
0
 11
4.915000000000001
 21
8.415178566873411
 31
0
  0
LINE
  8
0
 62
7
 10
4.739999999999999
 20
10.67969696196699
 30
0
 11
4.910303038033001
 21
10.85
 31
0
  0
LINE
  8
0
 62
7
 10
4.739999999999999
 20
10.46756492761103
 30
0
 11
4.914999999999999
 21
10.64256492761103
 31
0
  0
LINE
  8
0
 62
7
 10
4.739999999999999
 20
10.25543289325507
 30
0
 11
4.914999999999999
 21
10.43043289325506
 31
0
  0
LINE
  8
0
 62
7
 10
4.739999999999999
 20
10.0433008588991
 30
0
 11
4.914999999999999
 21
10.2183008588991
 31
0
  0
LINE
  8
0
 62
7
 10
4.739999999999999
 20
9.831168824543138
 30
0
 11
4.914999999999999
 21
10.00616882454314
 31
0
  0
LINE
  8
0
 62
7
 10
4.739999999999999
 20
9.619036790187174
 30
0
 11
4.914999999999999
 21
9.794036790187173
 31
0
  0
LINE
  8
0
 62
7
 10
4.739999999999999
 20
9.40690475583121
 30
0
 11
4.914999999999999
 21
9.581904755831209
 31
0
  0
LINE
  8
0
 62
7
 10
4.739999999999999
 20
9.194772721475246
 30
0
 11
4.914999999999999
 21
9.369772721475245
 31
0
  0
LINE
  8
0
 62
7
 10
4.739999999999999
 20
8.982640687119282
 30
0
 11
4.914999999999999
 21
9.157640687119281
 31
0
  0
LINE
  8
0
 62
7
 10
4.739999999999999
 20
8.770508652763318
 30
0
 11
4.914999999999999
 21
8.945508652763317
 31
0
  0
LINE
  8
0
 62
7
 10
4.739999999999999
 20
8.558376618407355
 30
0
 11
4.914999999999999
 21
8.733376618407354
 31
0
  0
LINE
  8
0
 62
7
 10
4.739999999999999
 20
8.346244584051391
 30
0
 11
4.914999999999999
 21
8.52124458405139
 31
0
  0
LINE
  8
0
 62
7
 10
4.90588745030457
 20
8.299999999999997
 30
0
 11
4.914999999999999
 21
8.309112549695426
 31
0
  0
ENDBLK
  8
0
  0
BLOCK
  8
0
  2
*X5
 70
1
 10
0
 20
0
 30
0
  0
LINE
  8
0
 62
7
 10
4.792104986499055
 20
11.05
 30
0
 11
4.914999999999999
 21
11.17289501350094
 31
0
  0
LINE
  8
0
 62
7
 10
4.74
 20
11.10396103067893
 30
0
 11
4.836038969321073
 21
11.2
 31
0
  0
LINE
  8
0
 62
7
 10
4.898171003677039
 20
11.05
 30
0
 11
4.915
 21
11.06682899632296
 31
0
  0
ENDBLK
  8
0
  0
BLOCK
  8
0
  2
*X6
 70
1
 10
0
 20
0
 30
0
  0
LINE
  8
0
 62
7
  6
DASHED
 10
4.599821433126593
 20
8.099999999999996
 30
0
 11
4.799821433126593
 21
8.299999999999995
 31
0
  0
LINE
  8
0
 62
7
  6
DASHED
 10
4.811953467482557
 20
8.099999999999996
 30
0
 11
5.011953467482557
 21
8.299999999999995
 31
0
  0
LINE
  8
0
 62
7
  6
DASHED
 10
5.02408550183852
 20
8.099999999999996
 30
0
 11
5.224085501838521
 21
8.299999999999995
 31
0
  0
LINE
  8
0
 62
7
  6
DASHED
 10
5.236217536194484
 20
8.099999999999996
 30
0
 11
5.436217536194484
 21
8.299999999999995
 31
0
  0
LINE
  8
0
 62
7
  6
DASHED
 10
5.448349570550448
 20
8.099999999999996
 30
0
 11
5.648349570550448
 21
8.299999999999995
 31
0
  0
LINE
  8
0
 62
7
  6
DASHED
 10
5.660481604906412
 20
8.099999999999996
 30
0
 11
5.860481604906412
 21
8.299999999999995
 31
0
  0
LINE
  8
0
 62
7
  6
DASHED
 10
5.872613639262376
 20
8.099999999999996
 30
0
 11
6.072613639262376
 21
8.299999999999995
 31
0
  0
LINE
  8
0
 62
7
  6
DASHED
 10
6.08474567361834
 20
8.099999999999996
 30
0
 11
6.28474567361834
 21
8.299999999999995
 31
0
  0
LINE
  8
0
 62
7
  6
DASHED
 10
6.296877707974303
 20
8.099999999999996
 30
0
 11
6.496877707974304
 21
8.299999999999995
 31
0
  0
LINE
  8
0
 62
7
  6
DASHED
 10
6.509009742330267
 20
8.099999999999996
 30
0
 11
6.709009742330267
 21
8.299999999999995
 31
0
  0
LINE
  8
0
 62
7
  6
DASHED
 10
6.721141776686231
 20
8.099999999999996
 30
0
 11
6.921141776686231
 21
8.299999999999995
 31
0
  0
LINE
  8
0
 62
7
  6
DASHED
 10
6.933273811042195
 20
8.099999999999996
 30
0
 11
7.133273811042195
 21
8.299999999999995
 31
0
  0
LINE
  8
0
 62
7
  6
DASHED
 10
7.145405845398159
 20
8.099999999999996
 30
0
 11
7.345405845398159
 21
8.299999999999995
 31
0
  0
LINE
  8
0
 62
7
  6
DASHED
 10
7.357537879754123
 20
8.099999999999996
 30
0
 11
7.557537879754123
 21
8.299999999999995
 31
0
  0
LINE
  8
0
 62
7
  6
DASHED
 10
7.569669914110086
 20
8.099999999999996
 30
0
 11
7.749999999999998
 21
8.28033008588991
 31
0
  0
LINE
  8
0
 62
7
 10
4.59
 20
8.196244584051392
 30
0
 11
4.693755415948612
 21
8.299999999999997
 31
0
  0
LINE
  8
0
 62
7
 10
4.705887450304576
 20
8.099999999999996
 30
0
 11
4.905887450304576
 21
8.299999999999997
 31
0
  0
LINE
  8
0
 62
7
 10
4.91801948466054
 20
8.099999999999996
 30
0
 11
5.11801948466054
 21
8.299999999999997
 31
0
  0
LINE
  8
0
 62
7
 10
5.130151519016504
 20
8.099999999999996
 30
0
 11
5.330151519016503
 21
8.299999999999997
 31
0
  0
LINE
  8
0
 62
7
 10
5.342283553372468
 20
8.099999999999996
 30
0
 11
5.542283553372467
 21
8.299999999999997
 31
0
  0
LINE
  8
0
 62
7
 10
5.554415587728432
 20
8.099999999999996
 30
0
 11
5.754415587728431
 21
8.299999999999997
 31
0
  0
LINE
  8
0
 62
7
 10
5.766547622084396
 20
8.099999999999996
 30
0
 11
5.966547622084395
 21
8.299999999999997
 31
0
  0
LINE
  8
0
 62
7
 10
5.978679656440359
 20
8.099999999999996
 30
0
 11
6.178679656440359
 21
8.299999999999997
 31
0
  0
LINE
  8
0
 62
7
 10
6.190811690796323
 20
8.099999999999996
 30
0
 11
6.390811690796323
 21
8.299999999999997
 31
0
  0
LINE
  8
0
 62
7
 10
6.402943725152287
 20
8.099999999999996
 30
0
 11
6.602943725152286
 21
8.299999999999997
 31
0
  0
LINE
  8
0
 62
7
 10
6.615075759508251
 20
8.099999999999996
 30
0
 11
6.81507575950825
 21
8.299999999999997
 31
0
  0
LINE
  8
0
 62
7
 10
6.827207793864215
 20
8.099999999999996
 30
0
 11
7.027207793864214
 21
8.299999999999997
 31
0
  0
LINE
  8
0
 62
7
 10
7.039339828220179
 20
8.099999999999996
 30
0
 11
7.239339828220178
 21
8.299999999999997
 31
0
  0
LINE
  8
0
 62
7
 10
7.251471862576143
 20
8.099999999999996
 30
0
 11
7.451471862576142
 21
8.299999999999997
 31
0
  0
LINE
  8
0
 62
7
 10
7.463603896932106
 20
8.099999999999996
 30
0
 11
7.663603896932106
 21
8.299999999999997
 31
0
  0
LINE
  8
0
 62
7
 10
7.67573593128807
 20
8.099999999999996
 30
0
 11
7.75
 21
8.174264068711928
 31
0
  0
ENDBLK
  8
0
  0
BLOCK
  8
0
  2
*X7
 70
1
 10
0
 20
0
 30
0
  0
LINE
  8
0
 62
7
  6
DASHED
 10
4.592104986499063
 20
10.85
 30
0
 11
4.792104986499063
 21
11.05
 31
0
  0
LINE
  8
0
 62
7
  6
DASHED
 10
4.804237020855027
 20
10.85
 30
0
 11
5.004237020855027
 21
11.05
 31
0
  0
LINE
  8
0
 62
7
  6
DASHED
 10
5.016369055210991
 20
10.85
 30
0
 11
5.216369055210991
 21
11.05
 31
0
  0
LINE
  8
0
 62
7
  6
DASHED
 10
5.228501089566954
 20
10.85
 30
0
 11
5.428501089566955
 21
11.05
 31
0
  0
LINE
  8
0
 62
7
  6
DASHED
 10
5.440633123922918
 20
10.85
 30
0
 11
5.640633123922918
 21
11.05
 31
0
  0
LINE
  8
0
 62
7
  6
DASHED
 10
5.652765158278882
 20
10.85
 30
0
 11
5.852765158278882
 21
11.05
 31
0
  0
LINE
  8
0
 62
7
  6
DASHED
 10
5.864897192634846
 20
10.85
 30
0
 11
6.064897192634846
 21
11.05
 31
0
  0
LINE
  8
0
 62
7
  6
DASHED
 10
6.07702922699081
 20
10.85
 30
0
 11
6.27702922699081
 21
11.05
 31
0
  0
LINE
  8
0
 62
7
  6
DASHED
 10
6.289161261346774
 20
10.85
 30
0
 11
6.489161261346774
 21
11.05
 31
0
  0
LINE
  8
0
 62
7
  6
DASHED
 10
6.501293295702737
 20
10.85
 30
0
 11
6.701293295702738
 21
11.05
 31
0
  0
LINE
  8
0
 62
7
  6
DASHED
 10
6.713425330058701
 20
10.85
 30
0
 11
6.913425330058701
 21
11.05
 31
0
  0
LINE
  8
0
 62
7
  6
DASHED
 10
6.925557364414665
 20
10.85
 30
0
 11
7.125557364414665
 21
11.05
 31
0
  0
LINE
  8
0
 62
7
  6
DASHED
 10
7.137689398770629
 20
10.85
 30
0
 11
7.337689398770629
 21
11.05
 31
0
  0
LINE
  8
0
 62
7
  6
DASHED
 10
7.349821433126593
 20
10.85
 30
0
 11
7.549821433126593
 21
11.05
 31
0
  0
LINE
  8
0
 62
7
  6
DASHED
 10
7.561953467482557
 20
10.85
 30
0
 11
7.75
 21
11.03804653251744
 31
0
  0
LINE
  8
0
 62
7
 10
4.589999999999998
 20
10.95396103067893
 30
0
 11
4.68603896932108
 21
11.05
 31
0
  0
LINE
  8
0
 62
7
 10
4.698171003677044
 20
10.85
 30
0
 11
4.898171003677044
 21
11.05
 31
0
  0
LINE
  8
0
 62
7
 10
4.910303038033008
 20
10.85
 30
0
 11
5.110303038033008
 21
11.05
 31
0
  0
LINE
  8
0
 62
7
 10
5.122435072388972
 20
10.85
 30
0
 11
5.322435072388972
 21
11.05
 31
0
  0
LINE
  8
0
 62
7
 10
5.334567106744935
 20
10.85
 30
0
 11
5.534567106744936
 21
11.05
 31
0
  0
LINE
  8
0
 62
7
 10
5.546699141100899
 20
10.85
 30
0
 11
5.746699141100899
 21
11.05
 31
0
  0
LINE
  8
0
 62
7
 10
5.758831175456863
 20
10.85
 30
0
 11
5.958831175456863
 21
11.05
 31
0
  0
LINE
  8
0
 62
7
 10
5.970963209812827
 20
10.85
 30
0
 11
6.170963209812827
 21
11.05
 31
0
  0
LINE
  8
0
 62
7
 10
6.183095244168791
 20
10.85
 30
0
 11
6.383095244168791
 21
11.05
 31
0
  0
LINE
  8
0
 62
7
 10
6.395227278524755
 20
10.85
 30
0
 11
6.595227278524755
 21
11.05
 31
0
  0
LINE
  8
0
 62
7
 10
6.607359312880718
 20
10.85
 30
0
 11
6.807359312880719
 21
11.05
 31
0
  0
LINE
  8
0
 62
7
 10
6.819491347236682
 20
10.85
 30
0
 11
7.019491347236682
 21
11.05
 31
0
  0
LINE
  8
0
 62
7
 10
7.031623381592646
 20
10.85
 30
0
 11
7.231623381592646
 21
11.05
 31
0
  0
LINE
  8
0
 62
7
 10
7.24375541594861
 20
10.85
 30
0
 11
7.44375541594861
 21
11.05
 31
0
  0
LINE
  8
0
 62
7
 10
7.455887450304574
 20
10.85
 30
0
 11
7.655887450304574
 21
11.05
 31
0
  0
LINE
  8
0
 62
7
 10
7.668019484660538
 20
10.85
 30
0
 11
7.749999999999999
 21
10.93198051533946
 31
0
  0
ENDBLK
  8
0
  0
BLOCK
  8
0
  2
*X8
 70
1
 10
0
 20
0
 30
0
  0
LINE
  8
0
 62
7
 10
0.5
 20
8.03068721963673
 30
0
 11
0.5693127803632656
 21
8.099999999999996
 31
0
  0
LINE
  8
0
 62
7
 10
0.6314448147192331
 20
7.949999999999998
 30
0
 11
0.7400000000000113
 21
8.058555185280778
 31
0
  0
LINE
  8
0
 62
7
 10
0.5253787975412521
 20
7.949999999999999
 30
0
 11
0.6753787975412489
 21
8.099999999999998
 31
0
  0
LINE
  8
0
 62
7
 10
0.7375108318972163
 20
7.949999999999999
 30
0
 11
0.74000000000001
 21
7.952489168102794
 31
0
  0
ENDBLK
  8
0
  0
BLOCK
  8
0
  2
*X9
 70
1
 10
0
 20
0
 30
0
  0
LINE
  8
0
 62
7
 10
0.5000000000000004
 20
10.78840366626426
 30
0
 11
0.5615963337357339
 21
10.85
 31
0
  0
LINE
  8
0
 62
7
 10
0.5000000000000004
 20
10.5762716319083
 30
0
 11
0.7400000000000118
 21
10.81627163190831
 31
0
  0
LINE
  8
0
 62
7
 10
0.5000000000000004
 20
10.36413959755233
 30
0
 11
0.7400000000000118
 21
10.60413959755234
 31
0
  0
LINE
  8
0
 62
7
 10
0.5000000000000004
 20
10.15200756319637
 30
0
 11
0.7400000000000118
 21
10.39200756319638
 31
0
  0
LINE
  8
0
 62
7
 10
0.5000000000000004
 20
9.939875528840407
 30
0
 11
0.7400000000000118
 21
10.17987552884042
 31
0
  0
LINE
  8
0
 62
7
 10
0.5000000000000004
 20
9.727743494484443
 30
0
 11
0.7400000000000118
 21
9.967743494484452
 31
0
  0
LINE
  8
0
 62
7
 10
0.5000000000000004
 20
9.515611460128479
 30
0
 11
0.7400000000000118
 21
9.755611460128488
 31
0
  0
LINE
  8
0
 62
7
 10
0.5000000000000004
 20
9.303479425772515
 30
0
 11
0.7400000000000118
 21
9.543479425772524
 31
0
  0
LINE
  8
0
 62
7
 10
0.5000000000000004
 20
9.091347391416551
 30
0
 11
0.7400000000000118
 21
9.331347391416561
 31
0
  0
LINE
  8
0
 62
7
 10
0.5000000000000004
 20
8.879215357060588
 30
0
 11
0.7400000000000118
 21
9.119215357060597
 31
0
  0
LINE
  8
0
 62
7
 10
0.5000000000000004
 20
8.667083322704624
 30
0
 11
0.7400000000000118
 21
8.907083322704633
 31
0
  0
LINE
  8
0
 62
7
 10
0.5000000000000004
 20
8.45495128834866
 30
0
 11
0.7400000000000118
 21
8.694951288348669
 31
0
  0
LINE
  8
0
 62
7
 10
0.5571807460073028
 20
8.299999999999997
 30
0
 11
0.7400000000000118
 21
8.482819253992705
 31
0
  0
LINE
  8
0
 62
7
 10
0.5
 20
10.68233764908628
 30
0
 11
0.6676623509137176
 21
10.85
 31
0
  0
LINE
  8
0
 62
7
 10
0.5
 20
10.47020561473031
 30
0
 11
0.7400000000000113
 21
10.71020561473032
 31
0
  0
LINE
  8
0
 62
7
 10
0.5
 20
10.25807358037435
 30
0
 11
0.7400000000000113
 21
10.49807358037436
 31
0
  0
LINE
  8
0
 62
7
 10
0.5
 20
10.04594154601839
 30
0
 11
0.7400000000000113
 21
10.2859415460184
 31
0
  0
LINE
  8
0
 62
7
 10
0.5
 20
9.833809511662423
 30
0
 11
0.7400000000000113
 21
10.07380951166243
 31
0
  0
LINE
  8
0
 62
7
 10
0.5
 20
9.621677477306459
 30
0
 11
0.7400000000000113
 21
9.861677477306468
 31
0
  0
LINE
  8
0
 62
7
 10
0.5
 20
9.409545442950495
 30
0
 11
0.7400000000000113
 21
9.649545442950505
 31
0
  0
LINE
  8
0
 62
7
 10
0.5
 20
9.197413408594532
 30
0
 11
0.7400000000000113
 21
9.437413408594541
 31
0
  0
LINE
  8
0
 62
7
 10
0.5
 20
8.985281374238568
 30
0
 11
0.7400000000000113
 21
9.225281374238577
 31
0
  0
LINE
  8
0
 62
7
 10
0.5
 20
8.773149339882604
 30
0
 11
0.7400000000000113
 21
9.013149339882613
 31
0
  0
LINE
  8
0
 62
7
 10
0.5
 20
8.56101730552664
 30
0
 11
0.7400000000000113
 21
8.801017305526649
 31
0
  0
LINE
  8
0
 62
7
 10
0.5
 20
8.348885271170676
 30
0
 11
0.7400000000000113
 21
8.588885271170685
 31
0
  0
LINE
  8
0
 62
7
 10
0.6632467631852852
 20
8.299999999999997
 30
0
 11
0.7400000000000113
 21
8.376753236814722
 31
0
  0
ENDBLK
  8
0
  0
BLOCK
  8
0
  2
*X10
 70
1
 10
0
 20
0
 30
0
  0
LINE
  8
0
 62
7
 10
0.549464299379772
 20
11.05
 30
0
 11
0.6994642993797706
 21
11.2
 31
0
  0
LINE
  8
0
 62
7
 10
0.5
 20
11.10660171779821
 30
0
 11
0.5933982822017896
 21
11.2
 31
0
  0
LINE
  8
0
 62
7
 10
0.6555303165577557
 20
11.05
 30
0
 11
0.74000000000001
 21
11.13446968344225
 31
0
  0
ENDBLK
  8
0
  0
BLOCK
  8
0
  2
*X11
 70
1
 10
0
 20
0
 30
0
  0
LINE
  8
0
 62
7
  6
DASHED
 10
2.52
 20
8.141498910433052
 30
0
 11
2.678501089566945
 21
8.299999999999997
 31
0
  0
LINE
  8
0
 62
7
  6
DASHED
 10
2.690633123922909
 20
8.099999999999996
 30
0
 11
2.82
 21
8.229366876077087
 31
0
  0
LINE
  8
0
 62
7
 10
2.519999999999999
 20
8.247564927611032
 30
0
 11
2.572435072388964
 21
8.299999999999997
 31
0
  0
LINE
  8
0
 62
7
 10
2.584567106744926
 20
8.099999999999994
 30
0
 11
2.784567106744928
 21
8.299999999999997
 31
0
  0
LINE
  8
0
 62
7
 10
2.79669914110089
 20
8.099999999999994
 30
0
 11
2.819999999999999
 21
8.123300858899103
 31
0
  0
ENDBLK
  8
0
  0
BLOCK
  8
0
  2
*X12
 70
1
 10
0
 20
0
 30
0
  0
LINE
  8
0
 62
7
  6
DASHED
 10
2.52
 20
10.89921535706059
 30
0
 11
2.670784642939415
 21
11.05
 31
0
  0
LINE
  8
0
 62
7
  6
DASHED
 10
2.682916677295378
 20
10.85
 30
0
 11
2.819999999999999
 21
10.98708332270462
 31
0
  0
LINE
  8
0
 62
7
 10
2.52
 20
11.00528137423857
 30
0
 11
2.564718625761433
 21
11.05
 31
0
  0
LINE
  8
0
 62
7
 10
2.576850660117394
 20
10.85
 30
0
 11
2.776850660117397
 21
11.05
 31
0
  0
LINE
  8
0
 62
7
 10
2.788982694473359
 20
10.85
 30
0
 11
2.819999999999999
 21
10.88101730552664
 31
0
  0
ENDBLK
  8
0
  0
BLOCK
  8
0
  2
*X13
 70
1
 10
0
 20
0
 30
0
  0
LINE
  8
0
 62
7
  6
DASHED
 10
0.4999999999999991
 20
11.00053570062023
 30
0
 11
0.5494642993797729
 21
11.05
 31
0
  0
LINE
  8
0
 62
7
  6
DASHED
 10
0.5615963337357348
 20
10.85
 30
0
 11
0.7400000000000109
 21
11.02840366626427
 31
0
  0
LINE
  8
0
 62
7
 10
0.5000000000000009
 20
10.89446968344225
 30
0
 11
0.6555303165577557
 21
11.05
 31
0
  0
LINE
  8
0
 62
7
 10
0.6676623509137176
 20
10.85
 30
0
 11
0.74000000000001
 21
10.92233764908629
 31
0
  0
ENDBLK
  8
0
  0
BLOCK
  8
0
  2
*X14
 70
1
 10
0
 20
0
 30
0
  0
LINE
  8
0
 62
7
  6
DASHED
 10
0.5
 20
8.242819253992694
 30
0
 11
0.5571807460073028
 21
8.299999999999997
 31
0
  0
LINE
  8
0
 62
7
  6
DASHED
 10
0.569312780363266
 20
8.099999999999996
 30
0
 11
0.7400000000000113
 21
8.270687219636741
 31
0
  0
LINE
  8
0
 62
7
 10
0.4999999999999991
 20
8.136753236814712
 30
0
 11
0.6632467631852847
 21
8.299999999999997
 31
0
  0
LINE
  8
0
 62
7
 10
0.6753787975412489
 20
8.099999999999998
 30
0
 11
0.7400000000000113
 21
8.164621202458758
 31
0
  0
ENDBLK
  8
0
  0
BLOCK
  8
0
  2
*X15
 70
1
 10
0
 20
0
 30
0
  0
LINE
  8
0
 62
7
 10
4.74
 20
5.694594154601838
 30
0
 11
4.845405845398159
 21
5.799999999999997
 31
0
  0
LINE
  8
0
 62
7
 10
4.59
 20
5.544594154601838
 30
0
 11
4.695405845398157
 21
5.649999999999995
 31
0
  0
LINE
  8
0
 62
7
 10
4.667537879754135
 20
5.410000000000004
 30
0
 11
4.915
 21
5.657462120245874
 31
0
  0
LINE
  8
0
 62
7
 10
4.879669914110099
 20
5.410000000000004
 30
0
 11
5.119669914110091
 21
5.649999999999997
 31
0
  0
LINE
  8
0
 62
7
 10
5.091801948466062
 20
5.410000000000004
 30
0
 11
5.331801948466055
 21
5.649999999999997
 31
0
  0
LINE
  8
0
 62
7
 10
5.303933982822026
 20
5.410000000000004
 30
0
 11
5.543933982822018
 21
5.649999999999997
 31
0
  0
LINE
  8
0
 62
7
 10
5.51606601717799
 20
5.410000000000004
 30
0
 11
5.756066017177982
 21
5.649999999999997
 31
0
  0
LINE
  8
0
 62
7
 10
5.728198051533954
 20
5.410000000000004
 30
0
 11
5.968198051533946
 21
5.649999999999997
 31
0
  0
LINE
  8
0
 62
7
 10
5.940330085889918
 20
5.410000000000004
 30
0
 11
6.18033008588991
 21
5.649999999999997
 31
0
  0
LINE
  8
0
 62
7
 10
6.152462120245882
 20
5.410000000000004
 30
0
 11
6.392462120245874
 21
5.649999999999997
 31
0
  0
LINE
  8
0
 62
7
 10
6.364594154601845
 20
5.410000000000004
 30
0
 11
6.604594154601838
 21
5.649999999999997
 31
0
  0
LINE
  8
0
 62
7
 10
6.576726188957809
 20
5.410000000000004
 30
0
 11
6.816726188957801
 21
5.649999999999997
 31
0
  0
LINE
  8
0
 62
7
 10
6.788858223313773
 20
5.410000000000004
 30
0
 11
7.028858223313765
 21
5.649999999999997
 31
0
  0
LINE
  8
0
 62
7
 10
7.000990257669737
 20
5.410000000000004
 30
0
 11
7.240990257669729
 21
5.649999999999997
 31
0
  0
LINE
  8
0
 62
7
 10
7.213122292025701
 20
5.410000000000004
 30
0
 11
7.600000000000001
 21
5.796877707974304
 31
0
  0
LINE
  8
0
 62
7
 10
7.425254326381665
 20
5.410000000000004
 30
0
 11
7.665254326381656
 21
5.649999999999995
 31
0
  0
LINE
  8
0
 62
7
 10
7.637386360737628
 20
5.410000000000004
 30
0
 11
7.765000000000001
 21
5.537613639262376
 31
0
  0
LINE
  8
0
 62
7
 10
4.589999999999999
 20
5.438528137423856
 30
0
 11
4.915
 21
5.763528137423856
 31
0
  0
LINE
  8
0
 62
7
 10
4.773603896932116
 20
5.410000000000002
 30
0
 11
5.01360389693211
 21
5.649999999999997
 31
0
  0
LINE
  8
0
 62
7
 10
4.98573593128808
 20
5.410000000000002
 30
0
 11
5.225735931288074
 21
5.649999999999997
 31
0
  0
LINE
  8
0
 62
7
 10
5.197867965644043
 20
5.410000000000002
 30
0
 11
5.437867965644037
 21
5.649999999999997
 31
0
  0
LINE
  8
0
 62
7
 10
5.410000000000007
 20
5.410000000000002
 30
0
 11
5.650000000000001
 21
5.649999999999997
 31
0
  0
LINE
  8
0
 62
7
 10
5.622132034355971
 20
5.410000000000002
 30
0
 11
5.862132034355965
 21
5.649999999999997
 31
0
  0
LINE
  8
0
 62
7
 10
5.834264068711935
 20
5.410000000000002
 30
0
 11
6.074264068711929
 21
5.649999999999997
 31
0
  0
LINE
  8
0
 62
7
 10
6.046396103067899
 20
5.410000000000002
 30
0
 11
6.286396103067893
 21
5.649999999999997
 31
0
  0
LINE
  8
0
 62
7
 10
6.258528137423863
 20
5.410000000000002
 30
0
 11
6.498528137423857
 21
5.649999999999997
 31
0
  0
LINE
  8
0
 62
7
 10
6.470660171779826
 20
5.410000000000002
 30
0
 11
6.71066017177982
 21
5.649999999999997
 31
0
  0
LINE
  8
0
 62
7
 10
6.68279220613579
 20
5.410000000000002
 30
0
 11
6.922792206135784
 21
5.649999999999997
 31
0
  0
LINE
  8
0
 62
7
 10
6.894924240491754
 20
5.410000000000002
 30
0
 11
7.134924240491748
 21
5.649999999999997
 31
0
  0
LINE
  8
0
 62
7
 10
7.425
 20
5.727943725152285
 30
0
 11
7.497056274847712
 21
5.799999999999997
 31
0
  0
LINE
  8
0
 62
7
 10
7.107056274847718
 20
5.410000000000002
 30
0
 11
7.347056274847712
 21
5.649999999999997
 31
0
  0
LINE
  8
0
 62
7
 10
7.319188309203682
 20
5.410000000000002
 30
0
 11
7.600000000000001
 21
5.690811690796322
 31
0
  0
LINE
  8
0
 62
7
 10
7.531320343559646
 20
5.410000000000002
 30
0
 11
7.765
 21
5.643679656440357
 31
0
  0
LINE
  8
0
 62
7
 10
7.743452377915609
 20
5.410000000000002
 30
0
 11
7.765
 21
5.431547622084393
 31
0
  0
ENDBLK
  8
0
  0
BLOCK
  8
0
  2
*X16
 70
1
 10
0
 20
0
 30
0
  0
LINE
  8
0
 62
7
 10
4.590000000000001
 20
5.332462120245875
 30
0
 11
4.627537879754136
 21
5.370000000000005
 31
0
  0
LINE
  8
0
 62
7
 10
4.599669914110095
 20
5.130000000000004
 30
0
 11
4.839669914110099
 21
5.370000000000005
 31
0
  0
LINE
  8
0
 62
7
 10
4.739999999999999
 20
5.058198051533945
 30
0
 11
5.051801948466063
 21
5.370000000000005
 31
0
  0
LINE
  8
0
 62
7
 10
5.023933982822028
 20
5.130000000000004
 30
0
 11
5.263933982822027
 21
5.370000000000005
 31
0
  0
LINE
  8
0
 62
7
 10
4.739999999999999
 20
4.846066017177981
 30
0
 11
4.915
 21
5.02106601717798
 31
0
  0
LINE
  8
0
 62
7
 10
5.236066017177992
 20
5.130000000000004
 30
0
 11
5.476066017177991
 21
5.370000000000005
 31
0
  0
LINE
  8
0
 62
7
 10
4.739999999999999
 20
4.633933982822017
 30
0
 11
4.915
 21
4.808933982822016
 31
0
  0
LINE
  8
0
 62
7
 10
5.448198051533955
 20
5.130000000000004
 30
0
 11
5.688198051533955
 21
5.370000000000005
 31
0
  0
LINE
  8
0
 62
7
 10
4.739999999999999
 20
4.421801948466054
 30
0
 11
4.915
 21
4.596801948466053
 31
0
  0
LINE
  8
0
 62
7
 10
5.660330085889919
 20
5.130000000000004
 30
0
 11
5.900330085889919
 21
5.370000000000005
 31
0
  0
LINE
  8
0
 62
7
 10
4.739999999999999
 20
4.20966991411009
 30
0
 11
4.915
 21
4.384669914110089
 31
0
  0
LINE
  8
0
 62
7
 10
5.872462120245883
 20
5.130000000000004
 30
0
 11
6.112462120245882
 21
5.370000000000005
 31
0
  0
LINE
  8
0
 62
7
 10
4.739999999999999
 20
3.997537879754125
 30
0
 11
4.915
 21
4.172537879754125
 31
0
  0
LINE
  8
0
 62
7
 10
6.084594154601847
 20
5.130000000000004
 30
0
 11
6.324594154601846
 21
5.370000000000005
 31
0
  0
LINE
  8
0
 62
7
 10
4.739999999999999
 20
3.785405845398161
 30
0
 11
4.915
 21
3.960405845398161
 31
0
  0
LINE
  8
0
 62
7
 10
6.296726188957811
 20
5.130000000000004
 30
0
 11
6.53672618895781
 21
5.370000000000005
 31
0
  0
LINE
  8
0
 62
7
 10
4.739999999999999
 20
3.573273811042197
 30
0
 11
4.915
 21
3.748273811042197
 31
0
  0
LINE
  8
0
 62
7
 10
6.508858223313775
 20
5.130000000000004
 30
0
 11
6.748858223313774
 21
5.370000000000005
 31
0
  0
LINE
  8
0
 62
7
 10
4.739999999999999
 20
3.361141776686233
 30
0
 11
4.915
 21
3.536141776686232
 31
0
  0
LINE
  8
0
 62
7
 10
6.720990257669738
 20
5.130000000000004
 30
0
 11
6.960990257669738
 21
5.370000000000005
 31
0
  0
LINE
  8
0
 62
7
 10
4.840990257669734
 20
3.250000000000003
 30
0
 11
4.914999999999999
 21
3.324009742330268
 31
0
  0
LINE
  8
0
 62
7
 10
6.933122292025702
 20
5.130000000000004
 30
0
 11
7.173122292025702
 21
5.370000000000005
 31
0
  0
LINE
  8
0
 62
7
 10
7.145254326381666
 20
5.130000000000004
 30
0
 11
7.385254326381665
 21
5.370000000000005
 31
0
  0
LINE
  8
0
 62
7
 10
7.35738636073763
 20
5.130000000000004
 30
0
 11
7.597386360737629
 21
5.370000000000005
 31
0
  0
LINE
  8
0
 62
7
 10
7.425000000000001
 20
4.985481604906409
 30
0
 11
7.765
 21
5.325481604906411
 31
0
  0
LINE
  8
0
 62
7
 10
7.425000000000001
 20
4.773349570550446
 30
0
 11
7.600000000000001
 21
4.948349570550446
 31
0
  0
LINE
  8
0
 62
7
 10
7.425000000000001
 20
4.561217536194482
 30
0
 11
7.600000000000001
 21
4.736217536194482
 31
0
  0
LINE
  8
0
 62
7
 10
7.425000000000001
 20
4.349085501838518
 30
0
 11
7.600000000000001
 21
4.524085501838519
 31
0
  0
LINE
  8
0
 62
7
 10
7.425000000000001
 20
4.136953467482554
 30
0
 11
7.600000000000001
 21
4.311953467482555
 31
0
  0
LINE
  8
0
 62
7
 10
7.425000000000001
 20
3.92482143312659
 30
0
 11
7.600000000000001
 21
4.099821433126591
 31
0
  0
LINE
  8
0
 62
7
 10
7.425000000000001
 20
3.712689398770626
 30
0
 11
7.600000000000001
 21
3.887689398770627
 31
0
  0
LINE
  8
0
 62
7
 10
7.425000000000001
 20
3.500557364414662
 30
0
 11
7.600000000000001
 21
3.675557364414662
 31
0
  0
LINE
  8
0
 62
7
 10
7.486574669941307
 20
3.350000000000004
 30
0
 11
7.600000000000001
 21
3.463425330058698
 31
0
  0
LINE
  8
0
 62
7
 10
4.59
 20
5.226396103067892
 30
0
 11
4.733603896932118
 21
5.370000000000005
 31
0
  0
LINE
  8
0
 62
7
 10
4.705735931288078
 20
5.130000000000004
 30
0
 11
4.945735931288082
 21
5.370000000000005
 31
0
  0
LINE
  8
0
 62
7
 10
4.917867965644046
 20
5.130000000000005
 30
0
 11
5.157867965644046
 21
5.370000000000005
 31
0
  0
LINE
  8
0
 62
7
 10
4.74
 20
4.952132034355962
 30
0
 11
4.915000000000001
 21
5.127132034355963
 31
0
  0
LINE
  8
0
 62
7
 10
5.13000000000001
 20
5.130000000000005
 30
0
 11
5.37000000000001
 21
5.370000000000005
 31
0
  0
LINE
  8
0
 62
7
 10
4.74
 20
4.739999999999998
 30
0
 11
4.915000000000001
 21
4.914999999999999
 31
0
  0
LINE
  8
0
 62
7
 10
5.342132034355974
 20
5.130000000000005
 30
0
 11
5.582132034355974
 21
5.370000000000005
 31
0
  0
LINE
  8
0
 62
7
 10
4.74
 20
4.527867965644035
 30
0
 11
4.915000000000001
 21
4.702867965644035
 31
0
  0
LINE
  8
0
 62
7
 10
5.554264068711937
 20
5.130000000000005
 30
0
 11
5.794264068711938
 21
5.370000000000005
 31
0
  0
LINE
  8
0
 62
7
 10
4.74
 20
4.315735931288071
 30
0
 11
4.915000000000001
 21
4.490735931288071
 31
0
  0
LINE
  8
0
 62
7
 10
5.766396103067901
 20
5.130000000000005
 30
0
 11
6.006396103067901
 21
5.370000000000005
 31
0
  0
LINE
  8
0
 62
7
 10
4.74
 20
4.103603896932107
 30
0
 11
4.915000000000001
 21
4.278603896932108
 31
0
  0
LINE
  8
0
 62
7
 10
5.978528137423865
 20
5.130000000000005
 30
0
 11
6.218528137423865
 21
5.370000000000005
 31
0
  0
LINE
  8
0
 62
7
 10
4.74
 20
3.891471862576143
 30
0
 11
4.915000000000001
 21
4.066471862576144
 31
0
  0
LINE
  8
0
 62
7
 10
6.190660171779829
 20
5.130000000000005
 30
0
 11
6.430660171779829
 21
5.370000000000005
 31
0
  0
LINE
  8
0
 62
7
 10
4.74
 20
3.679339828220178
 30
0
 11
4.915000000000001
 21
3.85433982822018
 31
0
  0
LINE
  8
0
 62
7
 10
6.402792206135793
 20
5.130000000000005
 30
0
 11
6.642792206135793
 21
5.370000000000005
 31
0
  0
LINE
  8
0
 62
7
 10
4.74
 20
3.467207793864214
 30
0
 11
4.915000000000001
 21
3.642207793864216
 31
0
  0
LINE
  8
0
 62
7
 10
6.614924240491757
 20
5.130000000000005
 30
0
 11
6.854924240491757
 21
5.370000000000005
 31
0
  0
LINE
  8
0
 62
7
 10
4.74
 20
3.25507575950825
 30
0
 11
4.915000000000001
 21
3.430075759508251
 31
0
  0
LINE
  8
0
 62
7
 10
6.82705627484772
 20
5.130000000000005
 30
0
 11
7.067056274847721
 21
5.370000000000005
 31
0
  0
LINE
  8
0
 62
7
 10
7.039188309203684
 20
5.130000000000005
 30
0
 11
7.279188309203684
 21
5.370000000000005
 31
0
  0
LINE
  8
0
 62
7
 10
7.251320343559648
 20
5.130000000000005
 30
0
 11
7.491320343559648
 21
5.370000000000005
 31
0
  0
LINE
  8
0
 62
7
 10
7.425000000000001
 20
5.091547622084391
 30
0
 11
7.703452377915612
 21
5.370000000000005
 31
0
  0
LINE
  8
0
 62
7
 10
7.675584412271577
 20
5.130000000000004
 30
0
 11
7.765
 21
5.219415587728427
 31
0
  0
LINE
  8
0
 62
7
 10
7.425000000000001
 20
4.879415587728428
 30
0
 11
7.600000000000001
 21
5.054415587728428
 31
0
  0
LINE
  8
0
 62
7
 10
7.425000000000001
 20
4.667283553372464
 30
0
 11
7.600000000000001
 21
4.842283553372464
 31
0
  0
LINE
  8
0
 62
7
 10
7.425000000000001
 20
4.4551515190165
 30
0
 11
7.600000000000001
 21
4.630151519016501
 31
0
  0
LINE
  8
0
 62
7
 10
7.425000000000001
 20
4.243019484660536
 30
0
 11
7.600000000000001
 21
4.418019484660537
 31
0
  0
LINE
  8
0
 62
7
 10
7.425000000000001
 20
4.030887450304572
 30
0
 11
7.600000000000001
 21
4.205887450304573
 31
0
  0
LINE
  8
0
 62
7
 10
7.425000000000001
 20
3.818755415948608
 30
0
 11
7.600000000000001
 21
3.993755415948609
 31
0
  0
LINE
  8
0
 62
7
 10
7.425000000000001
 20
3.606623381592644
 30
0
 11
7.600000000000001
 21
3.781623381592645
 31
0
  0
LINE
  8
0
 62
7
 10
7.425000000000001
 20
3.394491347236679
 30
0
 11
7.600000000000001
 21
3.56949134723668
 31
0
  0
LINE
  8
0
 62
7
 10
7.592640687119289
 20
3.350000000000003
 30
0
 11
7.600000000000001
 21
3.357359312880716
 31
0
  0
ENDBLK
  8
0
  0
BLOCK
  8
0
  2
*D0
 70
1
 10
0
 20
0
 30
0
  0
LINE
  8
0
 62
7
 10
8.09699045818431
 20
10.26028163685916
 30
0
 11
8.09699045818431
 21
11.05
 31
0
  0
LINE
  8
0
 62
7
 10
8.09699045818431
 20
8.299999999999997
 30
0
 11
8.09699045818431
 21
9.180281636859158
 31
0
  0
LINE
  8
0
 62
7
 10
7.75
 20
11.05
 30
0
 11
8.146990458184311
 21
11.05
 31
0
  0
LINE
  8
0
 62
7
 10
7.75
 20
8.299999999999997
 30
0
 11
8.146990458184311
 21
8.299999999999997
 31
0
  0
LINE
  8
0
 62
7
 10
8.061635119124983
 20
8.335355339059324
 30
0
 11
8.132345797243637
 21
8.26464466094067
 31
0
  0
LINE
  8
0
 62
7
 10
8.132345797243637
 20
11.01464466094067
 30
0
 11
8.061635119124983
 21
11.08535533905933
 31
0
  0
TEXT
  8
0
 62
7
 10
8.066990458184311
 20
9.58278163685916
 30
0
 40
0.1
  1
2,75
 50
90
 41
0.9
  0
TEXT
  8
0
 62
7
 10
8.226990458184311
 20
9.380281636859159
 30
0
 40
0.1
  1
(260-280)
 50
90
 41
0.9
  0
ENDBLK
  8
0
  0
BLOCK
  8
0
  2
*D1
 70
1
 10
0
 20
0
 30
0
  0
LINE
  8
0
 62
7
 10
6.4841751149719
 20
11.4867439635497
 30
0
 11
7.425000000000001
 21
11.4867439635497
 31
0
  0
LINE
  8
0
 62
7
 10
4.915
 20
11.4867439635497
 30
0
 11
5.8391751149719
 21
11.4867439635497
 31
0
  0
LINE
  8
0
 62
7
 10
7.425000000000001
 20
11.2
 30
0
 11
7.425000000000001
 21
11.5367439635497
 31
0
  0
LINE
  8
0
 62
7
 10
4.915
 20
11.2
 30
0
 11
4.915
 21
11.5367439635497
 31
0
  0
LINE
  8
0
 62
7
 10
7.389644660940673
 20
11.45138862449037
 30
0
 11
7.460355339059328
 21
11.52209930260903
 31
0
  0
LINE
  8
0
 62
7
 10
4.950355339059327
 20
11.52209930260903
 30
0
 11
4.879644660940673
 21
11.45138862449037
 31
0
  0
TEXT
  8
0
 62
7
 10
6.039175114971901
 20
11.4417439635497
 30
0
 40
0.1
  1
2,51
 41
0.9
  0
ENDBLK
  8
0
  0
BLOCK
  8
0
  2
*D2
 70
1
 10
0
 20
0
 30
0
  0
LINE
  8
0
 62
7
 10
4.460156256174421
 20
4.63753033384432
 30
0
 11
4.460156256174421
 21
5.130000000000004
 31
0
  0
LINE
  8
0
 62
7
 10
4.460156256174421
 20
3.250000000000003
 30
0
 11
4.460156256174421
 21
3.89253033384432
 31
0
  0
LINE
  8
0
 62
7
 10
4.74
 20
5.130000000000004
 30
0
 11
4.410156256174421
 21
5.130000000000004
 31
0
  0
LINE
  8
0
 62
7
 10
4.74
 20
3.250000000000003
 30
0
 11
4.410156256174421
 21
3.250000000000003
 31
0
  0
LINE
  8
0
 62
7
 10
4.424800917115093
 20
3.28535533905933
 30
0
 11
4.495511595233748
 21
3.214644660940675
 31
0
  0
LINE
  8
0
 62
7
 10
4.495511595233748
 20
5.094644660940677
 30
0
 11
4.424800917115093
 21
5.165355339059332
 31
0
  0
TEXT
  8
0
 62
7
 10
4.505156256174421
 20
4.14253033384432
 30
0
 40
0.1
  1
1,88
 50
90
 41
0.9
  0
ENDBLK
  8
0
  0
BLOCK
  8
0
  2
*D3
 70
1
 10
0
 20
0
 30
0
  0
LINE
  8
0
 62
7
 10
6.54716380855051
 20
6.031492660534841
 30
0
 11
7.425
 21
6.031492660534841
 31
0
  0
LINE
  8
0
 62
7
 10
4.915
 20
6.031492660534841
 30
0
 11
5.802163808550509
 21
6.031492660534841
 31
0
  0
LINE
  8
0
 62
7
 10
7.425
 20
5.649999999999997
 30
0
 11
7.425
 21
6.081492660534841
 31
0
  0
LINE
  8
0
 62
7
 10
4.915
 20
5.649999999999997
 30
0
 11
4.915
 21
6.081492660534841
 31
0
  0
LINE
  8
0
 62
7
 10
4.950355339059327
 20
6.066847999594168
 30
0
 11
4.879644660940673
 21
5.996137321475514
 31
0
  0
LINE
  8
0
 62
7
 10
7.389644660940673
 20
5.996137321475514
 30
0
 11
7.460355339059327
 21
6.066847999594168
 31
0
  0
TEXT
  8
0
 62
7
 10
6.05216380855051
 20
5.986492660534841
 30
0
 40
0.1
  1
2,51
 41
0.9
  0
ENDBLK
  8
0
  0
BLOCK
  8
0
  2
*D4
 70
1
 10
0
 20
0
 30
0
  0
LINE
  8
0
 62
7
 10
7.96710352239824
 20
4.676496414580151
 30
0
 11
7.96710352239824
 21
5.130000000000004
 31
0
  0
LINE
  8
0
 62
7
 10
7.96710352239824
 20
3.350000000000003
 30
0
 11
7.96710352239824
 21
3.93149641458015
 31
0
  0
LINE
  8
0
 62
7
 10
7.6
 20
5.130000000000004
 30
0
 11
8.017103522398241
 21
5.130000000000004
 31
0
  0
LINE
  8
0
 62
7
 10
7.6
 20
3.350000000000003
 30
0
 11
8.017103522398241
 21
3.350000000000003
 31
0
  0
LINE
  8
0
 62
7
 10
8.002458861457567
 20
5.094644660940677
 30
0
 11
7.931748183338913
 21
5.165355339059332
 31
0
  0
LINE
  8
0
 62
7
 10
7.931748183338913
 20
3.38535533905933
 30
0
 11
8.002458861457567
 21
3.314644660940675
 31
0
  0
TEXT
  8
0
 62
7
 10
8.01210352239824
 20
4.181496414580151
 30
0
 40
0.1
  1
1,78
 50
90
 41
0.9
  0
ENDBLK
  8
0
  0
ENDSEC
  0
SECTION
  2
ENTITIES
  0
INSERT
  8
0
  2
*X0
 10
0
 20
0
 30
0
  0
INSERT
  8
0
  2
*X1
 10
0
 20
0
 30
0
  0
INSERT
  8
0
  2
*X2
 10
0
 20
0
 30
0
  0
INSERT
  8
0
  2
*X3
 10
0
 20
0
 30
0
  0
INSERT
  8
0
  2
*X4
 10
0
 20
0
 30
0
  0
INSERT
  8
0
  2
*X5
 10
0
 20
0
 30
0
  0
INSERT
  8
0
  2
*X6
 10
0
 20
0
 30
0
  0
INSERT
  8
0
  2
*X7
 10
0
 20
0
 30
0
  0
INSERT
  8
0
  2
*X8
 10
0
 20
0
 30
0
  0
INSERT
  8
0
  2
*X9
 10
0
 20
0
 30
0
  0
INSERT
  8
0
  2
*X10
 10
0
 20
0
 30
0
  0
INSERT
  8
0
  2
*X11
 10
0
 20
0
 30
0
  0
INSERT
  8
0
  2
*X12
 10
0
 20
0
 30
0
  0
INSERT
  8
0
  2
*X13
 10
0
 20
0
 30
0
  0
INSERT
  8
0
  2
*X14
 10
0
 20
0
 30
0
  0
INSERT
  8
0
  2
*X15
 10
0
 20
0
 30
0
  0
INSERT
  8
0
  2
*X16
 10
0
 20
0
 30
0
  0
LINE
  8
0
 62
7
 10
2.201142580000011
 20
8.518333333333329
 30
0
 11
2.201142580000011
 21
8.583333333333329
 31
0
  0
LINE
  8
0
 62
7
 10
2.62000004000001
 20
8.583333333333329
 30
0
 11
2.62000004000001
 21
8.518333333333329
 31
0
  0
LINE
  8
0
 62
7
 10
2.62000004000001
 20
8.518333333333329
 30
0
 11
2.201142580000011
 21
8.518333333333329
 31
0
  0
LINE
  8
0
 62
7
 10
2.201142580000011
 20
8.583333333333329
 30
0
 11
2.62000004000001
 21
8.583333333333329
 31
0
  0
LINE
  8
0
 62
7
 10
1.841430669999998
 20
8.701666666666663
 30
0
 11
1.841430669999998
 21
8.766666666666664
 31
0
  0
LINE
  8
0
 62
7
 10
2.460906380000001
 20
8.766666666666664
 30
0
 11
2.460906380000001
 21
8.701666666666663
 31
0
  0
LINE
  8
0
 62
7
 10
1.841430669999998
 20
8.766666666666664
 30
0
 11
2.460906380000001
 21
8.766666666666664
 31
0
  0
LINE
  8
0
 62
7
 10
2.460906380000001
 20
8.701666666666663
 30
0
 11
1.841430669999998
 21
8.701666666666663
 31
0
  0
LINE
  8
0
 62
7
 10
1.476383059999997
 20
8.884999999999996
 30
0
 11
1.476383059999997
 21
8.949999999999998
 31
0
  0
LINE
  8
0
 62
7
 10
2.341747940000001
 20
8.949999999999998
 30
0
 11
2.341747940000001
 21
8.884999999999996
 31
0
  0
LINE
  8
0
 62
7
 10
1.476383059999997
 20
8.949999999999998
 30
0
 11
2.341747940000001
 21
8.949999999999998
 31
0
  0
LINE
  8
0
 62
7
 10
2.341747940000001
 20
8.884999999999996
 30
0
 11
1.476383059999997
 21
8.884999999999996
 31
0
  0
LINE
  8
0
 62
7
 10
1.01698243
 20
9.068333333333326
 30
0
 11
1.01698243
 21
9.133333333333329
 31
0
  0
LINE
  8
0
 62
7
 10
2.224698489999999
 20
9.133333333333329
 30
0
 11
2.224698489999999
 21
9.068333333333326
 31
0
  0
LINE
  8
0
 62
7
 10
1.01698243
 20
9.133333333333329
 30
0
 11
2.224698489999999
 21
9.133333333333329
 31
0
  0
LINE
  8
0
 62
7
 10
2.224698489999999
 20
9.068333333333326
 30
0
 11
1.01698243
 21
9.068333333333326
 31
0
  0
LINE
  8
0
 62
7
 10
0.795000000000011
 20
9.251666666666663
 30
0
 11
0.795000000000011
 21
9.316666666666663
 31
0
  0
LINE
  8
0
 62
7
 10
2.11766892
 20
9.316666666666663
 30
0
 11
2.11766892
 21
9.251666666666663
 31
0
  0
LINE
  8
0
 62
7
 10
0.795000000000011
 20
9.316666666666663
 30
0
 11
2.11766892
 21
9.316666666666663
 31
0
  0
LINE
  8
0
 62
7
 10
2.11766892
 20
9.251666666666663
 30
0
 11
0.795000000000011
 21
9.251666666666663
 31
0
  0
LINE
  8
0
 62
7
 10
0.7949998500000004
 20
9.434999999999997
 30
0
 11
0.7949998500000004
 21
9.499999999999998
 31
0
  0
LINE
  8
0
 62
7
 10
1.94189621000001
 20
9.499999999999998
 30
0
 11
1.94189621000001
 21
9.434999999999997
 31
0
  0
LINE
  8
0
 62
7
 10
1.94189621000001
 20
9.434999999999997
 30
0
 11
0.7949998500000004
 21
9.434999999999997
 31
0
  0
LINE
  8
0
 62
7
 10
0.7949998500000004
 20
9.499999999999998
 30
0
 11
1.94189621000001
 21
9.499999999999998
 31
0
  0
LINE
  8
0
 62
7
 10
1.85500016
 20
9.618333333333329
 30
0
 11
0.7949998500000004
 21
9.618333333333332
 31
0
  0
LINE
  8
0
 62
7
 10
0.7949998500000004
 20
9.618333333333332
 30
0
 11
0.7949998500000004
 21
9.68333333333333
 31
0
  0
LINE
  8
0
 62
7
 10
1.85500016
 20
9.68333333333333
 30
0
 11
1.85500016
 21
9.618333333333329
 31
0
  0
LINE
  8
0
 62
7
 10
0.7949998500000004
 20
9.68333333333333
 30
0
 11
1.85500016
 21
9.68333333333333
 31
0
  0
LINE
  8
0
 62
7
 10
1.855000229999998
 20
9.801666666666662
 30
0
 11
0.795000000000011
 21
9.801666666666662
 31
0
  0
LINE
  8
0
 62
7
 10
0.795000000000011
 20
9.801666666666662
 30
0
 11
0.795000000000011
 21
9.866666666666664
 31
0
  0
LINE
  8
0
 62
7
 10
1.855000229999998
 20
9.866666666666664
 30
0
 11
1.855000229999998
 21
9.801666666666662
 31
0
  0
LINE
  8
0
 62
7
 10
0.795000000000011
 20
9.866666666666664
 30
0
 11
1.855000229999998
 21
9.866666666666664
 31
0
  0
LINE
  8
0
 62
7
 10
0.7949998500000004
 20
9.984999999999998
 30
0
 11
0.7949998500000004
 21
10.05
 31
0
  0
LINE
  8
0
 62
7
 10
1.99658181
 20
10.05
 30
0
 11
1.99658181
 21
9.984999999999998
 31
0
  0
LINE
  8
0
 62
7
 10
1.99658181
 20
9.984999999999998
 30
0
 11
0.7949998500000004
 21
9.984999999999998
 31
0
  0
LINE
  8
0
 62
7
 10
0.7949998500000004
 20
10.05
 30
0
 11
1.99658181
 21
10.05
 31
0
  0
LINE
  8
0
 62
7
 10
0.795000000000011
 20
10.16833333333333
 30
0
 11
0.795000000000011
 21
10.23333333333333
 31
0
  0
LINE
  8
0
 62
7
 10
2.152950059999999
 20
10.23333333333333
 30
0
 11
2.152950059999999
 21
10.16833333333333
 31
0
  0
LINE
  8
0
 62
7
 10
0.795000000000011
 20
10.23333333333333
 30
0
 11
2.152950059999999
 21
10.23333333333333
 31
0
  0
LINE
  8
0
 62
7
 10
2.152950059999999
 20
10.16833333333333
 30
0
 11
0.795000000000011
 21
10.16833333333333
 31
0
  0
LINE
  8
0
 62
7
 10
0.8220753499999992
 20
10.35166666666666
 30
0
 11
0.8220753499999992
 21
10.41666666666666
 31
0
  0
LINE
  8
0
 62
7
 10
2.23781769
 20
10.41666666666666
 30
0
 11
2.23781769
 21
10.35166666666666
 31
0
  0
LINE
  8
0
 62
7
 10
0.8220753499999992
 20
10.41666666666666
 30
0
 11
2.23781769
 21
10.41666666666666
 31
0
  0
LINE
  8
0
 62
7
 10
2.23781769
 20
10.35166666666666
 30
0
 11
0.8220753499999992
 21
10.35166666666666
 31
0
  0
LINE
  8
0
 62
7
 10
1.371730960000001
 20
10.535
 30
0
 11
1.371730960000001
 21
10.6
 31
0
  0
LINE
  8
0
 62
7
 10
2.33999413000001
 20
10.6
 30
0
 11
2.33999413000001
 21
10.535
 31
0
  0
LINE
  8
0
 62
7
 10
1.371730960000001
 20
10.6
 30
0
 11
2.33999413000001
 21
10.6
 31
0
  0
LINE
  8
0
 62
7
 10
2.33999413000001
 20
10.535
 30
0
 11
1.371730960000001
 21
10.535
 31
0
  0
LINE
  8
0
 62
7
 10
1.753990030000001
 20
10.71833333333333
 30
0
 11
1.753990030000001
 21
10.78333333333333
 31
0
  0
LINE
  8
0
 62
7
 10
2.445908469999999
 20
10.78333333333333
 30
0
 11
2.445908469999999
 21
10.71833333333333
 31
0
  0
LINE
  8
0
 62
7
 10
1.753990030000001
 20
10.78333333333333
 30
0
 11
2.445908469999999
 21
10.78333333333333
 31
0
  0
LINE
  8
0
 62
7
 10
2.445908469999999
 20
10.71833333333333
 30
0
 11
1.753990030000001
 21
10.71833333333333
 31
0
  0
LINE
  8
0
 62
7
 10
2.112876520000002
 20
10.90166666666666
 30
0
 11
2.112876520000002
 21
10.96666666666666
 31
0
  0
LINE
  8
0
 62
7
 10
2.49000031
 20
10.96666666666666
 30
0
 11
2.49000031
 21
10.90166666666666
 31
0
  0
LINE
  8
0
 62
7
 10
2.49000031
 20
10.90166666666666
 30
0
 11
2.112876520000002
 21
10.90166666666666
 31
0
  0
LINE
  8
0
 62
7
 10
2.112876520000002
 20
10.96666666666666
 30
0
 11
2.49000031
 21
10.96666666666666
 31
0
  0
LINE
  8
0
 62
7
 10
6.029999619999992
 20
8.518333333333329
 30
0
 11
4.969997090000001
 21
8.518333333333329
 31
0
  0
LINE
  8
0
 62
7
 10
6.029999619999992
 20
8.583333333333329
 30
0
 11
6.029999619999992
 21
8.518333333333329
 31
0
  0
LINE
  8
0
 62
7
 10
4.969997090000001
 20
8.518333333333329
 30
0
 11
4.969997090000001
 21
8.583333333333329
 31
0
  0
LINE
  8
0
 62
7
 10
4.969997090000001
 20
8.583333333333329
 30
0
 11
6.029999619999992
 21
8.583333333333329
 31
0
  0
LINE
  8
0
 62
7
 10
6.029999769999999
 20
8.701666666666663
 30
0
 11
4.969998749999999
 21
8.701666666666663
 31
0
  0
LINE
  8
0
 62
7
 10
6.029999769999999
 20
8.766666666666664
 30
0
 11
6.029999769999999
 21
8.701666666666663
 31
0
  0
LINE
  8
0
 62
7
 10
4.969998749999999
 20
8.701666666666663
 30
0
 11
4.969998749999999
 21
8.766666666666664
 31
0
  0
LINE
  8
0
 62
7
 10
4.969998749999999
 20
8.766666666666664
 30
0
 11
6.029999769999999
 21
8.766666666666664
 31
0
  0
LINE
  8
0
 62
7
 10
6.02999985
 20
8.884999999999996
 30
0
 11
4.969999650000002
 21
8.884999999999996
 31
0
  0
LINE
  8
0
 62
7
 10
6.02999985
 20
8.949999999999998
 30
0
 11
6.02999985
 21
8.884999999999996
 31
0
  0
LINE
  8
0
 62
7
 10
4.969999650000002
 20
8.884999999999996
 30
0
 11
4.969999650000002
 21
8.949999999999998
 31
0
  0
LINE
  8
0
 62
7
 10
4.969999650000002
 20
8.949999999999998
 30
0
 11
6.02999985
 21
8.949999999999998
 31
0
  0
LINE
  8
0
 62
7
 10
6.030000000000001
 20
9.068333333333326
 30
0
 11
4.969999619999992
 21
9.068333333333326
 31
0
  0
LINE
  8
0
 62
7
 10
6.030000000000001
 20
9.133333333333328
 30
0
 11
6.030000000000001
 21
9.068333333333326
 31
0
  0
LINE
  8
0
 62
7
 10
4.969999619999992
 20
9.068333333333326
 30
0
 11
4.969999619999992
 21
9.133333333333328
 31
0
  0
LINE
  8
0
 62
7
 10
4.969999619999992
 20
9.133333333333328
 30
0
 11
6.030000000000001
 21
9.133333333333328
 31
0
  0
LINE
  8
0
 62
7
 10
6.030000080000002
 20
9.316666666666663
 30
0
 11
6.030000080000002
 21
9.25166666666666
 31
0
  0
LINE
  8
0
 62
7
 10
4.969999779999998
 20
9.25166666666666
 30
0
 11
4.969999779999998
 21
9.316666666666663
 31
0
  0
LINE
  8
0
 62
7
 10
6.030000080000002
 20
9.25166666666666
 30
0
 11
4.969999779999998
 21
9.25166666666666
 31
0
  0
LINE
  8
0
 62
7
 10
4.969999779999998
 20
9.316666666666663
 30
0
 11
6.030000080000002
 21
9.316666666666663
 31
0
  0
LINE
  8
0
 62
7
 10
6.121902310000002
 20
9.499999999999998
 30
0
 11
6.121902310000002
 21
9.434999999999997
 31
0
  0
LINE
  8
0
 62
7
 10
5.24513294
 20
9.434999999999997
 30
0
 11
5.24513294
 21
9.499999999999998
 31
0
  0
LINE
  8
0
 62
7
 10
5.24513294
 20
9.499999999999998
 30
0
 11
6.121902310000002
 21
9.499999999999998
 31
0
  0
LINE
  8
0
 62
7
 10
6.121902310000002
 20
9.434999999999997
 30
0
 11
5.24513294
 21
9.434999999999997
 31
0
  0
LINE
  8
0
 62
7
 10
6.233731690000001
 20
9.68333333333333
 30
0
 11
6.233731690000001
 21
9.618333333333329
 31
0
  0
LINE
  8
0
 62
7
 10
5.686173629999998
 20
9.618333333333329
 30
0
 11
5.686173629999998
 21
9.68333333333333
 31
0
  0
LINE
  8
0
 62
7
 10
5.686173629999998
 20
9.68333333333333
 30
0
 11
6.233731690000001
 21
9.68333333333333
 31
0
  0
LINE
  8
0
 62
7
 10
6.233731690000001
 20
9.618333333333329
 30
0
 11
5.686173629999998
 21
9.618333333333329
 31
0
  0
LINE
  8
0
 62
7
 10
6.518154449999999
 20
9.866666666666664
 30
0
 11
6.518154449999999
 21
9.801666666666662
 31
0
  0
LINE
  8
0
 62
7
 10
6.062384259999999
 20
9.801666666666662
 30
0
 11
6.062384259999999
 21
9.866666666666664
 31
0
  0
LINE
  8
0
 62
7
 10
6.062384259999999
 20
9.866666666666664
 30
0
 11
6.518154449999999
 21
9.866666666666664
 31
0
  0
LINE
  8
0
 62
7
 10
6.518154449999999
 20
9.801666666666662
 30
0
 11
6.062384259999999
 21
9.801666666666662
 31
0
  0
LINE
  8
0
 62
7
 10
6.939017490000002
 20
10.05
 30
0
 11
6.939017490000002
 21
9.984999999999998
 31
0
  0
LINE
  8
0
 62
7
 10
6.252834779999999
 20
9.984999999999998
 30
0
 11
6.252834779999999
 21
10.05
 31
0
  0
LINE
  8
0
 62
7
 10
6.252834779999999
 20
10.05
 30
0
 11
6.939017490000002
 21
10.05
 31
0
  0
LINE
  8
0
 62
7
 10
6.939017490000002
 20
9.984999999999998
 30
0
 11
6.252834779999999
 21
9.984999999999998
 31
0
  0
LINE
  8
0
 62
7
 10
7.370000000000001
 20
10.23333333333333
 30
0
 11
7.370000000000001
 21
10.16833333333333
 31
0
  0
LINE
  8
0
 62
7
 10
6.309999850000001
 20
10.16833333333333
 30
0
 11
6.309999850000001
 21
10.23333333333333
 31
0
  0
LINE
  8
0
 62
7
 10
7.370000000000001
 20
10.16833333333333
 30
0
 11
6.309999850000001
 21
10.16833333333333
 31
0
  0
LINE
  8
0
 62
7
 10
6.309999850000001
 20
10.23333333333333
 30
0
 11
7.370000000000001
 21
10.23333333333333
 31
0
  0
LINE
  8
0
 62
7
 10
7.370000000000001
 20
10.35166666666666
 30
0
 11
6.31
 21
10.35166666666666
 31
0
  0
LINE
  8
0
 62
7
 10
7.370000000000001
 20
10.41666666666666
 30
0
 11
7.370000000000001
 21
10.35166666666666
 31
0
  0
LINE
  8
0
 62
7
 10
6.31
 20
10.35166666666666
 30
0
 11
6.31
 21
10.41666666666666
 31
0
  0
LINE
  8
0
 62
7
 10
6.31
 20
10.41666666666666
 30
0
 11
7.370000000000001
 21
10.41666666666666
 31
0
  0
LINE
  8
0
 62
7
 10
7.369999850000001
 20
10.535
 30
0
 11
6.309999690000001
 21
10.535
 31
0
  0
LINE
  8
0
 62
7
 10
7.369999850000001
 20
10.6
 30
0
 11
7.369999850000001
 21
10.535
 31
0
  0
LINE
  8
0
 62
7
 10
6.309999690000001
 20
10.535
 30
0
 11
6.309999690000001
 21
10.6
 31
0
  0
LINE
  8
0
 62
7
 10
6.309999690000001
 20
10.6
 30
0
 11
7.369999850000001
 21
10.6
 31
0
  0
LINE
  8
0
 62
7
 10
7.369999850000001
 20
10.71833333333333
 30
0
 11
6.309999850000001
 21
10.71833333333333
 31
0
  0
LINE
  8
0
 62
7
 10
7.369999850000001
 20
10.78333333333333
 30
0
 11
7.369999850000001
 21
10.71833333333333
 31
0
  0
LINE
  8
0
 62
7
 10
6.309999850000001
 20
10.71833333333333
 30
0
 11
6.309999850000001
 21
10.78333333333333
 31
0
  0
LINE
  8
0
 62
7
 10
6.309999850000001
 20
10.78333333333333
 30
0
 11
7.369999850000001
 21
10.78333333333333
 31
0
  0
LINE
  8
0
 62
7
  6
DASHED
 10
7.370000000000001
 20
10.90166666666666
 30
0
 11
6.309999850000001
 21
10.90166666666666
 31
0
  0
LINE
  8
0
 62
7
  6
DASHED
 10
7.370000000000001
 20
10.96666666666666
 30
0
 11
7.370000000000001
 21
10.90166666666666
 31
0
  0
LINE
  8
0
 62
7
  6
DASHED
 10
6.309999850000001
 20
10.90166666666666
 30
0
 11
6.309999850000001
 21
10.96666666666666
 31
0
  0
LINE
  8
0
 62
7
  6
DASHED
 10
6.309999850000001
 20
10.96666666666666
 30
0
 11
7.370000000000001
 21
10.96666666666666
 31
0
  0
LINE
  8
0
 62
7
 10
6.94428590393402
 20
4.015000296625665
 30
0
 11
6.94428590393402
 21
3.400000000000003
 31
0
  0
LINE
  8
0
 62
7
 10
7.04994100319572
 20
3.461000000000004
 30
0
 11
6.94428590393402
 21
3.400000000000003
 31
0
  0
LINE
  8
0
 62
7
 10
6.838630804672322
 20
3.461000000000004
 30
0
 11
7.04994100319572
 21
3.461000000000004
 31
0
  0
LINE
  8
0
 62
7
 10
6.94428590393402
 20
3.400000000000003
 30
0
 11
6.838630804672322
 21
3.461000000000004
 31
0
  0
LINE
  8
0
 62
7
 10
6.02999970337443
 20
4.649285903934024
 30
0
 11
6.31000029665092
 21
4.649285903934024
 31
0
  0
LINE
  8
0
 62
7
 10
5.395714096065983
 20
3.250000000000003
 30
0
 11
5.395714096065983
 21
4.015000296679794
 31
0
  0
LINE
  8
0
 62
7
 10
4.970000000000001
 20
3.668857249282594
 30
0
 11
4.970000000000001
 21
3.250000000000003
 31
0
  0
LINE
  8
0
 62
7
 10
6.030000000000001
 20
3.250000000000003
 30
0
 11
6.030000000000001
 21
3.500225278097263
 31
0
  0
LINE
  8
0
 62
7
 10
4.970000000000001
 20
3.250000000000003
 30
0
 11
6.030000000000001
 21
3.250000000000003
 31
0
  0
LINE
  8
0
 62
7
 10
4.970000000000001
 20
4.028569349454904
 30
0
 11
4.970000000000001
 21
3.577725478472633
 31
0
  0
LINE
  8
0
 62
7
 10
6.030000000000001
 20
3.409093507287305
 30
0
 11
6.030000000000001
 21
3.624567395772493
 31
0
  0
LINE
  8
0
 62
7
 10
4.970000000000001
 20
3.577725478472633
 30
0
 11
6.030000000000001
 21
3.409093507287305
 31
0
  0
LINE
  8
0
 62
7
 10
4.970000000000001
 20
4.393616596488275
 30
0
 11
4.970000000000001
 21
3.932254081623404
 31
0
  0
LINE
  8
0
 62
7
 10
6.030000000000001
 20
3.528252127940983
 30
0
 11
6.030000000000001
 21
3.750567782358374
 31
0
  0
LINE
  8
0
 62
7
 10
4.970000000000001
 20
3.932254081623404
 30
0
 11
6.030000000000001
 21
3.528252127940983
 31
0
  0
LINE
  8
0
 62
7
 10
4.970000000000001
 20
4.853017698091953
 30
0
 11
4.970000000000001
 21
4.288350293812794
 31
0
  0
LINE
  8
0
 62
7
 10
6.030000000000001
 20
3.645301479682893
 30
0
 11
6.030000000000001
 21
3.752331227779233
 31
0
  0
LINE
  8
0
 62
7
 10
4.970000000000001
 20
4.288350293812794
 30
0
 11
6.030000000000001
 21
3.645301479682893
 31
0
  0
LINE
  8
0
 62
7
 10
4.970000000000001
 20
5.075000000000003
 30
0
 11
4.970000000000001
 21
4.730549947128146
 31
0
  0
LINE
  8
0
 62
7
 10
5.351309689514489
 20
5.075000000000003
 30
0
 11
4.970000000000001
 21
5.075000000000003
 31
0
  0
LINE
  8
0
 62
7
 10
4.970000000000001
 20
4.730549947128146
 30
0
 11
6.030000000000001
 21
3.752331227779233
 31
0
  0
LINE
  8
0
 62
7
 10
5.780957370449011
 20
5.075000000000003
 30
0
 11
5.245133179369401
 21
5.075000000000003
 31
0
  0
LINE
  8
0
 62
7
 10
5.96300624689227
 20
3.928103439819363
 30
0
 11
6.030000000000012
 21
3.976505596602795
 31
0
  0
LINE
  8
0
 62
7
 10
5.245133179369401
 20
5.075000000000003
 30
0
 11
5.96300624689227
 21
3.928103439819363
 31
0
  0
LINE
  8
0
 62
7
 10
6.152647443309002
 20
5.075000000000003
 30
0
 11
5.686173825798302
 21
5.075000000000003
 31
0
  0
LINE
  8
0
 62
7
 10
6.036336555190928
 20
4.015000000000003
 30
0
 11
6.083280364525101
 21
4.015000000000005
 31
0
  0
LINE
  8
0
 62
7
 10
5.686173825798302
 20
5.075000000000003
 30
0
 11
6.036336555190928
 21
4.015000000000003
 31
0
  0
LINE
  8
0
 62
7
 10
6.518154699178791
 20
5.075000000000003
 30
0
 11
6.062384513480229
 21
5.075000000000003
 31
0
  0
LINE
  8
0
 62
7
 10
6.062384513480229
 20
5.075000000000003
 30
0
 11
6.14346876232823
 21
4.015000000000003
 31
0
  0
LINE
  8
0
 62
7
 10
6.939017874919701
 20
5.075000000000003
 30
0
 11
6.426888036196387
 21
5.075000000000003
 31
0
  0
LINE
  8
0
 62
7
 10
6.252835207906501
 20
4.041205814851364
 30
0
 11
6.271659524466491
 21
4.015000000000005
 31
0
  0
LINE
  8
0
 62
7
 10
6.426888036196387
 20
5.075000000000003
 30
0
 11
6.252835207906501
 21
4.041205814851364
 31
0
  0
LINE
  8
0
 62
7
 10
7.370000000000001
 20
5.075000000000003
 30
0
 11
6.839543861934222
 21
5.075000000000003
 31
0
  0
LINE
  8
0
 62
7
 10
7.370000000000001
 20
4.912283062100995
 30
0
 11
7.370000000000001
 21
5.075000000000003
 31
0
  0
LINE
  8
0
 62
7
 10
6.31
 20
3.950129225820953
 30
0
 11
6.31
 21
3.717050133428424
 31
0
  0
LINE
  8
0
 62
7
 10
6.839543861934222
 20
5.075000000000003
 30
0
 11
6.313269301327251
 21
3.957073960297854
 31
0
  0
LINE
  8
0
 62
7
 10
7.370000000000001
 20
4.387745220174394
 30
0
 11
7.370000000000001
 21
5.047924518406223
 31
0
  0
LINE
  8
0
 62
7
 10
6.31
 20
3.852691589733654
 30
0
 11
6.31
 21
3.632182145816794
 31
0
  0
LINE
  8
0
 62
7
 10
7.370000000000001
 20
5.047924518406223
 30
0
 11
6.31
 21
3.852691589733654
 31
0
  0
LINE
  8
0
 62
7
 10
7.370000000000001
 20
4.016967168821143
 30
0
 11
7.370000000000001
 21
4.498268635998953
 31
0
  0
LINE
  8
0
 62
7
 10
6.31
 20
3.742705561641352
 30
0
 11
6.31
 21
3.530005569100704
 31
0
  0
LINE
  8
0
 62
7
 10
7.370000000000001
 20
4.498268635998953
 30
0
 11
6.31
 21
3.742705561641352
 31
0
  0
LINE
  8
0
 62
7
 10
7.370000000000001
 20
3.664830936552383
 30
0
 11
7.370000000000001
 21
4.116009961914004
 31
0
  0
LINE
  8
0
 62
7
 10
6.31
 20
3.629048362193554
 30
0
 11
6.31
 21
3.424091699907364
 31
0
  0
LINE
  8
0
 62
7
 10
7.370000000000001
 20
4.116009961914004
 30
0
 11
6.31
 21
3.629048362193554
 31
0
  0
LINE
  8
0
 62
7
 10
7.370000000000001
 20
3.380000000000003
 30
0
 11
7.370000000000001
 21
3.757122857453735
 31
0
  0
LINE
  8
0
 62
7
 10
6.31
 20
3.516383620808713
 30
0
 11
6.31
 21
3.380000000000003
 31
0
  0
LINE
  8
0
 62
7
 10
7.370000000000001
 20
3.757122857453735
 30
0
 11
6.31
 21
3.516383620808713
 31
0
  0
LINE
  8
0
 62
7
 10
6.030000000000001
 20
3.752331227779233
 30
0
 11
6.030000000000012
 21
3.976505596602795
 31
0
  0
LINE
  8
0
 62
7
 10
6.030000000000001
 20
3.752331227779233
 30
0
 11
6.030000000000001
 21
3.874798978743044
 31
0
  0
LINE
  8
0
 62
7
 10
6.030000000000012
 20
3.976505596602795
 30
0
 11
6.083280364525101
 21
4.015000000000005
 31
0
  0
LINE
  8
0
 62
7
 10
6.083280364525101
 20
4.015000000000005
 30
0
 11
6.14346876232823
 21
4.015000000000003
 31
0
  0
LINE
  8
0
 62
7
 10
6.14346876232823
 20
4.015000000000003
 30
0
 11
6.271659524466491
 21
4.015000000000005
 31
0
  0
LINE
  8
0
 62
7
 10
6.14346876232823
 20
4.015000000000003
 30
0
 11
6.233731692156999
 21
4.015000000000003
 31
0
  0
LINE
  8
0
 62
7
 10
6.271659524466491
 20
4.015000000000005
 30
0
 11
6.313269301327251
 21
3.957073960297854
 31
0
  0
LINE
  8
0
 62
7
 10
6.313269301327251
 20
3.957073960297854
 30
0
 11
6.31
 21
3.950129225820953
 31
0
  0
LINE
  8
0
 62
7
 10
7.600000000000001
 20
8.099999999999996
 30
0
 11
7.75
 21
8.099999999999996
 31
0
  0
LINE
  8
0
 62
7
 10
7.600000000000001
 20
8.299999999999997
 30
0
 11
7.75
 21
8.299999999999997
 31
0
  0
LINE
  8
0
 62
7
 10
7.600000000000001
 20
10.85
 30
0
 11
7.75
 21
10.85
 31
0
  0
LINE
  8
0
 62
7
 10
7.600000000000001
 20
11.05
 30
0
 11
7.75
 21
11.05
 31
0
  0
LINE
  8
0
 62
7
 10
7.600000000000001
 20
8.099999999999996
 30
0
 11
7.600000000000001
 21
7.949999999999998
 31
0
  0
LINE
  8
0
 62
7
 10
7.425000000000001
 20
8.099999999999996
 30
0
 11
7.600000000000001
 21
8.099999999999996
 31
0
  0
LINE
  8
0
 62
7
 10
7.600000000000001
 20
8.399999999999997
 30
0
 11
7.600000000000001
 21
8.299999999999997
 31
0
  0
LINE
  8
0
 62
7
 10
7.425000000000001
 20
8.299999999999997
 30
0
 11
7.600000000000001
 21
8.299999999999997
 31
0
  0
LINE
  8
0
 62
7
 10
7.425000000000001
 20
10.85
 30
0
 11
7.600000000000001
 21
10.85
 31
0
  0
LINE
  8
0
 62
7
 10
7.600000000000001
 20
11.15
 30
0
 11
7.600000000000001
 21
11.05
 31
0
  0
LINE
  8
0
 62
7
 10
7.425000000000001
 20
11.05
 30
0
 11
7.600000000000001
 21
11.05
 31
0
  0
LINE
  8
0
 62
7
 10
7.425000000000001
 20
8.099999999999996
 30
0
 11
7.425000000000001
 21
7.949999999999998
 31
0
  0
LINE
  8
0
 62
7
 10
4.915
 20
8.099999999999996
 30
0
 11
7.425000000000001
 21
8.099999999999996
 31
0
  0
LINE
  8
0
 62
7
 10
7.425000000000001
 20
8.399999999999997
 30
0
 11
7.425000000000001
 21
8.299999999999997
 31
0
  0
LINE
  8
0
 62
7
 10
4.915
 20
8.299999999999997
 30
0
 11
7.425000000000001
 21
8.299999999999997
 31
0
  0
LINE
  8
0
 62
7
 10
4.915
 20
10.85
 30
0
 11
7.425000000000001
 21
10.85
 31
0
  0
LINE
  8
0
 62
7
 10
7.425000000000001
 20
11.15
 30
0
 11
7.425000000000001
 21
11.05
 31
0
  0
LINE
  8
0
 62
7
 10
4.915
 20
11.05
 30
0
 11
7.425000000000001
 21
11.05
 31
0
  0
LINE
  8
0
 62
7
 10
4.915
 20
8.099999999999996
 30
0
 11
4.915
 21
7.949999999999998
 31
0
  0
LINE
  8
0
 62
7
 10
4.74
 20
8.099999999999996
 30
0
 11
4.915
 21
8.099999999999996
 31
0
  0
LINE
  8
0
 62
7
 10
4.915
 20
8.399999999999997
 30
0
 11
4.915
 21
8.299999999999997
 31
0
  0
LINE
  8
0
 62
7
 10
4.74
 20
8.299999999999997
 30
0
 11
4.915
 21
8.299999999999997
 31
0
  0
LINE
  8
0
 62
7
 10
4.74
 20
10.85
 30
0
 11
4.915
 21
10.85
 31
0
  0
LINE
  8
0
 62
7
 10
4.915
 20
11.15
 30
0
 11
4.915
 21
11.05
 31
0
  0
LINE
  8
0
 62
7
 10
4.74
 20
11.05
 30
0
 11
4.915
 21
11.05
 31
0
  0
LINE
  8
0
 62
7
 10
4.74
 20
8.099999999999996
 30
0
 11
4.74
 21
7.949999999999998
 31
0
  0
LINE
  8
0
 62
7
 10
4.59
 20
8.099999999999996
 30
0
 11
4.74
 21
8.099999999999996
 31
0
  0
LINE
  8
0
 62
7
 10
4.74
 20
8.399999999999997
 30
0
 11
4.74
 21
8.299999999999997
 31
0
  0
LINE
  8
0
 62
7
 10
4.59
 20
8.299999999999997
 30
0
 11
4.74
 21
8.299999999999997
 31
0
  0
LINE
  8
0
 62
7
 10
4.59
 20
10.85
 30
0
 11
4.74
 21
10.85
 31
0
  0
LINE
  8
0
 62
7
 10
4.74
 20
11.15
 30
0
 11
4.74
 21
11.05
 31
0
  0
LINE
  8
0
 62
7
 10
4.59
 20
11.05
 30
0
 11
4.74
 21
11.05
 31
0
  0
LINE
  8
0
 62
7
  6
DASHDOT
 10
7.75
 20
8.099999999999996
 30
0
 11
7.75
 21
8.049999999999995
 31
0
  0
LINE
  8
0
 62
7
  6
DASHDOT
 10
7.75
 20
10.85
 30
0
 11
7.75
 21
10.8
 31
0
  0
LINE
  8
0
 62
7
  6
DASHDOT
 10
4.59
 20
8.099999999999996
 30
0
 11
4.59
 21
8.049999999999995
 31
0
  0
LINE
  8
0
 62
7
  6
DASHDOT
 10
4.59
 20
10.85
 30
0
 11
4.59
 21
10.8
 31
0
  0
LINE
  8
0
 62
7
  6
DASHDOT
 10
7.600000000000001
 20
11.2
 30
0
 11
7.65
 21
11.2
 31
0
  0
LINE
  8
0
 62
7
  6
DASHDOT
 10
7.600000000000001
 20
7.949999999999998
 30
0
 11
7.65
 21
7.949999999999998
 31
0
  0
LINE
  8
0
 62
7
  6
DASHDOT
 10
4.915
 20
11.2
 30
0
 11
4.965
 21
11.2
 31
0
  0
LINE
  8
0
 62
7
  6
DASHDOT
 10
4.915
 20
7.949999999999998
 30
0
 11
4.965
 21
7.949999999999998
 31
0
  0
LINE
  8
0
 62
7
 10
7.600000000000001
 20
8.399999999999997
 30
0
 11
7.75
 21
8.399999999999997
 31
0
  0
LINE
  8
0
 62
7
 10
7.600000000000001
 20
10.85
 30
0
 11
7.600000000000001
 21
8.399999999999997
 31
0
  0
LINE
  8
0
 62
7
  6
DASHDOT
 10
7.75
 20
8.449999999999998
 30
0
 11
7.75
 21
8.399999999999997
 31
0
  0
LINE
  8
0
 62
7
 10
4.915
 20
8.399999999999997
 30
0
 11
7.425000000000001
 21
8.399999999999997
 31
0
  0
LINE
  8
0
 62
7
 10
7.425000000000001
 20
10.85
 30
0
 11
7.425000000000001
 21
8.399999999999997
 31
0
  0
LINE
  8
0
 62
7
 10
4.915
 20
10.85
 30
0
 11
4.915
 21
8.399999999999997
 31
0
  0
LINE
  8
0
 62
7
 10
4.59
 20
8.399999999999997
 30
0
 11
4.74
 21
8.399999999999997
 31
0
  0
LINE
  8
0
 62
7
 10
4.74
 20
10.85
 30
0
 11
4.74
 21
8.399999999999997
 31
0
  0
LINE
  8
0
 62
7
  6
DASHDOT
 10
4.59
 20
8.449999999999998
 30
0
 11
4.59
 21
8.399999999999997
 31
0
  0
LINE
  8
0
 62
7
 10
7.600000000000001
 20
11.15
 30
0
 11
7.75
 21
11.15
 31
0
  0
LINE
  8
0
 62
7
 10
7.600000000000001
 20
11.2
 30
0
 11
7.600000000000001
 21
11.15
 31
0
  0
LINE
  8
0
 62
7
  6
DASHDOT
 10
7.75
 20
11.2
 30
0
 11
7.75
 21
11.15
 31
0
  0
LINE
  8
0
 62
7
 10
4.915
 20
11.15
 30
0
 11
7.425000000000001
 21
11.15
 31
0
  0
LINE
  8
0
 62
7
 10
7.425000000000001
 20
11.2
 30
0
 11
7.425000000000001
 21
11.15
 31
0
  0
LINE
  8
0
 62
7
 10
4.915
 20
11.2
 30
0
 11
4.915
 21
11.15
 31
0
  0
LINE
  8
0
 62
7
 10
4.59
 20
11.15
 30
0
 11
4.74
 21
11.15
 31
0
  0
LINE
  8
0
 62
7
 10
4.74
 20
11.2
 30
0
 11
4.74
 21
11.15
 31
0
  0
LINE
  8
0
 62
7
  6
DASHDOT
 10
4.59
 20
11.2
 30
0
 11
4.59
 21
11.15
 31
0
  0
LINE
  8
0
 62
7
  6
DASHDOT
 10
4.59
 20
8.299999999999997
 30
0
 11
4.59
 21
8.099999999999996
 31
0
  0
LINE
  8
0
 62
7
  6
DASHDOT
 10
4.59
 20
8.399999999999997
 30
0
 11
4.59
 21
8.299999999999997
 31
0
  0
LINE
  8
0
 62
7
  6
DASHDOT
 10
4.74
 20
7.949999999999998
 30
0
 11
4.915
 21
7.949999999999998
 31
0
  0
LINE
  8
0
 62
7
  6
DASHDOT
 10
4.69
 20
7.949999999999998
 30
0
 11
4.74
 21
7.949999999999998
 31
0
  0
LINE
  8
0
 62
7
  6
DASHDOT
 10
7.75
 20
8.299999999999997
 30
0
 11
7.75
 21
8.099999999999996
 31
0
  0
LINE
  8
0
 62
7
  6
DASHDOT
 10
7.75
 20
8.399999999999997
 30
0
 11
7.75
 21
8.299999999999997
 31
0
  0
LINE
  8
0
 62
7
  6
DASHDOT
 10
7.425000000000001
 20
7.949999999999998
 30
0
 11
7.600000000000001
 21
7.949999999999998
 31
0
  0
LINE
  8
0
 62
7
  6
DASHDOT
 10
7.375
 20
7.949999999999998
 30
0
 11
7.425000000000001
 21
7.949999999999998
 31
0
  0
LINE
  8
0
 62
7
  6
DASHDOT
 10
7.75
 20
11.05
 30
0
 11
7.75
 21
10.85
 31
0
  0
LINE
  8
0
 62
7
  6
DASHDOT
 10
7.75
 20
11.15
 30
0
 11
7.75
 21
11.05
 31
0
  0
LINE
  8
0
 62
7
  6
DASHDOT
 10
7.425000000000001
 20
11.2
 30
0
 11
7.600000000000001
 21
11.2
 31
0
  0
LINE
  8
0
 62
7
  6
DASHDOT
 10
7.375
 20
11.2
 30
0
 11
7.425000000000001
 21
11.2
 31
0
  0
LINE
  8
0
 62
7
  6
DASHDOT
 10
4.59
 20
11.05
 30
0
 11
4.59
 21
10.85
 31
0
  0
LINE
  8
0
 62
7
  6
DASHDOT
 10
4.59
 20
11.15
 30
0
 11
4.59
 21
11.05
 31
0
  0
LINE
  8
0
 62
7
  6
DASHDOT
 10
4.74
 20
11.2
 30
0
 11
4.915
 21
11.2
 31
0
  0
LINE
  8
0
 62
7
  6
DASHDOT
 10
4.69
 20
11.2
 30
0
 11
4.74
 21
11.2
 31
0
  0
LINE
  8
0
 62
7
 10
0.5
 20
7.949999999999998
 30
0
 11
0.5
 21
8.099999999999996
 31
0
  0
LINE
  8
0
 62
7
 10
0.740000000000011
 20
11.2
 30
0
 11
0.740000000000011
 21
11.05
 31
0
  0
LINE
  8
0
 62
7
 10
0.5
 20
11.05
 30
0
 11
0.740000000000011
 21
11.05
 31
0
  0
LINE
  8
0
 62
7
 10
0.5
 20
11.05
 30
0
 11
0.5
 21
11.2
 31
0
  0
LINE
  8
0
 62
7
 10
0.740000000000011
 20
11.05
 30
0
 11
0.740000000000011
 21
10.85
 31
0
  0
LINE
  8
0
 62
7
 10
0.5
 20
10.85
 30
0
 11
0.740000000000011
 21
10.85
 31
0
  0
LINE
  8
0
 62
7
 10
0.5
 20
10.85
 30
0
 11
0.5
 21
11.05
 31
0
  0
LINE
  8
0
 62
7
 10
0.740000000000011
 20
10.85
 30
0
 11
0.740000000000011
 21
8.299999999999997
 31
0
  0
LINE
  8
0
 62
7
 10
0.5
 20
8.299999999999997
 30
0
 11
0.740000000000011
 21
8.299999999999997
 31
0
  0
LINE
  8
0
 62
7
 10
0.5
 20
8.299999999999997
 30
0
 11
0.5
 21
10.85
 31
0
  0
LINE
  8
0
 62
7
 10
0.740000000000011
 20
8.299999999999997
 30
0
 11
0.740000000000011
 21
8.099999999999996
 31
0
  0
LINE
  8
0
 62
7
 10
0.5
 20
8.099999999999996
 30
0
 11
0.740000000000011
 21
8.099999999999996
 31
0
  0
LINE
  8
0
 62
7
 10
0.5
 20
8.099999999999996
 30
0
 11
0.5
 21
8.299999999999997
 31
0
  0
LINE
  8
0
 62
7
 10
0.740000000000011
 20
8.099999999999996
 30
0
 11
0.740000000000011
 21
7.949999999999998
 31
0
  0
LINE
  8
0
 62
7
 10
2.52
 20
11.05
 30
0
 11
2.52
 21
10.85
 31
0
  0
LINE
  8
0
 62
7
 10
2.52
 20
10.85
 30
0
 11
2.82
 21
10.85
 31
0
  0
LINE
  8
0
 62
7
 10
2.52
 20
11.05
 30
0
 11
2.82
 21
11.05
 31
0
  0
LINE
  8
0
 62
7
 10
2.52
 20
8.299999999999997
 30
0
 11
2.82
 21
8.299999999999997
 31
0
  0
LINE
  8
0
 62
7
 10
2.52
 20
8.299999999999997
 30
0
 11
2.52
 21
8.099999999999996
 31
0
  0
LINE
  8
0
 62
7
 10
2.52
 20
8.099999999999996
 30
0
 11
2.82
 21
8.099999999999996
 31
0
  0
LINE
  8
0
 62
7
  6
DASHDOT
 10
0.45
 20
11.2
 30
0
 11
0.5
 21
11.2
 31
0
  0
LINE
  8
0
 62
7
  6
DASHDOT
 10
2.82
 20
11.2
 30
0
 11
2.82
 21
11.15
 31
0
  0
LINE
  8
0
 62
7
  6
DASHDOT
 10
2.82
 20
8.049999999999995
 30
0
 11
2.82
 21
8.099999999999996
 31
0
  0
LINE
  8
0
 62
7
  6
DASHDOT
 10
0.45
 20
7.949999999999998
 30
0
 11
0.5
 21
7.949999999999998
 31
0
  0
LINE
  8
0
 62
7
 10
2.52
 20
8.399999999999997
 30
0
 11
2.82
 21
8.399999999999997
 31
0
  0
LINE
  8
0
 62
7
  6
DASHDOT
 10
2.82
 20
8.399999999999997
 30
0
 11
2.82
 21
8.449999999999998
 31
0
  0
LINE
  8
0
 62
7
 10
2.52
 20
11.15
 30
0
 11
2.82
 21
11.15
 31
0
  0
LINE
  8
0
 62
7
  6
DASHDOT
 10
2.82
 20
11.15
 30
0
 11
2.82
 21
11.05
 31
0
  0
LINE
  8
0
 62
7
  6
DASHDOT
 10
2.82
 20
8.299999999999997
 30
0
 11
2.82
 21
8.399999999999997
 31
0
  0
LINE
  8
0
 62
7
  6
DASHDOT
 10
2.82
 20
8.099999999999996
 30
0
 11
2.82
 21
8.299999999999997
 31
0
  0
LINE
  8
0
 62
7
  6
DASHDOT
 10
0.5
 20
7.949999999999998
 30
0
 11
0.740000000000011
 21
7.949999999999998
 31
0
  0
LINE
  8
0
 62
7
  6
DASHDOT
 10
0.740000000000011
 20
7.949999999999998
 30
0
 11
0.790000000000011
 21
7.949999999999998
 31
0
  0
LINE
  8
0
 62
7
  6
DASHDOT
 10
0.740000000000011
 20
11.2
 30
0
 11
0.790000000000011
 21
11.2
 31
0
  0
LINE
  8
0
 62
7
  6
DASHDOT
 10
0.5
 20
11.2
 30
0
 11
0.740000000000011
 21
11.2
 31
0
  0
LINE
  8
0
 62
7
  6
DASHDOT
 10
2.82
 20
10.85
 30
0
 11
2.82
 21
10.8
 31
0
  0
LINE
  8
0
 62
7
  6
DASHDOT
 10
2.82
 20
11.05
 30
0
 11
2.82
 21
10.85
 31
0
  0
LINE
  8
0
 62
7
  6
DASHED
 10
0.740000000000011
 20
11.05
 30
0
 11
2.52
 21
11.05
 31
0
  0
LINE
  8
0
 62
7
  6
DASHED
 10
0.740000000000011
 20
10.85
 30
0
 11
2.52
 21
10.85
 31
0
  0
LINE
  8
0
 62
7
  6
DASHED
 10
0.740000000000011
 20
8.299999999999997
 30
0
 11
2.52
 21
8.299999999999997
 31
0
  0
LINE
  8
0
 62
7
  6
DASHED
 10
0.740000000000011
 20
8.099999999999996
 30
0
 11
2.52
 21
8.099999999999996
 31
0
  0
LINE
  8
0
 62
7
 10
4.59
 20
5.649999999999996
 30
0
 11
4.74
 21
5.649999999999996
 31
0
  0
LINE
  8
0
 62
7
 10
4.74
 20
5.649999999999996
 30
0
 11
4.74
 21
5.799999999999997
 31
0
  0
LINE
  8
0
 62
7
 10
4.915
 20
5.799999999999997
 30
0
 11
4.915
 21
5.649999999999996
 31
0
  0
LINE
  8
0
 62
7
 10
4.915
 20
5.649999999999996
 30
0
 11
7.425000000000001
 21
5.649999999999996
 31
0
  0
LINE
  8
0
 62
7
 10
7.425000000000001
 20
5.649999999999996
 30
0
 11
7.425000000000001
 21
5.799999999999997
 31
0
  0
LINE
  8
0
 62
7
 10
7.600000000000001
 20
5.799999999999997
 30
0
 11
7.600000000000001
 21
5.649999999999996
 31
0
  0
LINE
  8
0
 62
7
 10
7.600000000000001
 20
5.649999999999996
 30
0
 11
7.765000000000001
 21
5.649999999999996
 31
0
  0
LINE
  8
0
 62
7
 10
4.59
 20
5.410000000000004
 30
0
 11
7.765000000000001
 21
5.410000000000004
 31
0
  0
LINE
  8
0
 62
7
 10
4.59
 20
5.370000000000005
 30
0
 11
7.765000000000001
 21
5.370000000000005
 31
0
  0
LINE
  8
0
 62
7
 10
4.59
 20
5.130000000000004
 30
0
 11
4.74
 21
5.130000000000004
 31
0
  0
LINE
  8
0
 62
7
 10
4.915
 20
3.250000000000003
 30
0
 11
4.915
 21
3.350000000000003
 31
0
  0
LINE
  8
0
 62
7
 10
4.74
 20
3.250000000000003
 30
0
 11
4.915
 21
3.250000000000003
 31
0
  0
LINE
  8
0
 62
7
 10
4.74
 20
5.130000000000004
 30
0
 11
4.74
 21
3.250000000000003
 31
0
  0
LINE
  8
0
 62
7
 10
4.915
 20
5.130000000000004
 30
0
 11
7.425000000000001
 21
5.130000000000004
 31
0
  0
LINE
  8
0
 62
7
 10
7.425000000000001
 20
5.130000000000004
 30
0
 11
7.425000000000001
 21
3.400000000000003
 31
0
  0
LINE
  8
0
 62
7
 10
7.600000000000001
 20
3.350000000000003
 30
0
 11
7.600000000000001
 21
5.130000000000004
 31
0
  0
LINE
  8
0
 62
7
 10
7.600000000000001
 20
5.130000000000004
 30
0
 11
7.765000000000001
 21
5.130000000000004
 31
0
  0
LINE
  8
0
 62
7
 10
7.425000000000001
 20
3.350000000000003
 30
0
 11
7.600000000000001
 21
3.350000000000003
 31
0
  0
LINE
  8
0
 62
7
 10
7.425000000000001
 20
3.400000000000003
 30
0
 11
4.915
 21
3.400000000000004
 31
0
  0
LINE
  8
0
 62
7
 10
4.915
 20
3.400000000000004
 30
0
 11
4.915
 21
5.130000000000004
 31
0
  0
LINE
  8
0
 62
7
 10
7.425000000000001
 20
3.400000000000003
 30
0
 11
7.425000000000001
 21
3.350000000000003
 31
0
  0
LINE
  8
0
 62
7
  6
DASHDOT
 10
7.425000000000001
 20
3.350000000000003
 30
0
 11
4.915
 21
3.350000000000003
 31
0
  0
LINE
  8
0
 62
7
 10
4.915
 20
3.350000000000003
 30
0
 11
4.915
 21
3.400000000000004
 31
0
  0
LINE
  8
0
 62
7
  6
DASHDOT
 10
4.69
 20
5.799999999999996
 30
0
 11
4.74
 21
5.799999999999997
 31
0
  0
LINE
  8
0
 62
7
  6
DASHDOT
 10
7.375
 20
5.799999999999996
 30
0
 11
7.425000000000001
 21
5.799999999999997
 31
0
  0
LINE
  8
0
 62
7
  6
DASHDOT
 10
4.59
 20
5.699999999999996
 30
0
 11
4.59
 21
5.649999999999996
 31
0
  0
LINE
  8
0
 62
7
  6
DASHDOT
 10
7.765000000000001
 20
5.699999999999996
 30
0
 11
7.765000000000001
 21
5.649999999999996
 31
0
  0
LINE
  8
0
 62
7
  6
DASHDOT
 10
7.765000000000001
 20
5.649999999999996
 30
0
 11
7.765000000000001
 21
5.410000000000004
 31
0
  0
LINE
  8
0
 62
7
  6
DASHDOT
 10
7.765000000000001
 20
5.130000000000004
 30
0
 11
7.765000000000001
 21
5.080000000000003
 31
0
  0
LINE
  8
0
 62
7
  6
DASHDOT
 10
4.74
 20
5.799999999999997
 30
0
 11
4.915
 21
5.799999999999997
 31
0
  0
LINE
  8
0
 62
7
  6
DASHDOT
 10
4.915
 20
5.799999999999997
 30
0
 11
4.965
 21
5.799999999999996
 31
0
  0
LINE
  8
0
 62
7
  6
DASHDOT
 10
4.59
 20
5.649999999999996
 30
0
 11
4.59
 21
5.410000000000004
 31
0
  0
LINE
  8
0
 62
7
  6
DASHDOT
 10
4.59
 20
5.130000000000004
 30
0
 11
4.59
 21
5.080000000000003
 31
0
  0
LINE
  8
0
 62
7
  6
DASHDOT
 10
7.765000000000001
 20
5.410000000000004
 30
0
 11
7.765000000000001
 21
5.370000000000005
 31
0
  0
LINE
  8
0
 62
7
  6
DASHDOT
 10
4.59
 20
5.410000000000004
 30
0
 11
4.59
 21
5.370000000000005
 31
0
  0
LINE
  8
0
 62
7
  6
DASHDOT
 10
7.765000000000001
 20
5.370000000000005
 30
0
 11
7.765000000000001
 21
5.130000000000004
 31
0
  0
LINE
  8
0
 62
7
  6
DASHDOT
 10
4.59
 20
5.370000000000005
 30
0
 11
4.59
 21
5.130000000000004
 31
0
  0
LINE
  8
0
 62
7
  6
DASHDOT
 10
7.600000000000001
 20
5.799999999999997
 30
0
 11
7.65
 21
5.799999999999996
 31
0
  0
LINE
  8
0
 62
7
  6
DASHDOT
 10
7.425000000000001
 20
5.799999999999997
 30
0
 11
7.600000000000001
 21
5.799999999999997
 31
0
  0
LINE
  8
0
 62
7
 10
5.326935790183382
 20
4.808511499460632
 30
0
 11
5.326935790183382
 21
4.928511499460631
 31
0
  0
LINE
  8
0
 62
7
 10
5.402535790183382
 20
4.928511499460631
 30
0
 11
5.348535790183382
 21
4.868511499460631
 31
0
  0
LINE
  8
0
 62
7
 10
5.348535790183382
 20
4.868511499460631
 30
0
 11
5.402535790183382
 21
4.808511499460632
 31
0
  0
LINE
  8
0
 62
7
 10
5.348535790183382
 20
4.868511499460631
 30
0
 11
5.326935790183382
 21
4.84451149946063
 31
0
  0
LINE
  8
0
 62
7
 10
5.510535790183382
 20
4.928511499460631
 30
0
 11
5.434935790183381
 21
4.928511499460631
 31
0
  0
LINE
  8
0
 62
7
 10
5.434935790183381
 20
4.928511499460631
 30
0
 11
5.434935790183381
 21
4.868511499460631
 31
0
  0
LINE
  8
0
 62
7
 10
5.434935790183381
 20
4.808511499460632
 30
0
 11
5.510535790183382
 21
4.808511499460632
 31
0
  0
LINE
  8
0
 62
7
 10
5.499735790183382
 20
4.868511499460631
 30
0
 11
5.434935790183381
 21
4.868511499460631
 31
0
  0
LINE
  8
0
 62
7
 10
5.434935790183381
 20
4.868511499460631
 30
0
 11
5.434935790183381
 21
4.808511499460632
 31
0
  0
LINE
  8
0
 62
7
 10
5.542935790183382
 20
4.808511499460632
 30
0
 11
5.542935790183382
 21
4.928511499460631
 31
0
  0
LINE
  8
0
 62
7
 10
5.542935790183382
 20
4.928511499460631
 30
0
 11
5.618535790183381
 21
4.808511499460632
 31
0
  0
LINE
  8
0
 62
7
 10
5.618535790183381
 20
4.808511499460632
 30
0
 11
5.618535790183381
 21
4.928511499460631
 31
0
  0
LINE
  8
0
 62
7
 10
5.650935790183381
 20
4.808511499460632
 30
0
 11
5.650935790183381
 21
4.928511499460631
 31
0
  0
LINE
  8
0
 62
7
 10
5.650935790183381
 20
4.928511499460631
 30
0
 11
5.726535790183382
 21
4.808511499460632
 31
0
  0
LINE
  8
0
 62
7
 10
5.726535790183382
 20
4.808511499460632
 30
0
 11
5.726535790183382
 21
4.928511499460631
 31
0
  0
LINE
  8
0
 62
7
 10
5.834535790183382
 20
4.892511499460631
 30
0
 11
5.831835790183381
 21
4.90451149946063
 31
0
  0
LINE
  8
0
 62
7
 10
5.831835790183381
 20
4.90451149946063
 30
0
 11
5.826435790183382
 21
4.913511499460632
 31
0
  0
LINE
  8
0
 62
7
 10
5.826435790183382
 20
4.913511499460632
 30
0
 11
5.821035790183382
 21
4.91951149946063
 31
0
  0
LINE
  8
0
 62
7
 10
5.821035790183382
 20
4.91951149946063
 30
0
 11
5.812935790183382
 21
4.92551149946063
 31
0
  0
LINE
  8
0
 62
7
 10
5.812935790183382
 20
4.92551149946063
 30
0
 11
5.804835790183382
 21
4.928511499460631
 31
0
  0
LINE
  8
0
 62
7
 10
5.804835790183382
 20
4.928511499460631
 30
0
 11
5.788635790183381
 21
4.928511499460631
 31
0
  0
LINE
  8
0
 62
7
 10
5.788635790183381
 20
4.928511499460631
 30
0
 11
5.780535790183382
 21
4.92551149946063
 31
0
  0
LINE
  8
0
 62
7
 10
5.780535790183382
 20
4.92551149946063
 30
0
 11
5.772435790183382
 21
4.91951149946063
 31
0
  0
LINE
  8
0
 62
7
 10
5.772435790183382
 20
4.91951149946063
 30
0
 11
5.767035790183382
 21
4.913511499460632
 31
0
  0
LINE
  8
0
 62
7
 10
5.767035790183382
 20
4.913511499460632
 30
0
 11
5.761635790183381
 21
4.90451149946063
 31
0
  0
LINE
  8
0
 62
7
 10
5.761635790183381
 20
4.90451149946063
 30
0
 11
5.758935790183381
 21
4.892511499460631
 31
0
  0
LINE
  8
0
 62
7
 10
5.758935790183381
 20
4.892511499460631
 30
0
 11
5.758935790183381
 21
4.84451149946063
 31
0
  0
LINE
  8
0
 62
7
 10
5.758935790183381
 20
4.84451149946063
 30
0
 11
5.761635790183381
 21
4.83251149946063
 31
0
  0
LINE
  8
0
 62
7
 10
5.761635790183381
 20
4.83251149946063
 30
0
 11
5.767035790183382
 21
4.823511499460632
 31
0
  0
LINE
  8
0
 62
7
 10
5.767035790183382
 20
4.823511499460632
 30
0
 11
5.772435790183382
 21
4.817511499460631
 31
0
  0
LINE
  8
0
 62
7
 10
5.772435790183382
 20
4.817511499460631
 30
0
 11
5.780535790183382
 21
4.811511499460631
 31
0
  0
LINE
  8
0
 62
7
 10
5.780535790183382
 20
4.811511499460631
 30
0
 11
5.788635790183381
 21
4.808511499460632
 31
0
  0
LINE
  8
0
 62
7
 10
5.788635790183381
 20
4.808511499460632
 30
0
 11
5.804835790183382
 21
4.808511499460632
 31
0
  0
LINE
  8
0
 62
7
 10
5.804835790183382
 20
4.808511499460632
 30
0
 11
5.812935790183382
 21
4.811511499460631
 31
0
  0
LINE
  8
0
 62
7
 10
5.812935790183382
 20
4.811511499460631
 30
0
 11
5.821035790183382
 21
4.817511499460631
 31
0
  0
LINE
  8
0
 62
7
 10
5.821035790183382
 20
4.817511499460631
 30
0
 11
5.826435790183382
 21
4.823511499460632
 31
0
  0
LINE
  8
0
 62
7
 10
5.826435790183382
 20
4.823511499460632
 30
0
 11
5.831835790183381
 21
4.83251149946063
 31
0
  0
LINE
  8
0
 62
7
 10
5.831835790183381
 20
4.83251149946063
 30
0
 11
5.834535790183382
 21
4.84451149946063
 31
0
  0
LINE
  8
0
 62
7
 10
5.834535790183382
 20
4.84451149946063
 30
0
 11
5.834535790183382
 21
4.868511499460631
 31
0
  0
LINE
  8
0
 62
7
 10
5.834535790183382
 20
4.868511499460631
 30
0
 11
5.802135790183382
 21
4.868511499460631
 31
0
  0
LINE
  8
0
 62
7
 10
5.912835790183381
 20
4.928511499460631
 30
0
 11
5.896635790183382
 21
4.928511499460631
 31
0
  0
LINE
  8
0
 62
7
 10
5.896635790183382
 20
4.928511499460631
 30
0
 11
5.888535790183382
 21
4.92551149946063
 31
0
  0
LINE
  8
0
 62
7
 10
5.888535790183382
 20
4.92551149946063
 30
0
 11
5.880435790183382
 21
4.91951149946063
 31
0
  0
LINE
  8
0
 62
7
 10
5.880435790183382
 20
4.91951149946063
 30
0
 11
5.875035790183382
 21
4.913511499460632
 31
0
  0
LINE
  8
0
 62
7
 10
5.875035790183382
 20
4.913511499460632
 30
0
 11
5.869635790183382
 21
4.90451149946063
 31
0
  0
LINE
  8
0
 62
7
 10
5.869635790183382
 20
4.90451149946063
 30
0
 11
5.866935790183382
 21
4.892511499460631
 31
0
  0
LINE
  8
0
 62
7
 10
5.866935790183382
 20
4.892511499460631
 30
0
 11
5.866935790183382
 21
4.84451149946063
 31
0
  0
LINE
  8
0
 62
7
 10
5.866935790183382
 20
4.84451149946063
 30
0
 11
5.869635790183382
 21
4.83251149946063
 31
0
  0
LINE
  8
0
 62
7
 10
5.869635790183382
 20
4.83251149946063
 30
0
 11
5.875035790183382
 21
4.823511499460632
 31
0
  0
LINE
  8
0
 62
7
 10
5.875035790183382
 20
4.823511499460632
 30
0
 11
5.880435790183382
 21
4.817511499460631
 31
0
  0
LINE
  8
0
 62
7
 10
5.880435790183382
 20
4.817511499460631
 30
0
 11
5.888535790183382
 21
4.811511499460631
 31
0
  0
LINE
  8
0
 62
7
 10
5.888535790183382
 20
4.811511499460631
 30
0
 11
5.896635790183382
 21
4.808511499460632
 31
0
  0
LINE
  8
0
 62
7
 10
5.896635790183382
 20
4.808511499460632
 30
0
 11
5.912835790183381
 21
4.808511499460632
 31
0
  0
LINE
  8
0
 62
7
 10
5.912835790183381
 20
4.808511499460632
 30
0
 11
5.920935790183382
 21
4.811511499460631
 31
0
  0
LINE
  8
0
 62
7
 10
5.920935790183382
 20
4.811511499460631
 30
0
 11
5.929035790183382
 21
4.817511499460631
 31
0
  0
LINE
  8
0
 62
7
 10
5.929035790183382
 20
4.817511499460631
 30
0
 11
5.934435790183382
 21
4.823511499460632
 31
0
  0
LINE
  8
0
 62
7
 10
5.934435790183382
 20
4.823511499460632
 30
0
 11
5.93983579018338
 21
4.83251149946063
 31
0
  0
LINE
  8
0
 62
7
 10
5.93983579018338
 20
4.83251149946063
 30
0
 11
5.942535790183382
 21
4.84451149946063
 31
0
  0
LINE
  8
0
 62
7
 10
5.942535790183382
 20
4.84451149946063
 30
0
 11
5.942535790183382
 21
4.892511499460631
 31
0
  0
LINE
  8
0
 62
7
 10
5.942535790183382
 20
4.892511499460631
 30
0
 11
5.93983579018338
 21
4.90451149946063
 31
0
  0
LINE
  8
0
 62
7
 10
5.93983579018338
 20
4.90451149946063
 30
0
 11
5.934435790183382
 21
4.913511499460632
 31
0
  0
LINE
  8
0
 62
7
 10
5.934435790183382
 20
4.913511499460632
 30
0
 11
5.929035790183382
 21
4.91951149946063
 31
0
  0
LINE
  8
0
 62
7
 10
5.929035790183382
 20
4.91951149946063
 30
0
 11
5.920935790183382
 21
4.92551149946063
 31
0
  0
LINE
  8
0
 62
7
 10
5.920935790183382
 20
4.92551149946063
 30
0
 11
5.912835790183381
 21
4.928511499460631
 31
0
  0
LINE
  8
0
 62
7
 10
5.964135790183382
 20
4.928511499460631
 30
0
 11
6.001935790183383
 21
4.928511499460631
 31
0
  0
LINE
  8
0
 62
7
 10
6.001935790183383
 20
4.928511499460631
 30
0
 11
6.001935790183383
 21
4.808511499460632
 31
0
  0
LINE
  8
0
 62
7
 10
6.001935790183383
 20
4.928511499460631
 30
0
 11
6.039735790183382
 21
4.928511499460631
 31
0
  0
LINE
  8
0
 62
7
 10
6.072135790183383
 20
4.928511499460631
 30
0
 11
6.109935790183382
 21
4.928511499460631
 31
0
  0
LINE
  8
0
 62
7
 10
6.109935790183382
 20
4.928511499460631
 30
0
 11
6.109935790183382
 21
4.808511499460632
 31
0
  0
LINE
  8
0
 62
7
 10
6.109935790183382
 20
4.928511499460631
 30
0
 11
6.147735790183384
 21
4.928511499460631
 31
0
  0
LINE
  8
0
 62
7
 10
6.266535790183382
 20
4.85051149946063
 30
0
 11
6.320535790183381
 21
4.85051149946063
 31
0
  0
LINE
  8
0
 62
7
 10
6.428535790183382
 20
4.928511499460631
 30
0
 11
6.466335790183383
 21
4.928511499460631
 31
0
  0
LINE
  8
0
 62
7
 10
6.466335790183383
 20
4.928511499460631
 30
0
 11
6.466335790183383
 21
4.808511499460632
 31
0
  0
LINE
  8
0
 62
7
 10
6.466335790183383
 20
4.928511499460631
 30
0
 11
6.504135790183383
 21
4.928511499460631
 31
0
  0
LINE
  8
0
 62
7
 10
6.536535790183382
 20
4.808511499460632
 30
0
 11
6.536535790183382
 21
4.928511499460631
 31
0
  0
LINE
  8
0
 62
7
 10
6.536535790183382
 20
4.928511499460631
 30
0
 11
6.587835790183383
 21
4.928511499460631
 31
0
  0
LINE
  8
0
 62
7
 10
6.587835790183383
 20
4.928511499460631
 30
0
 11
6.598635790183382
 21
4.92551149946063
 31
0
  0
LINE
  8
0
 62
7
 10
6.598635790183382
 20
4.92551149946063
 30
0
 11
6.606735790183382
 21
4.91951149946063
 31
0
  0
LINE
  8
0
 62
7
 10
6.606735790183382
 20
4.91951149946063
 30
0
 11
6.609435790183382
 21
4.913511499460632
 31
0
  0
LINE
  8
0
 62
7
 10
6.609435790183382
 20
4.913511499460632
 30
0
 11
6.612135790183384
 21
4.90451149946063
 31
0
  0
LINE
  8
0
 62
7
 10
6.612135790183384
 20
4.90451149946063
 30
0
 11
6.612135790183384
 21
4.892511499460631
 31
0
  0
LINE
  8
0
 62
7
 10
6.612135790183384
 20
4.892511499460631
 30
0
 11
6.609435790183382
 21
4.883511499460631
 31
0
  0
LINE
  8
0
 62
7
 10
6.609435790183382
 20
4.883511499460631
 30
0
 11
6.606735790183382
 21
4.877511499460631
 31
0
  0
LINE
  8
0
 62
7
 10
6.606735790183382
 20
4.877511499460631
 30
0
 11
6.598635790183382
 21
4.871511499460631
 31
0
  0
LINE
  8
0
 62
7
 10
6.598635790183382
 20
4.871511499460631
 30
0
 11
6.587835790183383
 21
4.868511499460631
 31
0
  0
LINE
  8
0
 62
7
 10
6.587835790183383
 20
4.868511499460631
 30
0
 11
6.579735790183381
 21
4.868511499460631
 31
0
  0
LINE
  8
0
 62
7
 10
6.579735790183381
 20
4.868511499460631
 30
0
 11
6.612135790183384
 21
4.808511499460632
 31
0
  0
LINE
  8
0
 62
7
 10
6.579735790183381
 20
4.868511499460631
 30
0
 11
6.536535790183382
 21
4.868511499460631
 31
0
  0
LINE
  8
0
 62
7
 10
6.709335790183383
 20
4.928511499460631
 30
0
 11
6.633735790183383
 21
4.928511499460631
 31
0
  0
LINE
  8
0
 62
7
 10
6.633735790183383
 20
4.928511499460631
 30
0
 11
6.633735790183383
 21
4.868511499460631
 31
0
  0
LINE
  8
0
 62
7
 10
6.633735790183383
 20
4.808511499460632
 30
0
 11
6.709335790183383
 21
4.808511499460632
 31
0
  0
LINE
  8
0
 62
7
 10
6.698535790183382
 20
4.868511499460631
 30
0
 11
6.633735790183383
 21
4.868511499460631
 31
0
  0
LINE
  8
0
 62
7
 10
6.633735790183383
 20
4.868511499460631
 30
0
 11
6.633735790183383
 21
4.808511499460632
 31
0
  0
LINE
  8
0
 62
7
 10
6.741735790183383
 20
4.808511499460632
 30
0
 11
6.741735790183383
 21
4.868511499460631
 31
0
  0
LINE
  8
0
 62
7
 10
6.741735790183383
 20
4.928511499460631
 30
0
 11
6.793035790183383
 21
4.928511499460631
 31
0
  0
LINE
  8
0
 62
7
 10
6.793035790183383
 20
4.928511499460631
 30
0
 11
6.803835790183384
 21
4.92551149946063
 31
0
  0
LINE
  8
0
 62
7
 10
6.803835790183384
 20
4.92551149946063
 30
0
 11
6.811935790183383
 21
4.91951149946063
 31
0
  0
LINE
  8
0
 62
7
 10
6.811935790183383
 20
4.91951149946063
 30
0
 11
6.814635790183383
 21
4.913511499460632
 31
0
  0
LINE
  8
0
 62
7
 10
6.814635790183383
 20
4.913511499460632
 30
0
 11
6.817335790183384
 21
4.90451149946063
 31
0
  0
LINE
  8
0
 62
7
 10
6.817335790183384
 20
4.90451149946063
 30
0
 11
6.817335790183384
 21
4.892511499460631
 31
0
  0
LINE
  8
0
 62
7
 10
6.817335790183384
 20
4.892511499460631
 30
0
 11
6.814635790183383
 21
4.883511499460631
 31
0
  0
LINE
  8
0
 62
7
 10
6.814635790183383
 20
4.883511499460631
 30
0
 11
6.811935790183383
 21
4.877511499460631
 31
0
  0
LINE
  8
0
 62
7
 10
6.811935790183383
 20
4.877511499460631
 30
0
 11
6.803835790183384
 21
4.871511499460631
 31
0
  0
LINE
  8
0
 62
7
 10
6.803835790183384
 20
4.871511499460631
 30
0
 11
6.793035790183383
 21
4.868511499460631
 31
0
  0
LINE
  8
0
 62
7
 10
6.793035790183383
 20
4.868511499460631
 30
0
 11
6.741735790183383
 21
4.868511499460631
 31
0
  0
LINE
  8
0
 62
7
 10
6.741735790183383
 20
4.868511499460631
 30
0
 11
6.741735790183383
 21
4.928511499460631
 31
0
  0
LINE
  8
0
 62
7
 10
6.838935790183382
 20
4.808511499460632
 30
0
 11
6.838935790183382
 21
4.868511499460631
 31
0
  0
LINE
  8
0
 62
7
 10
6.838935790183382
 20
4.928511499460631
 30
0
 11
6.890235790183384
 21
4.928511499460631
 31
0
  0
LINE
  8
0
 62
7
 10
6.890235790183384
 20
4.928511499460631
 30
0
 11
6.901035790183383
 21
4.92551149946063
 31
0
  0
LINE
  8
0
 62
7
 10
6.901035790183383
 20
4.92551149946063
 30
0
 11
6.909135790183382
 21
4.91951149946063
 31
0
  0
LINE
  8
0
 62
7
 10
6.909135790183382
 20
4.91951149946063
 30
0
 11
6.911835790183382
 21
4.913511499460632
 31
0
  0
LINE
  8
0
 62
7
 10
6.911835790183382
 20
4.913511499460632
 30
0
 11
6.914535790183383
 21
4.90451149946063
 31
0
  0
LINE
  8
0
 62
7
 10
6.914535790183383
 20
4.90451149946063
 30
0
 11
6.914535790183383
 21
4.892511499460631
 31
0
  0
LINE
  8
0
 62
7
 10
6.914535790183383
 20
4.892511499460631
 30
0
 11
6.911835790183382
 21
4.883511499460631
 31
0
  0
LINE
  8
0
 62
7
 10
6.911835790183382
 20
4.883511499460631
 30
0
 11
6.909135790183382
 21
4.877511499460631
 31
0
  0
LINE
  8
0
 62
7
 10
6.909135790183382
 20
4.877511499460631
 30
0
 11
6.901035790183383
 21
4.871511499460631
 31
0
  0
LINE
  8
0
 62
7
 10
6.901035790183383
 20
4.871511499460631
 30
0
 11
6.890235790183384
 21
4.868511499460631
 31
0
  0
LINE
  8
0
 62
7
 10
6.890235790183384
 20
4.868511499460631
 30
0
 11
6.838935790183382
 21
4.868511499460631
 31
0
  0
LINE
  8
0
 62
7
 10
6.838935790183382
 20
4.868511499460631
 30
0
 11
6.838935790183382
 21
4.928511499460631
 31
0
  0
LINE
  8
0
 62
7
 10
7.011735790183383
 20
4.928511499460631
 30
0
 11
6.936135790183382
 21
4.928511499460631
 31
0
  0
LINE
  8
0
 62
7
 10
6.936135790183382
 20
4.928511499460631
 30
0
 11
6.936135790183382
 21
4.868511499460631
 31
0
  0
LINE
  8
0
 62
7
 10
6.936135790183382
 20
4.808511499460632
 30
0
 11
7.011735790183383
 21
4.808511499460632
 31
0
  0
LINE
  8
0
 62
7
 10
7.000935790183383
 20
4.868511499460631
 30
0
 11
6.936135790183382
 21
4.868511499460631
 31
0
  0
LINE
  8
0
 62
7
 10
6.936135790183382
 20
4.868511499460631
 30
0
 11
6.936135790183382
 21
4.808511499460632
 31
0
  0
LINE
  8
0
 62
7
 10
4.374999999999999
 20
2.890000000000003
 30
0
 11
4.374999999999999
 21
3.010000000000003
 31
0
  0
LINE
  8
0
 62
7
 10
4.374999999999999
 20
3.010000000000003
 30
0
 11
4.418199999999999
 21
2.914000000000003
 31
0
  0
LINE
  8
0
 62
7
 10
4.418199999999999
 20
2.914000000000003
 30
0
 11
4.461399999999999
 21
3.010000000000003
 31
0
  0
LINE
  8
0
 62
7
 10
4.461399999999999
 20
3.010000000000003
 30
0
 11
4.461399999999999
 21
2.890000000000003
 31
0
  0
LINE
  8
0
 62
7
 10
4.493799999999999
 20
2.992000000000003
 30
0
 11
4.499199999999999
 21
3.001000000000003
 31
0
  0
LINE
  8
0
 62
7
 10
4.499199999999999
 20
3.001000000000003
 30
0
 11
4.5073
 21
3.007000000000003
 31
0
  0
LINE
  8
0
 62
7
 10
4.5073
 20
3.007000000000003
 30
0
 11
4.518099999999999
 21
3.010000000000003
 31
0
  0
LINE
  8
0
 62
7
 10
4.518099999999999
 20
3.010000000000003
 30
0
 11
4.5343
 21
3.010000000000003
 31
0
  0
LINE
  8
0
 62
7
 10
4.5343
 20
3.010000000000003
 30
0
 11
4.545100000000001
 21
3.007000000000003
 31
0
  0
LINE
  8
0
 62
7
 10
4.545100000000001
 20
3.007000000000003
 30
0
 11
4.553199999999999
 21
3.001000000000003
 31
0
  0
LINE
  8
0
 62
7
 10
4.553199999999999
 20
3.001000000000003
 30
0
 11
4.558600000000001
 21
2.992000000000003
 31
0
  0
LINE
  8
0
 62
7
 10
4.558600000000001
 20
2.992000000000003
 30
0
 11
4.558600000000001
 21
2.980000000000003
 31
0
  0
LINE
  8
0
 62
7
 10
4.558600000000001
 20
2.980000000000003
 30
0
 11
4.553199999999999
 21
2.968000000000003
 31
0
  0
LINE
  8
0
 62
7
 10
4.553199999999999
 20
2.968000000000003
 30
0
 11
4.493799999999999
 21
2.890000000000003
 31
0
  0
LINE
  8
0
 62
7
 10
4.493799999999999
 20
2.890000000000003
 30
0
 11
4.558600000000001
 21
2.890000000000003
 31
0
  0
LINE
  8
0
 62
7
 10
4.590999999999999
 20
3.010000000000003
 30
0
 11
4.6288
 21
2.890000000000003
 31
0
  0
LINE
  8
0
 62
7
 10
4.6288
 20
2.890000000000003
 30
0
 11
4.666600000000001
 21
3.010000000000003
 31
0
  0
LINE
  8
0
 62
7
 10
4.699
 20
2.992000000000003
 30
0
 11
4.704399999999999
 21
3.001000000000003
 31
0
  0
LINE
  8
0
 62
7
 10
4.704399999999999
 20
3.001000000000003
 30
0
 11
4.712499999999999
 21
3.007000000000003
 31
0
  0
LINE
  8
0
 62
7
 10
4.712499999999999
 20
3.007000000000003
 30
0
 11
4.7233
 21
3.010000000000003
 31
0
  0
LINE
  8
0
 62
7
 10
4.7233
 20
3.010000000000003
 30
0
 11
4.739499999999999
 21
3.010000000000003
 31
0
  0
LINE
  8
0
 62
7
 10
4.739499999999999
 20
3.010000000000003
 30
0
 11
4.750299999999999
 21
3.007000000000003
 31
0
  0
LINE
  8
0
 62
7
 10
4.750299999999999
 20
3.007000000000003
 30
0
 11
4.7584
 21
3.001000000000003
 31
0
  0
LINE
  8
0
 62
7
 10
4.7584
 20
3.001000000000003
 30
0
 11
4.763799999999999
 21
2.992000000000003
 31
0
  0
LINE
  8
0
 62
7
 10
4.763799999999999
 20
2.992000000000003
 30
0
 11
4.763799999999999
 21
2.980000000000003
 31
0
  0
LINE
  8
0
 62
7
 10
4.763799999999999
 20
2.980000000000003
 30
0
 11
4.7584
 21
2.968000000000003
 31
0
  0
LINE
  8
0
 62
7
 10
4.7584
 20
2.968000000000003
 30
0
 11
4.699
 21
2.890000000000003
 31
0
  0
LINE
  8
0
 62
7
 10
4.699
 20
2.890000000000003
 30
0
 11
4.763799999999999
 21
2.890000000000003
 31
0
  0
LINE
  8
0
 62
7
 10
4.855599999999999
 20
3.010000000000003
 30
0
 11
4.796199999999999
 21
3.010000000000003
 31
0
  0
LINE
  8
0
 62
7
 10
4.796199999999999
 20
3.010000000000003
 30
0
 11
4.796199999999999
 21
2.950000000000003
 31
0
  0
LINE
  8
0
 62
7
 10
4.796199999999999
 20
2.950000000000003
 30
0
 11
4.801600000000001
 21
2.959000000000003
 31
0
  0
LINE
  8
0
 62
7
 10
4.801600000000001
 20
2.959000000000003
 30
0
 11
4.809699999999999
 21
2.965000000000003
 31
0
  0
LINE
  8
0
 62
7
 10
4.809699999999999
 20
2.965000000000003
 30
0
 11
4.8205
 21
2.968000000000003
 31
0
  0
LINE
  8
0
 62
7
 10
4.8205
 20
2.968000000000003
 30
0
 11
4.8367
 21
2.968000000000003
 31
0
  0
LINE
  8
0
 62
7
 10
4.8367
 20
2.968000000000003
 30
0
 11
4.8448
 21
2.965000000000003
 31
0
  0
LINE
  8
0
 62
7
 10
4.8448
 20
2.965000000000003
 30
0
 11
4.852899999999999
 21
2.959000000000003
 31
0
  0
LINE
  8
0
 62
7
 10
4.852899999999999
 20
2.959000000000003
 30
0
 11
4.8583
 21
2.950000000000003
 31
0
  0
LINE
  8
0
 62
7
 10
4.8583
 20
2.950000000000003
 30
0
 11
4.861
 21
2.938000000000003
 31
0
  0
LINE
  8
0
 62
7
 10
4.861
 20
2.938000000000003
 30
0
 11
4.861
 21
2.920000000000003
 31
0
  0
LINE
  8
0
 62
7
 10
4.861
 20
2.920000000000003
 30
0
 11
4.8583
 21
2.908000000000003
 31
0
  0
LINE
  8
0
 62
7
 10
4.8583
 20
2.908000000000003
 30
0
 11
4.852899999999999
 21
2.899000000000004
 31
0
  0
LINE
  8
0
 62
7
 10
4.852899999999999
 20
2.899000000000004
 30
0
 11
4.8448
 21
2.893000000000003
 31
0
  0
LINE
  8
0
 62
7
 10
4.8448
 20
2.893000000000003
 30
0
 11
4.8367
 21
2.890000000000003
 31
0
  0
LINE
  8
0
 62
7
 10
4.8367
 20
2.890000000000003
 30
0
 11
4.8205
 21
2.890000000000003
 31
0
  0
LINE
  8
0
 62
7
 10
4.8205
 20
2.890000000000003
 30
0
 11
4.809699999999999
 21
2.893000000000003
 31
0
  0
LINE
  8
0
 62
7
 10
4.809699999999999
 20
2.893000000000003
 30
0
 11
4.801600000000001
 21
2.899000000000004
 31
0
  0
LINE
  8
0
 62
7
 10
4.801600000000001
 20
2.899000000000004
 30
0
 11
4.796199999999999
 21
2.908000000000003
 31
0
  0
LINE
  8
0
 62
7
 10
4.8934
 20
2.974000000000004
 30
0
 11
4.9258
 21
3.010000000000003
 31
0
  0
LINE
  8
0
 62
7
 10
4.9258
 20
3.010000000000003
 30
0
 11
4.9258
 21
2.890000000000003
 31
0
  0
LINE
  8
0
 62
7
 10
4.9582
 20
2.890000000000003
 30
0
 11
4.9582
 21
3.010000000000003
 31
0
  0
LINE
  8
0
 62
7
 10
4.9582
 20
3.010000000000003
 30
0
 11
5.009499999999999
 21
3.010000000000003
 31
0
  0
LINE
  8
0
 62
7
 10
5.009499999999999
 20
3.010000000000003
 30
0
 11
5.0203
 21
3.007000000000003
 31
0
  0
LINE
  8
0
 62
7
 10
5.0203
 20
3.007000000000003
 30
0
 11
5.0284
 21
3.001000000000003
 31
0
  0
LINE
  8
0
 62
7
 10
5.0284
 20
3.001000000000003
 30
0
 11
5.031099999999999
 21
2.995000000000003
 31
0
  0
LINE
  8
0
 62
7
 10
5.031099999999999
 20
2.995000000000003
 30
0
 11
5.033799999999999
 21
2.986000000000003
 31
0
  0
LINE
  8
0
 62
7
 10
5.033799999999999
 20
2.986000000000003
 30
0
 11
5.033799999999999
 21
2.974000000000004
 31
0
  0
LINE
  8
0
 62
7
 10
5.033799999999999
 20
2.974000000000004
 30
0
 11
5.031099999999999
 21
2.965000000000003
 31
0
  0
LINE
  8
0
 62
7
 10
5.031099999999999
 20
2.965000000000003
 30
0
 11
5.0284
 21
2.959000000000003
 31
0
  0
LINE
  8
0
 62
7
 10
5.0284
 20
2.959000000000003
 30
0
 11
5.0203
 21
2.953000000000003
 31
0
  0
LINE
  8
0
 62
7
 10
5.0203
 20
2.953000000000003
 30
0
 11
5.009499999999999
 21
2.950000000000003
 31
0
  0
LINE
  8
0
 62
7
 10
5.009499999999999
 20
2.950000000000003
 30
0
 11
5.001399999999999
 21
2.950000000000003
 31
0
  0
LINE
  8
0
 62
7
 10
5.001399999999999
 20
2.950000000000003
 30
0
 11
5.033799999999999
 21
2.890000000000003
 31
0
  0
LINE
  8
0
 62
7
 10
5.001399999999999
 20
2.950000000000003
 30
0
 11
4.9582
 21
2.950000000000003
 31
0
  0
LINE
  8
0
 62
7
 10
5.055399999999999
 20
2.938000000000003
 30
0
 11
5.0581
 21
2.950000000000003
 31
0
  0
LINE
  8
0
 62
7
 10
5.0581
 20
2.950000000000003
 30
0
 11
5.063499999999999
 21
2.959000000000003
 31
0
  0
LINE
  8
0
 62
7
 10
5.063499999999999
 20
2.959000000000003
 30
0
 11
5.0716
 21
2.965000000000003
 31
0
  0
LINE
  8
0
 62
7
 10
5.0716
 20
2.965000000000003
 30
0
 11
5.079699999999999
 21
2.968000000000003
 31
0
  0
LINE
  8
0
 62
7
 10
5.079699999999999
 20
2.968000000000003
 30
0
 11
5.0959
 21
2.968000000000003
 31
0
  0
LINE
  8
0
 62
7
 10
5.0959
 20
2.968000000000003
 30
0
 11
5.103999999999999
 21
2.965000000000003
 31
0
  0
LINE
  8
0
 62
7
 10
5.103999999999999
 20
2.965000000000003
 30
0
 11
5.1121
 21
2.959000000000003
 31
0
  0
LINE
  8
0
 62
7
 10
5.1121
 20
2.959000000000003
 30
0
 11
5.1175
 21
2.950000000000003
 31
0
  0
LINE
  8
0
 62
7
 10
5.1175
 20
2.950000000000003
 30
0
 11
5.1202
 21
2.938000000000003
 31
0
  0
LINE
  8
0
 62
7
 10
5.1202
 20
2.938000000000003
 30
0
 11
5.1202
 21
2.920000000000003
 31
0
  0
LINE
  8
0
 62
7
 10
5.1202
 20
2.920000000000003
 30
0
 11
5.1175
 21
2.908000000000003
 31
0
  0
LINE
  8
0
 62
7
 10
5.1175
 20
2.908000000000003
 30
0
 11
5.1121
 21
2.899000000000004
 31
0
  0
LINE
  8
0
 62
7
 10
5.1121
 20
2.899000000000004
 30
0
 11
5.103999999999999
 21
2.893000000000003
 31
0
  0
LINE
  8
0
 62
7
 10
5.103999999999999
 20
2.893000000000003
 30
0
 11
5.0959
 21
2.890000000000003
 31
0
  0
LINE
  8
0
 62
7
 10
5.0959
 20
2.890000000000003
 30
0
 11
5.079699999999999
 21
2.890000000000003
 31
0
  0
LINE
  8
0
 62
7
 10
5.079699999999999
 20
2.890000000000003
 30
0
 11
5.0716
 21
2.893000000000003
 31
0
  0
LINE
  8
0
 62
7
 10
5.0716
 20
2.893000000000003
 30
0
 11
5.063499999999999
 21
2.899000000000004
 31
0
  0
LINE
  8
0
 62
7
 10
5.063499999999999
 20
2.899000000000004
 30
0
 11
5.0581
 21
2.908000000000003
 31
0
  0
LINE
  8
0
 62
7
 10
5.0581
 20
2.908000000000003
 30
0
 11
5.055399999999999
 21
2.920000000000003
 31
0
  0
LINE
  8
0
 62
7
 10
5.055399999999999
 20
2.920000000000003
 30
0
 11
5.055399999999999
 21
2.938000000000003
 31
0
  0
LINE
  8
0
 62
7
 10
5.055399999999999
 20
2.980000000000003
 30
0
 11
5.0581
 21
2.992000000000003
 31
0
  0
LINE
  8
0
 62
7
 10
5.0581
 20
2.992000000000003
 30
0
 11
5.063499999999999
 21
3.001000000000003
 31
0
  0
LINE
  8
0
 62
7
 10
5.063499999999999
 20
3.001000000000003
 30
0
 11
5.0716
 21
3.007000000000003
 31
0
  0
LINE
  8
0
 62
7
 10
5.0716
 20
3.007000000000003
 30
0
 11
5.079699999999999
 21
3.010000000000003
 31
0
  0
LINE
  8
0
 62
7
 10
5.079699999999999
 20
3.010000000000003
 30
0
 11
5.0959
 21
3.010000000000003
 31
0
  0
LINE
  8
0
 62
7
 10
5.0959
 20
3.010000000000003
 30
0
 11
5.103999999999999
 21
3.007000000000003
 31
0
  0
LINE
  8
0
 62
7
 10
5.103999999999999
 20
3.007000000000003
 30
0
 11
5.1121
 21
3.001000000000003
 31
0
  0
LINE
  8
0
 62
7
 10
5.1121
 20
3.001000000000003
 30
0
 11
5.1175
 21
2.992000000000003
 31
0
  0
LINE
  8
0
 62
7
 10
5.055399999999999
 20
2.938000000000003
 30
0
 11
5.055399999999999
 21
2.980000000000003
 31
0
  0
LINE
  8
0
 62
7
 10
6.875
 20
2.890000000000003
 30
0
 11
6.875
 21
2.990000000000003
 31
0
  0
LINE
  8
0
 62
7
 10
6.875
 20
2.990000000000003
 30
0
 11
6.938
 21
2.890000000000003
 31
0
  0
LINE
  8
0
 62
7
 10
6.938
 20
2.890000000000003
 30
0
 11
6.938
 21
2.990000000000003
 31
0
  0
LINE
  8
0
 62
7
 10
7.019
 20
2.890000000000003
 30
0
 11
6.965000000000001
 21
2.890000000000003
 31
0
  0
LINE
  8
0
 62
7
 10
6.965000000000001
 20
2.890000000000003
 30
0
 11
6.965000000000001
 21
2.990000000000003
 31
0
  0
LINE
  8
0
 62
7
 10
7.045999999999999
 20
2.940000000000003
 30
0
 11
7.082
 21
2.940000000000003
 31
0
  0
LINE
  8
0
 62
7
 10
7.082
 20
2.940000000000003
 30
0
 11
7.0865
 21
2.940000000000003
 31
0
  0
LINE
  8
0
 62
7
 10
7.0865
 20
2.940000000000003
 30
0
 11
7.0955
 21
2.935000000000003
 31
0
  0
LINE
  8
0
 62
7
 10
7.0955
 20
2.935000000000003
 30
0
 11
7.100000000000001
 21
2.930000000000003
 31
0
  0
LINE
  8
0
 62
7
 10
7.100000000000001
 20
2.930000000000003
 30
0
 11
7.104499999999999
 21
2.920000000000003
 31
0
  0
LINE
  8
0
 62
7
 10
7.104499999999999
 20
2.920000000000003
 30
0
 11
7.104499999999999
 21
2.910000000000003
 31
0
  0
LINE
  8
0
 62
7
 10
7.104499999999999
 20
2.910000000000003
 30
0
 11
7.100000000000001
 21
2.900000000000003
 31
0
  0
LINE
  8
0
 62
7
 10
7.100000000000001
 20
2.900000000000003
 30
0
 11
7.0955
 21
2.895000000000003
 31
0
  0
LINE
  8
0
 62
7
 10
7.0955
 20
2.895000000000003
 30
0
 11
7.0865
 21
2.890000000000003
 31
0
  0
LINE
  8
0
 62
7
 10
7.0865
 20
2.890000000000003
 30
0
 11
7.045999999999999
 21
2.890000000000003
 31
0
  0
LINE
  8
0
 62
7
 10
7.045999999999999
 20
2.890000000000003
 30
0
 11
7.045999999999999
 21
2.940000000000003
 31
0
  0
LINE
  8
0
 62
7
 10
7.045999999999999
 20
2.990000000000003
 30
0
 11
7.079750000000001
 21
2.990000000000003
 31
0
  0
LINE
  8
0
 62
7
 10
7.079750000000001
 20
2.990000000000003
 30
0
 11
7.091
 21
2.987500000000003
 31
0
  0
LINE
  8
0
 62
7
 10
7.091
 20
2.987500000000003
 30
0
 11
7.097750000000001
 21
2.980000000000003
 31
0
  0
LINE
  8
0
 62
7
 10
7.097750000000001
 20
2.980000000000003
 30
0
 11
7.100000000000001
 21
2.970000000000003
 31
0
  0
LINE
  8
0
 62
7
 10
7.100000000000001
 20
2.970000000000003
 30
0
 11
7.100000000000001
 21
2.960000000000003
 31
0
  0
LINE
  8
0
 62
7
 10
7.100000000000001
 20
2.960000000000003
 30
0
 11
7.0955
 21
2.950000000000003
 31
0
  0
LINE
  8
0
 62
7
 10
7.0955
 20
2.950000000000003
 30
0
 11
7.088750000000001
 21
2.942500000000003
 31
0
  0
LINE
  8
0
 62
7
 10
7.088750000000001
 20
2.942500000000003
 30
0
 11
7.082
 21
2.940000000000003
 31
0
  0
LINE
  8
0
 62
7
 10
7.045999999999999
 20
2.940000000000003
 30
0
 11
7.045999999999999
 21
2.990000000000003
 31
0
  0
LINE
  8
0
 62
7
 10
7.246250000000001
 20
2.942500000000003
 30
0
 11
7.2395
 21
2.952500000000003
 31
0
  0
LINE
  8
0
 62
7
 10
7.2395
 20
2.952500000000003
 30
0
 11
7.23275
 21
2.957500000000003
 31
0
  0
LINE
  8
0
 62
7
 10
7.23275
 20
2.957500000000003
 30
0
 11
7.225999999999999
 21
2.960000000000003
 31
0
  0
LINE
  8
0
 62
7
 10
7.225999999999999
 20
2.960000000000003
 30
0
 11
7.216999999999999
 21
2.960000000000003
 31
0
  0
LINE
  8
0
 62
7
 10
7.216999999999999
 20
2.960000000000003
 30
0
 11
7.210250000000001
 21
2.957500000000003
 31
0
  0
LINE
  8
0
 62
7
 10
7.210250000000001
 20
2.957500000000003
 30
0
 11
7.2035
 21
2.952500000000003
 31
0
  0
LINE
  8
0
 62
7
 10
7.2035
 20
2.952500000000003
 30
0
 11
7.196750000000001
 21
2.942500000000003
 31
0
  0
LINE
  8
0
 62
7
 10
7.196750000000001
 20
2.942500000000003
 30
0
 11
7.1945
 21
2.935000000000003
 31
0
  0
LINE
  8
0
 62
7
 10
7.1945
 20
2.935000000000003
 30
0
 11
7.1945
 21
2.915000000000003
 31
0
  0
LINE
  8
0
 62
7
 10
7.1945
 20
2.915000000000003
 30
0
 11
7.196750000000001
 21
2.907500000000003
 31
0
  0
LINE
  8
0
 62
7
 10
7.196750000000001
 20
2.907500000000003
 30
0
 11
7.2035
 21
2.897500000000003
 31
0
  0
LINE
  8
0
 62
7
 10
7.2035
 20
2.897500000000003
 30
0
 11
7.210250000000001
 21
2.892500000000003
 31
0
  0
LINE
  8
0
 62
7
 10
7.210250000000001
 20
2.892500000000003
 30
0
 11
7.216999999999999
 21
2.890000000000003
 31
0
  0
LINE
  8
0
 62
7
 10
7.216999999999999
 20
2.890000000000003
 30
0
 11
7.225999999999999
 21
2.890000000000003
 31
0
  0
LINE
  8
0
 62
7
 10
7.225999999999999
 20
2.890000000000003
 30
0
 11
7.23275
 21
2.892500000000003
 31
0
  0
LINE
  8
0
 62
7
 10
7.23275
 20
2.892500000000003
 30
0
 11
7.2395
 21
2.897500000000003
 31
0
  0
LINE
  8
0
 62
7
 10
7.2395
 20
2.897500000000003
 30
0
 11
7.246250000000001
 21
2.907500000000003
 31
0
  0
LINE
  8
0
 62
7
 10
7.318249999999999
 20
2.935000000000003
 30
0
 11
7.316
 21
2.942500000000003
 31
0
  0
LINE
  8
0
 62
7
 10
7.316
 20
2.942500000000003
 30
0
 11
7.30925
 21
2.952500000000003
 31
0
  0
LINE
  8
0
 62
7
 10
7.30925
 20
2.952500000000003
 30
0
 11
7.302500000000001
 21
2.957500000000003
 31
0
  0
LINE
  8
0
 62
7
 10
7.302500000000001
 20
2.957500000000003
 30
0
 11
7.29575
 21
2.960000000000003
 31
0
  0
LINE
  8
0
 62
7
 10
7.29575
 20
2.960000000000003
 30
0
 11
7.286750000000001
 21
2.960000000000003
 31
0
  0
LINE
  8
0
 62
7
 10
7.286750000000001
 20
2.960000000000003
 30
0
 11
7.28
 21
2.957500000000003
 31
0
  0
LINE
  8
0
 62
7
 10
7.28
 20
2.957500000000003
 30
0
 11
7.273249999999999
 21
2.952500000000003
 31
0
  0
LINE
  8
0
 62
7
 10
7.273249999999999
 20
2.952500000000003
 30
0
 11
7.266500000000001
 21
2.942500000000003
 31
0
  0
LINE
  8
0
 62
7
 10
7.266500000000001
 20
2.942500000000003
 30
0
 11
7.264250000000001
 21
2.935000000000003
 31
0
  0
LINE
  8
0
 62
7
 10
7.264250000000001
 20
2.935000000000003
 30
0
 11
7.264250000000001
 21
2.915000000000003
 31
0
  0
LINE
  8
0
 62
7
 10
7.264250000000001
 20
2.915000000000003
 30
0
 11
7.266500000000001
 21
2.907500000000003
 31
0
  0
LINE
  8
0
 62
7
 10
7.266500000000001
 20
2.907500000000003
 30
0
 11
7.273249999999999
 21
2.897500000000003
 31
0
  0
LINE
  8
0
 62
7
 10
7.273249999999999
 20
2.897500000000003
 30
0
 11
7.28
 21
2.892500000000003
 31
0
  0
LINE
  8
0
 62
7
 10
7.28
 20
2.892500000000003
 30
0
 11
7.286750000000001
 21
2.890000000000003
 31
0
  0
LINE
  8
0
 62
7
 10
7.286750000000001
 20
2.890000000000003
 30
0
 11
7.29575
 21
2.890000000000003
 31
0
  0
LINE
  8
0
 62
7
 10
7.29575
 20
2.890000000000003
 30
0
 11
7.302500000000001
 21
2.892500000000003
 31
0
  0
LINE
  8
0
 62
7
 10
7.302500000000001
 20
2.892500000000003
 30
0
 11
7.30925
 21
2.897500000000003
 31
0
  0
LINE
  8
0
 62
7
 10
7.30925
 20
2.897500000000003
 30
0
 11
7.316
 21
2.907500000000003
 31
0
  0
LINE
  8
0
 62
7
 10
7.316
 20
2.907500000000003
 30
0
 11
7.318249999999999
 21
2.915000000000003
 31
0
  0
LINE
  8
0
 62
7
 10
7.318249999999999
 20
2.960000000000003
 30
0
 11
7.318249999999999
 21
2.935000000000003
 31
0
  0
LINE
  8
0
 62
7
 10
7.318249999999999
 20
2.892500000000003
 30
0
 11
7.3205
 21
2.890000000000003
 31
0
  0
LINE
  8
0
 62
7
 10
7.3205
 20
2.890000000000003
 30
0
 11
7.322750000000001
 21
2.890000000000003
 31
0
  0
LINE
  8
0
 62
7
 10
7.318249999999999
 20
2.915000000000003
 30
0
 11
7.318249999999999
 21
2.892500000000003
 31
0
  0
LINE
  8
0
 62
7
 10
7.318249999999999
 20
2.935000000000003
 30
0
 11
7.318249999999999
 21
2.915000000000003
 31
0
  0
LINE
  8
0
 62
7
 10
7.34075
 20
2.890000000000003
 30
0
 11
7.34075
 21
2.892500000000003
 31
0
  0
LINE
  8
0
 62
7
 10
7.34075
 20
2.892500000000003
 30
0
 11
7.343000000000001
 21
2.892500000000003
 31
0
  0
LINE
  8
0
 62
7
 10
7.343000000000001
 20
2.892500000000003
 30
0
 11
7.343000000000001
 21
2.890000000000003
 31
0
  0
LINE
  8
0
 62
7
 10
7.343000000000001
 20
2.890000000000003
 30
0
 11
7.34075
 21
2.890000000000003
 31
0
  0
LINE
  8
0
 62
7
 10
7.44425
 20
2.960000000000003
 30
0
 11
7.471250000000001
 21
2.990000000000003
 31
0
  0
LINE
  8
0
 62
7
 10
7.471250000000001
 20
2.990000000000003
 30
0
 11
7.471250000000001
 21
2.890000000000003
 31
0
  0
LINE
  8
0
 62
7
 10
7.498249999999999
 20
2.965000000000003
 30
0
 11
7.5005
 21
2.975000000000003
 31
0
  0
LINE
  8
0
 62
7
 10
7.5005
 20
2.975000000000003
 30
0
 11
7.505
 21
2.982500000000003
 31
0
  0
LINE
  8
0
 62
7
 10
7.505
 20
2.982500000000003
 30
0
 11
7.511750000000001
 21
2.987500000000003
 31
0
  0
LINE
  8
0
 62
7
 10
7.511750000000001
 20
2.987500000000003
 30
0
 11
7.5185
 21
2.990000000000003
 31
0
  0
LINE
  8
0
 62
7
 10
7.5185
 20
2.990000000000003
 30
0
 11
7.532
 21
2.990000000000003
 31
0
  0
LINE
  8
0
 62
7
 10
7.532
 20
2.990000000000003
 30
0
 11
7.53875
 21
2.987500000000003
 31
0
  0
LINE
  8
0
 62
7
 10
7.53875
 20
2.987500000000003
 30
0
 11
7.545500000000001
 21
2.982500000000003
 31
0
  0
LINE
  8
0
 62
7
 10
7.545500000000001
 20
2.982500000000003
 30
0
 11
7.550000000000001
 21
2.975000000000003
 31
0
  0
LINE
  8
0
 62
7
 10
7.550000000000001
 20
2.975000000000003
 30
0
 11
7.55225
 21
2.965000000000003
 31
0
  0
LINE
  8
0
 62
7
 10
7.55225
 20
2.965000000000003
 30
0
 11
7.55225
 21
2.915000000000003
 31
0
  0
LINE
  8
0
 62
7
 10
7.55225
 20
2.915000000000003
 30
0
 11
7.550000000000001
 21
2.905000000000003
 31
0
  0
LINE
  8
0
 62
7
 10
7.550000000000001
 20
2.905000000000003
 30
0
 11
7.545500000000001
 21
2.897500000000003
 31
0
  0
LINE
  8
0
 62
7
 10
7.545500000000001
 20
2.897500000000003
 30
0
 11
7.53875
 21
2.892500000000003
 31
0
  0
LINE
  8
0
 62
7
 10
7.53875
 20
2.892500000000003
 30
0
 11
7.532
 21
2.890000000000003
 31
0
  0
LINE
  8
0
 62
7
 10
7.532
 20
2.890000000000003
 30
0
 11
7.5185
 21
2.890000000000003
 31
0
  0
LINE
  8
0
 62
7
 10
7.5185
 20
2.890000000000003
 30
0
 11
7.511750000000001
 21
2.892500000000003
 31
0
  0
LINE
  8
0
 62
7
 10
7.511750000000001
 20
2.892500000000003
 30
0
 11
7.505
 21
2.897500000000003
 31
0
  0
LINE
  8
0
 62
7
 10
7.505
 20
2.897500000000003
 30
0
 11
7.5005
 21
2.905000000000003
 31
0
  0
LINE
  8
0
 62
7
 10
7.5005
 20
2.905000000000003
 30
0
 11
7.498249999999999
 21
2.915000000000003
 31
0
  0
LINE
  8
0
 62
7
 10
7.498249999999999
 20
2.915000000000003
 30
0
 11
7.498249999999999
 21
2.965000000000003
 31
0
  0
LINE
  8
0
 62
7
 10
7.579250000000001
 20
2.965000000000003
 30
0
 11
7.5815
 21
2.975000000000003
 31
0
  0
LINE
  8
0
 62
7
 10
7.5815
 20
2.975000000000003
 30
0
 11
7.586
 21
2.982500000000003
 31
0
  0
LINE
  8
0
 62
7
 10
7.586
 20
2.982500000000003
 30
0
 11
7.59275
 21
2.987500000000003
 31
0
  0
LINE
  8
0
 62
7
 10
7.59275
 20
2.987500000000003
 30
0
 11
7.599499999999999
 21
2.990000000000003
 31
0
  0
LINE
  8
0
 62
7
 10
7.599499999999999
 20
2.990000000000003
 30
0
 11
7.613
 21
2.990000000000003
 31
0
  0
LINE
  8
0
 62
7
 10
7.613
 20
2.990000000000003
 30
0
 11
7.61975
 21
2.987500000000003
 31
0
  0
LINE
  8
0
 62
7
 10
7.61975
 20
2.987500000000003
 30
0
 11
7.6265
 21
2.982500000000003
 31
0
  0
LINE
  8
0
 62
7
 10
7.6265
 20
2.982500000000003
 30
0
 11
7.630999999999999
 21
2.975000000000003
 31
0
  0
LINE
  8
0
 62
7
 10
7.630999999999999
 20
2.975000000000003
 30
0
 11
7.63325
 21
2.965000000000003
 31
0
  0
LINE
  8
0
 62
7
 10
7.63325
 20
2.965000000000003
 30
0
 11
7.63325
 21
2.915000000000003
 31
0
  0
LINE
  8
0
 62
7
 10
7.63325
 20
2.915000000000003
 30
0
 11
7.630999999999999
 21
2.905000000000003
 31
0
  0
LINE
  8
0
 62
7
 10
7.630999999999999
 20
2.905000000000003
 30
0
 11
7.6265
 21
2.897500000000003
 31
0
  0
LINE
  8
0
 62
7
 10
7.6265
 20
2.897500000000003
 30
0
 11
7.61975
 21
2.892500000000003
 31
0
  0
LINE
  8
0
 62
7
 10
7.61975
 20
2.892500000000003
 30
0
 11
7.613
 21
2.890000000000003
 31
0
  0
LINE
  8
0
 62
7
 10
7.613
 20
2.890000000000003
 30
0
 11
7.599499999999999
 21
2.890000000000003
 31
0
  0
LINE
  8
0
 62
7
 10
7.599499999999999
 20
2.890000000000003
 30
0
 11
7.59275
 21
2.892500000000003
 31
0
  0
LINE
  8
0
 62
7
 10
7.59275
 20
2.892500000000003
 30
0
 11
7.586
 21
2.897500000000003
 31
0
  0
LINE
  8
0
 62
7
 10
7.586
 20
2.897500000000003
 30
0
 11
7.5815
 21
2.905000000000003
 31
0
  0
LINE
  8
0
 62
7
 10
7.5815
 20
2.905000000000003
 30
0
 11
7.579250000000001
 21
2.915000000000003
 31
0
  0
LINE
  8
0
 62
7
 10
7.579250000000001
 20
2.915000000000003
 30
0
 11
7.579250000000001
 21
2.965000000000003
 31
0
  0
LINE
  8
0
 62
7
 10
7.784000000000001
 20
2.942500000000003
 30
0
 11
7.77725
 21
2.952500000000003
 31
0
  0
LINE
  8
0
 62
7
 10
7.77725
 20
2.952500000000003
 30
0
 11
7.7705
 21
2.957500000000003
 31
0
  0
LINE
  8
0
 62
7
 10
7.7705
 20
2.957500000000003
 30
0
 11
7.763750000000001
 21
2.960000000000003
 31
0
  0
LINE
  8
0
 62
7
 10
7.763750000000001
 20
2.960000000000003
 30
0
 11
7.75475
 21
2.960000000000003
 31
0
  0
LINE
  8
0
 62
7
 10
7.75475
 20
2.960000000000003
 30
0
 11
7.748000000000001
 21
2.957500000000003
 31
0
  0
LINE
  8
0
 62
7
 10
7.748000000000001
 20
2.957500000000003
 30
0
 11
7.741250000000001
 21
2.952500000000003
 31
0
  0
LINE
  8
0
 62
7
 10
7.741250000000001
 20
2.952500000000003
 30
0
 11
7.734500000000001
 21
2.942500000000003
 31
0
  0
LINE
  8
0
 62
7
 10
7.734500000000001
 20
2.942500000000003
 30
0
 11
7.73225
 21
2.935000000000003
 31
0
  0
LINE
  8
0
 62
7
 10
7.73225
 20
2.935000000000003
 30
0
 11
7.73225
 21
2.915000000000003
 31
0
  0
LINE
  8
0
 62
7
 10
7.73225
 20
2.915000000000003
 30
0
 11
7.734500000000001
 21
2.907500000000003
 31
0
  0
LINE
  8
0
 62
7
 10
7.734500000000001
 20
2.907500000000003
 30
0
 11
7.741250000000001
 21
2.897500000000003
 31
0
  0
LINE
  8
0
 62
7
 10
7.741250000000001
 20
2.897500000000003
 30
0
 11
7.748000000000001
 21
2.892500000000003
 31
0
  0
LINE
  8
0
 62
7
 10
7.748000000000001
 20
2.892500000000003
 30
0
 11
7.75475
 21
2.890000000000003
 31
0
  0
LINE
  8
0
 62
7
 10
7.75475
 20
2.890000000000003
 30
0
 11
7.763750000000001
 21
2.890000000000003
 31
0
  0
LINE
  8
0
 62
7
 10
7.763750000000001
 20
2.890000000000003
 30
0
 11
7.7705
 21
2.892500000000003
 31
0
  0
LINE
  8
0
 62
7
 10
7.7705
 20
2.892500000000003
 30
0
 11
7.77725
 21
2.897500000000003
 31
0
  0
LINE
  8
0
 62
7
 10
7.77725
 20
2.897500000000003
 30
0
 11
7.784000000000001
 21
2.907500000000003
 31
0
  0
LINE
  8
0
 62
7
 10
7.8425
 20
2.935000000000003
 30
0
 11
7.8425
 21
2.890000000000003
 31
0
  0
LINE
  8
0
 62
7
 10
7.802
 20
2.960000000000003
 30
0
 11
7.802
 21
2.935000000000003
 31
0
  0
LINE
  8
0
 62
7
 10
7.802
 20
2.890000000000003
 30
0
 11
7.802
 21
2.935000000000003
 31
0
  0
LINE
  8
0
 62
7
 10
7.802
 20
2.935000000000003
 30
0
 11
7.804250000000001
 21
2.947500000000003
 31
0
  0
LINE
  8
0
 62
7
 10
7.804250000000001
 20
2.947500000000003
 30
0
 11
7.8065
 21
2.952500000000003
 31
0
  0
LINE
  8
0
 62
7
 10
7.8065
 20
2.952500000000003
 30
0
 11
7.811
 21
2.957500000000003
 31
0
  0
LINE
  8
0
 62
7
 10
7.811
 20
2.957500000000003
 30
0
 11
7.81775
 21
2.960000000000003
 31
0
  0
LINE
  8
0
 62
7
 10
7.81775
 20
2.960000000000003
 30
0
 11
7.826750000000001
 21
2.960000000000003
 31
0
  0
LINE
  8
0
 62
7
 10
7.826750000000001
 20
2.960000000000003
 30
0
 11
7.8335
 21
2.957500000000003
 31
0
  0
LINE
  8
0
 62
7
 10
7.8335
 20
2.957500000000003
 30
0
 11
7.838
 21
2.952500000000003
 31
0
  0
LINE
  8
0
 62
7
 10
7.838
 20
2.952500000000003
 30
0
 11
7.840250000000001
 21
2.947500000000003
 31
0
  0
LINE
  8
0
 62
7
 10
7.840250000000001
 20
2.947500000000003
 30
0
 11
7.8425
 21
2.935000000000003
 31
0
  0
LINE
  8
0
 62
7
 10
7.8425
 20
2.935000000000003
 30
0
 11
7.844749999999999
 21
2.947500000000003
 31
0
  0
LINE
  8
0
 62
7
 10
7.844749999999999
 20
2.947500000000003
 30
0
 11
7.847
 21
2.952500000000003
 31
0
  0
LINE
  8
0
 62
7
 10
7.847
 20
2.952500000000003
 30
0
 11
7.851500000000001
 21
2.957500000000003
 31
0
  0
LINE
  8
0
 62
7
 10
7.851500000000001
 20
2.957500000000003
 30
0
 11
7.85825
 21
2.960000000000003
 31
0
  0
LINE
  8
0
 62
7
 10
7.85825
 20
2.960000000000003
 30
0
 11
7.86725
 21
2.960000000000003
 31
0
  0
LINE
  8
0
 62
7
 10
7.86725
 20
2.960000000000003
 30
0
 11
7.874
 21
2.957500000000003
 31
0
  0
LINE
  8
0
 62
7
 10
7.8785
 20
2.952500000000003
 30
0
 11
7.874
 21
2.957500000000003
 31
0
  0
LINE
  8
0
 62
7
 10
7.874
 20
2.957500000000003
 30
0
 11
7.8785
 21
2.952500000000003
 31
0
  0
LINE
  8
0
 62
7
 10
7.8785
 20
2.952500000000003
 30
0
 11
7.880749999999999
 21
2.947500000000003
 31
0
  0
LINE
  8
0
 62
7
 10
7.880749999999999
 20
2.947500000000003
 30
0
 11
7.883
 21
2.935000000000003
 31
0
  0
LINE
  8
0
 62
7
 10
7.883
 20
2.935000000000003
 30
0
 11
7.883
 21
2.890000000000003
 31
0
  0
ARC
  8
0
 62
7
 10
6.311287212111889
 20
4.016287212111833
 30
0
 40
0.6329999999999981
 50
359.8835152026197
 51
90.11648479509938
  0
ARC
  8
0
 62
7
 10
6.028712787888232
 20
4.016287212111893
 30
0
 40
0.632999999999999
 50
89.88351520261693
 51
180.1164847924862
  0
CIRCLE
  8
0
 62
7
 10
5.395714096065983
 20
3.250000000000003
 30
0
 40
0.05999999999999961
  0
DIMENSION
  8
0
  6
CONTINUOUS
 62
7
  2
*D1
  3
DMST_1
 10
4.915
 20
11.4867439635497
 30
0
 11
6.1616751149719
 21
11.4867439635497
 31
0
 12
0
 22
0
 32
0
 70
0
 13
7.425000000000001
 23
11.2
 33
0
 14
4.915
 24
11.2
 34
0
 53
0
  0
DIMENSION
  8
0
  6
CONTINUOUS
 62
7
  2
*D2
  3
DMST_2
 10
4.460156256174421
 20
5.130000000000004
 30
0
 11
4.460156256174421
 21
4.26503033384432
 31
0
 12
0
 22
0
 32
0
 70
0
 13
4.74
 23
3.250000000000003
 33
0
 14
4.74
 24
5.130000000000004
 34
0
 50
90
 53
0
  0
DIMENSION
  8
0
  6
CONTINUOUS
 62
7
  2
*D3
  3
DMST_2
 10
7.425
 20
6.031492660534841
 30
0
 11
6.17466380855051
 21
6.031492660534841
 31
0
 12
0
 22
0
 32
0
 70
0
 13
4.915
 23
5.649999999999996
 33
0
 14
7.425000000000001
 24
5.649999999999996
 34
0
 53
0
  0
DIMENSION
  8
0
  6
CONTINUOUS
 62
7
  2
*D4
  3
DMST_2
 10
7.96710352239824
 20
5.130000000000004
 30
0
 11
7.96710352239824
 21
4.30399641458015
 31
0
 12
0
 22
0
 32
0
 70
0
 13
7.600000000000001
 23
3.350000000000003
 33
0
 14
7.600000000000001
 24
5.130000000000004
 34
0
 50
90
 53
0
  0
INSERT
  8
0
  2
*D0
 10
0
 20
0
 30
0
  0
ENDSEC
  0
EOF
