  0
SECTION
  2
HEADER
  9
$ACADVER
  1
AC1009
  9
$INSBASE
 10
0
 20
0
  9
$EXTMIN
 10
0.5854140968318501
 20
2.890000000000006
  9
$EXTMAX
 10
8.249999999999998
 20
11.5410819864589
  9
$LIMMIN
 10
0.5854140968318501
 20
2.890000000000006
  9
$LIMMAX
 10
8.249999999999998
 20
11.5410819864589
  9
$VIEWCTR
 10
10
 20
10
  9
$VIEWSIZE
 40
10
  9
$SNAPMODE
 70
0
  9
$SNAPUNIT
 10
1
 20
1
  9
$SNAPBASE
 10
0
 20
0
  9
$SNAPANG
 50
0
  9
$SNAPSTYLE
 70
0
  9
$SNAPISOPAIR
 70
0
  9
$GRIDMODE
 70
0
  9
$GRIDUNIT
 10
0
 20
0
  9
$ORTHOMODE
 70
0
  9
$REGENMODE
 70
1
  9
$FILLMODE
 70
1
  9
$QTEXTMODE
 70
0
  9
$DRAGMODE
 70
2
  9
$LTSCALE
 40
1
  9
$OSMODE
 70
0
  9
$ATTMODE
 70
1
  9
$TEXTSIZE
 40
3.5
  9
$TRACEWID
 40
0.5
  9
$TEXTSTYLE
  7
STANDARD
  9
$CLAYER
  8
0
  9
$CELTYPE
  6
BYLAYER
  9
$CECOLOR
 62
256
  9
$DIMSCALE
 40
1
  9
$DIMASZ
 40
0.18
  9
$DIMEXO
 40
0.0625
  9
$DIMDLI
 40
0.38
  9
$DIMRND
 40
0
  9
$DIMDLE
 40
0
  9
$DIMEXE
 40
0.18
  9
$DIMTP
 40
0
  9
$DIMTM
 40
0
  9
$DIMTXT
 40
0.18
  9
$DIMCEN
 40
0.09
  9
$DIMTSZ
 40
0
  9
$DIMTOL
 70
0
  9
$DIMLIM
 70
0
  9
$DIMTIH
 70
1
  9
$DIMTOH
 70
1
  9
$DIMSE1
 70
0
  9
$DIMSE2
 70
0
  9
$DIMTAD
 70
0
  9
$DIMZIN
 70
0
  9
$DIMBLK
  1

  9
$DIMASO
 70
1
  9
$DIMSHO
 70
1
  9
$DIMPOST
  1

  9
$DIMAPOST
  1

  9
$DIMALT
 70
0
  9
$DIMALTD
 70
2
  9
$DIMALTF
 40
25.4
  9
$DIMLFAC
 40
1
  9
$DIMTOFL
 70
0
  9
$DIMTVP
 40
0
  9
$DIMTIX
 70
0
  9
$DIMSOXD
 70
0
  9
$DIMSAH
 70
0
  9
$DIMBLK1
  1

  9
$DIMBLK2
  1

  9
$DIMSTYLE
  2
*UNNAMED
  9
$DIMCLRD
 70
0
  9
$DIMCLRE
 70
0
  9
$DIMCLRT
 70
0
  9
$DIMTFAC
 40
1
  9
$DIMGAP
 40
0.09
  9
$LUNITS
 70
2
  9
$LUPREC
 70
4
  9
$AXISMODE
 70
0
  9
$AXISUNIT
 10
0
 20
0
  9
$SKETCHINC
 40
0.1
  9
$FILLETRAD
 40
2
  9
$AUNITS
 70
0
  9
$AUPREC
 70
0
  9
$MENU
  1
ACAD
  9
$ELEVATION
 40
0
  9
$THICKNESS
 40
0
  9
$VIEWDIR
 10
0
 20
0
 30
1
  9
$LIMCHECK
 70
0
  9
$BLIPMODE
 70
1
  9
$CHAMFERA
 40
0
  9
$CHAMFERB
 40
0
  9
$FASTZOOM
 70
1
  9
$SKPOLY
 70
0
  9
$ANGBASE
 50
0
  9
$ANGDIR
 70
0
  9
$PDMODE
 70
0
  9
$PDSIZE
 40
0
  9
$PLINEWID
 40
0
  9
$COORDS
 70
2
  0
ENDSEC
  0
SECTION
  2
TABLES
  0
TABLE
  2
DIMSTYLE
 70
2
  0
DIMSTYLE
  2
DMST_1
 70
0
  3

  4

  5

  6

  7

 40
1
 41
0.1
 42
0
 43
0.7
 44
0.2
 45
0
 46
0
 47
0
 48
0
140
0.1
141
0
142
0.1
143
25.4
144
1
145
0
146
1
147
0.2
 71
0
 72
0
 73
0
 74
0
 75
0
 76
0
 77
0
 78
9
170
0
171
2
172
0
173
0
174
0
175
0
176
7
177
7
178
7
  0
DIMSTYLE
  2
DMST_2
 70
0
  3

  4

  5

  6

  7

 40
1
 41
0.1
 42
0
 43
0.7
 44
0.2
 45
0
 46
0
 47
0
 48
0
140
0.1
141
0
142
0.1
143
25.4
144
1
145
0
146
1
147
0.25
 71
0
 72
0
 73
0
 74
0
 75
0
 76
0
 77
0
 78
9
170
0
171
2
172
0
173
0
174
0
175
0
176
7
177
7
178
7
  0
ENDTAB
  0
TABLE
  2
LTYPE
 70
9
  0
LTYPE
  2
CONTINUOUS
 70
64
  3
Solid line
 72
65
 73
0
 40
0
  0
LTYPE
  2
BORDER
 70
64
  3
__ __ . __ __ .
 72
65
 73
6
 40
0.3984050914816596
 49
0.113830026137617
 49
-0.05691501306880851
 49
0.113830026137617
 49
-0.05691501306880851
 49
0
 49
-0.05691501306880851
  0
LTYPE
  2
CENTER
 70
64
  3
____ _ ____ _
 72
65
 73
4
 40
0.4553201045504681
 49
0.2845750653440426
 49
-0.05691501306880851
 49
0.05691501306880851
 49
-0.05691501306880851
  0
LTYPE
  2
DASHDOT
 70
64
  3
__ . __ . __ .
 72
65
 73
4
 40
0.2276600522752341
 49
0.113830026137617
 49
-0.05691501306880851
 49
0
 49
-0.05691501306880851
  0
LTYPE
  2
DASHED
 70
64
  3
__ __ __ __ __
 72
65
 73
2
 40
0.1707450392064255
 49
0.113830026137617
 49
-0.05691501306880851
  0
LTYPE
  2
DIVIDE
 70
64
  3
__ . . __ . . 
 72
65
 73
6
 40
0.2845750653440426
 49
0.113830026137617
 49
-0.05691501306880851
 49
0
 49
-0.05691501306880851
 49
0
 49
-0.05691501306880851
  0
LTYPE
  2
DOT
 70
64
  3
..............
 72
65
 73
4
 40
0.113830026137617
 49
0
 49
-0.05691501306880851
 49
0
 49
-0.05691501306880851
  0
LTYPE
  2
HIDDEN
 70
64
  3
_ _ _ _ _ _ _
 72
65
 73
2
 40
0.08537251960321277
 49
0.05691501306880851
 49
-0.02845750653440426
  0
LTYPE
  2
PHANTOM
 70
64
  3
_____ _ _ _____ _ _ 
 72
65
 73
6
 40
0.5691501306880852
 49
0.2845750653440426
 49
-0.05691501306880851
 49
0.05691501306880851
 49
-0.05691501306880851
 49
0.05691501306880851
 49
-0.05691501306880851
  0
ENDTAB
  0
TABLE
  2
LAYER
 70
2
  0
LAYER
  2
0
 70
0
 62
7
  6
CONTINUOUS
  0
ENDTAB
  0
TABLE
  2
STYLE
 70
4
  0
STYLE
  2
STANDARD
 70
0
 40
0
 41
1
 50
0
 71
0
 42
3.5
  3
txt
  4

  0
STYLE
  2
SIMPLEX
 70
0
 40
0
 41
1
 50
0
 71
0
 42
3.5
  3
simplex
  4

  0
STYLE
  2
COMPLEX
 70
0
 40
0
 41
1
 50
0
 71
0
 42
3.5
  3
complex
  4

  0
STYLE
  2
ITALIC
 70
0
 40
0
 41
1
 50
0
 71
0
 42
3.5
  3
italic
  4

  0
ENDTAB
  0
TABLE
  2
VIEW
 70
0
  0
ENDTAB
  0
ENDSEC
  0
SECTION
  2
BLOCKS
  0
BLOCK
  8
0
  2
*X0
 70
1
 10
0
 20
0
 30
0
  0
LINE
  8
0
 62
7
 10
1.100000000000001
 20
7.994291116568839
 30
0
 11
1.205708883431166
 21
8.100000000000005
 31
0
  0
LINE
  8
0
 62
7
 10
1.267840917787134
 20
7.950000000000006
 30
0
 11
1.275
 21
7.957159082212874
 31
0
  0
LINE
  8
0
 62
7
 10
1.16177490060915
 20
7.950000000000005
 30
0
 11
1.274999999999999
 21
8.063225099390854
 31
0
  0
ENDBLK
  8
0
  0
BLOCK
  8
0
  2
*X1
 70
1
 10
0
 20
0
 30
0
  0
LINE
  8
0
 62
7
 10
1.1
 20
10.75200756319637
 30
0
 11
1.197992436803626
 21
10.85
 31
0
  0
LINE
  8
0
 62
7
 10
1.1
 20
10.5398755288404
 30
0
 11
1.275
 21
10.7148755288404
 31
0
  0
LINE
  8
0
 62
7
 10
1.1
 20
10.32774349448444
 30
0
 11
1.275
 21
10.50274349448444
 31
0
  0
LINE
  8
0
 62
7
 10
1.1
 20
10.11561146012848
 30
0
 11
1.275
 21
10.29061146012848
 31
0
  0
LINE
  8
0
 62
7
 10
1.1
 20
9.903479425772513
 30
0
 11
1.275
 21
10.07847942577251
 31
0
  0
LINE
  8
0
 62
7
 10
1.1
 20
9.691347391416549
 30
0
 11
1.275
 21
9.866347391416548
 31
0
  0
LINE
  8
0
 62
7
 10
1.1
 20
9.479215357060585
 30
0
 11
1.275
 21
9.654215357060584
 31
0
  0
LINE
  8
0
 62
7
 10
1.1
 20
9.267083322704622
 30
0
 11
1.275
 21
9.442083322704621
 31
0
  0
LINE
  8
0
 62
7
 10
1.1
 20
9.054951288348658
 30
0
 11
1.275
 21
9.229951288348657
 31
0
  0
LINE
  8
0
 62
7
 10
1.1
 20
8.842819253992694
 30
0
 11
1.275
 21
9.017819253992693
 31
0
  0
LINE
  8
0
 62
7
 10
1.1
 20
8.63068721963673
 30
0
 11
1.275
 21
8.805687219636729
 31
0
  0
LINE
  8
0
 62
7
 10
1.1
 20
8.418555185280766
 30
0
 11
1.275
 21
8.593555185280765
 31
0
  0
LINE
  8
0
 62
7
 10
1.193576849075204
 20
8.300000000000004
 30
0
 11
1.275
 21
8.381423150924801
 31
0
  0
LINE
  8
0
 62
7
 10
1.100000000000001
 20
10.64594154601838
 30
0
 11
1.274999999999999
 21
10.82094154601838
 31
0
  0
LINE
  8
0
 62
7
 10
1.100000000000001
 20
10.43380951166242
 30
0
 11
1.274999999999999
 21
10.60880951166242
 31
0
  0
LINE
  8
0
 62
7
 10
1.100000000000001
 20
10.22167747730646
 30
0
 11
1.274999999999999
 21
10.39667747730646
 31
0
  0
LINE
  8
0
 62
7
 10
1.100000000000001
 20
10.00954544295049
 30
0
 11
1.274999999999999
 21
10.18454544295049
 31
0
  0
LINE
  8
0
 62
7
 10
1.100000000000001
 20
9.797413408594529
 30
0
 11
1.274999999999999
 21
9.972413408594528
 31
0
  0
LINE
  8
0
 62
7
 10
1.100000000000001
 20
9.585281374238566
 30
0
 11
1.274999999999999
 21
9.760281374238565
 31
0
  0
LINE
  8
0
 62
7
 10
1.100000000000001
 20
9.373149339882602
 30
0
 11
1.274999999999999
 21
9.548149339882601
 31
0
  0
LINE
  8
0
 62
7
 10
1.100000000000001
 20
9.161017305526638
 30
0
 11
1.274999999999999
 21
9.336017305526637
 31
0
  0
LINE
  8
0
 62
7
 10
1.100000000000001
 20
8.948885271170674
 30
0
 11
1.274999999999999
 21
9.123885271170673
 31
0
  0
LINE
  8
0
 62
7
 10
1.100000000000001
 20
8.73675323681471
 30
0
 11
1.274999999999999
 21
8.911753236814709
 31
0
  0
LINE
  8
0
 62
7
 10
1.100000000000001
 20
8.524621202458746
 30
0
 11
1.274999999999999
 21
8.699621202458745
 31
0
  0
LINE
  8
0
 62
7
 10
1.100000000000001
 20
8.312489168102783
 30
0
 11
1.274999999999999
 21
8.487489168102782
 31
0
  0
ENDBLK
  8
0
  0
BLOCK
  8
0
  2
*X2
 70
1
 10
0
 20
0
 30
0
  0
LINE
  8
0
 62
7
 10
1.100000000000001
 20
11.1762716319083
 30
0
 11
1.123728368091698
 21
11.2
 31
0
  0
LINE
  8
0
 62
7
 10
1.185860402447664
 20
11.05
 30
0
 11
1.274999999999999
 21
11.13913959755234
 31
0
  0
LINE
  8
0
 62
7
 10
1.1
 20
11.07020561473032
 30
0
 11
1.229794385269681
 21
11.2
 31
0
  0
ENDBLK
  8
0
  0
BLOCK
  8
0
  2
*X3
 70
1
 10
0
 20
0
 30
0
  0
LINE
  8
0
 62
7
 10
3.910000000000001
 20
8.046574669941302
 30
0
 11
3.963425330058703
 21
8.100000000000005
 31
0
  0
LINE
  8
0
 62
7
 10
4.025557364414667
 20
7.950000000000005
 30
0
 11
4.085
 21
8.009442635585337
 31
0
  0
LINE
  8
0
 62
7
 10
3.919491347236687
 20
7.950000000000006
 30
0
 11
4.069491347236686
 21
8.100000000000005
 31
0
  0
ENDBLK
  8
0
  0
BLOCK
  8
0
  2
*X4
 70
1
 10
0
 20
0
 30
0
  0
LINE
  8
0
 62
7
 10
3.91
 20
10.80429111656883
 30
0
 11
3.955708883431162
 21
10.85
 31
0
  0
LINE
  8
0
 62
7
 10
3.91
 20
10.59215908221287
 30
0
 11
4.084999999999999
 21
10.76715908221287
 31
0
  0
LINE
  8
0
 62
7
 10
3.91
 20
10.38002704785691
 30
0
 11
4.084999999999999
 21
10.5550270478569
 31
0
  0
LINE
  8
0
 62
7
 10
3.91
 20
10.16789501350094
 30
0
 11
4.084999999999999
 21
10.34289501350094
 31
0
  0
LINE
  8
0
 62
7
 10
3.91
 20
9.955762979144978
 30
0
 11
4.084999999999999
 21
10.13076297914498
 31
0
  0
LINE
  8
0
 62
7
 10
3.91
 20
9.743630944789015
 30
0
 11
4.084999999999999
 21
9.918630944789012
 31
0
  0
LINE
  8
0
 62
7
 10
3.91
 20
9.531498910433051
 30
0
 11
4.084999999999999
 21
9.706498910433048
 31
0
  0
LINE
  8
0
 62
7
 10
3.91
 20
9.319366876077087
 30
0
 11
4.084999999999999
 21
9.494366876077084
 31
0
  0
LINE
  8
0
 62
7
 10
3.91
 20
9.107234841721123
 30
0
 11
4.084999999999999
 21
9.28223484172112
 31
0
  0
LINE
  8
0
 62
7
 10
3.91
 20
8.895102807365159
 30
0
 11
4.084999999999999
 21
9.070102807365156
 31
0
  0
LINE
  8
0
 62
7
 10
3.91
 20
8.682970773009195
 30
0
 11
4.084999999999999
 21
8.857970773009193
 31
0
  0
LINE
  8
0
 62
7
 10
3.91
 20
8.470838738653232
 30
0
 11
4.084999999999999
 21
8.645838738653229
 31
0
  0
LINE
  8
0
 62
7
 10
3.951293295702738
 20
8.300000000000004
 30
0
 11
4.084999999999999
 21
8.433706704297265
 31
0
  0
LINE
  8
0
 62
7
 10
3.91
 20
10.69822509939085
 30
0
 11
4.061774900609144
 21
10.85
 31
0
  0
LINE
  8
0
 62
7
 10
3.91
 20
10.48609306503489
 30
0
 11
4.085
 21
10.66109306503489
 31
0
  0
LINE
  8
0
 62
7
 10
3.91
 20
10.27396103067892
 30
0
 11
4.085
 21
10.44896103067892
 31
0
  0
LINE
  8
0
 62
7
 10
3.91
 20
10.06182899632296
 30
0
 11
4.085
 21
10.23682899632296
 31
0
  0
LINE
  8
0
 62
7
 10
3.91
 20
9.849696961966995
 30
0
 11
4.085
 21
10.02469696196699
 31
0
  0
LINE
  8
0
 62
7
 10
3.91
 20
9.637564927611031
 30
0
 11
4.085
 21
9.81256492761103
 31
0
  0
LINE
  8
0
 62
7
 10
3.91
 20
9.425432893255067
 30
0
 11
4.085
 21
9.600432893255066
 31
0
  0
LINE
  8
0
 62
7
 10
3.91
 20
9.213300858899103
 30
0
 11
4.085
 21
9.388300858899102
 31
0
  0
LINE
  8
0
 62
7
 10
3.91
 20
9.001168824543139
 30
0
 11
4.085
 21
9.176168824543138
 31
0
  0
LINE
  8
0
 62
7
 10
3.91
 20
8.789036790187176
 30
0
 11
4.085
 21
8.964036790187174
 31
0
  0
LINE
  8
0
 62
7
 10
3.91
 20
8.576904755831212
 30
0
 11
4.085
 21
8.751904755831211
 31
0
  0
LINE
  8
0
 62
7
 10
3.91
 20
8.364772721475248
 30
0
 11
4.085
 21
8.539772721475247
 31
0
  0
LINE
  8
0
 62
7
 10
4.057359312880721
 20
8.300000000000004
 30
0
 11
4.085
 21
8.327640687119283
 31
0
  0
ENDBLK
  8
0
  0
BLOCK
  8
0
  2
*X5
 70
1
 10
0
 20
0
 30
0
  0
LINE
  8
0
 62
7
 10
3.943576849075201
 20
11.05
 30
0
 11
4.085000000000001
 21
11.1914231509248
 31
0
  0
LINE
  8
0
 62
7
 10
3.910000000000001
 20
11.12248916810278
 30
0
 11
3.987510831897217
 21
11.2
 31
0
  0
LINE
  8
0
 62
7
 10
4.049642866253182
 20
11.05
 30
0
 11
4.085
 21
11.08535713374682
 31
0
  0
ENDBLK
  8
0
  0
BLOCK
  8
0
  2
*X6
 70
1
 10
0
 20
0
 30
0
  0
LINE
  8
0
 62
7
  6
DASHED
 10
0.9500000000000002
 20
8.268555185280766
 30
0
 11
0.9814448147192381
 21
8.300000000000004
 31
0
  0
LINE
  8
0
 62
7
  6
DASHED
 10
0.9935768490752026
 20
8.100000000000005
 30
0
 11
1.193576849075202
 21
8.300000000000004
 31
0
  0
LINE
  8
0
 62
7
  6
DASHED
 10
1.205708883431167
 20
8.100000000000005
 30
0
 11
1.405708883431167
 21
8.300000000000004
 31
0
  0
LINE
  8
0
 62
7
  6
DASHED
 10
1.417840917787131
 20
8.100000000000005
 30
0
 11
1.617840917787131
 21
8.300000000000004
 31
0
  0
LINE
  8
0
 62
7
  6
DASHED
 10
1.629972952143095
 20
8.100000000000005
 30
0
 11
1.829972952143095
 21
8.300000000000004
 31
0
  0
LINE
  8
0
 62
7
  6
DASHED
 10
1.84210498649906
 20
8.100000000000005
 30
0
 11
2.042104986499059
 21
8.300000000000004
 31
0
  0
LINE
  8
0
 62
7
  6
DASHED
 10
2.054237020855024
 20
8.100000000000005
 30
0
 11
2.254237020855024
 21
8.300000000000004
 31
0
  0
LINE
  8
0
 62
7
  6
DASHED
 10
2.266369055210988
 20
8.100000000000005
 30
0
 11
2.466369055210988
 21
8.300000000000004
 31
0
  0
LINE
  8
0
 62
7
  6
DASHED
 10
2.478501089566953
 20
8.100000000000005
 30
0
 11
2.678501089566952
 21
8.300000000000004
 31
0
  0
LINE
  8
0
 62
7
  6
DASHED
 10
2.690633123922917
 20
8.100000000000005
 30
0
 11
2.890633123922917
 21
8.300000000000004
 31
0
  0
LINE
  8
0
 62
7
  6
DASHED
 10
2.902765158278881
 20
8.100000000000005
 30
0
 11
3.102765158278881
 21
8.300000000000004
 31
0
  0
LINE
  8
0
 62
7
  6
DASHED
 10
3.114897192634845
 20
8.100000000000005
 30
0
 11
3.314897192634845
 21
8.300000000000004
 31
0
  0
LINE
  8
0
 62
7
  6
DASHED
 10
3.32702922699081
 20
8.100000000000005
 30
0
 11
3.527029226990809
 21
8.300000000000004
 31
0
  0
LINE
  8
0
 62
7
  6
DASHED
 10
3.539161261346774
 20
8.100000000000005
 30
0
 11
3.739161261346774
 21
8.300000000000004
 31
0
  0
LINE
  8
0
 62
7
  6
DASHED
 10
3.751293295702738
 20
8.100000000000005
 30
0
 11
3.951293295702738
 21
8.300000000000004
 31
0
  0
LINE
  8
0
 62
7
  6
DASHED
 10
3.963425330058703
 20
8.100000000000005
 30
0
 11
4.163425330058702
 21
8.300000000000004
 31
0
  0
LINE
  8
0
 62
7
  6
DASHED
 10
4.175557364414667
 20
8.100000000000005
 30
0
 11
4.235
 21
8.159442635585338
 31
0
  0
LINE
  8
0
 62
7
 10
0.9499999999999997
 20
8.162489168102784
 30
0
 11
1.087510831897222
 21
8.300000000000006
 31
0
  0
LINE
  8
0
 62
7
 10
1.099642866253186
 20
8.100000000000005
 30
0
 11
1.299642866253186
 21
8.300000000000006
 31
0
  0
LINE
  8
0
 62
7
 10
1.31177490060915
 20
8.100000000000005
 30
0
 11
1.511774900609151
 21
8.300000000000006
 31
0
  0
LINE
  8
0
 62
7
 10
1.523906934965114
 20
8.100000000000005
 30
0
 11
1.723906934965115
 21
8.300000000000006
 31
0
  0
LINE
  8
0
 62
7
 10
1.736038969321079
 20
8.100000000000005
 30
0
 11
1.936038969321079
 21
8.300000000000006
 31
0
  0
LINE
  8
0
 62
7
 10
1.948171003677043
 20
8.100000000000005
 30
0
 11
2.148171003677044
 21
8.300000000000006
 31
0
  0
LINE
  8
0
 62
7
 10
2.160303038033007
 20
8.100000000000005
 30
0
 11
2.360303038033008
 21
8.300000000000006
 31
0
  0
LINE
  8
0
 62
7
 10
2.372435072388972
 20
8.100000000000005
 30
0
 11
2.572435072388972
 21
8.300000000000006
 31
0
  0
LINE
  8
0
 62
7
 10
2.584567106744936
 20
8.100000000000005
 30
0
 11
2.784567106744936
 21
8.300000000000006
 31
0
  0
LINE
  8
0
 62
7
 10
2.7966991411009
 20
8.100000000000005
 30
0
 11
2.996699141100901
 21
8.300000000000006
 31
0
  0
LINE
  8
0
 62
7
 10
3.008831175456864
 20
8.100000000000005
 30
0
 11
3.208831175456865
 21
8.300000000000006
 31
0
  0
LINE
  8
0
 62
7
 10
3.220963209812829
 20
8.100000000000005
 30
0
 11
3.420963209812829
 21
8.300000000000006
 31
0
  0
LINE
  8
0
 62
7
 10
3.433095244168793
 20
8.100000000000005
 30
0
 11
3.633095244168794
 21
8.300000000000006
 31
0
  0
LINE
  8
0
 62
7
 10
3.645227278524757
 20
8.100000000000005
 30
0
 11
3.845227278524758
 21
8.300000000000006
 31
0
  0
LINE
  8
0
 62
7
 10
3.857359312880722
 20
8.100000000000005
 30
0
 11
4.057359312880722
 21
8.300000000000006
 31
0
  0
LINE
  8
0
 62
7
 10
4.069491347236686
 20
8.100000000000005
 30
0
 11
4.234999999999999
 21
8.265508652763319
 31
0
  0
ENDBLK
  8
0
  0
BLOCK
  8
0
  2
*X7
 70
1
 10
0
 20
0
 30
0
  0
LINE
  8
0
 62
7
  6
DASHED
 10
0.9500000000000002
 20
11.0262716319083
 30
0
 11
0.9737283680916993
 21
11.05
 31
0
  0
LINE
  8
0
 62
7
  6
DASHED
 10
0.9858604024476629
 20
10.85
 30
0
 11
1.185860402447664
 21
11.05
 31
0
  0
LINE
  8
0
 62
7
  6
DASHED
 10
1.197992436803627
 20
10.85
 30
0
 11
1.397992436803628
 21
11.05
 31
0
  0
LINE
  8
0
 62
7
  6
DASHED
 10
1.410124471159591
 20
10.85
 30
0
 11
1.610124471159592
 21
11.05
 31
0
  0
LINE
  8
0
 62
7
  6
DASHED
 10
1.622256505515556
 20
10.85
 30
0
 11
1.822256505515556
 21
11.05
 31
0
  0
LINE
  8
0
 62
7
  6
DASHED
 10
1.83438853987152
 20
10.85
 30
0
 11
2.034388539871521
 21
11.05
 31
0
  0
LINE
  8
0
 62
7
  6
DASHED
 10
2.046520574227484
 20
10.85
 30
0
 11
2.246520574227485
 21
11.05
 31
0
  0
LINE
  8
0
 62
7
  6
DASHED
 10
2.258652608583449
 20
10.85
 30
0
 11
2.458652608583449
 21
11.05
 31
0
  0
LINE
  8
0
 62
7
  6
DASHED
 10
2.470784642939413
 20
10.85
 30
0
 11
2.670784642939414
 21
11.05
 31
0
  0
LINE
  8
0
 62
7
  6
DASHED
 10
2.682916677295377
 20
10.85
 30
0
 11
2.882916677295378
 21
11.05
 31
0
  0
LINE
  8
0
 62
7
  6
DASHED
 10
2.895048711651341
 20
10.85
 30
0
 11
3.095048711651342
 21
11.05
 31
0
  0
LINE
  8
0
 62
7
  6
DASHED
 10
3.107180746007306
 20
10.85
 30
0
 11
3.307180746007306
 21
11.05
 31
0
  0
LINE
  8
0
 62
7
  6
DASHED
 10
3.31931278036327
 20
10.85
 30
0
 11
3.519312780363271
 21
11.05
 31
0
  0
LINE
  8
0
 62
7
  6
DASHED
 10
3.531444814719234
 20
10.85
 30
0
 11
3.731444814719235
 21
11.05
 31
0
  0
LINE
  8
0
 62
7
  6
DASHED
 10
3.743576849075199
 20
10.85
 30
0
 11
3.943576849075199
 21
11.05
 31
0
  0
LINE
  8
0
 62
7
  6
DASHED
 10
3.955708883431163
 20
10.85
 30
0
 11
4.155708883431164
 21
11.05
 31
0
  0
LINE
  8
0
 62
7
  6
DASHED
 10
4.167840917787127
 20
10.85
 30
0
 11
4.234999999999999
 21
10.91715908221287
 31
0
  0
LINE
  8
0
 62
7
 10
0.9500000000000002
 20
10.92020561473032
 30
0
 11
1.079794385269682
 21
11.05
 31
0
  0
LINE
  8
0
 62
7
 10
1.091926419625644
 20
10.85
 30
0
 11
1.291926419625646
 21
11.05
 31
0
  0
LINE
  8
0
 62
7
 10
1.304058453981609
 20
10.85
 30
0
 11
1.50405845398161
 21
11.05
 31
0
  0
LINE
  8
0
 62
7
 10
1.516190488337573
 20
10.85
 30
0
 11
1.716190488337574
 21
11.05
 31
0
  0
LINE
  8
0
 62
7
 10
1.728322522693537
 20
10.85
 30
0
 11
1.928322522693539
 21
11.05
 31
0
  0
LINE
  8
0
 62
7
 10
1.940454557049502
 20
10.85
 30
0
 11
2.140454557049503
 21
11.05
 31
0
  0
LINE
  8
0
 62
7
 10
2.152586591405466
 20
10.85
 30
0
 11
2.352586591405467
 21
11.05
 31
0
  0
LINE
  8
0
 62
7
 10
2.36471862576143
 20
10.85
 30
0
 11
2.564718625761432
 21
11.05
 31
0
  0
LINE
  8
0
 62
7
 10
2.576850660117394
 20
10.85
 30
0
 11
2.776850660117396
 21
11.05
 31
0
  0
LINE
  8
0
 62
7
 10
2.788982694473359
 20
10.85
 30
0
 11
2.98898269447336
 21
11.05
 31
0
  0
LINE
  8
0
 62
7
 10
3.001114728829323
 20
10.85
 30
0
 11
3.201114728829324
 21
11.05
 31
0
  0
LINE
  8
0
 62
7
 10
3.213246763185287
 20
10.85
 30
0
 11
3.413246763185289
 21
11.05
 31
0
  0
LINE
  8
0
 62
7
 10
3.425378797541252
 20
10.85
 30
0
 11
3.625378797541253
 21
11.05
 31
0
  0
LINE
  8
0
 62
7
 10
3.637510831897216
 20
10.85
 30
0
 11
3.837510831897217
 21
11.05
 31
0
  0
LINE
  8
0
 62
7
 10
3.84964286625318
 20
10.85
 30
0
 11
4.049642866253182
 21
11.05
 31
0
  0
LINE
  8
0
 62
7
 10
4.061774900609144
 20
10.85
 30
0
 11
4.234999999999999
 21
11.02322509939085
 31
0
  0
ENDBLK
  8
0
  0
BLOCK
  8
0
  2
*X8
 70
1
 10
0
 20
0
 30
0
  0
LINE
  8
0
 62
7
 10
7.96
 20
8.066066017177981
 30
0
 11
7.993933982822024
 21
8.100000000000005
 31
0
  0
LINE
  8
0
 62
7
 10
8.056066017177992
 20
7.950000000000007
 30
0
 11
8.199999999999998
 21
8.093933982822014
 31
0
  0
LINE
  8
0
 62
7
 10
7.96
 20
7.959999999999998
 30
0
 11
8.100000000000007
 21
8.100000000000005
 31
0
  0
LINE
  8
0
 62
7
 10
8.16213203435597
 20
7.950000000000005
 30
0
 11
8.199999999999999
 21
7.987867965644034
 31
0
  0
ENDBLK
  8
0
  0
BLOCK
  8
0
  2
*X9
 70
1
 10
0
 20
0
 30
0
  0
LINE
  8
0
 62
7
 10
7.959999999999997
 20
10.82378246380551
 30
0
 11
7.986217536194484
 21
10.85
 31
0
  0
LINE
  8
0
 62
7
 10
7.959999999999997
 20
10.61165042944955
 30
0
 11
8.198349570550448
 21
10.85
 31
0
  0
LINE
  8
0
 62
7
 10
7.959999999999997
 20
10.39951839509358
 30
0
 11
8.199999999999999
 21
10.63951839509358
 31
0
  0
LINE
  8
0
 62
7
 10
7.959999999999997
 20
10.18738636073762
 30
0
 11
8.199999999999999
 21
10.42738636073762
 31
0
  0
LINE
  8
0
 62
7
 10
7.959999999999997
 20
9.975254326381656
 30
0
 11
8.199999999999999
 21
10.21525432638166
 31
0
  0
LINE
  8
0
 62
7
 10
7.959999999999997
 20
9.763122292025692
 30
0
 11
8.199999999999999
 21
10.00312229202569
 31
0
  0
LINE
  8
0
 62
7
 10
7.959999999999997
 20
9.550990257669728
 30
0
 11
8.199999999999999
 21
9.790990257669728
 31
0
  0
LINE
  8
0
 62
7
 10
7.959999999999997
 20
9.338858223313764
 30
0
 11
8.199999999999999
 21
9.578858223313764
 31
0
  0
LINE
  8
0
 62
7
 10
7.959999999999997
 20
9.1267261889578
 30
0
 11
8.199999999999999
 21
9.3667261889578
 31
0
  0
LINE
  8
0
 62
7
 10
7.959999999999997
 20
8.914594154601836
 30
0
 11
8.199999999999999
 21
9.154594154601837
 31
0
  0
LINE
  8
0
 62
7
 10
7.959999999999997
 20
8.702462120245873
 30
0
 11
8.199999999999999
 21
8.942462120245873
 31
0
  0
LINE
  8
0
 62
7
 10
7.959999999999997
 20
8.490330085889909
 30
0
 11
8.199999999999999
 21
8.730330085889909
 31
0
  0
LINE
  8
0
 62
7
 10
7.981801948466059
 20
8.300000000000004
 30
0
 11
8.199999999999999
 21
8.518198051533945
 31
0
  0
LINE
  8
0
 62
7
 10
8.193933982822022
 20
8.300000000000004
 30
0
 11
8.199999999999999
 21
8.306066017177981
 31
0
  0
LINE
  8
0
 62
7
 10
7.960000000000001
 20
10.71771644662753
 30
0
 11
8.092283553372464
 21
10.85
 31
0
  0
LINE
  8
0
 62
7
 10
7.960000000000001
 20
10.50558441227157
 30
0
 11
8.199999999999999
 21
10.74558441227156
 31
0
  0
LINE
  8
0
 62
7
 10
7.960000000000001
 20
10.2934523779156
 30
0
 11
8.199999999999999
 21
10.5334523779156
 31
0
  0
LINE
  8
0
 62
7
 10
7.960000000000001
 20
10.08132034355964
 30
0
 11
8.199999999999999
 21
10.32132034355964
 31
0
  0
LINE
  8
0
 62
7
 10
7.960000000000001
 20
9.869188309203674
 30
0
 11
8.199999999999999
 21
10.10918830920367
 31
0
  0
LINE
  8
0
 62
7
 10
7.960000000000001
 20
9.65705627484771
 30
0
 11
8.199999999999999
 21
9.897056274847708
 31
0
  0
LINE
  8
0
 62
7
 10
7.960000000000001
 20
9.444924240491746
 30
0
 11
8.199999999999999
 21
9.684924240491744
 31
0
  0
LINE
  8
0
 62
7
 10
7.960000000000001
 20
9.232792206135782
 30
0
 11
8.199999999999999
 21
9.472792206135781
 31
0
  0
LINE
  8
0
 62
7
 10
7.960000000000001
 20
9.020660171779818
 30
0
 11
8.199999999999999
 21
9.260660171779817
 31
0
  0
LINE
  8
0
 62
7
 10
7.960000000000001
 20
8.808528137423854
 30
0
 11
8.199999999999999
 21
9.048528137423853
 31
0
  0
LINE
  8
0
 62
7
 10
7.960000000000001
 20
8.596396103067891
 30
0
 11
8.199999999999999
 21
8.836396103067889
 31
0
  0
LINE
  8
0
 62
7
 10
7.960000000000001
 20
8.384264068711927
 30
0
 11
8.199999999999999
 21
8.624264068711925
 31
0
  0
LINE
  8
0
 62
7
 10
8.08786796564404
 20
8.300000000000004
 30
0
 11
8.199999999999999
 21
8.412132034355961
 31
0
  0
ENDBLK
  8
0
  0
BLOCK
  8
0
  2
*X10
 70
1
 10
0
 20
0
 30
0
  0
LINE
  8
0
 62
7
 10
7.974085501838521
 20
11.05
 30
0
 11
8.12408550183852
 21
11.2
 31
0
  0
LINE
  8
0
 62
7
 10
8.186217536194485
 20
11.05
 30
0
 11
8.199999999999999
 21
11.06378246380552
 31
0
  0
LINE
  8
0
 62
7
 10
7.96
 20
11.14198051533946
 30
0
 11
8.018019484660536
 21
11.2
 31
0
  0
LINE
  8
0
 62
7
 10
8.080151519016503
 20
11.05
 30
0
 11
8.199999999999999
 21
11.1698484809835
 31
0
  0
ENDBLK
  8
0
  0
BLOCK
  8
0
  2
*X11
 70
1
 10
0
 20
0
 30
0
  0
LINE
  8
0
 62
7
  6
DASHED
 10
5.95
 20
8.177386360737623
 30
0
 11
6.07261363926238
 21
8.300000000000004
 31
0
  0
LINE
  8
0
 62
7
  6
DASHED
 10
6.084745673618347
 20
8.100000000000005
 30
0
 11
6.25
 21
8.26525432638166
 31
0
  0
LINE
  8
0
 62
7
 10
5.949999999999999
 20
8.283452377915605
 30
0
 11
5.966547622084399
 21
8.300000000000004
 31
0
  0
LINE
  8
0
 62
7
 10
5.978679656440364
 20
8.100000000000005
 30
0
 11
6.178679656440363
 21
8.300000000000004
 31
0
  0
LINE
  8
0
 62
7
 10
6.190811690796328
 20
8.100000000000005
 30
0
 11
6.250000000000001
 21
8.159188309203678
 31
0
  0
ENDBLK
  8
0
  0
BLOCK
  8
0
  2
*X12
 70
1
 10
0
 20
0
 30
0
  0
LINE
  8
0
 62
7
  6
DASHED
 10
5.949999999999999
 20
10.93510280736516
 30
0
 11
6.064897192634842
 21
11.05
 31
0
  0
LINE
  8
0
 62
7
  6
DASHED
 10
6.077029226990806
 20
10.85
 30
0
 11
6.249999999999998
 21
11.02297077300919
 31
0
  0
LINE
  8
0
 62
7
 10
5.949999999999998
 20
11.04116882454314
 30
0
 11
5.958831175456859
 21
11.05
 31
0
  0
LINE
  8
0
 62
7
 10
5.970963209812822
 20
10.85
 30
0
 11
6.170963209812823
 21
11.05
 31
0
  0
LINE
  8
0
 62
7
 10
6.183095244168786
 20
10.85
 30
0
 11
6.249999999999998
 21
10.91690475583121
 31
0
  0
ENDBLK
  8
0
  0
BLOCK
  8
0
  2
*X13
 70
1
 10
0
 20
0
 30
0
  0
LINE
  8
0
 62
7
  6
DASHED
 10
7.959999999999999
 20
11.03591449816148
 30
0
 11
7.974085501838521
 21
11.05
 31
0
  0
LINE
  8
0
 62
7
  6
DASHED
 10
7.986217536194484
 20
10.85
 30
0
 11
8.186217536194485
 21
11.05
 31
0
  0
LINE
  8
0
 62
7
  6
DASHED
 10
8.198349570550448
 20
10.85
 30
0
 11
8.199999999999998
 21
10.85165042944955
 31
0
  0
LINE
  8
0
 62
7
 10
7.96
 20
10.9298484809835
 30
0
 11
8.080151519016503
 21
11.05
 31
0
  0
LINE
  8
0
 62
7
 10
8.092283553372466
 20
10.85
 30
0
 11
8.199999999999999
 21
10.95771644662753
 31
0
  0
ENDBLK
  8
0
  0
BLOCK
  8
0
  2
*X14
 70
1
 10
0
 20
0
 30
0
  0
LINE
  8
0
 62
7
  6
DASHED
 10
7.96
 20
8.278198051533945
 30
0
 11
7.981801948466059
 21
8.300000000000004
 31
0
  0
LINE
  8
0
 62
7
  6
DASHED
 10
7.993933982822024
 20
8.100000000000005
 30
0
 11
8.193933982822022
 21
8.300000000000004
 31
0
  0
LINE
  8
0
 62
7
 10
7.960000000000001
 20
8.172132034355965
 30
0
 11
8.08786796564404
 21
8.300000000000004
 31
0
  0
LINE
  8
0
 62
7
 10
8.100000000000007
 20
8.100000000000005
 30
0
 11
8.200000000000001
 21
8.199999999999999
 31
0
  0
ENDBLK
  8
0
  0
BLOCK
  8
0
  2
*X15
 70
1
 10
0
 20
0
 30
0
  0
LINE
  8
0
 62
7
 10
1.100000000000001
 20
5.660838738653231
 30
0
 11
1.169161261346766
 21
5.729999999999997
 31
0
  0
LINE
  8
0
 62
7
 10
0.9350000000000005
 20
5.495838738653232
 30
0
 11
1.019161261346767
 21
5.579999999999997
 31
0
  0
LINE
  8
0
 62
7
 10
0.9912932957027398
 20
5.340000000000006
 30
0
 11
1.275
 21
5.623706704297266
 31
0
  0
LINE
  8
0
 62
7
 10
1.203425330058704
 20
5.340000000000006
 30
0
 11
1.443425330058695
 21
5.579999999999997
 31
0
  0
LINE
  8
0
 62
7
 10
1.415557364414668
 20
5.340000000000006
 30
0
 11
1.655557364414659
 21
5.579999999999997
 31
0
  0
LINE
  8
0
 62
7
 10
1.627689398770633
 20
5.340000000000006
 30
0
 11
1.867689398770624
 21
5.579999999999997
 31
0
  0
LINE
  8
0
 62
7
 10
1.839821433126597
 20
5.340000000000006
 30
0
 11
2.079821433126588
 21
5.579999999999997
 31
0
  0
LINE
  8
0
 62
7
 10
2.051953467482561
 20
5.340000000000006
 30
0
 11
2.291953467482552
 21
5.579999999999997
 31
0
  0
LINE
  8
0
 62
7
 10
2.264085501838526
 20
5.340000000000006
 30
0
 11
2.504085501838516
 21
5.579999999999997
 31
0
  0
LINE
  8
0
 62
7
 10
2.47621753619449
 20
5.340000000000006
 30
0
 11
2.716217536194481
 21
5.579999999999997
 31
0
  0
LINE
  8
0
 62
7
 10
2.688349570550454
 20
5.340000000000006
 30
0
 11
2.928349570550445
 21
5.579999999999997
 31
0
  0
LINE
  8
0
 62
7
 10
2.900481604906418
 20
5.340000000000006
 30
0
 11
3.140481604906409
 21
5.579999999999997
 31
0
  0
LINE
  8
0
 62
7
 10
3.112613639262383
 20
5.340000000000006
 30
0
 11
3.352613639262374
 21
5.579999999999997
 31
0
  0
LINE
  8
0
 62
7
 10
3.324745673618347
 20
5.340000000000006
 30
0
 11
3.564745673618338
 21
5.579999999999997
 31
0
  0
LINE
  8
0
 62
7
 10
3.910000000000001
 20
5.713122292025696
 30
0
 11
3.926877707974302
 21
5.729999999999997
 31
0
  0
LINE
  8
0
 62
7
 10
3.536877707974311
 20
5.340000000000006
 30
0
 11
3.776877707974302
 21
5.579999999999997
 31
0
  0
LINE
  8
0
 62
7
 10
3.749009742330276
 20
5.340000000000006
 30
0
 11
4.085000000000001
 21
5.675990257669732
 31
0
  0
LINE
  8
0
 62
7
 10
3.96114177668624
 20
5.340000000000006
 30
0
 11
4.20114177668623
 21
5.579999999999998
 31
0
  0
LINE
  8
0
 62
7
 10
4.173273811042204
 20
5.340000000000006
 30
0
 11
4.235
 21
5.401726188957802
 31
0
  0
LINE
  8
0
 62
7
 10
0.9350000000000001
 20
5.389772721475248
 30
0
 11
1.275
 21
5.729772721475249
 31
0
  0
LINE
  8
0
 62
7
 10
1.097359312880722
 20
5.340000000000006
 30
0
 11
1.337359312880713
 21
5.579999999999997
 31
0
  0
LINE
  8
0
 62
7
 10
1.309491347236686
 20
5.340000000000006
 30
0
 11
1.549491347236677
 21
5.579999999999997
 31
0
  0
LINE
  8
0
 62
7
 10
1.521623381592651
 20
5.340000000000006
 30
0
 11
1.761623381592641
 21
5.579999999999997
 31
0
  0
LINE
  8
0
 62
7
 10
1.733755415948615
 20
5.340000000000006
 30
0
 11
1.973755415948605
 21
5.579999999999997
 31
0
  0
LINE
  8
0
 62
7
 10
1.945887450304579
 20
5.340000000000006
 30
0
 11
2.18588745030457
 21
5.579999999999997
 31
0
  0
LINE
  8
0
 62
7
 10
2.158019484660544
 20
5.340000000000006
 30
0
 11
2.398019484660534
 21
5.579999999999997
 31
0
  0
LINE
  8
0
 62
7
 10
2.370151519016508
 20
5.340000000000006
 30
0
 11
2.610151519016498
 21
5.579999999999997
 31
0
  0
LINE
  8
0
 62
7
 10
2.582283553372472
 20
5.340000000000006
 30
0
 11
2.822283553372463
 21
5.579999999999997
 31
0
  0
LINE
  8
0
 62
7
 10
2.794415587728436
 20
5.340000000000006
 30
0
 11
3.034415587728427
 21
5.579999999999997
 31
0
  0
LINE
  8
0
 62
7
 10
3.006547622084401
 20
5.340000000000006
 30
0
 11
3.246547622084391
 21
5.579999999999997
 31
0
  0
LINE
  8
0
 62
7
 10
3.218679656440365
 20
5.340000000000006
 30
0
 11
3.458679656440355
 21
5.579999999999997
 31
0
  0
LINE
  8
0
 62
7
 10
3.430811690796329
 20
5.340000000000006
 30
0
 11
3.67081169079632
 21
5.579999999999997
 31
0
  0
LINE
  8
0
 62
7
 10
3.91
 20
5.607056274847714
 30
0
 11
4.032943725152283
 21
5.729999999999997
 31
0
  0
LINE
  8
0
 62
7
 10
3.642943725152294
 20
5.340000000000006
 30
0
 11
3.882943725152284
 21
5.579999999999997
 31
0
  0
LINE
  8
0
 62
7
 10
3.855075759508258
 20
5.340000000000006
 30
0
 11
4.095075759508248
 21
5.579999999999997
 31
0
  0
LINE
  8
0
 62
7
 10
4.067207793864222
 20
5.340000000000006
 30
0
 11
4.234999999999999
 21
5.507792206135783
 31
0
  0
ENDBLK
  8
0
  0
BLOCK
  8
0
  2
*X16
 70
1
 10
0
 20
0
 30
0
  0
LINE
  8
0
 62
7
 10
0.9350000000000005
 20
5.283706704297266
 30
0
 11
0.9512932957027389
 21
5.300000000000006
 31
0
  0
LINE
  8
0
 62
7
 10
0.9350000000000005
 20
5.071574669941302
 30
0
 11
1.163425330058703
 21
5.300000000000006
 31
0
  0
LINE
  8
0
 62
7
 10
1.1
 20
5.024442635585336
 30
0
 11
1.375557364414667
 21
5.300000000000006
 31
0
  0
LINE
  8
0
 62
7
 10
1.347689398770633
 20
5.060000000000007
 30
0
 11
1.587689398770632
 21
5.300000000000006
 31
0
  0
LINE
  8
0
 62
7
 10
1.1
 20
4.812310601229372
 30
0
 11
1.275
 21
4.987310601229372
 31
0
  0
LINE
  8
0
 62
7
 10
1.559821433126598
 20
5.060000000000007
 30
0
 11
1.799821433126596
 21
5.300000000000006
 31
0
  0
LINE
  8
0
 62
7
 10
1.1
 20
4.600178566873408
 30
0
 11
1.275
 21
4.775178566873408
 31
0
  0
LINE
  8
0
 62
7
 10
1.771953467482562
 20
5.060000000000007
 30
0
 11
2.01195346748256
 21
5.300000000000006
 31
0
  0
LINE
  8
0
 62
7
 10
1.1
 20
4.388046532517444
 30
0
 11
1.275
 21
4.563046532517444
 31
0
  0
LINE
  8
0
 62
7
 10
1.984085501838526
 20
5.060000000000007
 30
0
 11
2.224085501838525
 21
5.300000000000006
 31
0
  0
LINE
  8
0
 62
7
 10
1.1
 20
4.175914498161481
 30
0
 11
1.275
 21
4.35091449816148
 31
0
  0
LINE
  8
0
 62
7
 10
2.19621753619449
 20
5.060000000000007
 30
0
 11
2.436217536194489
 21
5.300000000000006
 31
0
  0
LINE
  8
0
 62
7
 10
1.1
 20
3.963782463805517
 30
0
 11
1.275
 21
4.138782463805517
 31
0
  0
LINE
  8
0
 62
7
 10
2.408349570550455
 20
5.060000000000007
 30
0
 11
2.648349570550453
 21
5.300000000000006
 31
0
  0
LINE
  8
0
 62
7
 10
1.1
 20
3.751650429449553
 30
0
 11
1.275
 21
3.926650429449553
 31
0
  0
LINE
  8
0
 62
7
 10
2.620481604906419
 20
5.060000000000007
 30
0
 11
2.860481604906417
 21
5.300000000000006
 31
0
  0
LINE
  8
0
 62
7
 10
1.1
 20
3.539518395093588
 30
0
 11
1.275
 21
3.714518395093588
 31
0
  0
LINE
  8
0
 62
7
 10
2.832613639262383
 20
5.060000000000007
 30
0
 11
3.072613639262382
 21
5.300000000000006
 31
0
  0
LINE
  8
0
 62
7
 10
1.122613639262383
 20
3.350000000000007
 30
0
 11
1.275
 21
3.502386360737624
 31
0
  0
LINE
  8
0
 62
7
 10
3.044745673618348
 20
5.060000000000007
 30
0
 11
3.284745673618346
 21
5.300000000000006
 31
0
  0
LINE
  8
0
 62
7
 10
3.256877707974312
 20
5.060000000000007
 30
0
 11
3.49687770797431
 21
5.300000000000006
 31
0
  0
LINE
  8
0
 62
7
 10
3.469009742330276
 20
5.060000000000007
 30
0
 11
3.709009742330275
 21
5.300000000000006
 31
0
  0
LINE
  8
0
 62
7
 10
3.68114177668624
 20
5.060000000000007
 30
0
 11
3.921141776686239
 21
5.300000000000006
 31
0
  0
LINE
  8
0
 62
7
 10
3.893273811042205
 20
5.060000000000007
 30
0
 11
4.133273811042203
 21
5.300000000000006
 31
0
  0
LINE
  8
0
 62
7
 10
4.105405845398169
 20
5.060000000000007
 30
0
 11
4.234999999999999
 21
5.189594154601838
 31
0
  0
LINE
  8
0
 62
7
 10
3.91
 20
4.864594154601836
 30
0
 11
4.085000000000001
 21
5.039594154601837
 31
0
  0
LINE
  8
0
 62
7
 10
3.91
 20
4.652462120245872
 30
0
 11
4.085000000000001
 21
4.827462120245873
 31
0
  0
LINE
  8
0
 62
7
 10
3.91
 20
4.440330085889908
 30
0
 11
4.085000000000001
 21
4.61533008588991
 31
0
  0
LINE
  8
0
 62
7
 10
3.91
 20
4.228198051533944
 30
0
 11
4.085000000000001
 21
4.403198051533946
 31
0
  0
LINE
  8
0
 62
7
 10
3.91
 20
4.01606601717798
 30
0
 11
4.085000000000001
 21
4.191066017177982
 31
0
  0
LINE
  8
0
 62
7
 10
3.91
 20
3.803933982822016
 30
0
 11
4.085000000000001
 21
3.978933982822018
 31
0
  0
LINE
  8
0
 62
7
 10
3.91
 20
3.591801948466052
 30
0
 11
4.085000000000001
 21
3.766801948466053
 31
0
  0
LINE
  8
0
 62
7
 10
3.910000000000001
 20
3.379669914110089
 30
0
 11
4.085000000000001
 21
3.554669914110089
 31
0
  0
LINE
  8
0
 62
7
 10
3.992462120245883
 20
3.250000000000007
 30
0
 11
4.085000000000001
 21
3.342537879754125
 31
0
  0
LINE
  8
0
 62
7
 10
0.9350000000000001
 20
5.177640687119284
 30
0
 11
1.057359312880722
 21
5.300000000000006
 31
0
  0
LINE
  8
0
 62
7
 10
1.029491347236687
 20
5.060000000000007
 30
0
 11
1.269491347236686
 21
5.300000000000006
 31
0
  0
LINE
  8
0
 62
7
 10
1.1
 20
4.918376618407354
 30
0
 11
1.481623381592651
 21
5.300000000000006
 31
0
  0
LINE
  8
0
 62
7
 10
1.453755415948615
 20
5.060000000000007
 30
0
 11
1.693755415948615
 21
5.300000000000006
 31
0
  0
LINE
  8
0
 62
7
 10
1.1
 20
4.70624458405139
 30
0
 11
1.275
 21
4.88124458405139
 31
0
  0
LINE
  8
0
 62
7
 10
1.66588745030458
 20
5.060000000000007
 30
0
 11
1.905887450304579
 21
5.300000000000006
 31
0
  0
LINE
  8
0
 62
7
 10
1.1
 20
4.494112549695426
 30
0
 11
1.275
 21
4.669112549695426
 31
0
  0
LINE
  8
0
 62
7
 10
1.878019484660544
 20
5.060000000000007
 30
0
 11
2.118019484660544
 21
5.300000000000006
 31
0
  0
LINE
  8
0
 62
7
 10
1.1
 20
4.281980515339463
 30
0
 11
1.275
 21
4.456980515339462
 31
0
  0
LINE
  8
0
 62
7
 10
2.090151519016508
 20
5.060000000000007
 30
0
 11
2.330151519016508
 21
5.300000000000006
 31
0
  0
LINE
  8
0
 62
7
 10
1.1
 20
4.069848480983499
 30
0
 11
1.275
 21
4.244848480983499
 31
0
  0
LINE
  8
0
 62
7
 10
2.302283553372472
 20
5.060000000000007
 30
0
 11
2.542283553372472
 21
5.300000000000006
 31
0
  0
LINE
  8
0
 62
7
 10
1.1
 20
3.857716446627535
 30
0
 11
1.275
 21
4.032716446627535
 31
0
  0
LINE
  8
0
 62
7
 10
2.514415587728437
 20
5.060000000000007
 30
0
 11
2.754415587728436
 21
5.300000000000006
 31
0
  0
LINE
  8
0
 62
7
 10
1.1
 20
3.645584412271571
 30
0
 11
1.275
 21
3.82058441227157
 31
0
  0
LINE
  8
0
 62
7
 10
2.726547622084401
 20
5.060000000000007
 30
0
 11
2.966547622084401
 21
5.300000000000006
 31
0
  0
LINE
  8
0
 62
7
 10
1.1
 20
3.433452377915606
 30
0
 11
1.275
 21
3.608452377915606
 31
0
  0
LINE
  8
0
 62
7
 10
2.938679656440365
 20
5.060000000000007
 30
0
 11
3.178679656440365
 21
5.300000000000006
 31
0
  0
LINE
  8
0
 62
7
 10
1.228679656440365
 20
3.350000000000007
 30
0
 11
1.275
 21
3.396320343559642
 31
0
  0
LINE
  8
0
 62
7
 10
3.15081169079633
 20
5.060000000000007
 30
0
 11
3.390811690796329
 21
5.300000000000006
 31
0
  0
LINE
  8
0
 62
7
 10
3.362943725152294
 20
5.060000000000007
 30
0
 11
3.602943725152294
 21
5.300000000000006
 31
0
  0
LINE
  8
0
 62
7
 10
3.575075759508258
 20
5.060000000000007
 30
0
 11
3.815075759508258
 21
5.300000000000006
 31
0
  0
LINE
  8
0
 62
7
 10
3.787207793864222
 20
5.060000000000007
 30
0
 11
4.027207793864222
 21
5.300000000000006
 31
0
  0
LINE
  8
0
 62
7
 10
3.91
 20
4.970660171779818
 30
0
 11
4.234999999999999
 21
5.29566017177982
 31
0
  0
LINE
  8
0
 62
7
 10
4.21147186257615
 20
5.060000000000007
 30
0
 11
4.234999999999999
 21
5.083528137423856
 31
0
  0
LINE
  8
0
 62
7
 10
3.91
 20
4.758528137423855
 30
0
 11
4.085000000000001
 21
4.933528137423855
 31
0
  0
LINE
  8
0
 62
7
 10
3.91
 20
4.546396103067891
 30
0
 11
4.085000000000001
 21
4.721396103067891
 31
0
  0
LINE
  8
0
 62
7
 10
3.91
 20
4.334264068711927
 30
0
 11
4.085000000000001
 21
4.509264068711928
 31
0
  0
LINE
  8
0
 62
7
 10
3.91
 20
4.122132034355963
 30
0
 11
4.085000000000001
 21
4.297132034355964
 31
0
  0
LINE
  8
0
 62
7
 10
3.91
 20
3.909999999999999
 30
0
 11
4.085000000000001
 21
4.085
 31
0
  0
LINE
  8
0
 62
7
 10
3.91
 20
3.697867965644035
 30
0
 11
4.085000000000001
 21
3.872867965644036
 31
0
  0
LINE
  8
0
 62
7
 10
3.91
 20
3.485735931288071
 30
0
 11
4.085000000000001
 21
3.660735931288072
 31
0
  0
LINE
  8
0
 62
7
 10
3.91
 20
3.273603896932107
 30
0
 11
4.085000000000001
 21
3.448603896932108
 31
0
  0
ENDBLK
  8
0
  0
BLOCK
  8
0
  2
*D0
 70
1
 10
0
 20
0
 30
0
  0
LINE
  8
0
 62
7
 10
0.7154140968318501
 20
10.19488697368421
 30
0
 11
0.7154140968318501
 21
11.05
 31
0
  0
LINE
  8
0
 62
7
 10
0.7154140968318501
 20
8.300000000000004
 30
0
 11
0.7154140968318501
 21
9.114886973684211
 31
0
  0
LINE
  8
0
 62
7
 10
0.9500000000000001
 20
11.05
 30
0
 11
0.66541409683185
 21
11.05
 31
0
  0
LINE
  8
0
 62
7
 10
0.9500000000000001
 20
8.300000000000004
 30
0
 11
0.66541409683185
 21
8.300000000000004
 31
0
  0
LINE
  8
0
 62
7
 10
0.6800587577725227
 20
8.335355339059332
 30
0
 11
0.7507694358911775
 21
8.264644660940677
 31
0
  0
LINE
  8
0
 62
7
 10
0.7507694358911775
 20
11.01464466094067
 30
0
 11
0.6800587577725227
 21
11.08535533905933
 31
0
  0
TEXT
  8
0
 62
7
 10
0.6854140968318501
 20
9.517386973684212
 30
0
 40
0.1
  1
2,75
 50
90
 41
0.9
  0
TEXT
  8
0
 62
7
 10
0.8454140968318501
 20
9.314886973684212
 30
0
 40
0.1
  1
(260-280)
 50
90
 41
0.9
  0
ENDBLK
  8
0
  0
BLOCK
  8
0
  2
*D1
 70
1
 10
0
 20
0
 30
0
  0
LINE
  8
0
 62
7
 10
2.94133395375571
 20
11.4860819864589
 30
0
 11
3.91
 21
11.4860819864589
 31
0
  0
LINE
  8
0
 62
7
 10
1.275
 20
11.4860819864589
 30
0
 11
2.26633395375571
 21
11.4860819864589
 31
0
  0
LINE
  8
0
 62
7
 10
3.91
 20
11.2
 30
0
 11
3.91
 21
11.5360819864589
 31
0
  0
LINE
  8
0
 62
7
 10
1.275
 20
11.2
 30
0
 11
1.275
 21
11.5360819864589
 31
0
  0
LINE
  8
0
 62
7
 10
1.310355339059327
 20
11.52143732551823
 30
0
 11
1.239644660940673
 21
11.45072664739957
 31
0
  0
LINE
  8
0
 62
7
 10
3.874644660940672
 20
11.45072664739957
 30
0
 11
3.945355339059327
 21
11.52143732551823
 31
0
  0
TEXT
  8
0
 62
7
 10
2.46633395375571
 20
11.4410819864589
 30
0
 40
0.1
  1
2,64
 41
0.9
  0
ENDBLK
  8
0
  0
BLOCK
  8
0
  2
*D2
 70
1
 10
0
 20
0
 30
0
  0
LINE
  8
0
 62
7
 10
4.40230868242061
 20
4.52929731482215
 30
0
 11
4.40230868242061
 21
5.060000000000007
 31
0
  0
LINE
  8
0
 62
7
 10
4.40230868242061
 20
3.250000000000006
 30
0
 11
4.40230868242061
 21
3.81429731482215
 31
0
  0
LINE
  8
0
 62
7
 10
4.085
 20
5.060000000000007
 30
0
 11
4.45230868242061
 21
5.060000000000007
 31
0
  0
LINE
  8
0
 62
7
 10
4.085
 20
3.250000000000006
 30
0
 11
4.45230868242061
 21
3.250000000000006
 31
0
  0
LINE
  8
0
 62
7
 10
4.366953343361283
 20
3.285355339059334
 30
0
 11
4.437664021479938
 21
3.214644660940679
 31
0
  0
LINE
  8
0
 62
7
 10
4.437664021479938
 20
5.024644660940679
 30
0
 11
4.366953343361283
 21
5.095355339059334
 31
0
  0
TEXT
  8
0
 62
7
 10
4.44730868242061
 20
4.06429731482215
 30
0
 40
0.1
  1
1,81
 50
90
 41
0.9
  0
ENDBLK
  8
0
  0
BLOCK
  8
0
  2
*D3
 70
1
 10
0
 20
0
 30
0
  0
LINE
  8
0
 62
7
 10
2.9484153206438
 20
5.93527210398569
 30
0
 11
3.91
 21
5.93527210398569
 31
0
  0
LINE
  8
0
 62
7
 10
1.275
 20
5.93527210398569
 30
0
 11
2.1734153206438
 21
5.93527210398569
 31
0
  0
LINE
  8
0
 62
7
 10
3.91
 20
5.579999999999997
 30
0
 11
3.91
 21
5.98527210398569
 31
0
  0
LINE
  8
0
 62
7
 10
1.275
 20
5.579999999999997
 30
0
 11
1.275
 21
5.98527210398569
 31
0
  0
LINE
  8
0
 62
7
 10
3.874644660940673
 20
5.899916764926362
 30
0
 11
3.945355339059327
 21
5.970627443045017
 31
0
  0
LINE
  8
0
 62
7
 10
1.310355339059327
 20
5.970627443045017
 30
0
 11
1.239644660940673
 21
5.899916764926362
 31
0
  0
TEXT
  8
0
 62
7
 10
2.4234153206438
 20
5.89027210398569
 30
0
 40
0.1
  1
2,64
 41
0.9
  0
ENDBLK
  8
0
  0
BLOCK
  8
0
  2
*D4
 70
1
 10
0
 20
0
 30
0
  0
LINE
  8
0
 62
7
 10
0.8584762072048699
 20
4.61894541262136
 30
0
 11
0.8584762072048699
 21
5.060000000000007
 31
0
  0
LINE
  8
0
 62
7
 10
0.8584762072048699
 20
3.350000000000007
 30
0
 11
0.8584762072048699
 21
3.90394541262136
 31
0
  0
LINE
  8
0
 62
7
 10
1.1
 20
5.060000000000007
 30
0
 11
0.8084762072048699
 21
5.060000000000007
 31
0
  0
LINE
  8
0
 62
7
 10
1.1
 20
3.350000000000007
 30
0
 11
0.8084762072048699
 21
3.350000000000007
 31
0
  0
LINE
  8
0
 62
7
 10
0.8938315462641974
 20
5.024644660940679
 30
0
 11
0.8231208681455425
 21
5.095355339059334
 31
0
  0
LINE
  8
0
 62
7
 10
0.8231208681455425
 20
3.385355339059334
 30
0
 11
0.8938315462641974
 21
3.314644660940679
 31
0
  0
TEXT
  8
0
 62
7
 10
0.90347620720487
 20
4.15394541262136
 30
0
 40
0.1
  1
1,71
 50
90
 41
0.9
  0
ENDBLK
  8
0
  0
ENDSEC
  0
SECTION
  2
ENTITIES
  0
INSERT
  8
0
  2
*X0
 10
0
 20
0
 30
0
  0
INSERT
  8
0
  2
*X1
 10
0
 20
0
 30
0
  0
INSERT
  8
0
  2
*X2
 10
0
 20
0
 30
0
  0
INSERT
  8
0
  2
*X3
 10
0
 20
0
 30
0
  0
INSERT
  8
0
  2
*X4
 10
0
 20
0
 30
0
  0
INSERT
  8
0
  2
*X5
 10
0
 20
0
 30
0
  0
INSERT
  8
0
  2
*X6
 10
0
 20
0
 30
0
  0
INSERT
  8
0
  2
*X7
 10
0
 20
0
 30
0
  0
INSERT
  8
0
  2
*X8
 10
0
 20
0
 30
0
  0
INSERT
  8
0
  2
*X9
 10
0
 20
0
 30
0
  0
INSERT
  8
0
  2
*X10
 10
0
 20
0
 30
0
  0
INSERT
  8
0
  2
*X11
 10
0
 20
0
 30
0
  0
INSERT
  8
0
  2
*X12
 10
0
 20
0
 30
0
  0
INSERT
  8
0
  2
*X13
 10
0
 20
0
 30
0
  0
INSERT
  8
0
  2
*X14
 10
0
 20
0
 30
0
  0
INSERT
  8
0
  2
*X15
 10
0
 20
0
 30
0
  0
INSERT
  8
0
  2
*X16
 10
0
 20
0
 30
0
  0
LINE
  8
0
 62
7
 10
2.390000000000011
 20
3.887108347773754
 30
0
 11
2.38553640104612
 21
3.899347767149197
 31
0
  0
LINE
  8
0
 62
7
 10
2.38553640104612
 20
3.899347767149197
 30
0
 11
2.442033854132551
 21
3.945000000000007
 31
0
  0
LINE
  8
0
 62
7
 10
2.484094670477472
 20
3.945000000000007
 30
0
 11
2.575047550116351
 21
3.945000000000007
 31
0
  0
LINE
  8
0
 62
7
 10
2.442033854132551
 20
3.945000000000007
 30
0
 11
2.575047550116351
 21
3.945000000000007
 31
0
  0
LINE
  8
0
 62
7
 10
2.585118113547329
 20
3.945000000000007
 30
0
 11
2.74925810867202
 21
3.945000000000007
 31
0
  0
LINE
  8
0
 62
7
 10
2.74925810867202
 20
3.945000000000007
 30
0
 11
2.795000000000011
 21
3.876352900011127
 31
0
  0
LINE
  8
0
 62
7
 10
2.795000000000011
 20
3.773887772592036
 30
0
 11
2.795000000000011
 21
3.670414297027235
 31
0
  0
LINE
  8
0
 62
7
 10
2.795000000000011
 20
3.876352900011127
 30
0
 11
2.795000000000011
 21
3.670414297027235
 31
0
  0
LINE
  8
0
 62
7
 10
2.390000000000011
 20
3.516468363925395
 30
0
 11
1.330000000000011
 21
3.755577052377808
 31
0
  0
LINE
  8
0
 62
7
 10
2.390000000000011
 20
3.380000000000006
 30
0
 11
2.390000000000011
 21
3.516468363925395
 31
0
  0
LINE
  8
0
 62
7
 10
1.330000000000011
 20
3.755577052377808
 30
0
 11
1.330000000000011
 21
3.380000000000006
 31
0
  0
LINE
  8
0
 62
7
 10
2.390000000000011
 20
3.616132190745565
 30
0
 11
1.330000000000011
 21
4.121057174471285
 31
0
  0
LINE
  8
0
 62
7
 10
2.390000000000011
 20
3.424207005517437
 30
0
 11
2.390000000000011
 21
3.616132190745565
 31
0
  0
LINE
  8
0
 62
7
 10
1.330000000000011
 20
4.121057174471285
 30
0
 11
1.330000000000011
 21
3.663315693969835
 31
0
  0
LINE
  8
0
 62
7
 10
2.390000000000011
 20
3.716111885914705
 30
0
 11
1.330000000000011
 21
4.536061985282955
 31
0
  0
LINE
  8
0
 62
7
 10
2.390000000000011
 20
3.516443065392607
 30
0
 11
2.390000000000011
 21
3.716111885914705
 31
0
  0
LINE
  8
0
 62
7
 10
1.330000000000011
 20
4.536061985282955
 30
0
 11
1.330000000000011
 21
4.021368049118326
 31
0
  0
LINE
  8
0
 62
7
 10
2.390000000000011
 20
3.811511460225296
 30
0
 11
1.460851520863309
 21
5.005000000000007
 31
0
  0
LINE
  8
0
 62
7
 10
2.390000000000011
 20
3.602328221586884
 30
0
 11
2.390000000000011
 21
3.811511460225296
 31
0
  0
LINE
  8
0
 62
7
 10
1.330000000000011
 20
5.005000000000007
 30
0
 11
1.330000000000011
 21
4.422278320955126
 31
0
  0
LINE
  8
0
 62
7
 10
1.460851520863309
 20
5.005000000000007
 30
0
 11
1.330000000000011
 21
5.005000000000007
 31
0
  0
LINE
  8
0
 62
7
 10
2.38553640104612
 20
3.899347767149197
 30
0
 11
1.982315627369801
 21
5.005000000000007
 31
0
  0
LINE
  8
0
 62
7
 10
2.390000000000011
 20
3.665003931520665
 30
0
 11
2.390000000000011
 21
3.887108347773754
 31
0
  0
LINE
  8
0
 62
7
 10
1.982315627369801
 20
5.005000000000007
 30
0
 11
1.346793243015362
 21
5.005000000000007
 31
0
  0
LINE
  8
0
 62
7
 10
2.468513755121521
 20
3.966396833658415
 30
0
 11
2.367371587189971
 21
5.005000000000007
 31
0
  0
LINE
  8
0
 62
7
 10
2.442033854132551
 20
3.945000000000007
 30
0
 11
2.468513755121521
 21
3.966396833658415
 31
0
  0
LINE
  8
0
 62
7
 10
2.367371587189971
 20
5.005000000000007
 30
0
 11
1.886517439959591
 21
5.005000000000007
 31
0
  0
LINE
  8
0
 62
7
 10
2.575047550116351
 20
3.945000000000007
 30
0
 11
2.729702964413791
 21
5.005000000000007
 31
0
  0
LINE
  8
0
 62
7
 10
2.729702964413791
 20
5.005000000000007
 30
0
 11
2.27694584005067
 21
5.005000000000007
 31
0
  0
LINE
  8
0
 62
7
 10
2.68183554265443
 20
3.945000000000007
 30
0
 11
3.09895200568063
 21
5.005000000000007
 31
0
  0
LINE
  8
0
 62
7
 10
2.575047550116351
 20
3.945000000000007
 30
0
 11
2.68183554265443
 21
3.945000000000007
 31
0
  0
LINE
  8
0
 62
7
 10
3.09895200568063
 20
5.005000000000007
 30
0
 11
2.638750084774911
 21
5.005000000000007
 31
0
  0
LINE
  8
0
 62
7
 10
2.79284952519961
 20
3.945000000000007
 30
0
 11
3.552102595585069
 21
5.005000000000007
 31
0
  0
LINE
  8
0
 62
7
 10
2.74925810867202
 20
3.945000000000007
 30
0
 11
2.79284952519961
 21
3.945000000000007
 31
0
  0
LINE
  8
0
 62
7
 10
3.552102595585069
 20
5.005000000000007
 30
0
 11
3.00223457657353
 21
5.005000000000007
 31
0
  0
LINE
  8
0
 62
7
 10
2.836654948984231
 20
3.813839274865046
 30
0
 11
3.855000000000011
 21
4.742405149847406
 31
0
  0
LINE
  8
0
 62
7
 10
2.795000000000011
 20
3.876352900011127
 30
0
 11
2.836654948984231
 21
3.813839274865046
 31
0
  0
LINE
  8
0
 62
7
 10
3.855000000000011
 20
5.005000000000007
 30
0
 11
3.44139703482435
 21
5.005000000000007
 31
0
  0
LINE
  8
0
 62
7
 10
3.855000000000011
 20
4.742405149847406
 30
0
 11
3.855000000000011
 21
5.005000000000007
 31
0
  0
LINE
  8
0
 62
7
 10
2.795000000000011
 20
3.670414297027235
 30
0
 11
3.855000000000011
 21
4.271745710697586
 31
0
  0
LINE
  8
0
 62
7
 10
3.855000000000011
 20
4.271745710697586
 30
0
 11
3.855000000000011
 21
4.864203078753537
 31
0
  0
LINE
  8
0
 62
7
 10
2.795000000000011
 20
3.552364368992265
 30
0
 11
3.855000000000011
 21
3.913175632019355
 31
0
  0
LINE
  8
0
 62
7
 10
2.795000000000011
 20
3.670414297027235
 30
0
 11
2.795000000000011
 21
3.552364368992265
 31
0
  0
LINE
  8
0
 62
7
 10
3.855000000000011
 20
3.913175632019355
 30
0
 11
3.855000000000011
 21
4.375219186262406
 31
0
  0
LINE
  8
0
 62
7
 10
2.795000000000011
 20
3.431732367635807
 30
0
 11
3.855000000000011
 21
3.561489812024416
 31
0
  0
LINE
  8
0
 62
7
 10
2.795000000000011
 20
3.647435385790828
 30
0
 11
2.795000000000011
 21
3.431732367635807
 31
0
  0
LINE
  8
0
 62
7
 10
3.855000000000011
 20
3.561489812024416
 30
0
 11
3.855000000000011
 21
4.008246648817907
 31
0
  0
LINE
  8
0
 62
7
 10
2.795000000000011
 20
3.250000000000007
 30
0
 11
3.855000000000011
 21
3.250000000000007
 31
0
  0
LINE
  8
0
 62
7
 10
2.795000000000011
 20
3.522404179170237
 30
0
 11
2.795000000000011
 21
3.250000000000007
 31
0
  0
LINE
  8
0
 62
7
 10
3.855000000000011
 20
3.250000000000007
 30
0
 11
3.855000000000011
 21
3.652161623558846
 31
0
  0
LINE
  8
0
 62
7
 10
3.43437518727315
 20
3.945000000003845
 30
0
 11
3.43437518727315
 21
3.250000000000007
 31
0
  0
LINE
  8
0
 62
7
 10
2.39000000003063
 20
4.584375187273145
 30
0
 11
2.79499999998784
 21
4.584375187273145
 31
0
  0
LINE
  8
0
 62
7
 10
1.85627991198857
 20
3.460999999999997
 30
0
 11
1.750624812726872
 21
3.400000000000007
 31
0
  0
LINE
  8
0
 62
7
 10
1.644969713465161
 20
3.460999999999997
 30
0
 11
1.85627991198857
 21
3.460999999999997
 31
0
  0
LINE
  8
0
 62
7
 10
1.750624812726872
 20
3.400000000000007
 30
0
 11
1.644969713465161
 21
3.460999999999997
 31
0
  0
LINE
  8
0
 62
7
 10
1.750624812726872
 20
3.400000000000007
 30
0
 11
1.750624812726872
 21
3.944999999987846
 31
0
  0
LINE
  8
0
 62
7
  6
DASHED
 10
1.33
 20
10.96666666666667
 30
0
 11
2.39000015
 21
10.96666666666667
 31
0
  0
LINE
  8
0
 62
7
  6
DASHED
 10
2.39000015
 20
10.96666666666667
 30
0
 11
2.39000015
 21
10.90166666666667
 31
0
  0
LINE
  8
0
 62
7
  6
DASHED
 10
1.33
 20
10.90166666666667
 30
0
 11
1.33
 21
10.96666666666667
 31
0
  0
LINE
  8
0
 62
7
  6
DASHED
 10
2.39000015
 20
10.90166666666667
 30
0
 11
1.33
 21
10.90166666666667
 31
0
  0
LINE
  8
0
 62
7
 10
1.329999689999999
 20
10.78333322666667
 30
0
 11
2.390000299999998
 21
10.78333322666667
 31
0
  0
LINE
  8
0
 62
7
 10
2.390000299999998
 20
10.78333322666667
 30
0
 11
2.390000299999998
 21
10.71833322666667
 31
0
  0
LINE
  8
0
 62
7
 10
1.329999689999999
 20
10.71833322666667
 30
0
 11
1.329999689999999
 21
10.78333322666667
 31
0
  0
LINE
  8
0
 62
7
 10
2.390000299999998
 20
10.71833322666667
 30
0
 11
1.329999689999999
 21
10.71833322666667
 31
0
  0
LINE
  8
0
 62
7
 10
1.33
 20
10.59999994666667
 30
0
 11
2.39000015
 21
10.59999994666667
 31
0
  0
LINE
  8
0
 62
7
 10
2.39000015
 20
10.59999994666667
 30
0
 11
2.39000015
 21
10.53499994666667
 31
0
  0
LINE
  8
0
 62
7
 10
1.33
 20
10.53499994666667
 30
0
 11
1.33
 21
10.59999994666667
 31
0
  0
LINE
  8
0
 62
7
 10
2.39000015
 20
10.53499994666667
 30
0
 11
1.33
 21
10.53499994666667
 31
0
  0
LINE
  8
0
 62
7
 10
1.33
 20
10.41666666666667
 30
0
 11
2.39000015
 21
10.41666666666667
 31
0
  0
LINE
  8
0
 62
7
 10
2.39000015
 20
10.35166666666667
 30
0
 11
1.33
 21
10.35166666666667
 31
0
  0
LINE
  8
0
 62
7
 10
2.39000015
 20
10.41666666666667
 30
0
 11
2.39000015
 21
10.35166666666667
 31
0
  0
LINE
  8
0
 62
7
 10
1.33
 20
10.35166666666667
 30
0
 11
1.33
 21
10.41666666666667
 31
0
  0
LINE
  8
0
 62
7
 10
1.34679321
 20
10.23333322666667
 30
0
 11
2.39000015
 21
10.23333322666667
 31
0
  0
LINE
  8
0
 62
7
 10
2.39000015
 20
10.16833322666667
 30
0
 11
1.34679321
 21
10.16833322666667
 31
0
  0
LINE
  8
0
 62
7
 10
2.39000015
 20
10.23333322666667
 30
0
 11
2.39000015
 21
10.16833322666667
 31
0
  0
LINE
  8
0
 62
7
 10
1.34679321
 20
10.16833322666667
 30
0
 11
1.34679321
 21
10.23333322666667
 31
0
  0
LINE
  8
0
 62
7
 10
2.468513480000001
 20
9.984999946666669
 30
0
 11
1.886517329999999
 21
9.984999946666669
 31
0
  0
LINE
  8
0
 62
7
 10
1.886517329999999
 20
10.04999994666667
 30
0
 11
2.468513480000001
 21
10.04999994666667
 31
0
  0
LINE
  8
0
 62
7
 10
2.468513480000001
 20
10.04999994666667
 30
0
 11
2.468513480000001
 21
9.984999946666669
 31
0
  0
LINE
  8
0
 62
7
 10
1.886517329999999
 20
9.984999946666669
 30
0
 11
1.886517329999999
 21
10.04999994666667
 31
0
  0
LINE
  8
0
 62
7
 10
2.729702750000001
 20
9.801666666666669
 30
0
 11
2.2769458
 21
9.801666666666669
 31
0
  0
LINE
  8
0
 62
7
 10
2.2769458
 20
9.866666666666669
 30
0
 11
2.729702750000001
 21
9.866666666666669
 31
0
  0
LINE
  8
0
 62
7
 10
2.729702750000001
 20
9.866666666666669
 30
0
 11
2.729702750000001
 21
9.801666666666669
 31
0
  0
LINE
  8
0
 62
7
 10
2.2769458
 20
9.801666666666669
 30
0
 11
2.2769458
 21
9.866666666666669
 31
0
  0
LINE
  8
0
 62
7
 10
3.09895179000001
 20
9.618333226666666
 30
0
 11
2.48409439
 21
9.618333226666666
 31
0
  0
LINE
  8
0
 62
7
 10
2.48409439
 20
9.683333226666667
 30
0
 11
3.09895179000001
 21
9.683333226666667
 31
0
  0
LINE
  8
0
 62
7
 10
3.09895179000001
 20
9.683333226666667
 30
0
 11
3.09895179000001
 21
9.618333226666666
 31
0
  0
LINE
  8
0
 62
7
 10
2.48409439
 20
9.618333226666666
 30
0
 11
2.48409439
 21
9.683333226666667
 31
0
  0
LINE
  8
0
 62
7
 10
3.55210247
 20
9.434999946666668
 30
0
 11
2.5851181
 21
9.434999946666668
 31
0
  0
LINE
  8
0
 62
7
 10
2.5851181
 20
9.499999946666668
 30
0
 11
3.55210247
 21
9.499999946666668
 31
0
  0
LINE
  8
0
 62
7
 10
3.55210247
 20
9.499999946666668
 30
0
 11
3.55210247
 21
9.434999946666668
 31
0
  0
LINE
  8
0
 62
7
 10
2.5851181
 20
9.434999946666668
 30
0
 11
2.5851181
 21
9.499999946666668
 31
0
  0
LINE
  8
0
 62
7
 10
3.85499985
 20
9.251666586666667
 30
0
 11
2.716912990000001
 21
9.251666586666667
 31
0
  0
LINE
  8
0
 62
7
 10
2.716912990000001
 20
9.316666586666667
 30
0
 11
3.85499985
 21
9.316666586666667
 31
0
  0
LINE
  8
0
 62
7
 10
3.85499985
 20
9.316666586666667
 30
0
 11
3.85499985
 21
9.251666586666667
 31
0
  0
LINE
  8
0
 62
7
 10
2.716912990000001
 20
9.251666586666667
 30
0
 11
2.716912990000001
 21
9.316666586666667
 31
0
  0
LINE
  8
0
 62
7
 10
2.79499984
 20
9.133333226666666
 30
0
 11
3.855
 21
9.133333226666666
 31
0
  0
LINE
  8
0
 62
7
 10
3.855
 20
9.133333226666666
 30
0
 11
3.855
 21
9.068333226666665
 31
0
  0
LINE
  8
0
 62
7
 10
2.79499984
 20
9.068333226666665
 30
0
 11
2.79499984
 21
9.133333226666666
 31
0
  0
LINE
  8
0
 62
7
 10
3.855
 20
9.068333226666665
 30
0
 11
2.79499984
 21
9.068333226666665
 31
0
  0
LINE
  8
0
 62
7
 10
2.79499992
 20
8.949999906666665
 30
0
 11
3.85500002
 21
8.949999906666665
 31
0
  0
LINE
  8
0
 62
7
 10
3.85500002
 20
8.949999906666665
 30
0
 11
3.85500002
 21
8.884999906666664
 31
0
  0
LINE
  8
0
 62
7
 10
2.79499992
 20
8.884999906666664
 30
0
 11
2.79499992
 21
8.949999906666665
 31
0
  0
LINE
  8
0
 62
7
 10
3.85500002
 20
8.884999906666664
 30
0
 11
2.79499992
 21
8.884999906666664
 31
0
  0
LINE
  8
0
 62
7
 10
2.79499992
 20
8.766666566666668
 30
0
 11
3.854999399999999
 21
8.766666566666668
 31
0
  0
LINE
  8
0
 62
7
 10
3.854999399999999
 20
8.766666566666668
 30
0
 11
3.854999399999999
 21
8.701666566666667
 31
0
  0
LINE
  8
0
 62
7
 10
2.79499992
 20
8.701666566666667
 30
0
 11
2.79499992
 21
8.766666566666668
 31
0
  0
LINE
  8
0
 62
7
 10
3.854999399999999
 20
8.701666566666667
 30
0
 11
2.79499992
 21
8.701666566666667
 31
0
  0
LINE
  8
0
 62
7
 10
2.79499984
 20
8.583333226666666
 30
0
 11
3.85500031
 21
8.583333226666666
 31
0
  0
LINE
  8
0
 62
7
 10
3.85500031
 20
8.583333226666666
 30
0
 11
3.85500031
 21
8.518333226666666
 31
0
  0
LINE
  8
0
 62
7
 10
2.79499984
 20
8.518333226666666
 30
0
 11
2.79499984
 21
8.583333226666666
 31
0
  0
LINE
  8
0
 62
7
 10
3.85500031
 20
8.518333226666666
 30
0
 11
2.79499984
 21
8.518333226666666
 31
0
  0
LINE
  8
0
 62
7
 10
6.279999920000001
 20
10.96666666666667
 30
0
 11
6.655577090000001
 21
10.96666666666667
 31
0
  0
LINE
  8
0
 62
7
 10
6.655577090000001
 20
10.90166666666667
 30
0
 11
6.279999920000001
 21
10.90166666666667
 31
0
  0
LINE
  8
0
 62
7
 10
6.279999920000001
 20
10.90166666666667
 30
0
 11
6.279999920000001
 21
10.96666666666667
 31
0
  0
LINE
  8
0
 62
7
 10
6.655577090000001
 20
10.96666666666667
 30
0
 11
6.655577090000001
 21
10.90166666666667
 31
0
  0
LINE
  8
0
 62
7
 10
7.021057280000001
 20
10.71833322666667
 30
0
 11
6.324207040000001
 21
10.71833322666667
 31
0
  0
LINE
  8
0
 62
7
 10
6.324207040000001
 20
10.78333322666667
 30
0
 11
7.021057280000001
 21
10.78333322666667
 31
0
  0
LINE
  8
0
 62
7
 10
6.324207040000001
 20
10.71833322666667
 30
0
 11
6.324207040000001
 21
10.78333322666667
 31
0
  0
LINE
  8
0
 62
7
 10
7.021057280000001
 20
10.78333322666667
 30
0
 11
7.021057280000001
 21
10.71833322666667
 31
0
  0
LINE
  8
0
 62
7
 10
7.436062010000001
 20
10.53499994666667
 30
0
 11
6.416442790000001
 21
10.53499994666667
 31
0
  0
LINE
  8
0
 62
7
 10
6.416442790000001
 20
10.59999994666667
 30
0
 11
7.436062010000001
 21
10.59999994666667
 31
0
  0
LINE
  8
0
 62
7
 10
6.416442790000001
 20
10.53499994666667
 30
0
 11
6.416442790000001
 21
10.59999994666667
 31
0
  0
LINE
  8
0
 62
7
 10
7.436062010000001
 20
10.59999994666667
 30
0
 11
7.436062010000001
 21
10.53499994666667
 31
0
  0
LINE
  8
0
 62
7
 10
7.905000150000003
 20
10.35166666666667
 30
0
 11
6.50232849
 21
10.35166666666667
 31
0
  0
LINE
  8
0
 62
7
 10
6.50232849
 20
10.41666666666667
 30
0
 11
7.905000150000003
 21
10.41666666666667
 31
0
  0
LINE
  8
0
 62
7
 10
6.50232849
 20
10.35166666666667
 30
0
 11
6.50232849
 21
10.41666666666667
 31
0
  0
LINE
  8
0
 62
7
 10
7.905000150000003
 20
10.41666666666667
 30
0
 11
7.905000150000003
 21
10.35166666666667
 31
0
  0
LINE
  8
0
 62
7
 10
6.565003739999999
 20
10.23333322666667
 30
0
 11
7.905
 21
10.23333322666667
 31
0
  0
LINE
  8
0
 62
7
 10
7.905
 20
10.16833322666667
 30
0
 11
6.565003739999999
 21
10.16833322666667
 31
0
  0
LINE
  8
0
 62
7
 10
6.565003739999999
 20
10.16833322666667
 30
0
 11
6.565003739999999
 21
10.23333322666667
 31
0
  0
LINE
  8
0
 62
7
 10
7.905
 20
10.23333322666667
 30
0
 11
7.905
 21
10.16833322666667
 31
0
  0
LINE
  8
0
 62
7
 10
6.739558100000012
 20
10.04999994666667
 30
0
 11
7.905000299999998
 21
10.04999994666667
 31
0
  0
LINE
  8
0
 62
7
 10
7.905000299999998
 20
9.984999946666669
 30
0
 11
6.739558100000012
 21
9.984999946666669
 31
0
  0
LINE
  8
0
 62
7
 10
6.739558100000012
 20
9.984999946666669
 30
0
 11
6.739558100000012
 21
10.04999994666667
 31
0
  0
LINE
  8
0
 62
7
 10
7.905000299999998
 20
10.04999994666667
 30
0
 11
7.905000299999998
 21
9.984999946666669
 31
0
  0
LINE
  8
0
 62
7
 10
6.84499985
 20
9.866666666666669
 30
0
 11
7.905
 21
9.866666666666669
 31
0
  0
LINE
  8
0
 62
7
 10
6.84499985
 20
9.801666666666669
 30
0
 11
6.84499985
 21
9.866666666666669
 31
0
  0
LINE
  8
0
 62
7
 10
7.905
 20
9.866666666666669
 30
0
 11
7.905
 21
9.801666666666669
 31
0
  0
LINE
  8
0
 62
7
 10
7.905
 20
9.801666666666669
 30
0
 11
6.84499985
 21
9.801666666666669
 31
0
  0
LINE
  8
0
 62
7
 10
6.84499985
 20
9.683333226666667
 30
0
 11
7.905
 21
9.683333226666667
 31
0
  0
LINE
  8
0
 62
7
 10
6.84499985
 20
9.618333226666666
 30
0
 11
6.84499985
 21
9.683333226666667
 31
0
  0
LINE
  8
0
 62
7
 10
7.905
 20
9.683333226666667
 30
0
 11
7.905
 21
9.618333226666666
 31
0
  0
LINE
  8
0
 62
7
 10
7.905
 20
9.618333226666666
 30
0
 11
6.84499985
 21
9.618333226666666
 31
0
  0
LINE
  8
0
 62
7
 10
6.844999920000001
 20
9.499999946666668
 30
0
 11
7.905000150000003
 21
9.499999946666668
 31
0
  0
LINE
  8
0
 62
7
 10
6.844999920000001
 20
9.434999946666668
 30
0
 11
6.844999920000001
 21
9.499999946666668
 31
0
  0
LINE
  8
0
 62
7
 10
7.905000150000003
 20
9.499999946666668
 30
0
 11
7.905000150000003
 21
9.434999946666668
 31
0
  0
LINE
  8
0
 62
7
 10
7.905000150000003
 20
9.434999946666668
 30
0
 11
6.844999920000001
 21
9.434999946666668
 31
0
  0
LINE
  8
0
 62
7
 10
7.905
 20
9.251666586666667
 30
0
 11
6.713839190000001
 21
9.251666586666667
 31
0
  0
LINE
  8
0
 62
7
 10
6.713839190000001
 20
9.316666586666667
 30
0
 11
7.905
 21
9.316666586666667
 31
0
  0
LINE
  8
0
 62
7
 10
6.713839190000001
 20
9.251666586666667
 30
0
 11
6.713839190000001
 21
9.316666586666667
 31
0
  0
LINE
  8
0
 62
7
 10
7.905
 20
9.316666586666667
 30
0
 11
7.905
 21
9.251666586666667
 31
0
  0
LINE
  8
0
 62
7
 10
7.764202880000011
 20
9.068333226666665
 30
0
 11
6.570413820000012
 21
9.068333226666665
 31
0
  0
LINE
  8
0
 62
7
 10
6.570413820000012
 20
9.133333226666666
 30
0
 11
7.764202880000011
 21
9.133333226666666
 31
0
  0
LINE
  8
0
 62
7
 10
6.570413820000012
 20
9.068333226666665
 30
0
 11
6.570413820000012
 21
9.133333226666666
 31
0
  0
LINE
  8
0
 62
7
 10
7.764202880000011
 20
9.133333226666666
 30
0
 11
7.764202880000011
 21
9.068333226666665
 31
0
  0
LINE
  8
0
 62
7
 10
7.275219570000001
 20
8.884999906666664
 30
0
 11
6.45236435000001
 21
8.884999906666664
 31
0
  0
LINE
  8
0
 62
7
 10
6.45236435000001
 20
8.949999906666665
 30
0
 11
7.275219570000001
 21
8.949999906666665
 31
0
  0
LINE
  8
0
 62
7
 10
6.45236435000001
 20
8.884999906666664
 30
0
 11
6.45236435000001
 21
8.949999906666665
 31
0
  0
LINE
  8
0
 62
7
 10
7.275219570000001
 20
8.949999906666665
 30
0
 11
7.275219570000001
 21
8.884999906666664
 31
0
  0
LINE
  8
0
 62
7
 10
6.908247070000001
 20
8.701666566666656
 30
0
 11
6.331732020000014
 21
8.701666566666656
 31
0
  0
LINE
  8
0
 62
7
 10
6.331732020000014
 20
8.766666566666656
 30
0
 11
6.908247070000001
 21
8.766666566666656
 31
0
  0
LINE
  8
0
 62
7
 10
6.331732020000014
 20
8.701666566666656
 30
0
 11
6.331732020000014
 21
8.766666566666656
 31
0
  0
LINE
  8
0
 62
7
 10
6.908247070000001
 20
8.766666566666656
 30
0
 11
6.908247070000001
 21
8.701666566666656
 31
0
  0
LINE
  8
0
 62
7
 10
6.14999981
 20
8.583333226666666
 30
0
 11
6.552161940000011
 21
8.583333226666666
 31
0
  0
LINE
  8
0
 62
7
 10
6.552161940000011
 20
8.518333226666666
 30
0
 11
6.14999981
 21
8.518333226666666
 31
0
  0
LINE
  8
0
 62
7
 10
6.14999981
 20
8.518333226666666
 30
0
 11
6.14999981
 21
8.583333226666666
 31
0
  0
LINE
  8
0
 62
7
 10
6.552161940000011
 20
8.583333226666666
 30
0
 11
6.552161940000011
 21
8.518333226666666
 31
0
  0
LINE
  8
0
 62
7
 10
0.9500000000000001
 20
8.100000000000005
 30
0
 11
1.1
 21
8.100000000000005
 31
0
  0
LINE
  8
0
 62
7
 10
0.9500000000000001
 20
8.300000000000004
 30
0
 11
1.1
 21
8.300000000000004
 31
0
  0
LINE
  8
0
 62
7
 10
0.9500000000000001
 20
10.85
 30
0
 11
1.1
 21
10.85
 31
0
  0
LINE
  8
0
 62
7
 10
0.9500000000000001
 20
11.05
 30
0
 11
1.1
 21
11.05
 31
0
  0
LINE
  8
0
 62
7
 10
1.1
 20
7.950000000000006
 30
0
 11
1.1
 21
8.100000000000005
 31
0
  0
LINE
  8
0
 62
7
 10
1.1
 20
8.100000000000005
 30
0
 11
1.275
 21
8.100000000000005
 31
0
  0
LINE
  8
0
 62
7
 10
1.1
 20
8.300000000000004
 30
0
 11
1.1
 21
8.400000000000004
 31
0
  0
LINE
  8
0
 62
7
 10
1.1
 20
8.300000000000004
 30
0
 11
1.275
 21
8.300000000000004
 31
0
  0
LINE
  8
0
 62
7
 10
1.1
 20
10.85
 30
0
 11
1.275
 21
10.85
 31
0
  0
LINE
  8
0
 62
7
 10
1.1
 20
11.05
 30
0
 11
1.1
 21
11.15
 31
0
  0
LINE
  8
0
 62
7
 10
1.1
 20
11.05
 30
0
 11
1.275
 21
11.05
 31
0
  0
LINE
  8
0
 62
7
 10
1.275
 20
7.950000000000006
 30
0
 11
1.275
 21
8.100000000000005
 31
0
  0
LINE
  8
0
 62
7
 10
1.275
 20
8.100000000000005
 30
0
 11
3.91
 21
8.100000000000005
 31
0
  0
LINE
  8
0
 62
7
 10
1.275
 20
8.300000000000004
 30
0
 11
1.275
 21
8.400000000000004
 31
0
  0
LINE
  8
0
 62
7
 10
1.275
 20
8.300000000000004
 30
0
 11
3.91
 21
8.300000000000004
 31
0
  0
LINE
  8
0
 62
7
 10
1.275
 20
10.85
 30
0
 11
3.91
 21
10.85
 31
0
  0
LINE
  8
0
 62
7
 10
1.275
 20
11.05
 30
0
 11
1.275
 21
11.15
 31
0
  0
LINE
  8
0
 62
7
 10
1.275
 20
11.05
 30
0
 11
3.91
 21
11.05
 31
0
  0
LINE
  8
0
 62
7
 10
3.91
 20
7.950000000000006
 30
0
 11
3.91
 21
8.100000000000005
 31
0
  0
LINE
  8
0
 62
7
 10
3.91
 20
8.100000000000005
 30
0
 11
4.085
 21
8.100000000000005
 31
0
  0
LINE
  8
0
 62
7
 10
3.91
 20
8.300000000000004
 30
0
 11
3.91
 21
8.400000000000004
 31
0
  0
LINE
  8
0
 62
7
 10
3.91
 20
8.300000000000004
 30
0
 11
4.085
 21
8.300000000000004
 31
0
  0
LINE
  8
0
 62
7
 10
3.91
 20
10.85
 30
0
 11
4.085
 21
10.85
 31
0
  0
LINE
  8
0
 62
7
 10
3.91
 20
11.05
 30
0
 11
3.91
 21
11.15
 31
0
  0
LINE
  8
0
 62
7
 10
3.91
 20
11.05
 30
0
 11
4.085
 21
11.05
 31
0
  0
LINE
  8
0
 62
7
 10
4.085
 20
7.950000000000006
 30
0
 11
4.085
 21
8.100000000000005
 31
0
  0
LINE
  8
0
 62
7
 10
4.085
 20
8.100000000000005
 30
0
 11
4.234999999999999
 21
8.100000000000005
 31
0
  0
LINE
  8
0
 62
7
 10
4.085
 20
8.300000000000004
 30
0
 11
4.085
 21
8.400000000000004
 31
0
  0
LINE
  8
0
 62
7
 10
4.085
 20
8.300000000000004
 30
0
 11
4.234999999999999
 21
8.300000000000004
 31
0
  0
LINE
  8
0
 62
7
 10
4.085
 20
10.85
 30
0
 11
4.234999999999999
 21
10.85
 31
0
  0
LINE
  8
0
 62
7
 10
4.085
 20
11.05
 30
0
 11
4.085
 21
11.15
 31
0
  0
LINE
  8
0
 62
7
 10
4.085
 20
11.05
 30
0
 11
4.234999999999999
 21
11.05
 31
0
  0
LINE
  8
0
 62
7
  6
DASHDOT
 10
0.9500000000000001
 20
8.050000000000004
 30
0
 11
0.9500000000000001
 21
8.100000000000005
 31
0
  0
LINE
  8
0
 62
7
  6
DASHDOT
 10
0.9500000000000001
 20
10.8
 30
0
 11
0.9500000000000001
 21
10.85
 31
0
  0
LINE
  8
0
 62
7
  6
DASHDOT
 10
4.234999999999999
 20
8.050000000000004
 30
0
 11
4.234999999999999
 21
8.100000000000005
 31
0
  0
LINE
  8
0
 62
7
  6
DASHDOT
 10
4.234999999999999
 20
10.8
 30
0
 11
4.234999999999999
 21
10.85
 31
0
  0
LINE
  8
0
 62
7
  6
DASHDOT
 10
1.05
 20
11.2
 30
0
 11
1.1
 21
11.2
 31
0
  0
LINE
  8
0
 62
7
  6
DASHDOT
 10
1.05
 20
7.950000000000006
 30
0
 11
1.1
 21
7.950000000000006
 31
0
  0
LINE
  8
0
 62
7
  6
DASHDOT
 10
3.86
 20
11.2
 30
0
 11
3.91
 21
11.2
 31
0
  0
LINE
  8
0
 62
7
  6
DASHDOT
 10
3.86
 20
7.950000000000006
 30
0
 11
3.91
 21
7.950000000000006
 31
0
  0
LINE
  8
0
 62
7
 10
0.9500000000000001
 20
8.400000000000004
 30
0
 11
1.1
 21
8.400000000000004
 31
0
  0
LINE
  8
0
 62
7
 10
1.1
 20
8.400000000000004
 30
0
 11
1.1
 21
10.85
 31
0
  0
LINE
  8
0
 62
7
  6
DASHDOT
 10
0.9500000000000001
 20
8.400000000000004
 30
0
 11
0.9500000000000001
 21
8.450000000000005
 31
0
  0
LINE
  8
0
 62
7
 10
1.275
 20
8.400000000000004
 30
0
 11
3.91
 21
8.400000000000004
 31
0
  0
LINE
  8
0
 62
7
 10
1.275
 20
8.400000000000004
 30
0
 11
1.275
 21
10.85
 31
0
  0
LINE
  8
0
 62
7
 10
3.91
 20
8.400000000000004
 30
0
 11
3.91
 21
10.85
 31
0
  0
LINE
  8
0
 62
7
 10
4.085
 20
8.400000000000004
 30
0
 11
4.234999999999999
 21
8.400000000000004
 31
0
  0
LINE
  8
0
 62
7
 10
4.085
 20
8.400000000000004
 30
0
 11
4.085
 21
10.85
 31
0
  0
LINE
  8
0
 62
7
  6
DASHDOT
 10
4.234999999999999
 20
8.400000000000004
 30
0
 11
4.234999999999999
 21
8.450000000000005
 31
0
  0
LINE
  8
0
 62
7
 10
0.9500000000000001
 20
11.15
 30
0
 11
1.1
 21
11.15
 31
0
  0
LINE
  8
0
 62
7
 10
1.1
 20
11.15
 30
0
 11
1.1
 21
11.2
 31
0
  0
LINE
  8
0
 62
7
  6
DASHDOT
 10
0.9500000000000001
 20
11.15
 30
0
 11
0.9500000000000001
 21
11.2
 31
0
  0
LINE
  8
0
 62
7
 10
1.275
 20
11.15
 30
0
 11
3.91
 21
11.15
 31
0
  0
LINE
  8
0
 62
7
 10
1.275
 20
11.15
 30
0
 11
1.275
 21
11.2
 31
0
  0
LINE
  8
0
 62
7
 10
3.91
 20
11.15
 30
0
 11
3.91
 21
11.2
 31
0
  0
LINE
  8
0
 62
7
 10
4.085
 20
11.15
 30
0
 11
4.234999999999999
 21
11.15
 31
0
  0
LINE
  8
0
 62
7
 10
4.085
 20
11.15
 30
0
 11
4.085
 21
11.2
 31
0
  0
LINE
  8
0
 62
7
  6
DASHDOT
 10
4.234999999999999
 20
11.15
 30
0
 11
4.234999999999999
 21
11.2
 31
0
  0
LINE
  8
0
 62
7
  6
DASHDOT
 10
4.234999999999999
 20
8.100000000000005
 30
0
 11
4.234999999999999
 21
8.300000000000004
 31
0
  0
LINE
  8
0
 62
7
  6
DASHDOT
 10
4.234999999999999
 20
8.300000000000004
 30
0
 11
4.234999999999999
 21
8.400000000000004
 31
0
  0
LINE
  8
0
 62
7
  6
DASHDOT
 10
3.91
 20
7.950000000000006
 30
0
 11
4.085
 21
7.950000000000006
 31
0
  0
LINE
  8
0
 62
7
  6
DASHDOT
 10
4.085
 20
7.950000000000006
 30
0
 11
4.135000000000001
 21
7.950000000000006
 31
0
  0
LINE
  8
0
 62
7
  6
DASHDOT
 10
0.9500000000000001
 20
8.100000000000005
 30
0
 11
0.9500000000000001
 21
8.300000000000004
 31
0
  0
LINE
  8
0
 62
7
  6
DASHDOT
 10
0.9500000000000001
 20
8.300000000000004
 30
0
 11
0.9500000000000001
 21
8.400000000000004
 31
0
  0
LINE
  8
0
 62
7
  6
DASHDOT
 10
1.1
 20
7.950000000000006
 30
0
 11
1.275
 21
7.950000000000006
 31
0
  0
LINE
  8
0
 62
7
  6
DASHDOT
 10
1.275
 20
7.950000000000006
 30
0
 11
1.325
 21
7.950000000000006
 31
0
  0
LINE
  8
0
 62
7
  6
DASHDOT
 10
0.9500000000000001
 20
10.85
 30
0
 11
0.9500000000000001
 21
11.05
 31
0
  0
LINE
  8
0
 62
7
  6
DASHDOT
 10
0.9500000000000001
 20
11.05
 30
0
 11
0.9500000000000001
 21
11.15
 31
0
  0
LINE
  8
0
 62
7
  6
DASHDOT
 10
1.1
 20
11.2
 30
0
 11
1.275
 21
11.2
 31
0
  0
LINE
  8
0
 62
7
  6
DASHDOT
 10
1.275
 20
11.2
 30
0
 11
1.325
 21
11.2
 31
0
  0
LINE
  8
0
 62
7
  6
DASHDOT
 10
4.234999999999999
 20
10.85
 30
0
 11
4.234999999999999
 21
11.05
 31
0
  0
LINE
  8
0
 62
7
  6
DASHDOT
 10
4.234999999999999
 20
11.05
 30
0
 11
4.234999999999999
 21
11.15
 31
0
  0
LINE
  8
0
 62
7
  6
DASHDOT
 10
3.91
 20
11.2
 30
0
 11
4.085
 21
11.2
 31
0
  0
LINE
  8
0
 62
7
  6
DASHDOT
 10
4.085
 20
11.2
 30
0
 11
4.135000000000001
 21
11.2
 31
0
  0
LINE
  8
0
 62
7
 10
8.199999999999999
 20
8.100000000000005
 30
0
 11
8.199999999999999
 21
7.950000000000006
 31
0
  0
LINE
  8
0
 62
7
 10
7.96
 20
11.05
 30
0
 11
7.96
 21
11.2
 31
0
  0
LINE
  8
0
 62
7
 10
7.96
 20
11.05
 30
0
 11
8.199999999999999
 21
11.05
 31
0
  0
LINE
  8
0
 62
7
 10
8.199999999999999
 20
11.2
 30
0
 11
8.199999999999999
 21
11.05
 31
0
  0
LINE
  8
0
 62
7
 10
7.96
 20
10.85
 30
0
 11
7.96
 21
11.05
 31
0
  0
LINE
  8
0
 62
7
 10
7.96
 20
10.85
 30
0
 11
8.199999999999999
 21
10.85
 31
0
  0
LINE
  8
0
 62
7
 10
8.199999999999999
 20
11.05
 30
0
 11
8.199999999999999
 21
10.85
 31
0
  0
LINE
  8
0
 62
7
 10
7.96
 20
8.300000000000004
 30
0
 11
7.96
 21
10.85
 31
0
  0
LINE
  8
0
 62
7
 10
7.96
 20
8.300000000000004
 30
0
 11
8.199999999999999
 21
8.300000000000004
 31
0
  0
LINE
  8
0
 62
7
 10
8.199999999999999
 20
10.85
 30
0
 11
8.199999999999999
 21
8.300000000000004
 31
0
  0
LINE
  8
0
 62
7
 10
7.96
 20
8.100000000000005
 30
0
 11
7.96
 21
8.300000000000004
 31
0
  0
LINE
  8
0
 62
7
 10
7.96
 20
8.100000000000005
 30
0
 11
8.199999999999999
 21
8.100000000000005
 31
0
  0
LINE
  8
0
 62
7
 10
8.199999999999999
 20
8.300000000000004
 30
0
 11
8.199999999999999
 21
8.100000000000005
 31
0
  0
LINE
  8
0
 62
7
 10
7.96
 20
7.950000000000006
 30
0
 11
7.96
 21
8.100000000000005
 31
0
  0
LINE
  8
0
 62
7
 10
6.25
 20
10.85
 30
0
 11
6.25
 21
11.05
 31
0
  0
LINE
  8
0
 62
7
 10
5.949999999999999
 20
10.85
 30
0
 11
6.25
 21
10.85
 31
0
  0
LINE
  8
0
 62
7
 10
5.949999999999999
 20
11.05
 30
0
 11
6.25
 21
11.05
 31
0
  0
LINE
  8
0
 62
7
 10
5.949999999999999
 20
8.300000000000004
 30
0
 11
6.25
 21
8.300000000000004
 31
0
  0
LINE
  8
0
 62
7
 10
6.25
 20
8.100000000000005
 30
0
 11
6.25
 21
8.300000000000004
 31
0
  0
LINE
  8
0
 62
7
 10
5.949999999999999
 20
8.100000000000005
 30
0
 11
6.25
 21
8.100000000000005
 31
0
  0
LINE
  8
0
 62
7
  6
DASHDOT
 10
8.199999999999999
 20
11.2
 30
0
 11
8.249999999999998
 21
11.2
 31
0
  0
LINE
  8
0
 62
7
  6
DASHDOT
 10
5.949999999999999
 20
11.15
 30
0
 11
5.949999999999999
 21
11.2
 31
0
  0
LINE
  8
0
 62
7
  6
DASHDOT
 10
5.949999999999999
 20
8.100000000000005
 30
0
 11
5.949999999999999
 21
8.050000000000004
 31
0
  0
LINE
  8
0
 62
7
  6
DASHDOT
 10
8.199999999999999
 20
7.950000000000006
 30
0
 11
8.249999999999998
 21
7.950000000000006
 31
0
  0
LINE
  8
0
 62
7
 10
5.949999999999999
 20
8.400000000000004
 30
0
 11
6.25
 21
8.400000000000004
 31
0
  0
LINE
  8
0
 62
7
  6
DASHDOT
 10
5.949999999999999
 20
8.450000000000005
 30
0
 11
5.949999999999999
 21
8.400000000000004
 31
0
  0
LINE
  8
0
 62
7
 10
5.949999999999999
 20
11.15
 30
0
 11
6.25
 21
11.15
 31
0
  0
LINE
  8
0
 62
7
  6
DASHDOT
 10
5.949999999999999
 20
11.05
 30
0
 11
5.949999999999999
 21
11.15
 31
0
  0
LINE
  8
0
 62
7
  6
DASHDOT
 10
5.949999999999999
 20
8.400000000000004
 30
0
 11
5.949999999999999
 21
8.300000000000004
 31
0
  0
LINE
  8
0
 62
7
  6
DASHDOT
 10
5.949999999999999
 20
8.300000000000004
 30
0
 11
5.949999999999999
 21
8.100000000000005
 31
0
  0
LINE
  8
0
 62
7
  6
DASHDOT
 10
7.96
 20
7.950000000000006
 30
0
 11
8.199999999999999
 21
7.950000000000006
 31
0
  0
LINE
  8
0
 62
7
  6
DASHDOT
 10
7.91
 20
7.950000000000006
 30
0
 11
7.96
 21
7.950000000000006
 31
0
  0
LINE
  8
0
 62
7
  6
DASHDOT
 10
7.91
 20
11.2
 30
0
 11
7.96
 21
11.2
 31
0
  0
LINE
  8
0
 62
7
  6
DASHDOT
 10
7.96
 20
11.2
 30
0
 11
8.199999999999999
 21
11.2
 31
0
  0
LINE
  8
0
 62
7
  6
DASHDOT
 10
5.949999999999999
 20
10.8
 30
0
 11
5.949999999999999
 21
10.85
 31
0
  0
LINE
  8
0
 62
7
  6
DASHDOT
 10
5.949999999999999
 20
10.85
 30
0
 11
5.949999999999999
 21
11.05
 31
0
  0
LINE
  8
0
 62
7
  6
DASHED
 10
6.25
 20
11.05
 30
0
 11
7.96
 21
11.05
 31
0
  0
LINE
  8
0
 62
7
  6
DASHED
 10
6.25
 20
10.85
 30
0
 11
7.96
 21
10.85
 31
0
  0
LINE
  8
0
 62
7
  6
DASHED
 10
6.25
 20
8.300000000000004
 30
0
 11
7.96
 21
8.300000000000004
 31
0
  0
LINE
  8
0
 62
7
  6
DASHED
 10
6.25
 20
8.100000000000005
 30
0
 11
7.96
 21
8.100000000000005
 31
0
  0
LINE
  8
0
 62
7
 10
4.085
 20
5.579999999999997
 30
0
 11
4.234999999999999
 21
5.579999999999997
 31
0
  0
LINE
  8
0
 62
7
 10
4.085
 20
5.729999999999997
 30
0
 11
4.085
 21
5.579999999999997
 31
0
  0
LINE
  8
0
 62
7
 10
3.91
 20
5.579999999999997
 30
0
 11
3.91
 21
5.729999999999997
 31
0
  0
LINE
  8
0
 62
7
 10
1.275
 20
5.579999999999997
 30
0
 11
3.91
 21
5.579999999999997
 31
0
  0
LINE
  8
0
 62
7
 10
1.275
 20
5.729999999999997
 30
0
 11
1.275
 21
5.579999999999997
 31
0
  0
LINE
  8
0
 62
7
 10
1.1
 20
5.579999999999997
 30
0
 11
1.1
 21
5.729999999999997
 31
0
  0
LINE
  8
0
 62
7
 10
0.9350000000000001
 20
5.579999999999997
 30
0
 11
1.1
 21
5.579999999999997
 31
0
  0
LINE
  8
0
 62
7
 10
0.9350000000000001
 20
5.340000000000006
 30
0
 11
4.234999999999999
 21
5.340000000000006
 31
0
  0
LINE
  8
0
 62
7
 10
0.9350000000000001
 20
5.300000000000006
 30
0
 11
4.234999999999999
 21
5.300000000000006
 31
0
  0
LINE
  8
0
 62
7
 10
4.085
 20
5.060000000000007
 30
0
 11
4.234999999999999
 21
5.060000000000007
 31
0
  0
LINE
  8
0
 62
7
 10
3.91
 20
3.350000000000007
 30
0
 11
3.91
 21
3.250000000000007
 31
0
  0
LINE
  8
0
 62
7
 10
3.91
 20
3.250000000000007
 30
0
 11
4.085
 21
3.250000000000007
 31
0
  0
LINE
  8
0
 62
7
 10
4.085
 20
3.250000000000007
 30
0
 11
4.085
 21
5.060000000000007
 31
0
  0
LINE
  8
0
 62
7
 10
1.275
 20
5.060000000000007
 30
0
 11
3.91
 21
5.060000000000007
 31
0
  0
LINE
  8
0
 62
7
 10
1.275
 20
3.400000000000007
 30
0
 11
1.275
 21
5.060000000000007
 31
0
  0
LINE
  8
0
 62
7
 10
1.1
 20
5.060000000000007
 30
0
 11
1.1
 21
3.350000000000007
 31
0
  0
LINE
  8
0
 62
7
 10
0.9350000000000001
 20
5.060000000000007
 30
0
 11
1.1
 21
5.060000000000007
 31
0
  0
LINE
  8
0
 62
7
 10
1.1
 20
3.350000000000007
 30
0
 11
1.275
 21
3.350000000000007
 31
0
  0
LINE
  8
0
 62
7
 10
3.91
 20
3.400000000000007
 30
0
 11
1.275
 21
3.400000000000007
 31
0
  0
LINE
  8
0
 62
7
 10
3.91
 20
5.060000000000007
 30
0
 11
3.91
 21
3.400000000000007
 31
0
  0
LINE
  8
0
 62
7
 10
1.275
 20
3.350000000000007
 30
0
 11
1.275
 21
3.400000000000007
 31
0
  0
LINE
  8
0
 62
7
  6
DASHDOT
 10
3.91
 20
3.350000000000007
 30
0
 11
1.275
 21
3.350000000000007
 31
0
  0
LINE
  8
0
 62
7
 10
3.91
 20
3.400000000000007
 30
0
 11
3.91
 21
3.350000000000007
 31
0
  0
LINE
  8
0
 62
7
  6
DASHDOT
 10
4.085
 20
5.729999999999997
 30
0
 11
4.135000000000001
 21
5.729999999999997
 31
0
  0
LINE
  8
0
 62
7
  6
DASHDOT
 10
1.275
 20
5.729999999999997
 30
0
 11
1.325
 21
5.729999999999997
 31
0
  0
LINE
  8
0
 62
7
  6
DASHDOT
 10
4.234999999999999
 20
5.579999999999997
 30
0
 11
4.234999999999999
 21
5.629999999999996
 31
0
  0
LINE
  8
0
 62
7
  6
DASHDOT
 10
0.9350000000000001
 20
5.579999999999997
 30
0
 11
0.9350000000000001
 21
5.629999999999996
 31
0
  0
LINE
  8
0
 62
7
  6
DASHDOT
 10
0.9350000000000001
 20
5.340000000000006
 30
0
 11
0.9350000000000001
 21
5.579999999999997
 31
0
  0
LINE
  8
0
 62
7
  6
DASHDOT
 10
0.9350000000000001
 20
5.010000000000007
 30
0
 11
0.9350000000000001
 21
5.060000000000007
 31
0
  0
LINE
  8
0
 62
7
  6
DASHDOT
 10
3.91
 20
5.729999999999997
 30
0
 11
4.085
 21
5.729999999999997
 31
0
  0
LINE
  8
0
 62
7
  6
DASHDOT
 10
3.86
 20
5.729999999999997
 30
0
 11
3.91
 21
5.729999999999997
 31
0
  0
LINE
  8
0
 62
7
  6
DASHDOT
 10
4.234999999999999
 20
5.340000000000006
 30
0
 11
4.234999999999999
 21
5.579999999999997
 31
0
  0
LINE
  8
0
 62
7
  6
DASHDOT
 10
4.234999999999999
 20
5.010000000000007
 30
0
 11
4.234999999999999
 21
5.060000000000007
 31
0
  0
LINE
  8
0
 62
7
  6
DASHDOT
 10
0.9350000000000001
 20
5.300000000000006
 30
0
 11
0.9350000000000001
 21
5.340000000000006
 31
0
  0
LINE
  8
0
 62
7
  6
DASHDOT
 10
4.234999999999999
 20
5.300000000000006
 30
0
 11
4.234999999999999
 21
5.340000000000006
 31
0
  0
LINE
  8
0
 62
7
  6
DASHDOT
 10
0.9350000000000001
 20
5.060000000000007
 30
0
 11
0.9350000000000001
 21
5.300000000000006
 31
0
  0
LINE
  8
0
 62
7
  6
DASHDOT
 10
4.234999999999999
 20
5.060000000000007
 30
0
 11
4.234999999999999
 21
5.300000000000006
 31
0
  0
LINE
  8
0
 62
7
  6
DASHDOT
 10
1.05
 20
5.729999999999997
 30
0
 11
1.1
 21
5.729999999999997
 31
0
  0
LINE
  8
0
 62
7
  6
DASHDOT
 10
1.1
 20
5.729999999999997
 30
0
 11
1.275
 21
5.729999999999997
 31
0
  0
LINE
  8
0
 62
7
 10
1.76791831984898
 20
4.75183732470335
 30
0
 11
1.76791831984898
 21
4.87183732470335
 31
0
  0
LINE
  8
0
 62
7
 10
1.84351831984898
 20
4.87183732470335
 30
0
 11
1.78951831984898
 21
4.81183732470335
 31
0
  0
LINE
  8
0
 62
7
 10
1.78951831984898
 20
4.81183732470335
 30
0
 11
1.84351831984898
 21
4.75183732470335
 31
0
  0
LINE
  8
0
 62
7
 10
1.78951831984898
 20
4.81183732470335
 30
0
 11
1.76791831984898
 21
4.787837324703349
 31
0
  0
LINE
  8
0
 62
7
 10
1.95151831984898
 20
4.87183732470335
 30
0
 11
1.87591831984898
 21
4.87183732470335
 31
0
  0
LINE
  8
0
 62
7
 10
1.87591831984898
 20
4.87183732470335
 30
0
 11
1.87591831984898
 21
4.81183732470335
 31
0
  0
LINE
  8
0
 62
7
 10
1.87591831984898
 20
4.75183732470335
 30
0
 11
1.95151831984898
 21
4.75183732470335
 31
0
  0
LINE
  8
0
 62
7
 10
1.94071831984898
 20
4.81183732470335
 30
0
 11
1.87591831984898
 21
4.81183732470335
 31
0
  0
LINE
  8
0
 62
7
 10
1.87591831984898
 20
4.81183732470335
 30
0
 11
1.87591831984898
 21
4.75183732470335
 31
0
  0
LINE
  8
0
 62
7
 10
1.98391831984898
 20
4.75183732470335
 30
0
 11
1.98391831984898
 21
4.87183732470335
 31
0
  0
LINE
  8
0
 62
7
 10
1.98391831984898
 20
4.87183732470335
 30
0
 11
2.05951831984898
 21
4.75183732470335
 31
0
  0
LINE
  8
0
 62
7
 10
2.05951831984898
 20
4.75183732470335
 30
0
 11
2.05951831984898
 21
4.87183732470335
 31
0
  0
LINE
  8
0
 62
7
 10
2.09191831984898
 20
4.75183732470335
 30
0
 11
2.09191831984898
 21
4.87183732470335
 31
0
  0
LINE
  8
0
 62
7
 10
2.09191831984898
 20
4.87183732470335
 30
0
 11
2.16751831984898
 21
4.75183732470335
 31
0
  0
LINE
  8
0
 62
7
 10
2.16751831984898
 20
4.75183732470335
 30
0
 11
2.16751831984898
 21
4.87183732470335
 31
0
  0
LINE
  8
0
 62
7
 10
2.27551831984898
 20
4.835837324703351
 30
0
 11
2.27281831984898
 21
4.84783732470335
 31
0
  0
LINE
  8
0
 62
7
 10
2.27281831984898
 20
4.84783732470335
 30
0
 11
2.26741831984898
 21
4.85683732470335
 31
0
  0
LINE
  8
0
 62
7
 10
2.26741831984898
 20
4.85683732470335
 30
0
 11
2.26201831984898
 21
4.862837324703349
 31
0
  0
LINE
  8
0
 62
7
 10
2.26201831984898
 20
4.862837324703349
 30
0
 11
2.25391831984898
 21
4.868837324703351
 31
0
  0
LINE
  8
0
 62
7
 10
2.25391831984898
 20
4.868837324703351
 30
0
 11
2.245818319848981
 21
4.87183732470335
 31
0
  0
LINE
  8
0
 62
7
 10
2.245818319848981
 20
4.87183732470335
 30
0
 11
2.22961831984898
 21
4.87183732470335
 31
0
  0
LINE
  8
0
 62
7
 10
2.22961831984898
 20
4.87183732470335
 30
0
 11
2.22151831984898
 21
4.868837324703351
 31
0
  0
LINE
  8
0
 62
7
 10
2.22151831984898
 20
4.868837324703351
 30
0
 11
2.21341831984898
 21
4.862837324703349
 31
0
  0
LINE
  8
0
 62
7
 10
2.21341831984898
 20
4.862837324703349
 30
0
 11
2.20801831984898
 21
4.85683732470335
 31
0
  0
LINE
  8
0
 62
7
 10
2.20801831984898
 20
4.85683732470335
 30
0
 11
2.20261831984898
 21
4.84783732470335
 31
0
  0
LINE
  8
0
 62
7
 10
2.20261831984898
 20
4.84783732470335
 30
0
 11
2.19991831984898
 21
4.835837324703351
 31
0
  0
LINE
  8
0
 62
7
 10
2.19991831984898
 20
4.835837324703351
 30
0
 11
2.19991831984898
 21
4.787837324703349
 31
0
  0
LINE
  8
0
 62
7
 10
2.19991831984898
 20
4.787837324703349
 30
0
 11
2.20261831984898
 21
4.775837324703351
 31
0
  0
LINE
  8
0
 62
7
 10
2.20261831984898
 20
4.775837324703351
 30
0
 11
2.20801831984898
 21
4.76683732470335
 31
0
  0
LINE
  8
0
 62
7
 10
2.20801831984898
 20
4.76683732470335
 30
0
 11
2.21341831984898
 21
4.760837324703351
 31
0
  0
LINE
  8
0
 62
7
 10
2.21341831984898
 20
4.760837324703351
 30
0
 11
2.22151831984898
 21
4.75483732470335
 31
0
  0
LINE
  8
0
 62
7
 10
2.22151831984898
 20
4.75483732470335
 30
0
 11
2.22961831984898
 21
4.75183732470335
 31
0
  0
LINE
  8
0
 62
7
 10
2.22961831984898
 20
4.75183732470335
 30
0
 11
2.245818319848981
 21
4.75183732470335
 31
0
  0
LINE
  8
0
 62
7
 10
2.245818319848981
 20
4.75183732470335
 30
0
 11
2.25391831984898
 21
4.75483732470335
 31
0
  0
LINE
  8
0
 62
7
 10
2.25391831984898
 20
4.75483732470335
 30
0
 11
2.26201831984898
 21
4.760837324703351
 31
0
  0
LINE
  8
0
 62
7
 10
2.26201831984898
 20
4.760837324703351
 30
0
 11
2.26741831984898
 21
4.76683732470335
 31
0
  0
LINE
  8
0
 62
7
 10
2.26741831984898
 20
4.76683732470335
 30
0
 11
2.27281831984898
 21
4.775837324703351
 31
0
  0
LINE
  8
0
 62
7
 10
2.27281831984898
 20
4.775837324703351
 30
0
 11
2.27551831984898
 21
4.787837324703349
 31
0
  0
LINE
  8
0
 62
7
 10
2.27551831984898
 20
4.787837324703349
 30
0
 11
2.27551831984898
 21
4.81183732470335
 31
0
  0
LINE
  8
0
 62
7
 10
2.27551831984898
 20
4.81183732470335
 30
0
 11
2.24311831984898
 21
4.81183732470335
 31
0
  0
LINE
  8
0
 62
7
 10
2.35381831984898
 20
4.87183732470335
 30
0
 11
2.33761831984898
 21
4.87183732470335
 31
0
  0
LINE
  8
0
 62
7
 10
2.33761831984898
 20
4.87183732470335
 30
0
 11
2.32951831984898
 21
4.868837324703351
 31
0
  0
LINE
  8
0
 62
7
 10
2.32951831984898
 20
4.868837324703351
 30
0
 11
2.32141831984898
 21
4.862837324703349
 31
0
  0
LINE
  8
0
 62
7
 10
2.32141831984898
 20
4.862837324703349
 30
0
 11
2.31601831984898
 21
4.85683732470335
 31
0
  0
LINE
  8
0
 62
7
 10
2.31601831984898
 20
4.85683732470335
 30
0
 11
2.31061831984898
 21
4.84783732470335
 31
0
  0
LINE
  8
0
 62
7
 10
2.31061831984898
 20
4.84783732470335
 30
0
 11
2.30791831984898
 21
4.835837324703351
 31
0
  0
LINE
  8
0
 62
7
 10
2.30791831984898
 20
4.835837324703351
 30
0
 11
2.30791831984898
 21
4.787837324703349
 31
0
  0
LINE
  8
0
 62
7
 10
2.30791831984898
 20
4.787837324703349
 30
0
 11
2.31061831984898
 21
4.775837324703351
 31
0
  0
LINE
  8
0
 62
7
 10
2.31061831984898
 20
4.775837324703351
 30
0
 11
2.31601831984898
 21
4.76683732470335
 31
0
  0
LINE
  8
0
 62
7
 10
2.31601831984898
 20
4.76683732470335
 30
0
 11
2.32141831984898
 21
4.760837324703351
 31
0
  0
LINE
  8
0
 62
7
 10
2.32141831984898
 20
4.760837324703351
 30
0
 11
2.32951831984898
 21
4.75483732470335
 31
0
  0
LINE
  8
0
 62
7
 10
2.32951831984898
 20
4.75483732470335
 30
0
 11
2.33761831984898
 21
4.75183732470335
 31
0
  0
LINE
  8
0
 62
7
 10
2.33761831984898
 20
4.75183732470335
 30
0
 11
2.35381831984898
 21
4.75183732470335
 31
0
  0
LINE
  8
0
 62
7
 10
2.35381831984898
 20
4.75183732470335
 30
0
 11
2.36191831984898
 21
4.75483732470335
 31
0
  0
LINE
  8
0
 62
7
 10
2.36191831984898
 20
4.75483732470335
 30
0
 11
2.37001831984898
 21
4.760837324703351
 31
0
  0
LINE
  8
0
 62
7
 10
2.37001831984898
 20
4.760837324703351
 30
0
 11
2.37541831984898
 21
4.76683732470335
 31
0
  0
LINE
  8
0
 62
7
 10
2.37541831984898
 20
4.76683732470335
 30
0
 11
2.38081831984898
 21
4.775837324703351
 31
0
  0
LINE
  8
0
 62
7
 10
2.38081831984898
 20
4.775837324703351
 30
0
 11
2.383518319848981
 21
4.787837324703349
 31
0
  0
LINE
  8
0
 62
7
 10
2.383518319848981
 20
4.787837324703349
 30
0
 11
2.383518319848981
 21
4.835837324703351
 31
0
  0
LINE
  8
0
 62
7
 10
2.383518319848981
 20
4.835837324703351
 30
0
 11
2.38081831984898
 21
4.84783732470335
 31
0
  0
LINE
  8
0
 62
7
 10
2.38081831984898
 20
4.84783732470335
 30
0
 11
2.37541831984898
 21
4.85683732470335
 31
0
  0
LINE
  8
0
 62
7
 10
2.37541831984898
 20
4.85683732470335
 30
0
 11
2.37001831984898
 21
4.862837324703349
 31
0
  0
LINE
  8
0
 62
7
 10
2.37001831984898
 20
4.862837324703349
 30
0
 11
2.36191831984898
 21
4.868837324703351
 31
0
  0
LINE
  8
0
 62
7
 10
2.36191831984898
 20
4.868837324703351
 30
0
 11
2.35381831984898
 21
4.87183732470335
 31
0
  0
LINE
  8
0
 62
7
 10
2.405118319848981
 20
4.87183732470335
 30
0
 11
2.44291831984898
 21
4.87183732470335
 31
0
  0
LINE
  8
0
 62
7
 10
2.44291831984898
 20
4.87183732470335
 30
0
 11
2.44291831984898
 21
4.75183732470335
 31
0
  0
LINE
  8
0
 62
7
 10
2.44291831984898
 20
4.87183732470335
 30
0
 11
2.480718319848981
 21
4.87183732470335
 31
0
  0
LINE
  8
0
 62
7
 10
2.51311831984898
 20
4.87183732470335
 30
0
 11
2.55091831984898
 21
4.87183732470335
 31
0
  0
LINE
  8
0
 62
7
 10
2.55091831984898
 20
4.87183732470335
 30
0
 11
2.55091831984898
 21
4.75183732470335
 31
0
  0
LINE
  8
0
 62
7
 10
2.55091831984898
 20
4.87183732470335
 30
0
 11
2.58871831984898
 21
4.87183732470335
 31
0
  0
LINE
  8
0
 62
7
 10
2.70751831984898
 20
4.79383732470335
 30
0
 11
2.76151831984898
 21
4.79383732470335
 31
0
  0
LINE
  8
0
 62
7
 10
2.86951831984898
 20
4.87183732470335
 30
0
 11
2.907318319848982
 21
4.87183732470335
 31
0
  0
LINE
  8
0
 62
7
 10
2.907318319848982
 20
4.87183732470335
 30
0
 11
2.907318319848982
 21
4.75183732470335
 31
0
  0
LINE
  8
0
 62
7
 10
2.907318319848982
 20
4.87183732470335
 30
0
 11
2.94511831984898
 21
4.87183732470335
 31
0
  0
LINE
  8
0
 62
7
 10
2.97751831984898
 20
4.75183732470335
 30
0
 11
2.97751831984898
 21
4.87183732470335
 31
0
  0
LINE
  8
0
 62
7
 10
2.97751831984898
 20
4.87183732470335
 30
0
 11
3.02881831984898
 21
4.87183732470335
 31
0
  0
LINE
  8
0
 62
7
 10
3.02881831984898
 20
4.87183732470335
 30
0
 11
3.039618319848981
 21
4.868837324703351
 31
0
  0
LINE
  8
0
 62
7
 10
3.039618319848981
 20
4.868837324703351
 30
0
 11
3.04771831984898
 21
4.862837324703349
 31
0
  0
LINE
  8
0
 62
7
 10
3.04771831984898
 20
4.862837324703349
 30
0
 11
3.050418319848982
 21
4.85683732470335
 31
0
  0
LINE
  8
0
 62
7
 10
3.050418319848982
 20
4.85683732470335
 30
0
 11
3.05311831984898
 21
4.84783732470335
 31
0
  0
LINE
  8
0
 62
7
 10
3.05311831984898
 20
4.84783732470335
 30
0
 11
3.05311831984898
 21
4.835837324703351
 31
0
  0
LINE
  8
0
 62
7
 10
3.05311831984898
 20
4.835837324703351
 30
0
 11
3.050418319848982
 21
4.82683732470335
 31
0
  0
LINE
  8
0
 62
7
 10
3.050418319848982
 20
4.82683732470335
 30
0
 11
3.04771831984898
 21
4.820837324703351
 31
0
  0
LINE
  8
0
 62
7
 10
3.04771831984898
 20
4.820837324703351
 30
0
 11
3.039618319848981
 21
4.81483732470335
 31
0
  0
LINE
  8
0
 62
7
 10
3.039618319848981
 20
4.81483732470335
 30
0
 11
3.02881831984898
 21
4.81183732470335
 31
0
  0
LINE
  8
0
 62
7
 10
3.02881831984898
 20
4.81183732470335
 30
0
 11
3.02071831984898
 21
4.81183732470335
 31
0
  0
LINE
  8
0
 62
7
 10
3.02071831984898
 20
4.81183732470335
 30
0
 11
3.05311831984898
 21
4.75183732470335
 31
0
  0
LINE
  8
0
 62
7
 10
3.02071831984898
 20
4.81183732470335
 30
0
 11
2.97751831984898
 21
4.81183732470335
 31
0
  0
LINE
  8
0
 62
7
 10
3.15031831984898
 20
4.87183732470335
 30
0
 11
3.07471831984898
 21
4.87183732470335
 31
0
  0
LINE
  8
0
 62
7
 10
3.07471831984898
 20
4.87183732470335
 30
0
 11
3.07471831984898
 21
4.81183732470335
 31
0
  0
LINE
  8
0
 62
7
 10
3.07471831984898
 20
4.75183732470335
 30
0
 11
3.15031831984898
 21
4.75183732470335
 31
0
  0
LINE
  8
0
 62
7
 10
3.13951831984898
 20
4.81183732470335
 30
0
 11
3.07471831984898
 21
4.81183732470335
 31
0
  0
LINE
  8
0
 62
7
 10
3.07471831984898
 20
4.81183732470335
 30
0
 11
3.07471831984898
 21
4.75183732470335
 31
0
  0
LINE
  8
0
 62
7
 10
3.18271831984898
 20
4.75183732470335
 30
0
 11
3.18271831984898
 21
4.81183732470335
 31
0
  0
LINE
  8
0
 62
7
 10
3.18271831984898
 20
4.87183732470335
 30
0
 11
3.234018319848981
 21
4.87183732470335
 31
0
  0
LINE
  8
0
 62
7
 10
3.234018319848981
 20
4.87183732470335
 30
0
 11
3.24481831984898
 21
4.868837324703351
 31
0
  0
LINE
  8
0
 62
7
 10
3.24481831984898
 20
4.868837324703351
 30
0
 11
3.25291831984898
 21
4.862837324703349
 31
0
  0
LINE
  8
0
 62
7
 10
3.25291831984898
 20
4.862837324703349
 30
0
 11
3.25561831984898
 21
4.85683732470335
 31
0
  0
LINE
  8
0
 62
7
 10
3.25561831984898
 20
4.85683732470335
 30
0
 11
3.25831831984898
 21
4.84783732470335
 31
0
  0
LINE
  8
0
 62
7
 10
3.25831831984898
 20
4.84783732470335
 30
0
 11
3.25831831984898
 21
4.835837324703351
 31
0
  0
LINE
  8
0
 62
7
 10
3.25831831984898
 20
4.835837324703351
 30
0
 11
3.25561831984898
 21
4.82683732470335
 31
0
  0
LINE
  8
0
 62
7
 10
3.25561831984898
 20
4.82683732470335
 30
0
 11
3.25291831984898
 21
4.820837324703351
 31
0
  0
LINE
  8
0
 62
7
 10
3.25291831984898
 20
4.820837324703351
 30
0
 11
3.24481831984898
 21
4.81483732470335
 31
0
  0
LINE
  8
0
 62
7
 10
3.24481831984898
 20
4.81483732470335
 30
0
 11
3.234018319848981
 21
4.81183732470335
 31
0
  0
LINE
  8
0
 62
7
 10
3.234018319848981
 20
4.81183732470335
 30
0
 11
3.18271831984898
 21
4.81183732470335
 31
0
  0
LINE
  8
0
 62
7
 10
3.18271831984898
 20
4.81183732470335
 30
0
 11
3.18271831984898
 21
4.87183732470335
 31
0
  0
LINE
  8
0
 62
7
 10
3.27991831984898
 20
4.75183732470335
 30
0
 11
3.27991831984898
 21
4.81183732470335
 31
0
  0
LINE
  8
0
 62
7
 10
3.27991831984898
 20
4.87183732470335
 30
0
 11
3.331218319848981
 21
4.87183732470335
 31
0
  0
LINE
  8
0
 62
7
 10
3.331218319848981
 20
4.87183732470335
 30
0
 11
3.342018319848981
 21
4.868837324703351
 31
0
  0
LINE
  8
0
 62
7
 10
3.342018319848981
 20
4.868837324703351
 30
0
 11
3.35011831984898
 21
4.862837324703349
 31
0
  0
LINE
  8
0
 62
7
 10
3.35011831984898
 20
4.862837324703349
 30
0
 11
3.35281831984898
 21
4.85683732470335
 31
0
  0
LINE
  8
0
 62
7
 10
3.35281831984898
 20
4.85683732470335
 30
0
 11
3.35551831984898
 21
4.84783732470335
 31
0
  0
LINE
  8
0
 62
7
 10
3.35551831984898
 20
4.84783732470335
 30
0
 11
3.35551831984898
 21
4.835837324703351
 31
0
  0
LINE
  8
0
 62
7
 10
3.35551831984898
 20
4.835837324703351
 30
0
 11
3.35281831984898
 21
4.82683732470335
 31
0
  0
LINE
  8
0
 62
7
 10
3.35281831984898
 20
4.82683732470335
 30
0
 11
3.35011831984898
 21
4.820837324703351
 31
0
  0
LINE
  8
0
 62
7
 10
3.35011831984898
 20
4.820837324703351
 30
0
 11
3.342018319848981
 21
4.81483732470335
 31
0
  0
LINE
  8
0
 62
7
 10
3.342018319848981
 20
4.81483732470335
 30
0
 11
3.331218319848981
 21
4.81183732470335
 31
0
  0
LINE
  8
0
 62
7
 10
3.331218319848981
 20
4.81183732470335
 30
0
 11
3.27991831984898
 21
4.81183732470335
 31
0
  0
LINE
  8
0
 62
7
 10
3.27991831984898
 20
4.81183732470335
 30
0
 11
3.27991831984898
 21
4.87183732470335
 31
0
  0
LINE
  8
0
 62
7
 10
3.45271831984898
 20
4.87183732470335
 30
0
 11
3.37711831984898
 21
4.87183732470335
 31
0
  0
LINE
  8
0
 62
7
 10
3.37711831984898
 20
4.87183732470335
 30
0
 11
3.37711831984898
 21
4.81183732470335
 31
0
  0
LINE
  8
0
 62
7
 10
3.37711831984898
 20
4.75183732470335
 30
0
 11
3.45271831984898
 21
4.75183732470335
 31
0
  0
LINE
  8
0
 62
7
 10
3.44191831984898
 20
4.81183732470335
 30
0
 11
3.37711831984898
 21
4.81183732470335
 31
0
  0
LINE
  8
0
 62
7
 10
3.37711831984898
 20
4.81183732470335
 30
0
 11
3.37711831984898
 21
4.75183732470335
 31
0
  0
LINE
  8
0
 62
7
 10
0.625
 20
2.890000000000006
 30
0
 11
0.625
 21
3.010000000000007
 31
0
  0
LINE
  8
0
 62
7
 10
0.625
 20
3.010000000000007
 30
0
 11
0.6682
 21
2.914000000000005
 31
0
  0
LINE
  8
0
 62
7
 10
0.6682
 20
2.914000000000005
 30
0
 11
0.7113999999999999
 21
3.010000000000007
 31
0
  0
LINE
  8
0
 62
7
 10
0.7113999999999999
 20
3.010000000000007
 30
0
 11
0.7113999999999999
 21
2.890000000000006
 31
0
  0
LINE
  8
0
 62
7
 10
0.7437999999999999
 20
2.992000000000007
 30
0
 11
0.7491999999999999
 21
3.001000000000005
 31
0
  0
LINE
  8
0
 62
7
 10
0.7491999999999999
 20
3.001000000000005
 30
0
 11
0.7573
 21
3.007000000000007
 31
0
  0
LINE
  8
0
 62
7
 10
0.7573
 20
3.007000000000007
 30
0
 11
0.7681
 21
3.010000000000007
 31
0
  0
LINE
  8
0
 62
7
 10
0.7681
 20
3.010000000000007
 30
0
 11
0.7843
 21
3.010000000000007
 31
0
  0
LINE
  8
0
 62
7
 10
0.7843
 20
3.010000000000007
 30
0
 11
0.7951
 21
3.007000000000007
 31
0
  0
LINE
  8
0
 62
7
 10
0.7951
 20
3.007000000000007
 30
0
 11
0.8032
 21
3.001000000000005
 31
0
  0
LINE
  8
0
 62
7
 10
0.8032
 20
3.001000000000005
 30
0
 11
0.8085999999999999
 21
2.992000000000007
 31
0
  0
LINE
  8
0
 62
7
 10
0.8085999999999999
 20
2.992000000000007
 30
0
 11
0.8085999999999999
 21
2.980000000000007
 31
0
  0
LINE
  8
0
 62
7
 10
0.8085999999999999
 20
2.980000000000007
 30
0
 11
0.8032
 21
2.968000000000006
 31
0
  0
LINE
  8
0
 62
7
 10
0.8032
 20
2.968000000000006
 30
0
 11
0.7437999999999999
 21
2.890000000000006
 31
0
  0
LINE
  8
0
 62
7
 10
0.7437999999999999
 20
2.890000000000006
 30
0
 11
0.8085999999999999
 21
2.890000000000006
 31
0
  0
LINE
  8
0
 62
7
 10
0.8410000000000001
 20
3.010000000000007
 30
0
 11
0.8788
 21
2.890000000000006
 31
0
  0
LINE
  8
0
 62
7
 10
0.8788
 20
2.890000000000006
 30
0
 11
0.9165999999999999
 21
3.010000000000007
 31
0
  0
LINE
  8
0
 62
7
 10
0.9489999999999998
 20
2.992000000000007
 30
0
 11
0.9544000000000001
 21
3.001000000000005
 31
0
  0
LINE
  8
0
 62
7
 10
0.9544000000000001
 20
3.001000000000005
 30
0
 11
0.9625
 21
3.007000000000007
 31
0
  0
LINE
  8
0
 62
7
 10
0.9625
 20
3.007000000000007
 30
0
 11
0.9732999999999999
 21
3.010000000000007
 31
0
  0
LINE
  8
0
 62
7
 10
0.9732999999999999
 20
3.010000000000007
 30
0
 11
0.9895
 21
3.010000000000007
 31
0
  0
LINE
  8
0
 62
7
 10
0.9895
 20
3.010000000000007
 30
0
 11
1.0003
 21
3.007000000000007
 31
0
  0
LINE
  8
0
 62
7
 10
1.0003
 20
3.007000000000007
 30
0
 11
1.0084
 21
3.001000000000005
 31
0
  0
LINE
  8
0
 62
7
 10
1.0084
 20
3.001000000000005
 30
0
 11
1.0138
 21
2.992000000000007
 31
0
  0
LINE
  8
0
 62
7
 10
1.0138
 20
2.992000000000007
 30
0
 11
1.0138
 21
2.980000000000007
 31
0
  0
LINE
  8
0
 62
7
 10
1.0138
 20
2.980000000000007
 30
0
 11
1.0084
 21
2.968000000000006
 31
0
  0
LINE
  8
0
 62
7
 10
1.0084
 20
2.968000000000006
 30
0
 11
0.9489999999999998
 21
2.890000000000006
 31
0
  0
LINE
  8
0
 62
7
 10
0.9489999999999998
 20
2.890000000000006
 30
0
 11
1.0138
 21
2.890000000000006
 31
0
  0
LINE
  8
0
 62
7
 10
1.0462
 20
2.938000000000006
 30
0
 11
1.0489
 21
2.950000000000006
 31
0
  0
LINE
  8
0
 62
7
 10
1.0489
 20
2.950000000000006
 30
0
 11
1.0543
 21
2.959000000000005
 31
0
  0
LINE
  8
0
 62
7
 10
1.0543
 20
2.959000000000005
 30
0
 11
1.0624
 21
2.965000000000007
 31
0
  0
LINE
  8
0
 62
7
 10
1.0624
 20
2.965000000000007
 30
0
 11
1.0705
 21
2.968000000000006
 31
0
  0
LINE
  8
0
 62
7
 10
1.0705
 20
2.968000000000006
 30
0
 11
1.0867
 21
2.968000000000006
 31
0
  0
LINE
  8
0
 62
7
 10
1.0867
 20
2.968000000000006
 30
0
 11
1.0948
 21
2.965000000000007
 31
0
  0
LINE
  8
0
 62
7
 10
1.0948
 20
2.965000000000007
 30
0
 11
1.1029
 21
2.959000000000005
 31
0
  0
LINE
  8
0
 62
7
 10
1.1029
 20
2.959000000000005
 30
0
 11
1.1083
 21
2.950000000000006
 31
0
  0
LINE
  8
0
 62
7
 10
1.1083
 20
2.950000000000006
 30
0
 11
1.111
 21
2.938000000000006
 31
0
  0
LINE
  8
0
 62
7
 10
1.111
 20
2.938000000000006
 30
0
 11
1.111
 21
2.920000000000007
 31
0
  0
LINE
  8
0
 62
7
 10
1.111
 20
2.920000000000007
 30
0
 11
1.1083
 21
2.908000000000006
 31
0
  0
LINE
  8
0
 62
7
 10
1.1083
 20
2.908000000000006
 30
0
 11
1.1029
 21
2.899000000000005
 31
0
  0
LINE
  8
0
 62
7
 10
1.1029
 20
2.899000000000005
 30
0
 11
1.0948
 21
2.893000000000006
 31
0
  0
LINE
  8
0
 62
7
 10
1.0948
 20
2.893000000000006
 30
0
 11
1.0867
 21
2.890000000000006
 31
0
  0
LINE
  8
0
 62
7
 10
1.0867
 20
2.890000000000006
 30
0
 11
1.0705
 21
2.890000000000006
 31
0
  0
LINE
  8
0
 62
7
 10
1.0705
 20
2.890000000000006
 30
0
 11
1.0624
 21
2.893000000000006
 31
0
  0
LINE
  8
0
 62
7
 10
1.0624
 20
2.893000000000006
 30
0
 11
1.0543
 21
2.899000000000005
 31
0
  0
LINE
  8
0
 62
7
 10
1.0543
 20
2.899000000000005
 30
0
 11
1.0489
 21
2.908000000000006
 31
0
  0
LINE
  8
0
 62
7
 10
1.0489
 20
2.908000000000006
 30
0
 11
1.0462
 21
2.920000000000007
 31
0
  0
LINE
  8
0
 62
7
 10
1.0462
 20
2.920000000000007
 30
0
 11
1.0462
 21
2.938000000000006
 31
0
  0
LINE
  8
0
 62
7
 10
1.0462
 20
2.980000000000007
 30
0
 11
1.0489
 21
2.992000000000007
 31
0
  0
LINE
  8
0
 62
7
 10
1.0489
 20
2.992000000000007
 30
0
 11
1.0543
 21
3.001000000000005
 31
0
  0
LINE
  8
0
 62
7
 10
1.0543
 20
3.001000000000005
 30
0
 11
1.0624
 21
3.007000000000007
 31
0
  0
LINE
  8
0
 62
7
 10
1.0624
 20
3.007000000000007
 30
0
 11
1.0705
 21
3.010000000000007
 31
0
  0
LINE
  8
0
 62
7
 10
1.0705
 20
3.010000000000007
 30
0
 11
1.0867
 21
3.010000000000007
 31
0
  0
LINE
  8
0
 62
7
 10
1.0867
 20
3.010000000000007
 30
0
 11
1.0948
 21
3.007000000000007
 31
0
  0
LINE
  8
0
 62
7
 10
1.0948
 20
3.007000000000007
 30
0
 11
1.1029
 21
3.001000000000005
 31
0
  0
LINE
  8
0
 62
7
 10
1.1029
 20
3.001000000000005
 30
0
 11
1.1083
 21
2.992000000000007
 31
0
  0
LINE
  8
0
 62
7
 10
1.0462
 20
2.938000000000006
 30
0
 11
1.0462
 21
2.980000000000007
 31
0
  0
LINE
  8
0
 62
7
 10
1.1434
 20
2.992000000000007
 30
0
 11
1.1488
 21
3.001000000000005
 31
0
  0
LINE
  8
0
 62
7
 10
1.1488
 20
3.001000000000005
 30
0
 11
1.1569
 21
3.007000000000007
 31
0
  0
LINE
  8
0
 62
7
 10
1.1569
 20
3.007000000000007
 30
0
 11
1.1677
 21
3.010000000000007
 31
0
  0
LINE
  8
0
 62
7
 10
1.1677
 20
3.010000000000007
 30
0
 11
1.1839
 21
3.010000000000007
 31
0
  0
LINE
  8
0
 62
7
 10
1.1839
 20
3.010000000000007
 30
0
 11
1.192
 21
3.007000000000007
 31
0
  0
LINE
  8
0
 62
7
 10
1.192
 20
3.007000000000007
 30
0
 11
1.2001
 21
3.001000000000005
 31
0
  0
LINE
  8
0
 62
7
 10
1.2001
 20
3.001000000000005
 30
0
 11
1.2055
 21
2.992000000000007
 31
0
  0
LINE
  8
0
 62
7
 10
1.2055
 20
2.992000000000007
 30
0
 11
1.2082
 21
2.980000000000007
 31
0
  0
LINE
  8
0
 62
7
 10
1.2082
 20
2.980000000000007
 30
0
 11
1.2082
 21
2.971000000000005
 31
0
  0
LINE
  8
0
 62
7
 10
1.2082
 20
2.971000000000005
 30
0
 11
1.2055
 21
2.962000000000007
 31
0
  0
LINE
  8
0
 62
7
 10
1.2055
 20
2.962000000000007
 30
0
 11
1.2001
 21
2.956000000000005
 31
0
  0
LINE
  8
0
 62
7
 10
1.2001
 20
2.956000000000005
 30
0
 11
1.1866
 21
2.950000000000006
 31
0
  0
LINE
  8
0
 62
7
 10
1.1677
 20
2.950000000000006
 30
0
 11
1.1866
 21
2.950000000000006
 31
0
  0
LINE
  8
0
 62
7
 10
1.1866
 20
2.950000000000006
 30
0
 11
1.2001
 21
2.944000000000005
 31
0
  0
LINE
  8
0
 62
7
 10
1.2001
 20
2.944000000000005
 30
0
 11
1.2055
 21
2.938000000000006
 31
0
  0
LINE
  8
0
 62
7
 10
1.2055
 20
2.938000000000006
 30
0
 11
1.2082
 21
2.929000000000005
 31
0
  0
LINE
  8
0
 62
7
 10
1.2082
 20
2.929000000000005
 30
0
 11
1.2082
 21
2.920000000000007
 31
0
  0
LINE
  8
0
 62
7
 10
1.2082
 20
2.920000000000007
 30
0
 11
1.2055
 21
2.908000000000006
 31
0
  0
LINE
  8
0
 62
7
 10
1.2055
 20
2.908000000000006
 30
0
 11
1.2001
 21
2.899000000000005
 31
0
  0
LINE
  8
0
 62
7
 10
1.2001
 20
2.899000000000005
 30
0
 11
1.192
 21
2.893000000000006
 31
0
  0
LINE
  8
0
 62
7
 10
1.192
 20
2.893000000000006
 30
0
 11
1.1839
 21
2.890000000000006
 31
0
  0
LINE
  8
0
 62
7
 10
1.1839
 20
2.890000000000006
 30
0
 11
1.1677
 21
2.890000000000006
 31
0
  0
LINE
  8
0
 62
7
 10
1.1677
 20
2.890000000000006
 30
0
 11
1.1569
 21
2.893000000000006
 31
0
  0
LINE
  8
0
 62
7
 10
1.1569
 20
2.893000000000006
 30
0
 11
1.1488
 21
2.899000000000005
 31
0
  0
LINE
  8
0
 62
7
 10
1.1488
 20
2.899000000000005
 30
0
 11
1.1434
 21
2.908000000000006
 31
0
  0
LINE
  8
0
 62
7
 10
1.3054
 20
2.890000000000006
 30
0
 11
1.2406
 21
2.890000000000006
 31
0
  0
LINE
  8
0
 62
7
 10
1.2406
 20
2.890000000000006
 30
0
 11
1.2406
 21
3.010000000000007
 31
0
  0
LINE
  8
0
 62
7
 10
1.3378
 20
2.938000000000006
 30
0
 11
1.3405
 21
2.950000000000006
 31
0
  0
LINE
  8
0
 62
7
 10
1.3405
 20
2.950000000000006
 30
0
 11
1.3459
 21
2.959000000000005
 31
0
  0
LINE
  8
0
 62
7
 10
1.3459
 20
2.959000000000005
 30
0
 11
1.354
 21
2.965000000000007
 31
0
  0
LINE
  8
0
 62
7
 10
1.354
 20
2.965000000000007
 30
0
 11
1.3621
 21
2.968000000000006
 31
0
  0
LINE
  8
0
 62
7
 10
1.3621
 20
2.968000000000006
 30
0
 11
1.3783
 21
2.968000000000006
 31
0
  0
LINE
  8
0
 62
7
 10
1.3783
 20
2.968000000000006
 30
0
 11
1.3864
 21
2.965000000000007
 31
0
  0
LINE
  8
0
 62
7
 10
1.3864
 20
2.965000000000007
 30
0
 11
1.3945
 21
2.959000000000005
 31
0
  0
LINE
  8
0
 62
7
 10
1.3945
 20
2.959000000000005
 30
0
 11
1.3999
 21
2.950000000000006
 31
0
  0
LINE
  8
0
 62
7
 10
1.3999
 20
2.950000000000006
 30
0
 11
1.4026
 21
2.938000000000006
 31
0
  0
LINE
  8
0
 62
7
 10
1.4026
 20
2.938000000000006
 30
0
 11
1.4026
 21
2.920000000000007
 31
0
  0
LINE
  8
0
 62
7
 10
1.4026
 20
2.920000000000007
 30
0
 11
1.3999
 21
2.908000000000006
 31
0
  0
LINE
  8
0
 62
7
 10
1.3999
 20
2.908000000000006
 30
0
 11
1.3945
 21
2.899000000000005
 31
0
  0
LINE
  8
0
 62
7
 10
1.3945
 20
2.899000000000005
 30
0
 11
1.3864
 21
2.893000000000006
 31
0
  0
LINE
  8
0
 62
7
 10
1.3864
 20
2.893000000000006
 30
0
 11
1.3783
 21
2.890000000000006
 31
0
  0
LINE
  8
0
 62
7
 10
1.3783
 20
2.890000000000006
 30
0
 11
1.3621
 21
2.890000000000006
 31
0
  0
LINE
  8
0
 62
7
 10
1.3621
 20
2.890000000000006
 30
0
 11
1.354
 21
2.893000000000006
 31
0
  0
LINE
  8
0
 62
7
 10
1.354
 20
2.893000000000006
 30
0
 11
1.3459
 21
2.899000000000005
 31
0
  0
LINE
  8
0
 62
7
 10
1.3459
 20
2.899000000000005
 30
0
 11
1.3405
 21
2.908000000000006
 31
0
  0
LINE
  8
0
 62
7
 10
1.3405
 20
2.908000000000006
 30
0
 11
1.3378
 21
2.920000000000007
 31
0
  0
LINE
  8
0
 62
7
 10
1.3378
 20
2.920000000000007
 30
0
 11
1.3378
 21
2.938000000000006
 31
0
  0
LINE
  8
0
 62
7
 10
1.3378
 20
2.980000000000007
 30
0
 11
1.3405
 21
2.992000000000007
 31
0
  0
LINE
  8
0
 62
7
 10
1.3405
 20
2.992000000000007
 30
0
 11
1.3459
 21
3.001000000000005
 31
0
  0
LINE
  8
0
 62
7
 10
1.3459
 20
3.001000000000005
 30
0
 11
1.354
 21
3.007000000000007
 31
0
  0
LINE
  8
0
 62
7
 10
1.354
 20
3.007000000000007
 30
0
 11
1.3621
 21
3.010000000000007
 31
0
  0
LINE
  8
0
 62
7
 10
1.3621
 20
3.010000000000007
 30
0
 11
1.3783
 21
3.010000000000007
 31
0
  0
LINE
  8
0
 62
7
 10
1.3783
 20
3.010000000000007
 30
0
 11
1.3864
 21
3.007000000000007
 31
0
  0
LINE
  8
0
 62
7
 10
1.3864
 20
3.007000000000007
 30
0
 11
1.3945
 21
3.001000000000005
 31
0
  0
LINE
  8
0
 62
7
 10
1.3945
 20
3.001000000000005
 30
0
 11
1.3999
 21
2.992000000000007
 31
0
  0
LINE
  8
0
 62
7
 10
1.3378
 20
2.938000000000006
 30
0
 11
1.3378
 21
2.980000000000007
 31
0
  0
LINE
  8
0
 62
7
 10
3.125
 20
2.890000000000006
 30
0
 11
3.125
 21
2.990000000000006
 31
0
  0
LINE
  8
0
 62
7
 10
3.125
 20
2.990000000000006
 30
0
 11
3.188
 21
2.890000000000006
 31
0
  0
LINE
  8
0
 62
7
 10
3.188
 20
2.890000000000006
 30
0
 11
3.188
 21
2.990000000000006
 31
0
  0
LINE
  8
0
 62
7
 10
3.269
 20
2.890000000000006
 30
0
 11
3.215
 21
2.890000000000006
 31
0
  0
LINE
  8
0
 62
7
 10
3.215
 20
2.890000000000006
 30
0
 11
3.215
 21
2.990000000000006
 31
0
  0
LINE
  8
0
 62
7
 10
3.296
 20
2.940000000000007
 30
0
 11
3.332
 21
2.940000000000007
 31
0
  0
LINE
  8
0
 62
7
 10
3.332
 20
2.940000000000007
 30
0
 11
3.3365
 21
2.940000000000007
 31
0
  0
LINE
  8
0
 62
7
 10
3.3365
 20
2.940000000000007
 30
0
 11
3.3455
 21
2.935000000000007
 31
0
  0
LINE
  8
0
 62
7
 10
3.3455
 20
2.935000000000007
 30
0
 11
3.35
 21
2.930000000000007
 31
0
  0
LINE
  8
0
 62
7
 10
3.35
 20
2.930000000000007
 30
0
 11
3.3545
 21
2.920000000000007
 31
0
  0
LINE
  8
0
 62
7
 10
3.3545
 20
2.920000000000007
 30
0
 11
3.3545
 21
2.910000000000007
 31
0
  0
LINE
  8
0
 62
7
 10
3.3545
 20
2.910000000000007
 30
0
 11
3.35
 21
2.900000000000007
 31
0
  0
LINE
  8
0
 62
7
 10
3.35
 20
2.900000000000007
 30
0
 11
3.3455
 21
2.895000000000007
 31
0
  0
LINE
  8
0
 62
7
 10
3.3455
 20
2.895000000000007
 30
0
 11
3.3365
 21
2.890000000000006
 31
0
  0
LINE
  8
0
 62
7
 10
3.3365
 20
2.890000000000006
 30
0
 11
3.296
 21
2.890000000000006
 31
0
  0
LINE
  8
0
 62
7
 10
3.296
 20
2.890000000000006
 30
0
 11
3.296
 21
2.940000000000007
 31
0
  0
LINE
  8
0
 62
7
 10
3.296
 20
2.990000000000006
 30
0
 11
3.32975
 21
2.990000000000006
 31
0
  0
LINE
  8
0
 62
7
 10
3.32975
 20
2.990000000000006
 30
0
 11
3.341000000000001
 21
2.987500000000006
 31
0
  0
LINE
  8
0
 62
7
 10
3.341000000000001
 20
2.987500000000006
 30
0
 11
3.34775
 21
2.980000000000007
 31
0
  0
LINE
  8
0
 62
7
 10
3.34775
 20
2.980000000000007
 30
0
 11
3.35
 21
2.970000000000006
 31
0
  0
LINE
  8
0
 62
7
 10
3.35
 20
2.970000000000006
 30
0
 11
3.35
 21
2.960000000000007
 31
0
  0
LINE
  8
0
 62
7
 10
3.35
 20
2.960000000000007
 30
0
 11
3.3455
 21
2.950000000000006
 31
0
  0
LINE
  8
0
 62
7
 10
3.3455
 20
2.950000000000006
 30
0
 11
3.338750000000001
 21
2.942500000000007
 31
0
  0
LINE
  8
0
 62
7
 10
3.338750000000001
 20
2.942500000000007
 30
0
 11
3.332
 21
2.940000000000007
 31
0
  0
LINE
  8
0
 62
7
 10
3.296
 20
2.940000000000007
 30
0
 11
3.296
 21
2.990000000000006
 31
0
  0
LINE
  8
0
 62
7
 10
3.49625
 20
2.942500000000007
 30
0
 11
3.4895
 21
2.952500000000006
 31
0
  0
LINE
  8
0
 62
7
 10
3.4895
 20
2.952500000000006
 30
0
 11
3.48275
 21
2.957500000000007
 31
0
  0
LINE
  8
0
 62
7
 10
3.48275
 20
2.957500000000007
 30
0
 11
3.476
 21
2.960000000000007
 31
0
  0
LINE
  8
0
 62
7
 10
3.476
 20
2.960000000000007
 30
0
 11
3.467000000000001
 21
2.960000000000007
 31
0
  0
LINE
  8
0
 62
7
 10
3.467000000000001
 20
2.960000000000007
 30
0
 11
3.46025
 21
2.957500000000007
 31
0
  0
LINE
  8
0
 62
7
 10
3.46025
 20
2.957500000000007
 30
0
 11
3.4535
 21
2.952500000000006
 31
0
  0
LINE
  8
0
 62
7
 10
3.4535
 20
2.952500000000006
 30
0
 11
3.44675
 21
2.942500000000007
 31
0
  0
LINE
  8
0
 62
7
 10
3.44675
 20
2.942500000000007
 30
0
 11
3.4445
 21
2.935000000000007
 31
0
  0
LINE
  8
0
 62
7
 10
3.4445
 20
2.935000000000007
 30
0
 11
3.4445
 21
2.915000000000006
 31
0
  0
LINE
  8
0
 62
7
 10
3.4445
 20
2.915000000000006
 30
0
 11
3.44675
 21
2.907500000000006
 31
0
  0
LINE
  8
0
 62
7
 10
3.44675
 20
2.907500000000006
 30
0
 11
3.4535
 21
2.897500000000007
 31
0
  0
LINE
  8
0
 62
7
 10
3.4535
 20
2.897500000000007
 30
0
 11
3.46025
 21
2.892500000000007
 31
0
  0
LINE
  8
0
 62
7
 10
3.46025
 20
2.892500000000007
 30
0
 11
3.467000000000001
 21
2.890000000000006
 31
0
  0
LINE
  8
0
 62
7
 10
3.467000000000001
 20
2.890000000000006
 30
0
 11
3.476
 21
2.890000000000006
 31
0
  0
LINE
  8
0
 62
7
 10
3.476
 20
2.890000000000006
 30
0
 11
3.48275
 21
2.892500000000007
 31
0
  0
LINE
  8
0
 62
7
 10
3.48275
 20
2.892500000000007
 30
0
 11
3.4895
 21
2.897500000000007
 31
0
  0
LINE
  8
0
 62
7
 10
3.4895
 20
2.897500000000007
 30
0
 11
3.49625
 21
2.907500000000006
 31
0
  0
LINE
  8
0
 62
7
 10
3.56825
 20
2.935000000000007
 30
0
 11
3.566000000000001
 21
2.942500000000007
 31
0
  0
LINE
  8
0
 62
7
 10
3.566000000000001
 20
2.942500000000007
 30
0
 11
3.55925
 21
2.952500000000006
 31
0
  0
LINE
  8
0
 62
7
 10
3.55925
 20
2.952500000000006
 30
0
 11
3.5525
 21
2.957500000000007
 31
0
  0
LINE
  8
0
 62
7
 10
3.5525
 20
2.957500000000007
 30
0
 11
3.54575
 21
2.960000000000007
 31
0
  0
LINE
  8
0
 62
7
 10
3.54575
 20
2.960000000000007
 30
0
 11
3.53675
 21
2.960000000000007
 31
0
  0
LINE
  8
0
 62
7
 10
3.53675
 20
2.960000000000007
 30
0
 11
3.530000000000001
 21
2.957500000000007
 31
0
  0
LINE
  8
0
 62
7
 10
3.530000000000001
 20
2.957500000000007
 30
0
 11
3.52325
 21
2.952500000000006
 31
0
  0
LINE
  8
0
 62
7
 10
3.52325
 20
2.952500000000006
 30
0
 11
3.5165
 21
2.942500000000007
 31
0
  0
LINE
  8
0
 62
7
 10
3.5165
 20
2.942500000000007
 30
0
 11
3.51425
 21
2.935000000000007
 31
0
  0
LINE
  8
0
 62
7
 10
3.51425
 20
2.935000000000007
 30
0
 11
3.51425
 21
2.915000000000006
 31
0
  0
LINE
  8
0
 62
7
 10
3.51425
 20
2.915000000000006
 30
0
 11
3.5165
 21
2.907500000000006
 31
0
  0
LINE
  8
0
 62
7
 10
3.5165
 20
2.907500000000006
 30
0
 11
3.52325
 21
2.897500000000007
 31
0
  0
LINE
  8
0
 62
7
 10
3.52325
 20
2.897500000000007
 30
0
 11
3.530000000000001
 21
2.892500000000007
 31
0
  0
LINE
  8
0
 62
7
 10
3.530000000000001
 20
2.892500000000007
 30
0
 11
3.53675
 21
2.890000000000006
 31
0
  0
LINE
  8
0
 62
7
 10
3.53675
 20
2.890000000000006
 30
0
 11
3.54575
 21
2.890000000000006
 31
0
  0
LINE
  8
0
 62
7
 10
3.54575
 20
2.890000000000006
 30
0
 11
3.5525
 21
2.892500000000007
 31
0
  0
LINE
  8
0
 62
7
 10
3.5525
 20
2.892500000000007
 30
0
 11
3.55925
 21
2.897500000000007
 31
0
  0
LINE
  8
0
 62
7
 10
3.55925
 20
2.897500000000007
 30
0
 11
3.566000000000001
 21
2.907500000000006
 31
0
  0
LINE
  8
0
 62
7
 10
3.566000000000001
 20
2.907500000000006
 30
0
 11
3.56825
 21
2.915000000000006
 31
0
  0
LINE
  8
0
 62
7
 10
3.56825
 20
2.960000000000007
 30
0
 11
3.56825
 21
2.935000000000007
 31
0
  0
LINE
  8
0
 62
7
 10
3.56825
 20
2.892500000000007
 30
0
 11
3.5705
 21
2.890000000000006
 31
0
  0
LINE
  8
0
 62
7
 10
3.5705
 20
2.890000000000006
 30
0
 11
3.57275
 21
2.890000000000006
 31
0
  0
LINE
  8
0
 62
7
 10
3.56825
 20
2.915000000000006
 30
0
 11
3.56825
 21
2.892500000000007
 31
0
  0
LINE
  8
0
 62
7
 10
3.56825
 20
2.935000000000007
 30
0
 11
3.56825
 21
2.915000000000006
 31
0
  0
LINE
  8
0
 62
7
 10
3.59075
 20
2.890000000000006
 30
0
 11
3.59075
 21
2.892500000000007
 31
0
  0
LINE
  8
0
 62
7
 10
3.59075
 20
2.892500000000007
 30
0
 11
3.593
 21
2.892500000000007
 31
0
  0
LINE
  8
0
 62
7
 10
3.593
 20
2.892500000000007
 30
0
 11
3.593
 21
2.890000000000006
 31
0
  0
LINE
  8
0
 62
7
 10
3.593
 20
2.890000000000006
 30
0
 11
3.59075
 21
2.890000000000006
 31
0
  0
LINE
  8
0
 62
7
 10
3.69425
 20
2.960000000000007
 30
0
 11
3.72125
 21
2.990000000000006
 31
0
  0
LINE
  8
0
 62
7
 10
3.72125
 20
2.990000000000006
 30
0
 11
3.72125
 21
2.890000000000006
 31
0
  0
LINE
  8
0
 62
7
 10
3.748250000000001
 20
2.965000000000007
 30
0
 11
3.750500000000001
 21
2.975000000000007
 31
0
  0
LINE
  8
0
 62
7
 10
3.750500000000001
 20
2.975000000000007
 30
0
 11
3.755000000000001
 21
2.982500000000007
 31
0
  0
LINE
  8
0
 62
7
 10
3.755000000000001
 20
2.982500000000007
 30
0
 11
3.76175
 21
2.987500000000006
 31
0
  0
LINE
  8
0
 62
7
 10
3.76175
 20
2.987500000000006
 30
0
 11
3.7685
 21
2.990000000000006
 31
0
  0
LINE
  8
0
 62
7
 10
3.7685
 20
2.990000000000006
 30
0
 11
3.782
 21
2.990000000000006
 31
0
  0
LINE
  8
0
 62
7
 10
3.782
 20
2.990000000000006
 30
0
 11
3.78875
 21
2.987500000000006
 31
0
  0
LINE
  8
0
 62
7
 10
3.78875
 20
2.987500000000006
 30
0
 11
3.7955
 21
2.982500000000007
 31
0
  0
LINE
  8
0
 62
7
 10
3.7955
 20
2.982500000000007
 30
0
 11
3.8
 21
2.975000000000007
 31
0
  0
LINE
  8
0
 62
7
 10
3.8
 20
2.975000000000007
 30
0
 11
3.80225
 21
2.965000000000007
 31
0
  0
LINE
  8
0
 62
7
 10
3.80225
 20
2.965000000000007
 30
0
 11
3.80225
 21
2.915000000000006
 31
0
  0
LINE
  8
0
 62
7
 10
3.80225
 20
2.915000000000006
 30
0
 11
3.8
 21
2.905000000000006
 31
0
  0
LINE
  8
0
 62
7
 10
3.8
 20
2.905000000000006
 30
0
 11
3.7955
 21
2.897500000000007
 31
0
  0
LINE
  8
0
 62
7
 10
3.7955
 20
2.897500000000007
 30
0
 11
3.78875
 21
2.892500000000007
 31
0
  0
LINE
  8
0
 62
7
 10
3.78875
 20
2.892500000000007
 30
0
 11
3.782
 21
2.890000000000006
 31
0
  0
LINE
  8
0
 62
7
 10
3.782
 20
2.890000000000006
 30
0
 11
3.7685
 21
2.890000000000006
 31
0
  0
LINE
  8
0
 62
7
 10
3.7685
 20
2.890000000000006
 30
0
 11
3.76175
 21
2.892500000000007
 31
0
  0
LINE
  8
0
 62
7
 10
3.76175
 20
2.892500000000007
 30
0
 11
3.755000000000001
 21
2.897500000000007
 31
0
  0
LINE
  8
0
 62
7
 10
3.755000000000001
 20
2.897500000000007
 30
0
 11
3.750500000000001
 21
2.905000000000006
 31
0
  0
LINE
  8
0
 62
7
 10
3.750500000000001
 20
2.905000000000006
 30
0
 11
3.748250000000001
 21
2.915000000000006
 31
0
  0
LINE
  8
0
 62
7
 10
3.748250000000001
 20
2.915000000000006
 30
0
 11
3.748250000000001
 21
2.965000000000007
 31
0
  0
LINE
  8
0
 62
7
 10
3.82925
 20
2.965000000000007
 30
0
 11
3.8315
 21
2.975000000000007
 31
0
  0
LINE
  8
0
 62
7
 10
3.8315
 20
2.975000000000007
 30
0
 11
3.836
 21
2.982500000000007
 31
0
  0
LINE
  8
0
 62
7
 10
3.836
 20
2.982500000000007
 30
0
 11
3.842750000000001
 21
2.987500000000006
 31
0
  0
LINE
  8
0
 62
7
 10
3.842750000000001
 20
2.987500000000006
 30
0
 11
3.8495
 21
2.990000000000006
 31
0
  0
LINE
  8
0
 62
7
 10
3.8495
 20
2.990000000000006
 30
0
 11
3.863
 21
2.990000000000006
 31
0
  0
LINE
  8
0
 62
7
 10
3.863
 20
2.990000000000006
 30
0
 11
3.86975
 21
2.987500000000006
 31
0
  0
LINE
  8
0
 62
7
 10
3.86975
 20
2.987500000000006
 30
0
 11
3.8765
 21
2.982500000000007
 31
0
  0
LINE
  8
0
 62
7
 10
3.8765
 20
2.982500000000007
 30
0
 11
3.881
 21
2.975000000000007
 31
0
  0
LINE
  8
0
 62
7
 10
3.881
 20
2.975000000000007
 30
0
 11
3.88325
 21
2.965000000000007
 31
0
  0
LINE
  8
0
 62
7
 10
3.88325
 20
2.965000000000007
 30
0
 11
3.88325
 21
2.915000000000006
 31
0
  0
LINE
  8
0
 62
7
 10
3.88325
 20
2.915000000000006
 30
0
 11
3.881
 21
2.905000000000006
 31
0
  0
LINE
  8
0
 62
7
 10
3.881
 20
2.905000000000006
 30
0
 11
3.8765
 21
2.897500000000007
 31
0
  0
LINE
  8
0
 62
7
 10
3.8765
 20
2.897500000000007
 30
0
 11
3.86975
 21
2.892500000000007
 31
0
  0
LINE
  8
0
 62
7
 10
3.86975
 20
2.892500000000007
 30
0
 11
3.863
 21
2.890000000000006
 31
0
  0
LINE
  8
0
 62
7
 10
3.863
 20
2.890000000000006
 30
0
 11
3.8495
 21
2.890000000000006
 31
0
  0
LINE
  8
0
 62
7
 10
3.8495
 20
2.890000000000006
 30
0
 11
3.842750000000001
 21
2.892500000000007
 31
0
  0
LINE
  8
0
 62
7
 10
3.842750000000001
 20
2.892500000000007
 30
0
 11
3.836
 21
2.897500000000007
 31
0
  0
LINE
  8
0
 62
7
 10
3.836
 20
2.897500000000007
 30
0
 11
3.8315
 21
2.905000000000006
 31
0
  0
LINE
  8
0
 62
7
 10
3.8315
 20
2.905000000000006
 30
0
 11
3.82925
 21
2.915000000000006
 31
0
  0
LINE
  8
0
 62
7
 10
3.82925
 20
2.915000000000006
 30
0
 11
3.82925
 21
2.965000000000007
 31
0
  0
LINE
  8
0
 62
7
 10
4.034000000000001
 20
2.942500000000007
 30
0
 11
4.02725
 21
2.952500000000006
 31
0
  0
LINE
  8
0
 62
7
 10
4.02725
 20
2.952500000000006
 30
0
 11
4.0205
 21
2.957500000000007
 31
0
  0
LINE
  8
0
 62
7
 10
4.0205
 20
2.957500000000007
 30
0
 11
4.013750000000001
 21
2.960000000000007
 31
0
  0
LINE
  8
0
 62
7
 10
4.013750000000001
 20
2.960000000000007
 30
0
 11
4.00475
 21
2.960000000000007
 31
0
  0
LINE
  8
0
 62
7
 10
4.00475
 20
2.960000000000007
 30
0
 11
3.998000000000001
 21
2.957500000000007
 31
0
  0
LINE
  8
0
 62
7
 10
3.998000000000001
 20
2.957500000000007
 30
0
 11
3.99125
 21
2.952500000000006
 31
0
  0
LINE
  8
0
 62
7
 10
3.99125
 20
2.952500000000006
 30
0
 11
3.9845
 21
2.942500000000007
 31
0
  0
LINE
  8
0
 62
7
 10
3.9845
 20
2.942500000000007
 30
0
 11
3.98225
 21
2.935000000000007
 31
0
  0
LINE
  8
0
 62
7
 10
3.98225
 20
2.935000000000007
 30
0
 11
3.98225
 21
2.915000000000006
 31
0
  0
LINE
  8
0
 62
7
 10
3.98225
 20
2.915000000000006
 30
0
 11
3.9845
 21
2.907500000000006
 31
0
  0
LINE
  8
0
 62
7
 10
3.9845
 20
2.907500000000006
 30
0
 11
3.99125
 21
2.897500000000007
 31
0
  0
LINE
  8
0
 62
7
 10
3.99125
 20
2.897500000000007
 30
0
 11
3.998000000000001
 21
2.892500000000007
 31
0
  0
LINE
  8
0
 62
7
 10
3.998000000000001
 20
2.892500000000007
 30
0
 11
4.00475
 21
2.890000000000006
 31
0
  0
LINE
  8
0
 62
7
 10
4.00475
 20
2.890000000000006
 30
0
 11
4.013750000000001
 21
2.890000000000006
 31
0
  0
LINE
  8
0
 62
7
 10
4.013750000000001
 20
2.890000000000006
 30
0
 11
4.0205
 21
2.892500000000007
 31
0
  0
LINE
  8
0
 62
7
 10
4.0205
 20
2.892500000000007
 30
0
 11
4.02725
 21
2.897500000000007
 31
0
  0
LINE
  8
0
 62
7
 10
4.02725
 20
2.897500000000007
 30
0
 11
4.034000000000001
 21
2.907500000000006
 31
0
  0
LINE
  8
0
 62
7
 10
4.0925
 20
2.935000000000007
 30
0
 11
4.0925
 21
2.890000000000006
 31
0
  0
LINE
  8
0
 62
7
 10
4.052
 20
2.960000000000007
 30
0
 11
4.052
 21
2.935000000000007
 31
0
  0
LINE
  8
0
 62
7
 10
4.052
 20
2.890000000000006
 30
0
 11
4.052
 21
2.935000000000007
 31
0
  0
LINE
  8
0
 62
7
 10
4.052
 20
2.935000000000007
 30
0
 11
4.054250000000001
 21
2.947500000000007
 31
0
  0
LINE
  8
0
 62
7
 10
4.054250000000001
 20
2.947500000000007
 30
0
 11
4.0565
 21
2.952500000000006
 31
0
  0
LINE
  8
0
 62
7
 10
4.0565
 20
2.952500000000006
 30
0
 11
4.061
 21
2.957500000000007
 31
0
  0
LINE
  8
0
 62
7
 10
4.061
 20
2.957500000000007
 30
0
 11
4.06775
 21
2.960000000000007
 31
0
  0
LINE
  8
0
 62
7
 10
4.06775
 20
2.960000000000007
 30
0
 11
4.07675
 21
2.960000000000007
 31
0
  0
LINE
  8
0
 62
7
 10
4.07675
 20
2.960000000000007
 30
0
 11
4.0835
 21
2.957500000000007
 31
0
  0
LINE
  8
0
 62
7
 10
4.0835
 20
2.957500000000007
 30
0
 11
4.088
 21
2.952500000000006
 31
0
  0
LINE
  8
0
 62
7
 10
4.088
 20
2.952500000000006
 30
0
 11
4.09025
 21
2.947500000000007
 31
0
  0
LINE
  8
0
 62
7
 10
4.09025
 20
2.947500000000007
 30
0
 11
4.0925
 21
2.935000000000007
 31
0
  0
LINE
  8
0
 62
7
 10
4.0925
 20
2.935000000000007
 30
0
 11
4.09475
 21
2.947500000000007
 31
0
  0
LINE
  8
0
 62
7
 10
4.09475
 20
2.947500000000007
 30
0
 11
4.097
 21
2.952500000000006
 31
0
  0
LINE
  8
0
 62
7
 10
4.097
 20
2.952500000000006
 30
0
 11
4.101500000000001
 21
2.957500000000007
 31
0
  0
LINE
  8
0
 62
7
 10
4.101500000000001
 20
2.957500000000007
 30
0
 11
4.108250000000001
 21
2.960000000000007
 31
0
  0
LINE
  8
0
 62
7
 10
4.108250000000001
 20
2.960000000000007
 30
0
 11
4.11725
 21
2.960000000000007
 31
0
  0
LINE
  8
0
 62
7
 10
4.11725
 20
2.960000000000007
 30
0
 11
4.124000000000001
 21
2.957500000000007
 31
0
  0
LINE
  8
0
 62
7
 10
4.128500000000001
 20
2.952500000000006
 30
0
 11
4.124000000000001
 21
2.957500000000007
 31
0
  0
LINE
  8
0
 62
7
 10
4.124000000000001
 20
2.957500000000007
 30
0
 11
4.128500000000001
 21
2.952500000000006
 31
0
  0
LINE
  8
0
 62
7
 10
4.128500000000001
 20
2.952500000000006
 30
0
 11
4.13075
 21
2.947500000000007
 31
0
  0
LINE
  8
0
 62
7
 10
4.13075
 20
2.947500000000007
 30
0
 11
4.133
 21
2.935000000000007
 31
0
  0
LINE
  8
0
 62
7
 10
4.133
 20
2.935000000000007
 30
0
 11
4.133
 21
2.890000000000006
 31
0
  0
ARC
  8
0
 62
7
 10
2.79537529748301
 20
3.945375297483018
 30
0
 40
0.639000000000007
 50
359.9663490409159
 51
90.03365096051849
  0
ARC
  8
0
 62
7
 10
2.389624702517
 20
3.945375297483038
 30
0
 40
0.6389999999999942
 50
89.96634903782635
 51
180.0336509605204
  0
CIRCLE
  8
0
 62
7
 10
3.43437518727315
 20
3.250000000000007
 30
0
 40
0.06000000000000005
  0
DIMENSION
  8
0
  6
CONTINUOUS
 62
7
  2
*D1
  3
DMST_1
 10
3.91
 20
11.4860819864589
 30
0
 11
2.60383395375571
 21
11.4860819864589
 31
0
 12
0
 22
0
 32
0
 70
0
 13
1.275
 23
11.2
 33
0
 14
3.91
 24
11.2
 34
0
 53
0
  0
DIMENSION
  8
0
  6
CONTINUOUS
 62
7
  2
*D2
  3
DMST_2
 10
4.40230868242061
 20
5.060000000000007
 30
0
 11
4.40230868242061
 21
4.17179731482215
 31
0
 12
0
 22
0
 32
0
 70
0
 13
4.085
 23
3.250000000000007
 33
0
 14
4.085
 24
5.060000000000007
 34
0
 50
90
 53
0
  0
DIMENSION
  8
0
  6
CONTINUOUS
 62
7
  2
*D3
  3
DMST_2
 10
1.275
 20
5.93527210398569
 30
0
 11
2.5609153206438
 21
5.93527210398569
 31
0
 12
0
 22
0
 32
0
 70
0
 13
3.91
 23
5.579999999999997
 33
0
 14
1.275
 24
5.579999999999997
 34
0
 53
0
  0
DIMENSION
  8
0
  6
CONTINUOUS
 62
7
  2
*D4
  3
DMST_2
 10
0.8584762072048699
 20
5.060000000000007
 30
0
 11
0.8584762072048699
 21
4.26144541262136
 31
0
 12
0
 22
0
 32
0
 70
0
 13
1.1
 23
3.350000000000007
 33
0
 14
1.1
 24
5.060000000000007
 34
0
 50
90
 53
0
  0
INSERT
  8
0
  2
*D0
 10
0
 20
0
 30
0
  0
ENDSEC
  0
EOF
