  0
SECTION
  2
HEADER
  9
$ACADVER
  1
AC1009
  9
$INSBASE
 10
0
 20
0
  9
$EXTMIN
 10
0.5179126801226491
 20
2.890000000000005
  9
$EXTMAX
 10
8.25
 20
11.4999045486288
  9
$LIMMIN
 10
0.5179126801226491
 20
2.890000000000005
  9
$LIMMAX
 10
8.25
 20
11.4999045486288
  9
$VIEWCTR
 10
10
 20
10
  9
$VIEWSIZE
 40
10
  9
$SNAPMODE
 70
0
  9
$SNAPUNIT
 10
1
 20
1
  9
$SNAPBASE
 10
0
 20
0
  9
$SNAPANG
 50
0
  9
$SNAPSTYLE
 70
0
  9
$SNAPISOPAIR
 70
0
  9
$GRIDMODE
 70
0
  9
$GRIDUNIT
 10
0
 20
0
  9
$ORTHOMODE
 70
0
  9
$REGENMODE
 70
1
  9
$FILLMODE
 70
1
  9
$QTEXTMODE
 70
0
  9
$DRAGMODE
 70
2
  9
$LTSCALE
 40
1
  9
$OSMODE
 70
0
  9
$ATTMODE
 70
1
  9
$TEXTSIZE
 40
3.5
  9
$TRACEWID
 40
0.5
  9
$TEXTSTYLE
  7
STANDARD
  9
$CLAYER
  8
0
  9
$CELTYPE
  6
BYLAYER
  9
$CECOLOR
 62
256
  9
$DIMSCALE
 40
1
  9
$DIMASZ
 40
0.18
  9
$DIMEXO
 40
0.0625
  9
$DIMDLI
 40
0.38
  9
$DIMRND
 40
0
  9
$DIMDLE
 40
0
  9
$DIMEXE
 40
0.18
  9
$DIMTP
 40
0
  9
$DIMTM
 40
0
  9
$DIMTXT
 40
0.18
  9
$DIMCEN
 40
0.09
  9
$DIMTSZ
 40
0
  9
$DIMTOL
 70
0
  9
$DIMLIM
 70
0
  9
$DIMTIH
 70
1
  9
$DIMTOH
 70
1
  9
$DIMSE1
 70
0
  9
$DIMSE2
 70
0
  9
$DIMTAD
 70
0
  9
$DIMZIN
 70
0
  9
$DIMBLK
  1

  9
$DIMASO
 70
1
  9
$DIMSHO
 70
1
  9
$DIMPOST
  1

  9
$DIMAPOST
  1

  9
$DIMALT
 70
0
  9
$DIMALTD
 70
2
  9
$DIMALTF
 40
25.4
  9
$DIMLFAC
 40
1
  9
$DIMTOFL
 70
0
  9
$DIMTVP
 40
0
  9
$DIMTIX
 70
0
  9
$DIMSOXD
 70
0
  9
$DIMSAH
 70
0
  9
$DIMBLK1
  1

  9
$DIMBLK2
  1

  9
$DIMSTYLE
  2
*UNNAMED
  9
$DIMCLRD
 70
0
  9
$DIMCLRE
 70
0
  9
$DIMCLRT
 70
0
  9
$DIMTFAC
 40
1
  9
$DIMGAP
 40
0.09
  9
$LUNITS
 70
2
  9
$LUPREC
 70
4
  9
$AXISMODE
 70
0
  9
$AXISUNIT
 10
0
 20
0
  9
$SKETCHINC
 40
0.1
  9
$FILLETRAD
 40
2
  9
$AUNITS
 70
0
  9
$AUPREC
 70
0
  9
$MENU
  1
ACAD
  9
$ELEVATION
 40
0
  9
$THICKNESS
 40
0
  9
$VIEWDIR
 10
0
 20
0
 30
1
  9
$LIMCHECK
 70
0
  9
$BLIPMODE
 70
1
  9
$CHAMFERA
 40
0
  9
$CHAMFERB
 40
0
  9
$FASTZOOM
 70
1
  9
$SKPOLY
 70
0
  9
$ANGBASE
 50
0
  9
$ANGDIR
 70
0
  9
$PDMODE
 70
0
  9
$PDSIZE
 40
0
  9
$PLINEWID
 40
0
  9
$COORDS
 70
2
  0
ENDSEC
  0
SECTION
  2
TABLES
  0
TABLE
  2
DIMSTYLE
 70
2
  0
DIMSTYLE
  2
DMST_1
 70
0
  3

  4

  5

  6

  7

 40
1
 41
0.1
 42
0
 43
0.7
 44
0.2
 45
0
 46
0
 47
0
 48
0
140
0.1
141
0
142
0.1
143
25.4
144
1
145
0
146
1
147
0.2
 71
0
 72
0
 73
0
 74
0
 75
0
 76
0
 77
0
 78
9
170
0
171
2
172
0
173
0
174
0
175
0
176
7
177
7
178
7
  0
DIMSTYLE
  2
DMST_2
 70
0
  3

  4

  5

  6

  7

 40
1
 41
0.1
 42
0
 43
0.7
 44
0.2
 45
0
 46
0
 47
0
 48
0
140
0.1
141
0
142
0.1
143
25.4
144
1
145
0
146
1
147
0.25
 71
0
 72
0
 73
0
 74
0
 75
0
 76
0
 77
0
 78
9
170
0
171
2
172
0
173
0
174
0
175
0
176
7
177
7
178
7
  0
ENDTAB
  0
TABLE
  2
LTYPE
 70
9
  0
LTYPE
  2
CONTINUOUS
 70
64
  3
Solid line
 72
65
 73
0
 40
0
  0
LTYPE
  2
BORDER
 70
64
  3
__ __ . __ __ .
 72
65
 73
6
 40
0.396508762107905
 49
0.1132882177451157
 49
-0.05664410887255786
 49
0.1132882177451157
 49
-0.05664410887255786
 49
0
 49
-0.05664410887255786
  0
LTYPE
  2
CENTER
 70
64
  3
____ _ ____ _
 72
65
 73
4
 40
0.4531528709804629
 49
0.2832205443627893
 49
-0.05664410887255786
 49
0.05664410887255786
 49
-0.05664410887255786
  0
LTYPE
  2
DASHDOT
 70
64
  3
__ . __ . __ .
 72
65
 73
4
 40
0.2265764354902314
 49
0.1132882177451157
 49
-0.05664410887255786
 49
0
 49
-0.05664410887255786
  0
LTYPE
  2
DASHED
 70
64
  3
__ __ __ __ __
 72
65
 73
2
 40
0.1699323266176736
 49
0.1132882177451157
 49
-0.05664410887255786
  0
LTYPE
  2
DIVIDE
 70
64
  3
__ . . __ . . 
 72
65
 73
6
 40
0.2832205443627893
 49
0.1132882177451157
 49
-0.05664410887255786
 49
0
 49
-0.05664410887255786
 49
0
 49
-0.05664410887255786
  0
LTYPE
  2
DOT
 70
64
  3
..............
 72
65
 73
4
 40
0.1132882177451157
 49
0
 49
-0.05664410887255786
 49
0
 49
-0.05664410887255786
  0
LTYPE
  2
HIDDEN
 70
64
  3
_ _ _ _ _ _ _
 72
65
 73
2
 40
0.08496616330883679
 49
0.05664410887255786
 49
-0.02832205443627893
  0
LTYPE
  2
PHANTOM
 70
64
  3
_____ _ _ _____ _ _ 
 72
65
 73
6
 40
0.5664410887255786
 49
0.2832205443627893
 49
-0.05664410887255786
 49
0.05664410887255786
 49
-0.05664410887255786
 49
0.05664410887255786
 49
-0.05664410887255786
  0
ENDTAB
  0
TABLE
  2
LAYER
 70
2
  0
LAYER
  2
0
 70
0
 62
7
  6
CONTINUOUS
  0
ENDTAB
  0
TABLE
  2
STYLE
 70
4
  0
STYLE
  2
STANDARD
 70
0
 40
0
 41
1
 50
0
 71
0
 42
3.5
  3
txt
  4

  0
STYLE
  2
SIMPLEX
 70
0
 40
0
 41
1
 50
0
 71
0
 42
3.5
  3
simplex
  4

  0
STYLE
  2
COMPLEX
 70
0
 40
0
 41
1
 50
0
 71
0
 42
3.5
  3
complex
  4

  0
STYLE
  2
ITALIC
 70
0
 40
0
 41
1
 50
0
 71
0
 42
3.5
  3
italic
  4

  0
ENDTAB
  0
TABLE
  2
VIEW
 70
0
  0
ENDTAB
  0
ENDSEC
  0
SECTION
  2
BLOCKS
  0
BLOCK
  8
0
  2
*X0
 70
1
 10
0
 20
0
 30
0
  0
LINE
  8
0
 62
7
 10
1.1
 20
7.994291116568838
 30
0
 11
1.20570888343116
 21
8.099999999999998
 31
0
  0
LINE
  8
0
 62
7
 10
1.267840917787122
 20
7.949999999999996
 30
0
 11
1.275000000000001
 21
7.957159082212874
 31
0
  0
LINE
  8
0
 62
7
 10
1.16177490060914
 20
7.949999999999996
 30
0
 11
1.274999999999999
 21
8.063225099390854
 31
0
  0
ENDBLK
  8
0
  0
BLOCK
  8
0
  2
*X1
 70
1
 10
0
 20
0
 30
0
  0
LINE
  8
0
 62
7
 10
1.1
 20
10.75200756319637
 30
0
 11
1.197992436803626
 21
10.85
 31
0
  0
LINE
  8
0
 62
7
 10
1.1
 20
10.5398755288404
 30
0
 11
1.275
 21
10.7148755288404
 31
0
  0
LINE
  8
0
 62
7
 10
1.1
 20
10.32774349448444
 30
0
 11
1.275
 21
10.50274349448444
 31
0
  0
LINE
  8
0
 62
7
 10
1.1
 20
10.11561146012848
 30
0
 11
1.275
 21
10.29061146012848
 31
0
  0
LINE
  8
0
 62
7
 10
1.1
 20
9.903479425772513
 30
0
 11
1.275
 21
10.07847942577251
 31
0
  0
LINE
  8
0
 62
7
 10
1.1
 20
9.691347391416549
 30
0
 11
1.275
 21
9.866347391416548
 31
0
  0
LINE
  8
0
 62
7
 10
1.1
 20
9.479215357060585
 30
0
 11
1.275
 21
9.654215357060584
 31
0
  0
LINE
  8
0
 62
7
 10
1.1
 20
9.267083322704622
 30
0
 11
1.275
 21
9.442083322704621
 31
0
  0
LINE
  8
0
 62
7
 10
1.1
 20
9.054951288348658
 30
0
 11
1.275
 21
9.229951288348657
 31
0
  0
LINE
  8
0
 62
7
 10
1.1
 20
8.842819253992694
 30
0
 11
1.275
 21
9.017819253992693
 31
0
  0
LINE
  8
0
 62
7
 10
1.1
 20
8.63068721963673
 30
0
 11
1.275
 21
8.805687219636729
 31
0
  0
LINE
  8
0
 62
7
 10
1.1
 20
8.418555185280766
 30
0
 11
1.275
 21
8.593555185280765
 31
0
  0
LINE
  8
0
 62
7
 10
1.1935768490752
 20
8.300000000000001
 30
0
 11
1.275
 21
8.381423150924801
 31
0
  0
LINE
  8
0
 62
7
 10
1.100000000000001
 20
10.64594154601838
 30
0
 11
1.274999999999999
 21
10.82094154601838
 31
0
  0
LINE
  8
0
 62
7
 10
1.100000000000001
 20
10.43380951166242
 30
0
 11
1.274999999999999
 21
10.60880951166242
 31
0
  0
LINE
  8
0
 62
7
 10
1.100000000000001
 20
10.22167747730646
 30
0
 11
1.274999999999999
 21
10.39667747730646
 31
0
  0
LINE
  8
0
 62
7
 10
1.100000000000001
 20
10.00954544295049
 30
0
 11
1.274999999999999
 21
10.18454544295049
 31
0
  0
LINE
  8
0
 62
7
 10
1.100000000000001
 20
9.797413408594529
 30
0
 11
1.274999999999999
 21
9.972413408594528
 31
0
  0
LINE
  8
0
 62
7
 10
1.100000000000001
 20
9.585281374238566
 30
0
 11
1.274999999999999
 21
9.760281374238565
 31
0
  0
LINE
  8
0
 62
7
 10
1.100000000000001
 20
9.373149339882602
 30
0
 11
1.274999999999999
 21
9.548149339882601
 31
0
  0
LINE
  8
0
 62
7
 10
1.100000000000001
 20
9.161017305526638
 30
0
 11
1.274999999999999
 21
9.336017305526637
 31
0
  0
LINE
  8
0
 62
7
 10
1.100000000000001
 20
8.948885271170674
 30
0
 11
1.274999999999999
 21
9.123885271170673
 31
0
  0
LINE
  8
0
 62
7
 10
1.100000000000001
 20
8.73675323681471
 30
0
 11
1.274999999999999
 21
8.911753236814709
 31
0
  0
LINE
  8
0
 62
7
 10
1.100000000000001
 20
8.524621202458746
 30
0
 11
1.274999999999999
 21
8.699621202458745
 31
0
  0
LINE
  8
0
 62
7
 10
1.100000000000001
 20
8.312489168102783
 30
0
 11
1.274999999999999
 21
8.487489168102782
 31
0
  0
ENDBLK
  8
0
  0
BLOCK
  8
0
  2
*X2
 70
1
 10
0
 20
0
 30
0
  0
LINE
  8
0
 62
7
 10
1.100000000000001
 20
11.1762716319083
 30
0
 11
1.123728368091698
 21
11.2
 31
0
  0
LINE
  8
0
 62
7
 10
1.185860402447664
 20
11.05
 30
0
 11
1.274999999999999
 21
11.13913959755234
 31
0
  0
LINE
  8
0
 62
7
 10
1.1
 20
11.07020561473032
 30
0
 11
1.229794385269681
 21
11.2
 31
0
  0
ENDBLK
  8
0
  0
BLOCK
  8
0
  2
*X3
 70
1
 10
0
 20
0
 30
0
  0
LINE
  8
0
 62
7
 10
4.035
 20
7.959442635585338
 30
0
 11
4.17555736441466
 21
8.099999999999998
 31
0
  0
LINE
  8
0
 62
7
 10
4.035
 20
8.06550865276332
 30
0
 11
4.069491347236678
 21
8.099999999999998
 31
0
  0
LINE
  8
0
 62
7
 10
4.13162338159264
 20
7.949999999999996
 30
0
 11
4.21
 21
8.028376618407355
 31
0
  0
ENDBLK
  8
0
  0
BLOCK
  8
0
  2
*X4
 70
1
 10
0
 20
0
 30
0
  0
LINE
  8
0
 62
7
 10
4.035
 20
10.71715908221287
 30
0
 11
4.167840917787125
 21
10.85
 31
0
  0
LINE
  8
0
 62
7
 10
4.035
 20
10.50502704785691
 30
0
 11
4.210000000000001
 21
10.6800270478569
 31
0
  0
LINE
  8
0
 62
7
 10
4.035
 20
10.29289501350094
 30
0
 11
4.210000000000001
 21
10.46789501350094
 31
0
  0
LINE
  8
0
 62
7
 10
4.035
 20
10.08076297914498
 30
0
 11
4.210000000000001
 21
10.25576297914498
 31
0
  0
LINE
  8
0
 62
7
 10
4.035
 20
9.868630944789015
 30
0
 11
4.210000000000001
 21
10.04363094478901
 31
0
  0
LINE
  8
0
 62
7
 10
4.035
 20
9.656498910433051
 30
0
 11
4.210000000000001
 21
9.831498910433048
 31
0
  0
LINE
  8
0
 62
7
 10
4.035
 20
9.444366876077087
 30
0
 11
4.210000000000001
 21
9.619366876077084
 31
0
  0
LINE
  8
0
 62
7
 10
4.035
 20
9.232234841721123
 30
0
 11
4.210000000000001
 21
9.40723484172112
 31
0
  0
LINE
  8
0
 62
7
 10
4.035
 20
9.020102807365159
 30
0
 11
4.210000000000001
 21
9.195102807365156
 31
0
  0
LINE
  8
0
 62
7
 10
4.035
 20
8.807970773009195
 30
0
 11
4.210000000000001
 21
8.982970773009193
 31
0
  0
LINE
  8
0
 62
7
 10
4.035
 20
8.595838738653232
 30
0
 11
4.210000000000001
 21
8.770838738653229
 31
0
  0
LINE
  8
0
 62
7
 10
4.035
 20
8.383706704297268
 30
0
 11
4.210000000000001
 21
8.558706704297265
 31
0
  0
LINE
  8
0
 62
7
 10
4.163425330058699
 20
8.300000000000001
 30
0
 11
4.210000000000001
 21
8.346574669941301
 31
0
  0
LINE
  8
0
 62
7
 10
4.035
 20
10.82322509939085
 30
0
 11
4.061774900609144
 21
10.85
 31
0
  0
LINE
  8
0
 62
7
 10
4.035
 20
10.61109306503489
 30
0
 11
4.21
 21
10.78609306503489
 31
0
  0
LINE
  8
0
 62
7
 10
4.035
 20
10.39896103067892
 30
0
 11
4.21
 21
10.57396103067892
 31
0
  0
LINE
  8
0
 62
7
 10
4.035
 20
10.18682899632296
 30
0
 11
4.21
 21
10.36182899632296
 31
0
  0
LINE
  8
0
 62
7
 10
4.035
 20
9.974696961966995
 30
0
 11
4.21
 21
10.14969696196699
 31
0
  0
LINE
  8
0
 62
7
 10
4.035
 20
9.762564927611031
 30
0
 11
4.21
 21
9.93756492761103
 31
0
  0
LINE
  8
0
 62
7
 10
4.035
 20
9.550432893255067
 30
0
 11
4.21
 21
9.725432893255066
 31
0
  0
LINE
  8
0
 62
7
 10
4.035
 20
9.338300858899103
 30
0
 11
4.21
 21
9.513300858899102
 31
0
  0
LINE
  8
0
 62
7
 10
4.035
 20
9.126168824543139
 30
0
 11
4.21
 21
9.301168824543138
 31
0
  0
LINE
  8
0
 62
7
 10
4.035
 20
8.914036790187176
 30
0
 11
4.21
 21
9.089036790187174
 31
0
  0
LINE
  8
0
 62
7
 10
4.035
 20
8.701904755831212
 30
0
 11
4.21
 21
8.876904755831211
 31
0
  0
LINE
  8
0
 62
7
 10
4.035
 20
8.489772721475248
 30
0
 11
4.21
 21
8.664772721475247
 31
0
  0
LINE
  8
0
 62
7
 10
4.057359312880717
 20
8.300000000000001
 30
0
 11
4.21
 21
8.452640687119283
 31
0
  0
ENDBLK
  8
0
  0
BLOCK
  8
0
  2
*X5
 70
1
 10
0
 20
0
 30
0
  0
LINE
  8
0
 62
7
 10
4.034999999999998
 20
11.1414231509248
 30
0
 11
4.093576849075198
 21
11.2
 31
0
  0
LINE
  8
0
 62
7
 10
4.155708883431164
 20
11.05
 30
0
 11
4.21
 21
11.10429111656884
 31
0
  0
LINE
  8
0
 62
7
 10
4.049642866253182
 20
11.05
 30
0
 11
4.19964286625318
 21
11.2
 31
0
  0
ENDBLK
  8
0
  0
BLOCK
  8
0
  2
*X6
 70
1
 10
0
 20
0
 30
0
  0
LINE
  8
0
 62
7
  6
DASHED
 10
0.9499999999999993
 20
8.268555185280766
 30
0
 11
0.9814448147192345
 21
8.300000000000001
 31
0
  0
LINE
  8
0
 62
7
  6
DASHED
 10
0.9935768490751955
 20
8.099999999999998
 30
0
 11
1.193576849075199
 21
8.300000000000001
 31
0
  0
LINE
  8
0
 62
7
  6
DASHED
 10
1.20570888343116
 20
8.099999999999998
 30
0
 11
1.405708883431163
 21
8.300000000000001
 31
0
  0
LINE
  8
0
 62
7
  6
DASHED
 10
1.417840917787124
 20
8.099999999999998
 30
0
 11
1.617840917787127
 21
8.300000000000001
 31
0
  0
LINE
  8
0
 62
7
  6
DASHED
 10
1.629972952143088
 20
8.099999999999998
 30
0
 11
1.829972952143092
 21
8.300000000000001
 31
0
  0
LINE
  8
0
 62
7
  6
DASHED
 10
1.842104986499053
 20
8.099999999999998
 30
0
 11
2.042104986499056
 21
8.300000000000001
 31
0
  0
LINE
  8
0
 62
7
  6
DASHED
 10
2.054237020855017
 20
8.099999999999998
 30
0
 11
2.25423702085502
 21
8.300000000000001
 31
0
  0
LINE
  8
0
 62
7
  6
DASHED
 10
2.266369055210981
 20
8.099999999999998
 30
0
 11
2.466369055210984
 21
8.300000000000001
 31
0
  0
LINE
  8
0
 62
7
  6
DASHED
 10
2.478501089566945
 20
8.099999999999998
 30
0
 11
2.678501089566949
 21
8.300000000000001
 31
0
  0
LINE
  8
0
 62
7
  6
DASHED
 10
2.69063312392291
 20
8.099999999999998
 30
0
 11
2.890633123922913
 21
8.300000000000001
 31
0
  0
LINE
  8
0
 62
7
  6
DASHED
 10
2.902765158278874
 20
8.099999999999998
 30
0
 11
3.102765158278877
 21
8.300000000000001
 31
0
  0
LINE
  8
0
 62
7
  6
DASHED
 10
3.114897192634838
 20
8.099999999999998
 30
0
 11
3.314897192634842
 21
8.300000000000001
 31
0
  0
LINE
  8
0
 62
7
  6
DASHED
 10
3.327029226990803
 20
8.099999999999998
 30
0
 11
3.527029226990806
 21
8.300000000000001
 31
0
  0
LINE
  8
0
 62
7
  6
DASHED
 10
3.539161261346767
 20
8.099999999999998
 30
0
 11
3.73916126134677
 21
8.300000000000001
 31
0
  0
LINE
  8
0
 62
7
  6
DASHED
 10
3.751293295702731
 20
8.099999999999998
 30
0
 11
3.951293295702734
 21
8.300000000000001
 31
0
  0
LINE
  8
0
 62
7
  6
DASHED
 10
3.963425330058695
 20
8.099999999999998
 30
0
 11
4.163425330058699
 21
8.300000000000001
 31
0
  0
LINE
  8
0
 62
7
  6
DASHED
 10
4.17555736441466
 20
8.099999999999998
 30
0
 11
4.359999999999999
 21
8.284442635585338
 31
0
  0
LINE
  8
0
 62
7
 10
0.9499999999999997
 20
8.162489168102784
 30
0
 11
1.087510831897218
 21
8.300000000000001
 31
0
  0
LINE
  8
0
 62
7
 10
1.099642866253179
 20
8.099999999999998
 30
0
 11
1.299642866253182
 21
8.300000000000001
 31
0
  0
LINE
  8
0
 62
7
 10
1.311774900609143
 20
8.099999999999998
 30
0
 11
1.511774900609146
 21
8.300000000000001
 31
0
  0
LINE
  8
0
 62
7
 10
1.523906934965107
 20
8.099999999999998
 30
0
 11
1.723906934965111
 21
8.300000000000001
 31
0
  0
LINE
  8
0
 62
7
 10
1.736038969321072
 20
8.099999999999998
 30
0
 11
1.936038969321075
 21
8.300000000000001
 31
0
  0
LINE
  8
0
 62
7
 10
1.948171003677036
 20
8.099999999999998
 30
0
 11
2.148171003677039
 21
8.300000000000001
 31
0
  0
LINE
  8
0
 62
7
 10
2.160303038033
 20
8.099999999999998
 30
0
 11
2.360303038033003
 21
8.300000000000001
 31
0
  0
LINE
  8
0
 62
7
 10
2.372435072388964
 20
8.099999999999998
 30
0
 11
2.572435072388968
 21
8.300000000000001
 31
0
  0
LINE
  8
0
 62
7
 10
2.584567106744929
 20
8.099999999999998
 30
0
 11
2.784567106744932
 21
8.300000000000001
 31
0
  0
LINE
  8
0
 62
7
 10
2.796699141100893
 20
8.099999999999998
 30
0
 11
2.996699141100896
 21
8.300000000000001
 31
0
  0
LINE
  8
0
 62
7
 10
3.008831175456857
 20
8.099999999999998
 30
0
 11
3.208831175456861
 21
8.300000000000001
 31
0
  0
LINE
  8
0
 62
7
 10
3.220963209812822
 20
8.099999999999998
 30
0
 11
3.420963209812825
 21
8.300000000000001
 31
0
  0
LINE
  8
0
 62
7
 10
3.433095244168786
 20
8.099999999999998
 30
0
 11
3.633095244168789
 21
8.300000000000001
 31
0
  0
LINE
  8
0
 62
7
 10
3.64522727852475
 20
8.099999999999998
 30
0
 11
3.845227278524753
 21
8.300000000000001
 31
0
  0
LINE
  8
0
 62
7
 10
3.857359312880714
 20
8.099999999999998
 30
0
 11
4.057359312880718
 21
8.300000000000001
 31
0
  0
LINE
  8
0
 62
7
 10
4.069491347236679
 20
8.099999999999998
 30
0
 11
4.269491347236682
 21
8.300000000000001
 31
0
  0
LINE
  8
0
 62
7
 10
4.281623381592643
 20
8.099999999999998
 30
0
 11
4.36
 21
8.178376618407356
 31
0
  0
ENDBLK
  8
0
  0
BLOCK
  8
0
  2
*X7
 70
1
 10
0
 20
0
 30
0
  0
LINE
  8
0
 62
7
  6
DASHED
 10
0.9500000000000002
 20
11.0262716319083
 30
0
 11
0.9737283680916993
 21
11.05
 31
0
  0
LINE
  8
0
 62
7
  6
DASHED
 10
0.9858604024476629
 20
10.85
 30
0
 11
1.185860402447664
 21
11.05
 31
0
  0
LINE
  8
0
 62
7
  6
DASHED
 10
1.197992436803627
 20
10.85
 30
0
 11
1.397992436803628
 21
11.05
 31
0
  0
LINE
  8
0
 62
7
  6
DASHED
 10
1.410124471159591
 20
10.85
 30
0
 11
1.610124471159592
 21
11.05
 31
0
  0
LINE
  8
0
 62
7
  6
DASHED
 10
1.622256505515556
 20
10.85
 30
0
 11
1.822256505515556
 21
11.05
 31
0
  0
LINE
  8
0
 62
7
  6
DASHED
 10
1.83438853987152
 20
10.85
 30
0
 11
2.034388539871521
 21
11.05
 31
0
  0
LINE
  8
0
 62
7
  6
DASHED
 10
2.046520574227484
 20
10.85
 30
0
 11
2.246520574227485
 21
11.05
 31
0
  0
LINE
  8
0
 62
7
  6
DASHED
 10
2.258652608583449
 20
10.85
 30
0
 11
2.458652608583449
 21
11.05
 31
0
  0
LINE
  8
0
 62
7
  6
DASHED
 10
2.470784642939413
 20
10.85
 30
0
 11
2.670784642939414
 21
11.05
 31
0
  0
LINE
  8
0
 62
7
  6
DASHED
 10
2.682916677295377
 20
10.85
 30
0
 11
2.882916677295378
 21
11.05
 31
0
  0
LINE
  8
0
 62
7
  6
DASHED
 10
2.895048711651341
 20
10.85
 30
0
 11
3.095048711651342
 21
11.05
 31
0
  0
LINE
  8
0
 62
7
  6
DASHED
 10
3.107180746007306
 20
10.85
 30
0
 11
3.307180746007306
 21
11.05
 31
0
  0
LINE
  8
0
 62
7
  6
DASHED
 10
3.31931278036327
 20
10.85
 30
0
 11
3.519312780363271
 21
11.05
 31
0
  0
LINE
  8
0
 62
7
  6
DASHED
 10
3.531444814719234
 20
10.85
 30
0
 11
3.731444814719235
 21
11.05
 31
0
  0
LINE
  8
0
 62
7
  6
DASHED
 10
3.743576849075199
 20
10.85
 30
0
 11
3.943576849075199
 21
11.05
 31
0
  0
LINE
  8
0
 62
7
  6
DASHED
 10
3.955708883431163
 20
10.85
 30
0
 11
4.155708883431164
 21
11.05
 31
0
  0
LINE
  8
0
 62
7
  6
DASHED
 10
4.167840917787127
 20
10.85
 30
0
 11
4.359999999999999
 21
11.04215908221287
 31
0
  0
LINE
  8
0
 62
7
 10
0.9500000000000002
 20
10.92020561473032
 30
0
 11
1.079794385269682
 21
11.05
 31
0
  0
LINE
  8
0
 62
7
 10
1.091926419625646
 20
10.85
 30
0
 11
1.291926419625646
 21
11.05
 31
0
  0
LINE
  8
0
 62
7
 10
1.30405845398161
 20
10.85
 30
0
 11
1.50405845398161
 21
11.05
 31
0
  0
LINE
  8
0
 62
7
 10
1.516190488337575
 20
10.85
 30
0
 11
1.716190488337574
 21
11.05
 31
0
  0
LINE
  8
0
 62
7
 10
1.728322522693539
 20
10.85
 30
0
 11
1.928322522693539
 21
11.05
 31
0
  0
LINE
  8
0
 62
7
 10
1.940454557049503
 20
10.85
 30
0
 11
2.140454557049503
 21
11.05
 31
0
  0
LINE
  8
0
 62
7
 10
2.152586591405468
 20
10.85
 30
0
 11
2.352586591405467
 21
11.05
 31
0
  0
LINE
  8
0
 62
7
 10
2.364718625761432
 20
10.85
 30
0
 11
2.564718625761432
 21
11.05
 31
0
  0
LINE
  8
0
 62
7
 10
2.576850660117396
 20
10.85
 30
0
 11
2.776850660117396
 21
11.05
 31
0
  0
LINE
  8
0
 62
7
 10
2.78898269447336
 20
10.85
 30
0
 11
2.98898269447336
 21
11.05
 31
0
  0
LINE
  8
0
 62
7
 10
3.001114728829325
 20
10.85
 30
0
 11
3.201114728829324
 21
11.05
 31
0
  0
LINE
  8
0
 62
7
 10
3.213246763185289
 20
10.85
 30
0
 11
3.413246763185289
 21
11.05
 31
0
  0
LINE
  8
0
 62
7
 10
3.425378797541253
 20
10.85
 30
0
 11
3.625378797541253
 21
11.05
 31
0
  0
LINE
  8
0
 62
7
 10
3.637510831897218
 20
10.85
 30
0
 11
3.837510831897217
 21
11.05
 31
0
  0
LINE
  8
0
 62
7
 10
3.849642866253182
 20
10.85
 30
0
 11
4.049642866253182
 21
11.05
 31
0
  0
LINE
  8
0
 62
7
 10
4.061774900609146
 20
10.85
 30
0
 11
4.261774900609145
 21
11.05
 31
0
  0
LINE
  8
0
 62
7
 10
4.27390693496511
 20
10.85
 30
0
 11
4.359999999999999
 21
10.93609306503489
 31
0
  0
ENDBLK
  8
0
  0
BLOCK
  8
0
  2
*X8
 70
1
 10
0
 20
0
 30
0
  0
LINE
  8
0
 62
7
 10
7.960000000000002
 20
8.066066017177983
 30
0
 11
7.993933982822015
 21
8.099999999999998
 31
0
  0
LINE
  8
0
 62
7
 10
8.056066017177979
 20
7.949999999999997
 30
0
 11
8.200000000000001
 21
8.093933982822016
 31
0
  0
LINE
  8
0
 62
7
 10
7.960000000000001
 20
7.96
 30
0
 11
8.099999999999998
 21
8.099999999999998
 31
0
  0
LINE
  8
0
 62
7
 10
8.162132034355961
 20
7.949999999999996
 30
0
 11
8.200000000000001
 21
7.987867965644037
 31
0
  0
ENDBLK
  8
0
  0
BLOCK
  8
0
  2
*X9
 70
1
 10
0
 20
0
 30
0
  0
LINE
  8
0
 62
7
 10
7.960000000000001
 20
10.82378246380551
 30
0
 11
7.986217536194484
 21
10.85
 31
0
  0
LINE
  8
0
 62
7
 10
7.960000000000001
 20
10.61165042944955
 30
0
 11
8.198349570550448
 21
10.85
 31
0
  0
LINE
  8
0
 62
7
 10
7.960000000000001
 20
10.39951839509358
 30
0
 11
8.200000000000001
 21
10.63951839509359
 31
0
  0
LINE
  8
0
 62
7
 10
7.960000000000001
 20
10.18738636073762
 30
0
 11
8.200000000000001
 21
10.42738636073762
 31
0
  0
LINE
  8
0
 62
7
 10
7.960000000000001
 20
9.975254326381657
 30
0
 11
8.200000000000001
 21
10.21525432638166
 31
0
  0
LINE
  8
0
 62
7
 10
7.960000000000001
 20
9.763122292025693
 30
0
 11
8.200000000000001
 21
10.0031222920257
 31
0
  0
LINE
  8
0
 62
7
 10
7.960000000000001
 20
9.55099025766973
 30
0
 11
8.200000000000001
 21
9.790990257669732
 31
0
  0
LINE
  8
0
 62
7
 10
7.960000000000001
 20
9.338858223313766
 30
0
 11
8.200000000000001
 21
9.578858223313768
 31
0
  0
LINE
  8
0
 62
7
 10
7.960000000000001
 20
9.126726188957802
 30
0
 11
8.200000000000001
 21
9.366726188957804
 31
0
  0
LINE
  8
0
 62
7
 10
7.960000000000001
 20
8.914594154601838
 30
0
 11
8.200000000000001
 21
9.15459415460184
 31
0
  0
LINE
  8
0
 62
7
 10
7.960000000000001
 20
8.702462120245874
 30
0
 11
8.200000000000001
 21
8.942462120245876
 31
0
  0
LINE
  8
0
 62
7
 10
7.960000000000001
 20
8.49033008588991
 30
0
 11
8.200000000000001
 21
8.730330085889912
 31
0
  0
LINE
  8
0
 62
7
 10
7.981801948466055
 20
8.300000000000001
 30
0
 11
8.200000000000001
 21
8.518198051533949
 31
0
  0
LINE
  8
0
 62
7
 10
8.193933982822019
 20
8.300000000000001
 30
0
 11
8.200000000000001
 21
8.306066017177985
 31
0
  0
LINE
  8
0
 62
7
 10
7.960000000000003
 20
10.71771644662753
 30
0
 11
8.092283553372464
 21
10.85
 31
0
  0
LINE
  8
0
 62
7
 10
7.960000000000003
 20
10.50558441227157
 30
0
 11
8.200000000000001
 21
10.74558441227157
 31
0
  0
LINE
  8
0
 62
7
 10
7.960000000000003
 20
10.2934523779156
 30
0
 11
8.200000000000001
 21
10.5334523779156
 31
0
  0
LINE
  8
0
 62
7
 10
7.960000000000003
 20
10.08132034355964
 30
0
 11
8.200000000000001
 21
10.32132034355964
 31
0
  0
LINE
  8
0
 62
7
 10
7.960000000000003
 20
9.869188309203675
 30
0
 11
8.200000000000001
 21
10.10918830920367
 31
0
  0
LINE
  8
0
 62
7
 10
7.960000000000003
 20
9.657056274847712
 30
0
 11
8.200000000000001
 21
9.89705627484771
 31
0
  0
LINE
  8
0
 62
7
 10
7.960000000000003
 20
9.444924240491748
 30
0
 11
8.200000000000001
 21
9.684924240491746
 31
0
  0
LINE
  8
0
 62
7
 10
7.960000000000003
 20
9.232792206135784
 30
0
 11
8.200000000000001
 21
9.472792206135782
 31
0
  0
LINE
  8
0
 62
7
 10
7.960000000000003
 20
9.02066017177982
 30
0
 11
8.200000000000001
 21
9.260660171779818
 31
0
  0
LINE
  8
0
 62
7
 10
7.960000000000003
 20
8.808528137423856
 30
0
 11
8.200000000000001
 21
9.048528137423855
 31
0
  0
LINE
  8
0
 62
7
 10
7.960000000000003
 20
8.596396103067892
 30
0
 11
8.200000000000001
 21
8.836396103067891
 31
0
  0
LINE
  8
0
 62
7
 10
7.960000000000003
 20
8.384264068711929
 30
0
 11
8.200000000000001
 21
8.624264068711927
 31
0
  0
LINE
  8
0
 62
7
 10
8.087867965644037
 20
8.300000000000001
 30
0
 11
8.200000000000001
 21
8.412132034355963
 31
0
  0
ENDBLK
  8
0
  0
BLOCK
  8
0
  2
*X10
 70
1
 10
0
 20
0
 30
0
  0
LINE
  8
0
 62
7
 10
7.97408550183852
 20
11.05
 30
0
 11
8.12408550183852
 21
11.2
 31
0
  0
LINE
  8
0
 62
7
 10
8.186217536194484
 20
11.05
 30
0
 11
8.200000000000001
 21
11.06378246380552
 31
0
  0
LINE
  8
0
 62
7
 10
7.960000000000002
 20
11.14198051533946
 30
0
 11
8.018019484660535
 21
11.2
 31
0
  0
LINE
  8
0
 62
7
 10
8.0801515190165
 20
11.05
 30
0
 11
8.199999999999999
 21
11.1698484809835
 31
0
  0
ENDBLK
  8
0
  0
BLOCK
  8
0
  2
*X11
 70
1
 10
0
 20
0
 30
0
  0
LINE
  8
0
 62
7
  6
DASHED
 10
5.99
 20
8.217386360737624
 30
0
 11
6.072613639262377
 21
8.300000000000001
 31
0
  0
LINE
  8
0
 62
7
  6
DASHED
 10
6.084745673618341
 20
8.1
 30
0
 11
6.284745673618341
 21
8.300000000000001
 31
0
  0
LINE
  8
0
 62
7
 10
5.989999999999999
 20
8.11132034355964
 30
0
 11
6.17867965644036
 21
8.300000000000001
 31
0
  0
LINE
  8
0
 62
7
 10
6.190811690796321
 20
8.099999999999998
 30
0
 11
6.289999999999999
 21
8.199188309203677
 31
0
  0
ENDBLK
  8
0
  0
BLOCK
  8
0
  2
*X12
 70
1
 10
0
 20
0
 30
0
  0
LINE
  8
0
 62
7
  6
DASHED
 10
5.99
 20
10.97510280736516
 30
0
 11
6.064897192634842
 21
11.05
 31
0
  0
LINE
  8
0
 62
7
  6
DASHED
 10
6.077029226990806
 20
10.85
 30
0
 11
6.277029226990805
 21
11.05
 31
0
  0
LINE
  8
0
 62
7
  6
DASHED
 10
6.28916126134677
 20
10.85
 30
0
 11
6.289999999999999
 21
10.85083873865323
 31
0
  0
LINE
  8
0
 62
7
 10
5.989999999999998
 20
10.86903679018717
 30
0
 11
6.170963209812823
 21
11.05
 31
0
  0
LINE
  8
0
 62
7
 10
6.183095244168788
 20
10.85
 30
0
 11
6.289999999999999
 21
10.95690475583121
 31
0
  0
ENDBLK
  8
0
  0
BLOCK
  8
0
  2
*X13
 70
1
 10
0
 20
0
 30
0
  0
LINE
  8
0
 62
7
  6
DASHED
 10
7.959999999999999
 20
11.03591449816148
 30
0
 11
7.97408550183852
 21
11.05
 31
0
  0
LINE
  8
0
 62
7
  6
DASHED
 10
7.986217536194484
 20
10.85
 30
0
 11
8.186217536194484
 21
11.05
 31
0
  0
LINE
  8
0
 62
7
  6
DASHED
 10
8.198349570550448
 20
10.85
 30
0
 11
8.200000000000001
 21
10.85165042944955
 31
0
  0
LINE
  8
0
 62
7
 10
7.960000000000002
 20
10.9298484809835
 30
0
 11
8.0801515190165
 21
11.05
 31
0
  0
LINE
  8
0
 62
7
 10
8.092283553372464
 20
10.85
 30
0
 11
8.199999999999999
 21
10.95771644662753
 31
0
  0
ENDBLK
  8
0
  0
BLOCK
  8
0
  2
*X14
 70
1
 10
0
 20
0
 30
0
  0
LINE
  8
0
 62
7
  6
DASHED
 10
7.960000000000002
 20
8.278198051533948
 30
0
 11
7.981801948466055
 21
8.300000000000001
 31
0
  0
LINE
  8
0
 62
7
  6
DASHED
 10
7.993933982822015
 20
8.099999999999998
 30
0
 11
8.193933982822019
 21
8.300000000000001
 31
0
  0
LINE
  8
0
 62
7
 10
7.960000000000001
 20
8.172132034355963
 30
0
 11
8.087867965644037
 21
8.300000000000001
 31
0
  0
LINE
  8
0
 62
7
 10
8.099999999999998
 20
8.099999999999998
 30
0
 11
8.200000000000001
 21
8.199999999999999
 31
0
  0
ENDBLK
  8
0
  0
BLOCK
  8
0
  2
*X15
 70
1
 10
0
 20
0
 30
0
  0
LINE
  8
0
 62
7
 10
1.1
 20
5.660838738653231
 30
0
 11
1.129161261346768
 21
5.689999999999998
 31
0
  0
LINE
  8
0
 62
7
 10
0.9350000000000001
 20
5.49583873865323
 30
0
 11
0.9791612613467686
 21
5.539999999999999
 31
0
  0
LINE
  8
0
 62
7
 10
0.9512932957027345
 20
5.300000000000001
 30
0
 11
1.275
 21
5.623706704297266
 31
0
  0
LINE
  8
0
 62
7
 10
1.163425330058699
 20
5.300000000000001
 30
0
 11
1.403425330058697
 21
5.539999999999999
 31
0
  0
LINE
  8
0
 62
7
 10
1.375557364414663
 20
5.300000000000001
 30
0
 11
1.615557364414661
 21
5.539999999999999
 31
0
  0
LINE
  8
0
 62
7
 10
1.587689398770627
 20
5.300000000000001
 30
0
 11
1.827689398770625
 21
5.539999999999999
 31
0
  0
LINE
  8
0
 62
7
 10
1.799821433126592
 20
5.300000000000001
 30
0
 11
2.03982143312659
 21
5.539999999999999
 31
0
  0
LINE
  8
0
 62
7
 10
2.011953467482556
 20
5.300000000000001
 30
0
 11
2.251953467482554
 21
5.539999999999999
 31
0
  0
LINE
  8
0
 62
7
 10
2.22408550183852
 20
5.300000000000001
 30
0
 11
2.464085501838518
 21
5.539999999999999
 31
0
  0
LINE
  8
0
 62
7
 10
2.436217536194484
 20
5.300000000000001
 30
0
 11
2.676217536194482
 21
5.539999999999999
 31
0
  0
LINE
  8
0
 62
7
 10
2.648349570550449
 20
5.300000000000001
 30
0
 11
2.888349570550447
 21
5.539999999999999
 31
0
  0
LINE
  8
0
 62
7
 10
2.860481604906413
 20
5.300000000000001
 30
0
 11
3.100481604906411
 21
5.539999999999999
 31
0
  0
LINE
  8
0
 62
7
 10
3.072613639262377
 20
5.300000000000001
 30
0
 11
3.312613639262375
 21
5.539999999999999
 31
0
  0
LINE
  8
0
 62
7
 10
3.284745673618342
 20
5.300000000000001
 30
0
 11
3.52474567361834
 21
5.539999999999999
 31
0
  0
LINE
  8
0
 62
7
 10
3.496877707974306
 20
5.300000000000001
 30
0
 11
3.736877707974304
 21
5.539999999999999
 31
0
  0
LINE
  8
0
 62
7
 10
4.035000000000001
 20
5.625990257669732
 30
0
 11
4.099009742330266
 21
5.689999999999999
 31
0
  0
LINE
  8
0
 62
7
 10
3.70900974233027
 20
5.300000000000001
 30
0
 11
3.949009742330268
 21
5.539999999999999
 31
0
  0
LINE
  8
0
 62
7
 10
3.921141776686234
 20
5.300000000000001
 30
0
 11
4.21
 21
5.588858223313766
 31
0
  0
LINE
  8
0
 62
7
 10
4.133273811042199
 20
5.300000000000001
 30
0
 11
4.360000000000001
 21
5.526726188957803
 31
0
  0
LINE
  8
0
 62
7
 10
4.345405845398163
 20
5.300000000000001
 30
0
 11
4.360000000000001
 21
5.314594154601839
 31
0
  0
LINE
  8
0
 62
7
 10
1.100000000000001
 20
5.554772721475249
 30
0
 11
1.23522727852475
 21
5.689999999999999
 31
0
  0
LINE
  8
0
 62
7
 10
0.9350000000000001
 20
5.389772721475248
 30
0
 11
1.085227278524751
 21
5.539999999999999
 31
0
  0
LINE
  8
0
 62
7
 10
1.057359312880716
 20
5.300000000000001
 30
0
 11
1.297359312880714
 21
5.539999999999999
 31
0
  0
LINE
  8
0
 62
7
 10
1.26949134723668
 20
5.300000000000001
 30
0
 11
1.509491347236679
 21
5.539999999999999
 31
0
  0
LINE
  8
0
 62
7
 10
1.481623381592645
 20
5.300000000000001
 30
0
 11
1.721623381592643
 21
5.539999999999999
 31
0
  0
LINE
  8
0
 62
7
 10
1.693755415948609
 20
5.300000000000001
 30
0
 11
1.933755415948607
 21
5.539999999999999
 31
0
  0
LINE
  8
0
 62
7
 10
1.905887450304573
 20
5.300000000000001
 30
0
 11
2.145887450304572
 21
5.539999999999999
 31
0
  0
LINE
  8
0
 62
7
 10
2.118019484660537
 20
5.300000000000001
 30
0
 11
2.358019484660536
 21
5.539999999999999
 31
0
  0
LINE
  8
0
 62
7
 10
2.330151519016502
 20
5.300000000000001
 30
0
 11
2.5701515190165
 21
5.539999999999999
 31
0
  0
LINE
  8
0
 62
7
 10
2.542283553372466
 20
5.300000000000001
 30
0
 11
2.782283553372464
 21
5.539999999999999
 31
0
  0
LINE
  8
0
 62
7
 10
2.75441558772843
 20
5.300000000000001
 30
0
 11
2.994415587728429
 21
5.539999999999999
 31
0
  0
LINE
  8
0
 62
7
 10
2.966547622084394
 20
5.300000000000001
 30
0
 11
3.206547622084393
 21
5.539999999999999
 31
0
  0
LINE
  8
0
 62
7
 10
3.178679656440359
 20
5.300000000000001
 30
0
 11
3.418679656440357
 21
5.539999999999999
 31
0
  0
LINE
  8
0
 62
7
 10
3.390811690796323
 20
5.300000000000001
 30
0
 11
3.630811690796321
 21
5.539999999999999
 31
0
  0
LINE
  8
0
 62
7
 10
3.602943725152287
 20
5.300000000000001
 30
0
 11
3.842943725152286
 21
5.539999999999999
 31
0
  0
LINE
  8
0
 62
7
 10
3.815075759508252
 20
5.300000000000001
 30
0
 11
4.205075759508249
 21
5.689999999999999
 31
0
  0
LINE
  8
0
 62
7
 10
4.027207793864216
 20
5.300000000000001
 30
0
 11
4.267207793864215
 21
5.539999999999999
 31
0
  0
LINE
  8
0
 62
7
 10
4.23933982822018
 20
5.300000000000001
 30
0
 11
4.36
 21
5.42066017177982
 31
0
  0
ENDBLK
  8
0
  0
BLOCK
  8
0
  2
*X16
 70
1
 10
0
 20
0
 30
0
  0
LINE
  8
0
 62
7
 10
0.9349999999999996
 20
5.071574669941302
 30
0
 11
1.1234253300587
 21
5.260000000000002
 31
0
  0
LINE
  8
0
 62
7
 10
1.095557364414664
 20
5.020000000000001
 30
0
 11
1.335557364414664
 21
5.260000000000002
 31
0
  0
LINE
  8
0
 62
7
 10
1.307689398770628
 20
5.020000000000001
 30
0
 11
1.547689398770628
 21
5.260000000000002
 31
0
  0
LINE
  8
0
 62
7
 10
1.100000000000001
 20
4.812310601229373
 30
0
 11
1.275
 21
4.987310601229372
 31
0
  0
LINE
  8
0
 62
7
 10
1.519821433126592
 20
5.020000000000001
 30
0
 11
1.759821433126592
 21
5.260000000000002
 31
0
  0
LINE
  8
0
 62
7
 10
1.100000000000001
 20
4.600178566873409
 30
0
 11
1.275
 21
4.775178566873408
 31
0
  0
LINE
  8
0
 62
7
 10
1.731953467482557
 20
5.020000000000001
 30
0
 11
1.971953467482557
 21
5.260000000000002
 31
0
  0
LINE
  8
0
 62
7
 10
1.100000000000001
 20
4.388046532517445
 30
0
 11
1.275
 21
4.563046532517444
 31
0
  0
LINE
  8
0
 62
7
 10
1.944085501838521
 20
5.020000000000001
 30
0
 11
2.184085501838521
 21
5.260000000000002
 31
0
  0
LINE
  8
0
 62
7
 10
1.100000000000001
 20
4.175914498161482
 30
0
 11
1.275
 21
4.35091449816148
 31
0
  0
LINE
  8
0
 62
7
 10
2.156217536194485
 20
5.020000000000001
 30
0
 11
2.396217536194485
 21
5.260000000000002
 31
0
  0
LINE
  8
0
 62
7
 10
1.100000000000001
 20
3.963782463805518
 30
0
 11
1.275
 21
4.138782463805517
 31
0
  0
LINE
  8
0
 62
7
 10
2.368349570550449
 20
5.020000000000001
 30
0
 11
2.60834957055045
 21
5.260000000000002
 31
0
  0
LINE
  8
0
 62
7
 10
1.100000000000001
 20
3.751650429449553
 30
0
 11
1.275
 21
3.926650429449553
 31
0
  0
LINE
  8
0
 62
7
 10
2.580481604906414
 20
5.020000000000001
 30
0
 11
2.820481604906414
 21
5.260000000000002
 31
0
  0
LINE
  8
0
 62
7
 10
1.100000000000001
 20
3.539518395093589
 30
0
 11
1.275
 21
3.714518395093588
 31
0
  0
LINE
  8
0
 62
7
 10
2.792613639262378
 20
5.020000000000001
 30
0
 11
3.032613639262378
 21
5.260000000000002
 31
0
  0
LINE
  8
0
 62
7
 10
1.122613639262376
 20
3.35
 30
0
 11
1.275
 21
3.502386360737624
 31
0
  0
LINE
  8
0
 62
7
 10
3.004745673618342
 20
5.020000000000001
 30
0
 11
3.244745673618342
 21
5.260000000000002
 31
0
  0
LINE
  8
0
 62
7
 10
3.216877707974306
 20
5.020000000000001
 30
0
 11
3.456877707974307
 21
5.260000000000002
 31
0
  0
LINE
  8
0
 62
7
 10
3.429009742330271
 20
5.020000000000001
 30
0
 11
3.669009742330271
 21
5.260000000000002
 31
0
  0
LINE
  8
0
 62
7
 10
3.641141776686235
 20
5.020000000000001
 30
0
 11
3.881141776686235
 21
5.260000000000002
 31
0
  0
LINE
  8
0
 62
7
 10
3.853273811042199
 20
5.020000000000001
 30
0
 11
4.0932738110422
 21
5.260000000000002
 31
0
  0
LINE
  8
0
 62
7
 10
4.035
 20
4.989594154601837
 30
0
 11
4.305405845398163
 21
5.260000000000002
 31
0
  0
LINE
  8
0
 62
7
 10
4.277537879754126
 20
5.020000000000001
 30
0
 11
4.36
 21
5.102462120245875
 31
0
  0
LINE
  8
0
 62
7
 10
4.035
 20
4.777462120245874
 30
0
 11
4.21
 21
4.952462120245873
 31
0
  0
LINE
  8
0
 62
7
 10
4.035
 20
4.56533008588991
 30
0
 11
4.21
 21
4.740330085889909
 31
0
  0
LINE
  8
0
 62
7
 10
4.035
 20
4.353198051533946
 30
0
 11
4.21
 21
4.528198051533945
 31
0
  0
LINE
  8
0
 62
7
 10
4.035
 20
4.141066017177982
 30
0
 11
4.21
 21
4.316066017177981
 31
0
  0
LINE
  8
0
 62
7
 10
4.035
 20
3.928933982822018
 30
0
 11
4.21
 21
4.103933982822017
 31
0
  0
LINE
  8
0
 62
7
 10
4.035
 20
3.716801948466053
 30
0
 11
4.21
 21
3.891801948466053
 31
0
  0
LINE
  8
0
 62
7
 10
4.035
 20
3.504669914110089
 30
0
 11
4.21
 21
3.679669914110089
 31
0
  0
LINE
  8
0
 62
7
 10
4.035
 20
3.292537879754125
 30
0
 11
4.21
 21
3.467537879754125
 31
0
  0
LINE
  8
0
 62
7
 10
4.20459415460184
 20
3.25
 30
0
 11
4.21
 21
3.25540584539816
 31
0
  0
LINE
  8
0
 62
7
 10
0.9349999999999996
 20
5.177640687119284
 30
0
 11
1.017359312880717
 21
5.260000000000002
 31
0
  0
LINE
  8
0
 62
7
 10
0.9894913472366813
 20
5.020000000000001
 30
0
 11
1.229491347236682
 21
5.260000000000002
 31
0
  0
LINE
  8
0
 62
7
 10
1.100000000000001
 20
4.918376618407355
 30
0
 11
1.441623381592646
 21
5.260000000000002
 31
0
  0
LINE
  8
0
 62
7
 10
1.41375541594861
 20
5.020000000000001
 30
0
 11
1.65375541594861
 21
5.260000000000002
 31
0
  0
LINE
  8
0
 62
7
 10
1.100000000000001
 20
4.706244584051391
 30
0
 11
1.275
 21
4.88124458405139
 31
0
  0
LINE
  8
0
 62
7
 10
1.625887450304574
 20
5.020000000000001
 30
0
 11
1.865887450304574
 21
5.260000000000002
 31
0
  0
LINE
  8
0
 62
7
 10
1.100000000000001
 20
4.494112549695427
 30
0
 11
1.275
 21
4.669112549695426
 31
0
  0
LINE
  8
0
 62
7
 10
1.838019484660538
 20
5.020000000000001
 30
0
 11
2.078019484660539
 21
5.260000000000002
 31
0
  0
LINE
  8
0
 62
7
 10
1.100000000000001
 20
4.281980515339463
 30
0
 11
1.275
 21
4.456980515339462
 31
0
  0
LINE
  8
0
 62
7
 10
2.050151519016503
 20
5.020000000000001
 30
0
 11
2.290151519016503
 21
5.260000000000002
 31
0
  0
LINE
  8
0
 62
7
 10
1.100000000000001
 20
4.0698484809835
 30
0
 11
1.275
 21
4.244848480983499
 31
0
  0
LINE
  8
0
 62
7
 10
2.262283553372467
 20
5.020000000000001
 30
0
 11
2.502283553372467
 21
5.260000000000002
 31
0
  0
LINE
  8
0
 62
7
 10
1.100000000000001
 20
3.857716446627535
 30
0
 11
1.275
 21
4.032716446627535
 31
0
  0
LINE
  8
0
 62
7
 10
2.474415587728431
 20
5.020000000000001
 30
0
 11
2.714415587728432
 21
5.260000000000002
 31
0
  0
LINE
  8
0
 62
7
 10
1.100000000000001
 20
3.645584412271571
 30
0
 11
1.275
 21
3.82058441227157
 31
0
  0
LINE
  8
0
 62
7
 10
2.686547622084396
 20
5.020000000000001
 30
0
 11
2.926547622084396
 21
5.260000000000002
 31
0
  0
LINE
  8
0
 62
7
 10
1.100000000000001
 20
3.433452377915607
 30
0
 11
1.275
 21
3.608452377915606
 31
0
  0
LINE
  8
0
 62
7
 10
2.89867965644036
 20
5.020000000000001
 30
0
 11
3.13867965644036
 21
5.260000000000002
 31
0
  0
LINE
  8
0
 62
7
 10
1.228679656440357
 20
3.35
 30
0
 11
1.275
 21
3.396320343559642
 31
0
  0
LINE
  8
0
 62
7
 10
3.110811690796324
 20
5.020000000000001
 30
0
 11
3.350811690796324
 21
5.260000000000002
 31
0
  0
LINE
  8
0
 62
7
 10
3.322943725152288
 20
5.020000000000001
 30
0
 11
3.562943725152289
 21
5.260000000000002
 31
0
  0
LINE
  8
0
 62
7
 10
3.535075759508253
 20
5.020000000000001
 30
0
 11
3.775075759508253
 21
5.260000000000002
 31
0
  0
LINE
  8
0
 62
7
 10
3.747207793864217
 20
5.020000000000001
 30
0
 11
3.987207793864217
 21
5.260000000000002
 31
0
  0
LINE
  8
0
 62
7
 10
3.959339828220181
 20
5.020000000000001
 30
0
 11
4.199339828220181
 21
5.260000000000002
 31
0
  0
LINE
  8
0
 62
7
 10
4.034999999999999
 20
4.883528137423855
 30
0
 11
4.36
 21
5.208528137423857
 31
0
  0
LINE
  8
0
 62
7
 10
4.034999999999999
 20
4.671396103067891
 30
0
 11
4.21
 21
4.846396103067891
 31
0
  0
LINE
  8
0
 62
7
 10
4.034999999999999
 20
4.459264068711927
 30
0
 11
4.21
 21
4.634264068711927
 31
0
  0
LINE
  8
0
 62
7
 10
4.034999999999999
 20
4.247132034355963
 30
0
 11
4.21
 21
4.422132034355963
 31
0
  0
LINE
  8
0
 62
7
 10
4.034999999999999
 20
4.034999999999999
 30
0
 11
4.21
 21
4.209999999999999
 31
0
  0
LINE
  8
0
 62
7
 10
4.034999999999999
 20
3.822867965644035
 30
0
 11
4.21
 21
3.997867965644035
 31
0
  0
LINE
  8
0
 62
7
 10
4.034999999999999
 20
3.610735931288071
 30
0
 11
4.21
 21
3.785735931288071
 31
0
  0
LINE
  8
0
 62
7
 10
4.035
 20
3.398603896932107
 30
0
 11
4.21
 21
3.573603896932107
 31
0
  0
LINE
  8
0
 62
7
 10
4.098528137423858
 20
3.25
 30
0
 11
4.21
 21
3.361471862576142
 31
0
  0
ENDBLK
  8
0
  0
BLOCK
  8
0
  2
*D0
 70
1
 10
0
 20
0
 30
0
  0
LINE
  8
0
 62
7
 10
0.6479126801226491
 20
10.14453267671605
 30
0
 11
0.6479126801226491
 21
11.05
 31
0
  0
LINE
  8
0
 62
7
 10
0.6479126801226491
 20
8.300000000000001
 30
0
 11
0.6479126801226491
 21
9.064532676716048
 31
0
  0
LINE
  8
0
 62
7
 10
0.9500000000000002
 20
11.05
 30
0
 11
0.5979126801226491
 21
11.05
 31
0
  0
LINE
  8
0
 62
7
 10
0.9500000000000002
 20
8.300000000000001
 30
0
 11
0.5979126801226491
 21
8.300000000000001
 31
0
  0
LINE
  8
0
 62
7
 10
0.6125573410633217
 20
8.335355339059328
 30
0
 11
0.6832680191819765
 21
8.264644660940673
 31
0
  0
LINE
  8
0
 62
7
 10
0.6832680191819765
 20
11.01464466094067
 30
0
 11
0.6125573410633217
 21
11.08535533905933
 31
0
  0
TEXT
  8
0
 62
7
 10
0.6179126801226491
 20
9.46703267671605
 30
0
 40
0.1
  1
2,75
 50
90
 41
0.9
  0
TEXT
  8
0
 62
7
 10
0.7779126801226491
 20
9.264532676716049
 30
0
 40
0.1
  1
(260-280)
 50
90
 41
0.9
  0
ENDBLK
  8
0
  0
BLOCK
  8
0
  2
*D1
 70
1
 10
0
 20
0
 30
0
  0
LINE
  8
0
 62
7
 10
3.02894248594789
 20
11.4449045486288
 30
0
 11
4.035
 21
11.4449045486288
 31
0
  0
LINE
  8
0
 62
7
 10
1.275
 20
11.4449045486288
 30
0
 11
2.35394248594789
 21
11.4449045486288
 31
0
  0
LINE
  8
0
 62
7
 10
4.035
 20
11.2
 30
0
 11
4.035
 21
11.4949045486288
 31
0
  0
LINE
  8
0
 62
7
 10
1.275
 20
11.2
 30
0
 11
1.275
 21
11.4949045486288
 31
0
  0
LINE
  8
0
 62
7
 10
1.310355339059327
 20
11.48025988768813
 30
0
 11
1.239644660940673
 21
11.40954920956947
 31
0
  0
LINE
  8
0
 62
7
 10
3.999644660940673
 20
11.40954920956947
 30
0
 11
4.070355339059327
 21
11.48025988768813
 31
0
  0
TEXT
  8
0
 62
7
 10
2.55394248594789
 20
11.3999045486288
 30
0
 40
0.1
  1
2,76
 41
0.9
  0
ENDBLK
  8
0
  0
BLOCK
  8
0
  2
*D2
 70
1
 10
0
 20
0
 30
0
  0
LINE
  8
0
 62
7
 10
4.50144856502374
 20
4.538196213327041
 30
0
 11
4.50144856502374
 21
5.020000000000001
 31
0
  0
LINE
  8
0
 62
7
 10
4.50144856502374
 20
3.25
 30
0
 11
4.50144856502374
 21
3.79319621332704
 31
0
  0
LINE
  8
0
 62
7
 10
4.21
 20
5.020000000000001
 30
0
 11
4.55144856502374
 21
5.020000000000001
 31
0
  0
LINE
  8
0
 62
7
 10
4.21
 20
3.25
 30
0
 11
4.55144856502374
 21
3.25
 31
0
  0
LINE
  8
0
 62
7
 10
4.466093225964412
 20
3.285355339059328
 30
0
 11
4.536803904083067
 21
3.214644660940673
 31
0
  0
LINE
  8
0
 62
7
 10
4.536803904083067
 20
4.984644660940674
 30
0
 11
4.466093225964412
 21
5.055355339059329
 31
0
  0
TEXT
  8
0
 62
7
 10
4.54644856502374
 20
4.04319621332704
 30
0
 40
0.1
  1
1,77
 50
90
 41
0.9
  0
ENDBLK
  8
0
  0
BLOCK
  8
0
  2
*D3
 70
1
 10
0
 20
0
 30
0
  0
LINE
  8
0
 62
7
 10
3.04309108584569
 20
5.87598706608755
 30
0
 11
4.035
 21
5.87598706608755
 31
0
  0
LINE
  8
0
 62
7
 10
1.275
 20
5.87598706608755
 30
0
 11
2.26809108584569
 21
5.87598706608755
 31
0
  0
LINE
  8
0
 62
7
 10
4.035
 20
5.539999999999998
 30
0
 11
4.035
 21
5.92598706608755
 31
0
  0
LINE
  8
0
 62
7
 10
1.275
 20
5.539999999999998
 30
0
 11
1.275
 21
5.92598706608755
 31
0
  0
LINE
  8
0
 62
7
 10
3.999644660940673
 20
5.840631727028223
 30
0
 11
4.070355339059327
 21
5.911342405146877
 31
0
  0
LINE
  8
0
 62
7
 10
1.310355339059327
 20
5.911342405146877
 30
0
 11
1.239644660940673
 21
5.840631727028223
 31
0
  0
TEXT
  8
0
 62
7
 10
2.51809108584569
 20
5.83098706608755
 30
0
 40
0.1
  1
2,76
 41
0.9
  0
ENDBLK
  8
0
  0
BLOCK
  8
0
  2
*D4
 70
1
 10
0
 20
0
 30
0
  0
LINE
  8
0
 62
7
 10
0.7913182805314372
 20
4.599322661386481
 30
0
 11
0.7913182805314372
 21
5.020000000000001
 31
0
  0
LINE
  8
0
 62
7
 10
0.7913182805314372
 20
3.350000000000001
 30
0
 11
0.7913182805314372
 21
3.85432266138648
 31
0
  0
LINE
  8
0
 62
7
 10
1.1
 20
5.020000000000001
 30
0
 11
0.7413182805314371
 21
5.020000000000001
 31
0
  0
LINE
  8
0
 62
7
 10
1.1
 20
3.350000000000001
 30
0
 11
0.7413182805314371
 21
3.350000000000001
 31
0
  0
LINE
  8
0
 62
7
 10
0.8266736195907646
 20
4.984644660940674
 30
0
 11
0.7559629414721097
 21
5.055355339059329
 31
0
  0
LINE
  8
0
 62
7
 10
0.7559629414721097
 20
3.385355339059328
 30
0
 11
0.8266736195907646
 21
3.314644660940673
 31
0
  0
TEXT
  8
0
 62
7
 10
0.8363182805314372
 20
4.10432266138648
 30
0
 40
0.1
  1
1,67
 50
90
 41
0.9
  0
ENDBLK
  8
0
  0
ENDSEC
  0
SECTION
  2
ENTITIES
  0
INSERT
  8
0
  2
*X0
 10
0
 20
0
 30
0
  0
INSERT
  8
0
  2
*X1
 10
0
 20
0
 30
0
  0
INSERT
  8
0
  2
*X2
 10
0
 20
0
 30
0
  0
INSERT
  8
0
  2
*X3
 10
0
 20
0
 30
0
  0
INSERT
  8
0
  2
*X4
 10
0
 20
0
 30
0
  0
INSERT
  8
0
  2
*X5
 10
0
 20
0
 30
0
  0
INSERT
  8
0
  2
*X6
 10
0
 20
0
 30
0
  0
INSERT
  8
0
  2
*X7
 10
0
 20
0
 30
0
  0
INSERT
  8
0
  2
*X8
 10
0
 20
0
 30
0
  0
INSERT
  8
0
  2
*X9
 10
0
 20
0
 30
0
  0
INSERT
  8
0
  2
*X10
 10
0
 20
0
 30
0
  0
INSERT
  8
0
  2
*X11
 10
0
 20
0
 30
0
  0
INSERT
  8
0
  2
*X12
 10
0
 20
0
 30
0
  0
INSERT
  8
0
  2
*X13
 10
0
 20
0
 30
0
  0
INSERT
  8
0
  2
*X14
 10
0
 20
0
 30
0
  0
INSERT
  8
0
  2
*X15
 10
0
 20
0
 30
0
  0
INSERT
  8
0
  2
*X16
 10
0
 20
0
 30
0
  0
LINE
  8
0
 62
7
 10
2.39
 20
3.633767712136283
 30
0
 11
2.39
 21
3.846541602518554
 31
0
  0
LINE
  8
0
 62
7
 10
2.39
 20
3.846541602518554
 30
0
 11
2.42951824123395
 21
3.905000000000003
 31
0
  0
LINE
  8
0
 62
7
 10
2.482493662664951
 20
3.905000000000001
 30
0
 11
2.573714996832409
 21
3.905000000000003
 31
0
  0
LINE
  8
0
 62
7
 10
2.42951824123395
 20
3.905000000000003
 30
0
 11
2.573714996832409
 21
3.905000000000003
 31
0
  0
LINE
  8
0
 62
7
 10
2.693586202262169
 20
3.905000000000001
 30
0
 11
2.85898959896887
 21
3.905000000000001
 31
0
  0
LINE
  8
0
 62
7
 10
2.85898959896887
 20
3.905000000000001
 30
0
 11
2.92
 21
3.848577121514206
 31
0
  0
LINE
  8
0
 62
7
 10
2.92
 20
3.752028352893665
 30
0
 11
2.92
 21
3.645803822138653
 31
0
  0
LINE
  8
0
 62
7
 10
2.92
 20
3.848577121514206
 30
0
 11
2.92
 21
3.645803822138653
 31
0
  0
LINE
  8
0
 62
7
 10
2.39
 20
3.5161857018328
 30
0
 11
1.33
 21
3.760742041055911
 31
0
  0
LINE
  8
0
 62
7
 10
2.39
 20
3.380000000000001
 30
0
 11
2.39
 21
3.5161857018328
 31
0
  0
LINE
  8
0
 62
7
 10
1.33
 20
3.760742041055911
 30
0
 11
1.33
 21
3.380000000000001
 31
0
  0
LINE
  8
0
 62
7
 10
2.39
 20
3.631684910050462
 30
0
 11
1.33
 21
4.12153461220346
 31
0
  0
LINE
  8
0
 62
7
 10
2.39
 20
3.423821462391301
 30
0
 11
2.39
 21
3.631684910050462
 31
0
  0
LINE
  8
0
 62
7
 10
1.33
 20
4.12153461220346
 30
0
 11
1.33
 21
3.668377801614414
 31
0
  0
LINE
  8
0
 62
7
 10
2.39
 20
3.746580937935903
 30
0
 11
1.33
 21
4.547714344256091
 31
0
  0
LINE
  8
0
 62
7
 10
2.39
 20
3.532539500089322
 30
0
 11
2.39
 21
3.746580937935903
 31
0
  0
LINE
  8
0
 62
7
 10
1.33
 20
4.547714344256091
 30
0
 11
1.33
 21
4.022389202242322
 31
0
  0
LINE
  8
0
 62
7
 10
2.39
 20
3.856116351816692
 30
0
 11
1.528896107945049
 21
4.965000000000003
 31
0
  0
LINE
  8
0
 62
7
 10
2.39
 20
3.846541602518554
 30
0
 11
2.39
 21
3.856116351816692
 31
0
  0
LINE
  8
0
 62
7
 10
1.33
 20
4.965000000000003
 30
0
 11
1.33
 21
4.434901118456472
 31
0
  0
LINE
  8
0
 62
7
 10
1.528896107945049
 20
4.965000000000003
 30
0
 11
1.33
 21
4.965000000000003
 31
0
  0
LINE
  8
0
 62
7
 10
2.45558229297688
 20
3.943555933897584
 30
0
 11
2.011117191649159
 21
4.965000000000003
 31
0
  0
LINE
  8
0
 62
7
 10
2.42951824123395
 20
3.905000000000003
 30
0
 11
2.45558229297688
 21
3.943555933897584
 31
0
  0
LINE
  8
0
 62
7
 10
2.011117191649159
 20
4.965000000000003
 30
0
 11
1.41494635780211
 21
4.965000000000003
 31
0
  0
LINE
  8
0
 62
7
 10
2.573714996832409
 20
3.905000000000003
 30
0
 11
2.398494353327489
 21
4.965000000000003
 31
0
  0
LINE
  8
0
 62
7
 10
2.398494353327489
 20
4.965000000000003
 30
0
 11
1.912965944326039
 21
4.965000000000003
 31
0
  0
LINE
  8
0
 62
7
 10
2.679576694448271
 20
3.905000000000001
 30
0
 11
2.765867823085181
 21
4.965000000000003
 31
0
  0
LINE
  8
0
 62
7
 10
2.573714996832409
 20
3.905000000000003
 30
0
 11
2.679576694448271
 21
3.905000000000001
 31
0
  0
LINE
  8
0
 62
7
 10
2.765867823085181
 20
4.965000000000003
 30
0
 11
2.307273019160032
 21
4.965000000000003
 31
0
  0
LINE
  8
0
 62
7
 10
2.788237953154589
 20
3.905000000000001
 30
0
 11
3.133420076286362
 21
4.965000000000003
 31
0
  0
LINE
  8
0
 62
7
 10
2.589278969423441
 20
3.905000000000001
 30
0
 11
2.788237953154589
 21
3.905000000000001
 31
0
  0
LINE
  8
0
 62
7
 10
3.133420076286362
 20
4.965000000000003
 30
0
 11
2.675570098060351
 21
4.965000000000003
 31
0
  0
LINE
  8
0
 62
7
 10
2.896591966023532
 20
3.905000000000001
 30
0
 11
3.566519574536902
 21
4.965000000000003
 31
0
  0
LINE
  8
0
 62
7
 10
2.85898959896887
 20
3.905000000000001
 30
0
 11
2.896591966023532
 21
3.905000000000001
 31
0
  0
LINE
  8
0
 62
7
 10
3.566519574536902
 20
4.965000000000003
 30
0
 11
3.038768325393939
 21
4.965000000000003
 31
0
  0
LINE
  8
0
 62
7
 10
2.972681371109829
 20
3.799856992645053
 30
0
 11
3.98
 21
4.834087052570641
 31
0
  0
LINE
  8
0
 62
7
 10
2.92
 20
3.848577121514206
 30
0
 11
2.972681371109829
 21
3.799856992645053
 31
0
  0
LINE
  8
0
 62
7
 10
3.98
 20
4.965000000000003
 30
0
 11
3.46005170196473
 21
4.965000000000003
 31
0
  0
LINE
  8
0
 62
7
 10
3.98
 20
4.834087052570641
 30
0
 11
3.98
 21
4.965000000000003
 31
0
  0
LINE
  8
0
 62
7
 10
2.92
 20
3.645803822138653
 30
0
 11
3.98
 21
4.310351397707882
 31
0
  0
LINE
  8
0
 62
7
 10
3.98
 20
4.310351397707882
 30
0
 11
3.98
 21
4.963077668464223
 31
0
  0
LINE
  8
0
 62
7
 10
2.92
 20
3.529032873322512
 30
0
 11
3.98
 21
3.93785883903418
 31
0
  0
LINE
  8
0
 62
7
 10
2.92
 20
3.645803822138653
 30
0
 11
2.92
 21
3.529032873322512
 31
0
  0
LINE
  8
0
 62
7
 10
3.98
 20
3.93785883903418
 30
0
 11
3.98
 21
4.41657592846289
 31
0
  0
LINE
  8
0
 62
7
 10
2.92
 20
3.408896033867231
 30
0
 11
3.98
 21
3.58042950053312
 31
0
  0
LINE
  8
0
 62
7
 10
2.92
 20
3.62549477178076
 30
0
 11
2.92
 21
3.408896033867231
 31
0
  0
LINE
  8
0
 62
7
 10
3.98
 20
3.58042950053312
 30
0
 11
3.98
 21
4.034320737492433
 31
0
  0
LINE
  8
0
 62
7
 10
2.92
 20
3.250000000000001
 30
0
 11
3.98
 21
3.250000000000001
 31
0
  0
LINE
  8
0
 62
7
 10
2.92
 20
3.500066834140432
 30
0
 11
2.92
 21
3.250000000000001
 31
0
  0
LINE
  8
0
 62
7
 10
3.98
 20
3.250000000000001
 30
0
 11
3.98
 21
3.671600300806321
 31
0
  0
LINE
  8
0
 62
7
 10
3.544777229678897
 20
3.905000164313532
 30
0
 11
3.544777229678897
 21
3.250000000000001
 31
0
  0
LINE
  8
0
 62
7
 10
2.389999835685853
 20
4.529777229678902
 30
0
 11
2.920000164311849
 21
4.529777229678902
 31
0
  0
LINE
  8
0
 62
7
 10
1.8708778695828
 20
3.461000000000001
 30
0
 11
1.765222770321099
 21
3.400000000000001
 31
0
  0
LINE
  8
0
 62
7
 10
1.659567671059391
 20
3.461000000000001
 30
0
 11
1.8708778695828
 21
3.461000000000001
 31
0
  0
LINE
  8
0
 62
7
 10
1.765222770321099
 20
3.400000000000001
 30
0
 11
1.659567671059391
 21
3.461000000000001
 31
0
  0
LINE
  8
0
 62
7
 10
1.765222770321099
 20
3.400000000000001
 30
0
 11
1.765222770321099
 21
3.905000164310911
 31
0
  0
LINE
  8
0
 62
7
  6
DASHED
 10
1.33
 20
10.96666666666667
 30
0
 11
2.389999690000001
 21
10.96666666666667
 31
0
  0
LINE
  8
0
 62
7
  6
DASHED
 10
2.389999690000001
 20
10.96666666666667
 30
0
 11
2.389999690000001
 21
10.90166666666667
 31
0
  0
LINE
  8
0
 62
7
  6
DASHED
 10
1.33
 20
10.90166666666667
 30
0
 11
1.33
 21
10.96666666666667
 31
0
  0
LINE
  8
0
 62
7
  6
DASHED
 10
2.389999690000001
 20
10.90166666666667
 30
0
 11
1.33
 21
10.90166666666667
 31
0
  0
LINE
  8
0
 62
7
 10
1.33
 20
10.78333322666666
 30
0
 11
2.39000015
 21
10.78333322666666
 31
0
  0
LINE
  8
0
 62
7
 10
2.39000015
 20
10.78333322666666
 30
0
 11
2.39000015
 21
10.71833322666666
 31
0
  0
LINE
  8
0
 62
7
 10
1.33
 20
10.71833322666666
 30
0
 11
1.33
 21
10.78333322666666
 31
0
  0
LINE
  8
0
 62
7
 10
2.39000015
 20
10.71833322666666
 30
0
 11
1.33
 21
10.71833322666666
 31
0
  0
LINE
  8
0
 62
7
 10
1.33
 20
10.59999994666667
 30
0
 11
2.39000015
 21
10.59999994666667
 31
0
  0
LINE
  8
0
 62
7
 10
2.39000015
 20
10.59999994666667
 30
0
 11
2.39000015
 21
10.53499994666667
 31
0
  0
LINE
  8
0
 62
7
 10
1.33
 20
10.53499994666667
 30
0
 11
1.33
 21
10.59999994666667
 31
0
  0
LINE
  8
0
 62
7
 10
2.39000015
 20
10.53499994666667
 30
0
 11
1.33
 21
10.53499994666667
 31
0
  0
LINE
  8
0
 62
7
 10
1.33
 20
10.41666666666667
 30
0
 11
2.38999984
 21
10.41666666666667
 31
0
  0
LINE
  8
0
 62
7
 10
2.38999984
 20
10.35166666666667
 30
0
 11
1.33
 21
10.35166666666667
 31
0
  0
LINE
  8
0
 62
7
 10
2.38999984
 20
10.41666666666667
 30
0
 11
2.38999984
 21
10.35166666666667
 31
0
  0
LINE
  8
0
 62
7
 10
1.33
 20
10.35166666666667
 30
0
 11
1.33
 21
10.41666666666667
 31
0
  0
LINE
  8
0
 62
7
 10
2.455582119999999
 20
10.16833322666666
 30
0
 11
1.414946899999999
 21
10.16833322666666
 31
0
  0
LINE
  8
0
 62
7
 10
1.414946899999999
 20
10.23333322666666
 30
0
 11
2.455582119999999
 21
10.23333322666666
 31
0
  0
LINE
  8
0
 62
7
 10
2.455582119999999
 20
10.23333322666666
 30
0
 11
2.455582119999999
 21
10.16833322666666
 31
0
  0
LINE
  8
0
 62
7
 10
1.414946899999999
 20
10.16833322666666
 30
0
 11
1.414946899999999
 21
10.23333322666666
 31
0
  0
LINE
  8
0
 62
7
 10
2.573715050000002
 20
9.984999946666671
 30
0
 11
1.912965850000001
 21
9.984999946666671
 31
0
  0
LINE
  8
0
 62
7
 10
1.912965850000001
 20
10.04999994666667
 30
0
 11
2.573715050000002
 21
10.04999994666667
 31
0
  0
LINE
  8
0
 62
7
 10
2.573715050000002
 20
10.04999994666667
 30
0
 11
2.573715050000002
 21
9.984999946666671
 31
0
  0
LINE
  8
0
 62
7
 10
1.912965850000001
 20
9.984999946666671
 30
0
 11
1.912965850000001
 21
10.04999994666667
 31
0
  0
LINE
  8
0
 62
7
 10
2.765867920000002
 20
9.801666666666669
 30
0
 11
2.307272949999999
 21
9.801666666666669
 31
0
  0
LINE
  8
0
 62
7
 10
2.307272949999999
 20
9.866666666666671
 30
0
 11
2.765867920000002
 21
9.866666666666671
 31
0
  0
LINE
  8
0
 62
7
 10
2.765867920000002
 20
9.866666666666671
 30
0
 11
2.765867920000002
 21
9.801666666666669
 31
0
  0
LINE
  8
0
 62
7
 10
2.307272949999999
 20
9.801666666666669
 30
0
 11
2.307272949999999
 21
9.866666666666671
 31
0
  0
LINE
  8
0
 62
7
 10
3.1334201
 20
9.618333226666662
 30
0
 11
2.589278710000003
 21
9.618333226666662
 31
0
  0
LINE
  8
0
 62
7
 10
2.589278710000003
 20
9.683333226666662
 30
0
 11
3.1334201
 21
9.683333226666662
 31
0
  0
LINE
  8
0
 62
7
 10
3.1334201
 20
9.683333226666662
 30
0
 11
3.1334201
 21
9.618333226666662
 31
0
  0
LINE
  8
0
 62
7
 10
2.589278710000003
 20
9.618333226666662
 30
0
 11
2.589278710000003
 21
9.683333226666662
 31
0
  0
LINE
  8
0
 62
7
 10
3.566519619999988
 20
9.43499994666667
 30
0
 11
2.69358596
 21
9.43499994666667
 31
0
  0
LINE
  8
0
 62
7
 10
2.69358596
 20
9.499999946666671
 30
0
 11
3.566519619999988
 21
9.499999946666671
 31
0
  0
LINE
  8
0
 62
7
 10
3.566519619999988
 20
9.499999946666671
 30
0
 11
3.566519619999988
 21
9.43499994666667
 31
0
  0
LINE
  8
0
 62
7
 10
2.69358596
 20
9.43499994666667
 30
0
 11
2.69358596
 21
9.499999946666671
 31
0
  0
LINE
  8
0
 62
7
 10
3.980000100000001
 20
9.251666586666671
 30
0
 11
2.81552734
 21
9.251666586666671
 31
0
  0
LINE
  8
0
 62
7
 10
2.81552734
 20
9.31666658666667
 30
0
 11
3.980000100000001
 21
9.31666658666667
 31
0
  0
LINE
  8
0
 62
7
 10
3.980000100000001
 20
9.31666658666667
 30
0
 11
3.980000100000001
 21
9.251666586666671
 31
0
  0
LINE
  8
0
 62
7
 10
2.81552734
 20
9.251666586666671
 30
0
 11
2.81552734
 21
9.31666658666667
 31
0
  0
LINE
  8
0
 62
7
 10
2.919999919999998
 20
9.133333226666661
 30
0
 11
3.980000049999992
 21
9.133333226666661
 31
0
  0
LINE
  8
0
 62
7
 10
3.980000049999992
 20
9.133333226666661
 30
0
 11
3.980000049999992
 21
9.068333226666661
 31
0
  0
LINE
  8
0
 62
7
 10
2.919999919999998
 20
9.068333226666661
 30
0
 11
2.919999919999998
 21
9.133333226666661
 31
0
  0
LINE
  8
0
 62
7
 10
3.980000049999992
 20
9.068333226666661
 30
0
 11
2.919999919999998
 21
9.068333226666661
 31
0
  0
LINE
  8
0
 62
7
 10
2.91999984
 20
8.949999906666671
 30
0
 11
3.980000110000001
 21
8.949999906666671
 31
0
  0
LINE
  8
0
 62
7
 10
3.980000110000001
 20
8.949999906666671
 30
0
 11
3.980000110000001
 21
8.884999906666669
 31
0
  0
LINE
  8
0
 62
7
 10
2.91999984
 20
8.884999906666669
 30
0
 11
2.91999984
 21
8.949999906666671
 31
0
  0
LINE
  8
0
 62
7
 10
3.980000110000001
 20
8.884999906666669
 30
0
 11
2.91999984
 21
8.884999906666669
 31
0
  0
LINE
  8
0
 62
7
 10
2.92
 20
8.766666566666661
 30
0
 11
3.980000340000003
 21
8.766666566666661
 31
0
  0
LINE
  8
0
 62
7
 10
3.980000340000003
 20
8.766666566666661
 30
0
 11
3.980000340000003
 21
8.70166656666666
 31
0
  0
LINE
  8
0
 62
7
 10
2.92
 20
8.70166656666666
 30
0
 11
2.92
 21
8.766666566666661
 31
0
  0
LINE
  8
0
 62
7
 10
3.980000340000003
 20
8.70166656666666
 30
0
 11
2.92
 21
8.70166656666666
 31
0
  0
LINE
  8
0
 62
7
 10
2.920000070000002
 20
8.58333322666666
 30
0
 11
3.980000060000003
 21
8.58333322666666
 31
0
  0
LINE
  8
0
 62
7
 10
3.980000060000003
 20
8.58333322666666
 30
0
 11
3.980000060000003
 21
8.518333226666661
 31
0
  0
LINE
  8
0
 62
7
 10
2.920000070000002
 20
8.518333226666661
 30
0
 11
2.920000070000002
 21
8.58333322666666
 31
0
  0
LINE
  8
0
 62
7
 10
3.980000060000003
 20
8.518333226666661
 30
0
 11
2.920000070000002
 21
8.518333226666661
 31
0
  0
LINE
  8
0
 62
7
 10
6.32
 20
10.96666666666667
 30
0
 11
6.700742260000003
 21
10.96666666666667
 31
0
  0
LINE
  8
0
 62
7
 10
6.700742260000003
 20
10.90166666666667
 30
0
 11
6.32
 21
10.90166666666667
 31
0
  0
LINE
  8
0
 62
7
 10
6.32
 20
10.90166666666667
 30
0
 11
6.32
 21
10.96666666666667
 31
0
  0
LINE
  8
0
 62
7
 10
6.700742260000003
 20
10.96666666666667
 30
0
 11
6.700742260000003
 21
10.90166666666667
 31
0
  0
LINE
  8
0
 62
7
 10
7.061534570000001
 20
10.71833322666666
 30
0
 11
6.363820869999993
 21
10.71833322666666
 31
0
  0
LINE
  8
0
 62
7
 10
6.363820869999993
 20
10.78333322666666
 30
0
 11
7.061534570000001
 21
10.78333322666666
 31
0
  0
LINE
  8
0
 62
7
 10
6.363820869999993
 20
10.71833322666666
 30
0
 11
6.363820869999993
 21
10.78333322666666
 31
0
  0
LINE
  8
0
 62
7
 10
7.061534570000001
 20
10.78333322666666
 30
0
 11
7.061534570000001
 21
10.71833322666666
 31
0
  0
LINE
  8
0
 62
7
 10
7.487713469999999
 20
10.53499994666667
 30
0
 11
6.472538980000002
 21
10.53499994666667
 31
0
  0
LINE
  8
0
 62
7
 10
6.472538980000002
 20
10.59999994666667
 30
0
 11
7.487713469999999
 21
10.59999994666667
 31
0
  0
LINE
  8
0
 62
7
 10
6.472538980000002
 20
10.53499994666667
 30
0
 11
6.472538980000002
 21
10.59999994666667
 31
0
  0
LINE
  8
0
 62
7
 10
7.487713469999999
 20
10.59999994666667
 30
0
 11
7.487713469999999
 21
10.53499994666667
 31
0
  0
LINE
  8
0
 62
7
 10
7.904999840000001
 20
10.35166666666667
 30
0
 11
6.573766930000002
 21
10.35166666666667
 31
0
  0
LINE
  8
0
 62
7
 10
6.573766930000002
 20
10.41666666666667
 30
0
 11
7.904999840000001
 21
10.41666666666667
 31
0
  0
LINE
  8
0
 62
7
 10
6.573766930000002
 20
10.35166666666667
 30
0
 11
6.573766930000002
 21
10.41666666666667
 31
0
  0
LINE
  8
0
 62
7
 10
7.904999840000001
 20
10.41666666666667
 30
0
 11
7.904999840000001
 21
10.35166666666667
 31
0
  0
LINE
  8
0
 62
7
 10
6.713212660000001
 20
10.23333322666666
 30
0
 11
7.905
 21
10.23333322666666
 31
0
  0
LINE
  8
0
 62
7
 10
7.905
 20
10.16833322666666
 30
0
 11
6.713212660000001
 21
10.16833322666666
 31
0
  0
LINE
  8
0
 62
7
 10
6.713212660000001
 20
10.16833322666666
 30
0
 11
6.713212660000001
 21
10.23333322666666
 31
0
  0
LINE
  8
0
 62
7
 10
7.905
 20
10.23333322666666
 30
0
 11
7.905
 21
10.16833322666666
 31
0
  0
LINE
  8
0
 62
7
 10
6.844999840000002
 20
10.04999994666667
 30
0
 11
7.905000460000001
 21
10.04999994666667
 31
0
  0
LINE
  8
0
 62
7
 10
6.844999840000002
 20
9.984999946666671
 30
0
 11
6.844999840000002
 21
10.04999994666667
 31
0
  0
LINE
  8
0
 62
7
 10
7.905000460000001
 20
10.04999994666667
 30
0
 11
7.905000460000001
 21
9.984999946666671
 31
0
  0
LINE
  8
0
 62
7
 10
7.905000460000001
 20
9.984999946666671
 30
0
 11
6.844999840000002
 21
9.984999946666671
 31
0
  0
LINE
  8
0
 62
7
 10
6.844999919999999
 20
9.866666666666671
 30
0
 11
7.905000150000001
 21
9.866666666666671
 31
0
  0
LINE
  8
0
 62
7
 10
6.844999919999999
 20
9.801666666666669
 30
0
 11
6.844999919999999
 21
9.866666666666671
 31
0
  0
LINE
  8
0
 62
7
 10
7.905000150000001
 20
9.866666666666671
 30
0
 11
7.905000150000001
 21
9.801666666666669
 31
0
  0
LINE
  8
0
 62
7
 10
7.905000150000001
 20
9.801666666666669
 30
0
 11
6.844999919999999
 21
9.801666666666669
 31
0
  0
LINE
  8
0
 62
7
 10
6.844999919999999
 20
9.683333226666662
 30
0
 11
7.905000300000004
 21
9.683333226666662
 31
0
  0
LINE
  8
0
 62
7
 10
6.844999919999999
 20
9.618333226666662
 30
0
 11
6.844999919999999
 21
9.683333226666662
 31
0
  0
LINE
  8
0
 62
7
 10
7.905000300000004
 20
9.683333226666662
 30
0
 11
7.905000300000004
 21
9.618333226666662
 31
0
  0
LINE
  8
0
 62
7
 10
7.905000300000004
 20
9.618333226666662
 30
0
 11
6.844999919999999
 21
9.618333226666662
 31
0
  0
LINE
  8
0
 62
7
 10
6.845000070000002
 20
9.49999994666666
 30
0
 11
7.905
 21
9.49999994666666
 31
0
  0
LINE
  8
0
 62
7
 10
6.845000070000002
 20
9.434999946666661
 30
0
 11
6.845000070000002
 21
9.49999994666666
 31
0
  0
LINE
  8
0
 62
7
 10
7.905
 20
9.49999994666666
 30
0
 11
7.905
 21
9.434999946666661
 31
0
  0
LINE
  8
0
 62
7
 10
7.905
 20
9.434999946666661
 30
0
 11
6.845000070000002
 21
9.434999946666661
 31
0
  0
LINE
  8
0
 62
7
 10
7.905
 20
9.251666586666671
 30
0
 11
6.739857099999999
 21
9.251666586666671
 31
0
  0
LINE
  8
0
 62
7
 10
6.739857099999999
 20
9.31666658666667
 30
0
 11
7.905
 21
9.31666658666667
 31
0
  0
LINE
  8
0
 62
7
 10
6.739857099999999
 20
9.251666586666671
 30
0
 11
6.739857099999999
 21
9.31666658666667
 31
0
  0
LINE
  8
0
 62
7
 10
7.905
 20
9.31666658666667
 30
0
 11
7.905
 21
9.251666586666671
 31
0
  0
LINE
  8
0
 62
7
 10
7.903077389999999
 20
9.068333226666661
 30
0
 11
6.58580314
 21
9.068333226666661
 31
0
  0
LINE
  8
0
 62
7
 10
6.58580314
 20
9.133333226666661
 30
0
 11
7.903077389999999
 21
9.133333226666661
 31
0
  0
LINE
  8
0
 62
7
 10
6.58580314
 20
9.068333226666661
 30
0
 11
6.58580314
 21
9.133333226666661
 31
0
  0
LINE
  8
0
 62
7
 10
7.903077389999999
 20
9.133333226666661
 30
0
 11
7.903077389999999
 21
9.068333226666661
 31
0
  0
LINE
  8
0
 62
7
 10
7.35657593
 20
8.884999906666669
 30
0
 11
6.46903198
 21
8.884999906666669
 31
0
  0
LINE
  8
0
 62
7
 10
6.46903198
 20
8.949999906666671
 30
0
 11
7.35657593
 21
8.949999906666671
 31
0
  0
LINE
  8
0
 62
7
 10
6.46903198
 20
8.884999906666669
 30
0
 11
6.46903198
 21
8.949999906666671
 31
0
  0
LINE
  8
0
 62
7
 10
7.35657593
 20
8.949999906666671
 30
0
 11
7.35657593
 21
8.884999906666669
 31
0
  0
LINE
  8
0
 62
7
 10
6.974320140000001
 20
8.70166656666666
 30
0
 11
6.34889517999999
 21
8.70166656666666
 31
0
  0
LINE
  8
0
 62
7
 10
6.34889517999999
 20
8.766666566666661
 30
0
 11
6.974320140000001
 21
8.766666566666661
 31
0
  0
LINE
  8
0
 62
7
 10
6.34889517999999
 20
8.70166656666666
 30
0
 11
6.34889517999999
 21
8.766666566666661
 31
0
  0
LINE
  8
0
 62
7
 10
6.974320140000001
 20
8.766666566666661
 30
0
 11
6.974320140000001
 21
8.70166656666666
 31
0
  0
LINE
  8
0
 62
7
 10
6.189999269999998
 20
8.58333322666666
 30
0
 11
6.611600340000002
 21
8.58333322666666
 31
0
  0
LINE
  8
0
 62
7
 10
6.611600340000002
 20
8.518333226666661
 30
0
 11
6.189999269999998
 21
8.518333226666661
 31
0
  0
LINE
  8
0
 62
7
 10
6.189999269999998
 20
8.518333226666661
 30
0
 11
6.189999269999998
 21
8.58333322666666
 31
0
  0
LINE
  8
0
 62
7
 10
6.611600340000002
 20
8.58333322666666
 30
0
 11
6.611600340000002
 21
8.518333226666661
 31
0
  0
LINE
  8
0
 62
7
 10
0.9500000000000001
 20
8.099999999999998
 30
0
 11
1.1
 21
8.099999999999998
 31
0
  0
LINE
  8
0
 62
7
 10
0.9500000000000001
 20
8.300000000000001
 30
0
 11
1.1
 21
8.300000000000001
 31
0
  0
LINE
  8
0
 62
7
 10
0.9500000000000001
 20
10.85
 30
0
 11
1.1
 21
10.85
 31
0
  0
LINE
  8
0
 62
7
 10
0.9500000000000001
 20
11.05
 30
0
 11
1.1
 21
11.05
 31
0
  0
LINE
  8
0
 62
7
 10
1.1
 20
7.949999999999996
 30
0
 11
1.1
 21
8.099999999999998
 31
0
  0
LINE
  8
0
 62
7
 10
1.1
 20
8.099999999999998
 30
0
 11
1.275
 21
8.099999999999998
 31
0
  0
LINE
  8
0
 62
7
 10
1.1
 20
8.300000000000001
 30
0
 11
1.1
 21
8.4
 31
0
  0
LINE
  8
0
 62
7
 10
1.1
 20
8.300000000000001
 30
0
 11
1.275
 21
8.300000000000001
 31
0
  0
LINE
  8
0
 62
7
 10
1.1
 20
10.85
 30
0
 11
1.275
 21
10.85
 31
0
  0
LINE
  8
0
 62
7
 10
1.1
 20
11.05
 30
0
 11
1.1
 21
11.15
 31
0
  0
LINE
  8
0
 62
7
 10
1.1
 20
11.05
 30
0
 11
1.275
 21
11.05
 31
0
  0
LINE
  8
0
 62
7
 10
1.275
 20
7.949999999999996
 30
0
 11
1.275
 21
8.099999999999998
 31
0
  0
LINE
  8
0
 62
7
 10
1.275
 20
8.099999999999998
 30
0
 11
4.035
 21
8.099999999999998
 31
0
  0
LINE
  8
0
 62
7
 10
1.275
 20
8.300000000000001
 30
0
 11
1.275
 21
8.4
 31
0
  0
LINE
  8
0
 62
7
 10
1.275
 20
8.300000000000001
 30
0
 11
4.035
 21
8.300000000000001
 31
0
  0
LINE
  8
0
 62
7
 10
1.275
 20
10.85
 30
0
 11
4.035
 21
10.85
 31
0
  0
LINE
  8
0
 62
7
 10
1.275
 20
11.05
 30
0
 11
1.275
 21
11.15
 31
0
  0
LINE
  8
0
 62
7
 10
1.275
 20
11.05
 30
0
 11
4.035
 21
11.05
 31
0
  0
LINE
  8
0
 62
7
 10
4.035
 20
7.949999999999996
 30
0
 11
4.035
 21
8.099999999999998
 31
0
  0
LINE
  8
0
 62
7
 10
4.035
 20
8.099999999999998
 30
0
 11
4.21
 21
8.099999999999998
 31
0
  0
LINE
  8
0
 62
7
 10
4.035
 20
8.300000000000001
 30
0
 11
4.035
 21
8.4
 31
0
  0
LINE
  8
0
 62
7
 10
4.035
 20
8.300000000000001
 30
0
 11
4.21
 21
8.300000000000001
 31
0
  0
LINE
  8
0
 62
7
 10
4.035
 20
10.85
 30
0
 11
4.21
 21
10.85
 31
0
  0
LINE
  8
0
 62
7
 10
4.035
 20
11.05
 30
0
 11
4.035
 21
11.15
 31
0
  0
LINE
  8
0
 62
7
 10
4.035
 20
11.05
 30
0
 11
4.21
 21
11.05
 31
0
  0
LINE
  8
0
 62
7
 10
4.21
 20
7.949999999999996
 30
0
 11
4.21
 21
8.099999999999998
 31
0
  0
LINE
  8
0
 62
7
 10
4.21
 20
8.099999999999998
 30
0
 11
4.36
 21
8.099999999999998
 31
0
  0
LINE
  8
0
 62
7
 10
4.21
 20
8.300000000000001
 30
0
 11
4.21
 21
8.4
 31
0
  0
LINE
  8
0
 62
7
 10
4.21
 20
8.300000000000001
 30
0
 11
4.36
 21
8.300000000000001
 31
0
  0
LINE
  8
0
 62
7
 10
4.21
 20
10.85
 30
0
 11
4.36
 21
10.85
 31
0
  0
LINE
  8
0
 62
7
 10
4.21
 20
11.05
 30
0
 11
4.21
 21
11.15
 31
0
  0
LINE
  8
0
 62
7
 10
4.21
 20
11.05
 30
0
 11
4.36
 21
11.05
 31
0
  0
LINE
  8
0
 62
7
  6
DASHDOT
 10
0.9500000000000001
 20
8.049999999999997
 30
0
 11
0.9500000000000001
 21
8.099999999999998
 31
0
  0
LINE
  8
0
 62
7
  6
DASHDOT
 10
0.9500000000000001
 20
10.8
 30
0
 11
0.9500000000000001
 21
10.85
 31
0
  0
LINE
  8
0
 62
7
  6
DASHDOT
 10
4.36
 20
8.049999999999997
 30
0
 11
4.36
 21
8.099999999999998
 31
0
  0
LINE
  8
0
 62
7
  6
DASHDOT
 10
4.36
 20
10.8
 30
0
 11
4.36
 21
10.85
 31
0
  0
LINE
  8
0
 62
7
  6
DASHDOT
 10
1.05
 20
11.2
 30
0
 11
1.1
 21
11.2
 31
0
  0
LINE
  8
0
 62
7
  6
DASHDOT
 10
1.05
 20
7.949999999999996
 30
0
 11
1.1
 21
7.949999999999996
 31
0
  0
LINE
  8
0
 62
7
  6
DASHDOT
 10
3.985
 20
11.2
 30
0
 11
4.035
 21
11.2
 31
0
  0
LINE
  8
0
 62
7
  6
DASHDOT
 10
3.985
 20
7.949999999999996
 30
0
 11
4.035
 21
7.949999999999996
 31
0
  0
LINE
  8
0
 62
7
 10
0.9500000000000001
 20
8.4
 30
0
 11
1.1
 21
8.4
 31
0
  0
LINE
  8
0
 62
7
 10
1.1
 20
8.4
 30
0
 11
1.1
 21
10.85
 31
0
  0
LINE
  8
0
 62
7
  6
DASHDOT
 10
0.9500000000000001
 20
8.4
 30
0
 11
0.9500000000000001
 21
8.450000000000001
 31
0
  0
LINE
  8
0
 62
7
 10
1.275
 20
8.4
 30
0
 11
4.035
 21
8.4
 31
0
  0
LINE
  8
0
 62
7
 10
1.275
 20
8.4
 30
0
 11
1.275
 21
10.85
 31
0
  0
LINE
  8
0
 62
7
 10
4.035
 20
8.4
 30
0
 11
4.035
 21
10.85
 31
0
  0
LINE
  8
0
 62
7
 10
4.21
 20
8.4
 30
0
 11
4.36
 21
8.4
 31
0
  0
LINE
  8
0
 62
7
 10
4.21
 20
8.4
 30
0
 11
4.21
 21
10.85
 31
0
  0
LINE
  8
0
 62
7
  6
DASHDOT
 10
4.36
 20
8.4
 30
0
 11
4.36
 21
8.450000000000001
 31
0
  0
LINE
  8
0
 62
7
 10
0.9500000000000001
 20
11.15
 30
0
 11
1.1
 21
11.15
 31
0
  0
LINE
  8
0
 62
7
 10
1.1
 20
11.15
 30
0
 11
1.1
 21
11.2
 31
0
  0
LINE
  8
0
 62
7
  6
DASHDOT
 10
0.9500000000000001
 20
11.15
 30
0
 11
0.9500000000000001
 21
11.2
 31
0
  0
LINE
  8
0
 62
7
 10
1.275
 20
11.15
 30
0
 11
4.035
 21
11.15
 31
0
  0
LINE
  8
0
 62
7
 10
1.275
 20
11.15
 30
0
 11
1.275
 21
11.2
 31
0
  0
LINE
  8
0
 62
7
 10
4.035
 20
11.15
 30
0
 11
4.035
 21
11.2
 31
0
  0
LINE
  8
0
 62
7
 10
4.21
 20
11.15
 30
0
 11
4.36
 21
11.15
 31
0
  0
LINE
  8
0
 62
7
 10
4.21
 20
11.15
 30
0
 11
4.21
 21
11.2
 31
0
  0
LINE
  8
0
 62
7
  6
DASHDOT
 10
4.36
 20
11.15
 30
0
 11
4.36
 21
11.2
 31
0
  0
LINE
  8
0
 62
7
  6
DASHDOT
 10
4.36
 20
8.099999999999998
 30
0
 11
4.36
 21
8.300000000000001
 31
0
  0
LINE
  8
0
 62
7
  6
DASHDOT
 10
4.36
 20
8.300000000000001
 30
0
 11
4.36
 21
8.4
 31
0
  0
LINE
  8
0
 62
7
  6
DASHDOT
 10
4.035
 20
7.949999999999996
 30
0
 11
4.21
 21
7.949999999999996
 31
0
  0
LINE
  8
0
 62
7
  6
DASHDOT
 10
4.21
 20
7.949999999999996
 30
0
 11
4.260000000000001
 21
7.949999999999996
 31
0
  0
LINE
  8
0
 62
7
  6
DASHDOT
 10
0.9500000000000001
 20
8.099999999999998
 30
0
 11
0.9500000000000001
 21
8.300000000000001
 31
0
  0
LINE
  8
0
 62
7
  6
DASHDOT
 10
0.9500000000000001
 20
8.300000000000001
 30
0
 11
0.9500000000000001
 21
8.4
 31
0
  0
LINE
  8
0
 62
7
  6
DASHDOT
 10
1.1
 20
7.949999999999996
 30
0
 11
1.275
 21
7.949999999999996
 31
0
  0
LINE
  8
0
 62
7
  6
DASHDOT
 10
1.275
 20
7.949999999999996
 30
0
 11
1.325
 21
7.949999999999996
 31
0
  0
LINE
  8
0
 62
7
  6
DASHDOT
 10
0.9500000000000001
 20
10.85
 30
0
 11
0.9500000000000001
 21
11.05
 31
0
  0
LINE
  8
0
 62
7
  6
DASHDOT
 10
0.9500000000000001
 20
11.05
 30
0
 11
0.9500000000000001
 21
11.15
 31
0
  0
LINE
  8
0
 62
7
  6
DASHDOT
 10
1.1
 20
11.2
 30
0
 11
1.275
 21
11.2
 31
0
  0
LINE
  8
0
 62
7
  6
DASHDOT
 10
1.275
 20
11.2
 30
0
 11
1.325
 21
11.2
 31
0
  0
LINE
  8
0
 62
7
  6
DASHDOT
 10
4.36
 20
10.85
 30
0
 11
4.36
 21
11.05
 31
0
  0
LINE
  8
0
 62
7
  6
DASHDOT
 10
4.36
 20
11.05
 30
0
 11
4.36
 21
11.15
 31
0
  0
LINE
  8
0
 62
7
  6
DASHDOT
 10
4.035
 20
11.2
 30
0
 11
4.21
 21
11.2
 31
0
  0
LINE
  8
0
 62
7
  6
DASHDOT
 10
4.21
 20
11.2
 30
0
 11
4.260000000000001
 21
11.2
 31
0
  0
LINE
  8
0
 62
7
 10
8.200000000000001
 20
8.099999999999998
 30
0
 11
8.200000000000001
 21
7.949999999999996
 31
0
  0
LINE
  8
0
 62
7
 10
7.960000000000001
 20
11.05
 30
0
 11
7.960000000000001
 21
11.2
 31
0
  0
LINE
  8
0
 62
7
 10
7.960000000000001
 20
11.05
 30
0
 11
8.200000000000001
 21
11.05
 31
0
  0
LINE
  8
0
 62
7
 10
8.200000000000001
 20
11.2
 30
0
 11
8.200000000000001
 21
11.05
 31
0
  0
LINE
  8
0
 62
7
 10
7.960000000000001
 20
10.85
 30
0
 11
7.960000000000001
 21
11.05
 31
0
  0
LINE
  8
0
 62
7
 10
7.960000000000001
 20
10.85
 30
0
 11
8.200000000000001
 21
10.85
 31
0
  0
LINE
  8
0
 62
7
 10
8.200000000000001
 20
11.05
 30
0
 11
8.200000000000001
 21
10.85
 31
0
  0
LINE
  8
0
 62
7
 10
7.960000000000001
 20
8.300000000000001
 30
0
 11
7.960000000000001
 21
10.85
 31
0
  0
LINE
  8
0
 62
7
 10
7.960000000000001
 20
8.300000000000001
 30
0
 11
8.200000000000001
 21
8.300000000000001
 31
0
  0
LINE
  8
0
 62
7
 10
8.200000000000001
 20
10.85
 30
0
 11
8.200000000000001
 21
8.300000000000001
 31
0
  0
LINE
  8
0
 62
7
 10
7.960000000000001
 20
8.099999999999998
 30
0
 11
7.960000000000001
 21
8.300000000000001
 31
0
  0
LINE
  8
0
 62
7
 10
7.960000000000001
 20
8.099999999999998
 30
0
 11
8.200000000000001
 21
8.099999999999998
 31
0
  0
LINE
  8
0
 62
7
 10
8.200000000000001
 20
8.300000000000001
 30
0
 11
8.200000000000001
 21
8.099999999999998
 31
0
  0
LINE
  8
0
 62
7
 10
7.960000000000001
 20
7.949999999999996
 30
0
 11
7.960000000000001
 21
8.099999999999998
 31
0
  0
LINE
  8
0
 62
7
 10
6.29
 20
10.85
 30
0
 11
6.29
 21
11.05
 31
0
  0
LINE
  8
0
 62
7
 10
5.99
 20
10.85
 30
0
 11
6.29
 21
10.85
 31
0
  0
LINE
  8
0
 62
7
 10
5.99
 20
11.05
 30
0
 11
6.29
 21
11.05
 31
0
  0
LINE
  8
0
 62
7
 10
5.99
 20
8.300000000000001
 30
0
 11
6.29
 21
8.300000000000001
 31
0
  0
LINE
  8
0
 62
7
 10
6.29
 20
8.099999999999998
 30
0
 11
6.29
 21
8.300000000000001
 31
0
  0
LINE
  8
0
 62
7
 10
5.99
 20
8.099999999999998
 30
0
 11
6.29
 21
8.099999999999998
 31
0
  0
LINE
  8
0
 62
7
  6
DASHDOT
 10
8.200000000000001
 20
11.2
 30
0
 11
8.25
 21
11.2
 31
0
  0
LINE
  8
0
 62
7
  6
DASHDOT
 10
5.99
 20
11.15
 30
0
 11
5.99
 21
11.2
 31
0
  0
LINE
  8
0
 62
7
  6
DASHDOT
 10
5.99
 20
8.099999999999998
 30
0
 11
5.99
 21
8.049999999999997
 31
0
  0
LINE
  8
0
 62
7
  6
DASHDOT
 10
8.200000000000001
 20
7.949999999999996
 30
0
 11
8.25
 21
7.949999999999996
 31
0
  0
LINE
  8
0
 62
7
 10
5.99
 20
8.4
 30
0
 11
6.29
 21
8.4
 31
0
  0
LINE
  8
0
 62
7
  6
DASHDOT
 10
5.99
 20
8.450000000000001
 30
0
 11
5.99
 21
8.4
 31
0
  0
LINE
  8
0
 62
7
 10
5.99
 20
11.15
 30
0
 11
6.29
 21
11.15
 31
0
  0
LINE
  8
0
 62
7
  6
DASHDOT
 10
5.99
 20
11.05
 30
0
 11
5.99
 21
11.15
 31
0
  0
LINE
  8
0
 62
7
  6
DASHDOT
 10
5.99
 20
8.4
 30
0
 11
5.99
 21
8.300000000000001
 31
0
  0
LINE
  8
0
 62
7
  6
DASHDOT
 10
5.99
 20
8.300000000000001
 30
0
 11
5.99
 21
8.099999999999998
 31
0
  0
LINE
  8
0
 62
7
  6
DASHDOT
 10
7.960000000000001
 20
7.949999999999996
 30
0
 11
8.200000000000001
 21
7.949999999999996
 31
0
  0
LINE
  8
0
 62
7
  6
DASHDOT
 10
7.910000000000001
 20
7.949999999999996
 30
0
 11
7.960000000000001
 21
7.949999999999996
 31
0
  0
LINE
  8
0
 62
7
  6
DASHDOT
 10
7.910000000000001
 20
11.2
 30
0
 11
7.960000000000001
 21
11.2
 31
0
  0
LINE
  8
0
 62
7
  6
DASHDOT
 10
7.960000000000001
 20
11.2
 30
0
 11
8.200000000000001
 21
11.2
 31
0
  0
LINE
  8
0
 62
7
  6
DASHDOT
 10
5.99
 20
10.8
 30
0
 11
5.99
 21
10.85
 31
0
  0
LINE
  8
0
 62
7
  6
DASHDOT
 10
5.99
 20
10.85
 30
0
 11
5.99
 21
11.05
 31
0
  0
LINE
  8
0
 62
7
  6
DASHED
 10
6.29
 20
11.05
 30
0
 11
7.960000000000001
 21
11.05
 31
0
  0
LINE
  8
0
 62
7
  6
DASHED
 10
6.29
 20
10.85
 30
0
 11
7.960000000000001
 21
10.85
 31
0
  0
LINE
  8
0
 62
7
  6
DASHED
 10
6.29
 20
8.300000000000001
 30
0
 11
7.960000000000001
 21
8.300000000000001
 31
0
  0
LINE
  8
0
 62
7
  6
DASHED
 10
6.29
 20
8.099999999999998
 30
0
 11
7.960000000000001
 21
8.099999999999998
 31
0
  0
LINE
  8
0
 62
7
 10
4.21
 20
5.539999999999999
 30
0
 11
4.36
 21
5.539999999999999
 31
0
  0
LINE
  8
0
 62
7
 10
4.21
 20
5.689999999999999
 30
0
 11
4.21
 21
5.539999999999999
 31
0
  0
LINE
  8
0
 62
7
 10
4.035
 20
5.539999999999999
 30
0
 11
4.035
 21
5.689999999999999
 31
0
  0
LINE
  8
0
 62
7
 10
1.275
 20
5.539999999999999
 30
0
 11
4.035
 21
5.539999999999999
 31
0
  0
LINE
  8
0
 62
7
 10
1.275
 20
5.689999999999999
 30
0
 11
1.275
 21
5.539999999999999
 31
0
  0
LINE
  8
0
 62
7
 10
1.1
 20
5.539999999999999
 30
0
 11
1.1
 21
5.689999999999999
 31
0
  0
LINE
  8
0
 62
7
 10
0.9350000000000001
 20
5.539999999999999
 30
0
 11
1.1
 21
5.539999999999999
 31
0
  0
LINE
  8
0
 62
7
 10
0.9350000000000001
 20
5.300000000000001
 30
0
 11
4.36
 21
5.300000000000001
 31
0
  0
LINE
  8
0
 62
7
 10
0.9350000000000001
 20
5.260000000000002
 30
0
 11
4.36
 21
5.260000000000002
 31
0
  0
LINE
  8
0
 62
7
 10
4.21
 20
5.020000000000001
 30
0
 11
4.36
 21
5.020000000000001
 31
0
  0
LINE
  8
0
 62
7
 10
4.035
 20
3.35
 30
0
 11
4.035
 21
3.25
 31
0
  0
LINE
  8
0
 62
7
 10
4.035
 20
3.25
 30
0
 11
4.21
 21
3.25
 31
0
  0
LINE
  8
0
 62
7
 10
4.21
 20
3.25
 30
0
 11
4.21
 21
5.020000000000001
 31
0
  0
LINE
  8
0
 62
7
 10
1.275
 20
5.020000000000001
 30
0
 11
4.035
 21
5.020000000000001
 31
0
  0
LINE
  8
0
 62
7
 10
1.275
 20
3.400000000000001
 30
0
 11
1.275
 21
5.020000000000001
 31
0
  0
LINE
  8
0
 62
7
 10
1.1
 20
5.020000000000001
 30
0
 11
1.1
 21
3.35
 31
0
  0
LINE
  8
0
 62
7
 10
0.9350000000000001
 20
5.020000000000001
 30
0
 11
1.1
 21
5.020000000000001
 31
0
  0
LINE
  8
0
 62
7
 10
1.1
 20
3.35
 30
0
 11
1.275
 21
3.35
 31
0
  0
LINE
  8
0
 62
7
 10
4.035
 20
3.400000000000001
 30
0
 11
1.275
 21
3.400000000000001
 31
0
  0
LINE
  8
0
 62
7
 10
4.035
 20
5.020000000000001
 30
0
 11
4.035
 21
3.400000000000001
 31
0
  0
LINE
  8
0
 62
7
 10
1.275
 20
3.35
 30
0
 11
1.275
 21
3.400000000000001
 31
0
  0
LINE
  8
0
 62
7
  6
DASHDOT
 10
4.035
 20
3.35
 30
0
 11
1.275
 21
3.35
 31
0
  0
LINE
  8
0
 62
7
 10
4.035
 20
3.400000000000001
 30
0
 11
4.035
 21
3.35
 31
0
  0
LINE
  8
0
 62
7
  6
DASHDOT
 10
4.21
 20
5.689999999999999
 30
0
 11
4.260000000000001
 21
5.689999999999999
 31
0
  0
LINE
  8
0
 62
7
  6
DASHDOT
 10
1.275
 20
5.689999999999999
 30
0
 11
1.325
 21
5.689999999999999
 31
0
  0
LINE
  8
0
 62
7
  6
DASHDOT
 10
4.36
 20
5.539999999999999
 30
0
 11
4.36
 21
5.589999999999999
 31
0
  0
LINE
  8
0
 62
7
  6
DASHDOT
 10
0.9350000000000001
 20
5.539999999999999
 30
0
 11
0.9350000000000001
 21
5.589999999999999
 31
0
  0
LINE
  8
0
 62
7
  6
DASHDOT
 10
0.9350000000000001
 20
5.300000000000001
 30
0
 11
0.9350000000000001
 21
5.539999999999999
 31
0
  0
LINE
  8
0
 62
7
  6
DASHDOT
 10
0.9350000000000001
 20
4.970000000000002
 30
0
 11
0.9350000000000001
 21
5.020000000000001
 31
0
  0
LINE
  8
0
 62
7
  6
DASHDOT
 10
4.035
 20
5.689999999999999
 30
0
 11
4.21
 21
5.689999999999999
 31
0
  0
LINE
  8
0
 62
7
  6
DASHDOT
 10
3.985
 20
5.689999999999999
 30
0
 11
4.035
 21
5.689999999999999
 31
0
  0
LINE
  8
0
 62
7
  6
DASHDOT
 10
4.36
 20
5.300000000000001
 30
0
 11
4.36
 21
5.539999999999999
 31
0
  0
LINE
  8
0
 62
7
  6
DASHDOT
 10
4.36
 20
4.970000000000002
 30
0
 11
4.36
 21
5.020000000000001
 31
0
  0
LINE
  8
0
 62
7
  6
DASHDOT
 10
0.9350000000000001
 20
5.260000000000002
 30
0
 11
0.9350000000000001
 21
5.300000000000001
 31
0
  0
LINE
  8
0
 62
7
  6
DASHDOT
 10
4.36
 20
5.260000000000002
 30
0
 11
4.36
 21
5.300000000000001
 31
0
  0
LINE
  8
0
 62
7
  6
DASHDOT
 10
0.9350000000000001
 20
5.020000000000001
 30
0
 11
0.9350000000000001
 21
5.260000000000002
 31
0
  0
LINE
  8
0
 62
7
  6
DASHDOT
 10
4.36
 20
5.020000000000001
 30
0
 11
4.36
 21
5.260000000000002
 31
0
  0
LINE
  8
0
 62
7
  6
DASHDOT
 10
1.05
 20
5.689999999999999
 30
0
 11
1.1
 21
5.689999999999999
 31
0
  0
LINE
  8
0
 62
7
  6
DASHDOT
 10
1.1
 20
5.689999999999999
 30
0
 11
1.275
 21
5.689999999999999
 31
0
  0
LINE
  8
0
 62
7
 10
1.83124725188781
 20
4.688508392664509
 30
0
 11
1.83124725188781
 21
4.80850839266451
 31
0
  0
LINE
  8
0
 62
7
 10
1.90684725188781
 20
4.80850839266451
 30
0
 11
1.852847251887811
 21
4.74850839266451
 31
0
  0
LINE
  8
0
 62
7
 10
1.852847251887811
 20
4.74850839266451
 30
0
 11
1.90684725188781
 21
4.688508392664509
 31
0
  0
LINE
  8
0
 62
7
 10
1.852847251887811
 20
4.74850839266451
 30
0
 11
1.83124725188781
 21
4.72450839266451
 31
0
  0
LINE
  8
0
 62
7
 10
2.01484725188781
 20
4.80850839266451
 30
0
 11
1.93924725188781
 21
4.80850839266451
 31
0
  0
LINE
  8
0
 62
7
 10
1.93924725188781
 20
4.80850839266451
 30
0
 11
1.93924725188781
 21
4.74850839266451
 31
0
  0
LINE
  8
0
 62
7
 10
1.93924725188781
 20
4.688508392664509
 30
0
 11
2.01484725188781
 21
4.688508392664509
 31
0
  0
LINE
  8
0
 62
7
 10
2.00404725188781
 20
4.74850839266451
 30
0
 11
1.93924725188781
 21
4.74850839266451
 31
0
  0
LINE
  8
0
 62
7
 10
1.93924725188781
 20
4.74850839266451
 30
0
 11
1.93924725188781
 21
4.688508392664509
 31
0
  0
LINE
  8
0
 62
7
 10
2.04724725188781
 20
4.688508392664509
 30
0
 11
2.04724725188781
 21
4.80850839266451
 31
0
  0
LINE
  8
0
 62
7
 10
2.04724725188781
 20
4.80850839266451
 30
0
 11
2.12284725188781
 21
4.688508392664509
 31
0
  0
LINE
  8
0
 62
7
 10
2.12284725188781
 20
4.688508392664509
 30
0
 11
2.12284725188781
 21
4.80850839266451
 31
0
  0
LINE
  8
0
 62
7
 10
2.15524725188781
 20
4.688508392664509
 30
0
 11
2.15524725188781
 21
4.80850839266451
 31
0
  0
LINE
  8
0
 62
7
 10
2.15524725188781
 20
4.80850839266451
 30
0
 11
2.23084725188781
 21
4.688508392664509
 31
0
  0
LINE
  8
0
 62
7
 10
2.23084725188781
 20
4.688508392664509
 30
0
 11
2.23084725188781
 21
4.80850839266451
 31
0
  0
LINE
  8
0
 62
7
 10
2.338847251887811
 20
4.772508392664511
 30
0
 11
2.33614725188781
 21
4.78450839266451
 31
0
  0
LINE
  8
0
 62
7
 10
2.33614725188781
 20
4.78450839266451
 30
0
 11
2.33074725188781
 21
4.793508392664509
 31
0
  0
LINE
  8
0
 62
7
 10
2.33074725188781
 20
4.793508392664509
 30
0
 11
2.32534725188781
 21
4.799508392664509
 31
0
  0
LINE
  8
0
 62
7
 10
2.32534725188781
 20
4.799508392664509
 30
0
 11
2.31724725188781
 21
4.80550839266451
 31
0
  0
LINE
  8
0
 62
7
 10
2.31724725188781
 20
4.80550839266451
 30
0
 11
2.30914725188781
 21
4.80850839266451
 31
0
  0
LINE
  8
0
 62
7
 10
2.30914725188781
 20
4.80850839266451
 30
0
 11
2.29294725188781
 21
4.80850839266451
 31
0
  0
LINE
  8
0
 62
7
 10
2.29294725188781
 20
4.80850839266451
 30
0
 11
2.28484725188781
 21
4.80550839266451
 31
0
  0
LINE
  8
0
 62
7
 10
2.28484725188781
 20
4.80550839266451
 30
0
 11
2.27674725188781
 21
4.799508392664509
 31
0
  0
LINE
  8
0
 62
7
 10
2.27674725188781
 20
4.799508392664509
 30
0
 11
2.27134725188781
 21
4.793508392664509
 31
0
  0
LINE
  8
0
 62
7
 10
2.27134725188781
 20
4.793508392664509
 30
0
 11
2.26594725188781
 21
4.78450839266451
 31
0
  0
LINE
  8
0
 62
7
 10
2.26594725188781
 20
4.78450839266451
 30
0
 11
2.26324725188781
 21
4.772508392664511
 31
0
  0
LINE
  8
0
 62
7
 10
2.26324725188781
 20
4.772508392664511
 30
0
 11
2.26324725188781
 21
4.72450839266451
 31
0
  0
LINE
  8
0
 62
7
 10
2.26324725188781
 20
4.72450839266451
 30
0
 11
2.26594725188781
 21
4.71250839266451
 31
0
  0
LINE
  8
0
 62
7
 10
2.26594725188781
 20
4.71250839266451
 30
0
 11
2.27134725188781
 21
4.703508392664509
 31
0
  0
LINE
  8
0
 62
7
 10
2.27134725188781
 20
4.703508392664509
 30
0
 11
2.27674725188781
 21
4.697508392664511
 31
0
  0
LINE
  8
0
 62
7
 10
2.27674725188781
 20
4.697508392664511
 30
0
 11
2.28484725188781
 21
4.691508392664509
 31
0
  0
LINE
  8
0
 62
7
 10
2.28484725188781
 20
4.691508392664509
 30
0
 11
2.29294725188781
 21
4.688508392664509
 31
0
  0
LINE
  8
0
 62
7
 10
2.29294725188781
 20
4.688508392664509
 30
0
 11
2.30914725188781
 21
4.688508392664509
 31
0
  0
LINE
  8
0
 62
7
 10
2.30914725188781
 20
4.688508392664509
 30
0
 11
2.31724725188781
 21
4.691508392664509
 31
0
  0
LINE
  8
0
 62
7
 10
2.31724725188781
 20
4.691508392664509
 30
0
 11
2.32534725188781
 21
4.697508392664511
 31
0
  0
LINE
  8
0
 62
7
 10
2.32534725188781
 20
4.697508392664511
 30
0
 11
2.33074725188781
 21
4.703508392664509
 31
0
  0
LINE
  8
0
 62
7
 10
2.33074725188781
 20
4.703508392664509
 30
0
 11
2.33614725188781
 21
4.71250839266451
 31
0
  0
LINE
  8
0
 62
7
 10
2.33614725188781
 20
4.71250839266451
 30
0
 11
2.338847251887811
 21
4.72450839266451
 31
0
  0
LINE
  8
0
 62
7
 10
2.338847251887811
 20
4.72450839266451
 30
0
 11
2.338847251887811
 21
4.74850839266451
 31
0
  0
LINE
  8
0
 62
7
 10
2.338847251887811
 20
4.74850839266451
 30
0
 11
2.30644725188781
 21
4.74850839266451
 31
0
  0
LINE
  8
0
 62
7
 10
2.41714725188781
 20
4.80850839266451
 30
0
 11
2.400947251887811
 21
4.80850839266451
 31
0
  0
LINE
  8
0
 62
7
 10
2.400947251887811
 20
4.80850839266451
 30
0
 11
2.39284725188781
 21
4.80550839266451
 31
0
  0
LINE
  8
0
 62
7
 10
2.39284725188781
 20
4.80550839266451
 30
0
 11
2.384747251887811
 21
4.799508392664509
 31
0
  0
LINE
  8
0
 62
7
 10
2.384747251887811
 20
4.799508392664509
 30
0
 11
2.37934725188781
 21
4.793508392664509
 31
0
  0
LINE
  8
0
 62
7
 10
2.37934725188781
 20
4.793508392664509
 30
0
 11
2.37394725188781
 21
4.78450839266451
 31
0
  0
LINE
  8
0
 62
7
 10
2.37394725188781
 20
4.78450839266451
 30
0
 11
2.37124725188781
 21
4.772508392664511
 31
0
  0
LINE
  8
0
 62
7
 10
2.37124725188781
 20
4.772508392664511
 30
0
 11
2.37124725188781
 21
4.72450839266451
 31
0
  0
LINE
  8
0
 62
7
 10
2.37124725188781
 20
4.72450839266451
 30
0
 11
2.37394725188781
 21
4.71250839266451
 31
0
  0
LINE
  8
0
 62
7
 10
2.37394725188781
 20
4.71250839266451
 30
0
 11
2.37934725188781
 21
4.703508392664509
 31
0
  0
LINE
  8
0
 62
7
 10
2.37934725188781
 20
4.703508392664509
 30
0
 11
2.384747251887811
 21
4.697508392664511
 31
0
  0
LINE
  8
0
 62
7
 10
2.384747251887811
 20
4.697508392664511
 30
0
 11
2.39284725188781
 21
4.691508392664509
 31
0
  0
LINE
  8
0
 62
7
 10
2.39284725188781
 20
4.691508392664509
 30
0
 11
2.400947251887811
 21
4.688508392664509
 31
0
  0
LINE
  8
0
 62
7
 10
2.400947251887811
 20
4.688508392664509
 30
0
 11
2.41714725188781
 21
4.688508392664509
 31
0
  0
LINE
  8
0
 62
7
 10
2.41714725188781
 20
4.688508392664509
 30
0
 11
2.42524725188781
 21
4.691508392664509
 31
0
  0
LINE
  8
0
 62
7
 10
2.42524725188781
 20
4.691508392664509
 30
0
 11
2.43334725188781
 21
4.697508392664511
 31
0
  0
LINE
  8
0
 62
7
 10
2.43334725188781
 20
4.697508392664511
 30
0
 11
2.43874725188781
 21
4.703508392664509
 31
0
  0
LINE
  8
0
 62
7
 10
2.43874725188781
 20
4.703508392664509
 30
0
 11
2.44414725188781
 21
4.71250839266451
 31
0
  0
LINE
  8
0
 62
7
 10
2.44414725188781
 20
4.71250839266451
 30
0
 11
2.44684725188781
 21
4.72450839266451
 31
0
  0
LINE
  8
0
 62
7
 10
2.44684725188781
 20
4.72450839266451
 30
0
 11
2.44684725188781
 21
4.772508392664511
 31
0
  0
LINE
  8
0
 62
7
 10
2.44684725188781
 20
4.772508392664511
 30
0
 11
2.44414725188781
 21
4.78450839266451
 31
0
  0
LINE
  8
0
 62
7
 10
2.44414725188781
 20
4.78450839266451
 30
0
 11
2.43874725188781
 21
4.793508392664509
 31
0
  0
LINE
  8
0
 62
7
 10
2.43874725188781
 20
4.793508392664509
 30
0
 11
2.43334725188781
 21
4.799508392664509
 31
0
  0
LINE
  8
0
 62
7
 10
2.43334725188781
 20
4.799508392664509
 30
0
 11
2.42524725188781
 21
4.80550839266451
 31
0
  0
LINE
  8
0
 62
7
 10
2.42524725188781
 20
4.80550839266451
 30
0
 11
2.41714725188781
 21
4.80850839266451
 31
0
  0
LINE
  8
0
 62
7
 10
2.46844725188781
 20
4.80850839266451
 30
0
 11
2.50624725188781
 21
4.80850839266451
 31
0
  0
LINE
  8
0
 62
7
 10
2.50624725188781
 20
4.80850839266451
 30
0
 11
2.50624725188781
 21
4.688508392664509
 31
0
  0
LINE
  8
0
 62
7
 10
2.50624725188781
 20
4.80850839266451
 30
0
 11
2.54404725188781
 21
4.80850839266451
 31
0
  0
LINE
  8
0
 62
7
 10
2.57644725188781
 20
4.80850839266451
 30
0
 11
2.614247251887811
 21
4.80850839266451
 31
0
  0
LINE
  8
0
 62
7
 10
2.614247251887811
 20
4.80850839266451
 30
0
 11
2.614247251887811
 21
4.688508392664509
 31
0
  0
LINE
  8
0
 62
7
 10
2.614247251887811
 20
4.80850839266451
 30
0
 11
2.652047251887811
 21
4.80850839266451
 31
0
  0
LINE
  8
0
 62
7
 10
2.77084725188781
 20
4.73050839266451
 30
0
 11
2.82484725188781
 21
4.73050839266451
 31
0
  0
LINE
  8
0
 62
7
 10
2.93284725188781
 20
4.80850839266451
 30
0
 11
2.97064725188781
 21
4.80850839266451
 31
0
  0
LINE
  8
0
 62
7
 10
2.97064725188781
 20
4.80850839266451
 30
0
 11
2.97064725188781
 21
4.688508392664509
 31
0
  0
LINE
  8
0
 62
7
 10
2.97064725188781
 20
4.80850839266451
 30
0
 11
3.00844725188781
 21
4.80850839266451
 31
0
  0
LINE
  8
0
 62
7
 10
3.04084725188781
 20
4.688508392664509
 30
0
 11
3.04084725188781
 21
4.80850839266451
 31
0
  0
LINE
  8
0
 62
7
 10
3.04084725188781
 20
4.80850839266451
 30
0
 11
3.09214725188781
 21
4.80850839266451
 31
0
  0
LINE
  8
0
 62
7
 10
3.09214725188781
 20
4.80850839266451
 30
0
 11
3.102947251887811
 21
4.80550839266451
 31
0
  0
LINE
  8
0
 62
7
 10
3.102947251887811
 20
4.80550839266451
 30
0
 11
3.11104725188781
 21
4.799508392664509
 31
0
  0
LINE
  8
0
 62
7
 10
3.11104725188781
 20
4.799508392664509
 30
0
 11
3.11374725188781
 21
4.793508392664509
 31
0
  0
LINE
  8
0
 62
7
 10
3.11374725188781
 20
4.793508392664509
 30
0
 11
3.116447251887811
 21
4.78450839266451
 31
0
  0
LINE
  8
0
 62
7
 10
3.116447251887811
 20
4.78450839266451
 30
0
 11
3.116447251887811
 21
4.772508392664511
 31
0
  0
LINE
  8
0
 62
7
 10
3.116447251887811
 20
4.772508392664511
 30
0
 11
3.11374725188781
 21
4.76350839266451
 31
0
  0
LINE
  8
0
 62
7
 10
3.11374725188781
 20
4.76350839266451
 30
0
 11
3.11104725188781
 21
4.75750839266451
 31
0
  0
LINE
  8
0
 62
7
 10
3.11104725188781
 20
4.75750839266451
 30
0
 11
3.102947251887811
 21
4.751508392664508
 31
0
  0
LINE
  8
0
 62
7
 10
3.102947251887811
 20
4.751508392664508
 30
0
 11
3.09214725188781
 21
4.74850839266451
 31
0
  0
LINE
  8
0
 62
7
 10
3.09214725188781
 20
4.74850839266451
 30
0
 11
3.08404725188781
 21
4.74850839266451
 31
0
  0
LINE
  8
0
 62
7
 10
3.08404725188781
 20
4.74850839266451
 30
0
 11
3.116447251887811
 21
4.688508392664509
 31
0
  0
LINE
  8
0
 62
7
 10
3.08404725188781
 20
4.74850839266451
 30
0
 11
3.04084725188781
 21
4.74850839266451
 31
0
  0
LINE
  8
0
 62
7
 10
3.21364725188781
 20
4.80850839266451
 30
0
 11
3.13804725188781
 21
4.80850839266451
 31
0
  0
LINE
  8
0
 62
7
 10
3.13804725188781
 20
4.80850839266451
 30
0
 11
3.13804725188781
 21
4.74850839266451
 31
0
  0
LINE
  8
0
 62
7
 10
3.13804725188781
 20
4.688508392664509
 30
0
 11
3.21364725188781
 21
4.688508392664509
 31
0
  0
LINE
  8
0
 62
7
 10
3.202847251887811
 20
4.74850839266451
 30
0
 11
3.13804725188781
 21
4.74850839266451
 31
0
  0
LINE
  8
0
 62
7
 10
3.13804725188781
 20
4.74850839266451
 30
0
 11
3.13804725188781
 21
4.688508392664509
 31
0
  0
LINE
  8
0
 62
7
 10
3.24604725188781
 20
4.688508392664509
 30
0
 11
3.24604725188781
 21
4.74850839266451
 31
0
  0
LINE
  8
0
 62
7
 10
3.24604725188781
 20
4.80850839266451
 30
0
 11
3.297347251887811
 21
4.80850839266451
 31
0
  0
LINE
  8
0
 62
7
 10
3.297347251887811
 20
4.80850839266451
 30
0
 11
3.30814725188781
 21
4.80550839266451
 31
0
  0
LINE
  8
0
 62
7
 10
3.30814725188781
 20
4.80550839266451
 30
0
 11
3.31624725188781
 21
4.799508392664509
 31
0
  0
LINE
  8
0
 62
7
 10
3.31624725188781
 20
4.799508392664509
 30
0
 11
3.318947251887811
 21
4.793508392664509
 31
0
  0
LINE
  8
0
 62
7
 10
3.318947251887811
 20
4.793508392664509
 30
0
 11
3.32164725188781
 21
4.78450839266451
 31
0
  0
LINE
  8
0
 62
7
 10
3.32164725188781
 20
4.78450839266451
 30
0
 11
3.32164725188781
 21
4.772508392664511
 31
0
  0
LINE
  8
0
 62
7
 10
3.32164725188781
 20
4.772508392664511
 30
0
 11
3.318947251887811
 21
4.76350839266451
 31
0
  0
LINE
  8
0
 62
7
 10
3.318947251887811
 20
4.76350839266451
 30
0
 11
3.31624725188781
 21
4.75750839266451
 31
0
  0
LINE
  8
0
 62
7
 10
3.31624725188781
 20
4.75750839266451
 30
0
 11
3.30814725188781
 21
4.751508392664508
 31
0
  0
LINE
  8
0
 62
7
 10
3.30814725188781
 20
4.751508392664508
 30
0
 11
3.297347251887811
 21
4.74850839266451
 31
0
  0
LINE
  8
0
 62
7
 10
3.297347251887811
 20
4.74850839266451
 30
0
 11
3.24604725188781
 21
4.74850839266451
 31
0
  0
LINE
  8
0
 62
7
 10
3.24604725188781
 20
4.74850839266451
 30
0
 11
3.24604725188781
 21
4.80850839266451
 31
0
  0
LINE
  8
0
 62
7
 10
3.34324725188781
 20
4.688508392664509
 30
0
 11
3.34324725188781
 21
4.74850839266451
 31
0
  0
LINE
  8
0
 62
7
 10
3.34324725188781
 20
4.80850839266451
 30
0
 11
3.394547251887811
 21
4.80850839266451
 31
0
  0
LINE
  8
0
 62
7
 10
3.394547251887811
 20
4.80850839266451
 30
0
 11
3.405347251887811
 21
4.80550839266451
 31
0
  0
LINE
  8
0
 62
7
 10
3.405347251887811
 20
4.80550839266451
 30
0
 11
3.413447251887811
 21
4.799508392664509
 31
0
  0
LINE
  8
0
 62
7
 10
3.413447251887811
 20
4.799508392664509
 30
0
 11
3.416147251887811
 21
4.793508392664509
 31
0
  0
LINE
  8
0
 62
7
 10
3.416147251887811
 20
4.793508392664509
 30
0
 11
3.41884725188781
 21
4.78450839266451
 31
0
  0
LINE
  8
0
 62
7
 10
3.41884725188781
 20
4.78450839266451
 30
0
 11
3.41884725188781
 21
4.772508392664511
 31
0
  0
LINE
  8
0
 62
7
 10
3.41884725188781
 20
4.772508392664511
 30
0
 11
3.416147251887811
 21
4.76350839266451
 31
0
  0
LINE
  8
0
 62
7
 10
3.416147251887811
 20
4.76350839266451
 30
0
 11
3.413447251887811
 21
4.75750839266451
 31
0
  0
LINE
  8
0
 62
7
 10
3.413447251887811
 20
4.75750839266451
 30
0
 11
3.405347251887811
 21
4.751508392664508
 31
0
  0
LINE
  8
0
 62
7
 10
3.405347251887811
 20
4.751508392664508
 30
0
 11
3.394547251887811
 21
4.74850839266451
 31
0
  0
LINE
  8
0
 62
7
 10
3.394547251887811
 20
4.74850839266451
 30
0
 11
3.34324725188781
 21
4.74850839266451
 31
0
  0
LINE
  8
0
 62
7
 10
3.34324725188781
 20
4.74850839266451
 30
0
 11
3.34324725188781
 21
4.80850839266451
 31
0
  0
LINE
  8
0
 62
7
 10
3.516047251887811
 20
4.80850839266451
 30
0
 11
3.440447251887811
 21
4.80850839266451
 31
0
  0
LINE
  8
0
 62
7
 10
3.440447251887811
 20
4.80850839266451
 30
0
 11
3.440447251887811
 21
4.74850839266451
 31
0
  0
LINE
  8
0
 62
7
 10
3.440447251887811
 20
4.688508392664509
 30
0
 11
3.516047251887811
 21
4.688508392664509
 31
0
  0
LINE
  8
0
 62
7
 10
3.505247251887811
 20
4.74850839266451
 30
0
 11
3.440447251887811
 21
4.74850839266451
 31
0
  0
LINE
  8
0
 62
7
 10
3.440447251887811
 20
4.74850839266451
 30
0
 11
3.440447251887811
 21
4.688508392664509
 31
0
  0
LINE
  8
0
 62
7
 10
0.625
 20
2.890000000000005
 30
0
 11
0.625
 21
3.010000000000005
 31
0
  0
LINE
  8
0
 62
7
 10
0.625
 20
3.010000000000005
 30
0
 11
0.6682000000000001
 21
2.914000000000005
 31
0
  0
LINE
  8
0
 62
7
 10
0.6682000000000001
 20
2.914000000000005
 30
0
 11
0.7114
 21
3.010000000000005
 31
0
  0
LINE
  8
0
 62
7
 10
0.7114
 20
3.010000000000005
 30
0
 11
0.7114
 21
2.890000000000005
 31
0
  0
LINE
  8
0
 62
7
 10
0.7438
 20
2.992000000000004
 30
0
 11
0.7492000000000001
 21
3.001000000000005
 31
0
  0
LINE
  8
0
 62
7
 10
0.7492000000000001
 20
3.001000000000005
 30
0
 11
0.7573000000000001
 21
3.007000000000004
 31
0
  0
LINE
  8
0
 62
7
 10
0.7573000000000001
 20
3.007000000000004
 30
0
 11
0.7681
 21
3.010000000000005
 31
0
  0
LINE
  8
0
 62
7
 10
0.7681
 20
3.010000000000005
 30
0
 11
0.7843000000000001
 21
3.010000000000005
 31
0
  0
LINE
  8
0
 62
7
 10
0.7843000000000001
 20
3.010000000000005
 30
0
 11
0.7951
 21
3.007000000000004
 31
0
  0
LINE
  8
0
 62
7
 10
0.7951
 20
3.007000000000004
 30
0
 11
0.8032
 21
3.001000000000005
 31
0
  0
LINE
  8
0
 62
7
 10
0.8032
 20
3.001000000000005
 30
0
 11
0.8086000000000001
 21
2.992000000000004
 31
0
  0
LINE
  8
0
 62
7
 10
0.8086000000000001
 20
2.992000000000004
 30
0
 11
0.8086000000000001
 21
2.980000000000005
 31
0
  0
LINE
  8
0
 62
7
 10
0.8086000000000001
 20
2.980000000000005
 30
0
 11
0.8032
 21
2.968000000000006
 31
0
  0
LINE
  8
0
 62
7
 10
0.8032
 20
2.968000000000006
 30
0
 11
0.7438
 21
2.890000000000005
 31
0
  0
LINE
  8
0
 62
7
 10
0.7438
 20
2.890000000000005
 30
0
 11
0.8086000000000001
 21
2.890000000000005
 31
0
  0
LINE
  8
0
 62
7
 10
0.8410000000000002
 20
3.010000000000005
 30
0
 11
0.8788
 21
2.890000000000005
 31
0
  0
LINE
  8
0
 62
7
 10
0.8788
 20
2.890000000000005
 30
0
 11
0.9166000000000003
 21
3.010000000000005
 31
0
  0
LINE
  8
0
 62
7
 10
0.9490000000000001
 20
2.992000000000004
 30
0
 11
0.9544000000000001
 21
3.001000000000005
 31
0
  0
LINE
  8
0
 62
7
 10
0.9544000000000001
 20
3.001000000000005
 30
0
 11
0.9625
 21
3.007000000000004
 31
0
  0
LINE
  8
0
 62
7
 10
0.9625
 20
3.007000000000004
 30
0
 11
0.9733000000000001
 21
3.010000000000005
 31
0
  0
LINE
  8
0
 62
7
 10
0.9733000000000001
 20
3.010000000000005
 30
0
 11
0.9895
 21
3.010000000000005
 31
0
  0
LINE
  8
0
 62
7
 10
0.9895
 20
3.010000000000005
 30
0
 11
1.0003
 21
3.007000000000004
 31
0
  0
LINE
  8
0
 62
7
 10
1.0003
 20
3.007000000000004
 30
0
 11
1.0084
 21
3.001000000000005
 31
0
  0
LINE
  8
0
 62
7
 10
1.0084
 20
3.001000000000005
 30
0
 11
1.0138
 21
2.992000000000004
 31
0
  0
LINE
  8
0
 62
7
 10
1.0138
 20
2.992000000000004
 30
0
 11
1.0138
 21
2.980000000000005
 31
0
  0
LINE
  8
0
 62
7
 10
1.0138
 20
2.980000000000005
 30
0
 11
1.0084
 21
2.968000000000006
 31
0
  0
LINE
  8
0
 62
7
 10
1.0084
 20
2.968000000000006
 30
0
 11
0.9490000000000001
 21
2.890000000000005
 31
0
  0
LINE
  8
0
 62
7
 10
0.9490000000000001
 20
2.890000000000005
 30
0
 11
1.0138
 21
2.890000000000005
 31
0
  0
LINE
  8
0
 62
7
 10
1.0462
 20
2.998000000000006
 30
0
 11
1.0462
 21
3.010000000000005
 31
0
  0
LINE
  8
0
 62
7
 10
1.0462
 20
3.010000000000005
 30
0
 11
1.111
 21
3.010000000000005
 31
0
  0
LINE
  8
0
 62
7
 10
1.111
 20
3.010000000000005
 30
0
 11
1.057
 21
2.890000000000005
 31
0
  0
LINE
  8
0
 62
7
 10
1.1434
 20
2.938000000000006
 30
0
 11
1.1461
 21
2.950000000000005
 31
0
  0
LINE
  8
0
 62
7
 10
1.1461
 20
2.950000000000005
 30
0
 11
1.1515
 21
2.959000000000005
 31
0
  0
LINE
  8
0
 62
7
 10
1.1515
 20
2.959000000000005
 30
0
 11
1.1596
 21
2.965000000000005
 31
0
  0
LINE
  8
0
 62
7
 10
1.1596
 20
2.965000000000005
 30
0
 11
1.1677
 21
2.968000000000006
 31
0
  0
LINE
  8
0
 62
7
 10
1.1677
 20
2.968000000000006
 30
0
 11
1.1839
 21
2.968000000000006
 31
0
  0
LINE
  8
0
 62
7
 10
1.1839
 20
2.968000000000006
 30
0
 11
1.192
 21
2.965000000000005
 31
0
  0
LINE
  8
0
 62
7
 10
1.192
 20
2.965000000000005
 30
0
 11
1.2001
 21
2.959000000000005
 31
0
  0
LINE
  8
0
 62
7
 10
1.2001
 20
2.959000000000005
 30
0
 11
1.2055
 21
2.950000000000005
 31
0
  0
LINE
  8
0
 62
7
 10
1.2055
 20
2.950000000000005
 30
0
 11
1.2082
 21
2.938000000000006
 31
0
  0
LINE
  8
0
 62
7
 10
1.2082
 20
2.938000000000006
 30
0
 11
1.2082
 21
2.920000000000005
 31
0
  0
LINE
  8
0
 62
7
 10
1.2082
 20
2.920000000000005
 30
0
 11
1.2055
 21
2.908000000000006
 31
0
  0
LINE
  8
0
 62
7
 10
1.2055
 20
2.908000000000006
 30
0
 11
1.2001
 21
2.899000000000005
 31
0
  0
LINE
  8
0
 62
7
 10
1.2001
 20
2.899000000000005
 30
0
 11
1.192
 21
2.893000000000006
 31
0
  0
LINE
  8
0
 62
7
 10
1.192
 20
2.893000000000006
 30
0
 11
1.1839
 21
2.890000000000005
 31
0
  0
LINE
  8
0
 62
7
 10
1.1839
 20
2.890000000000005
 30
0
 11
1.1677
 21
2.890000000000005
 31
0
  0
LINE
  8
0
 62
7
 10
1.1677
 20
2.890000000000005
 30
0
 11
1.1596
 21
2.893000000000006
 31
0
  0
LINE
  8
0
 62
7
 10
1.1596
 20
2.893000000000006
 30
0
 11
1.1515
 21
2.899000000000005
 31
0
  0
LINE
  8
0
 62
7
 10
1.1515
 20
2.899000000000005
 30
0
 11
1.1461
 21
2.908000000000006
 31
0
  0
LINE
  8
0
 62
7
 10
1.1461
 20
2.908000000000006
 30
0
 11
1.1434
 21
2.920000000000005
 31
0
  0
LINE
  8
0
 62
7
 10
1.1434
 20
2.920000000000005
 30
0
 11
1.1434
 21
2.938000000000006
 31
0
  0
LINE
  8
0
 62
7
 10
1.1434
 20
2.980000000000005
 30
0
 11
1.1461
 21
2.992000000000004
 31
0
  0
LINE
  8
0
 62
7
 10
1.1461
 20
2.992000000000004
 30
0
 11
1.1515
 21
3.001000000000005
 31
0
  0
LINE
  8
0
 62
7
 10
1.1515
 20
3.001000000000005
 30
0
 11
1.1596
 21
3.007000000000004
 31
0
  0
LINE
  8
0
 62
7
 10
1.1596
 20
3.007000000000004
 30
0
 11
1.1677
 21
3.010000000000005
 31
0
  0
LINE
  8
0
 62
7
 10
1.1677
 20
3.010000000000005
 30
0
 11
1.1839
 21
3.010000000000005
 31
0
  0
LINE
  8
0
 62
7
 10
1.1839
 20
3.010000000000005
 30
0
 11
1.192
 21
3.007000000000004
 31
0
  0
LINE
  8
0
 62
7
 10
1.192
 20
3.007000000000004
 30
0
 11
1.2001
 21
3.001000000000005
 31
0
  0
LINE
  8
0
 62
7
 10
1.2001
 20
3.001000000000005
 30
0
 11
1.2055
 21
2.992000000000004
 31
0
  0
LINE
  8
0
 62
7
 10
1.1434
 20
2.938000000000006
 30
0
 11
1.1434
 21
2.980000000000005
 31
0
  0
LINE
  8
0
 62
7
 10
1.3054
 20
2.890000000000005
 30
0
 11
1.2406
 21
2.890000000000005
 31
0
  0
LINE
  8
0
 62
7
 10
1.2406
 20
2.890000000000005
 30
0
 11
1.2406
 21
3.010000000000005
 31
0
  0
LINE
  8
0
 62
7
 10
1.3378
 20
2.938000000000006
 30
0
 11
1.3405
 21
2.950000000000005
 31
0
  0
LINE
  8
0
 62
7
 10
1.3405
 20
2.950000000000005
 30
0
 11
1.3459
 21
2.959000000000005
 31
0
  0
LINE
  8
0
 62
7
 10
1.3459
 20
2.959000000000005
 30
0
 11
1.354
 21
2.965000000000005
 31
0
  0
LINE
  8
0
 62
7
 10
1.354
 20
2.965000000000005
 30
0
 11
1.3621
 21
2.968000000000006
 31
0
  0
LINE
  8
0
 62
7
 10
1.3621
 20
2.968000000000006
 30
0
 11
1.3783
 21
2.968000000000006
 31
0
  0
LINE
  8
0
 62
7
 10
1.3783
 20
2.968000000000006
 30
0
 11
1.3864
 21
2.965000000000005
 31
0
  0
LINE
  8
0
 62
7
 10
1.3864
 20
2.965000000000005
 30
0
 11
1.3945
 21
2.959000000000005
 31
0
  0
LINE
  8
0
 62
7
 10
1.3945
 20
2.959000000000005
 30
0
 11
1.3999
 21
2.950000000000005
 31
0
  0
LINE
  8
0
 62
7
 10
1.3999
 20
2.950000000000005
 30
0
 11
1.4026
 21
2.938000000000006
 31
0
  0
LINE
  8
0
 62
7
 10
1.4026
 20
2.938000000000006
 30
0
 11
1.4026
 21
2.920000000000005
 31
0
  0
LINE
  8
0
 62
7
 10
1.4026
 20
2.920000000000005
 30
0
 11
1.3999
 21
2.908000000000006
 31
0
  0
LINE
  8
0
 62
7
 10
1.3999
 20
2.908000000000006
 30
0
 11
1.3945
 21
2.899000000000005
 31
0
  0
LINE
  8
0
 62
7
 10
1.3945
 20
2.899000000000005
 30
0
 11
1.3864
 21
2.893000000000006
 31
0
  0
LINE
  8
0
 62
7
 10
1.3864
 20
2.893000000000006
 30
0
 11
1.3783
 21
2.890000000000005
 31
0
  0
LINE
  8
0
 62
7
 10
1.3783
 20
2.890000000000005
 30
0
 11
1.3621
 21
2.890000000000005
 31
0
  0
LINE
  8
0
 62
7
 10
1.3621
 20
2.890000000000005
 30
0
 11
1.354
 21
2.893000000000006
 31
0
  0
LINE
  8
0
 62
7
 10
1.354
 20
2.893000000000006
 30
0
 11
1.3459
 21
2.899000000000005
 31
0
  0
LINE
  8
0
 62
7
 10
1.3459
 20
2.899000000000005
 30
0
 11
1.3405
 21
2.908000000000006
 31
0
  0
LINE
  8
0
 62
7
 10
1.3405
 20
2.908000000000006
 30
0
 11
1.3378
 21
2.920000000000005
 31
0
  0
LINE
  8
0
 62
7
 10
1.3378
 20
2.920000000000005
 30
0
 11
1.3378
 21
2.938000000000006
 31
0
  0
LINE
  8
0
 62
7
 10
1.3378
 20
2.980000000000005
 30
0
 11
1.3405
 21
2.992000000000004
 31
0
  0
LINE
  8
0
 62
7
 10
1.3405
 20
2.992000000000004
 30
0
 11
1.3459
 21
3.001000000000005
 31
0
  0
LINE
  8
0
 62
7
 10
1.3459
 20
3.001000000000005
 30
0
 11
1.354
 21
3.007000000000004
 31
0
  0
LINE
  8
0
 62
7
 10
1.354
 20
3.007000000000004
 30
0
 11
1.3621
 21
3.010000000000005
 31
0
  0
LINE
  8
0
 62
7
 10
1.3621
 20
3.010000000000005
 30
0
 11
1.3783
 21
3.010000000000005
 31
0
  0
LINE
  8
0
 62
7
 10
1.3783
 20
3.010000000000005
 30
0
 11
1.3864
 21
3.007000000000004
 31
0
  0
LINE
  8
0
 62
7
 10
1.3864
 20
3.007000000000004
 30
0
 11
1.3945
 21
3.001000000000005
 31
0
  0
LINE
  8
0
 62
7
 10
1.3945
 20
3.001000000000005
 30
0
 11
1.3999
 21
2.992000000000004
 31
0
  0
LINE
  8
0
 62
7
 10
1.3378
 20
2.938000000000006
 30
0
 11
1.3378
 21
2.980000000000005
 31
0
  0
LINE
  8
0
 62
7
 10
3.125
 20
2.890000000000005
 30
0
 11
3.125
 21
2.990000000000006
 31
0
  0
LINE
  8
0
 62
7
 10
3.125
 20
2.990000000000006
 30
0
 11
3.188
 21
2.890000000000005
 31
0
  0
LINE
  8
0
 62
7
 10
3.188
 20
2.890000000000005
 30
0
 11
3.188
 21
2.990000000000006
 31
0
  0
LINE
  8
0
 62
7
 10
3.269
 20
2.890000000000005
 30
0
 11
3.215
 21
2.890000000000005
 31
0
  0
LINE
  8
0
 62
7
 10
3.215
 20
2.890000000000005
 30
0
 11
3.215
 21
2.990000000000006
 31
0
  0
LINE
  8
0
 62
7
 10
3.296
 20
2.940000000000005
 30
0
 11
3.332
 21
2.940000000000005
 31
0
  0
LINE
  8
0
 62
7
 10
3.332
 20
2.940000000000005
 30
0
 11
3.3365
 21
2.940000000000005
 31
0
  0
LINE
  8
0
 62
7
 10
3.3365
 20
2.940000000000005
 30
0
 11
3.3455
 21
2.935000000000005
 31
0
  0
LINE
  8
0
 62
7
 10
3.3455
 20
2.935000000000005
 30
0
 11
3.35
 21
2.930000000000005
 31
0
  0
LINE
  8
0
 62
7
 10
3.35
 20
2.930000000000005
 30
0
 11
3.3545
 21
2.920000000000005
 31
0
  0
LINE
  8
0
 62
7
 10
3.3545
 20
2.920000000000005
 30
0
 11
3.3545
 21
2.910000000000005
 31
0
  0
LINE
  8
0
 62
7
 10
3.3545
 20
2.910000000000005
 30
0
 11
3.35
 21
2.900000000000005
 31
0
  0
LINE
  8
0
 62
7
 10
3.35
 20
2.900000000000005
 30
0
 11
3.3455
 21
2.895000000000005
 31
0
  0
LINE
  8
0
 62
7
 10
3.3455
 20
2.895000000000005
 30
0
 11
3.3365
 21
2.890000000000005
 31
0
  0
LINE
  8
0
 62
7
 10
3.3365
 20
2.890000000000005
 30
0
 11
3.296
 21
2.890000000000005
 31
0
  0
LINE
  8
0
 62
7
 10
3.296
 20
2.890000000000005
 30
0
 11
3.296
 21
2.940000000000005
 31
0
  0
LINE
  8
0
 62
7
 10
3.296
 20
2.990000000000006
 30
0
 11
3.32975
 21
2.990000000000006
 31
0
  0
LINE
  8
0
 62
7
 10
3.32975
 20
2.990000000000006
 30
0
 11
3.341000000000001
 21
2.987500000000005
 31
0
  0
LINE
  8
0
 62
7
 10
3.341000000000001
 20
2.987500000000005
 30
0
 11
3.34775
 21
2.980000000000005
 31
0
  0
LINE
  8
0
 62
7
 10
3.34775
 20
2.980000000000005
 30
0
 11
3.35
 21
2.970000000000005
 31
0
  0
LINE
  8
0
 62
7
 10
3.35
 20
2.970000000000005
 30
0
 11
3.35
 21
2.960000000000005
 31
0
  0
LINE
  8
0
 62
7
 10
3.35
 20
2.960000000000005
 30
0
 11
3.3455
 21
2.950000000000005
 31
0
  0
LINE
  8
0
 62
7
 10
3.3455
 20
2.950000000000005
 30
0
 11
3.338750000000001
 21
2.942500000000005
 31
0
  0
LINE
  8
0
 62
7
 10
3.338750000000001
 20
2.942500000000005
 30
0
 11
3.332
 21
2.940000000000005
 31
0
  0
LINE
  8
0
 62
7
 10
3.296
 20
2.940000000000005
 30
0
 11
3.296
 21
2.990000000000006
 31
0
  0
LINE
  8
0
 62
7
 10
3.49625
 20
2.942500000000005
 30
0
 11
3.4895
 21
2.952500000000005
 31
0
  0
LINE
  8
0
 62
7
 10
3.4895
 20
2.952500000000005
 30
0
 11
3.48275
 21
2.957500000000005
 31
0
  0
LINE
  8
0
 62
7
 10
3.48275
 20
2.957500000000005
 30
0
 11
3.476
 21
2.960000000000005
 31
0
  0
LINE
  8
0
 62
7
 10
3.476
 20
2.960000000000005
 30
0
 11
3.467000000000001
 21
2.960000000000005
 31
0
  0
LINE
  8
0
 62
7
 10
3.467000000000001
 20
2.960000000000005
 30
0
 11
3.46025
 21
2.957500000000005
 31
0
  0
LINE
  8
0
 62
7
 10
3.46025
 20
2.957500000000005
 30
0
 11
3.4535
 21
2.952500000000005
 31
0
  0
LINE
  8
0
 62
7
 10
3.4535
 20
2.952500000000005
 30
0
 11
3.44675
 21
2.942500000000005
 31
0
  0
LINE
  8
0
 62
7
 10
3.44675
 20
2.942500000000005
 30
0
 11
3.4445
 21
2.935000000000005
 31
0
  0
LINE
  8
0
 62
7
 10
3.4445
 20
2.935000000000005
 30
0
 11
3.4445
 21
2.915000000000005
 31
0
  0
LINE
  8
0
 62
7
 10
3.4445
 20
2.915000000000005
 30
0
 11
3.44675
 21
2.907500000000005
 31
0
  0
LINE
  8
0
 62
7
 10
3.44675
 20
2.907500000000005
 30
0
 11
3.4535
 21
2.897500000000005
 31
0
  0
LINE
  8
0
 62
7
 10
3.4535
 20
2.897500000000005
 30
0
 11
3.46025
 21
2.892500000000005
 31
0
  0
LINE
  8
0
 62
7
 10
3.46025
 20
2.892500000000005
 30
0
 11
3.467000000000001
 21
2.890000000000005
 31
0
  0
LINE
  8
0
 62
7
 10
3.467000000000001
 20
2.890000000000005
 30
0
 11
3.476
 21
2.890000000000005
 31
0
  0
LINE
  8
0
 62
7
 10
3.476
 20
2.890000000000005
 30
0
 11
3.48275
 21
2.892500000000005
 31
0
  0
LINE
  8
0
 62
7
 10
3.48275
 20
2.892500000000005
 30
0
 11
3.4895
 21
2.897500000000005
 31
0
  0
LINE
  8
0
 62
7
 10
3.4895
 20
2.897500000000005
 30
0
 11
3.49625
 21
2.907500000000005
 31
0
  0
LINE
  8
0
 62
7
 10
3.56825
 20
2.935000000000005
 30
0
 11
3.566000000000001
 21
2.942500000000005
 31
0
  0
LINE
  8
0
 62
7
 10
3.566000000000001
 20
2.942500000000005
 30
0
 11
3.55925
 21
2.952500000000005
 31
0
  0
LINE
  8
0
 62
7
 10
3.55925
 20
2.952500000000005
 30
0
 11
3.5525
 21
2.957500000000005
 31
0
  0
LINE
  8
0
 62
7
 10
3.5525
 20
2.957500000000005
 30
0
 11
3.54575
 21
2.960000000000005
 31
0
  0
LINE
  8
0
 62
7
 10
3.54575
 20
2.960000000000005
 30
0
 11
3.53675
 21
2.960000000000005
 31
0
  0
LINE
  8
0
 62
7
 10
3.53675
 20
2.960000000000005
 30
0
 11
3.530000000000001
 21
2.957500000000005
 31
0
  0
LINE
  8
0
 62
7
 10
3.530000000000001
 20
2.957500000000005
 30
0
 11
3.52325
 21
2.952500000000005
 31
0
  0
LINE
  8
0
 62
7
 10
3.52325
 20
2.952500000000005
 30
0
 11
3.5165
 21
2.942500000000005
 31
0
  0
LINE
  8
0
 62
7
 10
3.5165
 20
2.942500000000005
 30
0
 11
3.51425
 21
2.935000000000005
 31
0
  0
LINE
  8
0
 62
7
 10
3.51425
 20
2.935000000000005
 30
0
 11
3.51425
 21
2.915000000000005
 31
0
  0
LINE
  8
0
 62
7
 10
3.51425
 20
2.915000000000005
 30
0
 11
3.5165
 21
2.907500000000005
 31
0
  0
LINE
  8
0
 62
7
 10
3.5165
 20
2.907500000000005
 30
0
 11
3.52325
 21
2.897500000000005
 31
0
  0
LINE
  8
0
 62
7
 10
3.52325
 20
2.897500000000005
 30
0
 11
3.530000000000001
 21
2.892500000000005
 31
0
  0
LINE
  8
0
 62
7
 10
3.530000000000001
 20
2.892500000000005
 30
0
 11
3.53675
 21
2.890000000000005
 31
0
  0
LINE
  8
0
 62
7
 10
3.53675
 20
2.890000000000005
 30
0
 11
3.54575
 21
2.890000000000005
 31
0
  0
LINE
  8
0
 62
7
 10
3.54575
 20
2.890000000000005
 30
0
 11
3.5525
 21
2.892500000000005
 31
0
  0
LINE
  8
0
 62
7
 10
3.5525
 20
2.892500000000005
 30
0
 11
3.55925
 21
2.897500000000005
 31
0
  0
LINE
  8
0
 62
7
 10
3.55925
 20
2.897500000000005
 30
0
 11
3.566000000000001
 21
2.907500000000005
 31
0
  0
LINE
  8
0
 62
7
 10
3.566000000000001
 20
2.907500000000005
 30
0
 11
3.56825
 21
2.915000000000005
 31
0
  0
LINE
  8
0
 62
7
 10
3.56825
 20
2.960000000000005
 30
0
 11
3.56825
 21
2.935000000000005
 31
0
  0
LINE
  8
0
 62
7
 10
3.56825
 20
2.892500000000005
 30
0
 11
3.5705
 21
2.890000000000005
 31
0
  0
LINE
  8
0
 62
7
 10
3.5705
 20
2.890000000000005
 30
0
 11
3.57275
 21
2.890000000000005
 31
0
  0
LINE
  8
0
 62
7
 10
3.56825
 20
2.915000000000005
 30
0
 11
3.56825
 21
2.892500000000005
 31
0
  0
LINE
  8
0
 62
7
 10
3.56825
 20
2.935000000000005
 30
0
 11
3.56825
 21
2.915000000000005
 31
0
  0
LINE
  8
0
 62
7
 10
3.59075
 20
2.890000000000005
 30
0
 11
3.59075
 21
2.892500000000005
 31
0
  0
LINE
  8
0
 62
7
 10
3.59075
 20
2.892500000000005
 30
0
 11
3.593
 21
2.892500000000005
 31
0
  0
LINE
  8
0
 62
7
 10
3.593
 20
2.892500000000005
 30
0
 11
3.593
 21
2.890000000000005
 31
0
  0
LINE
  8
0
 62
7
 10
3.593
 20
2.890000000000005
 30
0
 11
3.59075
 21
2.890000000000005
 31
0
  0
LINE
  8
0
 62
7
 10
3.69425
 20
2.960000000000005
 30
0
 11
3.72125
 21
2.990000000000006
 31
0
  0
LINE
  8
0
 62
7
 10
3.72125
 20
2.990000000000006
 30
0
 11
3.72125
 21
2.890000000000005
 31
0
  0
LINE
  8
0
 62
7
 10
3.748250000000001
 20
2.965000000000005
 30
0
 11
3.750500000000001
 21
2.975000000000005
 31
0
  0
LINE
  8
0
 62
7
 10
3.750500000000001
 20
2.975000000000005
 30
0
 11
3.755000000000001
 21
2.982500000000005
 31
0
  0
LINE
  8
0
 62
7
 10
3.755000000000001
 20
2.982500000000005
 30
0
 11
3.76175
 21
2.987500000000005
 31
0
  0
LINE
  8
0
 62
7
 10
3.76175
 20
2.987500000000005
 30
0
 11
3.7685
 21
2.990000000000006
 31
0
  0
LINE
  8
0
 62
7
 10
3.7685
 20
2.990000000000006
 30
0
 11
3.782
 21
2.990000000000006
 31
0
  0
LINE
  8
0
 62
7
 10
3.782
 20
2.990000000000006
 30
0
 11
3.78875
 21
2.987500000000005
 31
0
  0
LINE
  8
0
 62
7
 10
3.78875
 20
2.987500000000005
 30
0
 11
3.7955
 21
2.982500000000005
 31
0
  0
LINE
  8
0
 62
7
 10
3.7955
 20
2.982500000000005
 30
0
 11
3.8
 21
2.975000000000005
 31
0
  0
LINE
  8
0
 62
7
 10
3.8
 20
2.975000000000005
 30
0
 11
3.80225
 21
2.965000000000005
 31
0
  0
LINE
  8
0
 62
7
 10
3.80225
 20
2.965000000000005
 30
0
 11
3.80225
 21
2.915000000000005
 31
0
  0
LINE
  8
0
 62
7
 10
3.80225
 20
2.915000000000005
 30
0
 11
3.8
 21
2.905000000000005
 31
0
  0
LINE
  8
0
 62
7
 10
3.8
 20
2.905000000000005
 30
0
 11
3.7955
 21
2.897500000000005
 31
0
  0
LINE
  8
0
 62
7
 10
3.7955
 20
2.897500000000005
 30
0
 11
3.78875
 21
2.892500000000005
 31
0
  0
LINE
  8
0
 62
7
 10
3.78875
 20
2.892500000000005
 30
0
 11
3.782
 21
2.890000000000005
 31
0
  0
LINE
  8
0
 62
7
 10
3.782
 20
2.890000000000005
 30
0
 11
3.7685
 21
2.890000000000005
 31
0
  0
LINE
  8
0
 62
7
 10
3.7685
 20
2.890000000000005
 30
0
 11
3.76175
 21
2.892500000000005
 31
0
  0
LINE
  8
0
 62
7
 10
3.76175
 20
2.892500000000005
 30
0
 11
3.755000000000001
 21
2.897500000000005
 31
0
  0
LINE
  8
0
 62
7
 10
3.755000000000001
 20
2.897500000000005
 30
0
 11
3.750500000000001
 21
2.905000000000005
 31
0
  0
LINE
  8
0
 62
7
 10
3.750500000000001
 20
2.905000000000005
 30
0
 11
3.748250000000001
 21
2.915000000000005
 31
0
  0
LINE
  8
0
 62
7
 10
3.748250000000001
 20
2.915000000000005
 30
0
 11
3.748250000000001
 21
2.965000000000005
 31
0
  0
LINE
  8
0
 62
7
 10
3.82925
 20
2.965000000000005
 30
0
 11
3.8315
 21
2.975000000000005
 31
0
  0
LINE
  8
0
 62
7
 10
3.8315
 20
2.975000000000005
 30
0
 11
3.836
 21
2.982500000000005
 31
0
  0
LINE
  8
0
 62
7
 10
3.836
 20
2.982500000000005
 30
0
 11
3.842750000000001
 21
2.987500000000005
 31
0
  0
LINE
  8
0
 62
7
 10
3.842750000000001
 20
2.987500000000005
 30
0
 11
3.8495
 21
2.990000000000006
 31
0
  0
LINE
  8
0
 62
7
 10
3.8495
 20
2.990000000000006
 30
0
 11
3.863
 21
2.990000000000006
 31
0
  0
LINE
  8
0
 62
7
 10
3.863
 20
2.990000000000006
 30
0
 11
3.86975
 21
2.987500000000005
 31
0
  0
LINE
  8
0
 62
7
 10
3.86975
 20
2.987500000000005
 30
0
 11
3.8765
 21
2.982500000000005
 31
0
  0
LINE
  8
0
 62
7
 10
3.8765
 20
2.982500000000005
 30
0
 11
3.881
 21
2.975000000000005
 31
0
  0
LINE
  8
0
 62
7
 10
3.881
 20
2.975000000000005
 30
0
 11
3.88325
 21
2.965000000000005
 31
0
  0
LINE
  8
0
 62
7
 10
3.88325
 20
2.965000000000005
 30
0
 11
3.88325
 21
2.915000000000005
 31
0
  0
LINE
  8
0
 62
7
 10
3.88325
 20
2.915000000000005
 30
0
 11
3.881
 21
2.905000000000005
 31
0
  0
LINE
  8
0
 62
7
 10
3.881
 20
2.905000000000005
 30
0
 11
3.8765
 21
2.897500000000005
 31
0
  0
LINE
  8
0
 62
7
 10
3.8765
 20
2.897500000000005
 30
0
 11
3.86975
 21
2.892500000000005
 31
0
  0
LINE
  8
0
 62
7
 10
3.86975
 20
2.892500000000005
 30
0
 11
3.863
 21
2.890000000000005
 31
0
  0
LINE
  8
0
 62
7
 10
3.863
 20
2.890000000000005
 30
0
 11
3.8495
 21
2.890000000000005
 31
0
  0
LINE
  8
0
 62
7
 10
3.8495
 20
2.890000000000005
 30
0
 11
3.842750000000001
 21
2.892500000000005
 31
0
  0
LINE
  8
0
 62
7
 10
3.842750000000001
 20
2.892500000000005
 30
0
 11
3.836
 21
2.897500000000005
 31
0
  0
LINE
  8
0
 62
7
 10
3.836
 20
2.897500000000005
 30
0
 11
3.8315
 21
2.905000000000005
 31
0
  0
LINE
  8
0
 62
7
 10
3.8315
 20
2.905000000000005
 30
0
 11
3.82925
 21
2.915000000000005
 31
0
  0
LINE
  8
0
 62
7
 10
3.82925
 20
2.915000000000005
 30
0
 11
3.82925
 21
2.965000000000005
 31
0
  0
LINE
  8
0
 62
7
 10
4.034000000000001
 20
2.942500000000005
 30
0
 11
4.02725
 21
2.952500000000005
 31
0
  0
LINE
  8
0
 62
7
 10
4.02725
 20
2.952500000000005
 30
0
 11
4.0205
 21
2.957500000000005
 31
0
  0
LINE
  8
0
 62
7
 10
4.0205
 20
2.957500000000005
 30
0
 11
4.013750000000001
 21
2.960000000000005
 31
0
  0
LINE
  8
0
 62
7
 10
4.013750000000001
 20
2.960000000000005
 30
0
 11
4.00475
 21
2.960000000000005
 31
0
  0
LINE
  8
0
 62
7
 10
4.00475
 20
2.960000000000005
 30
0
 11
3.998000000000001
 21
2.957500000000005
 31
0
  0
LINE
  8
0
 62
7
 10
3.998000000000001
 20
2.957500000000005
 30
0
 11
3.99125
 21
2.952500000000005
 31
0
  0
LINE
  8
0
 62
7
 10
3.99125
 20
2.952500000000005
 30
0
 11
3.9845
 21
2.942500000000005
 31
0
  0
LINE
  8
0
 62
7
 10
3.9845
 20
2.942500000000005
 30
0
 11
3.98225
 21
2.935000000000005
 31
0
  0
LINE
  8
0
 62
7
 10
3.98225
 20
2.935000000000005
 30
0
 11
3.98225
 21
2.915000000000005
 31
0
  0
LINE
  8
0
 62
7
 10
3.98225
 20
2.915000000000005
 30
0
 11
3.9845
 21
2.907500000000005
 31
0
  0
LINE
  8
0
 62
7
 10
3.9845
 20
2.907500000000005
 30
0
 11
3.99125
 21
2.897500000000005
 31
0
  0
LINE
  8
0
 62
7
 10
3.99125
 20
2.897500000000005
 30
0
 11
3.998000000000001
 21
2.892500000000005
 31
0
  0
LINE
  8
0
 62
7
 10
3.998000000000001
 20
2.892500000000005
 30
0
 11
4.00475
 21
2.890000000000005
 31
0
  0
LINE
  8
0
 62
7
 10
4.00475
 20
2.890000000000005
 30
0
 11
4.013750000000001
 21
2.890000000000005
 31
0
  0
LINE
  8
0
 62
7
 10
4.013750000000001
 20
2.890000000000005
 30
0
 11
4.0205
 21
2.892500000000005
 31
0
  0
LINE
  8
0
 62
7
 10
4.0205
 20
2.892500000000005
 30
0
 11
4.02725
 21
2.897500000000005
 31
0
  0
LINE
  8
0
 62
7
 10
4.02725
 20
2.897500000000005
 30
0
 11
4.034000000000001
 21
2.907500000000005
 31
0
  0
LINE
  8
0
 62
7
 10
4.0925
 20
2.935000000000005
 30
0
 11
4.0925
 21
2.890000000000005
 31
0
  0
LINE
  8
0
 62
7
 10
4.052
 20
2.960000000000005
 30
0
 11
4.052
 21
2.935000000000005
 31
0
  0
LINE
  8
0
 62
7
 10
4.052
 20
2.890000000000005
 30
0
 11
4.052
 21
2.935000000000005
 31
0
  0
LINE
  8
0
 62
7
 10
4.052
 20
2.935000000000005
 30
0
 11
4.054250000000001
 21
2.947500000000005
 31
0
  0
LINE
  8
0
 62
7
 10
4.054250000000001
 20
2.947500000000005
 30
0
 11
4.0565
 21
2.952500000000005
 31
0
  0
LINE
  8
0
 62
7
 10
4.0565
 20
2.952500000000005
 30
0
 11
4.061
 21
2.957500000000005
 31
0
  0
LINE
  8
0
 62
7
 10
4.061
 20
2.957500000000005
 30
0
 11
4.06775
 21
2.960000000000005
 31
0
  0
LINE
  8
0
 62
7
 10
4.06775
 20
2.960000000000005
 30
0
 11
4.07675
 21
2.960000000000005
 31
0
  0
LINE
  8
0
 62
7
 10
4.07675
 20
2.960000000000005
 30
0
 11
4.0835
 21
2.957500000000005
 31
0
  0
LINE
  8
0
 62
7
 10
4.0835
 20
2.957500000000005
 30
0
 11
4.088
 21
2.952500000000005
 31
0
  0
LINE
  8
0
 62
7
 10
4.088
 20
2.952500000000005
 30
0
 11
4.09025
 21
2.947500000000005
 31
0
  0
LINE
  8
0
 62
7
 10
4.09025
 20
2.947500000000005
 30
0
 11
4.0925
 21
2.935000000000005
 31
0
  0
LINE
  8
0
 62
7
 10
4.0925
 20
2.935000000000005
 30
0
 11
4.09475
 21
2.947500000000005
 31
0
  0
LINE
  8
0
 62
7
 10
4.09475
 20
2.947500000000005
 30
0
 11
4.097
 21
2.952500000000005
 31
0
  0
LINE
  8
0
 62
7
 10
4.097
 20
2.952500000000005
 30
0
 11
4.101500000000001
 21
2.957500000000005
 31
0
  0
LINE
  8
0
 62
7
 10
4.101500000000001
 20
2.957500000000005
 30
0
 11
4.108250000000001
 21
2.960000000000005
 31
0
  0
LINE
  8
0
 62
7
 10
4.108250000000001
 20
2.960000000000005
 30
0
 11
4.11725
 21
2.960000000000005
 31
0
  0
LINE
  8
0
 62
7
 10
4.11725
 20
2.960000000000005
 30
0
 11
4.124000000000001
 21
2.957500000000005
 31
0
  0
LINE
  8
0
 62
7
 10
4.128500000000001
 20
2.952500000000005
 30
0
 11
4.124000000000001
 21
2.957500000000005
 31
0
  0
LINE
  8
0
 62
7
 10
4.124000000000001
 20
2.957500000000005
 30
0
 11
4.128500000000001
 21
2.952500000000005
 31
0
  0
LINE
  8
0
 62
7
 10
4.128500000000001
 20
2.952500000000005
 30
0
 11
4.13075
 21
2.947500000000005
 31
0
  0
LINE
  8
0
 62
7
 10
4.13075
 20
2.947500000000005
 30
0
 11
4.133
 21
2.935000000000005
 31
0
  0
LINE
  8
0
 62
7
 10
4.133
 20
2.935000000000005
 30
0
 11
4.133
 21
2.890000000000005
 31
0
  0
ARC
  8
0
 62
7
 10
2.920777714121159
 20
3.90577771412116
 30
0
 40
0.6239999999999962
 50
359.9286052341872
 51
90.07139476596721
  0
ARC
  8
0
 62
7
 10
2.38922228587883
 20
3.90577771412116
 30
0
 40
0.6239999999999991
 50
89.9286052342428
 51
180.0713947660535
  0
CIRCLE
  8
0
 62
7
 10
3.544777229678897
 20
3.250000000000001
 30
0
 40
0.05999999999999606
  0
DIMENSION
  8
0
  6
CONTINUOUS
 62
7
  2
*D1
  3
DMST_1
 10
4.035
 20
11.4449045486288
 30
0
 11
2.69144248594789
 21
11.4449045486288
 31
0
 12
0
 22
0
 32
0
 70
0
 13
1.275
 23
11.2
 33
0
 14
4.035
 24
11.2
 34
0
 53
0
  0
DIMENSION
  8
0
  6
CONTINUOUS
 62
7
  2
*D2
  3
DMST_2
 10
4.50144856502374
 20
5.020000000000001
 30
0
 11
4.50144856502374
 21
4.16569621332704
 31
0
 12
0
 22
0
 32
0
 70
0
 13
4.21
 23
3.25
 33
0
 14
4.21
 24
5.020000000000001
 34
0
 50
90
 53
0
  0
DIMENSION
  8
0
  6
CONTINUOUS
 62
7
  2
*D3
  3
DMST_2
 10
4.035
 20
5.87598706608755
 30
0
 11
2.65559108584569
 21
5.87598706608755
 31
0
 12
0
 22
0
 32
0
 70
0
 13
1.275
 23
5.539999999999999
 33
0
 14
4.035
 24
5.539999999999999
 34
0
 53
0
  0
DIMENSION
  8
0
  6
CONTINUOUS
 62
7
  2
*D4
  3
DMST_2
 10
0.7913182805314372
 20
5.020000000000001
 30
0
 11
0.7913182805314372
 21
4.22682266138648
 31
0
 12
0
 22
0
 32
0
 70
0
 13
1.1
 23
3.35
 33
0
 14
1.1
 24
5.020000000000001
 34
0
 50
90
 53
0
  0
INSERT
  8
0
  2
*D0
 10
0
 20
0
 30
0
  0
ENDSEC
  0
EOF
