  0
SECTION
  2
HEADER
  9
$ACADVER
  1
AC1009
  9
$INSBASE
 10
0
 20
0
  9
$EXTMIN
 10
0.45
 20
2.890000000000001
  9
$EXTMAX
 10
8.217288805143921
 20
11.5123984020326
  9
$LIMMIN
 10
0.45
 20
2.890000000000001
  9
$LIMMAX
 10
8.217288805143921
 20
11.5123984020326
  9
$VIEWCTR
 10
10
 20
10
  9
$VIEWSIZE
 40
10
  9
$SNAPMODE
 70
0
  9
$SNAPUNIT
 10
1
 20
1
  9
$SNAPBASE
 10
0
 20
0
  9
$SNAPANG
 50
0
  9
$SNAPSTYLE
 70
0
  9
$SNAPISOPAIR
 70
0
  9
$GRIDMODE
 70
0
  9
$GRIDUNIT
 10
0
 20
0
  9
$ORTHOMODE
 70
0
  9
$REGENMODE
 70
1
  9
$FILLMODE
 70
1
  9
$QTEXTMODE
 70
0
  9
$DRAGMODE
 70
2
  9
$LTSCALE
 40
1
  9
$OSMODE
 70
0
  9
$ATTMODE
 70
1
  9
$TEXTSIZE
 40
3.5
  9
$TRACEWID
 40
0.5
  9
$TEXTSTYLE
  7
STANDARD
  9
$CLAYER
  8
0
  9
$CELTYPE
  6
BYLAYER
  9
$CECOLOR
 62
256
  9
$DIMSCALE
 40
1
  9
$DIMASZ
 40
0.18
  9
$DIMEXO
 40
0.0625
  9
$DIMDLI
 40
0.38
  9
$DIMRND
 40
0
  9
$DIMDLE
 40
0
  9
$DIMEXE
 40
0.18
  9
$DIMTP
 40
0
  9
$DIMTM
 40
0
  9
$DIMTXT
 40
0.18
  9
$DIMCEN
 40
0.09
  9
$DIMTSZ
 40
0
  9
$DIMTOL
 70
0
  9
$DIMLIM
 70
0
  9
$DIMTIH
 70
1
  9
$DIMTOH
 70
1
  9
$DIMSE1
 70
0
  9
$DIMSE2
 70
0
  9
$DIMTAD
 70
0
  9
$DIMZIN
 70
0
  9
$DIMBLK
  1

  9
$DIMASO
 70
1
  9
$DIMSHO
 70
1
  9
$DIMPOST
  1

  9
$DIMAPOST
  1

  9
$DIMALT
 70
0
  9
$DIMALTD
 70
2
  9
$DIMALTF
 40
25.4
  9
$DIMLFAC
 40
1
  9
$DIMTOFL
 70
0
  9
$DIMTVP
 40
0
  9
$DIMTIX
 70
0
  9
$DIMSOXD
 70
0
  9
$DIMSAH
 70
0
  9
$DIMBLK1
  1

  9
$DIMBLK2
  1

  9
$DIMSTYLE
  2
*UNNAMED
  9
$DIMCLRD
 70
0
  9
$DIMCLRE
 70
0
  9
$DIMCLRT
 70
0
  9
$DIMTFAC
 40
1
  9
$DIMGAP
 40
0.09
  9
$LUNITS
 70
2
  9
$LUPREC
 70
4
  9
$AXISMODE
 70
0
  9
$AXISUNIT
 10
0
 20
0
  9
$SKETCHINC
 40
0.1
  9
$FILLETRAD
 40
2
  9
$AUNITS
 70
0
  9
$AUPREC
 70
0
  9
$MENU
  1
ACAD
  9
$ELEVATION
 40
0
  9
$THICKNESS
 40
0
  9
$VIEWDIR
 10
0
 20
0
 30
1
  9
$LIMCHECK
 70
0
  9
$BLIPMODE
 70
1
  9
$CHAMFERA
 40
0
  9
$CHAMFERB
 40
0
  9
$FASTZOOM
 70
1
  9
$SKPOLY
 70
0
  9
$ANGBASE
 50
0
  9
$ANGDIR
 70
0
  9
$PDMODE
 70
0
  9
$PDSIZE
 40
0
  9
$PLINEWID
 40
0
  9
$COORDS
 70
2
  0
ENDSEC
  0
SECTION
  2
TABLES
  0
TABLE
  2
DIMSTYLE
 70
2
  0
DIMSTYLE
  2
DMST_1
 70
0
  3

  4

  5

  6

  7

 40
1
 41
0.1
 42
0
 43
0.7
 44
0.2
 45
0
 46
0
 47
0
 48
0
140
0.1
141
0
142
0.1
143
25.4
144
1
145
0
146
1
147
0.2
 71
0
 72
0
 73
0
 74
0
 75
0
 76
0
 77
0
 78
9
170
0
171
2
172
0
173
0
174
0
175
0
176
7
177
7
178
7
  0
DIMSTYLE
  2
DMST_2
 70
0
  3

  4

  5

  6

  7

 40
1
 41
0.1
 42
0
 43
0.7
 44
0.2
 45
0
 46
0
 47
0
 48
0
140
0.1
141
0
142
0.1
143
25.4
144
1
145
0
146
1
147
0.25
 71
0
 72
0
 73
0
 74
0
 75
0
 76
0
 77
0
 78
9
170
0
171
2
172
0
173
0
174
0
175
0
176
7
177
7
178
7
  0
ENDTAB
  0
TABLE
  2
LTYPE
 70
9
  0
LTYPE
  2
CONTINUOUS
 70
64
  3
Solid line
 72
65
 73
0
 40
0
  0
LTYPE
  2
BORDER
 70
64
  3
__ __ . __ __ .
 72
65
 73
6
 40
0.3970841369357118
 49
0.1134526105530605
 49
-0.05672630527653026
 49
0.1134526105530605
 49
-0.05672630527653026
 49
0
 49
-0.05672630527653026
  0
LTYPE
  2
CENTER
 70
64
  3
____ _ ____ _
 72
65
 73
4
 40
0.4538104422122421
 49
0.2836315263826513
 49
-0.05672630527653026
 49
0.05672630527653026
 49
-0.05672630527653026
  0
LTYPE
  2
DASHDOT
 70
64
  3
__ . __ . __ .
 72
65
 73
4
 40
0.226905221106121
 49
0.1134526105530605
 49
-0.05672630527653026
 49
0
 49
-0.05672630527653026
  0
LTYPE
  2
DASHED
 70
64
  3
__ __ __ __ __
 72
65
 73
2
 40
0.1701789158295908
 49
0.1134526105530605
 49
-0.05672630527653026
  0
LTYPE
  2
DIVIDE
 70
64
  3
__ . . __ . . 
 72
65
 73
6
 40
0.2836315263826513
 49
0.1134526105530605
 49
-0.05672630527653026
 49
0
 49
-0.05672630527653026
 49
0
 49
-0.05672630527653026
  0
LTYPE
  2
DOT
 70
64
  3
..............
 72
65
 73
4
 40
0.1134526105530605
 49
0
 49
-0.05672630527653026
 49
0
 49
-0.05672630527653026
  0
LTYPE
  2
HIDDEN
 70
64
  3
_ _ _ _ _ _ _
 72
65
 73
2
 40
0.08508945791479539
 49
0.05672630527653026
 49
-0.02836315263826513
  0
LTYPE
  2
PHANTOM
 70
64
  3
_____ _ _ _____ _ _ 
 72
65
 73
6
 40
0.5672630527653026
 49
0.2836315263826513
 49
-0.05672630527653026
 49
0.05672630527653026
 49
-0.05672630527653026
 49
0.05672630527653026
 49
-0.05672630527653026
  0
ENDTAB
  0
TABLE
  2
LAYER
 70
2
  0
LAYER
  2
0
 70
0
 62
7
  6
CONTINUOUS
  0
ENDTAB
  0
TABLE
  2
STYLE
 70
4
  0
STYLE
  2
STANDARD
 70
0
 40
0
 41
1
 50
0
 71
0
 42
3.5
  3
txt
  4

  0
STYLE
  2
SIMPLEX
 70
0
 40
0
 41
1
 50
0
 71
0
 42
3.5
  3
simplex
  4

  0
STYLE
  2
COMPLEX
 70
0
 40
0
 41
1
 50
0
 71
0
 42
3.5
  3
complex
  4

  0
STYLE
  2
ITALIC
 70
0
 40
0
 41
1
 50
0
 71
0
 42
3.5
  3
italic
  4

  0
ENDTAB
  0
TABLE
  2
VIEW
 70
0
  0
ENDTAB
  0
ENDSEC
  0
SECTION
  2
BLOCKS
  0
BLOCK
  8
0
  2
*X0
 70
1
 10
0
 20
0
 30
0
  0
LINE
  8
0
 62
7
 10
7.425000000000001
 20
7.955330085889911
 30
0
 11
7.569669914110086
 21
8.099999999999996
 31
0
  0
LINE
  8
0
 62
7
 10
7.425
 20
8.061396103067892
 30
0
 11
7.463603896932104
 21
8.099999999999994
 31
0
  0
LINE
  8
0
 62
7
 10
7.52573593128807
 20
7.949999999999997
 30
0
 11
7.600000000000001
 21
8.024264068711927
 31
0
  0
ENDBLK
  8
0
  0
BLOCK
  8
0
  2
*X1
 70
1
 10
0
 20
0
 30
0
  0
LINE
  8
0
 62
7
 10
7.425
 20
10.71304653251744
 30
0
 11
7.561953467482555
 21
10.85
 31
0
  0
LINE
  8
0
 62
7
 10
7.425
 20
10.50091449816148
 30
0
 11
7.600000000000002
 21
10.67591449816148
 31
0
  0
LINE
  8
0
 62
7
 10
7.425
 20
10.28878246380551
 30
0
 11
7.600000000000002
 21
10.46378246380551
 31
0
  0
LINE
  8
0
 62
7
 10
7.425
 20
10.07665042944955
 30
0
 11
7.600000000000002
 21
10.25165042944955
 31
0
  0
LINE
  8
0
 62
7
 10
7.425
 20
9.864518395093585
 30
0
 11
7.600000000000002
 21
10.03951839509359
 31
0
  0
LINE
  8
0
 62
7
 10
7.425
 20
9.652386360737621
 30
0
 11
7.600000000000002
 21
9.827386360737622
 31
0
  0
LINE
  8
0
 62
7
 10
7.425
 20
9.440254326381657
 30
0
 11
7.600000000000002
 21
9.615254326381658
 31
0
  0
LINE
  8
0
 62
7
 10
7.425
 20
9.228122292025693
 30
0
 11
7.600000000000002
 21
9.403122292025694
 31
0
  0
LINE
  8
0
 62
7
 10
7.425
 20
9.01599025766973
 30
0
 11
7.600000000000002
 21
9.19099025766973
 31
0
  0
LINE
  8
0
 62
7
 10
7.425
 20
8.803858223313766
 30
0
 11
7.600000000000002
 21
8.978858223313766
 31
0
  0
LINE
  8
0
 62
7
 10
7.425
 20
8.591726188957802
 30
0
 11
7.600000000000002
 21
8.766726188957803
 31
0
  0
LINE
  8
0
 62
7
 10
7.425
 20
8.379594154601838
 30
0
 11
7.600000000000002
 21
8.554594154601839
 31
0
  0
LINE
  8
0
 62
7
 10
7.557537879754127
 20
8.300000000000001
 30
0
 11
7.600000000000002
 21
8.342462120245875
 31
0
  0
LINE
  8
0
 62
7
 10
7.425000000000001
 20
10.81911254969542
 30
0
 11
7.455887450304573
 21
10.85
 31
0
  0
LINE
  8
0
 62
7
 10
7.425000000000001
 20
10.60698051533946
 30
0
 11
7.600000000000002
 21
10.78198051533946
 31
0
  0
LINE
  8
0
 62
7
 10
7.425000000000001
 20
10.3948484809835
 30
0
 11
7.600000000000002
 21
10.5698484809835
 31
0
  0
LINE
  8
0
 62
7
 10
7.425000000000001
 20
10.18271644662753
 30
0
 11
7.600000000000002
 21
10.35771644662753
 31
0
  0
LINE
  8
0
 62
7
 10
7.425000000000001
 20
9.970584412271569
 30
0
 11
7.600000000000002
 21
10.14558441227157
 31
0
  0
LINE
  8
0
 62
7
 10
7.425000000000001
 20
9.758452377915605
 30
0
 11
7.600000000000002
 21
9.933452377915604
 31
0
  0
LINE
  8
0
 62
7
 10
7.425000000000001
 20
9.546320343559641
 30
0
 11
7.600000000000002
 21
9.72132034355964
 31
0
  0
LINE
  8
0
 62
7
 10
7.425000000000001
 20
9.334188309203677
 30
0
 11
7.600000000000002
 21
9.509188309203676
 31
0
  0
LINE
  8
0
 62
7
 10
7.425000000000001
 20
9.122056274847713
 30
0
 11
7.600000000000002
 21
9.297056274847712
 31
0
  0
LINE
  8
0
 62
7
 10
7.425000000000001
 20
8.909924240491749
 30
0
 11
7.600000000000002
 21
9.084924240491748
 31
0
  0
LINE
  8
0
 62
7
 10
7.425000000000001
 20
8.697792206135786
 30
0
 11
7.600000000000002
 21
8.872792206135784
 31
0
  0
LINE
  8
0
 62
7
 10
7.425000000000001
 20
8.485660171779822
 30
0
 11
7.600000000000002
 21
8.660660171779821
 31
0
  0
LINE
  8
0
 62
7
 10
7.451471862576145
 20
8.300000000000001
 30
0
 11
7.600000000000002
 21
8.448528137423857
 31
0
  0
ENDBLK
  8
0
  0
BLOCK
  8
0
  2
*X2
 70
1
 10
0
 20
0
 30
0
  0
LINE
  8
0
 62
7
 10
7.425000000000002
 20
11.13731060122938
 30
0
 11
7.487689398770626
 21
11.2
 31
0
  0
LINE
  8
0
 62
7
 10
7.549821433126593
 20
11.05
 30
0
 11
7.600000000000002
 21
11.10017856687341
 31
0
  0
LINE
  8
0
 62
7
 10
7.44375541594861
 20
11.05
 30
0
 11
7.593755415948609
 21
11.2
 31
0
  0
ENDBLK
  8
0
  0
BLOCK
  8
0
  2
*X3
 70
1
 10
0
 20
0
 30
0
  0
LINE
  8
0
 62
7
 10
4.49
 20
7.99017856687341
 30
0
 11
4.599821433126586
 21
8.099999999999994
 31
0
  0
LINE
  8
0
 62
7
 10
4.661953467482551
 20
7.949999999999996
 30
0
 11
4.664999999999999
 21
7.953046532517445
 31
0
  0
LINE
  8
0
 62
7
 10
4.49
 20
8.096244584051391
 30
0
 11
4.493755415948604
 21
8.099999999999994
 31
0
  0
LINE
  8
0
 62
7
 10
4.555887450304569
 20
7.949999999999997
 30
0
 11
4.664999999999999
 21
8.059112549695426
 31
0
  0
ENDBLK
  8
0
  0
BLOCK
  8
0
  2
*X4
 70
1
 10
0
 20
0
 30
0
  0
LINE
  8
0
 62
7
 10
4.49
 20
10.74789501350094
 30
0
 11
4.592104986499054
 21
10.85
 31
0
  0
LINE
  8
0
 62
7
 10
4.49
 20
10.53576297914498
 30
0
 11
4.665
 21
10.71076297914498
 31
0
  0
LINE
  8
0
 62
7
 10
4.49
 20
10.32363094478901
 30
0
 11
4.665
 21
10.49863094478901
 31
0
  0
LINE
  8
0
 62
7
 10
4.49
 20
10.11149891043305
 30
0
 11
4.665
 21
10.28649891043305
 31
0
  0
LINE
  8
0
 62
7
 10
4.49
 20
9.899366876077085
 30
0
 11
4.665
 21
10.07436687607708
 31
0
  0
LINE
  8
0
 62
7
 10
4.49
 20
9.687234841721121
 30
0
 11
4.665
 21
9.86223484172112
 31
0
  0
LINE
  8
0
 62
7
 10
4.49
 20
9.475102807365158
 30
0
 11
4.665
 21
9.650102807365156
 31
0
  0
LINE
  8
0
 62
7
 10
4.49
 20
9.262970773009194
 30
0
 11
4.665
 21
9.437970773009193
 31
0
  0
LINE
  8
0
 62
7
 10
4.49
 20
9.05083873865323
 30
0
 11
4.665
 21
9.225838738653229
 31
0
  0
LINE
  8
0
 62
7
 10
4.49
 20
8.838706704297266
 30
0
 11
4.665
 21
9.013706704297265
 31
0
  0
LINE
  8
0
 62
7
 10
4.49
 20
8.626574669941302
 30
0
 11
4.665
 21
8.801574669941301
 31
0
  0
LINE
  8
0
 62
7
 10
4.49
 20
8.414442635585338
 30
0
 11
4.665
 21
8.589442635585337
 31
0
  0
LINE
  8
0
 62
7
 10
4.587689398770627
 20
8.300000000000001
 30
0
 11
4.665
 21
8.377310601229373
 31
0
  0
LINE
  8
0
 62
7
 10
4.49
 20
10.64182899632296
 30
0
 11
4.665
 21
10.81682899632296
 31
0
  0
LINE
  8
0
 62
7
 10
4.49
 20
10.42969696196699
 30
0
 11
4.665
 21
10.60469696196699
 31
0
  0
LINE
  8
0
 62
7
 10
4.49
 20
10.21756492761103
 30
0
 11
4.665
 21
10.39256492761103
 31
0
  0
LINE
  8
0
 62
7
 10
4.49
 20
10.00543289325507
 30
0
 11
4.665
 21
10.18043289325507
 31
0
  0
LINE
  8
0
 62
7
 10
4.49
 20
9.793300858899103
 30
0
 11
4.665
 21
9.968300858899102
 31
0
  0
LINE
  8
0
 62
7
 10
4.49
 20
9.581168824543139
 30
0
 11
4.665
 21
9.756168824543138
 31
0
  0
LINE
  8
0
 62
7
 10
4.49
 20
9.369036790187176
 30
0
 11
4.665
 21
9.544036790187175
 31
0
  0
LINE
  8
0
 62
7
 10
4.49
 20
9.156904755831212
 30
0
 11
4.665
 21
9.331904755831211
 31
0
  0
LINE
  8
0
 62
7
 10
4.49
 20
8.944772721475248
 30
0
 11
4.665
 21
9.119772721475247
 31
0
  0
LINE
  8
0
 62
7
 10
4.49
 20
8.732640687119284
 30
0
 11
4.665
 21
8.907640687119283
 31
0
  0
LINE
  8
0
 62
7
 10
4.49
 20
8.52050865276332
 30
0
 11
4.665
 21
8.695508652763319
 31
0
  0
LINE
  8
0
 62
7
 10
4.49
 20
8.308376618407356
 30
0
 11
4.665
 21
8.483376618407355
 31
0
  0
ENDBLK
  8
0
  0
BLOCK
  8
0
  2
*X5
 70
1
 10
0
 20
0
 30
0
  0
LINE
  8
0
 62
7
 10
4.489999999999999
 20
11.17215908221287
 30
0
 11
4.517840917787128
 21
11.2
 31
0
  0
LINE
  8
0
 62
7
 10
4.579972952143093
 20
11.05
 30
0
 11
4.664999999999999
 21
11.13502704785691
 31
0
  0
LINE
  8
0
 62
7
 10
4.49
 20
11.06609306503489
 30
0
 11
4.62390693496511
 21
11.2
 31
0
  0
ENDBLK
  8
0
  0
BLOCK
  8
0
  2
*X6
 70
1
 10
0
 20
0
 30
0
  0
LINE
  8
0
 62
7
  6
DASHED
 10
4.34
 20
8.264442635585338
 30
0
 11
4.375557364414669
 21
8.300000000000001
 31
0
  0
LINE
  8
0
 62
7
  6
DASHED
 10
4.387689398770631
 20
8.099999999999998
 30
0
 11
4.587689398770633
 21
8.300000000000001
 31
0
  0
LINE
  8
0
 62
7
  6
DASHED
 10
4.599821433126595
 20
8.099999999999998
 30
0
 11
4.799821433126596
 21
8.300000000000001
 31
0
  0
LINE
  8
0
 62
7
  6
DASHED
 10
4.811953467482558
 20
8.099999999999998
 30
0
 11
5.01195346748256
 21
8.300000000000001
 31
0
  0
LINE
  8
0
 62
7
  6
DASHED
 10
5.024085501838522
 20
8.099999999999998
 30
0
 11
5.224085501838524
 21
8.300000000000001
 31
0
  0
LINE
  8
0
 62
7
  6
DASHED
 10
5.236217536194486
 20
8.099999999999998
 30
0
 11
5.436217536194488
 21
8.300000000000001
 31
0
  0
LINE
  8
0
 62
7
  6
DASHED
 10
5.44834957055045
 20
8.099999999999998
 30
0
 11
5.648349570550452
 21
8.300000000000001
 31
0
  0
LINE
  8
0
 62
7
  6
DASHED
 10
5.660481604906414
 20
8.099999999999998
 30
0
 11
5.860481604906416
 21
8.300000000000001
 31
0
  0
LINE
  8
0
 62
7
  6
DASHED
 10
5.872613639262378
 20
8.099999999999998
 30
0
 11
6.07261363926238
 21
8.300000000000001
 31
0
  0
LINE
  8
0
 62
7
  6
DASHED
 10
6.084745673618341
 20
8.099999999999998
 30
0
 11
6.284745673618343
 21
8.300000000000001
 31
0
  0
LINE
  8
0
 62
7
  6
DASHED
 10
6.296877707974305
 20
8.099999999999998
 30
0
 11
6.496877707974307
 21
8.300000000000001
 31
0
  0
LINE
  8
0
 62
7
  6
DASHED
 10
6.509009742330269
 20
8.099999999999998
 30
0
 11
6.709009742330271
 21
8.300000000000001
 31
0
  0
LINE
  8
0
 62
7
  6
DASHED
 10
6.721141776686233
 20
8.099999999999998
 30
0
 11
6.921141776686235
 21
8.300000000000001
 31
0
  0
LINE
  8
0
 62
7
  6
DASHED
 10
6.933273811042197
 20
8.099999999999998
 30
0
 11
7.133273811042199
 21
8.300000000000001
 31
0
  0
LINE
  8
0
 62
7
  6
DASHED
 10
7.145405845398161
 20
8.099999999999998
 30
0
 11
7.345405845398163
 21
8.300000000000001
 31
0
  0
LINE
  8
0
 62
7
  6
DASHED
 10
7.357537879754124
 20
8.099999999999998
 30
0
 11
7.557537879754126
 21
8.300000000000001
 31
0
  0
LINE
  8
0
 62
7
  6
DASHED
 10
7.569669914110088
 20
8.099999999999998
 30
0
 11
7.75
 21
8.28033008588991
 31
0
  0
LINE
  8
0
 62
7
 10
4.339999999999999
 20
8.158376618407354
 30
0
 11
4.481623381592651
 21
8.299999999999999
 31
0
  0
LINE
  8
0
 62
7
 10
4.493755415948613
 20
8.099999999999998
 30
0
 11
4.693755415948615
 21
8.299999999999999
 31
0
  0
LINE
  8
0
 62
7
 10
4.705887450304577
 20
8.099999999999998
 30
0
 11
4.905887450304578
 21
8.299999999999999
 31
0
  0
LINE
  8
0
 62
7
 10
4.918019484660541
 20
8.099999999999998
 30
0
 11
5.118019484660542
 21
8.299999999999999
 31
0
  0
LINE
  8
0
 62
7
 10
5.130151519016505
 20
8.099999999999998
 30
0
 11
5.330151519016506
 21
8.299999999999999
 31
0
  0
LINE
  8
0
 62
7
 10
5.342283553372469
 20
8.099999999999998
 30
0
 11
5.54228355337247
 21
8.299999999999999
 31
0
  0
LINE
  8
0
 62
7
 10
5.554415587728433
 20
8.099999999999998
 30
0
 11
5.754415587728434
 21
8.299999999999999
 31
0
  0
LINE
  8
0
 62
7
 10
5.766547622084397
 20
8.099999999999998
 30
0
 11
5.966547622084398
 21
8.299999999999999
 31
0
  0
LINE
  8
0
 62
7
 10
5.97867965644036
 20
8.099999999999998
 30
0
 11
6.178679656440361
 21
8.299999999999999
 31
0
  0
LINE
  8
0
 62
7
 10
6.190811690796324
 20
8.099999999999998
 30
0
 11
6.390811690796325
 21
8.299999999999999
 31
0
  0
LINE
  8
0
 62
7
 10
6.402943725152288
 20
8.099999999999998
 30
0
 11
6.602943725152289
 21
8.299999999999999
 31
0
  0
LINE
  8
0
 62
7
 10
6.615075759508252
 20
8.099999999999998
 30
0
 11
6.815075759508253
 21
8.299999999999999
 31
0
  0
LINE
  8
0
 62
7
 10
6.827207793864216
 20
8.099999999999998
 30
0
 11
7.027207793864217
 21
8.299999999999999
 31
0
  0
LINE
  8
0
 62
7
 10
7.03933982822018
 20
8.099999999999998
 30
0
 11
7.239339828220181
 21
8.299999999999999
 31
0
  0
LINE
  8
0
 62
7
 10
7.251471862576143
 20
8.099999999999998
 30
0
 11
7.451471862576144
 21
8.299999999999999
 31
0
  0
LINE
  8
0
 62
7
 10
7.463603896932107
 20
8.099999999999998
 30
0
 11
7.663603896932108
 21
8.299999999999999
 31
0
  0
LINE
  8
0
 62
7
 10
7.675735931288071
 20
8.099999999999998
 30
0
 11
7.75
 21
8.174264068711928
 31
0
  0
ENDBLK
  8
0
  0
BLOCK
  8
0
  2
*X7
 70
1
 10
0
 20
0
 30
0
  0
LINE
  8
0
 62
7
  6
DASHED
 10
4.339999999999999
 20
11.02215908221287
 30
0
 11
4.367840917787135
 21
11.05
 31
0
  0
LINE
  8
0
 62
7
  6
DASHED
 10
4.379972952143097
 20
10.85
 30
0
 11
4.579972952143099
 21
11.05
 31
0
  0
LINE
  8
0
 62
7
  6
DASHED
 10
4.592104986499061
 20
10.85
 30
0
 11
4.792104986499063
 21
11.05
 31
0
  0
LINE
  8
0
 62
7
  6
DASHED
 10
4.804237020855025
 20
10.85
 30
0
 11
5.004237020855027
 21
11.05
 31
0
  0
LINE
  8
0
 62
7
  6
DASHED
 10
5.016369055210989
 20
10.85
 30
0
 11
5.216369055210991
 21
11.05
 31
0
  0
LINE
  8
0
 62
7
  6
DASHED
 10
5.228501089566953
 20
10.85
 30
0
 11
5.428501089566955
 21
11.05
 31
0
  0
LINE
  8
0
 62
7
  6
DASHED
 10
5.440633123922916
 20
10.85
 30
0
 11
5.640633123922918
 21
11.05
 31
0
  0
LINE
  8
0
 62
7
  6
DASHED
 10
5.65276515827888
 20
10.85
 30
0
 11
5.852765158278882
 21
11.05
 31
0
  0
LINE
  8
0
 62
7
  6
DASHED
 10
5.864897192634844
 20
10.85
 30
0
 11
6.064897192634846
 21
11.05
 31
0
  0
LINE
  8
0
 62
7
  6
DASHED
 10
6.077029226990808
 20
10.85
 30
0
 11
6.27702922699081
 21
11.05
 31
0
  0
LINE
  8
0
 62
7
  6
DASHED
 10
6.289161261346772
 20
10.85
 30
0
 11
6.489161261346774
 21
11.05
 31
0
  0
LINE
  8
0
 62
7
  6
DASHED
 10
6.501293295702736
 20
10.85
 30
0
 11
6.701293295702738
 21
11.05
 31
0
  0
LINE
  8
0
 62
7
  6
DASHED
 10
6.713425330058699
 20
10.85
 30
0
 11
6.913425330058701
 21
11.05
 31
0
  0
LINE
  8
0
 62
7
  6
DASHED
 10
6.925557364414663
 20
10.85
 30
0
 11
7.125557364414665
 21
11.05
 31
0
  0
LINE
  8
0
 62
7
  6
DASHED
 10
7.137689398770627
 20
10.85
 30
0
 11
7.337689398770629
 21
11.05
 31
0
  0
LINE
  8
0
 62
7
  6
DASHED
 10
7.349821433126591
 20
10.85
 30
0
 11
7.549821433126593
 21
11.05
 31
0
  0
LINE
  8
0
 62
7
  6
DASHED
 10
7.561953467482555
 20
10.85
 30
0
 11
7.75
 21
11.03804653251744
 31
0
  0
LINE
  8
0
 62
7
 10
4.339999999999999
 20
10.91609306503489
 30
0
 11
4.473906934965115
 21
11.05
 31
0
  0
LINE
  8
0
 62
7
 10
4.48603896932108
 20
10.85
 30
0
 11
4.686038969321078
 21
11.05
 31
0
  0
LINE
  8
0
 62
7
 10
4.698171003677044
 20
10.85
 30
0
 11
4.898171003677042
 21
11.05
 31
0
  0
LINE
  8
0
 62
7
 10
4.910303038033008
 20
10.85
 30
0
 11
5.110303038033006
 21
11.05
 31
0
  0
LINE
  8
0
 62
7
 10
5.122435072388972
 20
10.85
 30
0
 11
5.32243507238897
 21
11.05
 31
0
  0
LINE
  8
0
 62
7
 10
5.334567106744935
 20
10.85
 30
0
 11
5.534567106744934
 21
11.05
 31
0
  0
LINE
  8
0
 62
7
 10
5.546699141100899
 20
10.85
 30
0
 11
5.746699141100898
 21
11.05
 31
0
  0
LINE
  8
0
 62
7
 10
5.758831175456863
 20
10.85
 30
0
 11
5.958831175456861
 21
11.05
 31
0
  0
LINE
  8
0
 62
7
 10
5.970963209812827
 20
10.85
 30
0
 11
6.170963209812825
 21
11.05
 31
0
  0
LINE
  8
0
 62
7
 10
6.183095244168791
 20
10.85
 30
0
 11
6.383095244168789
 21
11.05
 31
0
  0
LINE
  8
0
 62
7
 10
6.395227278524755
 20
10.85
 30
0
 11
6.595227278524753
 21
11.05
 31
0
  0
LINE
  8
0
 62
7
 10
6.607359312880718
 20
10.85
 30
0
 11
6.807359312880717
 21
11.05
 31
0
  0
LINE
  8
0
 62
7
 10
6.819491347236682
 20
10.85
 30
0
 11
7.019491347236681
 21
11.05
 31
0
  0
LINE
  8
0
 62
7
 10
7.031623381592646
 20
10.85
 30
0
 11
7.231623381592645
 21
11.05
 31
0
  0
LINE
  8
0
 62
7
 10
7.24375541594861
 20
10.85
 30
0
 11
7.443755415948608
 21
11.05
 31
0
  0
LINE
  8
0
 62
7
 10
7.455887450304574
 20
10.85
 30
0
 11
7.655887450304572
 21
11.05
 31
0
  0
LINE
  8
0
 62
7
 10
7.668019484660538
 20
10.85
 30
0
 11
7.749999999999999
 21
10.93198051533946
 31
0
  0
ENDBLK
  8
0
  0
BLOCK
  8
0
  2
*X8
 70
1
 10
0
 20
0
 30
0
  0
LINE
  8
0
 62
7
 10
0.5
 20
8.03068721963673
 30
0
 11
0.5693127803632656
 21
8.099999999999996
 31
0
  0
LINE
  8
0
 62
7
 10
0.6314448147192295
 20
7.949999999999995
 30
0
 11
0.7399999999999998
 21
8.058555185280765
 31
0
  0
LINE
  8
0
 62
7
 10
0.5253787975412476
 20
7.949999999999996
 30
0
 11
0.6753787975412489
 21
8.099999999999998
 31
0
  0
LINE
  8
0
 62
7
 10
0.7375108318972119
 20
7.949999999999996
 30
0
 11
0.7399999999999993
 21
7.952489168102783
 31
0
  0
ENDBLK
  8
0
  0
BLOCK
  8
0
  2
*X9
 70
1
 10
0
 20
0
 30
0
  0
LINE
  8
0
 62
7
 10
0.5000000000000004
 20
10.78840366626426
 30
0
 11
0.5615963337357339
 21
10.85
 31
0
  0
LINE
  8
0
 62
7
 10
0.5000000000000004
 20
10.5762716319083
 30
0
 11
0.7400000000000002
 21
10.8162716319083
 31
0
  0
LINE
  8
0
 62
7
 10
0.5000000000000004
 20
10.36413959755233
 30
0
 11
0.7400000000000002
 21
10.60413959755233
 31
0
  0
LINE
  8
0
 62
7
 10
0.5000000000000004
 20
10.15200756319637
 30
0
 11
0.7400000000000002
 21
10.39200756319637
 31
0
  0
LINE
  8
0
 62
7
 10
0.5000000000000004
 20
9.939875528840407
 30
0
 11
0.7400000000000002
 21
10.17987552884041
 31
0
  0
LINE
  8
0
 62
7
 10
0.5000000000000004
 20
9.727743494484443
 30
0
 11
0.7400000000000002
 21
9.967743494484441
 31
0
  0
LINE
  8
0
 62
7
 10
0.5000000000000004
 20
9.515611460128479
 30
0
 11
0.7400000000000002
 21
9.755611460128478
 31
0
  0
LINE
  8
0
 62
7
 10
0.5000000000000004
 20
9.303479425772515
 30
0
 11
0.7400000000000002
 21
9.543479425772514
 31
0
  0
LINE
  8
0
 62
7
 10
0.5000000000000004
 20
9.091347391416551
 30
0
 11
0.7400000000000002
 21
9.33134739141655
 31
0
  0
LINE
  8
0
 62
7
 10
0.5000000000000004
 20
8.879215357060588
 30
0
 11
0.7400000000000002
 21
9.119215357060586
 31
0
  0
LINE
  8
0
 62
7
 10
0.5000000000000004
 20
8.667083322704624
 30
0
 11
0.7400000000000002
 21
8.907083322704622
 31
0
  0
LINE
  8
0
 62
7
 10
0.5000000000000004
 20
8.45495128834866
 30
0
 11
0.7400000000000002
 21
8.694951288348658
 31
0
  0
LINE
  8
0
 62
7
 10
0.5571807460073064
 20
8.300000000000001
 30
0
 11
0.7400000000000002
 21
8.482819253992695
 31
0
  0
LINE
  8
0
 62
7
 10
0.5
 20
10.68233764908628
 30
0
 11
0.6676623509137176
 21
10.85
 31
0
  0
LINE
  8
0
 62
7
 10
0.5
 20
10.47020561473031
 30
0
 11
0.7399999999999998
 21
10.71020561473031
 31
0
  0
LINE
  8
0
 62
7
 10
0.5
 20
10.25807358037435
 30
0
 11
0.7399999999999998
 21
10.49807358037435
 31
0
  0
LINE
  8
0
 62
7
 10
0.5
 20
10.04594154601839
 30
0
 11
0.7399999999999998
 21
10.28594154601839
 31
0
  0
LINE
  8
0
 62
7
 10
0.5
 20
9.833809511662423
 30
0
 11
0.7399999999999998
 21
10.07380951166242
 31
0
  0
LINE
  8
0
 62
7
 10
0.5
 20
9.621677477306459
 30
0
 11
0.7399999999999998
 21
9.861677477306458
 31
0
  0
LINE
  8
0
 62
7
 10
0.5
 20
9.409545442950495
 30
0
 11
0.7399999999999998
 21
9.649545442950494
 31
0
  0
LINE
  8
0
 62
7
 10
0.5
 20
9.197413408594532
 30
0
 11
0.7399999999999998
 21
9.43741340859453
 31
0
  0
LINE
  8
0
 62
7
 10
0.5
 20
8.985281374238568
 30
0
 11
0.7399999999999998
 21
9.225281374238566
 31
0
  0
LINE
  8
0
 62
7
 10
0.5
 20
8.773149339882604
 30
0
 11
0.7399999999999998
 21
9.013149339882602
 31
0
  0
LINE
  8
0
 62
7
 10
0.5
 20
8.56101730552664
 30
0
 11
0.7399999999999998
 21
8.801017305526639
 31
0
  0
LINE
  8
0
 62
7
 10
0.5
 20
8.348885271170676
 30
0
 11
0.7399999999999998
 21
8.588885271170675
 31
0
  0
LINE
  8
0
 62
7
 10
0.6632467631852896
 20
8.300000000000001
 30
0
 11
0.7399999999999998
 21
8.376753236814711
 31
0
  0
ENDBLK
  8
0
  0
BLOCK
  8
0
  2
*X10
 70
1
 10
0
 20
0
 30
0
  0
LINE
  8
0
 62
7
 10
0.549464299379772
 20
11.05
 30
0
 11
0.6994642993797706
 21
11.2
 31
0
  0
LINE
  8
0
 62
7
 10
0.5
 20
11.10660171779821
 30
0
 11
0.5933982822017896
 21
11.2
 31
0
  0
LINE
  8
0
 62
7
 10
0.655530316557754
 20
11.05
 30
0
 11
0.7400000000000002
 21
11.13446968344225
 31
0
  0
ENDBLK
  8
0
  0
BLOCK
  8
0
  2
*X11
 70
1
 10
0
 20
0
 30
0
  0
LINE
  8
0
 62
7
  6
DASHED
 10
2.409999999999999
 20
8.243630944789015
 30
0
 11
2.466369055210984
 21
8.300000000000001
 31
0
  0
LINE
  8
0
 62
7
  6
DASHED
 10
2.478501089566946
 20
8.099999999999998
 30
0
 11
2.678501089566948
 21
8.300000000000001
 31
0
  0
LINE
  8
0
 62
7
  6
DASHED
 10
2.690633123922911
 20
8.099999999999998
 30
0
 11
2.71
 21
8.119366876077088
 31
0
  0
LINE
  8
0
 62
7
 10
2.409999999999999
 20
8.137564927611033
 30
0
 11
2.572435072388967
 21
8.300000000000001
 31
0
  0
LINE
  8
0
 62
7
 10
2.584567106744929
 20
8.099999999999998
 30
0
 11
2.71
 21
8.225432893255068
 31
0
  0
ENDBLK
  8
0
  0
BLOCK
  8
0
  2
*X12
 70
1
 10
0
 20
0
 30
0
  0
LINE
  8
0
 62
7
  6
DASHED
 10
2.409999999999999
 20
11.00134739141655
 30
0
 11
2.458652608583451
 21
11.05
 31
0
  0
LINE
  8
0
 62
7
  6
DASHED
 10
2.470784642939413
 20
10.85
 30
0
 11
2.670784642939415
 21
11.05
 31
0
  0
LINE
  8
0
 62
7
  6
DASHED
 10
2.682916677295378
 20
10.85
 30
0
 11
2.709999999999998
 21
10.87708332270462
 31
0
  0
LINE
  8
0
 62
7
 10
2.41
 20
10.89528137423857
 30
0
 11
2.564718625761432
 21
11.05
 31
0
  0
LINE
  8
0
 62
7
 10
2.576850660117396
 20
10.85
 30
0
 11
2.709999999999999
 21
10.9831493398826
 31
0
  0
ENDBLK
  8
0
  0
BLOCK
  8
0
  2
*X13
 70
1
 10
0
 20
0
 30
0
  0
LINE
  8
0
 62
7
  6
DASHED
 10
0.4999999999999991
 20
11.00053570062023
 30
0
 11
0.5494642993797729
 21
11.05
 31
0
  0
LINE
  8
0
 62
7
  6
DASHED
 10
0.5615963337357357
 20
10.85
 30
0
 11
0.7399999999999993
 21
11.02840366626426
 31
0
  0
LINE
  8
0
 62
7
 10
0.5000000000000009
 20
10.89446968344225
 30
0
 11
0.655530316557754
 21
11.05
 31
0
  0
LINE
  8
0
 62
7
 10
0.6676623509137176
 20
10.85
 30
0
 11
0.7400000000000002
 21
10.92233764908628
 31
0
  0
ENDBLK
  8
0
  0
BLOCK
  8
0
  2
*X14
 70
1
 10
0
 20
0
 30
0
  0
LINE
  8
0
 62
7
  6
DASHED
 10
0.5
 20
8.242819253992694
 30
0
 11
0.5571807460073064
 21
8.300000000000001
 31
0
  0
LINE
  8
0
 62
7
  6
DASHED
 10
0.5693127803632669
 20
8.099999999999996
 30
0
 11
0.7399999999999998
 21
8.270687219636729
 31
0
  0
LINE
  8
0
 62
7
 10
0.5
 20
8.136753236814712
 30
0
 11
0.6632467631852892
 21
8.300000000000001
 31
0
  0
LINE
  8
0
 62
7
 10
0.6753787975412489
 20
8.099999999999998
 30
0
 11
0.7399999999999998
 21
8.164621202458747
 31
0
  0
ENDBLK
  8
0
  0
BLOCK
  8
0
  2
*X15
 70
1
 10
0
 20
0
 30
0
  0
LINE
  8
0
 62
7
 10
4.49
 20
5.656726188957803
 30
0
 11
4.523273811042196
 21
5.689999999999998
 31
0
  0
LINE
  8
0
 62
7
 10
4.34
 20
5.506726188957803
 30
0
 11
4.373273811042196
 21
5.539999999999999
 31
0
  0
LINE
  8
0
 62
7
 10
4.345405845398169
 20
5.300000000000001
 30
0
 11
4.665
 21
5.619594154601838
 31
0
  0
LINE
  8
0
 62
7
 10
4.557537879754133
 20
5.300000000000001
 30
0
 11
4.79753787975413
 21
5.539999999999999
 31
0
  0
LINE
  8
0
 62
7
 10
4.769669914110096
 20
5.300000000000001
 30
0
 11
5.009669914110094
 21
5.539999999999999
 31
0
  0
LINE
  8
0
 62
7
 10
4.98180194846606
 20
5.300000000000001
 30
0
 11
5.221801948466058
 21
5.539999999999999
 31
0
  0
LINE
  8
0
 62
7
 10
5.193933982822024
 20
5.300000000000001
 30
0
 11
5.433933982822022
 21
5.539999999999999
 31
0
  0
LINE
  8
0
 62
7
 10
5.406066017177988
 20
5.300000000000001
 30
0
 11
5.646066017177986
 21
5.539999999999999
 31
0
  0
LINE
  8
0
 62
7
 10
5.618198051533952
 20
5.300000000000001
 30
0
 11
5.858198051533949
 21
5.539999999999999
 31
0
  0
LINE
  8
0
 62
7
 10
5.830330085889916
 20
5.300000000000001
 30
0
 11
6.070330085889913
 21
5.539999999999999
 31
0
  0
LINE
  8
0
 62
7
 10
6.042462120245879
 20
5.300000000000001
 30
0
 11
6.282462120245877
 21
5.539999999999999
 31
0
  0
LINE
  8
0
 62
7
 10
6.254594154601843
 20
5.300000000000001
 30
0
 11
6.494594154601841
 21
5.539999999999999
 31
0
  0
LINE
  8
0
 62
7
 10
6.466726188957807
 20
5.300000000000001
 30
0
 11
6.706726188957805
 21
5.539999999999999
 31
0
  0
LINE
  8
0
 62
7
 10
6.678858223313771
 20
5.300000000000001
 30
0
 11
6.918858223313769
 21
5.539999999999999
 31
0
  0
LINE
  8
0
 62
7
 10
6.890990257669735
 20
5.300000000000001
 30
0
 11
7.130990257669732
 21
5.539999999999999
 31
0
  0
LINE
  8
0
 62
7
 10
7.425000000000001
 20
5.621877707974304
 30
0
 11
7.493122292025696
 21
5.689999999999999
 31
0
  0
LINE
  8
0
 62
7
 10
7.103122292025699
 20
5.300000000000001
 30
0
 11
7.343122292025696
 21
5.539999999999999
 31
0
  0
LINE
  8
0
 62
7
 10
7.315254326381663
 20
5.300000000000001
 30
0
 11
7.600000000000002
 21
5.584745673618341
 31
0
  0
LINE
  8
0
 62
7
 10
7.527386360737626
 20
5.300000000000001
 30
0
 11
7.765000000000001
 21
5.537613639262377
 31
0
  0
LINE
  8
0
 62
7
 10
7.73951839509359
 20
5.300000000000001
 30
0
 11
7.765000000000001
 21
5.325481604906413
 31
0
  0
LINE
  8
0
 62
7
 10
4.490000000000001
 20
5.550660171779821
 30
0
 11
4.629339828220179
 21
5.689999999999999
 31
0
  0
LINE
  8
0
 62
7
 10
4.340000000000001
 20
5.400660171779821
 30
0
 11
4.479339828220178
 21
5.539999999999999
 31
0
  0
LINE
  8
0
 62
7
 10
4.451471862576151
 20
5.300000000000001
 30
0
 11
4.691471862576148
 21
5.539999999999999
 31
0
  0
LINE
  8
0
 62
7
 10
4.663603896932115
 20
5.300000000000001
 30
0
 11
4.903603896932112
 21
5.539999999999999
 31
0
  0
LINE
  8
0
 62
7
 10
4.875735931288078
 20
5.300000000000001
 30
0
 11
5.115735931288076
 21
5.539999999999999
 31
0
  0
LINE
  8
0
 62
7
 10
5.087867965644042
 20
5.300000000000001
 30
0
 11
5.32786796564404
 21
5.539999999999999
 31
0
  0
LINE
  8
0
 62
7
 10
5.300000000000006
 20
5.300000000000001
 30
0
 11
5.540000000000004
 21
5.539999999999999
 31
0
  0
LINE
  8
0
 62
7
 10
5.51213203435597
 20
5.300000000000001
 30
0
 11
5.752132034355967
 21
5.539999999999999
 31
0
  0
LINE
  8
0
 62
7
 10
5.724264068711934
 20
5.300000000000001
 30
0
 11
5.964264068711931
 21
5.539999999999999
 31
0
  0
LINE
  8
0
 62
7
 10
5.936396103067898
 20
5.300000000000001
 30
0
 11
6.176396103067895
 21
5.539999999999999
 31
0
  0
LINE
  8
0
 62
7
 10
6.148528137423861
 20
5.300000000000001
 30
0
 11
6.388528137423859
 21
5.539999999999999
 31
0
  0
LINE
  8
0
 62
7
 10
6.360660171779825
 20
5.300000000000001
 30
0
 11
6.600660171779823
 21
5.539999999999999
 31
0
  0
LINE
  8
0
 62
7
 10
6.572792206135789
 20
5.300000000000001
 30
0
 11
6.812792206135787
 21
5.539999999999999
 31
0
  0
LINE
  8
0
 62
7
 10
6.784924240491753
 20
5.300000000000001
 30
0
 11
7.02492424049175
 21
5.539999999999999
 31
0
  0
LINE
  8
0
 62
7
 10
6.997056274847717
 20
5.300000000000001
 30
0
 11
7.237056274847714
 21
5.539999999999999
 31
0
  0
LINE
  8
0
 62
7
 10
7.209188309203681
 20
5.300000000000001
 30
0
 11
7.599188309203678
 21
5.689999999999999
 31
0
  0
LINE
  8
0
 62
7
 10
7.421320343559644
 20
5.300000000000001
 30
0
 11
7.661320343559642
 21
5.539999999999999
 31
0
  0
LINE
  8
0
 62
7
 10
7.633452377915608
 20
5.300000000000001
 30
0
 11
7.765000000000001
 21
5.431547622084393
 31
0
  0
ENDBLK
  8
0
  0
BLOCK
  8
0
  2
*X16
 70
1
 10
0
 20
0
 30
0
  0
LINE
  8
0
 62
7
 10
4.34
 20
5.082462120245874
 30
0
 11
4.517537879754134
 21
5.260000000000003
 31
0
  0
LINE
  8
0
 62
7
 10
4.489669914110092
 20
5.020000000000001
 30
0
 11
4.729669914110098
 21
5.260000000000003
 31
0
  0
LINE
  8
0
 62
7
 10
4.701801948466062
 20
5.020000000000003
 30
0
 11
4.941801948466062
 21
5.260000000000003
 31
0
  0
LINE
  8
0
 62
7
 10
4.49
 20
4.808198051533946
 30
0
 11
4.665
 21
4.983198051533944
 31
0
  0
LINE
  8
0
 62
7
 10
4.913933982822026
 20
5.020000000000003
 30
0
 11
5.153933982822026
 21
5.260000000000003
 31
0
  0
LINE
  8
0
 62
7
 10
4.49
 20
4.596066017177982
 30
0
 11
4.665
 21
4.77106601717798
 31
0
  0
LINE
  8
0
 62
7
 10
5.126066017177989
 20
5.020000000000003
 30
0
 11
5.36606601717799
 21
5.260000000000003
 31
0
  0
LINE
  8
0
 62
7
 10
4.49
 20
4.383933982822018
 30
0
 11
4.665
 21
4.558933982822016
 31
0
  0
LINE
  8
0
 62
7
 10
5.338198051533953
 20
5.020000000000003
 30
0
 11
5.578198051533954
 21
5.260000000000003
 31
0
  0
LINE
  8
0
 62
7
 10
4.49
 20
4.171801948466054
 30
0
 11
4.665
 21
4.346801948466053
 31
0
  0
LINE
  8
0
 62
7
 10
5.550330085889917
 20
5.020000000000003
 30
0
 11
5.790330085889917
 21
5.260000000000003
 31
0
  0
LINE
  8
0
 62
7
 10
4.49
 20
3.95966991411009
 30
0
 11
4.665
 21
4.134669914110089
 31
0
  0
LINE
  8
0
 62
7
 10
5.762462120245881
 20
5.020000000000003
 30
0
 11
6.002462120245881
 21
5.260000000000003
 31
0
  0
LINE
  8
0
 62
7
 10
4.49
 20
3.747537879754126
 30
0
 11
4.665
 21
3.922537879754125
 31
0
  0
LINE
  8
0
 62
7
 10
5.974594154601845
 20
5.020000000000003
 30
0
 11
6.214594154601845
 21
5.260000000000003
 31
0
  0
LINE
  8
0
 62
7
 10
4.49
 20
3.535405845398162
 30
0
 11
4.665
 21
3.710405845398161
 31
0
  0
LINE
  8
0
 62
7
 10
6.186726188957809
 20
5.020000000000003
 30
0
 11
6.426726188957809
 21
5.260000000000003
 31
0
  0
LINE
  8
0
 62
7
 10
4.49
 20
3.323273811042197
 30
0
 11
4.665
 21
3.498273811042196
 31
0
  0
LINE
  8
0
 62
7
 10
6.398858223313773
 20
5.020000000000003
 30
0
 11
6.638858223313773
 21
5.260000000000003
 31
0
  0
LINE
  8
0
 62
7
 10
4.628858223313767
 20
3.249999999999999
 30
0
 11
4.665
 21
3.286141776686232
 31
0
  0
LINE
  8
0
 62
7
 10
6.610990257669736
 20
5.020000000000003
 30
0
 11
6.850990257669737
 21
5.260000000000003
 31
0
  0
LINE
  8
0
 62
7
 10
6.8231222920257
 20
5.020000000000003
 30
0
 11
7.0631222920257
 21
5.260000000000003
 31
0
  0
LINE
  8
0
 62
7
 10
7.035254326381664
 20
5.020000000000003
 30
0
 11
7.275254326381664
 21
5.260000000000003
 31
0
  0
LINE
  8
0
 62
7
 10
7.247386360737628
 20
5.020000000000003
 30
0
 11
7.487386360737628
 21
5.260000000000003
 31
0
  0
LINE
  8
0
 62
7
 10
7.425
 20
4.985481604906409
 30
0
 11
7.699518395093592
 21
5.260000000000003
 31
0
  0
LINE
  8
0
 62
7
 10
7.671650429449555
 20
5.020000000000001
 30
0
 11
7.764999999999999
 21
5.113349570550445
 31
0
  0
LINE
  8
0
 62
7
 10
7.425
 20
4.773349570550445
 30
0
 11
7.600000000000002
 21
4.948349570550447
 31
0
  0
LINE
  8
0
 62
7
 10
7.425
 20
4.561217536194481
 30
0
 11
7.600000000000002
 21
4.736217536194483
 31
0
  0
LINE
  8
0
 62
7
 10
7.425
 20
4.349085501838517
 30
0
 11
7.600000000000002
 21
4.52408550183852
 31
0
  0
LINE
  8
0
 62
7
 10
7.425
 20
4.136953467482553
 30
0
 11
7.600000000000002
 21
4.311953467482556
 31
0
  0
LINE
  8
0
 62
7
 10
7.425
 20
3.924821433126589
 30
0
 11
7.600000000000002
 21
4.099821433126592
 31
0
  0
LINE
  8
0
 62
7
 10
7.425
 20
3.712689398770625
 30
0
 11
7.600000000000002
 21
3.887689398770628
 31
0
  0
LINE
  8
0
 62
7
 10
7.425
 20
3.500557364414661
 30
0
 11
7.600000000000002
 21
3.675557364414663
 31
0
  0
LINE
  8
0
 62
7
 10
7.486574669941303
 20
3.35
 30
0
 11
7.600000000000002
 21
3.463425330058699
 31
0
  0
LINE
  8
0
 62
7
 10
4.34
 20
5.188528137423857
 30
0
 11
4.411471862576152
 21
5.260000000000002
 31
0
  0
LINE
  8
0
 62
7
 10
4.38360389693211
 20
5.020000000000001
 30
0
 11
4.623603896932115
 21
5.260000000000002
 31
0
  0
LINE
  8
0
 62
7
 10
4.49
 20
4.914264068711927
 30
0
 11
4.835735931288079
 21
5.260000000000002
 31
0
  0
LINE
  8
0
 62
7
 10
4.807867965644043
 20
5.020000000000001
 30
0
 11
5.047867965644043
 21
5.260000000000002
 31
0
  0
LINE
  8
0
 62
7
 10
4.49
 20
4.702132034355963
 30
0
 11
4.665
 21
4.877132034355962
 31
0
  0
LINE
  8
0
 62
7
 10
5.020000000000007
 20
5.020000000000001
 30
0
 11
5.260000000000007
 21
5.260000000000002
 31
0
  0
LINE
  8
0
 62
7
 10
4.49
 20
4.489999999999999
 30
0
 11
4.665
 21
4.664999999999998
 31
0
  0
LINE
  8
0
 62
7
 10
5.232132034355971
 20
5.020000000000001
 30
0
 11
5.472132034355971
 21
5.260000000000002
 31
0
  0
LINE
  8
0
 62
7
 10
4.49
 20
4.277867965644035
 30
0
 11
4.665
 21
4.452867965644034
 31
0
  0
LINE
  8
0
 62
7
 10
5.444264068711934
 20
5.020000000000001
 30
0
 11
5.684264068711935
 21
5.260000000000002
 31
0
  0
LINE
  8
0
 62
7
 10
4.49
 20
4.065735931288072
 30
0
 11
4.665
 21
4.240735931288071
 31
0
  0
LINE
  8
0
 62
7
 10
5.656396103067898
 20
5.020000000000001
 30
0
 11
5.896396103067898
 21
5.260000000000002
 31
0
  0
LINE
  8
0
 62
7
 10
4.49
 20
3.853603896932107
 30
0
 11
4.665
 21
4.028603896932107
 31
0
  0
LINE
  8
0
 62
7
 10
5.868528137423862
 20
5.020000000000001
 30
0
 11
6.108528137423862
 21
5.260000000000002
 31
0
  0
LINE
  8
0
 62
7
 10
4.49
 20
3.641471862576143
 30
0
 11
4.665
 21
3.816471862576142
 31
0
  0
LINE
  8
0
 62
7
 10
6.080660171779826
 20
5.020000000000001
 30
0
 11
6.320660171779826
 21
5.260000000000002
 31
0
  0
LINE
  8
0
 62
7
 10
4.49
 20
3.429339828220179
 30
0
 11
4.665
 21
3.604339828220178
 31
0
  0
LINE
  8
0
 62
7
 10
6.29279220613579
 20
5.020000000000001
 30
0
 11
6.53279220613579
 21
5.260000000000002
 31
0
  0
LINE
  8
0
 62
7
 10
4.522792206135787
 20
3.25
 30
0
 11
4.665000000000001
 21
3.392207793864214
 31
0
  0
LINE
  8
0
 62
7
 10
6.504924240491754
 20
5.020000000000001
 30
0
 11
6.744924240491754
 21
5.260000000000002
 31
0
  0
LINE
  8
0
 62
7
 10
6.717056274847717
 20
5.020000000000001
 30
0
 11
6.957056274847718
 21
5.260000000000002
 31
0
  0
LINE
  8
0
 62
7
 10
6.929188309203681
 20
5.020000000000001
 30
0
 11
7.169188309203681
 21
5.260000000000002
 31
0
  0
LINE
  8
0
 62
7
 10
7.141320343559645
 20
5.020000000000001
 30
0
 11
7.381320343559645
 21
5.260000000000002
 31
0
  0
LINE
  8
0
 62
7
 10
7.353452377915609
 20
5.020000000000001
 30
0
 11
7.593452377915609
 21
5.260000000000002
 31
0
  0
LINE
  8
0
 62
7
 10
7.425000000000001
 20
4.879415587728428
 30
0
 11
7.765
 21
5.219415587728427
 31
0
  0
LINE
  8
0
 62
7
 10
7.425000000000001
 20
4.667283553372464
 30
0
 11
7.600000000000001
 21
4.842283553372464
 31
0
  0
LINE
  8
0
 62
7
 10
7.425000000000001
 20
4.4551515190165
 30
0
 11
7.600000000000001
 21
4.630151519016501
 31
0
  0
LINE
  8
0
 62
7
 10
7.425000000000001
 20
4.243019484660536
 30
0
 11
7.600000000000001
 21
4.418019484660537
 31
0
  0
LINE
  8
0
 62
7
 10
7.425000000000001
 20
4.030887450304572
 30
0
 11
7.600000000000001
 21
4.205887450304573
 31
0
  0
LINE
  8
0
 62
7
 10
7.425000000000001
 20
3.818755415948608
 30
0
 11
7.600000000000001
 21
3.993755415948609
 31
0
  0
LINE
  8
0
 62
7
 10
7.425000000000001
 20
3.606623381592644
 30
0
 11
7.600000000000001
 21
3.781623381592645
 31
0
  0
LINE
  8
0
 62
7
 10
7.425000000000001
 20
3.394491347236679
 30
0
 11
7.600000000000001
 21
3.56949134723668
 31
0
  0
LINE
  8
0
 62
7
 10
7.592640687119285
 20
3.35
 30
0
 11
7.600000000000001
 21
3.357359312880716
 31
0
  0
ENDBLK
  8
0
  0
BLOCK
  8
0
  2
*D0
 70
1
 10
0
 20
0
 30
0
  0
LINE
  8
0
 62
7
 10
8.08728880514392
 20
10.23935914750467
 30
0
 11
8.08728880514392
 21
11.05
 31
0
  0
LINE
  8
0
 62
7
 10
8.08728880514392
 20
8.300000000000001
 30
0
 11
8.08728880514392
 21
9.159359147504668
 31
0
  0
LINE
  8
0
 62
7
 10
7.75
 20
11.05
 30
0
 11
8.137288805143921
 21
11.05
 31
0
  0
LINE
  8
0
 62
7
 10
7.75
 20
8.300000000000001
 30
0
 11
8.137288805143921
 21
8.300000000000001
 31
0
  0
LINE
  8
0
 62
7
 10
8.051933466084593
 20
8.335355339059328
 30
0
 11
8.122644144203248
 21
8.264644660940673
 31
0
  0
LINE
  8
0
 62
7
 10
8.122644144203248
 20
11.01464466094067
 30
0
 11
8.051933466084593
 21
11.08535533905933
 31
0
  0
TEXT
  8
0
 62
7
 10
8.057288805143921
 20
9.56185914750467
 30
0
 40
0.1
  1
2,75
 50
90
 41
0.9
  0
TEXT
  8
0
 62
7
 10
8.217288805143921
 20
9.359359147504669
 30
0
 40
0.1
  1
(260-280)
 50
90
 41
0.9
  0
ENDBLK
  8
0
  0
BLOCK
  8
0
  2
*D1
 70
1
 10
0
 20
0
 30
0
  0
LINE
  8
0
 62
7
 10
6.38732609294272
 20
11.4573984020326
 30
0
 11
7.425
 21
11.4573984020326
 31
0
  0
LINE
  8
0
 62
7
 10
4.664999999999999
 20
11.4573984020326
 30
0
 11
5.712326092942719
 21
11.4573984020326
 31
0
  0
LINE
  8
0
 62
7
 10
7.425
 20
11.2
 30
0
 11
7.425
 21
11.5073984020326
 31
0
  0
LINE
  8
0
 62
7
 10
4.664999999999999
 20
11.2
 30
0
 11
4.664999999999999
 21
11.5073984020326
 31
0
  0
LINE
  8
0
 62
7
 10
7.389644660940673
 20
11.42204306297327
 30
0
 11
7.460355339059327
 21
11.49275374109193
 31
0
  0
LINE
  8
0
 62
7
 10
4.700355339059326
 20
11.49275374109193
 30
0
 11
4.629644660940672
 21
11.42204306297327
 31
0
  0
TEXT
  8
0
 62
7
 10
5.912326092942719
 20
11.4123984020326
 30
0
 40
0.1
  1
2,76
 41
0.9
  0
ENDBLK
  8
0
  0
BLOCK
  8
0
  2
*D2
 70
1
 10
0
 20
0
 30
0
  0
LINE
  8
0
 62
7
 10
4.19864568585704
 20
4.553245858456821
 30
0
 11
4.19864568585704
 21
5.020000000000001
 31
0
  0
LINE
  8
0
 62
7
 10
4.19864568585704
 20
3.25
 30
0
 11
4.19864568585704
 21
3.80824585845682
 31
0
  0
LINE
  8
0
 62
7
 10
4.49
 20
5.020000000000001
 30
0
 11
4.14864568585704
 21
5.020000000000001
 31
0
  0
LINE
  8
0
 62
7
 10
4.49
 20
3.25
 30
0
 11
4.14864568585704
 21
3.25
 31
0
  0
LINE
  8
0
 62
7
 10
4.163290346797712
 20
3.285355339059327
 30
0
 11
4.234001024916367
 21
3.214644660940673
 31
0
  0
LINE
  8
0
 62
7
 10
4.234001024916367
 20
4.984644660940674
 30
0
 11
4.163290346797712
 21
5.055355339059329
 31
0
  0
TEXT
  8
0
 62
7
 10
4.243645685857039
 20
4.058245858456821
 30
0
 40
0.1
  1
1,77
 50
90
 41
0.9
  0
ENDBLK
  8
0
  0
BLOCK
  8
0
  2
*D3
 70
1
 10
0
 20
0
 30
0
  0
LINE
  8
0
 62
7
 10
6.50718195736104
 20
5.90385718077556
 30
0
 11
7.425
 21
5.90385718077556
 31
0
  0
LINE
  8
0
 62
7
 10
4.665
 20
5.90385718077556
 30
0
 11
5.73218195736104
 21
5.90385718077556
 31
0
  0
LINE
  8
0
 62
7
 10
7.425
 20
5.539999999999998
 30
0
 11
7.425
 21
5.95385718077556
 31
0
  0
LINE
  8
0
 62
7
 10
4.665
 20
5.539999999999998
 30
0
 11
4.665
 21
5.95385718077556
 31
0
  0
LINE
  8
0
 62
7
 10
4.700355339059327
 20
5.939212519834888
 30
0
 11
4.629644660940673
 21
5.868501841716233
 31
0
  0
LINE
  8
0
 62
7
 10
7.389644660940673
 20
5.868501841716233
 30
0
 11
7.460355339059327
 21
5.939212519834888
 31
0
  0
TEXT
  8
0
 62
7
 10
5.98218195736104
 20
5.85885718077556
 30
0
 40
0.1
  1
2,76
 41
0.9
  0
ENDBLK
  8
0
  0
BLOCK
  8
0
  2
*D4
 70
1
 10
0
 20
0
 30
0
  0
LINE
  8
0
 62
7
 10
7.947577076307271
 20
4.553245858456821
 30
0
 11
7.947577076307271
 21
5.020000000000001
 31
0
  0
LINE
  8
0
 62
7
 10
7.947577076307271
 20
3.35
 30
0
 11
7.947577076307271
 21
3.80824585845682
 31
0
  0
LINE
  8
0
 62
7
 10
7.600000000000001
 20
5.020000000000001
 30
0
 11
7.99757707630727
 21
5.020000000000001
 31
0
  0
LINE
  8
0
 62
7
 10
7.600000000000001
 20
3.35
 30
0
 11
7.99757707630727
 21
3.35
 31
0
  0
LINE
  8
0
 62
7
 10
7.982932415366598
 20
4.984644660940674
 30
0
 11
7.912221737247943
 21
5.055355339059329
 31
0
  0
LINE
  8
0
 62
7
 10
7.912221737247943
 20
3.385355339059327
 30
0
 11
7.982932415366598
 21
3.314644660940673
 31
0
  0
TEXT
  8
0
 62
7
 10
7.992577076307271
 20
4.058245858456821
 30
0
 40
0.1
  1
1,67
 50
90
 41
0.9
  0
ENDBLK
  8
0
  0
ENDSEC
  0
SECTION
  2
ENTITIES
  0
INSERT
  8
0
  2
*X0
 10
0
 20
0
 30
0
  0
INSERT
  8
0
  2
*X1
 10
0
 20
0
 30
0
  0
INSERT
  8
0
  2
*X2
 10
0
 20
0
 30
0
  0
INSERT
  8
0
  2
*X3
 10
0
 20
0
 30
0
  0
INSERT
  8
0
  2
*X4
 10
0
 20
0
 30
0
  0
INSERT
  8
0
  2
*X5
 10
0
 20
0
 30
0
  0
INSERT
  8
0
  2
*X6
 10
0
 20
0
 30
0
  0
INSERT
  8
0
  2
*X7
 10
0
 20
0
 30
0
  0
INSERT
  8
0
  2
*X8
 10
0
 20
0
 30
0
  0
INSERT
  8
0
  2
*X9
 10
0
 20
0
 30
0
  0
INSERT
  8
0
  2
*X10
 10
0
 20
0
 30
0
  0
INSERT
  8
0
  2
*X11
 10
0
 20
0
 30
0
  0
INSERT
  8
0
  2
*X12
 10
0
 20
0
 30
0
  0
INSERT
  8
0
  2
*X13
 10
0
 20
0
 30
0
  0
INSERT
  8
0
  2
*X14
 10
0
 20
0
 30
0
  0
INSERT
  8
0
  2
*X15
 10
0
 20
0
 30
0
  0
INSERT
  8
0
  2
*X16
 10
0
 20
0
 30
0
  0
LINE
  8
0
 62
7
 10
6.31
 20
3.846541602518554
 30
0
 11
6.31
 21
3.633767712136283
 31
0
  0
LINE
  8
0
 62
7
 10
6.270481758766051
 20
3.905000000000003
 30
0
 11
6.31
 21
3.846541602518554
 31
0
  0
LINE
  8
0
 62
7
 10
6.126285003167592
 20
3.905000000000003
 30
0
 11
6.21750633733505
 21
3.905000000000001
 31
0
  0
LINE
  8
0
 62
7
 10
6.126285003167592
 20
3.905000000000003
 30
0
 11
6.270481758766051
 21
3.905000000000003
 31
0
  0
LINE
  8
0
 62
7
 10
5.841010401031131
 20
3.905000000000001
 30
0
 11
6.006413797737827
 21
3.905000000000001
 31
0
  0
LINE
  8
0
 62
7
 10
5.780000000000001
 20
3.848577121514206
 30
0
 11
5.841010401031131
 21
3.905000000000001
 31
0
  0
LINE
  8
0
 62
7
 10
5.780000000000001
 20
3.645803822138653
 30
0
 11
5.780000000000001
 21
3.752028352893665
 31
0
  0
LINE
  8
0
 62
7
 10
5.780000000000001
 20
3.645803822138653
 30
0
 11
5.780000000000001
 21
3.848577121514206
 31
0
  0
LINE
  8
0
 62
7
 10
7.370000000000001
 20
3.760742041055911
 30
0
 11
6.31
 21
3.5161857018328
 31
0
  0
LINE
  8
0
 62
7
 10
6.31
 20
3.5161857018328
 30
0
 11
6.31
 21
3.380000000000001
 31
0
  0
LINE
  8
0
 62
7
 10
7.370000000000001
 20
3.380000000000001
 30
0
 11
7.370000000000001
 21
3.760742041055911
 31
0
  0
LINE
  8
0
 62
7
 10
7.370000000000001
 20
4.12153461220346
 30
0
 11
6.31
 21
3.631684910050462
 31
0
  0
LINE
  8
0
 62
7
 10
6.31
 20
3.631684910050462
 30
0
 11
6.31
 21
3.423821462391301
 31
0
  0
LINE
  8
0
 62
7
 10
7.370000000000001
 20
3.668377801614414
 30
0
 11
7.370000000000001
 21
4.12153461220346
 31
0
  0
LINE
  8
0
 62
7
 10
7.370000000000001
 20
4.547714344256091
 30
0
 11
6.31
 21
3.746580937935903
 31
0
  0
LINE
  8
0
 62
7
 10
6.31
 20
3.746580937935903
 30
0
 11
6.31
 21
3.532539500089322
 31
0
  0
LINE
  8
0
 62
7
 10
7.370000000000001
 20
4.022389202242322
 30
0
 11
7.370000000000001
 21
4.547714344256091
 31
0
  0
LINE
  8
0
 62
7
 10
7.171103892054941
 20
4.965000000000003
 30
0
 11
6.31
 21
3.856116351816692
 31
0
  0
LINE
  8
0
 62
7
 10
6.31
 20
3.856116351816692
 30
0
 11
6.31
 21
3.846541602518554
 31
0
  0
LINE
  8
0
 62
7
 10
7.370000000000001
 20
4.434901118456472
 30
0
 11
7.370000000000001
 21
4.965000000000003
 31
0
  0
LINE
  8
0
 62
7
 10
7.370000000000001
 20
4.965000000000003
 30
0
 11
7.171103892054941
 21
4.965000000000003
 31
0
  0
LINE
  8
0
 62
7
 10
6.688882808350842
 20
4.965000000000003
 30
0
 11
6.244417707023118
 21
3.943555933897584
 31
0
  0
LINE
  8
0
 62
7
 10
6.244417707023118
 20
3.943555933897584
 30
0
 11
6.270481758766051
 21
3.905000000000003
 31
0
  0
LINE
  8
0
 62
7
 10
7.285053642197891
 20
4.965000000000003
 30
0
 11
6.688882808350842
 21
4.965000000000003
 31
0
  0
LINE
  8
0
 62
7
 10
6.3015056466725
 20
4.965000000000003
 30
0
 11
6.126285003167592
 21
3.905000000000003
 31
0
  0
LINE
  8
0
 62
7
 10
6.787034055673951
 20
4.965000000000003
 30
0
 11
6.3015056466725
 21
4.965000000000003
 31
0
  0
LINE
  8
0
 62
7
 10
5.934132176914818
 20
4.965000000000003
 30
0
 11
6.020423305551731
 21
3.905000000000001
 31
0
  0
LINE
  8
0
 62
7
 10
6.020423305551731
 20
3.905000000000001
 30
0
 11
6.126285003167592
 21
3.905000000000003
 31
0
  0
LINE
  8
0
 62
7
 10
6.392726980839971
 20
4.965000000000003
 30
0
 11
5.934132176914818
 21
4.965000000000003
 31
0
  0
LINE
  8
0
 62
7
 10
5.566579923713639
 20
4.965000000000003
 30
0
 11
5.911762046845412
 21
3.905000000000001
 31
0
  0
LINE
  8
0
 62
7
 10
5.911762046845412
 20
3.905000000000001
 30
0
 11
6.11072103057656
 21
3.905000000000001
 31
0
  0
LINE
  8
0
 62
7
 10
6.024429901939647
 20
4.965000000000003
 30
0
 11
5.566579923713639
 21
4.965000000000003
 31
0
  0
LINE
  8
0
 62
7
 10
5.133480425463098
 20
4.965000000000003
 30
0
 11
5.803408033976471
 21
3.905000000000001
 31
0
  0
LINE
  8
0
 62
7
 10
5.803408033976471
 20
3.905000000000001
 30
0
 11
5.841010401031131
 21
3.905000000000001
 31
0
  0
LINE
  8
0
 62
7
 10
5.661231674606061
 20
4.965000000000003
 30
0
 11
5.133480425463098
 21
4.965000000000003
 31
0
  0
LINE
  8
0
 62
7
 10
4.720000000000001
 20
4.834087052570641
 30
0
 11
5.727318628890171
 21
3.799856992645053
 31
0
  0
LINE
  8
0
 62
7
 10
5.727318628890171
 20
3.799856992645053
 30
0
 11
5.780000000000001
 21
3.848577121514206
 31
0
  0
LINE
  8
0
 62
7
 10
5.239948298035269
 20
4.965000000000003
 30
0
 11
4.720000000000001
 21
4.965000000000003
 31
0
  0
LINE
  8
0
 62
7
 10
4.720000000000001
 20
4.965000000000003
 30
0
 11
4.720000000000001
 21
4.834087052570641
 31
0
  0
LINE
  8
0
 62
7
 10
4.720000000000001
 20
4.310351397707882
 30
0
 11
5.780000000000001
 21
3.645803822138653
 31
0
  0
LINE
  8
0
 62
7
 10
4.720000000000001
 20
4.963077668464223
 30
0
 11
4.720000000000001
 21
4.310351397707882
 31
0
  0
LINE
  8
0
 62
7
 10
4.720000000000001
 20
3.93785883903418
 30
0
 11
5.780000000000001
 21
3.529032873322512
 31
0
  0
LINE
  8
0
 62
7
 10
5.780000000000001
 20
3.529032873322512
 30
0
 11
5.780000000000001
 21
3.645803822138653
 31
0
  0
LINE
  8
0
 62
7
 10
4.720000000000001
 20
4.41657592846289
 30
0
 11
4.720000000000001
 21
3.93785883903418
 31
0
  0
LINE
  8
0
 62
7
 10
4.720000000000001
 20
3.58042950053312
 30
0
 11
5.780000000000001
 21
3.408896033867231
 31
0
  0
LINE
  8
0
 62
7
 10
5.780000000000001
 20
3.408896033867231
 30
0
 11
5.780000000000001
 21
3.62549477178076
 31
0
  0
LINE
  8
0
 62
7
 10
4.720000000000001
 20
4.034320737492433
 30
0
 11
4.720000000000001
 21
3.58042950053312
 31
0
  0
LINE
  8
0
 62
7
 10
4.720000000000001
 20
3.250000000000001
 30
0
 11
5.780000000000001
 21
3.250000000000001
 31
0
  0
LINE
  8
0
 62
7
 10
5.780000000000001
 20
3.250000000000001
 30
0
 11
5.780000000000001
 21
3.500066834140432
 31
0
  0
LINE
  8
0
 62
7
 10
4.720000000000001
 20
3.671600300806321
 30
0
 11
4.720000000000001
 21
3.250000000000001
 31
0
  0
LINE
  8
0
 62
7
 10
5.1552227703211
 20
3.250000000000001
 30
0
 11
5.1552227703211
 21
3.905000164313532
 31
0
  0
LINE
  8
0
 62
7
 10
5.779999835688152
 20
4.529777229678902
 30
0
 11
6.310000164314148
 21
4.529777229678902
 31
0
  0
LINE
  8
0
 62
7
 10
6.934777229678891
 20
3.400000000000001
 30
0
 11
6.829122130417201
 21
3.461000000000001
 31
0
  0
LINE
  8
0
 62
7
 10
6.829122130417201
 20
3.461000000000001
 30
0
 11
7.040432328940603
 21
3.461000000000001
 31
0
  0
LINE
  8
0
 62
7
 10
7.040432328940603
 20
3.461000000000001
 30
0
 11
6.934777229678891
 21
3.400000000000001
 31
0
  0
LINE
  8
0
 62
7
 10
6.934777229678891
 20
3.905000164310911
 30
0
 11
6.934777229678891
 21
3.400000000000001
 31
0
  0
LINE
  8
0
 62
7
  6
DASHED
 10
6.31000031
 20
10.96666666666667
 30
0
 11
7.370000000000001
 21
10.96666666666667
 31
0
  0
LINE
  8
0
 62
7
  6
DASHED
 10
6.31000031
 20
10.90166666666667
 30
0
 11
6.31000031
 21
10.96666666666667
 31
0
  0
LINE
  8
0
 62
7
  6
DASHED
 10
7.370000000000001
 20
10.96666666666667
 30
0
 11
7.370000000000001
 21
10.90166666666667
 31
0
  0
LINE
  8
0
 62
7
  6
DASHED
 10
7.370000000000001
 20
10.90166666666667
 30
0
 11
6.31000031
 21
10.90166666666667
 31
0
  0
LINE
  8
0
 62
7
 10
6.309999850000001
 20
10.78333322666666
 30
0
 11
7.370000000000001
 21
10.78333322666666
 31
0
  0
LINE
  8
0
 62
7
 10
6.309999850000001
 20
10.71833322666666
 30
0
 11
6.309999850000001
 21
10.78333322666666
 31
0
  0
LINE
  8
0
 62
7
 10
7.370000000000001
 20
10.78333322666666
 30
0
 11
7.370000000000001
 21
10.71833322666666
 31
0
  0
LINE
  8
0
 62
7
 10
7.370000000000001
 20
10.71833322666666
 30
0
 11
6.309999850000001
 21
10.71833322666666
 31
0
  0
LINE
  8
0
 62
7
 10
6.309999850000001
 20
10.59999994666667
 30
0
 11
7.370000000000001
 21
10.59999994666667
 31
0
  0
LINE
  8
0
 62
7
 10
6.309999850000001
 20
10.53499994666667
 30
0
 11
6.309999850000001
 21
10.59999994666667
 31
0
  0
LINE
  8
0
 62
7
 10
7.370000000000001
 20
10.59999994666667
 30
0
 11
7.370000000000001
 21
10.53499994666667
 31
0
  0
LINE
  8
0
 62
7
 10
7.370000000000001
 20
10.53499994666667
 30
0
 11
6.309999850000001
 21
10.53499994666667
 31
0
  0
LINE
  8
0
 62
7
 10
6.31000016
 20
10.41666666666667
 30
0
 11
7.370000000000001
 21
10.41666666666667
 31
0
  0
LINE
  8
0
 62
7
 10
7.370000000000001
 20
10.35166666666667
 30
0
 11
6.31000016
 21
10.35166666666667
 31
0
  0
LINE
  8
0
 62
7
 10
6.31000016
 20
10.35166666666667
 30
0
 11
6.31000016
 21
10.41666666666667
 31
0
  0
LINE
  8
0
 62
7
 10
7.370000000000001
 20
10.41666666666667
 30
0
 11
7.370000000000001
 21
10.35166666666667
 31
0
  0
LINE
  8
0
 62
7
 10
7.285053100000003
 20
10.16833322666666
 30
0
 11
6.244417880000001
 21
10.16833322666666
 31
0
  0
LINE
  8
0
 62
7
 10
6.244417880000001
 20
10.23333322666666
 30
0
 11
7.285053100000003
 21
10.23333322666666
 31
0
  0
LINE
  8
0
 62
7
 10
6.244417880000001
 20
10.16833322666666
 30
0
 11
6.244417880000001
 21
10.23333322666666
 31
0
  0
LINE
  8
0
 62
7
 10
7.285053100000003
 20
10.23333322666666
 30
0
 11
7.285053100000003
 21
10.16833322666666
 31
0
  0
LINE
  8
0
 62
7
 10
6.78703415
 20
9.984999946666671
 30
0
 11
6.126284949999999
 21
9.984999946666671
 31
0
  0
LINE
  8
0
 62
7
 10
6.126284949999999
 20
10.04999994666667
 30
0
 11
6.78703415
 21
10.04999994666667
 31
0
  0
LINE
  8
0
 62
7
 10
6.126284949999999
 20
9.984999946666671
 30
0
 11
6.126284949999999
 21
10.04999994666667
 31
0
  0
LINE
  8
0
 62
7
 10
6.78703415
 20
10.04999994666667
 30
0
 11
6.78703415
 21
9.984999946666671
 31
0
  0
LINE
  8
0
 62
7
 10
6.392727049999999
 20
9.801666666666669
 30
0
 11
5.93413208
 21
9.801666666666669
 31
0
  0
LINE
  8
0
 62
7
 10
5.93413208
 20
9.866666666666671
 30
0
 11
6.392727049999999
 21
9.866666666666671
 31
0
  0
LINE
  8
0
 62
7
 10
5.93413208
 20
9.801666666666669
 30
0
 11
5.93413208
 21
9.866666666666671
 31
0
  0
LINE
  8
0
 62
7
 10
6.392727049999999
 20
9.866666666666671
 30
0
 11
6.392727049999999
 21
9.801666666666669
 31
0
  0
LINE
  8
0
 62
7
 10
6.110721289999998
 20
9.618333226666662
 30
0
 11
5.566579899999997
 21
9.618333226666662
 31
0
  0
LINE
  8
0
 62
7
 10
5.566579899999997
 20
9.683333226666662
 30
0
 11
6.110721289999998
 21
9.683333226666662
 31
0
  0
LINE
  8
0
 62
7
 10
5.566579899999997
 20
9.618333226666662
 30
0
 11
5.566579899999997
 21
9.683333226666662
 31
0
  0
LINE
  8
0
 62
7
 10
6.110721289999998
 20
9.683333226666662
 30
0
 11
6.110721289999998
 21
9.618333226666662
 31
0
  0
LINE
  8
0
 62
7
 10
6.00641404
 20
9.43499994666667
 30
0
 11
5.133480380000002
 21
9.43499994666667
 31
0
  0
LINE
  8
0
 62
7
 10
5.133480380000002
 20
9.499999946666671
 30
0
 11
6.00641404
 21
9.499999946666671
 31
0
  0
LINE
  8
0
 62
7
 10
5.133480380000002
 20
9.43499994666667
 30
0
 11
5.133480380000002
 21
9.499999946666671
 31
0
  0
LINE
  8
0
 62
7
 10
6.00641404
 20
9.499999946666671
 30
0
 11
6.00641404
 21
9.43499994666667
 31
0
  0
LINE
  8
0
 62
7
 10
5.884472659999997
 20
9.251666586666671
 30
0
 11
4.719999899999999
 21
9.251666586666671
 31
0
  0
LINE
  8
0
 62
7
 10
4.719999899999999
 20
9.31666658666667
 30
0
 11
5.884472659999997
 21
9.31666658666667
 31
0
  0
LINE
  8
0
 62
7
 10
4.719999899999999
 20
9.251666586666671
 30
0
 11
4.719999899999999
 21
9.31666658666667
 31
0
  0
LINE
  8
0
 62
7
 10
5.884472659999997
 20
9.31666658666667
 30
0
 11
5.884472659999997
 21
9.251666586666671
 31
0
  0
LINE
  8
0
 62
7
 10
4.719999949999997
 20
9.133333226666661
 30
0
 11
5.780000080000002
 21
9.133333226666661
 31
0
  0
LINE
  8
0
 62
7
 10
4.719999949999997
 20
9.068333226666661
 30
0
 11
4.719999949999997
 21
9.133333226666661
 31
0
  0
LINE
  8
0
 62
7
 10
5.780000080000002
 20
9.133333226666661
 30
0
 11
5.780000080000002
 21
9.068333226666661
 31
0
  0
LINE
  8
0
 62
7
 10
5.780000080000002
 20
9.068333226666661
 30
0
 11
4.719999949999997
 21
9.068333226666661
 31
0
  0
LINE
  8
0
 62
7
 10
4.71999989
 20
8.949999906666671
 30
0
 11
5.78000016
 21
8.949999906666671
 31
0
  0
LINE
  8
0
 62
7
 10
4.71999989
 20
8.884999906666669
 30
0
 11
4.71999989
 21
8.949999906666671
 31
0
  0
LINE
  8
0
 62
7
 10
5.78000016
 20
8.949999906666671
 30
0
 11
5.78000016
 21
8.884999906666669
 31
0
  0
LINE
  8
0
 62
7
 10
5.78000016
 20
8.884999906666669
 30
0
 11
4.71999989
 21
8.884999906666669
 31
0
  0
LINE
  8
0
 62
7
 10
4.719999659999998
 20
8.766666566666661
 30
0
 11
5.780000000000001
 21
8.766666566666661
 31
0
  0
LINE
  8
0
 62
7
 10
4.719999659999998
 20
8.70166656666666
 30
0
 11
4.719999659999998
 21
8.766666566666661
 31
0
  0
LINE
  8
0
 62
7
 10
5.780000000000001
 20
8.766666566666661
 30
0
 11
5.780000000000001
 21
8.70166656666666
 31
0
  0
LINE
  8
0
 62
7
 10
5.780000000000001
 20
8.70166656666666
 30
0
 11
4.719999659999998
 21
8.70166656666666
 31
0
  0
LINE
  8
0
 62
7
 10
4.719999939999998
 20
8.58333322666666
 30
0
 11
5.779999929999999
 21
8.58333322666666
 31
0
  0
LINE
  8
0
 62
7
 10
4.719999939999998
 20
8.518333226666661
 30
0
 11
4.719999939999998
 21
8.58333322666666
 31
0
  0
LINE
  8
0
 62
7
 10
5.779999929999999
 20
8.58333322666666
 30
0
 11
5.779999929999999
 21
8.518333226666661
 31
0
  0
LINE
  8
0
 62
7
 10
5.779999929999999
 20
8.518333226666661
 30
0
 11
4.719999939999998
 21
8.518333226666661
 31
0
  0
LINE
  8
0
 62
7
 10
1.99925773999999
 20
10.96666666666667
 30
0
 11
2.38
 21
10.96666666666667
 31
0
  0
LINE
  8
0
 62
7
 10
2.38
 20
10.90166666666667
 30
0
 11
1.99925773999999
 21
10.90166666666667
 31
0
  0
LINE
  8
0
 62
7
 10
2.38
 20
10.96666666666667
 30
0
 11
2.38
 21
10.90166666666667
 31
0
  0
LINE
  8
0
 62
7
 10
1.99925773999999
 20
10.90166666666667
 30
0
 11
1.99925773999999
 21
10.96666666666667
 31
0
  0
LINE
  8
0
 62
7
 10
2.336179129999997
 20
10.71833322666666
 30
0
 11
1.63846543
 21
10.71833322666666
 31
0
  0
LINE
  8
0
 62
7
 10
1.63846543
 20
10.78333322666666
 30
0
 11
2.336179129999997
 21
10.78333322666666
 31
0
  0
LINE
  8
0
 62
7
 10
2.336179129999997
 20
10.78333322666666
 30
0
 11
2.336179129999997
 21
10.71833322666666
 31
0
  0
LINE
  8
0
 62
7
 10
1.63846543
 20
10.71833322666666
 30
0
 11
1.63846543
 21
10.78333322666666
 31
0
  0
LINE
  8
0
 62
7
 10
2.227461019999999
 20
10.53499994666667
 30
0
 11
1.212286529999998
 21
10.53499994666667
 31
0
  0
LINE
  8
0
 62
7
 10
1.212286529999998
 20
10.59999994666667
 30
0
 11
2.227461019999999
 21
10.59999994666667
 31
0
  0
LINE
  8
0
 62
7
 10
2.227461019999999
 20
10.59999994666667
 30
0
 11
2.227461019999999
 21
10.53499994666667
 31
0
  0
LINE
  8
0
 62
7
 10
1.212286529999998
 20
10.53499994666667
 30
0
 11
1.212286529999998
 21
10.59999994666667
 31
0
  0
LINE
  8
0
 62
7
 10
2.126233069999998
 20
10.35166666666667
 30
0
 11
0.7950001599999996
 21
10.35166666666667
 31
0
  0
LINE
  8
0
 62
7
 10
0.7950001599999996
 20
10.41666666666667
 30
0
 11
2.126233069999998
 21
10.41666666666667
 31
0
  0
LINE
  8
0
 62
7
 10
2.126233069999998
 20
10.41666666666667
 30
0
 11
2.126233069999998
 21
10.35166666666667
 31
0
  0
LINE
  8
0
 62
7
 10
0.7950001599999996
 20
10.35166666666667
 30
0
 11
0.7950001599999996
 21
10.41666666666667
 31
0
  0
LINE
  8
0
 62
7
 10
0.795
 20
10.23333322666666
 30
0
 11
1.986787339999999
 21
10.23333322666666
 31
0
  0
LINE
  8
0
 62
7
 10
1.986787339999999
 20
10.16833322666666
 30
0
 11
0.795
 21
10.16833322666666
 31
0
  0
LINE
  8
0
 62
7
 10
1.986787339999999
 20
10.23333322666666
 30
0
 11
1.986787339999999
 21
10.16833322666666
 31
0
  0
LINE
  8
0
 62
7
 10
0.795
 20
10.16833322666666
 30
0
 11
0.795
 21
10.23333322666666
 31
0
  0
LINE
  8
0
 62
7
 10
0.7949995400000007
 20
10.04999994666667
 30
0
 11
1.85500016
 21
10.04999994666667
 31
0
  0
LINE
  8
0
 62
7
 10
1.85500016
 20
10.04999994666667
 30
0
 11
1.85500016
 21
9.984999946666671
 31
0
  0
LINE
  8
0
 62
7
 10
0.7949995400000007
 20
9.984999946666671
 30
0
 11
0.7949995400000007
 21
10.04999994666667
 31
0
  0
LINE
  8
0
 62
7
 10
1.85500016
 20
9.984999946666671
 30
0
 11
0.7949995400000007
 21
9.984999946666671
 31
0
  0
LINE
  8
0
 62
7
 10
0.7949998500000004
 20
9.866666666666671
 30
0
 11
1.855000080000002
 21
9.866666666666671
 31
0
  0
LINE
  8
0
 62
7
 10
1.855000080000002
 20
9.866666666666671
 30
0
 11
1.855000080000002
 21
9.801666666666669
 31
0
  0
LINE
  8
0
 62
7
 10
0.7949998500000004
 20
9.801666666666669
 30
0
 11
0.7949998500000004
 21
9.866666666666671
 31
0
  0
LINE
  8
0
 62
7
 10
1.855000080000002
 20
9.801666666666669
 30
0
 11
0.7949998500000004
 21
9.801666666666669
 31
0
  0
LINE
  8
0
 62
7
 10
0.7949996999999969
 20
9.683333226666662
 30
0
 11
1.855000080000002
 21
9.683333226666662
 31
0
  0
LINE
  8
0
 62
7
 10
1.855000080000002
 20
9.683333226666662
 30
0
 11
1.855000080000002
 21
9.618333226666662
 31
0
  0
LINE
  8
0
 62
7
 10
0.7949996999999969
 20
9.618333226666662
 30
0
 11
0.7949996999999969
 21
9.683333226666662
 31
0
  0
LINE
  8
0
 62
7
 10
1.855000080000002
 20
9.618333226666662
 30
0
 11
0.7949996999999969
 21
9.618333226666662
 31
0
  0
LINE
  8
0
 62
7
 10
0.795
 20
9.49999994666666
 30
0
 11
1.854999929999998
 21
9.49999994666666
 31
0
  0
LINE
  8
0
 62
7
 10
1.854999929999998
 20
9.49999994666666
 30
0
 11
1.854999929999998
 21
9.434999946666661
 31
0
  0
LINE
  8
0
 62
7
 10
0.795
 20
9.434999946666661
 30
0
 11
0.795
 21
9.49999994666666
 31
0
  0
LINE
  8
0
 62
7
 10
1.854999929999998
 20
9.434999946666661
 30
0
 11
0.795
 21
9.434999946666661
 31
0
  0
LINE
  8
0
 62
7
 10
1.960142899999999
 20
9.251666586666671
 30
0
 11
0.795
 21
9.251666586666671
 31
0
  0
LINE
  8
0
 62
7
 10
0.795
 20
9.31666658666667
 30
0
 11
1.960142899999999
 21
9.31666658666667
 31
0
  0
LINE
  8
0
 62
7
 10
1.960142899999999
 20
9.31666658666667
 30
0
 11
1.960142899999999
 21
9.251666586666671
 31
0
  0
LINE
  8
0
 62
7
 10
0.795
 20
9.251666586666671
 30
0
 11
0.795
 21
9.31666658666667
 31
0
  0
LINE
  8
0
 62
7
 10
2.11419686
 20
9.068333226666661
 30
0
 11
0.796922609999998
 21
9.068333226666661
 31
0
  0
LINE
  8
0
 62
7
 10
0.796922609999998
 20
9.133333226666661
 30
0
 11
2.11419686
 21
9.133333226666661
 31
0
  0
LINE
  8
0
 62
7
 10
2.11419686
 20
9.133333226666661
 30
0
 11
2.11419686
 21
9.068333226666661
 31
0
  0
LINE
  8
0
 62
7
 10
0.796922609999998
 20
9.068333226666661
 30
0
 11
0.796922609999998
 21
9.133333226666661
 31
0
  0
LINE
  8
0
 62
7
 10
2.230968019999997
 20
8.884999906666669
 30
0
 11
1.343424069999997
 21
8.884999906666669
 31
0
  0
LINE
  8
0
 62
7
 10
1.343424069999997
 20
8.949999906666671
 30
0
 11
2.230968019999997
 21
8.949999906666671
 31
0
  0
LINE
  8
0
 62
7
 10
2.230968019999997
 20
8.949999906666671
 30
0
 11
2.230968019999997
 21
8.884999906666669
 31
0
  0
LINE
  8
0
 62
7
 10
1.343424069999997
 20
8.884999906666669
 30
0
 11
1.343424069999997
 21
8.949999906666671
 31
0
  0
LINE
  8
0
 62
7
 10
2.351104819999997
 20
8.70166656666666
 30
0
 11
1.725679859999997
 21
8.70166656666666
 31
0
  0
LINE
  8
0
 62
7
 10
1.725679859999997
 20
8.766666566666661
 30
0
 11
2.351104819999997
 21
8.766666566666661
 31
0
  0
LINE
  8
0
 62
7
 10
2.351104819999997
 20
8.766666566666661
 30
0
 11
2.351104819999997
 21
8.70166656666666
 31
0
  0
LINE
  8
0
 62
7
 10
1.725679859999997
 20
8.70166656666666
 30
0
 11
1.725679859999997
 21
8.766666566666661
 31
0
  0
LINE
  8
0
 62
7
 10
2.088399659999999
 20
8.58333322666666
 30
0
 11
2.51000073
 21
8.58333322666666
 31
0
  0
LINE
  8
0
 62
7
 10
2.51000073
 20
8.518333226666661
 30
0
 11
2.088399659999999
 21
8.518333226666661
 31
0
  0
LINE
  8
0
 62
7
 10
2.51000073
 20
8.58333322666666
 30
0
 11
2.51000073
 21
8.518333226666661
 31
0
  0
LINE
  8
0
 62
7
 10
2.088399659999999
 20
8.518333226666661
 30
0
 11
2.088399659999999
 21
8.58333322666666
 31
0
  0
LINE
  8
0
 62
7
 10
7.600000000000001
 20
8.099999999999996
 30
0
 11
7.75
 21
8.099999999999998
 31
0
  0
LINE
  8
0
 62
7
 10
7.600000000000001
 20
8.300000000000001
 30
0
 11
7.75
 21
8.300000000000001
 31
0
  0
LINE
  8
0
 62
7
 10
7.600000000000001
 20
10.85
 30
0
 11
7.75
 21
10.85
 31
0
  0
LINE
  8
0
 62
7
 10
7.600000000000001
 20
11.05
 30
0
 11
7.75
 21
11.05
 31
0
  0
LINE
  8
0
 62
7
 10
7.600000000000001
 20
8.099999999999996
 30
0
 11
7.600000000000001
 21
7.949999999999996
 31
0
  0
LINE
  8
0
 62
7
 10
7.425000000000001
 20
8.099999999999996
 30
0
 11
7.600000000000001
 21
8.099999999999996
 31
0
  0
LINE
  8
0
 62
7
 10
7.600000000000001
 20
8.4
 30
0
 11
7.600000000000001
 21
8.300000000000001
 31
0
  0
LINE
  8
0
 62
7
 10
7.425000000000001
 20
8.300000000000001
 30
0
 11
7.600000000000001
 21
8.300000000000001
 31
0
  0
LINE
  8
0
 62
7
 10
7.425000000000001
 20
10.85
 30
0
 11
7.600000000000001
 21
10.85
 31
0
  0
LINE
  8
0
 62
7
 10
7.600000000000001
 20
11.15
 30
0
 11
7.600000000000001
 21
11.05
 31
0
  0
LINE
  8
0
 62
7
 10
7.425000000000001
 20
11.05
 30
0
 11
7.600000000000001
 21
11.05
 31
0
  0
LINE
  8
0
 62
7
 10
7.425000000000001
 20
8.099999999999996
 30
0
 11
7.425000000000001
 21
7.949999999999996
 31
0
  0
LINE
  8
0
 62
7
 10
4.665
 20
8.099999999999996
 30
0
 11
7.425000000000001
 21
8.099999999999996
 31
0
  0
LINE
  8
0
 62
7
 10
7.425000000000001
 20
8.4
 30
0
 11
7.425000000000001
 21
8.300000000000001
 31
0
  0
LINE
  8
0
 62
7
 10
4.665
 20
8.300000000000001
 30
0
 11
7.425000000000001
 21
8.300000000000001
 31
0
  0
LINE
  8
0
 62
7
 10
4.665
 20
10.85
 30
0
 11
7.425000000000001
 21
10.85
 31
0
  0
LINE
  8
0
 62
7
 10
7.425000000000001
 20
11.15
 30
0
 11
7.425000000000001
 21
11.05
 31
0
  0
LINE
  8
0
 62
7
 10
4.665
 20
11.05
 30
0
 11
7.425000000000001
 21
11.05
 31
0
  0
LINE
  8
0
 62
7
 10
4.665
 20
8.099999999999996
 30
0
 11
4.665
 21
7.949999999999996
 31
0
  0
LINE
  8
0
 62
7
 10
4.49
 20
8.099999999999996
 30
0
 11
4.665
 21
8.099999999999996
 31
0
  0
LINE
  8
0
 62
7
 10
4.665
 20
8.4
 30
0
 11
4.665
 21
8.300000000000001
 31
0
  0
LINE
  8
0
 62
7
 10
4.49
 20
8.300000000000001
 30
0
 11
4.665
 21
8.300000000000001
 31
0
  0
LINE
  8
0
 62
7
 10
4.49
 20
10.85
 30
0
 11
4.665
 21
10.85
 31
0
  0
LINE
  8
0
 62
7
 10
4.665
 20
11.15
 30
0
 11
4.665
 21
11.05
 31
0
  0
LINE
  8
0
 62
7
 10
4.49
 20
11.05
 30
0
 11
4.665
 21
11.05
 31
0
  0
LINE
  8
0
 62
7
 10
4.49
 20
8.099999999999996
 30
0
 11
4.49
 21
7.949999999999996
 31
0
  0
LINE
  8
0
 62
7
 10
4.34
 20
8.099999999999998
 30
0
 11
4.49
 21
8.099999999999996
 31
0
  0
LINE
  8
0
 62
7
 10
4.49
 20
8.4
 30
0
 11
4.49
 21
8.300000000000001
 31
0
  0
LINE
  8
0
 62
7
 10
4.34
 20
8.300000000000001
 30
0
 11
4.49
 21
8.300000000000001
 31
0
  0
LINE
  8
0
 62
7
 10
4.34
 20
10.85
 30
0
 11
4.49
 21
10.85
 31
0
  0
LINE
  8
0
 62
7
 10
4.49
 20
11.15
 30
0
 11
4.49
 21
11.05
 31
0
  0
LINE
  8
0
 62
7
 10
4.34
 20
11.05
 30
0
 11
4.49
 21
11.05
 31
0
  0
LINE
  8
0
 62
7
  6
DASHDOT
 10
7.75
 20
8.099999999999998
 30
0
 11
7.75
 21
8.049999999999997
 31
0
  0
LINE
  8
0
 62
7
  6
DASHDOT
 10
7.75
 20
10.85
 30
0
 11
7.75
 21
10.8
 31
0
  0
LINE
  8
0
 62
7
  6
DASHDOT
 10
4.34
 20
8.099999999999998
 30
0
 11
4.34
 21
8.049999999999997
 31
0
  0
LINE
  8
0
 62
7
  6
DASHDOT
 10
4.34
 20
10.85
 30
0
 11
4.34
 21
10.8
 31
0
  0
LINE
  8
0
 62
7
  6
DASHDOT
 10
7.600000000000001
 20
11.2
 30
0
 11
7.65
 21
11.2
 31
0
  0
LINE
  8
0
 62
7
  6
DASHDOT
 10
7.600000000000001
 20
7.949999999999996
 30
0
 11
7.65
 21
7.949999999999996
 31
0
  0
LINE
  8
0
 62
7
  6
DASHDOT
 10
4.665
 20
11.2
 30
0
 11
4.715
 21
11.2
 31
0
  0
LINE
  8
0
 62
7
  6
DASHDOT
 10
4.665
 20
7.949999999999996
 30
0
 11
4.715
 21
7.949999999999996
 31
0
  0
LINE
  8
0
 62
7
 10
7.600000000000001
 20
8.4
 30
0
 11
7.75
 21
8.4
 31
0
  0
LINE
  8
0
 62
7
 10
7.600000000000001
 20
10.85
 30
0
 11
7.600000000000001
 21
8.4
 31
0
  0
LINE
  8
0
 62
7
  6
DASHDOT
 10
7.75
 20
8.450000000000001
 30
0
 11
7.75
 21
8.4
 31
0
  0
LINE
  8
0
 62
7
 10
4.665
 20
8.4
 30
0
 11
7.425000000000001
 21
8.4
 31
0
  0
LINE
  8
0
 62
7
 10
7.425000000000001
 20
10.85
 30
0
 11
7.425000000000001
 21
8.4
 31
0
  0
LINE
  8
0
 62
7
 10
4.665
 20
10.85
 30
0
 11
4.665
 21
8.4
 31
0
  0
LINE
  8
0
 62
7
 10
4.34
 20
8.4
 30
0
 11
4.49
 21
8.4
 31
0
  0
LINE
  8
0
 62
7
 10
4.49
 20
10.85
 30
0
 11
4.49
 21
8.4
 31
0
  0
LINE
  8
0
 62
7
  6
DASHDOT
 10
4.34
 20
8.450000000000001
 30
0
 11
4.34
 21
8.4
 31
0
  0
LINE
  8
0
 62
7
 10
7.600000000000001
 20
11.15
 30
0
 11
7.75
 21
11.15
 31
0
  0
LINE
  8
0
 62
7
 10
7.600000000000001
 20
11.2
 30
0
 11
7.600000000000001
 21
11.15
 31
0
  0
LINE
  8
0
 62
7
  6
DASHDOT
 10
7.75
 20
11.2
 30
0
 11
7.75
 21
11.15
 31
0
  0
LINE
  8
0
 62
7
 10
4.665
 20
11.15
 30
0
 11
7.425000000000001
 21
11.15
 31
0
  0
LINE
  8
0
 62
7
 10
7.425000000000001
 20
11.2
 30
0
 11
7.425000000000001
 21
11.15
 31
0
  0
LINE
  8
0
 62
7
 10
4.665
 20
11.2
 30
0
 11
4.665
 21
11.15
 31
0
  0
LINE
  8
0
 62
7
 10
4.34
 20
11.15
 30
0
 11
4.49
 21
11.15
 31
0
  0
LINE
  8
0
 62
7
 10
4.49
 20
11.2
 30
0
 11
4.49
 21
11.15
 31
0
  0
LINE
  8
0
 62
7
  6
DASHDOT
 10
4.34
 20
11.2
 30
0
 11
4.34
 21
11.15
 31
0
  0
LINE
  8
0
 62
7
  6
DASHDOT
 10
4.34
 20
8.300000000000001
 30
0
 11
4.34
 21
8.099999999999998
 31
0
  0
LINE
  8
0
 62
7
  6
DASHDOT
 10
4.34
 20
8.4
 30
0
 11
4.34
 21
8.300000000000001
 31
0
  0
LINE
  8
0
 62
7
  6
DASHDOT
 10
4.49
 20
7.949999999999996
 30
0
 11
4.665
 21
7.949999999999996
 31
0
  0
LINE
  8
0
 62
7
  6
DASHDOT
 10
4.44
 20
7.949999999999996
 30
0
 11
4.49
 21
7.949999999999996
 31
0
  0
LINE
  8
0
 62
7
  6
DASHDOT
 10
7.75
 20
8.300000000000001
 30
0
 11
7.75
 21
8.099999999999998
 31
0
  0
LINE
  8
0
 62
7
  6
DASHDOT
 10
7.75
 20
8.4
 30
0
 11
7.75
 21
8.300000000000001
 31
0
  0
LINE
  8
0
 62
7
  6
DASHDOT
 10
7.425000000000001
 20
7.949999999999996
 30
0
 11
7.600000000000001
 21
7.949999999999996
 31
0
  0
LINE
  8
0
 62
7
  6
DASHDOT
 10
7.375
 20
7.949999999999996
 30
0
 11
7.425000000000001
 21
7.949999999999996
 31
0
  0
LINE
  8
0
 62
7
  6
DASHDOT
 10
7.75
 20
11.05
 30
0
 11
7.75
 21
10.85
 31
0
  0
LINE
  8
0
 62
7
  6
DASHDOT
 10
7.75
 20
11.15
 30
0
 11
7.75
 21
11.05
 31
0
  0
LINE
  8
0
 62
7
  6
DASHDOT
 10
7.425000000000001
 20
11.2
 30
0
 11
7.600000000000001
 21
11.2
 31
0
  0
LINE
  8
0
 62
7
  6
DASHDOT
 10
7.375
 20
11.2
 30
0
 11
7.425000000000001
 21
11.2
 31
0
  0
LINE
  8
0
 62
7
  6
DASHDOT
 10
4.34
 20
11.05
 30
0
 11
4.34
 21
10.85
 31
0
  0
LINE
  8
0
 62
7
  6
DASHDOT
 10
4.34
 20
11.15
 30
0
 11
4.34
 21
11.05
 31
0
  0
LINE
  8
0
 62
7
  6
DASHDOT
 10
4.49
 20
11.2
 30
0
 11
4.665
 21
11.2
 31
0
  0
LINE
  8
0
 62
7
  6
DASHDOT
 10
4.44
 20
11.2
 30
0
 11
4.49
 21
11.2
 31
0
  0
LINE
  8
0
 62
7
 10
0.5
 20
7.949999999999996
 30
0
 11
0.5
 21
8.099999999999996
 31
0
  0
LINE
  8
0
 62
7
 10
0.7400000000000001
 20
11.2
 30
0
 11
0.7400000000000001
 21
11.05
 31
0
  0
LINE
  8
0
 62
7
 10
0.5
 20
11.05
 30
0
 11
0.7400000000000001
 21
11.05
 31
0
  0
LINE
  8
0
 62
7
 10
0.5
 20
11.05
 30
0
 11
0.5
 21
11.2
 31
0
  0
LINE
  8
0
 62
7
 10
0.7400000000000001
 20
11.05
 30
0
 11
0.7400000000000001
 21
10.85
 31
0
  0
LINE
  8
0
 62
7
 10
0.5
 20
10.85
 30
0
 11
0.7400000000000001
 21
10.85
 31
0
  0
LINE
  8
0
 62
7
 10
0.5
 20
10.85
 30
0
 11
0.5
 21
11.05
 31
0
  0
LINE
  8
0
 62
7
 10
0.7400000000000001
 20
10.85
 30
0
 11
0.7400000000000001
 21
8.300000000000001
 31
0
  0
LINE
  8
0
 62
7
 10
0.5
 20
8.300000000000001
 30
0
 11
0.7400000000000001
 21
8.300000000000001
 31
0
  0
LINE
  8
0
 62
7
 10
0.5
 20
8.300000000000001
 30
0
 11
0.5
 21
10.85
 31
0
  0
LINE
  8
0
 62
7
 10
0.7400000000000001
 20
8.300000000000001
 30
0
 11
0.7400000000000001
 21
8.099999999999996
 31
0
  0
LINE
  8
0
 62
7
 10
0.5
 20
8.099999999999996
 30
0
 11
0.7400000000000001
 21
8.099999999999996
 31
0
  0
LINE
  8
0
 62
7
 10
0.5
 20
8.099999999999996
 30
0
 11
0.5
 21
8.300000000000001
 31
0
  0
LINE
  8
0
 62
7
 10
0.7400000000000001
 20
8.099999999999996
 30
0
 11
0.7400000000000001
 21
7.949999999999996
 31
0
  0
LINE
  8
0
 62
7
 10
2.41
 20
11.05
 30
0
 11
2.41
 21
10.85
 31
0
  0
LINE
  8
0
 62
7
 10
2.41
 20
10.85
 30
0
 11
2.71
 21
10.85
 31
0
  0
LINE
  8
0
 62
7
 10
2.41
 20
11.05
 30
0
 11
2.71
 21
11.05
 31
0
  0
LINE
  8
0
 62
7
 10
2.41
 20
8.300000000000001
 30
0
 11
2.71
 21
8.300000000000001
 31
0
  0
LINE
  8
0
 62
7
 10
2.41
 20
8.300000000000001
 30
0
 11
2.41
 21
8.099999999999998
 31
0
  0
LINE
  8
0
 62
7
 10
2.41
 20
8.099999999999998
 30
0
 11
2.71
 21
8.099999999999998
 31
0
  0
LINE
  8
0
 62
7
  6
DASHDOT
 10
0.45
 20
11.2
 30
0
 11
0.5
 21
11.2
 31
0
  0
LINE
  8
0
 62
7
  6
DASHDOT
 10
2.71
 20
11.2
 30
0
 11
2.71
 21
11.15
 31
0
  0
LINE
  8
0
 62
7
  6
DASHDOT
 10
2.71
 20
8.049999999999997
 30
0
 11
2.71
 21
8.099999999999998
 31
0
  0
LINE
  8
0
 62
7
  6
DASHDOT
 10
0.45
 20
7.949999999999996
 30
0
 11
0.5
 21
7.949999999999996
 31
0
  0
LINE
  8
0
 62
7
 10
2.41
 20
8.4
 30
0
 11
2.71
 21
8.4
 31
0
  0
LINE
  8
0
 62
7
  6
DASHDOT
 10
2.71
 20
8.4
 30
0
 11
2.71
 21
8.450000000000001
 31
0
  0
LINE
  8
0
 62
7
 10
2.41
 20
11.15
 30
0
 11
2.71
 21
11.15
 31
0
  0
LINE
  8
0
 62
7
  6
DASHDOT
 10
2.71
 20
11.15
 30
0
 11
2.71
 21
11.05
 31
0
  0
LINE
  8
0
 62
7
  6
DASHDOT
 10
2.71
 20
8.300000000000001
 30
0
 11
2.71
 21
8.4
 31
0
  0
LINE
  8
0
 62
7
  6
DASHDOT
 10
2.71
 20
8.099999999999998
 30
0
 11
2.71
 21
8.300000000000001
 31
0
  0
LINE
  8
0
 62
7
  6
DASHDOT
 10
0.5
 20
7.949999999999996
 30
0
 11
0.7400000000000001
 21
7.949999999999996
 31
0
  0
LINE
  8
0
 62
7
  6
DASHDOT
 10
0.7400000000000001
 20
7.949999999999996
 30
0
 11
0.79
 21
7.949999999999996
 31
0
  0
LINE
  8
0
 62
7
  6
DASHDOT
 10
0.7400000000000001
 20
11.2
 30
0
 11
0.79
 21
11.2
 31
0
  0
LINE
  8
0
 62
7
  6
DASHDOT
 10
0.5
 20
11.2
 30
0
 11
0.7400000000000001
 21
11.2
 31
0
  0
LINE
  8
0
 62
7
  6
DASHDOT
 10
2.71
 20
10.85
 30
0
 11
2.71
 21
10.8
 31
0
  0
LINE
  8
0
 62
7
  6
DASHDOT
 10
2.71
 20
11.05
 30
0
 11
2.71
 21
10.85
 31
0
  0
LINE
  8
0
 62
7
  6
DASHED
 10
0.7400000000000001
 20
11.05
 30
0
 11
2.41
 21
11.05
 31
0
  0
LINE
  8
0
 62
7
  6
DASHED
 10
0.7400000000000001
 20
10.85
 30
0
 11
2.41
 21
10.85
 31
0
  0
LINE
  8
0
 62
7
  6
DASHED
 10
0.7400000000000001
 20
8.300000000000001
 30
0
 11
2.41
 21
8.300000000000001
 31
0
  0
LINE
  8
0
 62
7
  6
DASHED
 10
0.7400000000000001
 20
8.099999999999996
 30
0
 11
2.41
 21
8.099999999999998
 31
0
  0
LINE
  8
0
 62
7
 10
4.34
 20
5.539999999999999
 30
0
 11
4.49
 21
5.539999999999999
 31
0
  0
LINE
  8
0
 62
7
 10
4.49
 20
5.539999999999999
 30
0
 11
4.49
 21
5.689999999999999
 31
0
  0
LINE
  8
0
 62
7
 10
4.665
 20
5.689999999999999
 30
0
 11
4.665
 21
5.539999999999999
 31
0
  0
LINE
  8
0
 62
7
 10
4.665
 20
5.539999999999999
 30
0
 11
7.425000000000001
 21
5.539999999999999
 31
0
  0
LINE
  8
0
 62
7
 10
7.425000000000001
 20
5.539999999999999
 30
0
 11
7.425000000000001
 21
5.689999999999999
 31
0
  0
LINE
  8
0
 62
7
 10
7.600000000000001
 20
5.689999999999999
 30
0
 11
7.600000000000001
 21
5.539999999999999
 31
0
  0
LINE
  8
0
 62
7
 10
7.600000000000001
 20
5.539999999999999
 30
0
 11
7.765000000000001
 21
5.539999999999999
 31
0
  0
LINE
  8
0
 62
7
 10
4.34
 20
5.300000000000001
 30
0
 11
7.765000000000001
 21
5.300000000000001
 31
0
  0
LINE
  8
0
 62
7
 10
4.34
 20
5.260000000000002
 30
0
 11
7.765000000000001
 21
5.260000000000002
 31
0
  0
LINE
  8
0
 62
7
 10
4.34
 20
5.020000000000001
 30
0
 11
4.49
 21
5.020000000000001
 31
0
  0
LINE
  8
0
 62
7
 10
4.665
 20
3.25
 30
0
 11
4.665
 21
3.35
 31
0
  0
LINE
  8
0
 62
7
 10
4.49
 20
3.25
 30
0
 11
4.665
 21
3.25
 31
0
  0
LINE
  8
0
 62
7
 10
4.49
 20
5.020000000000001
 30
0
 11
4.49
 21
3.25
 31
0
  0
LINE
  8
0
 62
7
 10
4.665
 20
5.020000000000001
 30
0
 11
7.425000000000001
 21
5.020000000000001
 31
0
  0
LINE
  8
0
 62
7
 10
7.425000000000001
 20
5.020000000000001
 30
0
 11
7.425000000000001
 21
3.400000000000001
 31
0
  0
LINE
  8
0
 62
7
 10
7.600000000000001
 20
3.35
 30
0
 11
7.600000000000001
 21
5.020000000000001
 31
0
  0
LINE
  8
0
 62
7
 10
7.600000000000001
 20
5.020000000000001
 30
0
 11
7.765000000000001
 21
5.020000000000001
 31
0
  0
LINE
  8
0
 62
7
 10
7.425000000000001
 20
3.35
 30
0
 11
7.600000000000001
 21
3.35
 31
0
  0
LINE
  8
0
 62
7
 10
7.425000000000001
 20
3.400000000000001
 30
0
 11
4.665
 21
3.4
 31
0
  0
LINE
  8
0
 62
7
 10
4.665
 20
3.4
 30
0
 11
4.665
 21
5.020000000000001
 31
0
  0
LINE
  8
0
 62
7
 10
7.425000000000001
 20
3.400000000000001
 30
0
 11
7.425000000000001
 21
3.35
 31
0
  0
LINE
  8
0
 62
7
  6
DASHDOT
 10
7.425000000000001
 20
3.35
 30
0
 11
4.665
 21
3.35
 31
0
  0
LINE
  8
0
 62
7
 10
4.665
 20
3.35
 30
0
 11
4.665
 21
3.4
 31
0
  0
LINE
  8
0
 62
7
  6
DASHDOT
 10
4.44
 20
5.689999999999999
 30
0
 11
4.49
 21
5.689999999999999
 31
0
  0
LINE
  8
0
 62
7
  6
DASHDOT
 10
7.375
 20
5.689999999999999
 30
0
 11
7.425000000000001
 21
5.689999999999999
 31
0
  0
LINE
  8
0
 62
7
  6
DASHDOT
 10
4.34
 20
5.589999999999999
 30
0
 11
4.34
 21
5.539999999999999
 31
0
  0
LINE
  8
0
 62
7
  6
DASHDOT
 10
7.765000000000001
 20
5.589999999999999
 30
0
 11
7.765000000000001
 21
5.539999999999999
 31
0
  0
LINE
  8
0
 62
7
  6
DASHDOT
 10
7.765000000000001
 20
5.539999999999999
 30
0
 11
7.765000000000001
 21
5.300000000000001
 31
0
  0
LINE
  8
0
 62
7
  6
DASHDOT
 10
7.765000000000001
 20
5.020000000000001
 30
0
 11
7.765000000000001
 21
4.970000000000002
 31
0
  0
LINE
  8
0
 62
7
  6
DASHDOT
 10
4.49
 20
5.689999999999999
 30
0
 11
4.665
 21
5.689999999999999
 31
0
  0
LINE
  8
0
 62
7
  6
DASHDOT
 10
4.665
 20
5.689999999999999
 30
0
 11
4.715
 21
5.689999999999999
 31
0
  0
LINE
  8
0
 62
7
  6
DASHDOT
 10
4.34
 20
5.539999999999999
 30
0
 11
4.34
 21
5.300000000000001
 31
0
  0
LINE
  8
0
 62
7
  6
DASHDOT
 10
4.34
 20
5.020000000000001
 30
0
 11
4.34
 21
4.970000000000002
 31
0
  0
LINE
  8
0
 62
7
  6
DASHDOT
 10
7.765000000000001
 20
5.300000000000001
 30
0
 11
7.765000000000001
 21
5.260000000000002
 31
0
  0
LINE
  8
0
 62
7
  6
DASHDOT
 10
4.34
 20
5.300000000000001
 30
0
 11
4.34
 21
5.260000000000002
 31
0
  0
LINE
  8
0
 62
7
  6
DASHDOT
 10
7.765000000000001
 20
5.260000000000002
 30
0
 11
7.765000000000001
 21
5.020000000000001
 31
0
  0
LINE
  8
0
 62
7
  6
DASHDOT
 10
4.34
 20
5.260000000000002
 30
0
 11
4.34
 21
5.020000000000001
 31
0
  0
LINE
  8
0
 62
7
  6
DASHDOT
 10
7.600000000000001
 20
5.689999999999999
 30
0
 11
7.65
 21
5.689999999999999
 31
0
  0
LINE
  8
0
 62
7
  6
DASHDOT
 10
7.425000000000001
 20
5.689999999999999
 30
0
 11
7.600000000000001
 21
5.689999999999999
 31
0
  0
LINE
  8
0
 62
7
 10
5.23844733279396
 20
4.70575180151025
 30
0
 11
5.23844733279396
 21
4.825751801510251
 31
0
  0
LINE
  8
0
 62
7
 10
5.314047332793962
 20
4.825751801510251
 30
0
 11
5.26004733279396
 21
4.76575180151025
 31
0
  0
LINE
  8
0
 62
7
 10
5.26004733279396
 20
4.76575180151025
 30
0
 11
5.314047332793962
 21
4.70575180151025
 31
0
  0
LINE
  8
0
 62
7
 10
5.26004733279396
 20
4.76575180151025
 30
0
 11
5.23844733279396
 21
4.741751801510251
 31
0
  0
LINE
  8
0
 62
7
 10
5.42204733279396
 20
4.825751801510251
 30
0
 11
5.34644733279396
 21
4.825751801510251
 31
0
  0
LINE
  8
0
 62
7
 10
5.34644733279396
 20
4.825751801510251
 30
0
 11
5.34644733279396
 21
4.76575180151025
 31
0
  0
LINE
  8
0
 62
7
 10
5.34644733279396
 20
4.70575180151025
 30
0
 11
5.42204733279396
 21
4.70575180151025
 31
0
  0
LINE
  8
0
 62
7
 10
5.41124733279396
 20
4.76575180151025
 30
0
 11
5.34644733279396
 21
4.76575180151025
 31
0
  0
LINE
  8
0
 62
7
 10
5.34644733279396
 20
4.76575180151025
 30
0
 11
5.34644733279396
 21
4.70575180151025
 31
0
  0
LINE
  8
0
 62
7
 10
5.454447332793961
 20
4.70575180151025
 30
0
 11
5.454447332793961
 21
4.825751801510251
 31
0
  0
LINE
  8
0
 62
7
 10
5.454447332793961
 20
4.825751801510251
 30
0
 11
5.53004733279396
 21
4.70575180151025
 31
0
  0
LINE
  8
0
 62
7
 10
5.53004733279396
 20
4.70575180151025
 30
0
 11
5.53004733279396
 21
4.825751801510251
 31
0
  0
LINE
  8
0
 62
7
 10
5.56244733279396
 20
4.70575180151025
 30
0
 11
5.56244733279396
 21
4.825751801510251
 31
0
  0
LINE
  8
0
 62
7
 10
5.56244733279396
 20
4.825751801510251
 30
0
 11
5.63804733279396
 21
4.70575180151025
 31
0
  0
LINE
  8
0
 62
7
 10
5.63804733279396
 20
4.70575180151025
 30
0
 11
5.63804733279396
 21
4.825751801510251
 31
0
  0
LINE
  8
0
 62
7
 10
5.74604733279396
 20
4.78975180151025
 30
0
 11
5.743347332793959
 21
4.80175180151025
 31
0
  0
LINE
  8
0
 62
7
 10
5.743347332793959
 20
4.80175180151025
 30
0
 11
5.73794733279396
 21
4.81075180151025
 31
0
  0
LINE
  8
0
 62
7
 10
5.73794733279396
 20
4.81075180151025
 30
0
 11
5.73254733279396
 21
4.816751801510251
 31
0
  0
LINE
  8
0
 62
7
 10
5.73254733279396
 20
4.816751801510251
 30
0
 11
5.724447332793961
 21
4.82275180151025
 31
0
  0
LINE
  8
0
 62
7
 10
5.724447332793961
 20
4.82275180151025
 30
0
 11
5.716347332793959
 21
4.825751801510251
 31
0
  0
LINE
  8
0
 62
7
 10
5.716347332793959
 20
4.825751801510251
 30
0
 11
5.70014733279396
 21
4.825751801510251
 31
0
  0
LINE
  8
0
 62
7
 10
5.70014733279396
 20
4.825751801510251
 30
0
 11
5.69204733279396
 21
4.82275180151025
 31
0
  0
LINE
  8
0
 62
7
 10
5.69204733279396
 20
4.82275180151025
 30
0
 11
5.683947332793959
 21
4.816751801510251
 31
0
  0
LINE
  8
0
 62
7
 10
5.683947332793959
 20
4.816751801510251
 30
0
 11
5.67854733279396
 21
4.81075180151025
 31
0
  0
LINE
  8
0
 62
7
 10
5.67854733279396
 20
4.81075180151025
 30
0
 11
5.67314733279396
 21
4.80175180151025
 31
0
  0
LINE
  8
0
 62
7
 10
5.67314733279396
 20
4.80175180151025
 30
0
 11
5.67044733279396
 21
4.78975180151025
 31
0
  0
LINE
  8
0
 62
7
 10
5.67044733279396
 20
4.78975180151025
 30
0
 11
5.67044733279396
 21
4.741751801510251
 31
0
  0
LINE
  8
0
 62
7
 10
5.67044733279396
 20
4.741751801510251
 30
0
 11
5.67314733279396
 21
4.72975180151025
 31
0
  0
LINE
  8
0
 62
7
 10
5.67314733279396
 20
4.72975180151025
 30
0
 11
5.67854733279396
 21
4.720751801510249
 31
0
  0
LINE
  8
0
 62
7
 10
5.67854733279396
 20
4.720751801510249
 30
0
 11
5.683947332793959
 21
4.71475180151025
 31
0
  0
LINE
  8
0
 62
7
 10
5.683947332793959
 20
4.71475180151025
 30
0
 11
5.69204733279396
 21
4.708751801510251
 31
0
  0
LINE
  8
0
 62
7
 10
5.69204733279396
 20
4.708751801510251
 30
0
 11
5.70014733279396
 21
4.70575180151025
 31
0
  0
LINE
  8
0
 62
7
 10
5.70014733279396
 20
4.70575180151025
 30
0
 11
5.716347332793959
 21
4.70575180151025
 31
0
  0
LINE
  8
0
 62
7
 10
5.716347332793959
 20
4.70575180151025
 30
0
 11
5.724447332793961
 21
4.708751801510251
 31
0
  0
LINE
  8
0
 62
7
 10
5.724447332793961
 20
4.708751801510251
 30
0
 11
5.73254733279396
 21
4.71475180151025
 31
0
  0
LINE
  8
0
 62
7
 10
5.73254733279396
 20
4.71475180151025
 30
0
 11
5.73794733279396
 21
4.720751801510249
 31
0
  0
LINE
  8
0
 62
7
 10
5.73794733279396
 20
4.720751801510249
 30
0
 11
5.743347332793959
 21
4.72975180151025
 31
0
  0
LINE
  8
0
 62
7
 10
5.743347332793959
 20
4.72975180151025
 30
0
 11
5.74604733279396
 21
4.741751801510251
 31
0
  0
LINE
  8
0
 62
7
 10
5.74604733279396
 20
4.741751801510251
 30
0
 11
5.74604733279396
 21
4.76575180151025
 31
0
  0
LINE
  8
0
 62
7
 10
5.74604733279396
 20
4.76575180151025
 30
0
 11
5.713647332793961
 21
4.76575180151025
 31
0
  0
LINE
  8
0
 62
7
 10
5.824347332793959
 20
4.825751801510251
 30
0
 11
5.808147332793959
 21
4.825751801510251
 31
0
  0
LINE
  8
0
 62
7
 10
5.808147332793959
 20
4.825751801510251
 30
0
 11
5.800047332793961
 21
4.82275180151025
 31
0
  0
LINE
  8
0
 62
7
 10
5.800047332793961
 20
4.82275180151025
 30
0
 11
5.791947332793961
 21
4.816751801510251
 31
0
  0
LINE
  8
0
 62
7
 10
5.791947332793961
 20
4.816751801510251
 30
0
 11
5.786547332793962
 21
4.81075180151025
 31
0
  0
LINE
  8
0
 62
7
 10
5.786547332793962
 20
4.81075180151025
 30
0
 11
5.78114733279396
 21
4.80175180151025
 31
0
  0
LINE
  8
0
 62
7
 10
5.78114733279396
 20
4.80175180151025
 30
0
 11
5.778447332793959
 21
4.78975180151025
 31
0
  0
LINE
  8
0
 62
7
 10
5.778447332793959
 20
4.78975180151025
 30
0
 11
5.778447332793959
 21
4.741751801510251
 31
0
  0
LINE
  8
0
 62
7
 10
5.778447332793959
 20
4.741751801510251
 30
0
 11
5.78114733279396
 21
4.72975180151025
 31
0
  0
LINE
  8
0
 62
7
 10
5.78114733279396
 20
4.72975180151025
 30
0
 11
5.786547332793962
 21
4.720751801510249
 31
0
  0
LINE
  8
0
 62
7
 10
5.786547332793962
 20
4.720751801510249
 30
0
 11
5.791947332793961
 21
4.71475180151025
 31
0
  0
LINE
  8
0
 62
7
 10
5.791947332793961
 20
4.71475180151025
 30
0
 11
5.800047332793961
 21
4.708751801510251
 31
0
  0
LINE
  8
0
 62
7
 10
5.800047332793961
 20
4.708751801510251
 30
0
 11
5.808147332793959
 21
4.70575180151025
 31
0
  0
LINE
  8
0
 62
7
 10
5.808147332793959
 20
4.70575180151025
 30
0
 11
5.824347332793959
 21
4.70575180151025
 31
0
  0
LINE
  8
0
 62
7
 10
5.824347332793959
 20
4.70575180151025
 30
0
 11
5.83244733279396
 21
4.708751801510251
 31
0
  0
LINE
  8
0
 62
7
 10
5.83244733279396
 20
4.708751801510251
 30
0
 11
5.84054733279396
 21
4.71475180151025
 31
0
  0
LINE
  8
0
 62
7
 10
5.84054733279396
 20
4.71475180151025
 30
0
 11
5.84594733279396
 21
4.720751801510249
 31
0
  0
LINE
  8
0
 62
7
 10
5.84594733279396
 20
4.720751801510249
 30
0
 11
5.85134733279396
 21
4.72975180151025
 31
0
  0
LINE
  8
0
 62
7
 10
5.85134733279396
 20
4.72975180151025
 30
0
 11
5.854047332793961
 21
4.741751801510251
 31
0
  0
LINE
  8
0
 62
7
 10
5.854047332793961
 20
4.741751801510251
 30
0
 11
5.854047332793961
 21
4.78975180151025
 31
0
  0
LINE
  8
0
 62
7
 10
5.854047332793961
 20
4.78975180151025
 30
0
 11
5.85134733279396
 21
4.80175180151025
 31
0
  0
LINE
  8
0
 62
7
 10
5.85134733279396
 20
4.80175180151025
 30
0
 11
5.84594733279396
 21
4.81075180151025
 31
0
  0
LINE
  8
0
 62
7
 10
5.84594733279396
 20
4.81075180151025
 30
0
 11
5.84054733279396
 21
4.816751801510251
 31
0
  0
LINE
  8
0
 62
7
 10
5.84054733279396
 20
4.816751801510251
 30
0
 11
5.83244733279396
 21
4.82275180151025
 31
0
  0
LINE
  8
0
 62
7
 10
5.83244733279396
 20
4.82275180151025
 30
0
 11
5.824347332793959
 21
4.825751801510251
 31
0
  0
LINE
  8
0
 62
7
 10
5.87564733279396
 20
4.825751801510251
 30
0
 11
5.913447332793962
 21
4.825751801510251
 31
0
  0
LINE
  8
0
 62
7
 10
5.913447332793962
 20
4.825751801510251
 30
0
 11
5.913447332793962
 21
4.70575180151025
 31
0
  0
LINE
  8
0
 62
7
 10
5.913447332793962
 20
4.825751801510251
 30
0
 11
5.951247332793962
 21
4.825751801510251
 31
0
  0
LINE
  8
0
 62
7
 10
5.983647332793962
 20
4.825751801510251
 30
0
 11
6.021447332793961
 21
4.825751801510251
 31
0
  0
LINE
  8
0
 62
7
 10
6.021447332793961
 20
4.825751801510251
 30
0
 11
6.021447332793961
 21
4.70575180151025
 31
0
  0
LINE
  8
0
 62
7
 10
6.021447332793961
 20
4.825751801510251
 30
0
 11
6.059247332793961
 21
4.825751801510251
 31
0
  0
LINE
  8
0
 62
7
 10
6.178047332793961
 20
4.74775180151025
 30
0
 11
6.232047332793961
 21
4.74775180151025
 31
0
  0
LINE
  8
0
 62
7
 10
6.340047332793961
 20
4.825751801510251
 30
0
 11
6.377847332793961
 21
4.825751801510251
 31
0
  0
LINE
  8
0
 62
7
 10
6.377847332793961
 20
4.825751801510251
 30
0
 11
6.377847332793961
 21
4.70575180151025
 31
0
  0
LINE
  8
0
 62
7
 10
6.377847332793961
 20
4.825751801510251
 30
0
 11
6.415647332793961
 21
4.825751801510251
 31
0
  0
LINE
  8
0
 62
7
 10
6.448047332793961
 20
4.70575180151025
 30
0
 11
6.448047332793961
 21
4.825751801510251
 31
0
  0
LINE
  8
0
 62
7
 10
6.448047332793961
 20
4.825751801510251
 30
0
 11
6.49934733279396
 21
4.825751801510251
 31
0
  0
LINE
  8
0
 62
7
 10
6.49934733279396
 20
4.825751801510251
 30
0
 11
6.51014733279396
 21
4.82275180151025
 31
0
  0
LINE
  8
0
 62
7
 10
6.51014733279396
 20
4.82275180151025
 30
0
 11
6.518247332793961
 21
4.816751801510251
 31
0
  0
LINE
  8
0
 62
7
 10
6.518247332793961
 20
4.816751801510251
 30
0
 11
6.520947332793959
 21
4.81075180151025
 31
0
  0
LINE
  8
0
 62
7
 10
6.520947332793959
 20
4.81075180151025
 30
0
 11
6.523647332793961
 21
4.80175180151025
 31
0
  0
LINE
  8
0
 62
7
 10
6.523647332793961
 20
4.80175180151025
 30
0
 11
6.523647332793961
 21
4.78975180151025
 31
0
  0
LINE
  8
0
 62
7
 10
6.523647332793961
 20
4.78975180151025
 30
0
 11
6.520947332793959
 21
4.78075180151025
 31
0
  0
LINE
  8
0
 62
7
 10
6.520947332793959
 20
4.78075180151025
 30
0
 11
6.518247332793961
 21
4.77475180151025
 31
0
  0
LINE
  8
0
 62
7
 10
6.518247332793961
 20
4.77475180151025
 30
0
 11
6.51014733279396
 21
4.768751801510251
 31
0
  0
LINE
  8
0
 62
7
 10
6.51014733279396
 20
4.768751801510251
 30
0
 11
6.49934733279396
 21
4.76575180151025
 31
0
  0
LINE
  8
0
 62
7
 10
6.49934733279396
 20
4.76575180151025
 30
0
 11
6.49124733279396
 21
4.76575180151025
 31
0
  0
LINE
  8
0
 62
7
 10
6.49124733279396
 20
4.76575180151025
 30
0
 11
6.523647332793961
 21
4.70575180151025
 31
0
  0
LINE
  8
0
 62
7
 10
6.49124733279396
 20
4.76575180151025
 30
0
 11
6.448047332793961
 21
4.76575180151025
 31
0
  0
LINE
  8
0
 62
7
 10
6.620847332793962
 20
4.825751801510251
 30
0
 11
6.54524733279396
 21
4.825751801510251
 31
0
  0
LINE
  8
0
 62
7
 10
6.54524733279396
 20
4.825751801510251
 30
0
 11
6.54524733279396
 21
4.76575180151025
 31
0
  0
LINE
  8
0
 62
7
 10
6.54524733279396
 20
4.70575180151025
 30
0
 11
6.620847332793962
 21
4.70575180151025
 31
0
  0
LINE
  8
0
 62
7
 10
6.610047332793961
 20
4.76575180151025
 30
0
 11
6.54524733279396
 21
4.76575180151025
 31
0
  0
LINE
  8
0
 62
7
 10
6.54524733279396
 20
4.76575180151025
 30
0
 11
6.54524733279396
 21
4.70575180151025
 31
0
  0
LINE
  8
0
 62
7
 10
6.653247332793962
 20
4.70575180151025
 30
0
 11
6.653247332793962
 21
4.76575180151025
 31
0
  0
LINE
  8
0
 62
7
 10
6.653247332793962
 20
4.825751801510251
 30
0
 11
6.704547332793962
 21
4.825751801510251
 31
0
  0
LINE
  8
0
 62
7
 10
6.704547332793962
 20
4.825751801510251
 30
0
 11
6.715347332793963
 21
4.82275180151025
 31
0
  0
LINE
  8
0
 62
7
 10
6.715347332793963
 20
4.82275180151025
 30
0
 11
6.723447332793961
 21
4.816751801510251
 31
0
  0
LINE
  8
0
 62
7
 10
6.723447332793961
 20
4.816751801510251
 30
0
 11
6.726147332793961
 21
4.81075180151025
 31
0
  0
LINE
  8
0
 62
7
 10
6.726147332793961
 20
4.81075180151025
 30
0
 11
6.728847332793961
 21
4.80175180151025
 31
0
  0
LINE
  8
0
 62
7
 10
6.728847332793961
 20
4.80175180151025
 30
0
 11
6.728847332793961
 21
4.78975180151025
 31
0
  0
LINE
  8
0
 62
7
 10
6.728847332793961
 20
4.78975180151025
 30
0
 11
6.726147332793961
 21
4.78075180151025
 31
0
  0
LINE
  8
0
 62
7
 10
6.726147332793961
 20
4.78075180151025
 30
0
 11
6.723447332793961
 21
4.77475180151025
 31
0
  0
LINE
  8
0
 62
7
 10
6.723447332793961
 20
4.77475180151025
 30
0
 11
6.715347332793963
 21
4.768751801510251
 31
0
  0
LINE
  8
0
 62
7
 10
6.715347332793963
 20
4.768751801510251
 30
0
 11
6.704547332793962
 21
4.76575180151025
 31
0
  0
LINE
  8
0
 62
7
 10
6.704547332793962
 20
4.76575180151025
 30
0
 11
6.653247332793962
 21
4.76575180151025
 31
0
  0
LINE
  8
0
 62
7
 10
6.653247332793962
 20
4.76575180151025
 30
0
 11
6.653247332793962
 21
4.825751801510251
 31
0
  0
LINE
  8
0
 62
7
 10
6.750447332793961
 20
4.70575180151025
 30
0
 11
6.750447332793961
 21
4.76575180151025
 31
0
  0
LINE
  8
0
 62
7
 10
6.750447332793961
 20
4.825751801510251
 30
0
 11
6.801747332793962
 21
4.825751801510251
 31
0
  0
LINE
  8
0
 62
7
 10
6.801747332793962
 20
4.825751801510251
 30
0
 11
6.812547332793961
 21
4.82275180151025
 31
0
  0
LINE
  8
0
 62
7
 10
6.812547332793961
 20
4.82275180151025
 30
0
 11
6.820647332793961
 21
4.816751801510251
 31
0
  0
LINE
  8
0
 62
7
 10
6.820647332793961
 20
4.816751801510251
 30
0
 11
6.823347332793961
 21
4.81075180151025
 31
0
  0
LINE
  8
0
 62
7
 10
6.823347332793961
 20
4.81075180151025
 30
0
 11
6.826047332793961
 21
4.80175180151025
 31
0
  0
LINE
  8
0
 62
7
 10
6.826047332793961
 20
4.80175180151025
 30
0
 11
6.826047332793961
 21
4.78975180151025
 31
0
  0
LINE
  8
0
 62
7
 10
6.826047332793961
 20
4.78975180151025
 30
0
 11
6.823347332793961
 21
4.78075180151025
 31
0
  0
LINE
  8
0
 62
7
 10
6.823347332793961
 20
4.78075180151025
 30
0
 11
6.820647332793961
 21
4.77475180151025
 31
0
  0
LINE
  8
0
 62
7
 10
6.820647332793961
 20
4.77475180151025
 30
0
 11
6.812547332793961
 21
4.768751801510251
 31
0
  0
LINE
  8
0
 62
7
 10
6.812547332793961
 20
4.768751801510251
 30
0
 11
6.801747332793962
 21
4.76575180151025
 31
0
  0
LINE
  8
0
 62
7
 10
6.801747332793962
 20
4.76575180151025
 30
0
 11
6.750447332793961
 21
4.76575180151025
 31
0
  0
LINE
  8
0
 62
7
 10
6.750447332793961
 20
4.76575180151025
 30
0
 11
6.750447332793961
 21
4.825751801510251
 31
0
  0
LINE
  8
0
 62
7
 10
6.923247332793962
 20
4.825751801510251
 30
0
 11
6.847647332793961
 21
4.825751801510251
 31
0
  0
LINE
  8
0
 62
7
 10
6.847647332793961
 20
4.825751801510251
 30
0
 11
6.847647332793961
 21
4.76575180151025
 31
0
  0
LINE
  8
0
 62
7
 10
6.847647332793961
 20
4.70575180151025
 30
0
 11
6.923247332793962
 21
4.70575180151025
 31
0
  0
LINE
  8
0
 62
7
 10
6.912447332793962
 20
4.76575180151025
 30
0
 11
6.847647332793961
 21
4.76575180151025
 31
0
  0
LINE
  8
0
 62
7
 10
6.847647332793961
 20
4.76575180151025
 30
0
 11
6.847647332793961
 21
4.70575180151025
 31
0
  0
LINE
  8
0
 62
7
 10
4.375
 20
2.890000000000001
 30
0
 11
4.375
 21
3.010000000000001
 31
0
  0
LINE
  8
0
 62
7
 10
4.375
 20
3.010000000000001
 30
0
 11
4.418200000000001
 21
2.914000000000001
 31
0
  0
LINE
  8
0
 62
7
 10
4.418200000000001
 20
2.914000000000001
 30
0
 11
4.4614
 21
3.010000000000001
 31
0
  0
LINE
  8
0
 62
7
 10
4.4614
 20
3.010000000000001
 30
0
 11
4.4614
 21
2.890000000000001
 31
0
  0
LINE
  8
0
 62
7
 10
4.493800000000001
 20
2.992000000000001
 30
0
 11
4.4992
 21
3.001000000000001
 31
0
  0
LINE
  8
0
 62
7
 10
4.4992
 20
3.001000000000001
 30
0
 11
4.5073
 21
3.007000000000001
 31
0
  0
LINE
  8
0
 62
7
 10
4.5073
 20
3.007000000000001
 30
0
 11
4.518100000000001
 21
3.010000000000001
 31
0
  0
LINE
  8
0
 62
7
 10
4.518100000000001
 20
3.010000000000001
 30
0
 11
4.534300000000001
 21
3.010000000000001
 31
0
  0
LINE
  8
0
 62
7
 10
4.534300000000001
 20
3.010000000000001
 30
0
 11
4.545100000000001
 21
3.007000000000001
 31
0
  0
LINE
  8
0
 62
7
 10
4.545100000000001
 20
3.007000000000001
 30
0
 11
4.553199999999999
 21
3.001000000000001
 31
0
  0
LINE
  8
0
 62
7
 10
4.553199999999999
 20
3.001000000000001
 30
0
 11
4.558600000000001
 21
2.992000000000001
 31
0
  0
LINE
  8
0
 62
7
 10
4.558600000000001
 20
2.992000000000001
 30
0
 11
4.558600000000001
 21
2.980000000000001
 31
0
  0
LINE
  8
0
 62
7
 10
4.558600000000001
 20
2.980000000000001
 30
0
 11
4.553199999999999
 21
2.968000000000002
 31
0
  0
LINE
  8
0
 62
7
 10
4.553199999999999
 20
2.968000000000002
 30
0
 11
4.493800000000001
 21
2.890000000000001
 31
0
  0
LINE
  8
0
 62
7
 10
4.493800000000001
 20
2.890000000000001
 30
0
 11
4.558600000000001
 21
2.890000000000001
 31
0
  0
LINE
  8
0
 62
7
 10
4.591
 20
3.010000000000001
 30
0
 11
4.628800000000001
 21
2.890000000000001
 31
0
  0
LINE
  8
0
 62
7
 10
4.628800000000001
 20
2.890000000000001
 30
0
 11
4.666600000000001
 21
3.010000000000001
 31
0
  0
LINE
  8
0
 62
7
 10
4.699000000000001
 20
2.992000000000001
 30
0
 11
4.7044
 21
3.001000000000001
 31
0
  0
LINE
  8
0
 62
7
 10
4.7044
 20
3.001000000000001
 30
0
 11
4.7125
 21
3.007000000000001
 31
0
  0
LINE
  8
0
 62
7
 10
4.7125
 20
3.007000000000001
 30
0
 11
4.723300000000001
 21
3.010000000000001
 31
0
  0
LINE
  8
0
 62
7
 10
4.723300000000001
 20
3.010000000000001
 30
0
 11
4.7395
 21
3.010000000000001
 31
0
  0
LINE
  8
0
 62
7
 10
4.7395
 20
3.010000000000001
 30
0
 11
4.750299999999999
 21
3.007000000000001
 31
0
  0
LINE
  8
0
 62
7
 10
4.750299999999999
 20
3.007000000000001
 30
0
 11
4.7584
 21
3.001000000000001
 31
0
  0
LINE
  8
0
 62
7
 10
4.7584
 20
3.001000000000001
 30
0
 11
4.763800000000002
 21
2.992000000000001
 31
0
  0
LINE
  8
0
 62
7
 10
4.763800000000002
 20
2.992000000000001
 30
0
 11
4.763800000000002
 21
2.980000000000001
 31
0
  0
LINE
  8
0
 62
7
 10
4.763800000000002
 20
2.980000000000001
 30
0
 11
4.7584
 21
2.968000000000002
 31
0
  0
LINE
  8
0
 62
7
 10
4.7584
 20
2.968000000000002
 30
0
 11
4.699000000000001
 21
2.890000000000001
 31
0
  0
LINE
  8
0
 62
7
 10
4.699000000000001
 20
2.890000000000001
 30
0
 11
4.763800000000002
 21
2.890000000000001
 31
0
  0
LINE
  8
0
 62
7
 10
4.7962
 20
2.998000000000002
 30
0
 11
4.7962
 21
3.010000000000001
 31
0
  0
LINE
  8
0
 62
7
 10
4.7962
 20
3.010000000000001
 30
0
 11
4.861000000000001
 21
3.010000000000001
 31
0
  0
LINE
  8
0
 62
7
 10
4.861000000000001
 20
3.010000000000001
 30
0
 11
4.807
 21
2.890000000000001
 31
0
  0
LINE
  8
0
 62
7
 10
4.8934
 20
2.938000000000001
 30
0
 11
4.896100000000001
 21
2.950000000000001
 31
0
  0
LINE
  8
0
 62
7
 10
4.896100000000001
 20
2.950000000000001
 30
0
 11
4.9015
 21
2.959000000000001
 31
0
  0
LINE
  8
0
 62
7
 10
4.9015
 20
2.959000000000001
 30
0
 11
4.9096
 21
2.965000000000001
 31
0
  0
LINE
  8
0
 62
7
 10
4.9096
 20
2.965000000000001
 30
0
 11
4.9177
 21
2.968000000000002
 31
0
  0
LINE
  8
0
 62
7
 10
4.9177
 20
2.968000000000002
 30
0
 11
4.9339
 21
2.968000000000002
 31
0
  0
LINE
  8
0
 62
7
 10
4.9339
 20
2.968000000000002
 30
0
 11
4.942
 21
2.965000000000001
 31
0
  0
LINE
  8
0
 62
7
 10
4.942
 20
2.965000000000001
 30
0
 11
4.950100000000001
 21
2.959000000000001
 31
0
  0
LINE
  8
0
 62
7
 10
4.950100000000001
 20
2.959000000000001
 30
0
 11
4.955500000000001
 21
2.950000000000001
 31
0
  0
LINE
  8
0
 62
7
 10
4.955500000000001
 20
2.950000000000001
 30
0
 11
4.958200000000001
 21
2.938000000000001
 31
0
  0
LINE
  8
0
 62
7
 10
4.958200000000001
 20
2.938000000000001
 30
0
 11
4.958200000000001
 21
2.920000000000001
 31
0
  0
LINE
  8
0
 62
7
 10
4.958200000000001
 20
2.920000000000001
 30
0
 11
4.955500000000001
 21
2.908000000000001
 31
0
  0
LINE
  8
0
 62
7
 10
4.955500000000001
 20
2.908000000000001
 30
0
 11
4.950100000000001
 21
2.899000000000001
 31
0
  0
LINE
  8
0
 62
7
 10
4.950100000000001
 20
2.899000000000001
 30
0
 11
4.942
 21
2.893000000000002
 31
0
  0
LINE
  8
0
 62
7
 10
4.942
 20
2.893000000000002
 30
0
 11
4.9339
 21
2.890000000000001
 31
0
  0
LINE
  8
0
 62
7
 10
4.9339
 20
2.890000000000001
 30
0
 11
4.9177
 21
2.890000000000001
 31
0
  0
LINE
  8
0
 62
7
 10
4.9177
 20
2.890000000000001
 30
0
 11
4.9096
 21
2.893000000000002
 31
0
  0
LINE
  8
0
 62
7
 10
4.9096
 20
2.893000000000002
 30
0
 11
4.9015
 21
2.899000000000001
 31
0
  0
LINE
  8
0
 62
7
 10
4.9015
 20
2.899000000000001
 30
0
 11
4.896100000000001
 21
2.908000000000001
 31
0
  0
LINE
  8
0
 62
7
 10
4.896100000000001
 20
2.908000000000001
 30
0
 11
4.8934
 21
2.920000000000001
 31
0
  0
LINE
  8
0
 62
7
 10
4.8934
 20
2.920000000000001
 30
0
 11
4.8934
 21
2.938000000000001
 31
0
  0
LINE
  8
0
 62
7
 10
4.8934
 20
2.980000000000001
 30
0
 11
4.896100000000001
 21
2.992000000000001
 31
0
  0
LINE
  8
0
 62
7
 10
4.896100000000001
 20
2.992000000000001
 30
0
 11
4.9015
 21
3.001000000000001
 31
0
  0
LINE
  8
0
 62
7
 10
4.9015
 20
3.001000000000001
 30
0
 11
4.9096
 21
3.007000000000001
 31
0
  0
LINE
  8
0
 62
7
 10
4.9096
 20
3.007000000000001
 30
0
 11
4.9177
 21
3.010000000000001
 31
0
  0
LINE
  8
0
 62
7
 10
4.9177
 20
3.010000000000001
 30
0
 11
4.9339
 21
3.010000000000001
 31
0
  0
LINE
  8
0
 62
7
 10
4.9339
 20
3.010000000000001
 30
0
 11
4.942
 21
3.007000000000001
 31
0
  0
LINE
  8
0
 62
7
 10
4.942
 20
3.007000000000001
 30
0
 11
4.950100000000001
 21
3.001000000000001
 31
0
  0
LINE
  8
0
 62
7
 10
4.950100000000001
 20
3.001000000000001
 30
0
 11
4.955500000000001
 21
2.992000000000001
 31
0
  0
LINE
  8
0
 62
7
 10
4.8934
 20
2.938000000000001
 30
0
 11
4.8934
 21
2.980000000000001
 31
0
  0
LINE
  8
0
 62
7
 10
4.990600000000001
 20
2.890000000000001
 30
0
 11
4.990600000000001
 21
3.010000000000001
 31
0
  0
LINE
  8
0
 62
7
 10
4.990600000000001
 20
3.010000000000001
 30
0
 11
5.041900000000002
 21
3.010000000000001
 31
0
  0
LINE
  8
0
 62
7
 10
5.041900000000002
 20
3.010000000000001
 30
0
 11
5.052700000000002
 21
3.007000000000001
 31
0
  0
LINE
  8
0
 62
7
 10
5.052700000000002
 20
3.007000000000001
 30
0
 11
5.0608
 21
3.001000000000001
 31
0
  0
LINE
  8
0
 62
7
 10
5.0608
 20
3.001000000000001
 30
0
 11
5.0635
 21
2.995000000000001
 31
0
  0
LINE
  8
0
 62
7
 10
5.0635
 20
2.995000000000001
 30
0
 11
5.066200000000001
 21
2.986000000000001
 31
0
  0
LINE
  8
0
 62
7
 10
5.066200000000001
 20
2.986000000000001
 30
0
 11
5.066200000000001
 21
2.974000000000001
 31
0
  0
LINE
  8
0
 62
7
 10
5.066200000000001
 20
2.974000000000001
 30
0
 11
5.0635
 21
2.965000000000001
 31
0
  0
LINE
  8
0
 62
7
 10
5.0635
 20
2.965000000000001
 30
0
 11
5.0608
 21
2.959000000000001
 31
0
  0
LINE
  8
0
 62
7
 10
5.0608
 20
2.959000000000001
 30
0
 11
5.052700000000002
 21
2.953000000000002
 31
0
  0
LINE
  8
0
 62
7
 10
5.052700000000002
 20
2.953000000000002
 30
0
 11
5.041900000000002
 21
2.950000000000001
 31
0
  0
LINE
  8
0
 62
7
 10
5.041900000000002
 20
2.950000000000001
 30
0
 11
5.033800000000002
 21
2.950000000000001
 31
0
  0
LINE
  8
0
 62
7
 10
5.033800000000002
 20
2.950000000000001
 30
0
 11
5.066200000000001
 21
2.890000000000001
 31
0
  0
LINE
  8
0
 62
7
 10
5.033800000000002
 20
2.950000000000001
 30
0
 11
4.990600000000001
 21
2.950000000000001
 31
0
  0
LINE
  8
0
 62
7
 10
5.0878
 20
2.938000000000001
 30
0
 11
5.0905
 21
2.950000000000001
 31
0
  0
LINE
  8
0
 62
7
 10
5.0905
 20
2.950000000000001
 30
0
 11
5.0959
 21
2.959000000000001
 31
0
  0
LINE
  8
0
 62
7
 10
5.0959
 20
2.959000000000001
 30
0
 11
5.104
 21
2.965000000000001
 31
0
  0
LINE
  8
0
 62
7
 10
5.104
 20
2.965000000000001
 30
0
 11
5.1121
 21
2.968000000000002
 31
0
  0
LINE
  8
0
 62
7
 10
5.1121
 20
2.968000000000002
 30
0
 11
5.1283
 21
2.968000000000002
 31
0
  0
LINE
  8
0
 62
7
 10
5.1283
 20
2.968000000000002
 30
0
 11
5.136400000000002
 21
2.965000000000001
 31
0
  0
LINE
  8
0
 62
7
 10
5.136400000000002
 20
2.965000000000001
 30
0
 11
5.144500000000001
 21
2.959000000000001
 31
0
  0
LINE
  8
0
 62
7
 10
5.144500000000001
 20
2.959000000000001
 30
0
 11
5.149900000000002
 21
2.950000000000001
 31
0
  0
LINE
  8
0
 62
7
 10
5.149900000000002
 20
2.950000000000001
 30
0
 11
5.152600000000001
 21
2.938000000000001
 31
0
  0
LINE
  8
0
 62
7
 10
5.152600000000001
 20
2.938000000000001
 30
0
 11
5.152600000000001
 21
2.920000000000001
 31
0
  0
LINE
  8
0
 62
7
 10
5.152600000000001
 20
2.920000000000001
 30
0
 11
5.149900000000002
 21
2.908000000000001
 31
0
  0
LINE
  8
0
 62
7
 10
5.149900000000002
 20
2.908000000000001
 30
0
 11
5.144500000000001
 21
2.899000000000001
 31
0
  0
LINE
  8
0
 62
7
 10
5.144500000000001
 20
2.899000000000001
 30
0
 11
5.136400000000002
 21
2.893000000000002
 31
0
  0
LINE
  8
0
 62
7
 10
5.136400000000002
 20
2.893000000000002
 30
0
 11
5.1283
 21
2.890000000000001
 31
0
  0
LINE
  8
0
 62
7
 10
5.1283
 20
2.890000000000001
 30
0
 11
5.1121
 21
2.890000000000001
 31
0
  0
LINE
  8
0
 62
7
 10
5.1121
 20
2.890000000000001
 30
0
 11
5.104
 21
2.893000000000002
 31
0
  0
LINE
  8
0
 62
7
 10
5.104
 20
2.893000000000002
 30
0
 11
5.0959
 21
2.899000000000001
 31
0
  0
LINE
  8
0
 62
7
 10
5.0959
 20
2.899000000000001
 30
0
 11
5.0905
 21
2.908000000000001
 31
0
  0
LINE
  8
0
 62
7
 10
5.0905
 20
2.908000000000001
 30
0
 11
5.0878
 21
2.920000000000001
 31
0
  0
LINE
  8
0
 62
7
 10
5.0878
 20
2.920000000000001
 30
0
 11
5.0878
 21
2.938000000000001
 31
0
  0
LINE
  8
0
 62
7
 10
5.0878
 20
2.980000000000001
 30
0
 11
5.0905
 21
2.992000000000001
 31
0
  0
LINE
  8
0
 62
7
 10
5.0905
 20
2.992000000000001
 30
0
 11
5.0959
 21
3.001000000000001
 31
0
  0
LINE
  8
0
 62
7
 10
5.0959
 20
3.001000000000001
 30
0
 11
5.104
 21
3.007000000000001
 31
0
  0
LINE
  8
0
 62
7
 10
5.104
 20
3.007000000000001
 30
0
 11
5.1121
 21
3.010000000000001
 31
0
  0
LINE
  8
0
 62
7
 10
5.1121
 20
3.010000000000001
 30
0
 11
5.1283
 21
3.010000000000001
 31
0
  0
LINE
  8
0
 62
7
 10
5.1283
 20
3.010000000000001
 30
0
 11
5.136400000000002
 21
3.007000000000001
 31
0
  0
LINE
  8
0
 62
7
 10
5.136400000000002
 20
3.007000000000001
 30
0
 11
5.144500000000001
 21
3.001000000000001
 31
0
  0
LINE
  8
0
 62
7
 10
5.144500000000001
 20
3.001000000000001
 30
0
 11
5.149900000000002
 21
2.992000000000001
 31
0
  0
LINE
  8
0
 62
7
 10
5.0878
 20
2.938000000000001
 30
0
 11
5.0878
 21
2.980000000000001
 31
0
  0
LINE
  8
0
 62
7
 10
6.875
 20
2.890000000000001
 30
0
 11
6.875
 21
2.990000000000001
 31
0
  0
LINE
  8
0
 62
7
 10
6.875
 20
2.990000000000001
 30
0
 11
6.938000000000001
 21
2.890000000000001
 31
0
  0
LINE
  8
0
 62
7
 10
6.938000000000001
 20
2.890000000000001
 30
0
 11
6.938000000000001
 21
2.990000000000001
 31
0
  0
LINE
  8
0
 62
7
 10
7.019000000000002
 20
2.890000000000001
 30
0
 11
6.965000000000001
 21
2.890000000000001
 31
0
  0
LINE
  8
0
 62
7
 10
6.965000000000001
 20
2.890000000000001
 30
0
 11
6.965000000000001
 21
2.990000000000001
 31
0
  0
LINE
  8
0
 62
7
 10
7.046000000000001
 20
2.940000000000001
 30
0
 11
7.082000000000001
 21
2.940000000000001
 31
0
  0
LINE
  8
0
 62
7
 10
7.082000000000001
 20
2.940000000000001
 30
0
 11
7.086500000000001
 21
2.940000000000001
 31
0
  0
LINE
  8
0
 62
7
 10
7.086500000000001
 20
2.940000000000001
 30
0
 11
7.095500000000001
 21
2.935000000000001
 31
0
  0
LINE
  8
0
 62
7
 10
7.095500000000001
 20
2.935000000000001
 30
0
 11
7.100000000000001
 21
2.930000000000001
 31
0
  0
LINE
  8
0
 62
7
 10
7.100000000000001
 20
2.930000000000001
 30
0
 11
7.104500000000001
 21
2.920000000000001
 31
0
  0
LINE
  8
0
 62
7
 10
7.104500000000001
 20
2.920000000000001
 30
0
 11
7.104500000000001
 21
2.910000000000001
 31
0
  0
LINE
  8
0
 62
7
 10
7.104500000000001
 20
2.910000000000001
 30
0
 11
7.100000000000001
 21
2.900000000000001
 31
0
  0
LINE
  8
0
 62
7
 10
7.100000000000001
 20
2.900000000000001
 30
0
 11
7.095500000000001
 21
2.895000000000001
 31
0
  0
LINE
  8
0
 62
7
 10
7.095500000000001
 20
2.895000000000001
 30
0
 11
7.086500000000001
 21
2.890000000000001
 31
0
  0
LINE
  8
0
 62
7
 10
7.086500000000001
 20
2.890000000000001
 30
0
 11
7.046000000000001
 21
2.890000000000001
 31
0
  0
LINE
  8
0
 62
7
 10
7.046000000000001
 20
2.890000000000001
 30
0
 11
7.046000000000001
 21
2.940000000000001
 31
0
  0
LINE
  8
0
 62
7
 10
7.046000000000001
 20
2.990000000000001
 30
0
 11
7.079750000000001
 21
2.990000000000001
 31
0
  0
LINE
  8
0
 62
7
 10
7.079750000000001
 20
2.990000000000001
 30
0
 11
7.091
 21
2.987500000000001
 31
0
  0
LINE
  8
0
 62
7
 10
7.091
 20
2.987500000000001
 30
0
 11
7.097750000000001
 21
2.980000000000001
 31
0
  0
LINE
  8
0
 62
7
 10
7.097750000000001
 20
2.980000000000001
 30
0
 11
7.100000000000001
 21
2.970000000000001
 31
0
  0
LINE
  8
0
 62
7
 10
7.100000000000001
 20
2.970000000000001
 30
0
 11
7.100000000000001
 21
2.960000000000001
 31
0
  0
LINE
  8
0
 62
7
 10
7.100000000000001
 20
2.960000000000001
 30
0
 11
7.095500000000001
 21
2.950000000000001
 31
0
  0
LINE
  8
0
 62
7
 10
7.095500000000001
 20
2.950000000000001
 30
0
 11
7.088750000000001
 21
2.942500000000001
 31
0
  0
LINE
  8
0
 62
7
 10
7.088750000000001
 20
2.942500000000001
 30
0
 11
7.082000000000001
 21
2.940000000000001
 31
0
  0
LINE
  8
0
 62
7
 10
7.046000000000001
 20
2.940000000000001
 30
0
 11
7.046000000000001
 21
2.990000000000001
 31
0
  0
LINE
  8
0
 62
7
 10
7.246250000000001
 20
2.942500000000001
 30
0
 11
7.2395
 21
2.952500000000001
 31
0
  0
LINE
  8
0
 62
7
 10
7.2395
 20
2.952500000000001
 30
0
 11
7.232750000000002
 21
2.957500000000001
 31
0
  0
LINE
  8
0
 62
7
 10
7.232750000000002
 20
2.957500000000001
 30
0
 11
7.226000000000001
 21
2.960000000000001
 31
0
  0
LINE
  8
0
 62
7
 10
7.226000000000001
 20
2.960000000000001
 30
0
 11
7.217000000000001
 21
2.960000000000001
 31
0
  0
LINE
  8
0
 62
7
 10
7.217000000000001
 20
2.960000000000001
 30
0
 11
7.210250000000001
 21
2.957500000000001
 31
0
  0
LINE
  8
0
 62
7
 10
7.210250000000001
 20
2.957500000000001
 30
0
 11
7.2035
 21
2.952500000000001
 31
0
  0
LINE
  8
0
 62
7
 10
7.2035
 20
2.952500000000001
 30
0
 11
7.196750000000002
 21
2.942500000000001
 31
0
  0
LINE
  8
0
 62
7
 10
7.196750000000002
 20
2.942500000000001
 30
0
 11
7.194500000000001
 21
2.935000000000001
 31
0
  0
LINE
  8
0
 62
7
 10
7.194500000000001
 20
2.935000000000001
 30
0
 11
7.194500000000001
 21
2.915000000000001
 31
0
  0
LINE
  8
0
 62
7
 10
7.194500000000001
 20
2.915000000000001
 30
0
 11
7.196750000000002
 21
2.907500000000001
 31
0
  0
LINE
  8
0
 62
7
 10
7.196750000000002
 20
2.907500000000001
 30
0
 11
7.2035
 21
2.897500000000001
 31
0
  0
LINE
  8
0
 62
7
 10
7.2035
 20
2.897500000000001
 30
0
 11
7.210250000000001
 21
2.892500000000001
 31
0
  0
LINE
  8
0
 62
7
 10
7.210250000000001
 20
2.892500000000001
 30
0
 11
7.217000000000001
 21
2.890000000000001
 31
0
  0
LINE
  8
0
 62
7
 10
7.217000000000001
 20
2.890000000000001
 30
0
 11
7.226000000000001
 21
2.890000000000001
 31
0
  0
LINE
  8
0
 62
7
 10
7.226000000000001
 20
2.890000000000001
 30
0
 11
7.232750000000002
 21
2.892500000000001
 31
0
  0
LINE
  8
0
 62
7
 10
7.232750000000002
 20
2.892500000000001
 30
0
 11
7.2395
 21
2.897500000000001
 31
0
  0
LINE
  8
0
 62
7
 10
7.2395
 20
2.897500000000001
 30
0
 11
7.246250000000001
 21
2.907500000000001
 31
0
  0
LINE
  8
0
 62
7
 10
7.318250000000001
 20
2.935000000000001
 30
0
 11
7.316
 21
2.942500000000001
 31
0
  0
LINE
  8
0
 62
7
 10
7.316
 20
2.942500000000001
 30
0
 11
7.309250000000002
 21
2.952500000000001
 31
0
  0
LINE
  8
0
 62
7
 10
7.309250000000002
 20
2.952500000000001
 30
0
 11
7.302500000000001
 21
2.957500000000001
 31
0
  0
LINE
  8
0
 62
7
 10
7.302500000000001
 20
2.957500000000001
 30
0
 11
7.29575
 21
2.960000000000001
 31
0
  0
LINE
  8
0
 62
7
 10
7.29575
 20
2.960000000000001
 30
0
 11
7.286750000000001
 21
2.960000000000001
 31
0
  0
LINE
  8
0
 62
7
 10
7.286750000000001
 20
2.960000000000001
 30
0
 11
7.28
 21
2.957500000000001
 31
0
  0
LINE
  8
0
 62
7
 10
7.28
 20
2.957500000000001
 30
0
 11
7.273250000000001
 21
2.952500000000001
 31
0
  0
LINE
  8
0
 62
7
 10
7.273250000000001
 20
2.952500000000001
 30
0
 11
7.266500000000001
 21
2.942500000000001
 31
0
  0
LINE
  8
0
 62
7
 10
7.266500000000001
 20
2.942500000000001
 30
0
 11
7.264250000000001
 21
2.935000000000001
 31
0
  0
LINE
  8
0
 62
7
 10
7.264250000000001
 20
2.935000000000001
 30
0
 11
7.264250000000001
 21
2.915000000000001
 31
0
  0
LINE
  8
0
 62
7
 10
7.264250000000001
 20
2.915000000000001
 30
0
 11
7.266500000000001
 21
2.907500000000001
 31
0
  0
LINE
  8
0
 62
7
 10
7.266500000000001
 20
2.907500000000001
 30
0
 11
7.273250000000001
 21
2.897500000000001
 31
0
  0
LINE
  8
0
 62
7
 10
7.273250000000001
 20
2.897500000000001
 30
0
 11
7.28
 21
2.892500000000001
 31
0
  0
LINE
  8
0
 62
7
 10
7.28
 20
2.892500000000001
 30
0
 11
7.286750000000001
 21
2.890000000000001
 31
0
  0
LINE
  8
0
 62
7
 10
7.286750000000001
 20
2.890000000000001
 30
0
 11
7.29575
 21
2.890000000000001
 31
0
  0
LINE
  8
0
 62
7
 10
7.29575
 20
2.890000000000001
 30
0
 11
7.302500000000001
 21
2.892500000000001
 31
0
  0
LINE
  8
0
 62
7
 10
7.302500000000001
 20
2.892500000000001
 30
0
 11
7.309250000000002
 21
2.897500000000001
 31
0
  0
LINE
  8
0
 62
7
 10
7.309250000000002
 20
2.897500000000001
 30
0
 11
7.316
 21
2.907500000000001
 31
0
  0
LINE
  8
0
 62
7
 10
7.316
 20
2.907500000000001
 30
0
 11
7.318250000000001
 21
2.915000000000001
 31
0
  0
LINE
  8
0
 62
7
 10
7.318250000000001
 20
2.960000000000001
 30
0
 11
7.318250000000001
 21
2.935000000000001
 31
0
  0
LINE
  8
0
 62
7
 10
7.318250000000001
 20
2.892500000000001
 30
0
 11
7.320500000000002
 21
2.890000000000001
 31
0
  0
LINE
  8
0
 62
7
 10
7.320500000000002
 20
2.890000000000001
 30
0
 11
7.322750000000001
 21
2.890000000000001
 31
0
  0
LINE
  8
0
 62
7
 10
7.318250000000001
 20
2.915000000000001
 30
0
 11
7.318250000000001
 21
2.892500000000001
 31
0
  0
LINE
  8
0
 62
7
 10
7.318250000000001
 20
2.935000000000001
 30
0
 11
7.318250000000001
 21
2.915000000000001
 31
0
  0
LINE
  8
0
 62
7
 10
7.34075
 20
2.890000000000001
 30
0
 11
7.34075
 21
2.892500000000001
 31
0
  0
LINE
  8
0
 62
7
 10
7.34075
 20
2.892500000000001
 30
0
 11
7.343000000000001
 21
2.892500000000001
 31
0
  0
LINE
  8
0
 62
7
 10
7.343000000000001
 20
2.892500000000001
 30
0
 11
7.343000000000001
 21
2.890000000000001
 31
0
  0
LINE
  8
0
 62
7
 10
7.343000000000001
 20
2.890000000000001
 30
0
 11
7.34075
 21
2.890000000000001
 31
0
  0
LINE
  8
0
 62
7
 10
7.444250000000001
 20
2.960000000000001
 30
0
 11
7.471250000000001
 21
2.990000000000001
 31
0
  0
LINE
  8
0
 62
7
 10
7.471250000000001
 20
2.990000000000001
 30
0
 11
7.471250000000001
 21
2.890000000000001
 31
0
  0
LINE
  8
0
 62
7
 10
7.498250000000001
 20
2.965000000000001
 30
0
 11
7.500500000000001
 21
2.975000000000001
 31
0
  0
LINE
  8
0
 62
7
 10
7.500500000000001
 20
2.975000000000001
 30
0
 11
7.505
 21
2.982500000000001
 31
0
  0
LINE
  8
0
 62
7
 10
7.505
 20
2.982500000000001
 30
0
 11
7.511750000000001
 21
2.987500000000001
 31
0
  0
LINE
  8
0
 62
7
 10
7.511750000000001
 20
2.987500000000001
 30
0
 11
7.5185
 21
2.990000000000001
 31
0
  0
LINE
  8
0
 62
7
 10
7.5185
 20
2.990000000000001
 30
0
 11
7.532000000000001
 21
2.990000000000001
 31
0
  0
LINE
  8
0
 62
7
 10
7.532000000000001
 20
2.990000000000001
 30
0
 11
7.53875
 21
2.987500000000001
 31
0
  0
LINE
  8
0
 62
7
 10
7.53875
 20
2.987500000000001
 30
0
 11
7.545500000000001
 21
2.982500000000001
 31
0
  0
LINE
  8
0
 62
7
 10
7.545500000000001
 20
2.982500000000001
 30
0
 11
7.550000000000001
 21
2.975000000000001
 31
0
  0
LINE
  8
0
 62
7
 10
7.550000000000001
 20
2.975000000000001
 30
0
 11
7.552250000000001
 21
2.965000000000001
 31
0
  0
LINE
  8
0
 62
7
 10
7.552250000000001
 20
2.965000000000001
 30
0
 11
7.552250000000001
 21
2.915000000000001
 31
0
  0
LINE
  8
0
 62
7
 10
7.552250000000001
 20
2.915000000000001
 30
0
 11
7.550000000000001
 21
2.905000000000001
 31
0
  0
LINE
  8
0
 62
7
 10
7.550000000000001
 20
2.905000000000001
 30
0
 11
7.545500000000001
 21
2.897500000000001
 31
0
  0
LINE
  8
0
 62
7
 10
7.545500000000001
 20
2.897500000000001
 30
0
 11
7.53875
 21
2.892500000000001
 31
0
  0
LINE
  8
0
 62
7
 10
7.53875
 20
2.892500000000001
 30
0
 11
7.532000000000001
 21
2.890000000000001
 31
0
  0
LINE
  8
0
 62
7
 10
7.532000000000001
 20
2.890000000000001
 30
0
 11
7.5185
 21
2.890000000000001
 31
0
  0
LINE
  8
0
 62
7
 10
7.5185
 20
2.890000000000001
 30
0
 11
7.511750000000001
 21
2.892500000000001
 31
0
  0
LINE
  8
0
 62
7
 10
7.511750000000001
 20
2.892500000000001
 30
0
 11
7.505
 21
2.897500000000001
 31
0
  0
LINE
  8
0
 62
7
 10
7.505
 20
2.897500000000001
 30
0
 11
7.500500000000001
 21
2.905000000000001
 31
0
  0
LINE
  8
0
 62
7
 10
7.500500000000001
 20
2.905000000000001
 30
0
 11
7.498250000000001
 21
2.915000000000001
 31
0
  0
LINE
  8
0
 62
7
 10
7.498250000000001
 20
2.915000000000001
 30
0
 11
7.498250000000001
 21
2.965000000000001
 31
0
  0
LINE
  8
0
 62
7
 10
7.579250000000001
 20
2.965000000000001
 30
0
 11
7.581500000000002
 21
2.975000000000001
 31
0
  0
LINE
  8
0
 62
7
 10
7.581500000000002
 20
2.975000000000001
 30
0
 11
7.586
 21
2.982500000000001
 31
0
  0
LINE
  8
0
 62
7
 10
7.586
 20
2.982500000000001
 30
0
 11
7.592750000000001
 21
2.987500000000001
 31
0
  0
LINE
  8
0
 62
7
 10
7.592750000000001
 20
2.987500000000001
 30
0
 11
7.599500000000001
 21
2.990000000000001
 31
0
  0
LINE
  8
0
 62
7
 10
7.599500000000001
 20
2.990000000000001
 30
0
 11
7.613000000000001
 21
2.990000000000001
 31
0
  0
LINE
  8
0
 62
7
 10
7.613000000000001
 20
2.990000000000001
 30
0
 11
7.619750000000001
 21
2.987500000000001
 31
0
  0
LINE
  8
0
 62
7
 10
7.619750000000001
 20
2.987500000000001
 30
0
 11
7.626500000000002
 21
2.982500000000001
 31
0
  0
LINE
  8
0
 62
7
 10
7.626500000000002
 20
2.982500000000001
 30
0
 11
7.631
 21
2.975000000000001
 31
0
  0
LINE
  8
0
 62
7
 10
7.631
 20
2.975000000000001
 30
0
 11
7.63325
 21
2.965000000000001
 31
0
  0
LINE
  8
0
 62
7
 10
7.63325
 20
2.965000000000001
 30
0
 11
7.63325
 21
2.915000000000001
 31
0
  0
LINE
  8
0
 62
7
 10
7.63325
 20
2.915000000000001
 30
0
 11
7.631
 21
2.905000000000001
 31
0
  0
LINE
  8
0
 62
7
 10
7.631
 20
2.905000000000001
 30
0
 11
7.626500000000002
 21
2.897500000000001
 31
0
  0
LINE
  8
0
 62
7
 10
7.626500000000002
 20
2.897500000000001
 30
0
 11
7.619750000000001
 21
2.892500000000001
 31
0
  0
LINE
  8
0
 62
7
 10
7.619750000000001
 20
2.892500000000001
 30
0
 11
7.613000000000001
 21
2.890000000000001
 31
0
  0
LINE
  8
0
 62
7
 10
7.613000000000001
 20
2.890000000000001
 30
0
 11
7.599500000000001
 21
2.890000000000001
 31
0
  0
LINE
  8
0
 62
7
 10
7.599500000000001
 20
2.890000000000001
 30
0
 11
7.592750000000001
 21
2.892500000000001
 31
0
  0
LINE
  8
0
 62
7
 10
7.592750000000001
 20
2.892500000000001
 30
0
 11
7.586
 21
2.897500000000001
 31
0
  0
LINE
  8
0
 62
7
 10
7.586
 20
2.897500000000001
 30
0
 11
7.581500000000002
 21
2.905000000000001
 31
0
  0
LINE
  8
0
 62
7
 10
7.581500000000002
 20
2.905000000000001
 30
0
 11
7.579250000000001
 21
2.915000000000001
 31
0
  0
LINE
  8
0
 62
7
 10
7.579250000000001
 20
2.915000000000001
 30
0
 11
7.579250000000001
 21
2.965000000000001
 31
0
  0
LINE
  8
0
 62
7
 10
7.784000000000002
 20
2.942500000000001
 30
0
 11
7.777250000000001
 21
2.952500000000001
 31
0
  0
LINE
  8
0
 62
7
 10
7.777250000000001
 20
2.952500000000001
 30
0
 11
7.770500000000002
 21
2.957500000000001
 31
0
  0
LINE
  8
0
 62
7
 10
7.770500000000002
 20
2.957500000000001
 30
0
 11
7.763750000000001
 21
2.960000000000001
 31
0
  0
LINE
  8
0
 62
7
 10
7.763750000000001
 20
2.960000000000001
 30
0
 11
7.75475
 21
2.960000000000001
 31
0
  0
LINE
  8
0
 62
7
 10
7.75475
 20
2.960000000000001
 30
0
 11
7.748000000000001
 21
2.957500000000001
 31
0
  0
LINE
  8
0
 62
7
 10
7.748000000000001
 20
2.957500000000001
 30
0
 11
7.741250000000001
 21
2.952500000000001
 31
0
  0
LINE
  8
0
 62
7
 10
7.741250000000001
 20
2.952500000000001
 30
0
 11
7.734500000000001
 21
2.942500000000001
 31
0
  0
LINE
  8
0
 62
7
 10
7.734500000000001
 20
2.942500000000001
 30
0
 11
7.732250000000001
 21
2.935000000000001
 31
0
  0
LINE
  8
0
 62
7
 10
7.732250000000001
 20
2.935000000000001
 30
0
 11
7.732250000000001
 21
2.915000000000001
 31
0
  0
LINE
  8
0
 62
7
 10
7.732250000000001
 20
2.915000000000001
 30
0
 11
7.734500000000001
 21
2.907500000000001
 31
0
  0
LINE
  8
0
 62
7
 10
7.734500000000001
 20
2.907500000000001
 30
0
 11
7.741250000000001
 21
2.897500000000001
 31
0
  0
LINE
  8
0
 62
7
 10
7.741250000000001
 20
2.897500000000001
 30
0
 11
7.748000000000001
 21
2.892500000000001
 31
0
  0
LINE
  8
0
 62
7
 10
7.748000000000001
 20
2.892500000000001
 30
0
 11
7.75475
 21
2.890000000000001
 31
0
  0
LINE
  8
0
 62
7
 10
7.75475
 20
2.890000000000001
 30
0
 11
7.763750000000001
 21
2.890000000000001
 31
0
  0
LINE
  8
0
 62
7
 10
7.763750000000001
 20
2.890000000000001
 30
0
 11
7.770500000000002
 21
2.892500000000001
 31
0
  0
LINE
  8
0
 62
7
 10
7.770500000000002
 20
2.892500000000001
 30
0
 11
7.777250000000001
 21
2.897500000000001
 31
0
  0
LINE
  8
0
 62
7
 10
7.777250000000001
 20
2.897500000000001
 30
0
 11
7.784000000000002
 21
2.907500000000001
 31
0
  0
LINE
  8
0
 62
7
 10
7.8425
 20
2.935000000000001
 30
0
 11
7.8425
 21
2.890000000000001
 31
0
  0
LINE
  8
0
 62
7
 10
7.802
 20
2.960000000000001
 30
0
 11
7.802
 21
2.935000000000001
 31
0
  0
LINE
  8
0
 62
7
 10
7.802
 20
2.890000000000001
 30
0
 11
7.802
 21
2.935000000000001
 31
0
  0
LINE
  8
0
 62
7
 10
7.802
 20
2.935000000000001
 30
0
 11
7.804250000000001
 21
2.947500000000001
 31
0
  0
LINE
  8
0
 62
7
 10
7.804250000000001
 20
2.947500000000001
 30
0
 11
7.806500000000002
 21
2.952500000000001
 31
0
  0
LINE
  8
0
 62
7
 10
7.806500000000002
 20
2.952500000000001
 30
0
 11
7.811
 21
2.957500000000001
 31
0
  0
LINE
  8
0
 62
7
 10
7.811
 20
2.957500000000001
 30
0
 11
7.817750000000001
 21
2.960000000000001
 31
0
  0
LINE
  8
0
 62
7
 10
7.817750000000001
 20
2.960000000000001
 30
0
 11
7.826750000000001
 21
2.960000000000001
 31
0
  0
LINE
  8
0
 62
7
 10
7.826750000000001
 20
2.960000000000001
 30
0
 11
7.833500000000001
 21
2.957500000000001
 31
0
  0
LINE
  8
0
 62
7
 10
7.833500000000001
 20
2.957500000000001
 30
0
 11
7.838000000000001
 21
2.952500000000001
 31
0
  0
LINE
  8
0
 62
7
 10
7.838000000000001
 20
2.952500000000001
 30
0
 11
7.840250000000002
 21
2.947500000000001
 31
0
  0
LINE
  8
0
 62
7
 10
7.840250000000002
 20
2.947500000000001
 30
0
 11
7.8425
 21
2.935000000000001
 31
0
  0
LINE
  8
0
 62
7
 10
7.8425
 20
2.935000000000001
 30
0
 11
7.844750000000001
 21
2.947500000000001
 31
0
  0
LINE
  8
0
 62
7
 10
7.844750000000001
 20
2.947500000000001
 30
0
 11
7.847
 21
2.952500000000001
 31
0
  0
LINE
  8
0
 62
7
 10
7.847
 20
2.952500000000001
 30
0
 11
7.851500000000001
 21
2.957500000000001
 31
0
  0
LINE
  8
0
 62
7
 10
7.851500000000001
 20
2.957500000000001
 30
0
 11
7.85825
 21
2.960000000000001
 31
0
  0
LINE
  8
0
 62
7
 10
7.85825
 20
2.960000000000001
 30
0
 11
7.86725
 21
2.960000000000001
 31
0
  0
LINE
  8
0
 62
7
 10
7.86725
 20
2.960000000000001
 30
0
 11
7.874000000000001
 21
2.957500000000001
 31
0
  0
LINE
  8
0
 62
7
 10
7.8785
 20
2.952500000000001
 30
0
 11
7.874000000000001
 21
2.957500000000001
 31
0
  0
LINE
  8
0
 62
7
 10
7.874000000000001
 20
2.957500000000001
 30
0
 11
7.8785
 21
2.952500000000001
 31
0
  0
LINE
  8
0
 62
7
 10
7.8785
 20
2.952500000000001
 30
0
 11
7.880750000000001
 21
2.947500000000001
 31
0
  0
LINE
  8
0
 62
7
 10
7.880750000000001
 20
2.947500000000001
 30
0
 11
7.883000000000002
 21
2.935000000000001
 31
0
  0
LINE
  8
0
 62
7
 10
7.883000000000002
 20
2.935000000000001
 30
0
 11
7.883000000000002
 21
2.890000000000001
 31
0
  0
ARC
  8
0
 62
7
 10
5.779222285878841
 20
3.90577771412116
 30
0
 40
0.624000000000002
 50
89.92860523403276
 51
180.0713947658128
  0
ARC
  8
0
 62
7
 10
6.310777714121168
 20
3.90577771412116
 30
0
 40
0.6239999999999845
 50
359.9286052339465
 51
90.07139476575702
  0
CIRCLE
  8
0
 62
7
 10
5.1552227703211
 20
3.250000000000001
 30
0
 40
0.05999999999999961
  0
DIMENSION
  8
0
  6
CONTINUOUS
 62
7
  2
*D1
  3
DMST_1
 10
7.424999999999999
 20
11.4573984020326
 30
0
 11
6.04982609294272
 21
11.4573984020326
 31
0
 12
0
 22
0
 32
0
 70
0
 13
4.665
 23
11.2
 33
0
 14
7.425000000000001
 24
11.2
 34
0
 53
0
  0
DIMENSION
  8
0
  6
CONTINUOUS
 62
7
  2
*D2
  3
DMST_2
 10
4.19864568585704
 20
5.020000000000001
 30
0
 11
4.19864568585704
 21
4.18074585845682
 31
0
 12
0
 22
0
 32
0
 70
0
 13
4.49
 23
3.25
 33
0
 14
4.49
 24
5.020000000000001
 34
0
 50
90
 53
0
  0
DIMENSION
  8
0
  6
CONTINUOUS
 62
7
  2
*D3
  3
DMST_2
 10
7.425
 20
5.90385718077556
 30
0
 11
6.11968195736104
 21
5.90385718077556
 31
0
 12
0
 22
0
 32
0
 70
0
 13
4.665
 23
5.539999999999999
 33
0
 14
7.425000000000001
 24
5.539999999999999
 34
0
 53
0
  0
DIMENSION
  8
0
  6
CONTINUOUS
 62
7
  2
*D4
  3
DMST_2
 10
7.947577076307271
 20
3.35
 30
0
 11
7.947577076307271
 21
4.18074585845682
 31
0
 12
0
 22
0
 32
0
 70
0
 13
7.600000000000001
 23
5.020000000000001
 33
0
 14
7.600000000000001
 24
3.35
 34
0
 50
90
 53
0
  0
INSERT
  8
0
  2
*D0
 10
0
 20
0
 30
0
  0
ENDSEC
  0
EOF
