  0
SECTION
  2
HEADER
  9
$ACADVER
  1
AC1009
  9
$INSBASE
 10
0
 20
0
  9
$EXTMIN
 10
0.4912603637937901
 20
2.890000000000001
  9
$EXTMAX
 10
8.250000000000027
 20
11.5423728332766
  9
$LIMMIN
 10
0.4912603637937901
 20
2.890000000000001
  9
$LIMMAX
 10
8.250000000000027
 20
11.5423728332766
  9
$VIEWCTR
 10
10
 20
10
  9
$VIEWSIZE
 40
10
  9
$SNAPMODE
 70
0
  9
$SNAPUNIT
 10
1
 20
1
  9
$SNAPBASE
 10
0
 20
0
  9
$SNAPANG
 50
0
  9
$SNAPSTYLE
 70
0
  9
$SNAPISOPAIR
 70
0
  9
$GRIDMODE
 70
0
  9
$GRIDUNIT
 10
0
 20
0
  9
$ORTHOMODE
 70
0
  9
$REGENMODE
 70
1
  9
$FILLMODE
 70
1
  9
$QTEXTMODE
 70
0
  9
$DRAGMODE
 70
2
  9
$LTSCALE
 40
1
  9
$OSMODE
 70
0
  9
$ATTMODE
 70
1
  9
$TEXTSIZE
 40
3.5
  9
$TRACEWID
 40
0.5
  9
$TEXTSTYLE
  7
STANDARD
  9
$CLAYER
  8
0
  9
$CELTYPE
  6
BYLAYER
  9
$CECOLOR
 62
256
  9
$DIMSCALE
 40
1
  9
$DIMASZ
 40
0.18
  9
$DIMEXO
 40
0.0625
  9
$DIMDLI
 40
0.38
  9
$DIMRND
 40
0
  9
$DIMDLE
 40
0
  9
$DIMEXE
 40
0.18
  9
$DIMTP
 40
0
  9
$DIMTM
 40
0
  9
$DIMTXT
 40
0.18
  9
$DIMCEN
 40
0.09
  9
$DIMTSZ
 40
0
  9
$DIMTOL
 70
0
  9
$DIMLIM
 70
0
  9
$DIMTIH
 70
1
  9
$DIMTOH
 70
1
  9
$DIMSE1
 70
0
  9
$DIMSE2
 70
0
  9
$DIMTAD
 70
0
  9
$DIMZIN
 70
0
  9
$DIMBLK
  1

  9
$DIMASO
 70
1
  9
$DIMSHO
 70
1
  9
$DIMPOST
  1

  9
$DIMAPOST
  1

  9
$DIMALT
 70
0
  9
$DIMALTD
 70
2
  9
$DIMALTF
 40
25.4
  9
$DIMLFAC
 40
1
  9
$DIMTOFL
 70
0
  9
$DIMTVP
 40
0
  9
$DIMTIX
 70
0
  9
$DIMSOXD
 70
0
  9
$DIMSAH
 70
0
  9
$DIMBLK1
  1

  9
$DIMBLK2
  1

  9
$DIMSTYLE
  2
*UNNAMED
  9
$DIMCLRD
 70
0
  9
$DIMCLRE
 70
0
  9
$DIMCLRT
 70
0
  9
$DIMTFAC
 40
1
  9
$DIMGAP
 40
0.09
  9
$LUNITS
 70
2
  9
$LUPREC
 70
4
  9
$AXISMODE
 70
0
  9
$AXISUNIT
 10
0
 20
0
  9
$SKETCHINC
 40
0.1
  9
$FILLETRAD
 40
2
  9
$AUNITS
 70
0
  9
$AUPREC
 70
0
  9
$MENU
  1
ACAD
  9
$ELEVATION
 40
0
  9
$THICKNESS
 40
0
  9
$VIEWDIR
 10
0
 20
0
 30
1
  9
$LIMCHECK
 70
0
  9
$BLIPMODE
 70
1
  9
$CHAMFERA
 40
0
  9
$CHAMFERB
 40
0
  9
$FASTZOOM
 70
1
  9
$SKPOLY
 70
0
  9
$ANGBASE
 50
0
  9
$ANGDIR
 70
0
  9
$PDMODE
 70
0
  9
$PDSIZE
 40
0
  9
$PLINEWID
 40
0
  9
$COORDS
 70
2
  0
ENDSEC
  0
SECTION
  2
TABLES
  0
TABLE
  2
DIMSTYLE
 70
2
  0
DIMSTYLE
  2
DMST_1
 70
0
  3

  4

  5

  6

  7

 40
1
 41
0.1
 42
0
 43
0.7
 44
0.2
 45
0
 46
0
 47
0
 48
0
140
0.1
141
0
142
0.1
143
25.4
144
1
145
0
146
1
147
0.2
 71
0
 72
0
 73
0
 74
0
 75
0
 76
0
 77
0
 78
9
170
0
171
2
172
0
173
0
174
0
175
0
176
7
177
7
178
7
  0
DIMSTYLE
  2
DMST_2
 70
0
  3

  4

  5

  6

  7

 40
1
 41
0.1
 42
0
 43
0.7
 44
0.2
 45
0
 46
0
 47
0
 48
0
140
0.1
141
0
142
0.1
143
25.4
144
1
145
0
146
1
147
0.25
 71
0
 72
0
 73
0
 74
0
 75
0
 76
0
 77
0
 78
9
170
0
171
2
172
0
173
0
174
0
175
0
176
7
177
7
178
7
  0
ENDTAB
  0
TABLE
  2
LTYPE
 70
9
  0
LTYPE
  2
CONTINUOUS
 70
64
  3
Solid line
 72
65
 73
0
 40
0
  0
LTYPE
  2
BORDER
 70
64
  3
__ __ . __ __ .
 72
65
 73
6
 40
0.3984645383745802
 49
0.1138470109641658
 49
-0.05692350548208289
 49
0.1138470109641658
 49
-0.05692350548208289
 49
0
 49
-0.05692350548208289
  0
LTYPE
  2
CENTER
 70
64
  3
____ _ ____ _
 72
65
 73
4
 40
0.4553880438566631
 49
0.2846175274104145
 49
-0.05692350548208289
 49
0.05692350548208289
 49
-0.05692350548208289
  0
LTYPE
  2
DASHDOT
 70
64
  3
__ . __ . __ .
 72
65
 73
4
 40
0.2276940219283316
 49
0.1138470109641658
 49
-0.05692350548208289
 49
0
 49
-0.05692350548208289
  0
LTYPE
  2
DASHED
 70
64
  3
__ __ __ __ __
 72
65
 73
2
 40
0.1707705164462487
 49
0.1138470109641658
 49
-0.05692350548208289
  0
LTYPE
  2
DIVIDE
 70
64
  3
__ . . __ . . 
 72
65
 73
6
 40
0.2846175274104145
 49
0.1138470109641658
 49
-0.05692350548208289
 49
0
 49
-0.05692350548208289
 49
0
 49
-0.05692350548208289
  0
LTYPE
  2
DOT
 70
64
  3
..............
 72
65
 73
4
 40
0.1138470109641658
 49
0
 49
-0.05692350548208289
 49
0
 49
-0.05692350548208289
  0
LTYPE
  2
HIDDEN
 70
64
  3
_ _ _ _ _ _ _
 72
65
 73
2
 40
0.08538525822312434
 49
0.05692350548208289
 49
-0.02846175274104145
  0
LTYPE
  2
PHANTOM
 70
64
  3
_____ _ _ _____ _ _ 
 72
65
 73
6
 40
0.5692350548208289
 49
0.2846175274104145
 49
-0.05692350548208289
 49
0.05692350548208289
 49
-0.05692350548208289
 49
0.05692350548208289
 49
-0.05692350548208289
  0
ENDTAB
  0
TABLE
  2
LAYER
 70
2
  0
LAYER
  2
0
 70
0
 62
7
  6
CONTINUOUS
  0
ENDTAB
  0
TABLE
  2
STYLE
 70
4
  0
STYLE
  2
STANDARD
 70
0
 40
0
 41
1
 50
0
 71
0
 42
3.5
  3
txt
  4

  0
STYLE
  2
SIMPLEX
 70
0
 40
0
 41
1
 50
0
 71
0
 42
3.5
  3
simplex
  4

  0
STYLE
  2
COMPLEX
 70
0
 40
0
 41
1
 50
0
 71
0
 42
3.5
  3
complex
  4

  0
STYLE
  2
ITALIC
 70
0
 40
0
 41
1
 50
0
 71
0
 42
3.5
  3
italic
  4

  0
ENDTAB
  0
TABLE
  2
VIEW
 70
0
  0
ENDTAB
  0
ENDSEC
  0
SECTION
  2
BLOCKS
  0
BLOCK
  8
0
  2
*X0
 70
1
 10
0
 20
0
 30
0
  0
LINE
  8
0
 62
7
 10
1.1
 20
7.994291116568838
 30
0
 11
1.205708883431162
 21
8.1
 31
0
  0
LINE
  8
0
 62
7
 10
1.267840917787126
 20
7.949999999999999
 30
0
 11
1.275
 21
7.957159082212874
 31
0
  0
LINE
  8
0
 62
7
 10
1.161774900609145
 20
7.950000000000001
 30
0
 11
1.274999999999999
 21
8.063225099390854
 31
0
  0
ENDBLK
  8
0
  0
BLOCK
  8
0
  2
*X1
 70
1
 10
0
 20
0
 30
0
  0
LINE
  8
0
 62
7
 10
1.1
 20
10.75200756319637
 30
0
 11
1.197992436803626
 21
10.85
 31
0
  0
LINE
  8
0
 62
7
 10
1.1
 20
10.5398755288404
 30
0
 11
1.275
 21
10.7148755288404
 31
0
  0
LINE
  8
0
 62
7
 10
1.1
 20
10.32774349448444
 30
0
 11
1.275
 21
10.50274349448444
 31
0
  0
LINE
  8
0
 62
7
 10
1.1
 20
10.11561146012848
 30
0
 11
1.275
 21
10.29061146012848
 31
0
  0
LINE
  8
0
 62
7
 10
1.1
 20
9.903479425772513
 30
0
 11
1.275
 21
10.07847942577251
 31
0
  0
LINE
  8
0
 62
7
 10
1.1
 20
9.691347391416549
 30
0
 11
1.275
 21
9.866347391416548
 31
0
  0
LINE
  8
0
 62
7
 10
1.1
 20
9.479215357060585
 30
0
 11
1.275
 21
9.654215357060584
 31
0
  0
LINE
  8
0
 62
7
 10
1.1
 20
9.267083322704622
 30
0
 11
1.275
 21
9.442083322704621
 31
0
  0
LINE
  8
0
 62
7
 10
1.1
 20
9.054951288348658
 30
0
 11
1.275
 21
9.229951288348657
 31
0
  0
LINE
  8
0
 62
7
 10
1.1
 20
8.842819253992694
 30
0
 11
1.275
 21
9.017819253992693
 31
0
  0
LINE
  8
0
 62
7
 10
1.1
 20
8.63068721963673
 30
0
 11
1.275
 21
8.805687219636729
 31
0
  0
LINE
  8
0
 62
7
 10
1.1
 20
8.418555185280766
 30
0
 11
1.275
 21
8.593555185280765
 31
0
  0
LINE
  8
0
 62
7
 10
1.1935768490752
 20
8.300000000000001
 30
0
 11
1.275
 21
8.381423150924801
 31
0
  0
LINE
  8
0
 62
7
 10
1.100000000000001
 20
10.64594154601838
 30
0
 11
1.274999999999999
 21
10.82094154601838
 31
0
  0
LINE
  8
0
 62
7
 10
1.100000000000001
 20
10.43380951166242
 30
0
 11
1.274999999999999
 21
10.60880951166242
 31
0
  0
LINE
  8
0
 62
7
 10
1.100000000000001
 20
10.22167747730646
 30
0
 11
1.274999999999999
 21
10.39667747730646
 31
0
  0
LINE
  8
0
 62
7
 10
1.100000000000001
 20
10.00954544295049
 30
0
 11
1.274999999999999
 21
10.18454544295049
 31
0
  0
LINE
  8
0
 62
7
 10
1.100000000000001
 20
9.797413408594529
 30
0
 11
1.274999999999999
 21
9.972413408594528
 31
0
  0
LINE
  8
0
 62
7
 10
1.100000000000001
 20
9.585281374238566
 30
0
 11
1.274999999999999
 21
9.760281374238565
 31
0
  0
LINE
  8
0
 62
7
 10
1.100000000000001
 20
9.373149339882602
 30
0
 11
1.274999999999999
 21
9.548149339882601
 31
0
  0
LINE
  8
0
 62
7
 10
1.100000000000001
 20
9.161017305526638
 30
0
 11
1.274999999999999
 21
9.336017305526637
 31
0
  0
LINE
  8
0
 62
7
 10
1.100000000000001
 20
8.948885271170674
 30
0
 11
1.274999999999999
 21
9.123885271170673
 31
0
  0
LINE
  8
0
 62
7
 10
1.100000000000001
 20
8.73675323681471
 30
0
 11
1.274999999999999
 21
8.911753236814709
 31
0
  0
LINE
  8
0
 62
7
 10
1.100000000000001
 20
8.524621202458746
 30
0
 11
1.274999999999999
 21
8.699621202458745
 31
0
  0
LINE
  8
0
 62
7
 10
1.100000000000001
 20
8.312489168102783
 30
0
 11
1.274999999999999
 21
8.487489168102782
 31
0
  0
ENDBLK
  8
0
  0
BLOCK
  8
0
  2
*X2
 70
1
 10
0
 20
0
 30
0
  0
LINE
  8
0
 62
7
 10
1.100000000000001
 20
11.1762716319083
 30
0
 11
1.123728368091698
 21
11.2
 31
0
  0
LINE
  8
0
 62
7
 10
1.185860402447664
 20
11.05
 30
0
 11
1.274999999999999
 21
11.13913959755234
 31
0
  0
LINE
  8
0
 62
7
 10
1.1
 20
11.07020561473032
 30
0
 11
1.229794385269681
 21
11.2
 31
0
  0
ENDBLK
  8
0
  0
BLOCK
  8
0
  2
*X3
 70
1
 10
0
 20
0
 30
0
  0
LINE
  8
0
 62
7
 10
4.16
 20
8.084442635585338
 30
0
 11
4.175557364414661
 21
8.099999999999998
 31
0
  0
LINE
  8
0
 62
7
 10
4.237689398770627
 20
7.95
 30
0
 11
4.335000000000001
 21
8.047310601229375
 31
0
  0
LINE
  8
0
 62
7
 10
4.16
 20
7.978376618407355
 30
0
 11
4.281623381592643
 21
8.1
 31
0
  0
ENDBLK
  8
0
  0
BLOCK
  8
0
  2
*X4
 70
1
 10
0
 20
0
 30
0
  0
LINE
  8
0
 62
7
 10
4.16
 20
10.84215908221287
 30
0
 11
4.167840917787125
 21
10.85
 31
0
  0
LINE
  8
0
 62
7
 10
4.16
 20
10.63002704785691
 30
0
 11
4.334999999999999
 21
10.8050270478569
 31
0
  0
LINE
  8
0
 62
7
 10
4.16
 20
10.41789501350094
 30
0
 11
4.334999999999999
 21
10.59289501350094
 31
0
  0
LINE
  8
0
 62
7
 10
4.16
 20
10.20576297914498
 30
0
 11
4.334999999999999
 21
10.38076297914498
 31
0
  0
LINE
  8
0
 62
7
 10
4.16
 20
9.993630944789015
 30
0
 11
4.334999999999999
 21
10.16863094478901
 31
0
  0
LINE
  8
0
 62
7
 10
4.16
 20
9.781498910433051
 30
0
 11
4.334999999999999
 21
9.956498910433048
 31
0
  0
LINE
  8
0
 62
7
 10
4.16
 20
9.569366876077087
 30
0
 11
4.334999999999999
 21
9.744366876077084
 31
0
  0
LINE
  8
0
 62
7
 10
4.16
 20
9.357234841721123
 30
0
 11
4.334999999999999
 21
9.53223484172112
 31
0
  0
LINE
  8
0
 62
7
 10
4.16
 20
9.145102807365159
 30
0
 11
4.334999999999999
 21
9.320102807365156
 31
0
  0
LINE
  8
0
 62
7
 10
4.16
 20
8.932970773009195
 30
0
 11
4.334999999999999
 21
9.107970773009193
 31
0
  0
LINE
  8
0
 62
7
 10
4.16
 20
8.720838738653232
 30
0
 11
4.334999999999999
 21
8.895838738653229
 31
0
  0
LINE
  8
0
 62
7
 10
4.16
 20
8.508706704297268
 30
0
 11
4.334999999999999
 21
8.683706704297265
 31
0
  0
LINE
  8
0
 62
7
 10
4.163425330058699
 20
8.300000000000001
 30
0
 11
4.334999999999999
 21
8.471574669941301
 31
0
  0
LINE
  8
0
 62
7
 10
4.16
 20
10.73609306503489
 30
0
 11
4.273906934965108
 21
10.85
 31
0
  0
LINE
  8
0
 62
7
 10
4.16
 20
10.52396103067892
 30
0
 11
4.335000000000001
 21
10.69896103067892
 31
0
  0
LINE
  8
0
 62
7
 10
4.16
 20
10.31182899632296
 30
0
 11
4.335000000000001
 21
10.48682899632296
 31
0
  0
LINE
  8
0
 62
7
 10
4.16
 20
10.09969696196699
 30
0
 11
4.335000000000001
 21
10.274696961967
 31
0
  0
LINE
  8
0
 62
7
 10
4.16
 20
9.887564927611031
 30
0
 11
4.335000000000001
 21
10.06256492761103
 31
0
  0
LINE
  8
0
 62
7
 10
4.16
 20
9.675432893255067
 30
0
 11
4.335000000000001
 21
9.850432893255068
 31
0
  0
LINE
  8
0
 62
7
 10
4.16
 20
9.463300858899103
 30
0
 11
4.335000000000001
 21
9.638300858899104
 31
0
  0
LINE
  8
0
 62
7
 10
4.16
 20
9.251168824543139
 30
0
 11
4.335000000000001
 21
9.42616882454314
 31
0
  0
LINE
  8
0
 62
7
 10
4.16
 20
9.039036790187176
 30
0
 11
4.335000000000001
 21
9.214036790187176
 31
0
  0
LINE
  8
0
 62
7
 10
4.16
 20
8.826904755831212
 30
0
 11
4.335000000000001
 21
9.001904755831212
 31
0
  0
LINE
  8
0
 62
7
 10
4.16
 20
8.614772721475248
 30
0
 11
4.335000000000001
 21
8.789772721475249
 31
0
  0
LINE
  8
0
 62
7
 10
4.16
 20
8.402640687119284
 30
0
 11
4.335000000000001
 21
8.577640687119285
 31
0
  0
LINE
  8
0
 62
7
 10
4.269491347236682
 20
8.300000000000001
 30
0
 11
4.335000000000001
 21
8.365508652763321
 31
0
  0
ENDBLK
  8
0
  0
BLOCK
  8
0
  2
*X5
 70
1
 10
0
 20
0
 30
0
  0
LINE
  8
0
 62
7
 10
4.16
 20
11.05429111656884
 30
0
 11
4.305708883431163
 21
11.2
 31
0
  0
LINE
  8
0
 62
7
 10
4.16
 20
11.16035713374682
 30
0
 11
4.19964286625318
 21
11.2
 31
0
  0
LINE
  8
0
 62
7
 10
4.261774900609145
 20
11.05
 30
0
 11
4.335
 21
11.12322509939085
 31
0
  0
ENDBLK
  8
0
  0
BLOCK
  8
0
  2
*X6
 70
1
 10
0
 20
0
 30
0
  0
LINE
  8
0
 62
7
  6
DASHED
 10
0.9499999999999997
 20
8.268555185280764
 30
0
 11
0.9814448147192345
 21
8.300000000000001
 31
0
  0
LINE
  8
0
 62
7
  6
DASHED
 10
0.9935768490751999
 20
8.100000000000001
 30
0
 11
1.193576849075199
 21
8.300000000000001
 31
0
  0
LINE
  8
0
 62
7
  6
DASHED
 10
1.205708883431164
 20
8.100000000000001
 30
0
 11
1.405708883431163
 21
8.300000000000001
 31
0
  0
LINE
  8
0
 62
7
  6
DASHED
 10
1.417840917787129
 20
8.100000000000001
 30
0
 11
1.617840917787127
 21
8.300000000000001
 31
0
  0
LINE
  8
0
 62
7
  6
DASHED
 10
1.629972952143093
 20
8.100000000000001
 30
0
 11
1.829972952143092
 21
8.300000000000001
 31
0
  0
LINE
  8
0
 62
7
  6
DASHED
 10
1.842104986499057
 20
8.100000000000001
 30
0
 11
2.042104986499056
 21
8.300000000000001
 31
0
  0
LINE
  8
0
 62
7
  6
DASHED
 10
2.054237020855021
 20
8.100000000000001
 30
0
 11
2.25423702085502
 21
8.300000000000001
 31
0
  0
LINE
  8
0
 62
7
  6
DASHED
 10
2.266369055210986
 20
8.100000000000001
 30
0
 11
2.466369055210984
 21
8.300000000000001
 31
0
  0
LINE
  8
0
 62
7
  6
DASHED
 10
2.47850108956695
 20
8.100000000000001
 30
0
 11
2.678501089566949
 21
8.300000000000001
 31
0
  0
LINE
  8
0
 62
7
  6
DASHED
 10
2.690633123922914
 20
8.100000000000001
 30
0
 11
2.890633123922913
 21
8.300000000000001
 31
0
  0
LINE
  8
0
 62
7
  6
DASHED
 10
2.902765158278878
 20
8.100000000000001
 30
0
 11
3.102765158278877
 21
8.300000000000001
 31
0
  0
LINE
  8
0
 62
7
  6
DASHED
 10
3.114897192634843
 20
8.100000000000001
 30
0
 11
3.314897192634842
 21
8.300000000000001
 31
0
  0
LINE
  8
0
 62
7
  6
DASHED
 10
3.327029226990807
 20
8.100000000000001
 30
0
 11
3.527029226990806
 21
8.300000000000001
 31
0
  0
LINE
  8
0
 62
7
  6
DASHED
 10
3.539161261346771
 20
8.100000000000001
 30
0
 11
3.73916126134677
 21
8.300000000000001
 31
0
  0
LINE
  8
0
 62
7
  6
DASHED
 10
3.751293295702736
 20
8.100000000000001
 30
0
 11
3.951293295702734
 21
8.300000000000001
 31
0
  0
LINE
  8
0
 62
7
  6
DASHED
 10
3.9634253300587
 20
8.100000000000001
 30
0
 11
4.163425330058699
 21
8.300000000000001
 31
0
  0
LINE
  8
0
 62
7
  6
DASHED
 10
4.175557364414664
 20
8.100000000000001
 30
0
 11
4.375557364414663
 21
8.300000000000001
 31
0
  0
LINE
  8
0
 62
7
  6
DASHED
 10
4.387689398770628
 20
8.100000000000001
 30
0
 11
4.485
 21
8.197310601229374
 31
0
  0
LINE
  8
0
 62
7
 10
0.9499999999999988
 20
8.162489168102784
 30
0
 11
1.087510831897218
 21
8.300000000000001
 31
0
  0
LINE
  8
0
 62
7
 10
1.099642866253181
 20
8.100000000000001
 30
0
 11
1.299642866253182
 21
8.300000000000001
 31
0
  0
LINE
  8
0
 62
7
 10
1.311774900609146
 20
8.100000000000001
 30
0
 11
1.511774900609146
 21
8.300000000000001
 31
0
  0
LINE
  8
0
 62
7
 10
1.52390693496511
 20
8.100000000000001
 30
0
 11
1.723906934965111
 21
8.300000000000001
 31
0
  0
LINE
  8
0
 62
7
 10
1.736038969321074
 20
8.100000000000001
 30
0
 11
1.936038969321075
 21
8.300000000000001
 31
0
  0
LINE
  8
0
 62
7
 10
1.948171003677039
 20
8.100000000000001
 30
0
 11
2.148171003677039
 21
8.300000000000001
 31
0
  0
LINE
  8
0
 62
7
 10
2.160303038033003
 20
8.100000000000001
 30
0
 11
2.360303038033003
 21
8.300000000000001
 31
0
  0
LINE
  8
0
 62
7
 10
2.372435072388967
 20
8.100000000000001
 30
0
 11
2.572435072388968
 21
8.300000000000001
 31
0
  0
LINE
  8
0
 62
7
 10
2.584567106744931
 20
8.100000000000001
 30
0
 11
2.784567106744932
 21
8.300000000000001
 31
0
  0
LINE
  8
0
 62
7
 10
2.796699141100896
 20
8.100000000000001
 30
0
 11
2.996699141100896
 21
8.300000000000001
 31
0
  0
LINE
  8
0
 62
7
 10
3.00883117545686
 20
8.100000000000001
 30
0
 11
3.208831175456861
 21
8.300000000000001
 31
0
  0
LINE
  8
0
 62
7
 10
3.220963209812824
 20
8.100000000000001
 30
0
 11
3.420963209812825
 21
8.300000000000001
 31
0
  0
LINE
  8
0
 62
7
 10
3.433095244168789
 20
8.100000000000001
 30
0
 11
3.633095244168789
 21
8.300000000000001
 31
0
  0
LINE
  8
0
 62
7
 10
3.645227278524753
 20
8.100000000000001
 30
0
 11
3.845227278524753
 21
8.300000000000001
 31
0
  0
LINE
  8
0
 62
7
 10
3.857359312880717
 20
8.100000000000001
 30
0
 11
4.057359312880718
 21
8.300000000000001
 31
0
  0
LINE
  8
0
 62
7
 10
4.069491347236681
 20
8.100000000000001
 30
0
 11
4.269491347236682
 21
8.300000000000001
 31
0
  0
LINE
  8
0
 62
7
 10
4.281623381592645
 20
8.100000000000001
 30
0
 11
4.481623381592645
 21
8.300000000000001
 31
0
  0
ENDBLK
  8
0
  0
BLOCK
  8
0
  2
*X7
 70
1
 10
0
 20
0
 30
0
  0
LINE
  8
0
 62
7
  6
DASHED
 10
0.9499999999999993
 20
11.0262716319083
 30
0
 11
0.973728368091701
 21
11.05
 31
0
  0
LINE
  8
0
 62
7
  6
DASHED
 10
0.9858604024476638
 20
10.85
 30
0
 11
1.185860402447665
 21
11.05
 31
0
  0
LINE
  8
0
 62
7
  6
DASHED
 10
1.197992436803628
 20
10.85
 30
0
 11
1.39799243680363
 21
11.05
 31
0
  0
LINE
  8
0
 62
7
  6
DASHED
 10
1.410124471159592
 20
10.85
 30
0
 11
1.610124471159594
 21
11.05
 31
0
  0
LINE
  8
0
 62
7
  6
DASHED
 10
1.622256505515557
 20
10.85
 30
0
 11
1.822256505515558
 21
11.05
 31
0
  0
LINE
  8
0
 62
7
  6
DASHED
 10
1.834388539871521
 20
10.85
 30
0
 11
2.034388539871522
 21
11.05
 31
0
  0
LINE
  8
0
 62
7
  6
DASHED
 10
2.046520574227485
 20
10.85
 30
0
 11
2.246520574227487
 21
11.05
 31
0
  0
LINE
  8
0
 62
7
  6
DASHED
 10
2.25865260858345
 20
10.85
 30
0
 11
2.458652608583451
 21
11.05
 31
0
  0
LINE
  8
0
 62
7
  6
DASHED
 10
2.470784642939414
 20
10.85
 30
0
 11
2.670784642939415
 21
11.05
 31
0
  0
LINE
  8
0
 62
7
  6
DASHED
 10
2.682916677295378
 20
10.85
 30
0
 11
2.88291667729538
 21
11.05
 31
0
  0
LINE
  8
0
 62
7
  6
DASHED
 10
2.895048711651342
 20
10.85
 30
0
 11
3.095048711651344
 21
11.05
 31
0
  0
LINE
  8
0
 62
7
  6
DASHED
 10
3.107180746007307
 20
10.85
 30
0
 11
3.307180746007308
 21
11.05
 31
0
  0
LINE
  8
0
 62
7
  6
DASHED
 10
3.319312780363271
 20
10.85
 30
0
 11
3.519312780363272
 21
11.05
 31
0
  0
LINE
  8
0
 62
7
  6
DASHED
 10
3.531444814719235
 20
10.85
 30
0
 11
3.731444814719237
 21
11.05
 31
0
  0
LINE
  8
0
 62
7
  6
DASHED
 10
3.743576849075199
 20
10.85
 30
0
 11
3.943576849075201
 21
11.05
 31
0
  0
LINE
  8
0
 62
7
  6
DASHED
 10
3.955708883431164
 20
10.85
 30
0
 11
4.155708883431165
 21
11.05
 31
0
  0
LINE
  8
0
 62
7
  6
DASHED
 10
4.167840917787128
 20
10.85
 30
0
 11
4.367840917787129
 21
11.05
 31
0
  0
LINE
  8
0
 62
7
  6
DASHED
 10
4.379972952143092
 20
10.85
 30
0
 11
4.484999999999999
 21
10.95502704785691
 31
0
  0
LINE
  8
0
 62
7
 10
0.9500000000000002
 20
10.92020561473032
 30
0
 11
1.079794385269683
 21
11.05
 31
0
  0
LINE
  8
0
 62
7
 10
1.091926419625646
 20
10.85
 30
0
 11
1.291926419625648
 21
11.05
 31
0
  0
LINE
  8
0
 62
7
 10
1.30405845398161
 20
10.85
 30
0
 11
1.504058453981612
 21
11.05
 31
0
  0
LINE
  8
0
 62
7
 10
1.516190488337575
 20
10.85
 30
0
 11
1.716190488337576
 21
11.05
 31
0
  0
LINE
  8
0
 62
7
 10
1.728322522693539
 20
10.85
 30
0
 11
1.928322522693541
 21
11.05
 31
0
  0
LINE
  8
0
 62
7
 10
1.940454557049503
 20
10.85
 30
0
 11
2.140454557049505
 21
11.05
 31
0
  0
LINE
  8
0
 62
7
 10
2.152586591405468
 20
10.85
 30
0
 11
2.352586591405469
 21
11.05
 31
0
  0
LINE
  8
0
 62
7
 10
2.364718625761432
 20
10.85
 30
0
 11
2.564718625761433
 21
11.05
 31
0
  0
LINE
  8
0
 62
7
 10
2.576850660117396
 20
10.85
 30
0
 11
2.776850660117398
 21
11.05
 31
0
  0
LINE
  8
0
 62
7
 10
2.78898269447336
 20
10.85
 30
0
 11
2.988982694473362
 21
11.05
 31
0
  0
LINE
  8
0
 62
7
 10
3.001114728829325
 20
10.85
 30
0
 11
3.201114728829326
 21
11.05
 31
0
  0
LINE
  8
0
 62
7
 10
3.213246763185289
 20
10.85
 30
0
 11
3.413246763185291
 21
11.05
 31
0
  0
LINE
  8
0
 62
7
 10
3.425378797541253
 20
10.85
 30
0
 11
3.625378797541255
 21
11.05
 31
0
  0
LINE
  8
0
 62
7
 10
3.637510831897218
 20
10.85
 30
0
 11
3.837510831897219
 21
11.05
 31
0
  0
LINE
  8
0
 62
7
 10
3.849642866253182
 20
10.85
 30
0
 11
4.049642866253183
 21
11.05
 31
0
  0
LINE
  8
0
 62
7
 10
4.061774900609146
 20
10.85
 30
0
 11
4.261774900609147
 21
11.05
 31
0
  0
LINE
  8
0
 62
7
 10
4.27390693496511
 20
10.85
 30
0
 11
4.473906934965111
 21
11.05
 31
0
  0
ENDBLK
  8
0
  0
BLOCK
  8
0
  2
*X8
 70
1
 10
0
 20
0
 30
0
  0
LINE
  8
0
 62
7
 10
7.960000000000027
 20
8.066066017178008
 30
0
 11
7.993933982822019
 21
8.1
 31
0
  0
LINE
  8
0
 62
7
 10
8.056066017177983
 20
7.95
 30
0
 11
8.200000000000026
 21
8.09393398282204
 31
0
  0
LINE
  8
0
 62
7
 10
7.960000000000027
 20
7.960000000000026
 30
0
 11
8.100000000000001
 21
8.1
 31
0
  0
LINE
  8
0
 62
7
 10
8.162132034355967
 20
7.950000000000001
 30
0
 11
8.200000000000026
 21
7.98786796564406
 31
0
  0
ENDBLK
  8
0
  0
BLOCK
  8
0
  2
*X9
 70
1
 10
0
 20
0
 30
0
  0
LINE
  8
0
 62
7
 10
7.960000000000026
 20
10.82378246380554
 30
0
 11
7.986217536194484
 21
10.85
 31
0
  0
LINE
  8
0
 62
7
 10
7.960000000000026
 20
10.61165042944957
 30
0
 11
8.198349570550448
 21
10.85
 31
0
  0
LINE
  8
0
 62
7
 10
7.960000000000026
 20
10.39951839509361
 30
0
 11
8.200000000000026
 21
10.63951839509361
 31
0
  0
LINE
  8
0
 62
7
 10
7.960000000000026
 20
10.18738636073765
 30
0
 11
8.200000000000026
 21
10.42738636073765
 31
0
  0
LINE
  8
0
 62
7
 10
7.960000000000026
 20
9.975254326381682
 30
0
 11
8.200000000000026
 21
10.21525432638168
 31
0
  0
LINE
  8
0
 62
7
 10
7.960000000000026
 20
9.763122292025718
 30
0
 11
8.200000000000026
 21
10.00312229202572
 31
0
  0
LINE
  8
0
 62
7
 10
7.960000000000026
 20
9.550990257669755
 30
0
 11
8.200000000000026
 21
9.790990257669755
 31
0
  0
LINE
  8
0
 62
7
 10
7.960000000000026
 20
9.338858223313791
 30
0
 11
8.200000000000026
 21
9.578858223313791
 31
0
  0
LINE
  8
0
 62
7
 10
7.960000000000026
 20
9.126726188957827
 30
0
 11
8.200000000000026
 21
9.366726188957827
 31
0
  0
LINE
  8
0
 62
7
 10
7.960000000000026
 20
8.914594154601863
 30
0
 11
8.200000000000026
 21
9.154594154601863
 31
0
  0
LINE
  8
0
 62
7
 10
7.960000000000026
 20
8.702462120245899
 30
0
 11
8.200000000000026
 21
8.942462120245899
 31
0
  0
LINE
  8
0
 62
7
 10
7.960000000000026
 20
8.490330085889935
 30
0
 11
8.200000000000026
 21
8.730330085889936
 31
0
  0
LINE
  8
0
 62
7
 10
7.981801948466055
 20
8.300000000000001
 30
0
 11
8.200000000000026
 21
8.518198051533972
 31
0
  0
LINE
  8
0
 62
7
 10
8.193933982822019
 20
8.300000000000001
 30
0
 11
8.200000000000026
 21
8.306066017178008
 31
0
  0
LINE
  8
0
 62
7
 10
7.960000000000027
 20
10.71771644662756
 30
0
 11
8.092283553372464
 21
10.85
 31
0
  0
LINE
  8
0
 62
7
 10
7.960000000000027
 20
10.50558441227159
 30
0
 11
8.200000000000026
 21
10.74558441227159
 31
0
  0
LINE
  8
0
 62
7
 10
7.960000000000027
 20
10.29345237791563
 30
0
 11
8.200000000000026
 21
10.53345237791563
 31
0
  0
LINE
  8
0
 62
7
 10
7.960000000000027
 20
10.08132034355967
 30
0
 11
8.200000000000026
 21
10.32132034355966
 31
0
  0
LINE
  8
0
 62
7
 10
7.960000000000027
 20
9.869188309203702
 30
0
 11
8.200000000000026
 21
10.1091883092037
 31
0
  0
LINE
  8
0
 62
7
 10
7.960000000000027
 20
9.657056274847738
 30
0
 11
8.200000000000026
 21
9.897056274847735
 31
0
  0
LINE
  8
0
 62
7
 10
7.960000000000027
 20
9.444924240491774
 30
0
 11
8.200000000000026
 21
9.684924240491771
 31
0
  0
LINE
  8
0
 62
7
 10
7.960000000000027
 20
9.232792206135811
 30
0
 11
8.200000000000026
 21
9.472792206135807
 31
0
  0
LINE
  8
0
 62
7
 10
7.960000000000027
 20
9.020660171779847
 30
0
 11
8.200000000000026
 21
9.260660171779843
 31
0
  0
LINE
  8
0
 62
7
 10
7.960000000000027
 20
8.808528137423883
 30
0
 11
8.200000000000026
 21
9.04852813742388
 31
0
  0
LINE
  8
0
 62
7
 10
7.960000000000027
 20
8.596396103067919
 30
0
 11
8.200000000000026
 21
8.836396103067916
 31
0
  0
LINE
  8
0
 62
7
 10
7.960000000000027
 20
8.384264068711955
 30
0
 11
8.200000000000026
 21
8.624264068711952
 31
0
  0
LINE
  8
0
 62
7
 10
8.087867965644037
 20
8.300000000000001
 30
0
 11
8.200000000000026
 21
8.412132034355988
 31
0
  0
ENDBLK
  8
0
  0
BLOCK
  8
0
  2
*X10
 70
1
 10
0
 20
0
 30
0
  0
LINE
  8
0
 62
7
 10
7.974085501838521
 20
11.05
 30
0
 11
8.12408550183852
 21
11.2
 31
0
  0
LINE
  8
0
 62
7
 10
8.186217536194485
 20
11.05
 30
0
 11
8.200000000000026
 21
11.06378246380554
 31
0
  0
LINE
  8
0
 62
7
 10
7.960000000000027
 20
11.14198051533949
 30
0
 11
8.018019484660536
 21
11.2
 31
0
  0
LINE
  8
0
 62
7
 10
8.080151519016503
 20
11.05
 30
0
 11
8.200000000000024
 21
11.16984848098352
 31
0
  0
ENDBLK
  8
0
  0
BLOCK
  8
0
  2
*X11
 70
1
 10
0
 20
0
 30
0
  0
LINE
  8
0
 62
7
  6
DASHED
 10
6.084745673618341
 20
8.1
 30
0
 11
6.284745673618341
 21
8.300000000000001
 31
0
  0
LINE
  8
0
 62
7
  6
DASHED
 10
6.296877707974304
 20
8.1
 30
0
 11
6.380000000000023
 21
8.183122292025718
 31
0
  0
LINE
  8
0
 62
7
 10
6.080000000000022
 20
8.201320343559663
 30
0
 11
6.178679656440361
 21
8.300000000000002
 31
0
  0
LINE
  8
0
 62
7
 10
6.190811690796323
 20
8.1
 30
0
 11
6.380000000000024
 21
8.2891883092037
 31
0
  0
ENDBLK
  8
0
  0
BLOCK
  8
0
  2
*X12
 70
1
 10
0
 20
0
 30
0
  0
LINE
  8
0
 62
7
  6
DASHED
 10
6.080000000000021
 20
10.85297077300921
 30
0
 11
6.277029226990807
 21
11.05
 31
0
  0
LINE
  8
0
 62
7
  6
DASHED
 10
6.28916126134677
 20
10.85
 30
0
 11
6.380000000000024
 21
10.94083873865325
 31
0
  0
LINE
  8
0
 62
7
 10
6.080000000000022
 20
10.9590367901872
 30
0
 11
6.170963209812824
 21
11.05
 31
0
  0
LINE
  8
0
 62
7
 10
6.183095244168788
 20
10.85
 30
0
 11
6.380000000000022
 21
11.04690475583124
 31
0
  0
ENDBLK
  8
0
  0
BLOCK
  8
0
  2
*X13
 70
1
 10
0
 20
0
 30
0
  0
LINE
  8
0
 62
7
  6
DASHED
 10
7.960000000000026
 20
11.0359144981615
 30
0
 11
7.974085501838521
 21
11.05
 31
0
  0
LINE
  8
0
 62
7
  6
DASHED
 10
7.986217536194484
 20
10.85
 30
0
 11
8.186217536194485
 21
11.05
 31
0
  0
LINE
  8
0
 62
7
  6
DASHED
 10
8.198349570550448
 20
10.85
 30
0
 11
8.200000000000024
 21
10.85165042944958
 31
0
  0
LINE
  8
0
 62
7
 10
7.960000000000027
 20
10.92984848098352
 30
0
 11
8.080151519016503
 21
11.05
 31
0
  0
LINE
  8
0
 62
7
 10
8.092283553372466
 20
10.85
 30
0
 11
8.200000000000026
 21
10.95771644662756
 31
0
  0
ENDBLK
  8
0
  0
BLOCK
  8
0
  2
*X14
 70
1
 10
0
 20
0
 30
0
  0
LINE
  8
0
 62
7
  6
DASHED
 10
7.960000000000027
 20
8.278198051533971
 30
0
 11
7.981801948466055
 21
8.300000000000001
 31
0
  0
LINE
  8
0
 62
7
  6
DASHED
 10
7.993933982822019
 20
8.1
 30
0
 11
8.193933982822019
 21
8.300000000000001
 31
0
  0
LINE
  8
0
 62
7
 10
7.960000000000027
 20
8.17213203435599
 30
0
 11
8.087867965644037
 21
8.300000000000001
 31
0
  0
LINE
  8
0
 62
7
 10
8.100000000000001
 20
8.1
 30
0
 11
8.200000000000024
 21
8.200000000000024
 31
0
  0
ENDBLK
  8
0
  0
BLOCK
  8
0
  2
*X15
 70
1
 10
0
 20
0
 30
0
  0
LINE
  8
0
 62
7
 10
0.9349999999999996
 20
5.283706704297266
 30
0
 11
1.251293295702734
 21
5.6
 31
0
  0
LINE
  8
0
 62
7
 10
1.073425330058698
 20
5.21
 30
0
 11
1.313425330058698
 21
5.449999999999999
 31
0
  0
LINE
  8
0
 62
7
 10
1.285557364414662
 20
5.21
 30
0
 11
1.525557364414662
 21
5.449999999999999
 31
0
  0
LINE
  8
0
 62
7
 10
1.497689398770627
 20
5.21
 30
0
 11
1.737689398770626
 21
5.449999999999999
 31
0
  0
LINE
  8
0
 62
7
 10
1.709821433126591
 20
5.21
 30
0
 11
1.949821433126591
 21
5.449999999999999
 31
0
  0
LINE
  8
0
 62
7
 10
1.921953467482555
 20
5.21
 30
0
 11
2.161953467482555
 21
5.449999999999999
 31
0
  0
LINE
  8
0
 62
7
 10
2.134085501838519
 20
5.21
 30
0
 11
2.374085501838519
 21
5.449999999999999
 31
0
  0
LINE
  8
0
 62
7
 10
2.346217536194484
 20
5.21
 30
0
 11
2.586217536194483
 21
5.449999999999999
 31
0
  0
LINE
  8
0
 62
7
 10
2.558349570550448
 20
5.21
 30
0
 11
2.798349570550448
 21
5.449999999999999
 31
0
  0
LINE
  8
0
 62
7
 10
2.770481604906412
 20
5.21
 30
0
 11
3.010481604906412
 21
5.449999999999999
 31
0
  0
LINE
  8
0
 62
7
 10
2.982613639262377
 20
5.21
 30
0
 11
3.222613639262376
 21
5.449999999999999
 31
0
  0
LINE
  8
0
 62
7
 10
3.194745673618341
 20
5.21
 30
0
 11
3.434745673618341
 21
5.449999999999999
 31
0
  0
LINE
  8
0
 62
7
 10
3.406877707974305
 20
5.21
 30
0
 11
3.646877707974305
 21
5.449999999999999
 31
0
  0
LINE
  8
0
 62
7
 10
3.619009742330269
 20
5.21
 30
0
 11
3.859009742330269
 21
5.449999999999999
 31
0
  0
LINE
  8
0
 62
7
 10
4.159999999999999
 20
5.538858223313767
 30
0
 11
4.221141776686234
 21
5.6
 31
0
  0
LINE
  8
0
 62
7
 10
3.831141776686234
 20
5.21
 30
0
 11
4.071141776686233
 21
5.449999999999999
 31
0
  0
LINE
  8
0
 62
7
 10
4.043273811042198
 20
5.21
 30
0
 11
4.335
 21
5.501726188957802
 31
0
  0
LINE
  8
0
 62
7
 10
4.255405845398162
 20
5.21
 30
0
 11
4.485
 21
5.439594154601838
 31
0
  0
LINE
  8
0
 62
7
 10
4.467537879754126
 20
5.21
 30
0
 11
4.485
 21
5.227462120245875
 31
0
  0
LINE
  8
0
 62
7
 10
1.1
 20
5.554772721475249
 30
0
 11
1.145227278524751
 21
5.6
 31
0
  0
LINE
  8
0
 62
7
 10
0.9350000000000001
 20
5.389772721475248
 30
0
 11
0.9952272785247507
 21
5.449999999999999
 31
0
  0
LINE
  8
0
 62
7
 10
0.9673593128807165
 20
5.210000000000001
 30
0
 11
1.275
 21
5.517640687119284
 31
0
  0
LINE
  8
0
 62
7
 10
1.179491347236681
 20
5.210000000000001
 30
0
 11
1.419491347236679
 21
5.449999999999999
 31
0
  0
LINE
  8
0
 62
7
 10
1.391623381592645
 20
5.210000000000001
 30
0
 11
1.631623381592643
 21
5.449999999999999
 31
0
  0
LINE
  8
0
 62
7
 10
1.603755415948609
 20
5.210000000000001
 30
0
 11
1.843755415948607
 21
5.449999999999999
 31
0
  0
LINE
  8
0
 62
7
 10
1.815887450304574
 20
5.210000000000001
 30
0
 11
2.055887450304572
 21
5.449999999999999
 31
0
  0
LINE
  8
0
 62
7
 10
2.028019484660538
 20
5.210000000000001
 30
0
 11
2.268019484660536
 21
5.449999999999999
 31
0
  0
LINE
  8
0
 62
7
 10
2.240151519016502
 20
5.210000000000001
 30
0
 11
2.4801515190165
 21
5.449999999999999
 31
0
  0
LINE
  8
0
 62
7
 10
2.452283553372467
 20
5.210000000000001
 30
0
 11
2.692283553372464
 21
5.449999999999999
 31
0
  0
LINE
  8
0
 62
7
 10
2.664415587728431
 20
5.210000000000001
 30
0
 11
2.904415587728429
 21
5.449999999999999
 31
0
  0
LINE
  8
0
 62
7
 10
2.876547622084395
 20
5.210000000000001
 30
0
 11
3.116547622084393
 21
5.449999999999999
 31
0
  0
LINE
  8
0
 62
7
 10
3.088679656440359
 20
5.210000000000001
 30
0
 11
3.328679656440357
 21
5.449999999999999
 31
0
  0
LINE
  8
0
 62
7
 10
3.300811690796324
 20
5.210000000000001
 30
0
 11
3.540811690796322
 21
5.449999999999999
 31
0
  0
LINE
  8
0
 62
7
 10
3.512943725152288
 20
5.210000000000001
 30
0
 11
3.752943725152286
 21
5.449999999999999
 31
0
  0
LINE
  8
0
 62
7
 10
3.725075759508252
 20
5.210000000000001
 30
0
 11
3.96507575950825
 21
5.449999999999999
 31
0
  0
LINE
  8
0
 62
7
 10
3.937207793864216
 20
5.210000000000001
 30
0
 11
4.327207793864215
 21
5.599999999999999
 31
0
  0
LINE
  8
0
 62
7
 10
4.149339828220181
 20
5.210000000000001
 30
0
 11
4.389339828220179
 21
5.449999999999999
 31
0
  0
LINE
  8
0
 62
7
 10
4.361471862576145
 20
5.210000000000001
 30
0
 11
4.485
 21
5.333528137423857
 31
0
  0
ENDBLK
  8
0
  0
BLOCK
  8
0
  2
*X16
 70
1
 10
0
 20
0
 30
0
  0
LINE
  8
0
 62
7
 10
0.9350000000000001
 20
5.071574669941302
 30
0
 11
1.033425330058697
 21
5.169999999999999
 31
0
  0
LINE
  8
0
 62
7
 10
1.005557364414662
 20
4.93
 30
0
 11
1.245557364414661
 21
5.169999999999999
 31
0
  0
LINE
  8
0
 62
7
 10
1.100000000000001
 20
4.812310601229373
 30
0
 11
1.457689398770626
 21
5.169999999999999
 31
0
  0
LINE
  8
0
 62
7
 10
1.42982143312659
 20
4.93
 30
0
 11
1.66982143312659
 21
5.169999999999999
 31
0
  0
LINE
  8
0
 62
7
 10
1.100000000000001
 20
4.600178566873409
 30
0
 11
1.274999999999999
 21
4.775178566873408
 31
0
  0
LINE
  8
0
 62
7
 10
1.641953467482554
 20
4.93
 30
0
 11
1.881953467482554
 21
5.169999999999999
 31
0
  0
LINE
  8
0
 62
7
 10
1.100000000000001
 20
4.388046532517445
 30
0
 11
1.274999999999999
 21
4.563046532517444
 31
0
  0
LINE
  8
0
 62
7
 10
1.854085501838519
 20
4.93
 30
0
 11
2.094085501838518
 21
5.169999999999999
 31
0
  0
LINE
  8
0
 62
7
 10
1.100000000000001
 20
4.175914498161482
 30
0
 11
1.274999999999999
 21
4.35091449816148
 31
0
  0
LINE
  8
0
 62
7
 10
2.066217536194483
 20
4.93
 30
0
 11
2.306217536194483
 21
5.169999999999999
 31
0
  0
LINE
  8
0
 62
7
 10
1.100000000000001
 20
3.963782463805518
 30
0
 11
1.274999999999999
 21
4.138782463805517
 31
0
  0
LINE
  8
0
 62
7
 10
2.278349570550447
 20
4.93
 30
0
 11
2.518349570550447
 21
5.169999999999999
 31
0
  0
LINE
  8
0
 62
7
 10
1.100000000000001
 20
3.751650429449553
 30
0
 11
1.274999999999999
 21
3.926650429449553
 31
0
  0
LINE
  8
0
 62
7
 10
2.490481604906412
 20
4.93
 30
0
 11
2.730481604906411
 21
5.169999999999999
 31
0
  0
LINE
  8
0
 62
7
 10
1.100000000000001
 20
3.539518395093589
 30
0
 11
1.274999999999999
 21
3.714518395093588
 31
0
  0
LINE
  8
0
 62
7
 10
2.702613639262376
 20
4.93
 30
0
 11
2.942613639262376
 21
5.169999999999999
 31
0
  0
LINE
  8
0
 62
7
 10
1.122613639262376
 20
3.35
 30
0
 11
1.274999999999999
 21
3.502386360737624
 31
0
  0
LINE
  8
0
 62
7
 10
2.91474567361834
 20
4.93
 30
0
 11
3.15474567361834
 21
5.169999999999999
 31
0
  0
LINE
  8
0
 62
7
 10
3.126877707974304
 20
4.93
 30
0
 11
3.366877707974304
 21
5.169999999999999
 31
0
  0
LINE
  8
0
 62
7
 10
3.339009742330269
 20
4.93
 30
0
 11
3.579009742330268
 21
5.169999999999999
 31
0
  0
LINE
  8
0
 62
7
 10
3.551141776686233
 20
4.93
 30
0
 11
3.791141776686233
 21
5.169999999999999
 31
0
  0
LINE
  8
0
 62
7
 10
3.763273811042197
 20
4.93
 30
0
 11
4.003273811042197
 21
5.169999999999999
 31
0
  0
LINE
  8
0
 62
7
 10
3.975405845398162
 20
4.93
 30
0
 11
4.215405845398161
 21
5.169999999999999
 31
0
  0
LINE
  8
0
 62
7
 10
4.159999999999999
 20
4.902462120245872
 30
0
 11
4.427537879754125
 21
5.169999999999999
 31
0
  0
LINE
  8
0
 62
7
 10
4.39966991411009
 20
4.93
 30
0
 11
4.484999999999999
 21
5.01533008588991
 31
0
  0
LINE
  8
0
 62
7
 10
4.159999999999999
 20
4.690330085889908
 30
0
 11
4.335
 21
4.865330085889909
 31
0
  0
LINE
  8
0
 62
7
 10
4.159999999999999
 20
4.478198051533944
 30
0
 11
4.335
 21
4.653198051533945
 31
0
  0
LINE
  8
0
 62
7
 10
4.159999999999999
 20
4.26606601717798
 30
0
 11
4.335
 21
4.441066017177981
 31
0
  0
LINE
  8
0
 62
7
 10
4.159999999999999
 20
4.053933982822016
 30
0
 11
4.335
 21
4.228933982822017
 31
0
  0
LINE
  8
0
 62
7
 10
4.159999999999999
 20
3.841801948466053
 30
0
 11
4.335
 21
4.016801948466053
 31
0
  0
LINE
  8
0
 62
7
 10
4.159999999999999
 20
3.629669914110088
 30
0
 11
4.335
 21
3.804669914110089
 31
0
  0
LINE
  8
0
 62
7
 10
4.159999999999999
 20
3.417537879754124
 30
0
 11
4.335
 21
3.592537879754125
 31
0
  0
LINE
  8
0
 62
7
 10
4.20459415460184
 20
3.25
 30
0
 11
4.335
 21
3.38040584539816
 31
0
  0
LINE
  8
0
 62
7
 10
0.9350000000000001
 20
4.965508652763321
 30
0
 11
1.13949134723668
 21
5.17
 31
0
  0
LINE
  8
0
 62
7
 10
1.1
 20
4.918376618407354
 30
0
 11
1.351623381592644
 21
5.17
 31
0
  0
LINE
  8
0
 62
7
 10
1.323755415948608
 20
4.93
 30
0
 11
1.563755415948608
 21
5.17
 31
0
  0
LINE
  8
0
 62
7
 10
1.1
 20
4.70624458405139
 30
0
 11
1.274999999999999
 21
4.881244584051389
 31
0
  0
LINE
  8
0
 62
7
 10
1.535887450304572
 20
4.93
 30
0
 11
1.775887450304573
 21
5.17
 31
0
  0
LINE
  8
0
 62
7
 10
1.1
 20
4.494112549695426
 30
0
 11
1.274999999999999
 21
4.669112549695425
 31
0
  0
LINE
  8
0
 62
7
 10
1.748019484660536
 20
4.93
 30
0
 11
1.988019484660537
 21
5.17
 31
0
  0
LINE
  8
0
 62
7
 10
1.1
 20
4.281980515339463
 30
0
 11
1.274999999999999
 21
4.456980515339461
 31
0
  0
LINE
  8
0
 62
7
 10
1.960151519016501
 20
4.93
 30
0
 11
2.200151519016501
 21
5.17
 31
0
  0
LINE
  8
0
 62
7
 10
1.1
 20
4.069848480983499
 30
0
 11
1.274999999999999
 21
4.244848480983498
 31
0
  0
LINE
  8
0
 62
7
 10
2.172283553372465
 20
4.93
 30
0
 11
2.412283553372466
 21
5.17
 31
0
  0
LINE
  8
0
 62
7
 10
1.1
 20
3.857716446627535
 30
0
 11
1.274999999999999
 21
4.032716446627534
 31
0
  0
LINE
  8
0
 62
7
 10
2.384415587728429
 20
4.93
 30
0
 11
2.62441558772843
 21
5.17
 31
0
  0
LINE
  8
0
 62
7
 10
1.1
 20
3.645584412271571
 30
0
 11
1.274999999999999
 21
3.82058441227157
 31
0
  0
LINE
  8
0
 62
7
 10
2.596547622084393
 20
4.93
 30
0
 11
2.836547622084394
 21
5.17
 31
0
  0
LINE
  8
0
 62
7
 10
1.1
 20
3.433452377915606
 30
0
 11
1.274999999999999
 21
3.608452377915606
 31
0
  0
LINE
  8
0
 62
7
 10
2.808679656440358
 20
4.93
 30
0
 11
3.048679656440358
 21
5.17
 31
0
  0
LINE
  8
0
 62
7
 10
1.228679656440357
 20
3.35
 30
0
 11
1.275
 21
3.396320343559642
 31
0
  0
LINE
  8
0
 62
7
 10
3.020811690796322
 20
4.93
 30
0
 11
3.260811690796323
 21
5.17
 31
0
  0
LINE
  8
0
 62
7
 10
3.232943725152286
 20
4.93
 30
0
 11
3.472943725152287
 21
5.17
 31
0
  0
LINE
  8
0
 62
7
 10
3.445075759508251
 20
4.93
 30
0
 11
3.685075759508251
 21
5.17
 31
0
  0
LINE
  8
0
 62
7
 10
3.657207793864215
 20
4.93
 30
0
 11
3.897207793864216
 21
5.17
 31
0
  0
LINE
  8
0
 62
7
 10
3.869339828220179
 20
4.93
 30
0
 11
4.10933982822018
 21
5.17
 31
0
  0
LINE
  8
0
 62
7
 10
4.081471862576143
 20
4.93
 30
0
 11
4.321471862576144
 21
5.17
 31
0
  0
LINE
  8
0
 62
7
 10
4.16
 20
4.796396103067891
 30
0
 11
4.485
 21
5.121396103067893
 31
0
  0
LINE
  8
0
 62
7
 10
4.16
 20
4.584264068711927
 30
0
 11
4.335
 21
4.759264068711927
 31
0
  0
LINE
  8
0
 62
7
 10
4.16
 20
4.372132034355963
 30
0
 11
4.335
 21
4.547132034355963
 31
0
  0
LINE
  8
0
 62
7
 10
4.16
 20
4.159999999999999
 30
0
 11
4.335
 21
4.334999999999999
 31
0
  0
LINE
  8
0
 62
7
 10
4.16
 20
3.947867965644035
 30
0
 11
4.335
 21
4.122867965644035
 31
0
  0
LINE
  8
0
 62
7
 10
4.16
 20
3.735735931288071
 30
0
 11
4.335
 21
3.910735931288071
 31
0
  0
LINE
  8
0
 62
7
 10
4.16
 20
3.523603896932107
 30
0
 11
4.335
 21
3.698603896932107
 31
0
  0
LINE
  8
0
 62
7
 10
4.16
 20
3.311471862576143
 30
0
 11
4.335
 21
3.486471862576143
 31
0
  0
LINE
  8
0
 62
7
 10
4.310660171779822
 20
3.25
 30
0
 11
4.335
 21
3.274339828220179
 31
0
  0
ENDBLK
  8
0
  0
BLOCK
  8
0
  2
*D0
 70
1
 10
0
 20
0
 30
0
  0
LINE
  8
0
 62
7
 10
0.6212603637937901
 20
10.23780959788228
 30
0
 11
0.6212603637937901
 21
11.05
 31
0
  0
LINE
  8
0
 62
7
 10
0.6212603637937901
 20
8.300000000000001
 30
0
 11
0.6212603637937901
 21
9.157809597882281
 31
0
  0
LINE
  8
0
 62
7
 10
0.9500000000000002
 20
11.05
 30
0
 11
0.5712603637937901
 21
11.05
 31
0
  0
LINE
  8
0
 62
7
 10
0.9500000000000002
 20
8.300000000000001
 30
0
 11
0.5712603637937901
 21
8.300000000000001
 31
0
  0
LINE
  8
0
 62
7
 10
0.5859050247344627
 20
8.335355339059328
 30
0
 11
0.6566157028531175
 21
8.264644660940673
 31
0
  0
LINE
  8
0
 62
7
 10
0.6566157028531175
 20
11.01464466094067
 30
0
 11
0.5859050247344627
 21
11.08535533905933
 31
0
  0
TEXT
  8
0
 62
7
 10
0.5912603637937901
 20
9.560309597882283
 30
0
 40
0.1
  1
2,75
 50
90
 41
0.9
  0
TEXT
  8
0
 62
7
 10
0.7512603637937901
 20
9.357809597882282
 30
0
 40
0.1
  1
(260-280)
 50
90
 41
0.9
  0
ENDBLK
  8
0
  0
BLOCK
  8
0
  2
*D1
 70
1
 10
0
 20
0
 30
0
  0
LINE
  8
0
 62
7
 10
3.00719123701244
 20
11.4873728332766
 30
0
 11
4.16
 21
11.4873728332766
 31
0
  0
LINE
  8
0
 62
7
 10
1.275
 20
11.4873728332766
 30
0
 11
2.33219123701244
 21
11.4873728332766
 31
0
  0
LINE
  8
0
 62
7
 10
4.16
 20
11.2
 30
0
 11
4.16
 21
11.5373728332766
 31
0
  0
LINE
  8
0
 62
7
 10
1.275
 20
11.2
 30
0
 11
1.275
 21
11.5373728332766
 31
0
  0
LINE
  8
0
 62
7
 10
1.310355339059327
 20
11.52272817233593
 30
0
 11
1.239644660940673
 21
11.45201749421727
 31
0
  0
LINE
  8
0
 62
7
 10
4.124644660940673
 20
11.45201749421727
 30
0
 11
4.195355339059327
 21
11.52272817233593
 31
0
  0
TEXT
  8
0
 62
7
 10
2.53219123701244
 20
11.4423728332766
 30
0
 40
0.1
  1
2,89
 41
0.9
  0
ENDBLK
  8
0
  0
BLOCK
  8
0
  2
*D2
 70
1
 10
0
 20
0
 30
0
  0
LINE
  8
0
 62
7
 10
4.65059142210301
 20
4.465262483251011
 30
0
 11
4.65059142210301
 21
4.929999999999999
 31
0
  0
LINE
  8
0
 62
7
 10
4.65059142210301
 20
3.249999999999999
 30
0
 11
4.65059142210301
 21
3.72026248325101
 31
0
  0
LINE
  8
0
 62
7
 10
4.335
 20
4.929999999999999
 30
0
 11
4.70059142210301
 21
4.929999999999999
 31
0
  0
LINE
  8
0
 62
7
 10
4.335
 20
3.249999999999999
 30
0
 11
4.70059142210301
 21
3.249999999999999
 31
0
  0
LINE
  8
0
 62
7
 10
4.615236083043682
 20
3.285355339059326
 30
0
 11
4.685946761162337
 21
3.214644660940672
 31
0
  0
LINE
  8
0
 62
7
 10
4.685946761162337
 20
4.894644660940672
 30
0
 11
4.615236083043682
 21
4.965355339059326
 31
0
  0
TEXT
  8
0
 62
7
 10
4.69559142210301
 20
3.97026248325101
 30
0
 40
0.1
  1
1,68
 50
90
 41
0.9
  0
ENDBLK
  8
0
  0
BLOCK
  8
0
  2
*D3
 70
1
 10
0
 20
0
 30
0
  0
LINE
  8
0
 62
7
 10
3.090956581076491
 20
5.82605014520526
 30
0
 11
4.160000000000001
 21
5.82605014520526
 31
0
  0
LINE
  8
0
 62
7
 10
1.275000000000001
 20
5.82605014520526
 30
0
 11
2.315956581076491
 21
5.82605014520526
 31
0
  0
LINE
  8
0
 62
7
 10
4.160000000000001
 20
5.449999999999999
 30
0
 11
4.160000000000001
 21
5.87605014520526
 31
0
  0
LINE
  8
0
 62
7
 10
1.275000000000001
 20
5.449999999999999
 30
0
 11
1.275000000000001
 21
5.87605014520526
 31
0
  0
LINE
  8
0
 62
7
 10
4.124644660940674
 20
5.790694806145932
 30
0
 11
4.195355339059328
 21
5.861405484264587
 31
0
  0
LINE
  8
0
 62
7
 10
1.310355339059328
 20
5.861405484264587
 30
0
 11
1.239644660940674
 21
5.790694806145932
 31
0
  0
TEXT
  8
0
 62
7
 10
2.565956581076491
 20
5.78105014520526
 30
0
 40
0.1
  1
2,89
 41
0.9
  0
ENDBLK
  8
0
  0
BLOCK
  8
0
  2
*D4
 70
1
 10
0
 20
0
 30
0
  0
LINE
  8
0
 62
7
 10
0.8351075428660671
 20
4.56655851544315
 30
0
 11
0.8351075428660671
 21
4.929999999999999
 31
0
  0
LINE
  8
0
 62
7
 10
0.8351075428660671
 20
3.349999999999999
 30
0
 11
0.8351075428660671
 21
3.82155851544315
 31
0
  0
LINE
  8
0
 62
7
 10
1.1
 20
4.929999999999999
 30
0
 11
0.7851075428660671
 21
4.929999999999999
 31
0
  0
LINE
  8
0
 62
7
 10
1.1
 20
3.349999999999999
 30
0
 11
0.7851075428660671
 21
3.349999999999999
 31
0
  0
LINE
  8
0
 62
7
 10
0.8704628819253946
 20
4.894644660940672
 30
0
 11
0.7997522038067397
 21
4.965355339059326
 31
0
  0
LINE
  8
0
 62
7
 10
0.7997522038067397
 20
3.385355339059327
 30
0
 11
0.8704628819253946
 21
3.314644660940672
 31
0
  0
TEXT
  8
0
 62
7
 10
0.8801075428660672
 20
4.07155851544315
 30
0
 40
0.1
  1
1,58
 50
90
 41
0.9
  0
ENDBLK
  8
0
  0
ENDSEC
  0
SECTION
  2
ENTITIES
  0
INSERT
  8
0
  2
*X0
 10
0
 20
0
 30
0
  0
INSERT
  8
0
  2
*X1
 10
0
 20
0
 30
0
  0
INSERT
  8
0
  2
*X2
 10
0
 20
0
 30
0
  0
INSERT
  8
0
  2
*X3
 10
0
 20
0
 30
0
  0
INSERT
  8
0
  2
*X4
 10
0
 20
0
 30
0
  0
INSERT
  8
0
  2
*X5
 10
0
 20
0
 30
0
  0
INSERT
  8
0
  2
*X6
 10
0
 20
0
 30
0
  0
INSERT
  8
0
  2
*X7
 10
0
 20
0
 30
0
  0
INSERT
  8
0
  2
*X8
 10
0
 20
0
 30
0
  0
INSERT
  8
0
  2
*X9
 10
0
 20
0
 30
0
  0
INSERT
  8
0
  2
*X10
 10
0
 20
0
 30
0
  0
INSERT
  8
0
  2
*X11
 10
0
 20
0
 30
0
  0
INSERT
  8
0
  2
*X12
 10
0
 20
0
 30
0
  0
INSERT
  8
0
  2
*X13
 10
0
 20
0
 30
0
  0
INSERT
  8
0
  2
*X14
 10
0
 20
0
 30
0
  0
INSERT
  8
0
  2
*X15
 10
0
 20
0
 30
0
  0
INSERT
  8
0
  2
*X16
 10
0
 20
0
 30
0
  0
LINE
  8
0
 62
7
 10
2.39
 20
3.545596933264843
 30
0
 11
2.39
 21
3.743314405047292
 31
0
  0
LINE
  8
0
 62
7
 10
2.39
 20
3.743314405047292
 30
0
 11
2.430797006629542
 21
3.815000000000001
 31
0
  0
LINE
  8
0
 62
7
 10
2.430797006629542
 20
3.815000000000001
 30
0
 11
2.601527471310442
 21
3.815000000000001
 31
0
  0
LINE
  8
0
 62
7
 10
2.500039748640069
 20
3.815000000000001
 30
0
 11
2.601527471310442
 21
3.815000000000001
 31
0
  0
LINE
  8
0
 62
7
 10
2.829470344426625
 20
3.815000000000001
 30
0
 11
2.991625238693659
 21
3.815000000000001
 31
0
  0
LINE
  8
0
 62
7
 10
2.991625238693659
 20
3.815000000000001
 30
0
 11
3.045
 21
3.776659524466487
 31
0
  0
LINE
  8
0
 62
7
 10
3.045
 20
3.703782314103241
 30
0
 11
3.045
 21
3.593059872736102
 31
0
  0
LINE
  8
0
 62
7
 10
3.045
 20
3.60181988471819
 30
0
 11
3.045
 21
3.593059872736102
 31
0
  0
LINE
  8
0
 62
7
 10
3.045
 20
3.776659524466487
 30
0
 11
3.045
 21
3.593059872736102
 31
0
  0
LINE
  8
0
 62
7
 10
2.39
 20
3.517163002220701
 30
0
 11
1.33
 21
3.753209163904131
 31
0
  0
LINE
  8
0
 62
7
 10
2.39
 20
3.380000000000001
 30
0
 11
2.39
 21
3.517163002220701
 31
0
  0
LINE
  8
0
 62
7
 10
1.33
 20
3.753209163904131
 30
0
 11
1.33
 21
3.380000000000001
 31
0
  0
LINE
  8
0
 62
7
 10
2.39
 20
3.643778044965152
 30
0
 11
1.33
 21
4.10590098950833
 31
0
  0
LINE
  8
0
 62
7
 10
2.39
 20
3.424958512391569
 30
0
 11
2.39
 21
3.643778044965152
 31
0
  0
LINE
  8
0
 62
7
 10
1.33
 20
4.10590098950833
 30
0
 11
1.33
 21
3.661004674075003
 31
0
  0
LINE
  8
0
 62
7
 10
2.39
 20
3.768820227996995
 30
0
 11
1.33
 21
4.54150823230061
 31
0
  0
LINE
  8
0
 62
7
 10
2.39
 20
3.743314405047292
 30
0
 11
2.39
 21
3.768820227996995
 31
0
  0
LINE
  8
0
 62
7
 10
1.33
 20
4.54150823230061
 30
0
 11
1.33
 21
4.007719877808023
 31
0
  0
LINE
  8
0
 62
7
 10
2.462282308803311
 20
3.870323730956262
 30
0
 11
1.557256624976562
 21
4.875
 31
0
  0
LINE
  8
0
 62
7
 10
2.430797006629542
 20
3.815000000000001
 30
0
 11
2.462282308803311
 21
3.870323730956262
 31
0
  0
LINE
  8
0
 62
7
 10
1.33
 20
4.875
 30
0
 11
1.33
 21
4.430134569261462
 31
0
  0
LINE
  8
0
 62
7
 10
1.557256624976562
 20
4.875
 30
0
 11
1.33
 21
4.875
 31
0
  0
LINE
  8
0
 62
7
 10
2.601527471310442
 20
3.815000000000001
 30
0
 11
2.049131129051311
 21
4.875
 31
0
  0
LINE
  8
0
 62
7
 10
2.049131129051311
 20
4.875
 30
0
 11
1.436125033811524
 21
4.875
 31
0
  0
LINE
  8
0
 62
7
 10
2.704894140373124
 20
3.815000000000001
 30
0
 11
2.41990606711086
 21
4.875
 31
0
  0
LINE
  8
0
 62
7
 10
2.601527471310442
 20
3.815000000000001
 30
0
 11
2.704894140373124
 21
3.815000000000001
 31
0
  0
LINE
  8
0
 62
7
 10
2.41990606711086
 20
4.875
 30
0
 11
1.947643406380947
 21
4.875
 31
0
  0
LINE
  8
0
 62
7
 10
2.81172726183082
 20
3.815000000000001
 30
0
 11
2.77950799587767
 21
4.875
 31
0
  0
LINE
  8
0
 62
7
 10
2.611698112155649
 20
3.815000000000001
 30
0
 11
2.81172726183082
 21
3.815000000000001
 31
0
  0
LINE
  8
0
 62
7
 10
2.77950799587767
 20
4.875
 30
0
 11
2.326710038893387
 21
4.875
 31
0
  0
LINE
  8
0
 62
7
 10
2.921320036065114
 20
3.815000000000001
 30
0
 11
3.137327773023463
 21
4.875
 31
0
  0
LINE
  8
0
 62
7
 10
2.721685696447363
 20
3.815000000000001
 30
0
 11
2.921320036065114
 21
3.815000000000001
 31
0
  0
LINE
  8
0
 62
7
 10
3.137327773023463
 20
4.875
 30
0
 11
2.689466430494191
 21
4.875
 31
0
  0
LINE
  8
0
 62
7
 10
3.031839861968252
 20
3.815000000000001
 30
0
 11
3.527356368879231
 21
4.875
 31
0
  0
LINE
  8
0
 62
7
 10
2.991625238693659
 20
3.815000000000001
 30
0
 11
3.031839861968252
 21
3.815000000000001
 31
0
  0
LINE
  8
0
 62
7
 10
3.527356368879231
 20
4.875
 30
0
 11
3.045478081384972
 21
4.875
 31
0
  0
LINE
  8
0
 62
7
 10
3.106103863864051
 20
3.732767034080699
 30
0
 11
4.01380167180278
 21
4.875
 31
0
  0
LINE
  8
0
 62
7
 10
3.045
 20
3.776659524466487
 30
0
 11
3.106103863864051
 21
3.732767034080699
 31
0
  0
LINE
  8
0
 62
7
 10
4.01380167180278
 20
4.875
 30
0
 11
3.428008161390189
 21
4.875
 31
0
  0
LINE
  8
0
 62
7
 10
3.045
 20
3.593059872736102
 30
0
 11
4.105
 21
4.352654319228921
 31
0
  0
LINE
  8
0
 62
7
 10
4.105
 20
4.875
 30
0
 11
3.898844514162171
 21
4.875
 31
0
  0
LINE
  8
0
 62
7
 10
4.105
 20
4.352654319228921
 30
0
 11
4.105
 21
4.875
 31
0
  0
LINE
  8
0
 62
7
 10
3.045
 20
3.504430609792501
 30
0
 11
4.105
 21
3.94269545307597
 31
0
  0
LINE
  8
0
 62
7
 10
3.045
 20
3.593059872736102
 30
0
 11
3.045
 21
3.504430609792501
 31
0
  0
LINE
  8
0
 62
7
 10
4.105
 20
3.94269545307597
 30
0
 11
4.105
 21
4.463376760596058
 31
0
  0
LINE
  8
0
 62
7
 10
3.045
 20
3.409254787709025
 30
0
 11
4.105
 21
3.575512972215031
 31
0
  0
LINE
  8
0
 62
7
 10
3.045
 20
3.593059872736102
 30
0
 11
3.045
 21
3.409254787709025
 31
0
  0
LINE
  8
0
 62
7
 10
4.105
 20
3.575512972215031
 30
0
 11
4.105
 21
4.040084728001669
 31
0
  0
LINE
  8
0
 62
7
 10
3.045
 20
3.250000000000001
 30
0
 11
4.105
 21
3.250000000000001
 31
0
  0
LINE
  8
0
 62
7
 10
3.045
 20
3.5003551105579
 30
0
 11
3.045
 21
3.250000000000001
 31
0
  0
LINE
  8
0
 62
7
 10
4.105
 20
3.250000000000001
 30
0
 11
4.105
 21
3.666613295063901
 31
0
  0
LINE
  8
0
 62
7
 10
3.687313792525395
 20
3.815000031918752
 30
0
 11
3.687313792525395
 21
3.250000000000001
 31
0
  0
LINE
  8
0
 62
7
 10
2.389999968104352
 20
4.457313792525382
 30
0
 11
3.045000031886051
 21
4.457313792525382
 31
0
  0
LINE
  8
0
 62
7
 10
1.853341306736329
 20
3.461000000000001
 30
0
 11
1.747686207474632
 21
3.400000000000001
 31
0
  0
LINE
  8
0
 62
7
 10
1.642031108212923
 20
3.461000000000001
 30
0
 11
1.853341306736329
 21
3.461000000000001
 31
0
  0
LINE
  8
0
 62
7
 10
1.747686207474632
 20
3.400000000000001
 30
0
 11
1.642031108212923
 21
3.461000000000001
 31
0
  0
LINE
  8
0
 62
7
 10
1.747686207474632
 20
3.400000000000001
 30
0
 11
1.747686207474632
 21
3.815000031888495
 31
0
  0
LINE
  8
0
 62
7
  6
DASHED
 10
1.330000000000011
 20
10.96666666666666
 30
0
 11
2.390000000000011
 21
10.96666666666666
 31
0
  0
LINE
  8
0
 62
7
  6
DASHED
 10
2.390000000000011
 20
10.96666666666666
 30
0
 11
2.390000000000011
 21
10.90166666666666
 31
0
  0
LINE
  8
0
 62
7
  6
DASHED
 10
1.330000000000011
 20
10.90166666666666
 30
0
 11
1.330000000000011
 21
10.96666666666666
 31
0
  0
LINE
  8
0
 62
7
  6
DASHED
 10
2.390000000000011
 20
10.90166666666666
 30
0
 11
1.330000000000011
 21
10.90166666666666
 31
0
  0
LINE
  8
0
 62
7
 10
1.330000000000011
 20
10.78333322666666
 30
0
 11
2.390000000000011
 21
10.78333322666666
 31
0
  0
LINE
  8
0
 62
7
 10
2.390000000000011
 20
10.78333322666666
 30
0
 11
2.390000000000011
 21
10.71833322666666
 31
0
  0
LINE
  8
0
 62
7
 10
1.330000000000011
 20
10.71833322666666
 30
0
 11
1.330000000000011
 21
10.78333322666666
 31
0
  0
LINE
  8
0
 62
7
 10
2.390000000000011
 20
10.71833322666666
 30
0
 11
1.330000000000011
 21
10.71833322666666
 31
0
  0
LINE
  8
0
 62
7
 10
1.330000000000011
 20
10.59999994666666
 30
0
 11
2.390000000000011
 21
10.59999994666666
 31
0
  0
LINE
  8
0
 62
7
 10
2.390000000000011
 20
10.59999994666666
 30
0
 11
2.390000000000011
 21
10.53499994666666
 31
0
  0
LINE
  8
0
 62
7
 10
1.330000000000011
 20
10.53499994666666
 30
0
 11
1.330000000000011
 21
10.59999994666666
 31
0
  0
LINE
  8
0
 62
7
 10
2.390000000000011
 20
10.53499994666666
 30
0
 11
1.330000000000011
 21
10.53499994666666
 31
0
  0
LINE
  8
0
 62
7
 10
2.462282250000011
 20
10.35166666666666
 30
0
 11
1.330000000000011
 21
10.35166666666666
 31
0
  0
LINE
  8
0
 62
7
 10
1.330000000000011
 20
10.41666666666666
 30
0
 11
2.462282250000011
 21
10.41666666666666
 31
0
  0
LINE
  8
0
 62
7
 10
2.462282250000011
 20
10.41666666666666
 30
0
 11
2.462282250000011
 21
10.35166666666666
 31
0
  0
LINE
  8
0
 62
7
 10
1.330000000000011
 20
10.35166666666666
 30
0
 11
1.330000000000011
 21
10.41666666666666
 31
0
  0
LINE
  8
0
 62
7
 10
2.601526940000014
 20
10.16833322666666
 30
0
 11
1.436124870000011
 21
10.16833322666666
 31
0
  0
LINE
  8
0
 62
7
 10
1.436124870000011
 20
10.23333322666666
 30
0
 11
2.601526940000014
 21
10.23333322666666
 31
0
  0
LINE
  8
0
 62
7
 10
2.601526940000014
 20
10.23333322666666
 30
0
 11
2.601526940000014
 21
10.16833322666666
 31
0
  0
LINE
  8
0
 62
7
 10
1.436124870000011
 20
10.16833322666666
 30
0
 11
1.436124870000011
 21
10.23333322666666
 31
0
  0
LINE
  8
0
 62
7
 10
2.704893790000011
 20
9.984999946666662
 30
0
 11
1.947643120000012
 21
9.984999946666662
 31
0
  0
LINE
  8
0
 62
7
 10
1.947643120000012
 20
10.04999994666666
 30
0
 11
2.704893790000011
 21
10.04999994666666
 31
0
  0
LINE
  8
0
 62
7
 10
2.704893790000011
 20
10.04999994666666
 30
0
 11
2.704893790000011
 21
9.984999946666662
 31
0
  0
LINE
  8
0
 62
7
 10
1.947643120000012
 20
9.984999946666662
 30
0
 11
1.947643120000012
 21
10.04999994666666
 31
0
  0
LINE
  8
0
 62
7
 10
2.811726990000011
 20
9.801666666666657
 30
0
 11
2.326709900000009
 21
9.801666666666657
 31
0
  0
LINE
  8
0
 62
7
 10
2.326709900000009
 20
9.866666666666658
 30
0
 11
2.811726990000011
 21
9.866666666666658
 31
0
  0
LINE
  8
0
 62
7
 10
2.811726990000011
 20
9.866666666666658
 30
0
 11
2.811726990000011
 21
9.801666666666657
 31
0
  0
LINE
  8
0
 62
7
 10
2.326709900000009
 20
9.801666666666657
 30
0
 11
2.326709900000009
 21
9.866666666666658
 31
0
  0
LINE
  8
0
 62
7
 10
3.137327570000012
 20
9.618333226666659
 30
0
 11
2.689466400000009
 21
9.618333226666659
 31
0
  0
LINE
  8
0
 62
7
 10
2.689466400000009
 20
9.68333322666666
 30
0
 11
3.137327570000012
 21
9.68333322666666
 31
0
  0
LINE
  8
0
 62
7
 10
3.137327570000012
 20
9.68333322666666
 30
0
 11
3.137327570000012
 21
9.618333226666659
 31
0
  0
LINE
  8
0
 62
7
 10
2.689466400000009
 20
9.618333226666659
 30
0
 11
2.689466400000009
 21
9.68333322666666
 31
0
  0
LINE
  8
0
 62
7
 10
3.527356260000013
 20
9.434999946666661
 30
0
 11
2.82947036000001
 21
9.434999946666661
 31
0
  0
LINE
  8
0
 62
7
 10
2.82947036000001
 20
9.49999994666666
 30
0
 11
3.527356260000013
 21
9.49999994666666
 31
0
  0
LINE
  8
0
 62
7
 10
3.527356260000013
 20
9.49999994666666
 30
0
 11
3.527356260000013
 21
9.434999946666661
 31
0
  0
LINE
  8
0
 62
7
 10
2.82947036000001
 20
9.434999946666661
 30
0
 11
2.82947036000001
 21
9.49999994666666
 31
0
  0
LINE
  8
0
 62
7
 10
4.01380146000001
 20
9.251666586666659
 30
0
 11
2.947356720000011
 21
9.251666586666659
 31
0
  0
LINE
  8
0
 62
7
 10
2.947356720000011
 20
9.31666658666666
 30
0
 11
4.01380146000001
 21
9.31666658666666
 31
0
  0
LINE
  8
0
 62
7
 10
4.01380146000001
 20
9.31666658666666
 30
0
 11
4.01380146000001
 21
9.251666586666659
 31
0
  0
LINE
  8
0
 62
7
 10
2.947356720000011
 20
9.251666586666659
 30
0
 11
2.947356720000011
 21
9.31666658666666
 31
0
  0
LINE
  8
0
 62
7
 10
3.044999840000008
 20
9.133333226666659
 30
0
 11
4.104999830000012
 21
9.133333226666659
 31
0
  0
LINE
  8
0
 62
7
 10
4.104999830000012
 20
9.068333226666658
 30
0
 11
3.044999840000008
 21
9.068333226666658
 31
0
  0
LINE
  8
0
 62
7
 10
4.104999830000012
 20
9.133333226666659
 30
0
 11
4.104999830000012
 21
9.068333226666658
 31
0
  0
LINE
  8
0
 62
7
 10
3.044999840000008
 20
9.068333226666658
 30
0
 11
3.044999840000008
 21
9.133333226666659
 31
0
  0
LINE
  8
0
 62
7
 10
3.044999840000008
 20
8.94999990666666
 30
0
 11
4.104999870000012
 21
8.94999990666666
 31
0
  0
LINE
  8
0
 62
7
 10
4.104999870000012
 20
8.94999990666666
 30
0
 11
4.104999870000012
 21
8.884999906666662
 31
0
  0
LINE
  8
0
 62
7
 10
3.044999840000008
 20
8.884999906666662
 30
0
 11
3.044999840000008
 21
8.94999990666666
 31
0
  0
LINE
  8
0
 62
7
 10
4.104999870000012
 20
8.884999906666662
 30
0
 11
3.044999840000008
 21
8.884999906666662
 31
0
  0
LINE
  8
0
 62
7
 10
3.044999770000011
 20
8.766666566666661
 30
0
 11
4.105000420000011
 21
8.766666566666661
 31
0
  0
LINE
  8
0
 62
7
 10
4.105000420000011
 20
8.766666566666661
 30
0
 11
4.105000420000011
 21
8.70166656666666
 31
0
  0
LINE
  8
0
 62
7
 10
3.044999770000011
 20
8.70166656666666
 30
0
 11
3.044999770000011
 21
8.766666566666661
 31
0
  0
LINE
  8
0
 62
7
 10
4.105000420000011
 20
8.70166656666666
 30
0
 11
3.044999770000011
 21
8.70166656666666
 31
0
  0
LINE
  8
0
 62
7
 10
3.044999840000008
 20
8.583333226666658
 30
0
 11
4.104999390000012
 21
8.583333226666658
 31
0
  0
LINE
  8
0
 62
7
 10
4.104999390000012
 20
8.583333226666658
 30
0
 11
4.104999390000012
 21
8.518333226666659
 31
0
  0
LINE
  8
0
 62
7
 10
3.044999840000008
 20
8.518333226666659
 30
0
 11
3.044999840000008
 21
8.583333226666658
 31
0
  0
LINE
  8
0
 62
7
 10
4.104999390000012
 20
8.518333226666659
 30
0
 11
3.044999840000008
 21
8.518333226666659
 31
0
  0
LINE
  8
0
 62
7
 10
6.410000250000012
 20
10.96666666666666
 30
0
 11
6.783208770000009
 21
10.96666666666666
 31
0
  0
LINE
  8
0
 62
7
 10
6.783208770000009
 20
10.90166666666666
 30
0
 11
6.410000250000012
 21
10.90166666666666
 31
0
  0
LINE
  8
0
 62
7
 10
6.410000250000012
 20
10.90166666666666
 30
0
 11
6.410000250000012
 21
10.96666666666666
 31
0
  0
LINE
  8
0
 62
7
 10
6.783208770000009
 20
10.96666666666666
 30
0
 11
6.783208770000009
 21
10.90166666666666
 31
0
  0
LINE
  8
0
 62
7
 10
7.135900570000013
 20
10.71833322666666
 30
0
 11
6.454958570000014
 21
10.71833322666666
 31
0
  0
LINE
  8
0
 62
7
 10
6.454958570000014
 20
10.78333322666666
 30
0
 11
7.135900570000013
 21
10.78333322666666
 31
0
  0
LINE
  8
0
 62
7
 10
6.454958570000014
 20
10.71833322666666
 30
0
 11
6.454958570000014
 21
10.78333322666666
 31
0
  0
LINE
  8
0
 62
7
 10
7.135900570000013
 20
10.78333322666666
 30
0
 11
7.135900570000013
 21
10.71833322666666
 31
0
  0
LINE
  8
0
 62
7
 10
7.571508790000022
 20
10.53499994666666
 30
0
 11
6.575596920000013
 21
10.53499994666666
 31
0
  0
LINE
  8
0
 62
7
 10
6.575596920000013
 20
10.59999994666666
 30
0
 11
7.571508790000022
 21
10.59999994666666
 31
0
  0
LINE
  8
0
 62
7
 10
6.575596920000013
 20
10.53499994666666
 30
0
 11
6.575596920000013
 21
10.59999994666666
 31
0
  0
LINE
  8
0
 62
7
 10
7.571508790000022
 20
10.59999994666666
 30
0
 11
7.571508790000022
 21
10.53499994666666
 31
0
  0
LINE
  8
0
 62
7
 10
7.904999540000023
 20
10.35166666666666
 30
0
 11
6.712624170000014
 21
10.35166666666666
 31
0
  0
LINE
  8
0
 62
7
 10
6.712624170000014
 20
10.41666666666666
 30
0
 11
7.904999540000023
 21
10.41666666666666
 31
0
  0
LINE
  8
0
 62
7
 10
6.712624170000014
 20
10.35166666666666
 30
0
 11
6.712624170000014
 21
10.41666666666666
 31
0
  0
LINE
  8
0
 62
7
 10
7.904999540000023
 20
10.41666666666666
 30
0
 11
7.904999540000023
 21
10.35166666666666
 31
0
  0
LINE
  8
0
 62
7
 10
6.844999540000014
 20
10.23333322666666
 30
0
 11
7.904999850000019
 21
10.23333322666666
 31
0
  0
LINE
  8
0
 62
7
 10
6.844999540000014
 20
10.16833322666666
 30
0
 11
6.844999540000014
 21
10.23333322666666
 31
0
  0
LINE
  8
0
 62
7
 10
7.904999850000019
 20
10.23333322666666
 30
0
 11
7.904999850000019
 21
10.16833322666666
 31
0
  0
LINE
  8
0
 62
7
 10
7.904999850000019
 20
10.16833322666666
 30
0
 11
6.844999540000014
 21
10.16833322666666
 31
0
  0
LINE
  8
0
 62
7
 10
6.84499977000001
 20
10.04999994666666
 30
0
 11
7.904999850000019
 21
10.04999994666666
 31
0
  0
LINE
  8
0
 62
7
 10
6.84499977000001
 20
9.984999946666662
 30
0
 11
6.84499977000001
 21
10.04999994666666
 31
0
  0
LINE
  8
0
 62
7
 10
7.904999850000019
 20
10.04999994666666
 30
0
 11
7.904999850000019
 21
9.984999946666662
 31
0
  0
LINE
  8
0
 62
7
 10
7.904999850000019
 20
9.984999946666662
 30
0
 11
6.84499977000001
 21
9.984999946666662
 31
0
  0
LINE
  8
0
 62
7
 10
6.844999690000009
 20
9.866666666666658
 30
0
 11
7.90500015000002
 21
9.866666666666658
 31
0
  0
LINE
  8
0
 62
7
 10
6.844999690000009
 20
9.801666666666657
 30
0
 11
6.844999690000009
 21
9.866666666666658
 31
0
  0
LINE
  8
0
 62
7
 10
7.90500015000002
 20
9.866666666666658
 30
0
 11
7.90500015000002
 21
9.801666666666657
 31
0
  0
LINE
  8
0
 62
7
 10
7.90500015000002
 20
9.801666666666657
 30
0
 11
6.844999690000009
 21
9.801666666666657
 31
0
  0
LINE
  8
0
 62
7
 10
6.844999850000022
 20
9.68333322666666
 30
0
 11
7.905000000000012
 21
9.68333322666666
 31
0
  0
LINE
  8
0
 62
7
 10
6.844999850000022
 20
9.618333226666659
 30
0
 11
6.844999850000022
 21
9.68333322666666
 31
0
  0
LINE
  8
0
 62
7
 10
7.905000000000012
 20
9.68333322666666
 30
0
 11
7.905000000000012
 21
9.618333226666659
 31
0
  0
LINE
  8
0
 62
7
 10
7.905000000000012
 20
9.618333226666659
 30
0
 11
6.844999850000022
 21
9.618333226666659
 31
0
  0
LINE
  8
0
 62
7
 10
6.84499977000001
 20
9.49999994666666
 30
0
 11
7.904999850000019
 21
9.49999994666666
 31
0
  0
LINE
  8
0
 62
7
 10
6.84499977000001
 20
9.434999946666661
 30
0
 11
6.84499977000001
 21
9.49999994666666
 31
0
  0
LINE
  8
0
 62
7
 10
7.904999850000019
 20
9.49999994666666
 30
0
 11
7.904999850000019
 21
9.434999946666661
 31
0
  0
LINE
  8
0
 62
7
 10
7.904999850000019
 20
9.434999946666661
 30
0
 11
6.84499977000001
 21
9.434999946666661
 31
0
  0
LINE
  8
0
 62
7
 10
6.76276707000001
 20
9.31666658666666
 30
0
 11
7.904999850000019
 21
9.31666658666666
 31
0
  0
LINE
  8
0
 62
7
 10
7.904999850000019
 20
9.251666586666659
 30
0
 11
6.76276707000001
 21
9.251666586666659
 31
0
  0
LINE
  8
0
 62
7
 10
6.76276707000001
 20
9.251666586666659
 30
0
 11
6.76276707000001
 21
9.31666658666666
 31
0
  0
LINE
  8
0
 62
7
 10
7.904999850000019
 20
9.31666658666666
 30
0
 11
7.904999850000019
 21
9.251666586666659
 31
0
  0
LINE
  8
0
 62
7
 10
7.905000000000012
 20
9.068333226666658
 30
0
 11
6.623060030000012
 21
9.068333226666658
 31
0
  0
LINE
  8
0
 62
7
 10
6.623060030000012
 20
9.133333226666659
 30
0
 11
7.905000000000012
 21
9.133333226666659
 31
0
  0
LINE
  8
0
 62
7
 10
6.623060030000012
 20
9.068333226666658
 30
0
 11
6.623060030000012
 21
9.133333226666659
 31
0
  0
LINE
  8
0
 62
7
 10
7.905000000000012
 20
9.133333226666659
 30
0
 11
7.905000000000012
 21
9.068333226666658
 31
0
  0
LINE
  8
0
 62
7
 10
7.493376310000023
 20
8.884999906666662
 30
0
 11
6.53443092000001
 21
8.884999906666662
 31
0
  0
LINE
  8
0
 62
7
 10
6.53443092000001
 20
8.94999990666666
 30
0
 11
7.493376310000023
 21
8.94999990666666
 31
0
  0
LINE
  8
0
 62
7
 10
6.53443092000001
 20
8.884999906666662
 30
0
 11
6.53443092000001
 21
8.94999990666666
 31
0
  0
LINE
  8
0
 62
7
 10
7.493376310000023
 20
8.94999990666666
 30
0
 11
7.493376310000023
 21
8.884999906666662
 31
0
  0
LINE
  8
0
 62
7
 10
7.070085300000009
 20
8.70166656666666
 30
0
 11
6.439255140000009
 21
8.70166656666666
 31
0
  0
LINE
  8
0
 62
7
 10
6.439255140000009
 20
8.766666566666661
 30
0
 11
7.070085300000009
 21
8.766666566666661
 31
0
  0
LINE
  8
0
 62
7
 10
6.439255140000009
 20
8.70166656666666
 30
0
 11
6.439255140000009
 21
8.766666566666661
 31
0
  0
LINE
  8
0
 62
7
 10
7.070085300000009
 20
8.766666566666661
 30
0
 11
7.070085300000009
 21
8.70166656666666
 31
0
  0
LINE
  8
0
 62
7
 10
6.279999730000008
 20
8.583333226666658
 30
0
 11
6.696613620000012
 21
8.583333226666658
 31
0
  0
LINE
  8
0
 62
7
 10
6.696613620000012
 20
8.518333226666659
 30
0
 11
6.279999730000008
 21
8.518333226666659
 31
0
  0
LINE
  8
0
 62
7
 10
6.279999730000008
 20
8.518333226666659
 30
0
 11
6.279999730000008
 21
8.583333226666658
 31
0
  0
LINE
  8
0
 62
7
 10
6.696613620000012
 20
8.583333226666658
 30
0
 11
6.696613620000012
 21
8.518333226666659
 31
0
  0
LINE
  8
0
 62
7
 10
0.9500000000000001
 20
8.1
 30
0
 11
1.1
 21
8.1
 31
0
  0
LINE
  8
0
 62
7
 10
0.9500000000000001
 20
8.300000000000001
 30
0
 11
1.1
 21
8.300000000000001
 31
0
  0
LINE
  8
0
 62
7
 10
0.9500000000000001
 20
10.85
 30
0
 11
1.1
 21
10.85
 31
0
  0
LINE
  8
0
 62
7
 10
0.9500000000000001
 20
11.05
 30
0
 11
1.1
 21
11.05
 31
0
  0
LINE
  8
0
 62
7
 10
1.1
 20
7.95
 30
0
 11
1.1
 21
8.1
 31
0
  0
LINE
  8
0
 62
7
 10
1.1
 20
8.1
 30
0
 11
1.275
 21
8.1
 31
0
  0
LINE
  8
0
 62
7
 10
1.1
 20
8.300000000000001
 30
0
 11
1.1
 21
8.4
 31
0
  0
LINE
  8
0
 62
7
 10
1.1
 20
8.300000000000001
 30
0
 11
1.275
 21
8.300000000000001
 31
0
  0
LINE
  8
0
 62
7
 10
1.1
 20
10.85
 30
0
 11
1.275
 21
10.85
 31
0
  0
LINE
  8
0
 62
7
 10
1.1
 20
11.05
 30
0
 11
1.1
 21
11.15
 31
0
  0
LINE
  8
0
 62
7
 10
1.1
 20
11.05
 30
0
 11
1.275
 21
11.05
 31
0
  0
LINE
  8
0
 62
7
 10
1.275
 20
7.95
 30
0
 11
1.275
 21
8.1
 31
0
  0
LINE
  8
0
 62
7
 10
1.275
 20
8.1
 30
0
 11
4.16
 21
8.1
 31
0
  0
LINE
  8
0
 62
7
 10
1.275
 20
8.300000000000001
 30
0
 11
1.275
 21
8.4
 31
0
  0
LINE
  8
0
 62
7
 10
1.275
 20
8.300000000000001
 30
0
 11
4.16
 21
8.300000000000001
 31
0
  0
LINE
  8
0
 62
7
 10
1.275
 20
10.85
 30
0
 11
4.16
 21
10.85
 31
0
  0
LINE
  8
0
 62
7
 10
1.275
 20
11.05
 30
0
 11
1.275
 21
11.15
 31
0
  0
LINE
  8
0
 62
7
 10
1.275
 20
11.05
 30
0
 11
4.16
 21
11.05
 31
0
  0
LINE
  8
0
 62
7
 10
4.16
 20
7.95
 30
0
 11
4.16
 21
8.1
 31
0
  0
LINE
  8
0
 62
7
 10
4.16
 20
8.1
 30
0
 11
4.335
 21
8.1
 31
0
  0
LINE
  8
0
 62
7
 10
4.16
 20
8.300000000000001
 30
0
 11
4.16
 21
8.4
 31
0
  0
LINE
  8
0
 62
7
 10
4.16
 20
8.300000000000001
 30
0
 11
4.335
 21
8.300000000000001
 31
0
  0
LINE
  8
0
 62
7
 10
4.16
 20
10.85
 30
0
 11
4.335
 21
10.85
 31
0
  0
LINE
  8
0
 62
7
 10
4.16
 20
11.05
 30
0
 11
4.16
 21
11.15
 31
0
  0
LINE
  8
0
 62
7
 10
4.16
 20
11.05
 30
0
 11
4.335
 21
11.05
 31
0
  0
LINE
  8
0
 62
7
 10
4.335
 20
7.95
 30
0
 11
4.335
 21
8.1
 31
0
  0
LINE
  8
0
 62
7
 10
4.335
 20
8.1
 30
0
 11
4.485
 21
8.1
 31
0
  0
LINE
  8
0
 62
7
 10
4.335
 20
8.300000000000001
 30
0
 11
4.335
 21
8.4
 31
0
  0
LINE
  8
0
 62
7
 10
4.335
 20
8.300000000000001
 30
0
 11
4.485
 21
8.300000000000001
 31
0
  0
LINE
  8
0
 62
7
 10
4.335
 20
10.85
 30
0
 11
4.485
 21
10.85
 31
0
  0
LINE
  8
0
 62
7
 10
4.335
 20
11.05
 30
0
 11
4.335
 21
11.15
 31
0
  0
LINE
  8
0
 62
7
 10
4.335
 20
11.05
 30
0
 11
4.485
 21
11.05
 31
0
  0
LINE
  8
0
 62
7
  6
DASHDOT
 10
0.9500000000000001
 20
8.050000000000001
 30
0
 11
0.9500000000000001
 21
8.1
 31
0
  0
LINE
  8
0
 62
7
  6
DASHDOT
 10
0.9500000000000001
 20
10.8
 30
0
 11
0.9500000000000001
 21
10.85
 31
0
  0
LINE
  8
0
 62
7
  6
DASHDOT
 10
4.485
 20
8.050000000000001
 30
0
 11
4.485
 21
8.1
 31
0
  0
LINE
  8
0
 62
7
  6
DASHDOT
 10
4.485
 20
10.8
 30
0
 11
4.485
 21
10.85
 31
0
  0
LINE
  8
0
 62
7
  6
DASHDOT
 10
1.05
 20
11.2
 30
0
 11
1.1
 21
11.2
 31
0
  0
LINE
  8
0
 62
7
  6
DASHDOT
 10
1.05
 20
7.95
 30
0
 11
1.1
 21
7.95
 31
0
  0
LINE
  8
0
 62
7
  6
DASHDOT
 10
4.11
 20
11.2
 30
0
 11
4.16
 21
11.2
 31
0
  0
LINE
  8
0
 62
7
  6
DASHDOT
 10
4.11
 20
7.95
 30
0
 11
4.16
 21
7.95
 31
0
  0
LINE
  8
0
 62
7
 10
0.9500000000000001
 20
8.4
 30
0
 11
1.1
 21
8.4
 31
0
  0
LINE
  8
0
 62
7
 10
1.1
 20
8.4
 30
0
 11
1.1
 21
10.85
 31
0
  0
LINE
  8
0
 62
7
  6
DASHDOT
 10
0.9500000000000001
 20
8.4
 30
0
 11
0.9500000000000001
 21
8.450000000000001
 31
0
  0
LINE
  8
0
 62
7
 10
1.275
 20
8.4
 30
0
 11
4.16
 21
8.4
 31
0
  0
LINE
  8
0
 62
7
 10
1.275
 20
8.4
 30
0
 11
1.275
 21
10.85
 31
0
  0
LINE
  8
0
 62
7
 10
4.16
 20
8.4
 30
0
 11
4.16
 21
10.85
 31
0
  0
LINE
  8
0
 62
7
 10
4.335
 20
8.4
 30
0
 11
4.485
 21
8.4
 31
0
  0
LINE
  8
0
 62
7
 10
4.335
 20
8.4
 30
0
 11
4.335
 21
10.85
 31
0
  0
LINE
  8
0
 62
7
  6
DASHDOT
 10
4.485
 20
8.4
 30
0
 11
4.485
 21
8.450000000000001
 31
0
  0
LINE
  8
0
 62
7
 10
0.9500000000000001
 20
11.15
 30
0
 11
1.1
 21
11.15
 31
0
  0
LINE
  8
0
 62
7
 10
1.1
 20
11.15
 30
0
 11
1.1
 21
11.2
 31
0
  0
LINE
  8
0
 62
7
  6
DASHDOT
 10
0.9500000000000001
 20
11.15
 30
0
 11
0.9500000000000001
 21
11.2
 31
0
  0
LINE
  8
0
 62
7
 10
1.275
 20
11.15
 30
0
 11
4.16
 21
11.15
 31
0
  0
LINE
  8
0
 62
7
 10
1.275
 20
11.15
 30
0
 11
1.275
 21
11.2
 31
0
  0
LINE
  8
0
 62
7
 10
4.16
 20
11.15
 30
0
 11
4.16
 21
11.2
 31
0
  0
LINE
  8
0
 62
7
 10
4.335
 20
11.15
 30
0
 11
4.485
 21
11.15
 31
0
  0
LINE
  8
0
 62
7
 10
4.335
 20
11.15
 30
0
 11
4.335
 21
11.2
 31
0
  0
LINE
  8
0
 62
7
  6
DASHDOT
 10
4.485
 20
11.15
 30
0
 11
4.485
 21
11.2
 31
0
  0
LINE
  8
0
 62
7
  6
DASHDOT
 10
4.485
 20
8.1
 30
0
 11
4.485
 21
8.300000000000001
 31
0
  0
LINE
  8
0
 62
7
  6
DASHDOT
 10
4.485
 20
8.300000000000001
 30
0
 11
4.485
 21
8.4
 31
0
  0
LINE
  8
0
 62
7
  6
DASHDOT
 10
4.16
 20
7.95
 30
0
 11
4.335
 21
7.95
 31
0
  0
LINE
  8
0
 62
7
  6
DASHDOT
 10
4.335
 20
7.95
 30
0
 11
4.385000000000001
 21
7.95
 31
0
  0
LINE
  8
0
 62
7
  6
DASHDOT
 10
0.9500000000000001
 20
8.1
 30
0
 11
0.9500000000000001
 21
8.300000000000001
 31
0
  0
LINE
  8
0
 62
7
  6
DASHDOT
 10
0.9500000000000001
 20
8.300000000000001
 30
0
 11
0.9500000000000001
 21
8.4
 31
0
  0
LINE
  8
0
 62
7
  6
DASHDOT
 10
1.1
 20
7.95
 30
0
 11
1.275
 21
7.95
 31
0
  0
LINE
  8
0
 62
7
  6
DASHDOT
 10
1.275
 20
7.95
 30
0
 11
1.325
 21
7.95
 31
0
  0
LINE
  8
0
 62
7
  6
DASHDOT
 10
0.9500000000000001
 20
10.85
 30
0
 11
0.9500000000000001
 21
11.05
 31
0
  0
LINE
  8
0
 62
7
  6
DASHDOT
 10
0.9500000000000001
 20
11.05
 30
0
 11
0.9500000000000001
 21
11.15
 31
0
  0
LINE
  8
0
 62
7
  6
DASHDOT
 10
1.1
 20
11.2
 30
0
 11
1.275
 21
11.2
 31
0
  0
LINE
  8
0
 62
7
  6
DASHDOT
 10
1.275
 20
11.2
 30
0
 11
1.325
 21
11.2
 31
0
  0
LINE
  8
0
 62
7
  6
DASHDOT
 10
4.485
 20
10.85
 30
0
 11
4.485
 21
11.05
 31
0
  0
LINE
  8
0
 62
7
  6
DASHDOT
 10
4.485
 20
11.05
 30
0
 11
4.485
 21
11.15
 31
0
  0
LINE
  8
0
 62
7
  6
DASHDOT
 10
4.16
 20
11.2
 30
0
 11
4.335
 21
11.2
 31
0
  0
LINE
  8
0
 62
7
  6
DASHDOT
 10
4.335
 20
11.2
 30
0
 11
4.385000000000001
 21
11.2
 31
0
  0
LINE
  8
0
 62
7
 10
8.200000000000026
 20
8.1
 30
0
 11
8.200000000000026
 21
7.95
 31
0
  0
LINE
  8
0
 62
7
 10
7.960000000000027
 20
11.05
 30
0
 11
7.960000000000027
 21
11.2
 31
0
  0
LINE
  8
0
 62
7
 10
7.960000000000027
 20
11.05
 30
0
 11
8.200000000000026
 21
11.05
 31
0
  0
LINE
  8
0
 62
7
 10
8.200000000000026
 20
11.2
 30
0
 11
8.200000000000026
 21
11.05
 31
0
  0
LINE
  8
0
 62
7
 10
7.960000000000027
 20
10.85
 30
0
 11
7.960000000000027
 21
11.05
 31
0
  0
LINE
  8
0
 62
7
 10
7.960000000000027
 20
10.85
 30
0
 11
8.200000000000026
 21
10.85
 31
0
  0
LINE
  8
0
 62
7
 10
8.200000000000026
 20
11.05
 30
0
 11
8.200000000000026
 21
10.85
 31
0
  0
LINE
  8
0
 62
7
 10
7.960000000000027
 20
8.300000000000001
 30
0
 11
7.960000000000027
 21
10.85
 31
0
  0
LINE
  8
0
 62
7
 10
7.960000000000027
 20
8.300000000000001
 30
0
 11
8.200000000000026
 21
8.300000000000001
 31
0
  0
LINE
  8
0
 62
7
 10
8.200000000000026
 20
10.85
 30
0
 11
8.200000000000026
 21
8.300000000000001
 31
0
  0
LINE
  8
0
 62
7
 10
7.960000000000027
 20
8.1
 30
0
 11
7.960000000000027
 21
8.300000000000001
 31
0
  0
LINE
  8
0
 62
7
 10
7.960000000000027
 20
8.1
 30
0
 11
8.200000000000026
 21
8.1
 31
0
  0
LINE
  8
0
 62
7
 10
8.200000000000026
 20
8.300000000000001
 30
0
 11
8.200000000000026
 21
8.1
 31
0
  0
LINE
  8
0
 62
7
 10
7.960000000000027
 20
7.95
 30
0
 11
7.960000000000027
 21
8.1
 31
0
  0
LINE
  8
0
 62
7
 10
6.380000000000024
 20
10.85
 30
0
 11
6.380000000000024
 21
11.05
 31
0
  0
LINE
  8
0
 62
7
 10
6.080000000000022
 20
10.85
 30
0
 11
6.380000000000024
 21
10.85
 31
0
  0
LINE
  8
0
 62
7
 10
6.080000000000022
 20
11.05
 30
0
 11
6.380000000000024
 21
11.05
 31
0
  0
LINE
  8
0
 62
7
 10
6.080000000000022
 20
8.300000000000001
 30
0
 11
6.380000000000024
 21
8.300000000000001
 31
0
  0
LINE
  8
0
 62
7
 10
6.380000000000024
 20
8.1
 30
0
 11
6.380000000000024
 21
8.300000000000001
 31
0
  0
LINE
  8
0
 62
7
 10
6.080000000000022
 20
8.1
 30
0
 11
6.380000000000024
 21
8.1
 31
0
  0
LINE
  8
0
 62
7
  6
DASHDOT
 10
8.200000000000026
 20
11.2
 30
0
 11
8.250000000000027
 21
11.2
 31
0
  0
LINE
  8
0
 62
7
  6
DASHDOT
 10
6.080000000000022
 20
11.15
 30
0
 11
6.080000000000022
 21
11.2
 31
0
  0
LINE
  8
0
 62
7
  6
DASHDOT
 10
6.080000000000022
 20
8.1
 30
0
 11
6.080000000000022
 21
8.050000000000001
 31
0
  0
LINE
  8
0
 62
7
  6
DASHDOT
 10
8.200000000000026
 20
7.95
 30
0
 11
8.250000000000027
 21
7.95
 31
0
  0
LINE
  8
0
 62
7
 10
6.080000000000022
 20
8.4
 30
0
 11
6.380000000000024
 21
8.4
 31
0
  0
LINE
  8
0
 62
7
  6
DASHDOT
 10
6.080000000000022
 20
8.450000000000001
 30
0
 11
6.080000000000022
 21
8.4
 31
0
  0
LINE
  8
0
 62
7
 10
6.080000000000022
 20
11.15
 30
0
 11
6.380000000000024
 21
11.15
 31
0
  0
LINE
  8
0
 62
7
  6
DASHDOT
 10
6.080000000000022
 20
11.05
 30
0
 11
6.080000000000022
 21
11.15
 31
0
  0
LINE
  8
0
 62
7
  6
DASHDOT
 10
6.080000000000022
 20
8.4
 30
0
 11
6.080000000000022
 21
8.300000000000001
 31
0
  0
LINE
  8
0
 62
7
  6
DASHDOT
 10
6.080000000000022
 20
8.300000000000001
 30
0
 11
6.080000000000022
 21
8.1
 31
0
  0
LINE
  8
0
 62
7
  6
DASHDOT
 10
7.960000000000027
 20
7.95
 30
0
 11
8.200000000000026
 21
7.95
 31
0
  0
LINE
  8
0
 62
7
  6
DASHDOT
 10
7.910000000000027
 20
7.95
 30
0
 11
7.960000000000027
 21
7.95
 31
0
  0
LINE
  8
0
 62
7
  6
DASHDOT
 10
7.910000000000027
 20
11.2
 30
0
 11
7.960000000000027
 21
11.2
 31
0
  0
LINE
  8
0
 62
7
  6
DASHDOT
 10
7.960000000000027
 20
11.2
 30
0
 11
8.200000000000026
 21
11.2
 31
0
  0
LINE
  8
0
 62
7
  6
DASHDOT
 10
6.080000000000022
 20
10.8
 30
0
 11
6.080000000000022
 21
10.85
 31
0
  0
LINE
  8
0
 62
7
  6
DASHDOT
 10
6.080000000000022
 20
10.85
 30
0
 11
6.080000000000022
 21
11.05
 31
0
  0
LINE
  8
0
 62
7
  6
DASHED
 10
6.380000000000024
 20
11.05
 30
0
 11
7.960000000000027
 21
11.05
 31
0
  0
LINE
  8
0
 62
7
  6
DASHED
 10
6.380000000000024
 20
10.85
 30
0
 11
7.960000000000027
 21
10.85
 31
0
  0
LINE
  8
0
 62
7
  6
DASHED
 10
6.380000000000024
 20
8.300000000000001
 30
0
 11
7.960000000000027
 21
8.300000000000001
 31
0
  0
LINE
  8
0
 62
7
  6
DASHED
 10
6.380000000000024
 20
8.1
 30
0
 11
7.960000000000027
 21
8.1
 31
0
  0
LINE
  8
0
 62
7
 10
4.335
 20
5.449999999999999
 30
0
 11
4.485
 21
5.449999999999999
 31
0
  0
LINE
  8
0
 62
7
 10
4.335
 20
5.6
 30
0
 11
4.335
 21
5.449999999999999
 31
0
  0
LINE
  8
0
 62
7
 10
4.16
 20
5.449999999999999
 30
0
 11
4.16
 21
5.6
 31
0
  0
LINE
  8
0
 62
7
 10
1.275
 20
5.449999999999999
 30
0
 11
4.16
 21
5.449999999999999
 31
0
  0
LINE
  8
0
 62
7
 10
1.275
 20
5.6
 30
0
 11
1.275
 21
5.449999999999999
 31
0
  0
LINE
  8
0
 62
7
 10
1.1
 20
5.449999999999999
 30
0
 11
1.1
 21
5.6
 31
0
  0
LINE
  8
0
 62
7
 10
0.9350000000000001
 20
5.449999999999999
 30
0
 11
1.1
 21
5.449999999999999
 31
0
  0
LINE
  8
0
 62
7
 10
0.9350000000000001
 20
5.21
 30
0
 11
4.485
 21
5.21
 31
0
  0
LINE
  8
0
 62
7
 10
0.9350000000000001
 20
5.169999999999999
 30
0
 11
4.485
 21
5.169999999999999
 31
0
  0
LINE
  8
0
 62
7
 10
4.335
 20
4.93
 30
0
 11
4.485
 21
4.93
 31
0
  0
LINE
  8
0
 62
7
 10
4.16
 20
3.35
 30
0
 11
4.16
 21
3.25
 31
0
  0
LINE
  8
0
 62
7
 10
4.16
 20
3.25
 30
0
 11
4.335
 21
3.25
 31
0
  0
LINE
  8
0
 62
7
 10
4.335
 20
3.25
 30
0
 11
4.335
 21
4.93
 31
0
  0
LINE
  8
0
 62
7
 10
1.275
 20
4.93
 30
0
 11
4.16
 21
4.93
 31
0
  0
LINE
  8
0
 62
7
 10
1.275
 20
3.399999999999999
 30
0
 11
1.275
 21
4.93
 31
0
  0
LINE
  8
0
 62
7
 10
1.1
 20
4.93
 30
0
 11
1.1
 21
3.35
 31
0
  0
LINE
  8
0
 62
7
 10
0.9350000000000001
 20
4.93
 30
0
 11
1.1
 21
4.93
 31
0
  0
LINE
  8
0
 62
7
 10
1.1
 20
3.35
 30
0
 11
1.275
 21
3.35
 31
0
  0
LINE
  8
0
 62
7
 10
4.16
 20
3.399999999999999
 30
0
 11
1.275
 21
3.399999999999999
 31
0
  0
LINE
  8
0
 62
7
 10
4.16
 20
4.93
 30
0
 11
4.16
 21
3.399999999999999
 31
0
  0
LINE
  8
0
 62
7
 10
1.275
 20
3.35
 30
0
 11
1.275
 21
3.399999999999999
 31
0
  0
LINE
  8
0
 62
7
  6
DASHDOT
 10
4.16
 20
3.35
 30
0
 11
1.275
 21
3.35
 31
0
  0
LINE
  8
0
 62
7
 10
4.16
 20
3.399999999999999
 30
0
 11
4.16
 21
3.35
 31
0
  0
LINE
  8
0
 62
7
  6
DASHDOT
 10
4.335
 20
5.6
 30
0
 11
4.385000000000001
 21
5.6
 31
0
  0
LINE
  8
0
 62
7
  6
DASHDOT
 10
1.275
 20
5.6
 30
0
 11
1.325
 21
5.6
 31
0
  0
LINE
  8
0
 62
7
  6
DASHDOT
 10
4.485
 20
5.449999999999999
 30
0
 11
4.485
 21
5.5
 31
0
  0
LINE
  8
0
 62
7
  6
DASHDOT
 10
0.9350000000000001
 20
5.449999999999999
 30
0
 11
0.9350000000000001
 21
5.5
 31
0
  0
LINE
  8
0
 62
7
  6
DASHDOT
 10
0.9350000000000001
 20
5.21
 30
0
 11
0.9350000000000001
 21
5.449999999999999
 31
0
  0
LINE
  8
0
 62
7
  6
DASHDOT
 10
0.9350000000000001
 20
4.879999999999999
 30
0
 11
0.9350000000000001
 21
4.93
 31
0
  0
LINE
  8
0
 62
7
  6
DASHDOT
 10
4.16
 20
5.6
 30
0
 11
4.335
 21
5.6
 31
0
  0
LINE
  8
0
 62
7
  6
DASHDOT
 10
4.11
 20
5.6
 30
0
 11
4.16
 21
5.6
 31
0
  0
LINE
  8
0
 62
7
  6
DASHDOT
 10
4.485
 20
5.21
 30
0
 11
4.485
 21
5.449999999999999
 31
0
  0
LINE
  8
0
 62
7
  6
DASHDOT
 10
4.485
 20
4.879999999999999
 30
0
 11
4.485
 21
4.93
 31
0
  0
LINE
  8
0
 62
7
  6
DASHDOT
 10
0.9350000000000001
 20
5.169999999999999
 30
0
 11
0.9350000000000001
 21
5.21
 31
0
  0
LINE
  8
0
 62
7
  6
DASHDOT
 10
4.485
 20
5.169999999999999
 30
0
 11
4.485
 21
5.21
 31
0
  0
LINE
  8
0
 62
7
  6
DASHDOT
 10
0.9350000000000001
 20
4.93
 30
0
 11
0.9350000000000001
 21
5.169999999999999
 31
0
  0
LINE
  8
0
 62
7
  6
DASHDOT
 10
4.485
 20
4.93
 30
0
 11
4.485
 21
5.169999999999999
 31
0
  0
LINE
  8
0
 62
7
  6
DASHDOT
 10
1.05
 20
5.6
 30
0
 11
1.1
 21
5.6
 31
0
  0
LINE
  8
0
 62
7
  6
DASHDOT
 10
1.1
 20
5.6
 30
0
 11
1.275
 21
5.6
 31
0
  0
LINE
  8
0
 62
7
 10
1.85073307713053
 20
4.62517946062568
 30
0
 11
1.85073307713053
 21
4.74517946062568
 31
0
  0
LINE
  8
0
 62
7
 10
1.92633307713053
 20
4.74517946062568
 30
0
 11
1.87233307713053
 21
4.68517946062568
 31
0
  0
LINE
  8
0
 62
7
 10
1.87233307713053
 20
4.68517946062568
 30
0
 11
1.92633307713053
 21
4.62517946062568
 31
0
  0
LINE
  8
0
 62
7
 10
1.87233307713053
 20
4.68517946062568
 30
0
 11
1.85073307713053
 21
4.66117946062568
 31
0
  0
LINE
  8
0
 62
7
 10
2.03433307713053
 20
4.74517946062568
 30
0
 11
1.95873307713053
 21
4.74517946062568
 31
0
  0
LINE
  8
0
 62
7
 10
1.95873307713053
 20
4.74517946062568
 30
0
 11
1.95873307713053
 21
4.68517946062568
 31
0
  0
LINE
  8
0
 62
7
 10
1.95873307713053
 20
4.62517946062568
 30
0
 11
2.03433307713053
 21
4.62517946062568
 31
0
  0
LINE
  8
0
 62
7
 10
2.02353307713053
 20
4.68517946062568
 30
0
 11
1.95873307713053
 21
4.68517946062568
 31
0
  0
LINE
  8
0
 62
7
 10
1.95873307713053
 20
4.68517946062568
 30
0
 11
1.95873307713053
 21
4.62517946062568
 31
0
  0
LINE
  8
0
 62
7
 10
2.06673307713053
 20
4.62517946062568
 30
0
 11
2.06673307713053
 21
4.74517946062568
 31
0
  0
LINE
  8
0
 62
7
 10
2.06673307713053
 20
4.74517946062568
 30
0
 11
2.14233307713053
 21
4.62517946062568
 31
0
  0
LINE
  8
0
 62
7
 10
2.14233307713053
 20
4.62517946062568
 30
0
 11
2.14233307713053
 21
4.74517946062568
 31
0
  0
LINE
  8
0
 62
7
 10
2.17473307713053
 20
4.62517946062568
 30
0
 11
2.17473307713053
 21
4.74517946062568
 31
0
  0
LINE
  8
0
 62
7
 10
2.17473307713053
 20
4.74517946062568
 30
0
 11
2.25033307713053
 21
4.62517946062568
 31
0
  0
LINE
  8
0
 62
7
 10
2.25033307713053
 20
4.62517946062568
 30
0
 11
2.25033307713053
 21
4.74517946062568
 31
0
  0
LINE
  8
0
 62
7
 10
2.35833307713053
 20
4.70917946062568
 30
0
 11
2.35563307713053
 21
4.72117946062568
 31
0
  0
LINE
  8
0
 62
7
 10
2.35563307713053
 20
4.72117946062568
 30
0
 11
2.35023307713053
 21
4.73017946062568
 31
0
  0
LINE
  8
0
 62
7
 10
2.35023307713053
 20
4.73017946062568
 30
0
 11
2.34483307713053
 21
4.736179460625681
 31
0
  0
LINE
  8
0
 62
7
 10
2.34483307713053
 20
4.736179460625681
 30
0
 11
2.33673307713053
 21
4.742179460625681
 31
0
  0
LINE
  8
0
 62
7
 10
2.33673307713053
 20
4.742179460625681
 30
0
 11
2.32863307713053
 21
4.74517946062568
 31
0
  0
LINE
  8
0
 62
7
 10
2.32863307713053
 20
4.74517946062568
 30
0
 11
2.31243307713053
 21
4.74517946062568
 31
0
  0
LINE
  8
0
 62
7
 10
2.31243307713053
 20
4.74517946062568
 30
0
 11
2.30433307713053
 21
4.742179460625681
 31
0
  0
LINE
  8
0
 62
7
 10
2.30433307713053
 20
4.742179460625681
 30
0
 11
2.29623307713053
 21
4.736179460625681
 31
0
  0
LINE
  8
0
 62
7
 10
2.29623307713053
 20
4.736179460625681
 30
0
 11
2.29083307713053
 21
4.73017946062568
 31
0
  0
LINE
  8
0
 62
7
 10
2.29083307713053
 20
4.73017946062568
 30
0
 11
2.28543307713053
 21
4.72117946062568
 31
0
  0
LINE
  8
0
 62
7
 10
2.28543307713053
 20
4.72117946062568
 30
0
 11
2.282733077130529
 21
4.70917946062568
 31
0
  0
LINE
  8
0
 62
7
 10
2.282733077130529
 20
4.70917946062568
 30
0
 11
2.282733077130529
 21
4.66117946062568
 31
0
  0
LINE
  8
0
 62
7
 10
2.282733077130529
 20
4.66117946062568
 30
0
 11
2.28543307713053
 21
4.64917946062568
 31
0
  0
LINE
  8
0
 62
7
 10
2.28543307713053
 20
4.64917946062568
 30
0
 11
2.29083307713053
 21
4.640179460625681
 31
0
  0
LINE
  8
0
 62
7
 10
2.29083307713053
 20
4.640179460625681
 30
0
 11
2.29623307713053
 21
4.63417946062568
 31
0
  0
LINE
  8
0
 62
7
 10
2.29623307713053
 20
4.63417946062568
 30
0
 11
2.30433307713053
 21
4.62817946062568
 31
0
  0
LINE
  8
0
 62
7
 10
2.30433307713053
 20
4.62817946062568
 30
0
 11
2.31243307713053
 21
4.62517946062568
 31
0
  0
LINE
  8
0
 62
7
 10
2.31243307713053
 20
4.62517946062568
 30
0
 11
2.32863307713053
 21
4.62517946062568
 31
0
  0
LINE
  8
0
 62
7
 10
2.32863307713053
 20
4.62517946062568
 30
0
 11
2.33673307713053
 21
4.62817946062568
 31
0
  0
LINE
  8
0
 62
7
 10
2.33673307713053
 20
4.62817946062568
 30
0
 11
2.34483307713053
 21
4.63417946062568
 31
0
  0
LINE
  8
0
 62
7
 10
2.34483307713053
 20
4.63417946062568
 30
0
 11
2.35023307713053
 21
4.640179460625681
 31
0
  0
LINE
  8
0
 62
7
 10
2.35023307713053
 20
4.640179460625681
 30
0
 11
2.35563307713053
 21
4.64917946062568
 31
0
  0
LINE
  8
0
 62
7
 10
2.35563307713053
 20
4.64917946062568
 30
0
 11
2.35833307713053
 21
4.66117946062568
 31
0
  0
LINE
  8
0
 62
7
 10
2.35833307713053
 20
4.66117946062568
 30
0
 11
2.35833307713053
 21
4.68517946062568
 31
0
  0
LINE
  8
0
 62
7
 10
2.35833307713053
 20
4.68517946062568
 30
0
 11
2.32593307713053
 21
4.68517946062568
 31
0
  0
LINE
  8
0
 62
7
 10
2.43663307713053
 20
4.74517946062568
 30
0
 11
2.42043307713053
 21
4.74517946062568
 31
0
  0
LINE
  8
0
 62
7
 10
2.42043307713053
 20
4.74517946062568
 30
0
 11
2.41233307713053
 21
4.742179460625681
 31
0
  0
LINE
  8
0
 62
7
 10
2.41233307713053
 20
4.742179460625681
 30
0
 11
2.40423307713053
 21
4.736179460625681
 31
0
  0
LINE
  8
0
 62
7
 10
2.40423307713053
 20
4.736179460625681
 30
0
 11
2.39883307713053
 21
4.73017946062568
 31
0
  0
LINE
  8
0
 62
7
 10
2.39883307713053
 20
4.73017946062568
 30
0
 11
2.39343307713053
 21
4.72117946062568
 31
0
  0
LINE
  8
0
 62
7
 10
2.39343307713053
 20
4.72117946062568
 30
0
 11
2.39073307713053
 21
4.70917946062568
 31
0
  0
LINE
  8
0
 62
7
 10
2.39073307713053
 20
4.70917946062568
 30
0
 11
2.39073307713053
 21
4.66117946062568
 31
0
  0
LINE
  8
0
 62
7
 10
2.39073307713053
 20
4.66117946062568
 30
0
 11
2.39343307713053
 21
4.64917946062568
 31
0
  0
LINE
  8
0
 62
7
 10
2.39343307713053
 20
4.64917946062568
 30
0
 11
2.39883307713053
 21
4.640179460625681
 31
0
  0
LINE
  8
0
 62
7
 10
2.39883307713053
 20
4.640179460625681
 30
0
 11
2.40423307713053
 21
4.63417946062568
 31
0
  0
LINE
  8
0
 62
7
 10
2.40423307713053
 20
4.63417946062568
 30
0
 11
2.41233307713053
 21
4.62817946062568
 31
0
  0
LINE
  8
0
 62
7
 10
2.41233307713053
 20
4.62817946062568
 30
0
 11
2.42043307713053
 21
4.62517946062568
 31
0
  0
LINE
  8
0
 62
7
 10
2.42043307713053
 20
4.62517946062568
 30
0
 11
2.43663307713053
 21
4.62517946062568
 31
0
  0
LINE
  8
0
 62
7
 10
2.43663307713053
 20
4.62517946062568
 30
0
 11
2.444733077130531
 21
4.62817946062568
 31
0
  0
LINE
  8
0
 62
7
 10
2.444733077130531
 20
4.62817946062568
 30
0
 11
2.45283307713053
 21
4.63417946062568
 31
0
  0
LINE
  8
0
 62
7
 10
2.45283307713053
 20
4.63417946062568
 30
0
 11
2.45823307713053
 21
4.640179460625681
 31
0
  0
LINE
  8
0
 62
7
 10
2.45823307713053
 20
4.640179460625681
 30
0
 11
2.46363307713053
 21
4.64917946062568
 31
0
  0
LINE
  8
0
 62
7
 10
2.46363307713053
 20
4.64917946062568
 30
0
 11
2.46633307713053
 21
4.66117946062568
 31
0
  0
LINE
  8
0
 62
7
 10
2.46633307713053
 20
4.66117946062568
 30
0
 11
2.46633307713053
 21
4.70917946062568
 31
0
  0
LINE
  8
0
 62
7
 10
2.46633307713053
 20
4.70917946062568
 30
0
 11
2.46363307713053
 21
4.72117946062568
 31
0
  0
LINE
  8
0
 62
7
 10
2.46363307713053
 20
4.72117946062568
 30
0
 11
2.45823307713053
 21
4.73017946062568
 31
0
  0
LINE
  8
0
 62
7
 10
2.45823307713053
 20
4.73017946062568
 30
0
 11
2.45283307713053
 21
4.736179460625681
 31
0
  0
LINE
  8
0
 62
7
 10
2.45283307713053
 20
4.736179460625681
 30
0
 11
2.444733077130531
 21
4.742179460625681
 31
0
  0
LINE
  8
0
 62
7
 10
2.444733077130531
 20
4.742179460625681
 30
0
 11
2.43663307713053
 21
4.74517946062568
 31
0
  0
LINE
  8
0
 62
7
 10
2.487933077130531
 20
4.74517946062568
 30
0
 11
2.525733077130531
 21
4.74517946062568
 31
0
  0
LINE
  8
0
 62
7
 10
2.525733077130531
 20
4.74517946062568
 30
0
 11
2.525733077130531
 21
4.62517946062568
 31
0
  0
LINE
  8
0
 62
7
 10
2.525733077130531
 20
4.74517946062568
 30
0
 11
2.56353307713053
 21
4.74517946062568
 31
0
  0
LINE
  8
0
 62
7
 10
2.59593307713053
 20
4.74517946062568
 30
0
 11
2.633733077130532
 21
4.74517946062568
 31
0
  0
LINE
  8
0
 62
7
 10
2.633733077130532
 20
4.74517946062568
 30
0
 11
2.633733077130532
 21
4.62517946062568
 31
0
  0
LINE
  8
0
 62
7
 10
2.633733077130532
 20
4.74517946062568
 30
0
 11
2.67153307713053
 21
4.74517946062568
 31
0
  0
LINE
  8
0
 62
7
 10
2.79033307713053
 20
4.667179460625681
 30
0
 11
2.84433307713053
 21
4.667179460625681
 31
0
  0
LINE
  8
0
 62
7
 10
2.95233307713053
 20
4.74517946062568
 30
0
 11
2.990133077130531
 21
4.74517946062568
 31
0
  0
LINE
  8
0
 62
7
 10
2.990133077130531
 20
4.74517946062568
 30
0
 11
2.990133077130531
 21
4.62517946062568
 31
0
  0
LINE
  8
0
 62
7
 10
2.990133077130531
 20
4.74517946062568
 30
0
 11
3.02793307713053
 21
4.74517946062568
 31
0
  0
LINE
  8
0
 62
7
 10
3.06033307713053
 20
4.62517946062568
 30
0
 11
3.06033307713053
 21
4.74517946062568
 31
0
  0
LINE
  8
0
 62
7
 10
3.06033307713053
 20
4.74517946062568
 30
0
 11
3.11163307713053
 21
4.74517946062568
 31
0
  0
LINE
  8
0
 62
7
 10
3.11163307713053
 20
4.74517946062568
 30
0
 11
3.12243307713053
 21
4.742179460625681
 31
0
  0
LINE
  8
0
 62
7
 10
3.12243307713053
 20
4.742179460625681
 30
0
 11
3.130533077130531
 21
4.736179460625681
 31
0
  0
LINE
  8
0
 62
7
 10
3.130533077130531
 20
4.736179460625681
 30
0
 11
3.133233077130531
 21
4.73017946062568
 31
0
  0
LINE
  8
0
 62
7
 10
3.133233077130531
 20
4.73017946062568
 30
0
 11
3.13593307713053
 21
4.72117946062568
 31
0
  0
LINE
  8
0
 62
7
 10
3.13593307713053
 20
4.72117946062568
 30
0
 11
3.13593307713053
 21
4.70917946062568
 31
0
  0
LINE
  8
0
 62
7
 10
3.13593307713053
 20
4.70917946062568
 30
0
 11
3.133233077130531
 21
4.70017946062568
 31
0
  0
LINE
  8
0
 62
7
 10
3.133233077130531
 20
4.70017946062568
 30
0
 11
3.130533077130531
 21
4.69417946062568
 31
0
  0
LINE
  8
0
 62
7
 10
3.130533077130531
 20
4.69417946062568
 30
0
 11
3.12243307713053
 21
4.68817946062568
 31
0
  0
LINE
  8
0
 62
7
 10
3.12243307713053
 20
4.68817946062568
 30
0
 11
3.11163307713053
 21
4.68517946062568
 31
0
  0
LINE
  8
0
 62
7
 10
3.11163307713053
 20
4.68517946062568
 30
0
 11
3.103533077130531
 21
4.68517946062568
 31
0
  0
LINE
  8
0
 62
7
 10
3.103533077130531
 20
4.68517946062568
 30
0
 11
3.13593307713053
 21
4.62517946062568
 31
0
  0
LINE
  8
0
 62
7
 10
3.103533077130531
 20
4.68517946062568
 30
0
 11
3.06033307713053
 21
4.68517946062568
 31
0
  0
LINE
  8
0
 62
7
 10
3.233133077130531
 20
4.74517946062568
 30
0
 11
3.157533077130532
 21
4.74517946062568
 31
0
  0
LINE
  8
0
 62
7
 10
3.157533077130532
 20
4.74517946062568
 30
0
 11
3.157533077130532
 21
4.68517946062568
 31
0
  0
LINE
  8
0
 62
7
 10
3.157533077130532
 20
4.62517946062568
 30
0
 11
3.233133077130531
 21
4.62517946062568
 31
0
  0
LINE
  8
0
 62
7
 10
3.222333077130531
 20
4.68517946062568
 30
0
 11
3.157533077130532
 21
4.68517946062568
 31
0
  0
LINE
  8
0
 62
7
 10
3.157533077130532
 20
4.68517946062568
 30
0
 11
3.157533077130532
 21
4.62517946062568
 31
0
  0
LINE
  8
0
 62
7
 10
3.265533077130531
 20
4.62517946062568
 30
0
 11
3.265533077130531
 21
4.68517946062568
 31
0
  0
LINE
  8
0
 62
7
 10
3.265533077130531
 20
4.74517946062568
 30
0
 11
3.316833077130532
 21
4.74517946062568
 31
0
  0
LINE
  8
0
 62
7
 10
3.316833077130532
 20
4.74517946062568
 30
0
 11
3.327633077130531
 21
4.742179460625681
 31
0
  0
LINE
  8
0
 62
7
 10
3.327633077130531
 20
4.742179460625681
 30
0
 11
3.335733077130532
 21
4.736179460625681
 31
0
  0
LINE
  8
0
 62
7
 10
3.335733077130532
 20
4.736179460625681
 30
0
 11
3.33843307713053
 21
4.73017946062568
 31
0
  0
LINE
  8
0
 62
7
 10
3.33843307713053
 20
4.73017946062568
 30
0
 11
3.341133077130531
 21
4.72117946062568
 31
0
  0
LINE
  8
0
 62
7
 10
3.341133077130531
 20
4.72117946062568
 30
0
 11
3.341133077130531
 21
4.70917946062568
 31
0
  0
LINE
  8
0
 62
7
 10
3.341133077130531
 20
4.70917946062568
 30
0
 11
3.33843307713053
 21
4.70017946062568
 31
0
  0
LINE
  8
0
 62
7
 10
3.33843307713053
 20
4.70017946062568
 30
0
 11
3.335733077130532
 21
4.69417946062568
 31
0
  0
LINE
  8
0
 62
7
 10
3.335733077130532
 20
4.69417946062568
 30
0
 11
3.327633077130531
 21
4.68817946062568
 31
0
  0
LINE
  8
0
 62
7
 10
3.327633077130531
 20
4.68817946062568
 30
0
 11
3.316833077130532
 21
4.68517946062568
 31
0
  0
LINE
  8
0
 62
7
 10
3.316833077130532
 20
4.68517946062568
 30
0
 11
3.265533077130531
 21
4.68517946062568
 31
0
  0
LINE
  8
0
 62
7
 10
3.265533077130531
 20
4.68517946062568
 30
0
 11
3.265533077130531
 21
4.74517946062568
 31
0
  0
LINE
  8
0
 62
7
 10
3.362733077130531
 20
4.62517946062568
 30
0
 11
3.362733077130531
 21
4.68517946062568
 31
0
  0
LINE
  8
0
 62
7
 10
3.362733077130531
 20
4.74517946062568
 30
0
 11
3.414033077130531
 21
4.74517946062568
 31
0
  0
LINE
  8
0
 62
7
 10
3.414033077130531
 20
4.74517946062568
 30
0
 11
3.424833077130531
 21
4.742179460625681
 31
0
  0
LINE
  8
0
 62
7
 10
3.424833077130531
 20
4.742179460625681
 30
0
 11
3.432933077130531
 21
4.736179460625681
 31
0
  0
LINE
  8
0
 62
7
 10
3.432933077130531
 20
4.736179460625681
 30
0
 11
3.435633077130531
 21
4.73017946062568
 31
0
  0
LINE
  8
0
 62
7
 10
3.435633077130531
 20
4.73017946062568
 30
0
 11
3.43833307713053
 21
4.72117946062568
 31
0
  0
LINE
  8
0
 62
7
 10
3.43833307713053
 20
4.72117946062568
 30
0
 11
3.43833307713053
 21
4.70917946062568
 31
0
  0
LINE
  8
0
 62
7
 10
3.43833307713053
 20
4.70917946062568
 30
0
 11
3.435633077130531
 21
4.70017946062568
 31
0
  0
LINE
  8
0
 62
7
 10
3.435633077130531
 20
4.70017946062568
 30
0
 11
3.432933077130531
 21
4.69417946062568
 31
0
  0
LINE
  8
0
 62
7
 10
3.432933077130531
 20
4.69417946062568
 30
0
 11
3.424833077130531
 21
4.68817946062568
 31
0
  0
LINE
  8
0
 62
7
 10
3.424833077130531
 20
4.68817946062568
 30
0
 11
3.414033077130531
 21
4.68517946062568
 31
0
  0
LINE
  8
0
 62
7
 10
3.414033077130531
 20
4.68517946062568
 30
0
 11
3.362733077130531
 21
4.68517946062568
 31
0
  0
LINE
  8
0
 62
7
 10
3.362733077130531
 20
4.68517946062568
 30
0
 11
3.362733077130531
 21
4.74517946062568
 31
0
  0
LINE
  8
0
 62
7
 10
3.535533077130531
 20
4.74517946062568
 30
0
 11
3.459933077130531
 21
4.74517946062568
 31
0
  0
LINE
  8
0
 62
7
 10
3.459933077130531
 20
4.74517946062568
 30
0
 11
3.459933077130531
 21
4.68517946062568
 31
0
  0
LINE
  8
0
 62
7
 10
3.459933077130531
 20
4.62517946062568
 30
0
 11
3.535533077130531
 21
4.62517946062568
 31
0
  0
LINE
  8
0
 62
7
 10
3.524733077130531
 20
4.68517946062568
 30
0
 11
3.459933077130531
 21
4.68517946062568
 31
0
  0
LINE
  8
0
 62
7
 10
3.459933077130531
 20
4.68517946062568
 30
0
 11
3.459933077130531
 21
4.62517946062568
 31
0
  0
LINE
  8
0
 62
7
 10
0.625
 20
2.890000000000001
 30
0
 11
0.625
 21
3.010000000000001
 31
0
  0
LINE
  8
0
 62
7
 10
0.625
 20
3.010000000000001
 30
0
 11
0.6682000000000001
 21
2.914000000000001
 31
0
  0
LINE
  8
0
 62
7
 10
0.6682000000000001
 20
2.914000000000001
 30
0
 11
0.7114
 21
3.010000000000001
 31
0
  0
LINE
  8
0
 62
7
 10
0.7114
 20
3.010000000000001
 30
0
 11
0.7114
 21
2.890000000000001
 31
0
  0
LINE
  8
0
 62
7
 10
0.7438
 20
2.992000000000001
 30
0
 11
0.7492000000000001
 21
3.001000000000001
 31
0
  0
LINE
  8
0
 62
7
 10
0.7492000000000001
 20
3.001000000000001
 30
0
 11
0.7573000000000001
 21
3.007000000000001
 31
0
  0
LINE
  8
0
 62
7
 10
0.7573000000000001
 20
3.007000000000001
 30
0
 11
0.7681
 21
3.010000000000001
 31
0
  0
LINE
  8
0
 62
7
 10
0.7681
 20
3.010000000000001
 30
0
 11
0.7843000000000001
 21
3.010000000000001
 31
0
  0
LINE
  8
0
 62
7
 10
0.7843000000000001
 20
3.010000000000001
 30
0
 11
0.7951
 21
3.007000000000001
 31
0
  0
LINE
  8
0
 62
7
 10
0.7951
 20
3.007000000000001
 30
0
 11
0.8032
 21
3.001000000000001
 31
0
  0
LINE
  8
0
 62
7
 10
0.8032
 20
3.001000000000001
 30
0
 11
0.8086000000000001
 21
2.992000000000001
 31
0
  0
LINE
  8
0
 62
7
 10
0.8086000000000001
 20
2.992000000000001
 30
0
 11
0.8086000000000001
 21
2.980000000000001
 31
0
  0
LINE
  8
0
 62
7
 10
0.8086000000000001
 20
2.980000000000001
 30
0
 11
0.8032
 21
2.968000000000002
 31
0
  0
LINE
  8
0
 62
7
 10
0.8032
 20
2.968000000000002
 30
0
 11
0.7438
 21
2.890000000000001
 31
0
  0
LINE
  8
0
 62
7
 10
0.7438
 20
2.890000000000001
 30
0
 11
0.8086000000000001
 21
2.890000000000001
 31
0
  0
LINE
  8
0
 62
7
 10
0.8410000000000002
 20
3.010000000000001
 30
0
 11
0.8788
 21
2.890000000000001
 31
0
  0
LINE
  8
0
 62
7
 10
0.8788
 20
2.890000000000001
 30
0
 11
0.9166000000000003
 21
3.010000000000001
 31
0
  0
LINE
  8
0
 62
7
 10
0.9490000000000001
 20
2.992000000000001
 30
0
 11
0.9544000000000001
 21
3.001000000000001
 31
0
  0
LINE
  8
0
 62
7
 10
0.9544000000000001
 20
3.001000000000001
 30
0
 11
0.9625
 21
3.007000000000001
 31
0
  0
LINE
  8
0
 62
7
 10
0.9625
 20
3.007000000000001
 30
0
 11
0.9733000000000001
 21
3.010000000000001
 31
0
  0
LINE
  8
0
 62
7
 10
0.9733000000000001
 20
3.010000000000001
 30
0
 11
0.9895
 21
3.010000000000001
 31
0
  0
LINE
  8
0
 62
7
 10
0.9895
 20
3.010000000000001
 30
0
 11
1.0003
 21
3.007000000000001
 31
0
  0
LINE
  8
0
 62
7
 10
1.0003
 20
3.007000000000001
 30
0
 11
1.0084
 21
3.001000000000001
 31
0
  0
LINE
  8
0
 62
7
 10
1.0084
 20
3.001000000000001
 30
0
 11
1.0138
 21
2.992000000000001
 31
0
  0
LINE
  8
0
 62
7
 10
1.0138
 20
2.992000000000001
 30
0
 11
1.0138
 21
2.980000000000001
 31
0
  0
LINE
  8
0
 62
7
 10
1.0138
 20
2.980000000000001
 30
0
 11
1.0084
 21
2.968000000000002
 31
0
  0
LINE
  8
0
 62
7
 10
1.0084
 20
2.968000000000002
 30
0
 11
0.9490000000000001
 21
2.890000000000001
 31
0
  0
LINE
  8
0
 62
7
 10
0.9490000000000001
 20
2.890000000000001
 30
0
 11
1.0138
 21
2.890000000000001
 31
0
  0
LINE
  8
0
 62
7
 10
1.0732
 20
3.010000000000001
 30
0
 11
1.084
 21
3.010000000000001
 31
0
  0
LINE
  8
0
 62
7
 10
1.084
 20
3.010000000000001
 30
0
 11
1.0921
 21
3.007000000000001
 31
0
  0
LINE
  8
0
 62
7
 10
1.0921
 20
3.007000000000001
 30
0
 11
1.0975
 21
3.001000000000001
 31
0
  0
LINE
  8
0
 62
7
 10
1.0975
 20
3.001000000000001
 30
0
 11
1.1029
 21
2.992000000000001
 31
0
  0
LINE
  8
0
 62
7
 10
1.1029
 20
2.992000000000001
 30
0
 11
1.1029
 21
2.980000000000001
 31
0
  0
LINE
  8
0
 62
7
 10
1.1029
 20
2.980000000000001
 30
0
 11
1.1002
 21
2.974000000000001
 31
0
  0
LINE
  8
0
 62
7
 10
1.1002
 20
2.974000000000001
 30
0
 11
1.0921
 21
2.965000000000001
 31
0
  0
LINE
  8
0
 62
7
 10
1.0921
 20
2.965000000000001
 30
0
 11
1.084
 21
2.962000000000001
 31
0
  0
LINE
  8
0
 62
7
 10
1.084
 20
2.962000000000001
 30
0
 11
1.0732
 21
2.962000000000001
 31
0
  0
LINE
  8
0
 62
7
 10
1.0732
 20
2.962000000000001
 30
0
 11
1.0651
 21
2.965000000000001
 31
0
  0
LINE
  8
0
 62
7
 10
1.0651
 20
2.965000000000001
 30
0
 11
1.057
 21
2.974000000000001
 31
0
  0
LINE
  8
0
 62
7
 10
1.057
 20
2.974000000000001
 30
0
 11
1.0543
 21
2.980000000000001
 31
0
  0
LINE
  8
0
 62
7
 10
1.0543
 20
2.980000000000001
 30
0
 11
1.0543
 21
2.992000000000001
 31
0
  0
LINE
  8
0
 62
7
 10
1.0543
 20
2.992000000000001
 30
0
 11
1.0597
 21
3.001000000000001
 31
0
  0
LINE
  8
0
 62
7
 10
1.0597
 20
3.001000000000001
 30
0
 11
1.0651
 21
3.007000000000001
 31
0
  0
LINE
  8
0
 62
7
 10
1.0651
 20
3.007000000000001
 30
0
 11
1.0732
 21
3.010000000000001
 31
0
  0
LINE
  8
0
 62
7
 10
1.0732
 20
2.962000000000001
 30
0
 11
1.0597
 21
2.956000000000001
 31
0
  0
LINE
  8
0
 62
7
 10
1.0597
 20
2.956000000000001
 30
0
 11
1.0516
 21
2.947000000000001
 31
0
  0
LINE
  8
0
 62
7
 10
1.0516
 20
2.947000000000001
 30
0
 11
1.0462
 21
2.935000000000001
 31
0
  0
LINE
  8
0
 62
7
 10
1.0462
 20
2.935000000000001
 30
0
 11
1.0462
 21
2.917000000000001
 31
0
  0
LINE
  8
0
 62
7
 10
1.0462
 20
2.917000000000001
 30
0
 11
1.0516
 21
2.905000000000001
 31
0
  0
LINE
  8
0
 62
7
 10
1.0516
 20
2.905000000000001
 30
0
 11
1.0597
 21
2.896000000000001
 31
0
  0
LINE
  8
0
 62
7
 10
1.0597
 20
2.896000000000001
 30
0
 11
1.0705
 21
2.890000000000001
 31
0
  0
LINE
  8
0
 62
7
 10
1.0705
 20
2.890000000000001
 30
0
 11
1.0867
 21
2.890000000000001
 31
0
  0
LINE
  8
0
 62
7
 10
1.0867
 20
2.890000000000001
 30
0
 11
1.0975
 21
2.896000000000001
 31
0
  0
LINE
  8
0
 62
7
 10
1.0975
 20
2.896000000000001
 30
0
 11
1.1056
 21
2.905000000000001
 31
0
  0
LINE
  8
0
 62
7
 10
1.1056
 20
2.905000000000001
 30
0
 11
1.111
 21
2.917000000000001
 31
0
  0
LINE
  8
0
 62
7
 10
1.111
 20
2.917000000000001
 30
0
 11
1.111
 21
2.935000000000001
 31
0
  0
LINE
  8
0
 62
7
 10
1.111
 20
2.935000000000001
 30
0
 11
1.1056
 21
2.947000000000001
 31
0
  0
LINE
  8
0
 62
7
 10
1.1056
 20
2.947000000000001
 30
0
 11
1.0975
 21
2.956000000000001
 31
0
  0
LINE
  8
0
 62
7
 10
1.0975
 20
2.956000000000001
 30
0
 11
1.084
 21
2.962000000000001
 31
0
  0
LINE
  8
0
 62
7
 10
1.1812
 20
3.010000000000001
 30
0
 11
1.192
 21
3.010000000000001
 31
0
  0
LINE
  8
0
 62
7
 10
1.192
 20
3.010000000000001
 30
0
 11
1.2001
 21
3.007000000000001
 31
0
  0
LINE
  8
0
 62
7
 10
1.2001
 20
3.007000000000001
 30
0
 11
1.2055
 21
3.001000000000001
 31
0
  0
LINE
  8
0
 62
7
 10
1.2055
 20
3.001000000000001
 30
0
 11
1.2109
 21
2.992000000000001
 31
0
  0
LINE
  8
0
 62
7
 10
1.2109
 20
2.992000000000001
 30
0
 11
1.2109
 21
2.980000000000001
 31
0
  0
LINE
  8
0
 62
7
 10
1.2109
 20
2.980000000000001
 30
0
 11
1.2082
 21
2.974000000000001
 31
0
  0
LINE
  8
0
 62
7
 10
1.2082
 20
2.974000000000001
 30
0
 11
1.2001
 21
2.965000000000001
 31
0
  0
LINE
  8
0
 62
7
 10
1.2001
 20
2.965000000000001
 30
0
 11
1.192
 21
2.962000000000001
 31
0
  0
LINE
  8
0
 62
7
 10
1.192
 20
2.962000000000001
 30
0
 11
1.1812
 21
2.962000000000001
 31
0
  0
LINE
  8
0
 62
7
 10
1.1812
 20
2.962000000000001
 30
0
 11
1.1731
 21
2.965000000000001
 31
0
  0
LINE
  8
0
 62
7
 10
1.1731
 20
2.965000000000001
 30
0
 11
1.165
 21
2.974000000000001
 31
0
  0
LINE
  8
0
 62
7
 10
1.165
 20
2.974000000000001
 30
0
 11
1.1623
 21
2.980000000000001
 31
0
  0
LINE
  8
0
 62
7
 10
1.1623
 20
2.980000000000001
 30
0
 11
1.1623
 21
2.992000000000001
 31
0
  0
LINE
  8
0
 62
7
 10
1.1623
 20
2.992000000000001
 30
0
 11
1.1677
 21
3.001000000000001
 31
0
  0
LINE
  8
0
 62
7
 10
1.1677
 20
3.001000000000001
 30
0
 11
1.1731
 21
3.007000000000001
 31
0
  0
LINE
  8
0
 62
7
 10
1.1731
 20
3.007000000000001
 30
0
 11
1.1812
 21
3.010000000000001
 31
0
  0
LINE
  8
0
 62
7
 10
1.1812
 20
2.962000000000001
 30
0
 11
1.1677
 21
2.956000000000001
 31
0
  0
LINE
  8
0
 62
7
 10
1.1677
 20
2.956000000000001
 30
0
 11
1.1596
 21
2.947000000000001
 31
0
  0
LINE
  8
0
 62
7
 10
1.1596
 20
2.947000000000001
 30
0
 11
1.1542
 21
2.935000000000001
 31
0
  0
LINE
  8
0
 62
7
 10
1.1542
 20
2.935000000000001
 30
0
 11
1.1542
 21
2.917000000000001
 31
0
  0
LINE
  8
0
 62
7
 10
1.1542
 20
2.917000000000001
 30
0
 11
1.1596
 21
2.905000000000001
 31
0
  0
LINE
  8
0
 62
7
 10
1.1596
 20
2.905000000000001
 30
0
 11
1.1677
 21
2.896000000000001
 31
0
  0
LINE
  8
0
 62
7
 10
1.1677
 20
2.896000000000001
 30
0
 11
1.1785
 21
2.890000000000001
 31
0
  0
LINE
  8
0
 62
7
 10
1.1785
 20
2.890000000000001
 30
0
 11
1.1947
 21
2.890000000000001
 31
0
  0
LINE
  8
0
 62
7
 10
1.1947
 20
2.890000000000001
 30
0
 11
1.2055
 21
2.896000000000001
 31
0
  0
LINE
  8
0
 62
7
 10
1.2055
 20
2.896000000000001
 30
0
 11
1.2136
 21
2.905000000000001
 31
0
  0
LINE
  8
0
 62
7
 10
1.2136
 20
2.905000000000001
 30
0
 11
1.219
 21
2.917000000000001
 31
0
  0
LINE
  8
0
 62
7
 10
1.219
 20
2.917000000000001
 30
0
 11
1.219
 21
2.935000000000001
 31
0
  0
LINE
  8
0
 62
7
 10
1.219
 20
2.935000000000001
 30
0
 11
1.2136
 21
2.947000000000001
 31
0
  0
LINE
  8
0
 62
7
 10
1.2136
 20
2.947000000000001
 30
0
 11
1.2055
 21
2.956000000000001
 31
0
  0
LINE
  8
0
 62
7
 10
1.2055
 20
2.956000000000001
 30
0
 11
1.192
 21
2.962000000000001
 31
0
  0
LINE
  8
0
 62
7
 10
1.327
 20
2.890000000000001
 30
0
 11
1.2622
 21
2.890000000000001
 31
0
  0
LINE
  8
0
 62
7
 10
1.2622
 20
2.890000000000001
 30
0
 11
1.2622
 21
3.010000000000001
 31
0
  0
LINE
  8
0
 62
7
 10
1.3594
 20
2.938000000000001
 30
0
 11
1.3621
 21
2.950000000000001
 31
0
  0
LINE
  8
0
 62
7
 10
1.3621
 20
2.950000000000001
 30
0
 11
1.3675
 21
2.959000000000001
 31
0
  0
LINE
  8
0
 62
7
 10
1.3675
 20
2.959000000000001
 30
0
 11
1.3756
 21
2.965000000000001
 31
0
  0
LINE
  8
0
 62
7
 10
1.3756
 20
2.965000000000001
 30
0
 11
1.3837
 21
2.968000000000002
 31
0
  0
LINE
  8
0
 62
7
 10
1.3837
 20
2.968000000000002
 30
0
 11
1.3999
 21
2.968000000000002
 31
0
  0
LINE
  8
0
 62
7
 10
1.3999
 20
2.968000000000002
 30
0
 11
1.408
 21
2.965000000000001
 31
0
  0
LINE
  8
0
 62
7
 10
1.408
 20
2.965000000000001
 30
0
 11
1.4161
 21
2.959000000000001
 31
0
  0
LINE
  8
0
 62
7
 10
1.4161
 20
2.959000000000001
 30
0
 11
1.4215
 21
2.950000000000001
 31
0
  0
LINE
  8
0
 62
7
 10
1.4215
 20
2.950000000000001
 30
0
 11
1.4242
 21
2.938000000000001
 31
0
  0
LINE
  8
0
 62
7
 10
1.4242
 20
2.938000000000001
 30
0
 11
1.4242
 21
2.920000000000001
 31
0
  0
LINE
  8
0
 62
7
 10
1.4242
 20
2.920000000000001
 30
0
 11
1.4215
 21
2.908000000000001
 31
0
  0
LINE
  8
0
 62
7
 10
1.4215
 20
2.908000000000001
 30
0
 11
1.4161
 21
2.899000000000001
 31
0
  0
LINE
  8
0
 62
7
 10
1.4161
 20
2.899000000000001
 30
0
 11
1.408
 21
2.893000000000002
 31
0
  0
LINE
  8
0
 62
7
 10
1.408
 20
2.893000000000002
 30
0
 11
1.3999
 21
2.890000000000001
 31
0
  0
LINE
  8
0
 62
7
 10
1.3999
 20
2.890000000000001
 30
0
 11
1.3837
 21
2.890000000000001
 31
0
  0
LINE
  8
0
 62
7
 10
1.3837
 20
2.890000000000001
 30
0
 11
1.3756
 21
2.893000000000002
 31
0
  0
LINE
  8
0
 62
7
 10
1.3756
 20
2.893000000000002
 30
0
 11
1.3675
 21
2.899000000000001
 31
0
  0
LINE
  8
0
 62
7
 10
1.3675
 20
2.899000000000001
 30
0
 11
1.3621
 21
2.908000000000001
 31
0
  0
LINE
  8
0
 62
7
 10
1.3621
 20
2.908000000000001
 30
0
 11
1.3594
 21
2.920000000000001
 31
0
  0
LINE
  8
0
 62
7
 10
1.3594
 20
2.920000000000001
 30
0
 11
1.3594
 21
2.938000000000001
 31
0
  0
LINE
  8
0
 62
7
 10
1.3594
 20
2.980000000000001
 30
0
 11
1.3621
 21
2.992000000000001
 31
0
  0
LINE
  8
0
 62
7
 10
1.3621
 20
2.992000000000001
 30
0
 11
1.3675
 21
3.001000000000001
 31
0
  0
LINE
  8
0
 62
7
 10
1.3675
 20
3.001000000000001
 30
0
 11
1.3756
 21
3.007000000000001
 31
0
  0
LINE
  8
0
 62
7
 10
1.3756
 20
3.007000000000001
 30
0
 11
1.3837
 21
3.010000000000001
 31
0
  0
LINE
  8
0
 62
7
 10
1.3837
 20
3.010000000000001
 30
0
 11
1.3999
 21
3.010000000000001
 31
0
  0
LINE
  8
0
 62
7
 10
1.3999
 20
3.010000000000001
 30
0
 11
1.408
 21
3.007000000000001
 31
0
  0
LINE
  8
0
 62
7
 10
1.408
 20
3.007000000000001
 30
0
 11
1.4161
 21
3.001000000000001
 31
0
  0
LINE
  8
0
 62
7
 10
1.4161
 20
3.001000000000001
 30
0
 11
1.4215
 21
2.992000000000001
 31
0
  0
LINE
  8
0
 62
7
 10
1.3594
 20
2.938000000000001
 30
0
 11
1.3594
 21
2.980000000000001
 31
0
  0
LINE
  8
0
 62
7
 10
3.125
 20
2.890000000000001
 30
0
 11
3.125
 21
2.990000000000001
 31
0
  0
LINE
  8
0
 62
7
 10
3.125
 20
2.990000000000001
 30
0
 11
3.188
 21
2.890000000000001
 31
0
  0
LINE
  8
0
 62
7
 10
3.188
 20
2.890000000000001
 30
0
 11
3.188
 21
2.990000000000001
 31
0
  0
LINE
  8
0
 62
7
 10
3.269
 20
2.890000000000001
 30
0
 11
3.215
 21
2.890000000000001
 31
0
  0
LINE
  8
0
 62
7
 10
3.215
 20
2.890000000000001
 30
0
 11
3.215
 21
2.990000000000001
 31
0
  0
LINE
  8
0
 62
7
 10
3.296
 20
2.940000000000001
 30
0
 11
3.332
 21
2.940000000000001
 31
0
  0
LINE
  8
0
 62
7
 10
3.332
 20
2.940000000000001
 30
0
 11
3.3365
 21
2.940000000000001
 31
0
  0
LINE
  8
0
 62
7
 10
3.3365
 20
2.940000000000001
 30
0
 11
3.3455
 21
2.935000000000001
 31
0
  0
LINE
  8
0
 62
7
 10
3.3455
 20
2.935000000000001
 30
0
 11
3.35
 21
2.930000000000001
 31
0
  0
LINE
  8
0
 62
7
 10
3.35
 20
2.930000000000001
 30
0
 11
3.3545
 21
2.920000000000001
 31
0
  0
LINE
  8
0
 62
7
 10
3.3545
 20
2.920000000000001
 30
0
 11
3.3545
 21
2.910000000000001
 31
0
  0
LINE
  8
0
 62
7
 10
3.3545
 20
2.910000000000001
 30
0
 11
3.35
 21
2.900000000000001
 31
0
  0
LINE
  8
0
 62
7
 10
3.35
 20
2.900000000000001
 30
0
 11
3.3455
 21
2.895000000000001
 31
0
  0
LINE
  8
0
 62
7
 10
3.3455
 20
2.895000000000001
 30
0
 11
3.3365
 21
2.890000000000001
 31
0
  0
LINE
  8
0
 62
7
 10
3.3365
 20
2.890000000000001
 30
0
 11
3.296
 21
2.890000000000001
 31
0
  0
LINE
  8
0
 62
7
 10
3.296
 20
2.890000000000001
 30
0
 11
3.296
 21
2.940000000000001
 31
0
  0
LINE
  8
0
 62
7
 10
3.296
 20
2.990000000000001
 30
0
 11
3.32975
 21
2.990000000000001
 31
0
  0
LINE
  8
0
 62
7
 10
3.32975
 20
2.990000000000001
 30
0
 11
3.341000000000001
 21
2.987500000000001
 31
0
  0
LINE
  8
0
 62
7
 10
3.341000000000001
 20
2.987500000000001
 30
0
 11
3.34775
 21
2.980000000000001
 31
0
  0
LINE
  8
0
 62
7
 10
3.34775
 20
2.980000000000001
 30
0
 11
3.35
 21
2.970000000000001
 31
0
  0
LINE
  8
0
 62
7
 10
3.35
 20
2.970000000000001
 30
0
 11
3.35
 21
2.960000000000001
 31
0
  0
LINE
  8
0
 62
7
 10
3.35
 20
2.960000000000001
 30
0
 11
3.3455
 21
2.950000000000001
 31
0
  0
LINE
  8
0
 62
7
 10
3.3455
 20
2.950000000000001
 30
0
 11
3.338750000000001
 21
2.942500000000001
 31
0
  0
LINE
  8
0
 62
7
 10
3.338750000000001
 20
2.942500000000001
 30
0
 11
3.332
 21
2.940000000000001
 31
0
  0
LINE
  8
0
 62
7
 10
3.296
 20
2.940000000000001
 30
0
 11
3.296
 21
2.990000000000001
 31
0
  0
LINE
  8
0
 62
7
 10
3.49625
 20
2.942500000000001
 30
0
 11
3.4895
 21
2.952500000000001
 31
0
  0
LINE
  8
0
 62
7
 10
3.4895
 20
2.952500000000001
 30
0
 11
3.48275
 21
2.957500000000001
 31
0
  0
LINE
  8
0
 62
7
 10
3.48275
 20
2.957500000000001
 30
0
 11
3.476
 21
2.960000000000001
 31
0
  0
LINE
  8
0
 62
7
 10
3.476
 20
2.960000000000001
 30
0
 11
3.467000000000001
 21
2.960000000000001
 31
0
  0
LINE
  8
0
 62
7
 10
3.467000000000001
 20
2.960000000000001
 30
0
 11
3.46025
 21
2.957500000000001
 31
0
  0
LINE
  8
0
 62
7
 10
3.46025
 20
2.957500000000001
 30
0
 11
3.4535
 21
2.952500000000001
 31
0
  0
LINE
  8
0
 62
7
 10
3.4535
 20
2.952500000000001
 30
0
 11
3.44675
 21
2.942500000000001
 31
0
  0
LINE
  8
0
 62
7
 10
3.44675
 20
2.942500000000001
 30
0
 11
3.4445
 21
2.935000000000001
 31
0
  0
LINE
  8
0
 62
7
 10
3.4445
 20
2.935000000000001
 30
0
 11
3.4445
 21
2.915000000000001
 31
0
  0
LINE
  8
0
 62
7
 10
3.4445
 20
2.915000000000001
 30
0
 11
3.44675
 21
2.907500000000001
 31
0
  0
LINE
  8
0
 62
7
 10
3.44675
 20
2.907500000000001
 30
0
 11
3.4535
 21
2.897500000000001
 31
0
  0
LINE
  8
0
 62
7
 10
3.4535
 20
2.897500000000001
 30
0
 11
3.46025
 21
2.892500000000001
 31
0
  0
LINE
  8
0
 62
7
 10
3.46025
 20
2.892500000000001
 30
0
 11
3.467000000000001
 21
2.890000000000001
 31
0
  0
LINE
  8
0
 62
7
 10
3.467000000000001
 20
2.890000000000001
 30
0
 11
3.476
 21
2.890000000000001
 31
0
  0
LINE
  8
0
 62
7
 10
3.476
 20
2.890000000000001
 30
0
 11
3.48275
 21
2.892500000000001
 31
0
  0
LINE
  8
0
 62
7
 10
3.48275
 20
2.892500000000001
 30
0
 11
3.4895
 21
2.897500000000001
 31
0
  0
LINE
  8
0
 62
7
 10
3.4895
 20
2.897500000000001
 30
0
 11
3.49625
 21
2.907500000000001
 31
0
  0
LINE
  8
0
 62
7
 10
3.56825
 20
2.935000000000001
 30
0
 11
3.566000000000001
 21
2.942500000000001
 31
0
  0
LINE
  8
0
 62
7
 10
3.566000000000001
 20
2.942500000000001
 30
0
 11
3.55925
 21
2.952500000000001
 31
0
  0
LINE
  8
0
 62
7
 10
3.55925
 20
2.952500000000001
 30
0
 11
3.5525
 21
2.957500000000001
 31
0
  0
LINE
  8
0
 62
7
 10
3.5525
 20
2.957500000000001
 30
0
 11
3.54575
 21
2.960000000000001
 31
0
  0
LINE
  8
0
 62
7
 10
3.54575
 20
2.960000000000001
 30
0
 11
3.53675
 21
2.960000000000001
 31
0
  0
LINE
  8
0
 62
7
 10
3.53675
 20
2.960000000000001
 30
0
 11
3.530000000000001
 21
2.957500000000001
 31
0
  0
LINE
  8
0
 62
7
 10
3.530000000000001
 20
2.957500000000001
 30
0
 11
3.52325
 21
2.952500000000001
 31
0
  0
LINE
  8
0
 62
7
 10
3.52325
 20
2.952500000000001
 30
0
 11
3.5165
 21
2.942500000000001
 31
0
  0
LINE
  8
0
 62
7
 10
3.5165
 20
2.942500000000001
 30
0
 11
3.51425
 21
2.935000000000001
 31
0
  0
LINE
  8
0
 62
7
 10
3.51425
 20
2.935000000000001
 30
0
 11
3.51425
 21
2.915000000000001
 31
0
  0
LINE
  8
0
 62
7
 10
3.51425
 20
2.915000000000001
 30
0
 11
3.5165
 21
2.907500000000001
 31
0
  0
LINE
  8
0
 62
7
 10
3.5165
 20
2.907500000000001
 30
0
 11
3.52325
 21
2.897500000000001
 31
0
  0
LINE
  8
0
 62
7
 10
3.52325
 20
2.897500000000001
 30
0
 11
3.530000000000001
 21
2.892500000000001
 31
0
  0
LINE
  8
0
 62
7
 10
3.530000000000001
 20
2.892500000000001
 30
0
 11
3.53675
 21
2.890000000000001
 31
0
  0
LINE
  8
0
 62
7
 10
3.53675
 20
2.890000000000001
 30
0
 11
3.54575
 21
2.890000000000001
 31
0
  0
LINE
  8
0
 62
7
 10
3.54575
 20
2.890000000000001
 30
0
 11
3.5525
 21
2.892500000000001
 31
0
  0
LINE
  8
0
 62
7
 10
3.5525
 20
2.892500000000001
 30
0
 11
3.55925
 21
2.897500000000001
 31
0
  0
LINE
  8
0
 62
7
 10
3.55925
 20
2.897500000000001
 30
0
 11
3.566000000000001
 21
2.907500000000001
 31
0
  0
LINE
  8
0
 62
7
 10
3.566000000000001
 20
2.907500000000001
 30
0
 11
3.56825
 21
2.915000000000001
 31
0
  0
LINE
  8
0
 62
7
 10
3.56825
 20
2.960000000000001
 30
0
 11
3.56825
 21
2.935000000000001
 31
0
  0
LINE
  8
0
 62
7
 10
3.56825
 20
2.892500000000001
 30
0
 11
3.5705
 21
2.890000000000001
 31
0
  0
LINE
  8
0
 62
7
 10
3.5705
 20
2.890000000000001
 30
0
 11
3.57275
 21
2.890000000000001
 31
0
  0
LINE
  8
0
 62
7
 10
3.56825
 20
2.915000000000001
 30
0
 11
3.56825
 21
2.892500000000001
 31
0
  0
LINE
  8
0
 62
7
 10
3.56825
 20
2.935000000000001
 30
0
 11
3.56825
 21
2.915000000000001
 31
0
  0
LINE
  8
0
 62
7
 10
3.59075
 20
2.890000000000001
 30
0
 11
3.59075
 21
2.892500000000001
 31
0
  0
LINE
  8
0
 62
7
 10
3.59075
 20
2.892500000000001
 30
0
 11
3.593
 21
2.892500000000001
 31
0
  0
LINE
  8
0
 62
7
 10
3.593
 20
2.892500000000001
 30
0
 11
3.593
 21
2.890000000000001
 31
0
  0
LINE
  8
0
 62
7
 10
3.593
 20
2.890000000000001
 30
0
 11
3.59075
 21
2.890000000000001
 31
0
  0
LINE
  8
0
 62
7
 10
3.69425
 20
2.960000000000001
 30
0
 11
3.72125
 21
2.990000000000001
 31
0
  0
LINE
  8
0
 62
7
 10
3.72125
 20
2.990000000000001
 30
0
 11
3.72125
 21
2.890000000000001
 31
0
  0
LINE
  8
0
 62
7
 10
3.748250000000001
 20
2.965000000000001
 30
0
 11
3.750500000000001
 21
2.975000000000001
 31
0
  0
LINE
  8
0
 62
7
 10
3.750500000000001
 20
2.975000000000001
 30
0
 11
3.755000000000001
 21
2.982500000000001
 31
0
  0
LINE
  8
0
 62
7
 10
3.755000000000001
 20
2.982500000000001
 30
0
 11
3.76175
 21
2.987500000000001
 31
0
  0
LINE
  8
0
 62
7
 10
3.76175
 20
2.987500000000001
 30
0
 11
3.7685
 21
2.990000000000001
 31
0
  0
LINE
  8
0
 62
7
 10
3.7685
 20
2.990000000000001
 30
0
 11
3.782
 21
2.990000000000001
 31
0
  0
LINE
  8
0
 62
7
 10
3.782
 20
2.990000000000001
 30
0
 11
3.78875
 21
2.987500000000001
 31
0
  0
LINE
  8
0
 62
7
 10
3.78875
 20
2.987500000000001
 30
0
 11
3.7955
 21
2.982500000000001
 31
0
  0
LINE
  8
0
 62
7
 10
3.7955
 20
2.982500000000001
 30
0
 11
3.8
 21
2.975000000000001
 31
0
  0
LINE
  8
0
 62
7
 10
3.8
 20
2.975000000000001
 30
0
 11
3.80225
 21
2.965000000000001
 31
0
  0
LINE
  8
0
 62
7
 10
3.80225
 20
2.965000000000001
 30
0
 11
3.80225
 21
2.915000000000001
 31
0
  0
LINE
  8
0
 62
7
 10
3.80225
 20
2.915000000000001
 30
0
 11
3.8
 21
2.905000000000001
 31
0
  0
LINE
  8
0
 62
7
 10
3.8
 20
2.905000000000001
 30
0
 11
3.7955
 21
2.897500000000001
 31
0
  0
LINE
  8
0
 62
7
 10
3.7955
 20
2.897500000000001
 30
0
 11
3.78875
 21
2.892500000000001
 31
0
  0
LINE
  8
0
 62
7
 10
3.78875
 20
2.892500000000001
 30
0
 11
3.782
 21
2.890000000000001
 31
0
  0
LINE
  8
0
 62
7
 10
3.782
 20
2.890000000000001
 30
0
 11
3.7685
 21
2.890000000000001
 31
0
  0
LINE
  8
0
 62
7
 10
3.7685
 20
2.890000000000001
 30
0
 11
3.76175
 21
2.892500000000001
 31
0
  0
LINE
  8
0
 62
7
 10
3.76175
 20
2.892500000000001
 30
0
 11
3.755000000000001
 21
2.897500000000001
 31
0
  0
LINE
  8
0
 62
7
 10
3.755000000000001
 20
2.897500000000001
 30
0
 11
3.750500000000001
 21
2.905000000000001
 31
0
  0
LINE
  8
0
 62
7
 10
3.750500000000001
 20
2.905000000000001
 30
0
 11
3.748250000000001
 21
2.915000000000001
 31
0
  0
LINE
  8
0
 62
7
 10
3.748250000000001
 20
2.915000000000001
 30
0
 11
3.748250000000001
 21
2.965000000000001
 31
0
  0
LINE
  8
0
 62
7
 10
3.82925
 20
2.965000000000001
 30
0
 11
3.8315
 21
2.975000000000001
 31
0
  0
LINE
  8
0
 62
7
 10
3.8315
 20
2.975000000000001
 30
0
 11
3.836
 21
2.982500000000001
 31
0
  0
LINE
  8
0
 62
7
 10
3.836
 20
2.982500000000001
 30
0
 11
3.842750000000001
 21
2.987500000000001
 31
0
  0
LINE
  8
0
 62
7
 10
3.842750000000001
 20
2.987500000000001
 30
0
 11
3.8495
 21
2.990000000000001
 31
0
  0
LINE
  8
0
 62
7
 10
3.8495
 20
2.990000000000001
 30
0
 11
3.863
 21
2.990000000000001
 31
0
  0
LINE
  8
0
 62
7
 10
3.863
 20
2.990000000000001
 30
0
 11
3.86975
 21
2.987500000000001
 31
0
  0
LINE
  8
0
 62
7
 10
3.86975
 20
2.987500000000001
 30
0
 11
3.8765
 21
2.982500000000001
 31
0
  0
LINE
  8
0
 62
7
 10
3.8765
 20
2.982500000000001
 30
0
 11
3.881
 21
2.975000000000001
 31
0
  0
LINE
  8
0
 62
7
 10
3.881
 20
2.975000000000001
 30
0
 11
3.88325
 21
2.965000000000001
 31
0
  0
LINE
  8
0
 62
7
 10
3.88325
 20
2.965000000000001
 30
0
 11
3.88325
 21
2.915000000000001
 31
0
  0
LINE
  8
0
 62
7
 10
3.88325
 20
2.915000000000001
 30
0
 11
3.881
 21
2.905000000000001
 31
0
  0
LINE
  8
0
 62
7
 10
3.881
 20
2.905000000000001
 30
0
 11
3.8765
 21
2.897500000000001
 31
0
  0
LINE
  8
0
 62
7
 10
3.8765
 20
2.897500000000001
 30
0
 11
3.86975
 21
2.892500000000001
 31
0
  0
LINE
  8
0
 62
7
 10
3.86975
 20
2.892500000000001
 30
0
 11
3.863
 21
2.890000000000001
 31
0
  0
LINE
  8
0
 62
7
 10
3.863
 20
2.890000000000001
 30
0
 11
3.8495
 21
2.890000000000001
 31
0
  0
LINE
  8
0
 62
7
 10
3.8495
 20
2.890000000000001
 30
0
 11
3.842750000000001
 21
2.892500000000001
 31
0
  0
LINE
  8
0
 62
7
 10
3.842750000000001
 20
2.892500000000001
 30
0
 11
3.836
 21
2.897500000000001
 31
0
  0
LINE
  8
0
 62
7
 10
3.836
 20
2.897500000000001
 30
0
 11
3.8315
 21
2.905000000000001
 31
0
  0
LINE
  8
0
 62
7
 10
3.8315
 20
2.905000000000001
 30
0
 11
3.82925
 21
2.915000000000001
 31
0
  0
LINE
  8
0
 62
7
 10
3.82925
 20
2.915000000000001
 30
0
 11
3.82925
 21
2.965000000000001
 31
0
  0
LINE
  8
0
 62
7
 10
4.034000000000001
 20
2.942500000000001
 30
0
 11
4.02725
 21
2.952500000000001
 31
0
  0
LINE
  8
0
 62
7
 10
4.02725
 20
2.952500000000001
 30
0
 11
4.0205
 21
2.957500000000001
 31
0
  0
LINE
  8
0
 62
7
 10
4.0205
 20
2.957500000000001
 30
0
 11
4.013750000000001
 21
2.960000000000001
 31
0
  0
LINE
  8
0
 62
7
 10
4.013750000000001
 20
2.960000000000001
 30
0
 11
4.00475
 21
2.960000000000001
 31
0
  0
LINE
  8
0
 62
7
 10
4.00475
 20
2.960000000000001
 30
0
 11
3.998000000000001
 21
2.957500000000001
 31
0
  0
LINE
  8
0
 62
7
 10
3.998000000000001
 20
2.957500000000001
 30
0
 11
3.99125
 21
2.952500000000001
 31
0
  0
LINE
  8
0
 62
7
 10
3.99125
 20
2.952500000000001
 30
0
 11
3.9845
 21
2.942500000000001
 31
0
  0
LINE
  8
0
 62
7
 10
3.9845
 20
2.942500000000001
 30
0
 11
3.98225
 21
2.935000000000001
 31
0
  0
LINE
  8
0
 62
7
 10
3.98225
 20
2.935000000000001
 30
0
 11
3.98225
 21
2.915000000000001
 31
0
  0
LINE
  8
0
 62
7
 10
3.98225
 20
2.915000000000001
 30
0
 11
3.9845
 21
2.907500000000001
 31
0
  0
LINE
  8
0
 62
7
 10
3.9845
 20
2.907500000000001
 30
0
 11
3.99125
 21
2.897500000000001
 31
0
  0
LINE
  8
0
 62
7
 10
3.99125
 20
2.897500000000001
 30
0
 11
3.998000000000001
 21
2.892500000000001
 31
0
  0
LINE
  8
0
 62
7
 10
3.998000000000001
 20
2.892500000000001
 30
0
 11
4.00475
 21
2.890000000000001
 31
0
  0
LINE
  8
0
 62
7
 10
4.00475
 20
2.890000000000001
 30
0
 11
4.013750000000001
 21
2.890000000000001
 31
0
  0
LINE
  8
0
 62
7
 10
4.013750000000001
 20
2.890000000000001
 30
0
 11
4.0205
 21
2.892500000000001
 31
0
  0
LINE
  8
0
 62
7
 10
4.0205
 20
2.892500000000001
 30
0
 11
4.02725
 21
2.897500000000001
 31
0
  0
LINE
  8
0
 62
7
 10
4.02725
 20
2.897500000000001
 30
0
 11
4.034000000000001
 21
2.907500000000001
 31
0
  0
LINE
  8
0
 62
7
 10
4.0925
 20
2.935000000000001
 30
0
 11
4.0925
 21
2.890000000000001
 31
0
  0
LINE
  8
0
 62
7
 10
4.052
 20
2.960000000000001
 30
0
 11
4.052
 21
2.935000000000001
 31
0
  0
LINE
  8
0
 62
7
 10
4.052
 20
2.890000000000001
 30
0
 11
4.052
 21
2.935000000000001
 31
0
  0
LINE
  8
0
 62
7
 10
4.052
 20
2.935000000000001
 30
0
 11
4.054250000000001
 21
2.947500000000001
 31
0
  0
LINE
  8
0
 62
7
 10
4.054250000000001
 20
2.947500000000001
 30
0
 11
4.0565
 21
2.952500000000001
 31
0
  0
LINE
  8
0
 62
7
 10
4.0565
 20
2.952500000000001
 30
0
 11
4.061
 21
2.957500000000001
 31
0
  0
LINE
  8
0
 62
7
 10
4.061
 20
2.957500000000001
 30
0
 11
4.06775
 21
2.960000000000001
 31
0
  0
LINE
  8
0
 62
7
 10
4.06775
 20
2.960000000000001
 30
0
 11
4.07675
 21
2.960000000000001
 31
0
  0
LINE
  8
0
 62
7
 10
4.07675
 20
2.960000000000001
 30
0
 11
4.0835
 21
2.957500000000001
 31
0
  0
LINE
  8
0
 62
7
 10
4.0835
 20
2.957500000000001
 30
0
 11
4.088
 21
2.952500000000001
 31
0
  0
LINE
  8
0
 62
7
 10
4.088
 20
2.952500000000001
 30
0
 11
4.09025
 21
2.947500000000001
 31
0
  0
LINE
  8
0
 62
7
 10
4.09025
 20
2.947500000000001
 30
0
 11
4.0925
 21
2.935000000000001
 31
0
  0
LINE
  8
0
 62
7
 10
4.0925
 20
2.935000000000001
 30
0
 11
4.09475
 21
2.947500000000001
 31
0
  0
LINE
  8
0
 62
7
 10
4.09475
 20
2.947500000000001
 30
0
 11
4.097
 21
2.952500000000001
 31
0
  0
LINE
  8
0
 62
7
 10
4.097
 20
2.952500000000001
 30
0
 11
4.101500000000001
 21
2.957500000000001
 31
0
  0
LINE
  8
0
 62
7
 10
4.101500000000001
 20
2.957500000000001
 30
0
 11
4.108250000000001
 21
2.960000000000001
 31
0
  0
LINE
  8
0
 62
7
 10
4.108250000000001
 20
2.960000000000001
 30
0
 11
4.11725
 21
2.960000000000001
 31
0
  0
LINE
  8
0
 62
7
 10
4.11725
 20
2.960000000000001
 30
0
 11
4.124000000000001
 21
2.957500000000001
 31
0
  0
LINE
  8
0
 62
7
 10
4.128500000000001
 20
2.952500000000001
 30
0
 11
4.124000000000001
 21
2.957500000000001
 31
0
  0
LINE
  8
0
 62
7
 10
4.124000000000001
 20
2.957500000000001
 30
0
 11
4.128500000000001
 21
2.952500000000001
 31
0
  0
LINE
  8
0
 62
7
 10
4.128500000000001
 20
2.952500000000001
 30
0
 11
4.13075
 21
2.947500000000001
 31
0
  0
LINE
  8
0
 62
7
 10
4.13075
 20
2.947500000000001
 30
0
 11
4.133
 21
2.935000000000001
 31
0
  0
LINE
  8
0
 62
7
 10
4.133
 20
2.935000000000001
 30
0
 11
4.133
 21
2.890000000000001
 31
0
  0
ARC
  8
0
 62
7
 10
3.045313869234
 20
3.815313869234026
 30
0
 40
0.6420000000000138
 50
359.9719913483877
 51
90.02800865452838
  0
ARC
  8
0
 62
7
 10
2.389686130765989
 20
3.815313869234008
 30
0
 40
0.6420000000000041
 50
89.97199134632714
 51
180.028008654311
  0
CIRCLE
  8
0
 62
7
 10
3.687313792525395
 20
3.250000000000001
 30
0
 40
0.06000000000000005
  0
DIMENSION
  8
0
  6
CONTINUOUS
 62
7
  2
*D1
  3
DMST_1
 10
1.275
 20
11.4873728332766
 30
0
 11
2.66969123701244
 21
11.4873728332766
 31
0
 12
0
 22
0
 32
0
 70
0
 13
4.16
 23
11.2
 33
0
 14
1.275
 24
11.2
 34
0
 53
0
  0
DIMENSION
  8
0
  6
CONTINUOUS
 62
7
  2
*D2
  3
DMST_2
 10
4.65059142210301
 20
4.929999999999999
 30
0
 11
4.65059142210301
 21
4.09276248325101
 31
0
 12
0
 22
0
 32
0
 70
0
 13
4.335
 23
3.25
 33
0
 14
4.335
 24
4.93
 34
0
 50
90
 53
0
  0
DIMENSION
  8
0
  6
CONTINUOUS
 62
7
  2
*D3
  3
DMST_2
 10
1.275000000000001
 20
5.82605014520526
 30
0
 11
2.703456581076491
 21
5.82605014520526
 31
0
 12
0
 22
0
 32
0
 70
0
 13
4.16
 23
5.449999999999999
 33
0
 14
1.275
 24
5.449999999999999
 34
0
 53
0
  0
DIMENSION
  8
0
  6
CONTINUOUS
 62
7
  2
*D4
  3
DMST_2
 10
0.8351075428660671
 20
4.929999999999999
 30
0
 11
0.8351075428660671
 21
4.19405851544315
 31
0
 12
0
 22
0
 32
0
 70
0
 13
1.1
 23
3.35
 33
0
 14
1.1
 24
4.93
 34
0
 50
90
 53
0
  0
INSERT
  8
0
  2
*D0
 10
0
 20
0
 30
0
  0
ENDSEC
  0
EOF
