  0
SECTION
  2
HEADER
  9
$ACADVER
  1
AC1009
  9
$INSBASE
 10
0
 20
0
  9
$EXTMIN
 10
0.45
 20
2.890000000000001
  9
$EXTMAX
 10
8.163342168433541
 20
11.5274945873786
  9
$LIMMIN
 10
0.45
 20
2.890000000000001
  9
$LIMMAX
 10
8.163342168433541
 20
11.5274945873786
  9
$VIEWCTR
 10
10
 20
10
  9
$VIEWSIZE
 40
10
  9
$SNAPMODE
 70
0
  9
$SNAPUNIT
 10
1
 20
1
  9
$SNAPBASE
 10
0
 20
0
  9
$SNAPANG
 50
0
  9
$SNAPSTYLE
 70
0
  9
$SNAPISOPAIR
 70
0
  9
$GRIDMODE
 70
0
  9
$GRIDUNIT
 10
0
 20
0
  9
$ORTHOMODE
 70
0
  9
$REGENMODE
 70
1
  9
$FILLMODE
 70
1
  9
$QTEXTMODE
 70
0
  9
$DRAGMODE
 70
2
  9
$LTSCALE
 40
1
  9
$OSMODE
 70
0
  9
$ATTMODE
 70
1
  9
$TEXTSIZE
 40
3.5
  9
$TRACEWID
 40
0.5
  9
$TEXTSTYLE
  7
STANDARD
  9
$CLAYER
  8
0
  9
$CELTYPE
  6
BYLAYER
  9
$CECOLOR
 62
256
  9
$DIMSCALE
 40
1
  9
$DIMASZ
 40
0.18
  9
$DIMEXO
 40
0.0625
  9
$DIMDLI
 40
0.38
  9
$DIMRND
 40
0
  9
$DIMDLE
 40
0
  9
$DIMEXE
 40
0.18
  9
$DIMTP
 40
0
  9
$DIMTM
 40
0
  9
$DIMTXT
 40
0.18
  9
$DIMCEN
 40
0.09
  9
$DIMTSZ
 40
0
  9
$DIMTOL
 70
0
  9
$DIMLIM
 70
0
  9
$DIMTIH
 70
1
  9
$DIMTOH
 70
1
  9
$DIMSE1
 70
0
  9
$DIMSE2
 70
0
  9
$DIMTAD
 70
0
  9
$DIMZIN
 70
0
  9
$DIMBLK
  1

  9
$DIMASO
 70
1
  9
$DIMSHO
 70
1
  9
$DIMPOST
  1

  9
$DIMAPOST
  1

  9
$DIMALT
 70
0
  9
$DIMALTD
 70
2
  9
$DIMALTF
 40
25.4
  9
$DIMLFAC
 40
1
  9
$DIMTOFL
 70
0
  9
$DIMTVP
 40
0
  9
$DIMTIX
 70
0
  9
$DIMSOXD
 70
0
  9
$DIMSAH
 70
0
  9
$DIMBLK1
  1

  9
$DIMBLK2
  1

  9
$DIMSTYLE
  2
*UNNAMED
  9
$DIMCLRD
 70
0
  9
$DIMCLRE
 70
0
  9
$DIMCLRT
 70
0
  9
$DIMTFAC
 40
1
  9
$DIMGAP
 40
0.09
  9
$LUNITS
 70
2
  9
$LUPREC
 70
4
  9
$AXISMODE
 70
0
  9
$AXISUNIT
 10
0
 20
0
  9
$SKETCHINC
 40
0.1
  9
$FILLETRAD
 40
2
  9
$AUNITS
 70
0
  9
$AUPREC
 70
0
  9
$MENU
  1
ACAD
  9
$ELEVATION
 40
0
  9
$THICKNESS
 40
0
  9
$VIEWDIR
 10
0
 20
0
 30
1
  9
$LIMCHECK
 70
0
  9
$BLIPMODE
 70
1
  9
$CHAMFERA
 40
0
  9
$CHAMFERB
 40
0
  9
$FASTZOOM
 70
1
  9
$SKPOLY
 70
0
  9
$ANGBASE
 50
0
  9
$ANGDIR
 70
0
  9
$PDMODE
 70
0
  9
$PDSIZE
 40
0
  9
$PLINEWID
 40
0
  9
$COORDS
 70
2
  0
ENDSEC
  0
SECTION
  2
TABLES
  0
TABLE
  2
DIMSTYLE
 70
2
  0
DIMSTYLE
  2
DMST_1
 70
0
  3

  4

  5

  6

  7

 40
1
 41
0.1
 42
0
 43
0.7
 44
0.2
 45
0
 46
0
 47
0
 48
0
140
0.1
141
0
142
0.1
143
25.4
144
1
145
0
146
1
147
0.25
 71
0
 72
0
 73
0
 74
0
 75
0
 76
0
 77
0
 78
9
170
0
171
2
172
0
173
0
174
0
175
0
176
7
177
7
178
7
  0
DIMSTYLE
  2
DMST_2
 70
0
  3

  4

  5

  6

  7

 40
1
 41
0.1
 42
0
 43
0.7
 44
0.2
 45
0
 46
0
 47
0
 48
0
140
0.1
141
0
142
0.1
143
25.4
144
1
145
0
146
1
147
0.2
 71
0
 72
0
 73
0
 74
0
 75
0
 76
0
 77
0
 78
9
170
0
171
2
172
0
173
0
174
0
175
0
176
7
177
7
178
7
  0
ENDTAB
  0
TABLE
  2
LTYPE
 70
9
  0
LTYPE
  2
CONTINUOUS
 70
64
  3
Solid line
 72
65
 73
0
 40
0
  0
LTYPE
  2
BORDER
 70
64
  3
__ __ . __ __ .
 72
65
 73
6
 40
0.3977793559976986
 49
0.113651244570771
 49
-0.05682562228538552
 49
0.113651244570771
 49
-0.05682562228538552
 49
0
 49
-0.05682562228538552
  0
LTYPE
  2
CENTER
 70
64
  3
____ _ ____ _
 72
65
 73
4
 40
0.4546049782830842
 49
0.2841281114269276
 49
-0.05682562228538552
 49
0.05682562228538552
 49
-0.05682562228538552
  0
LTYPE
  2
DASHDOT
 70
64
  3
__ . __ . __ .
 72
65
 73
4
 40
0.2273024891415421
 49
0.113651244570771
 49
-0.05682562228538552
 49
0
 49
-0.05682562228538552
  0
LTYPE
  2
DASHED
 70
64
  3
__ __ __ __ __
 72
65
 73
2
 40
0.1704768668561566
 49
0.113651244570771
 49
-0.05682562228538552
  0
LTYPE
  2
DIVIDE
 70
64
  3
__ . . __ . . 
 72
65
 73
6
 40
0.2841281114269276
 49
0.113651244570771
 49
-0.05682562228538552
 49
0
 49
-0.05682562228538552
 49
0
 49
-0.05682562228538552
  0
LTYPE
  2
DOT
 70
64
  3
..............
 72
65
 73
4
 40
0.113651244570771
 49
0
 49
-0.05682562228538552
 49
0
 49
-0.05682562228538552
  0
LTYPE
  2
HIDDEN
 70
64
  3
_ _ _ _ _ _ _
 72
65
 73
2
 40
0.08523843342807828
 49
0.05682562228538552
 49
-0.02841281114269276
  0
LTYPE
  2
PHANTOM
 70
64
  3
_____ _ _ _____ _ _ 
 72
65
 73
6
 40
0.5682562228538552
 49
0.2841281114269276
 49
-0.05682562228538552
 49
0.05682562228538552
 49
-0.05682562228538552
 49
0.05682562228538552
 49
-0.05682562228538552
  0
ENDTAB
  0
TABLE
  2
LAYER
 70
2
  0
LAYER
  2
0
 70
0
 62
7
  6
CONTINUOUS
  0
ENDTAB
  0
TABLE
  2
STYLE
 70
4
  0
STYLE
  2
STANDARD
 70
0
 40
0
 41
1
 50
0
 71
0
 42
3.5
  3
txt
  4

  0
STYLE
  2
SIMPLEX
 70
0
 40
0
 41
1
 50
0
 71
0
 42
3.5
  3
simplex
  4

  0
STYLE
  2
COMPLEX
 70
0
 40
0
 41
1
 50
0
 71
0
 42
3.5
  3
complex
  4

  0
STYLE
  2
ITALIC
 70
0
 40
0
 41
1
 50
0
 71
0
 42
3.5
  3
italic
  4

  0
ENDTAB
  0
TABLE
  2
VIEW
 70
0
  0
ENDTAB
  0
ENDSEC
  0
SECTION
  2
BLOCKS
  0
BLOCK
  8
0
  2
*X0
 70
1
 10
0
 20
0
 30
0
  0
LINE
  8
0
 62
7
  6
DASHED
 10
0.5
 20
8.242819253992694
 30
0
 11
0.5571807460073064
 21
8.300000000000001
 31
0
  0
LINE
  8
0
 62
7
  6
DASHED
 10
0.5693127803632705
 20
8.100000000000001
 30
0
 11
0.7399999999999998
 21
8.270687219636729
 31
0
  0
LINE
  8
0
 62
7
 10
0.4999999999999991
 20
8.136753236814712
 30
0
 11
0.6632467631852892
 21
8.300000000000001
 31
0
  0
LINE
  8
0
 62
7
 10
0.6753787975412515
 20
8.099999999999998
 30
0
 11
0.7399999999999989
 21
8.164621202458747
 31
0
  0
ENDBLK
  8
0
  0
BLOCK
  8
0
  2
*X1
 70
1
 10
0
 20
0
 30
0
  0
LINE
  8
0
 62
7
  6
DASHED
 10
0.4999999999999991
 20
11.00053570062023
 30
0
 11
0.5494642993797729
 21
11.05
 31
0
  0
LINE
  8
0
 62
7
  6
DASHED
 10
0.5615963337357357
 20
10.85
 30
0
 11
0.7399999999999993
 21
11.02840366626426
 31
0
  0
LINE
  8
0
 62
7
 10
0.5000000000000009
 20
10.89446968344225
 30
0
 11
0.655530316557754
 21
11.05
 31
0
  0
LINE
  8
0
 62
7
 10
0.6676623509137176
 20
10.85
 30
0
 11
0.7400000000000002
 21
10.92233764908628
 31
0
  0
ENDBLK
  8
0
  0
BLOCK
  8
0
  2
*X2
 70
1
 10
0
 20
0
 30
0
  0
LINE
  8
0
 62
7
  6
DASHED
 10
2.32
 20
10.91134739141655
 30
0
 11
2.458652608583451
 21
11.05
 31
0
  0
LINE
  8
0
 62
7
  6
DASHED
 10
2.470784642939413
 20
10.85
 30
0
 11
2.619999999999999
 21
10.99921535706059
 31
0
  0
LINE
  8
0
 62
7
 10
2.319999999999999
 20
11.01741340859453
 30
0
 11
2.352586591405468
 21
11.05
 31
0
  0
LINE
  8
0
 62
7
 10
2.364718625761431
 20
10.85
 30
0
 11
2.564718625761432
 21
11.05
 31
0
  0
LINE
  8
0
 62
7
 10
2.576850660117396
 20
10.85
 30
0
 11
2.619999999999999
 21
10.8931493398826
 31
0
  0
ENDBLK
  8
0
  0
BLOCK
  8
0
  2
*X3
 70
1
 10
0
 20
0
 30
0
  0
LINE
  8
0
 62
7
  6
DASHED
 10
2.319999999999999
 20
8.153630944789015
 30
0
 11
2.466369055210984
 21
8.300000000000001
 31
0
  0
LINE
  8
0
 62
7
  6
DASHED
 10
2.478501089566949
 20
8.1
 30
0
 11
2.62
 21
8.241498910433052
 31
0
  0
LINE
  8
0
 62
7
 10
2.32
 20
8.259696961966998
 30
0
 11
2.360303038033003
 21
8.300000000000001
 31
0
  0
LINE
  8
0
 62
7
 10
2.372435072388966
 20
8.1
 30
0
 11
2.572435072388967
 21
8.300000000000001
 31
0
  0
LINE
  8
0
 62
7
 10
2.584567106744931
 20
8.1
 30
0
 11
2.619999999999999
 21
8.135432893255068
 31
0
  0
ENDBLK
  8
0
  0
BLOCK
  8
0
  2
*X4
 70
1
 10
0
 20
0
 30
0
  0
LINE
  8
0
 62
7
 10
0.549464299379772
 20
11.05
 30
0
 11
0.6994642993797706
 21
11.2
 31
0
  0
LINE
  8
0
 62
7
 10
0.5
 20
11.10660171779821
 30
0
 11
0.5933982822017896
 21
11.2
 31
0
  0
LINE
  8
0
 62
7
 10
0.655530316557754
 20
11.05
 30
0
 11
0.7400000000000002
 21
11.13446968344225
 31
0
  0
ENDBLK
  8
0
  0
BLOCK
  8
0
  2
*X5
 70
1
 10
0
 20
0
 30
0
  0
LINE
  8
0
 62
7
 10
0.5000000000000004
 20
10.78840366626426
 30
0
 11
0.5615963337357339
 21
10.85
 31
0
  0
LINE
  8
0
 62
7
 10
0.5000000000000004
 20
10.5762716319083
 30
0
 11
0.7400000000000002
 21
10.8162716319083
 31
0
  0
LINE
  8
0
 62
7
 10
0.5000000000000004
 20
10.36413959755233
 30
0
 11
0.7400000000000002
 21
10.60413959755233
 31
0
  0
LINE
  8
0
 62
7
 10
0.5000000000000004
 20
10.15200756319637
 30
0
 11
0.7400000000000002
 21
10.39200756319637
 31
0
  0
LINE
  8
0
 62
7
 10
0.5000000000000004
 20
9.939875528840407
 30
0
 11
0.7400000000000002
 21
10.17987552884041
 31
0
  0
LINE
  8
0
 62
7
 10
0.5000000000000004
 20
9.727743494484443
 30
0
 11
0.7400000000000002
 21
9.967743494484441
 31
0
  0
LINE
  8
0
 62
7
 10
0.5000000000000004
 20
9.515611460128479
 30
0
 11
0.7400000000000002
 21
9.755611460128478
 31
0
  0
LINE
  8
0
 62
7
 10
0.5000000000000004
 20
9.303479425772515
 30
0
 11
0.7400000000000002
 21
9.543479425772514
 31
0
  0
LINE
  8
0
 62
7
 10
0.5000000000000004
 20
9.091347391416551
 30
0
 11
0.7400000000000002
 21
9.33134739141655
 31
0
  0
LINE
  8
0
 62
7
 10
0.5000000000000004
 20
8.879215357060588
 30
0
 11
0.7400000000000002
 21
9.119215357060586
 31
0
  0
LINE
  8
0
 62
7
 10
0.5000000000000004
 20
8.667083322704624
 30
0
 11
0.7400000000000002
 21
8.907083322704622
 31
0
  0
LINE
  8
0
 62
7
 10
0.5000000000000004
 20
8.45495128834866
 30
0
 11
0.7400000000000002
 21
8.694951288348658
 31
0
  0
LINE
  8
0
 62
7
 10
0.5571807460073064
 20
8.300000000000001
 30
0
 11
0.7400000000000002
 21
8.482819253992695
 31
0
  0
LINE
  8
0
 62
7
 10
0.5
 20
10.68233764908628
 30
0
 11
0.6676623509137176
 21
10.85
 31
0
  0
LINE
  8
0
 62
7
 10
0.5
 20
10.47020561473031
 30
0
 11
0.7399999999999998
 21
10.71020561473031
 31
0
  0
LINE
  8
0
 62
7
 10
0.5
 20
10.25807358037435
 30
0
 11
0.7399999999999998
 21
10.49807358037435
 31
0
  0
LINE
  8
0
 62
7
 10
0.5
 20
10.04594154601839
 30
0
 11
0.7399999999999998
 21
10.28594154601839
 31
0
  0
LINE
  8
0
 62
7
 10
0.5
 20
9.833809511662423
 30
0
 11
0.7399999999999998
 21
10.07380951166242
 31
0
  0
LINE
  8
0
 62
7
 10
0.5
 20
9.621677477306459
 30
0
 11
0.7399999999999998
 21
9.861677477306458
 31
0
  0
LINE
  8
0
 62
7
 10
0.5
 20
9.409545442950495
 30
0
 11
0.7399999999999998
 21
9.649545442950494
 31
0
  0
LINE
  8
0
 62
7
 10
0.5
 20
9.197413408594532
 30
0
 11
0.7399999999999998
 21
9.43741340859453
 31
0
  0
LINE
  8
0
 62
7
 10
0.5
 20
8.985281374238568
 30
0
 11
0.7399999999999998
 21
9.225281374238566
 31
0
  0
LINE
  8
0
 62
7
 10
0.5
 20
8.773149339882604
 30
0
 11
0.7399999999999998
 21
9.013149339882602
 31
0
  0
LINE
  8
0
 62
7
 10
0.5
 20
8.56101730552664
 30
0
 11
0.7399999999999998
 21
8.801017305526639
 31
0
  0
LINE
  8
0
 62
7
 10
0.5
 20
8.348885271170676
 30
0
 11
0.7399999999999998
 21
8.588885271170675
 31
0
  0
LINE
  8
0
 62
7
 10
0.6632467631852896
 20
8.300000000000001
 30
0
 11
0.7399999999999998
 21
8.376753236814711
 31
0
  0
ENDBLK
  8
0
  0
BLOCK
  8
0
  2
*X6
 70
1
 10
0
 20
0
 30
0
  0
LINE
  8
0
 62
7
 10
0.5
 20
8.03068721963673
 30
0
 11
0.5693127803632692
 21
8.1
 31
0
  0
LINE
  8
0
 62
7
 10
0.6314448147192349
 20
7.95
 30
0
 11
0.7399999999999998
 21
8.058555185280767
 31
0
  0
LINE
  8
0
 62
7
 10
0.5253787975412538
 20
7.950000000000001
 30
0
 11
0.6753787975412515
 21
8.099999999999998
 31
0
  0
LINE
  8
0
 62
7
 10
0.7375108318972181
 20
7.950000000000001
 30
0
 11
0.7400000000000002
 21
7.952489168102783
 31
0
  0
ENDBLK
  8
0
  0
BLOCK
  8
0
  2
*X7
 70
1
 10
0
 20
0
 30
0
  0
LINE
  8
0
 62
7
  6
DASHED
 10
4.215000000000021
 20
10.89715908221289
 30
0
 11
4.367840917787135
 21
11.05
 31
0
  0
LINE
  8
0
 62
7
  6
DASHED
 10
4.379972952143097
 20
10.85
 30
0
 11
4.579972952143099
 21
11.05
 31
0
  0
LINE
  8
0
 62
7
  6
DASHED
 10
4.592104986499061
 20
10.85
 30
0
 11
4.792104986499063
 21
11.05
 31
0
  0
LINE
  8
0
 62
7
  6
DASHED
 10
4.804237020855025
 20
10.85
 30
0
 11
5.004237020855027
 21
11.05
 31
0
  0
LINE
  8
0
 62
7
  6
DASHED
 10
5.016369055210989
 20
10.85
 30
0
 11
5.216369055210991
 21
11.05
 31
0
  0
LINE
  8
0
 62
7
  6
DASHED
 10
5.228501089566953
 20
10.85
 30
0
 11
5.428501089566955
 21
11.05
 31
0
  0
LINE
  8
0
 62
7
  6
DASHED
 10
5.440633123922916
 20
10.85
 30
0
 11
5.640633123922918
 21
11.05
 31
0
  0
LINE
  8
0
 62
7
  6
DASHED
 10
5.65276515827888
 20
10.85
 30
0
 11
5.852765158278882
 21
11.05
 31
0
  0
LINE
  8
0
 62
7
  6
DASHED
 10
5.864897192634844
 20
10.85
 30
0
 11
6.064897192634846
 21
11.05
 31
0
  0
LINE
  8
0
 62
7
  6
DASHED
 10
6.077029226990808
 20
10.85
 30
0
 11
6.27702922699081
 21
11.05
 31
0
  0
LINE
  8
0
 62
7
  6
DASHED
 10
6.289161261346772
 20
10.85
 30
0
 11
6.489161261346774
 21
11.05
 31
0
  0
LINE
  8
0
 62
7
  6
DASHED
 10
6.501293295702736
 20
10.85
 30
0
 11
6.701293295702738
 21
11.05
 31
0
  0
LINE
  8
0
 62
7
  6
DASHED
 10
6.713425330058699
 20
10.85
 30
0
 11
6.913425330058701
 21
11.05
 31
0
  0
LINE
  8
0
 62
7
  6
DASHED
 10
6.925557364414663
 20
10.85
 30
0
 11
7.125557364414665
 21
11.05
 31
0
  0
LINE
  8
0
 62
7
  6
DASHED
 10
7.137689398770627
 20
10.85
 30
0
 11
7.337689398770629
 21
11.05
 31
0
  0
LINE
  8
0
 62
7
  6
DASHED
 10
7.349821433126591
 20
10.85
 30
0
 11
7.549821433126593
 21
11.05
 31
0
  0
LINE
  8
0
 62
7
  6
DASHED
 10
7.561953467482555
 20
10.85
 30
0
 11
7.750000000000021
 21
11.03804653251746
 31
0
  0
LINE
  8
0
 62
7
 10
4.215000000000021
 20
11.00322509939088
 30
0
 11
4.261774900609151
 21
11.05
 31
0
  0
LINE
  8
0
 62
7
 10
4.273906934965116
 20
10.85
 30
0
 11
4.473906934965115
 21
11.05
 31
0
  0
LINE
  8
0
 62
7
 10
4.48603896932108
 20
10.85
 30
0
 11
4.686038969321078
 21
11.05
 31
0
  0
LINE
  8
0
 62
7
 10
4.698171003677044
 20
10.85
 30
0
 11
4.898171003677042
 21
11.05
 31
0
  0
LINE
  8
0
 62
7
 10
4.910303038033008
 20
10.85
 30
0
 11
5.110303038033006
 21
11.05
 31
0
  0
LINE
  8
0
 62
7
 10
5.122435072388972
 20
10.85
 30
0
 11
5.32243507238897
 21
11.05
 31
0
  0
LINE
  8
0
 62
7
 10
5.334567106744935
 20
10.85
 30
0
 11
5.534567106744934
 21
11.05
 31
0
  0
LINE
  8
0
 62
7
 10
5.546699141100899
 20
10.85
 30
0
 11
5.746699141100898
 21
11.05
 31
0
  0
LINE
  8
0
 62
7
 10
5.758831175456863
 20
10.85
 30
0
 11
5.958831175456861
 21
11.05
 31
0
  0
LINE
  8
0
 62
7
 10
5.970963209812827
 20
10.85
 30
0
 11
6.170963209812825
 21
11.05
 31
0
  0
LINE
  8
0
 62
7
 10
6.183095244168791
 20
10.85
 30
0
 11
6.383095244168789
 21
11.05
 31
0
  0
LINE
  8
0
 62
7
 10
6.395227278524755
 20
10.85
 30
0
 11
6.595227278524753
 21
11.05
 31
0
  0
LINE
  8
0
 62
7
 10
6.607359312880718
 20
10.85
 30
0
 11
6.807359312880717
 21
11.05
 31
0
  0
LINE
  8
0
 62
7
 10
6.819491347236682
 20
10.85
 30
0
 11
7.019491347236681
 21
11.05
 31
0
  0
LINE
  8
0
 62
7
 10
7.031623381592646
 20
10.85
 30
0
 11
7.231623381592645
 21
11.05
 31
0
  0
LINE
  8
0
 62
7
 10
7.24375541594861
 20
10.85
 30
0
 11
7.443755415948608
 21
11.05
 31
0
  0
LINE
  8
0
 62
7
 10
7.455887450304574
 20
10.85
 30
0
 11
7.655887450304572
 21
11.05
 31
0
  0
LINE
  8
0
 62
7
 10
7.668019484660538
 20
10.85
 30
0
 11
7.750000000000024
 21
10.93198051533949
 31
0
  0
ENDBLK
  8
0
  0
BLOCK
  8
0
  2
*X8
 70
1
 10
0
 20
0
 30
0
  0
LINE
  8
0
 62
7
  6
DASHED
 10
4.215000000000022
 20
8.139442635585359
 30
0
 11
4.375557364414669
 21
8.300000000000001
 31
0
  0
LINE
  8
0
 62
7
  6
DASHED
 10
4.387689398770631
 20
8.099999999999998
 30
0
 11
4.587689398770633
 21
8.300000000000001
 31
0
  0
LINE
  8
0
 62
7
  6
DASHED
 10
4.599821433126595
 20
8.099999999999998
 30
0
 11
4.799821433126596
 21
8.300000000000001
 31
0
  0
LINE
  8
0
 62
7
  6
DASHED
 10
4.811953467482558
 20
8.099999999999998
 30
0
 11
5.01195346748256
 21
8.300000000000001
 31
0
  0
LINE
  8
0
 62
7
  6
DASHED
 10
5.024085501838522
 20
8.099999999999998
 30
0
 11
5.224085501838524
 21
8.300000000000001
 31
0
  0
LINE
  8
0
 62
7
  6
DASHED
 10
5.236217536194486
 20
8.099999999999998
 30
0
 11
5.436217536194488
 21
8.300000000000001
 31
0
  0
LINE
  8
0
 62
7
  6
DASHED
 10
5.44834957055045
 20
8.099999999999998
 30
0
 11
5.648349570550452
 21
8.300000000000001
 31
0
  0
LINE
  8
0
 62
7
  6
DASHED
 10
5.660481604906414
 20
8.099999999999998
 30
0
 11
5.860481604906416
 21
8.300000000000001
 31
0
  0
LINE
  8
0
 62
7
  6
DASHED
 10
5.872613639262378
 20
8.099999999999998
 30
0
 11
6.07261363926238
 21
8.300000000000001
 31
0
  0
LINE
  8
0
 62
7
  6
DASHED
 10
6.084745673618341
 20
8.099999999999998
 30
0
 11
6.284745673618343
 21
8.300000000000001
 31
0
  0
LINE
  8
0
 62
7
  6
DASHED
 10
6.296877707974305
 20
8.099999999999998
 30
0
 11
6.496877707974307
 21
8.300000000000001
 31
0
  0
LINE
  8
0
 62
7
  6
DASHED
 10
6.509009742330269
 20
8.099999999999998
 30
0
 11
6.709009742330271
 21
8.300000000000001
 31
0
  0
LINE
  8
0
 62
7
  6
DASHED
 10
6.721141776686233
 20
8.099999999999998
 30
0
 11
6.921141776686235
 21
8.300000000000001
 31
0
  0
LINE
  8
0
 62
7
  6
DASHED
 10
6.933273811042197
 20
8.099999999999998
 30
0
 11
7.133273811042199
 21
8.300000000000001
 31
0
  0
LINE
  8
0
 62
7
  6
DASHED
 10
7.145405845398161
 20
8.099999999999998
 30
0
 11
7.345405845398163
 21
8.300000000000001
 31
0
  0
LINE
  8
0
 62
7
  6
DASHED
 10
7.357537879754124
 20
8.099999999999998
 30
0
 11
7.557537879754126
 21
8.300000000000001
 31
0
  0
LINE
  8
0
 62
7
  6
DASHED
 10
7.569669914110088
 20
8.099999999999998
 30
0
 11
7.750000000000023
 21
8.280330085889933
 31
0
  0
LINE
  8
0
 62
7
 10
4.215000000000021
 20
8.245508652763341
 30
0
 11
4.269491347236687
 21
8.299999999999999
 31
0
  0
LINE
  8
0
 62
7
 10
4.281623381592651
 20
8.1
 30
0
 11
4.481623381592651
 21
8.299999999999999
 31
0
  0
LINE
  8
0
 62
7
 10
4.493755415948614
 20
8.1
 30
0
 11
4.693755415948615
 21
8.299999999999999
 31
0
  0
LINE
  8
0
 62
7
 10
4.705887450304578
 20
8.1
 30
0
 11
4.905887450304578
 21
8.299999999999999
 31
0
  0
LINE
  8
0
 62
7
 10
4.918019484660542
 20
8.1
 30
0
 11
5.118019484660542
 21
8.299999999999999
 31
0
  0
LINE
  8
0
 62
7
 10
5.130151519016506
 20
8.1
 30
0
 11
5.330151519016506
 21
8.299999999999999
 31
0
  0
LINE
  8
0
 62
7
 10
5.34228355337247
 20
8.1
 30
0
 11
5.54228355337247
 21
8.299999999999999
 31
0
  0
LINE
  8
0
 62
7
 10
5.554415587728434
 20
8.1
 30
0
 11
5.754415587728434
 21
8.299999999999999
 31
0
  0
LINE
  8
0
 62
7
 10
5.766547622084397
 20
8.1
 30
0
 11
5.966547622084398
 21
8.299999999999999
 31
0
  0
LINE
  8
0
 62
7
 10
5.978679656440361
 20
8.1
 30
0
 11
6.178679656440361
 21
8.299999999999999
 31
0
  0
LINE
  8
0
 62
7
 10
6.190811690796325
 20
8.1
 30
0
 11
6.390811690796325
 21
8.299999999999999
 31
0
  0
LINE
  8
0
 62
7
 10
6.402943725152289
 20
8.1
 30
0
 11
6.602943725152289
 21
8.299999999999999
 31
0
  0
LINE
  8
0
 62
7
 10
6.615075759508253
 20
8.1
 30
0
 11
6.815075759508253
 21
8.299999999999999
 31
0
  0
LINE
  8
0
 62
7
 10
6.827207793864217
 20
8.1
 30
0
 11
7.027207793864217
 21
8.299999999999999
 31
0
  0
LINE
  8
0
 62
7
 10
7.03933982822018
 20
8.1
 30
0
 11
7.239339828220181
 21
8.299999999999999
 31
0
  0
LINE
  8
0
 62
7
 10
7.251471862576144
 20
8.1
 30
0
 11
7.451471862576144
 21
8.299999999999999
 31
0
  0
LINE
  8
0
 62
7
 10
7.463603896932108
 20
8.1
 30
0
 11
7.663603896932108
 21
8.299999999999999
 31
0
  0
LINE
  8
0
 62
7
 10
7.675735931288072
 20
8.1
 30
0
 11
7.750000000000022
 21
8.174264068711949
 31
0
  0
ENDBLK
  8
0
  0
BLOCK
  8
0
  2
*X9
 70
1
 10
0
 20
0
 30
0
  0
LINE
  8
0
 62
7
 10
4.367840917787128
 20
11.05
 30
0
 11
4.517840917787128
 21
11.2
 31
0
  0
LINE
  8
0
 62
7
 10
4.365000000000023
 20
11.15322509939088
 30
0
 11
4.411774900609145
 21
11.2
 31
0
  0
LINE
  8
0
 62
7
 10
4.473906934965109
 20
11.05
 30
0
 11
4.540000000000022
 21
11.11609306503491
 31
0
  0
ENDBLK
  8
0
  0
BLOCK
  8
0
  2
*X10
 70
1
 10
0
 20
0
 30
0
  0
LINE
  8
0
 62
7
 10
4.365000000000023
 20
10.83502704785693
 30
0
 11
4.379972952143091
 21
10.85
 31
0
  0
LINE
  8
0
 62
7
 10
4.365000000000023
 20
10.62289501350096
 30
0
 11
4.540000000000022
 21
10.79789501350096
 31
0
  0
LINE
  8
0
 62
7
 10
4.365000000000023
 20
10.410762979145
 30
0
 11
4.540000000000022
 21
10.585762979145
 31
0
  0
LINE
  8
0
 62
7
 10
4.365000000000023
 20
10.19863094478904
 30
0
 11
4.540000000000022
 21
10.37363094478903
 31
0
  0
LINE
  8
0
 62
7
 10
4.365000000000023
 20
9.986498910433072
 30
0
 11
4.540000000000022
 21
10.16149891043307
 31
0
  0
LINE
  8
0
 62
7
 10
4.365000000000023
 20
9.774366876077108
 30
0
 11
4.540000000000022
 21
9.949366876077107
 31
0
  0
LINE
  8
0
 62
7
 10
4.365000000000023
 20
9.562234841721144
 30
0
 11
4.540000000000022
 21
9.737234841721143
 31
0
  0
LINE
  8
0
 62
7
 10
4.365000000000023
 20
9.350102807365181
 30
0
 11
4.540000000000022
 21
9.52510280736518
 31
0
  0
LINE
  8
0
 62
7
 10
4.365000000000023
 20
9.137970773009217
 30
0
 11
4.540000000000022
 21
9.312970773009216
 31
0
  0
LINE
  8
0
 62
7
 10
4.365000000000023
 20
8.925838738653253
 30
0
 11
4.540000000000022
 21
9.100838738653252
 31
0
  0
LINE
  8
0
 62
7
 10
4.365000000000023
 20
8.713706704297289
 30
0
 11
4.540000000000022
 21
8.888706704297288
 31
0
  0
LINE
  8
0
 62
7
 10
4.365000000000023
 20
8.501574669941325
 30
0
 11
4.540000000000022
 21
8.676574669941324
 31
0
  0
LINE
  8
0
 62
7
 10
4.375557364414662
 20
8.299999999999999
 30
0
 11
4.540000000000022
 21
8.46444263558536
 31
0
  0
LINE
  8
0
 62
7
 10
4.365000000000022
 20
10.72896103067894
 30
0
 11
4.486038969321073
 21
10.85
 31
0
  0
LINE
  8
0
 62
7
 10
4.365000000000022
 20
10.51682899632298
 30
0
 11
4.540000000000023
 21
10.69182899632298
 31
0
  0
LINE
  8
0
 62
7
 10
4.365000000000022
 20
10.30469696196702
 30
0
 11
4.540000000000023
 21
10.47969696196702
 31
0
  0
LINE
  8
0
 62
7
 10
4.365000000000022
 20
10.09256492761105
 30
0
 11
4.540000000000023
 21
10.26756492761105
 31
0
  0
LINE
  8
0
 62
7
 10
4.365000000000022
 20
9.880432893255088
 30
0
 11
4.540000000000023
 21
10.05543289325509
 31
0
  0
LINE
  8
0
 62
7
 10
4.365000000000022
 20
9.668300858899125
 30
0
 11
4.540000000000023
 21
9.843300858899125
 31
0
  0
LINE
  8
0
 62
7
 10
4.365000000000022
 20
9.456168824543161
 30
0
 11
4.540000000000023
 21
9.631168824543161
 31
0
  0
LINE
  8
0
 62
7
 10
4.365000000000022
 20
9.244036790187197
 30
0
 11
4.540000000000023
 21
9.419036790187198
 31
0
  0
LINE
  8
0
 62
7
 10
4.365000000000022
 20
9.031904755831233
 30
0
 11
4.540000000000023
 21
9.206904755831234
 31
0
  0
LINE
  8
0
 62
7
 10
4.365000000000022
 20
8.819772721475269
 30
0
 11
4.540000000000023
 21
8.99477272147527
 31
0
  0
LINE
  8
0
 62
7
 10
4.365000000000022
 20
8.607640687119305
 30
0
 11
4.540000000000023
 21
8.782640687119306
 31
0
  0
LINE
  8
0
 62
7
 10
4.365000000000022
 20
8.395508652763342
 30
0
 11
4.540000000000023
 21
8.570508652763342
 31
0
  0
LINE
  8
0
 62
7
 10
4.481623381592645
 20
8.300000000000001
 30
0
 11
4.540000000000023
 21
8.358376618407378
 31
0
  0
ENDBLK
  8
0
  0
BLOCK
  8
0
  2
*X11
 70
1
 10
0
 20
0
 30
0
  0
LINE
  8
0
 62
7
 10
4.365000000000023
 20
8.077310601229398
 30
0
 11
4.387689398770626
 21
8.1
 31
0
  0
LINE
  8
0
 62
7
 10
4.449821433126591
 20
7.95
 30
0
 11
4.540000000000023
 21
8.040178566873433
 31
0
  0
LINE
  8
0
 62
7
 10
4.365000000000022
 20
7.971244584051414
 30
0
 11
4.493755415948608
 21
8.1
 31
0
  0
ENDBLK
  8
0
  0
BLOCK
  8
0
  2
*X12
 70
1
 10
0
 20
0
 30
0
  0
LINE
  8
0
 62
7
 10
7.425000000000023
 20
11.1373106012294
 30
0
 11
7.487689398770626
 21
11.2
 31
0
  0
LINE
  8
0
 62
7
 10
7.549821433126593
 20
11.05
 30
0
 11
7.600000000000022
 21
11.10017856687343
 31
0
  0
LINE
  8
0
 62
7
 10
7.44375541594861
 20
11.05
 30
0
 11
7.593755415948609
 21
11.2
 31
0
  0
ENDBLK
  8
0
  0
BLOCK
  8
0
  2
*X13
 70
1
 10
0
 20
0
 30
0
  0
LINE
  8
0
 62
7
 10
7.425000000000023
 20
10.71304653251746
 30
0
 11
7.561953467482555
 21
10.85
 31
0
  0
LINE
  8
0
 62
7
 10
7.425000000000023
 20
10.5009144981615
 30
0
 11
7.600000000000024
 21
10.6759144981615
 31
0
  0
LINE
  8
0
 62
7
 10
7.425000000000023
 20
10.28878246380554
 30
0
 11
7.600000000000024
 21
10.46378246380553
 31
0
  0
LINE
  8
0
 62
7
 10
7.425000000000023
 20
10.07665042944957
 30
0
 11
7.600000000000024
 21
10.25165042944957
 31
0
  0
LINE
  8
0
 62
7
 10
7.425000000000023
 20
9.864518395093608
 30
0
 11
7.600000000000024
 21
10.03951839509361
 31
0
  0
LINE
  8
0
 62
7
 10
7.425000000000023
 20
9.652386360737644
 30
0
 11
7.600000000000024
 21
9.827386360737643
 31
0
  0
LINE
  8
0
 62
7
 10
7.425000000000023
 20
9.44025432638168
 30
0
 11
7.600000000000024
 21
9.615254326381679
 31
0
  0
LINE
  8
0
 62
7
 10
7.425000000000023
 20
9.228122292025716
 30
0
 11
7.600000000000024
 21
9.403122292025715
 31
0
  0
LINE
  8
0
 62
7
 10
7.425000000000023
 20
9.015990257669753
 30
0
 11
7.600000000000024
 21
9.190990257669752
 31
0
  0
LINE
  8
0
 62
7
 10
7.425000000000023
 20
8.803858223313789
 30
0
 11
7.600000000000024
 21
8.978858223313788
 31
0
  0
LINE
  8
0
 62
7
 10
7.425000000000023
 20
8.591726188957825
 30
0
 11
7.600000000000024
 21
8.766726188957824
 31
0
  0
LINE
  8
0
 62
7
 10
7.425000000000023
 20
8.379594154601861
 30
0
 11
7.600000000000024
 21
8.55459415460186
 31
0
  0
LINE
  8
0
 62
7
 10
7.557537879754126
 20
8.300000000000001
 30
0
 11
7.600000000000024
 21
8.342462120245896
 31
0
  0
LINE
  8
0
 62
7
 10
7.425000000000023
 20
10.81911254969545
 30
0
 11
7.455887450304571
 21
10.85
 31
0
  0
LINE
  8
0
 62
7
 10
7.425000000000023
 20
10.60698051533948
 30
0
 11
7.600000000000022
 21
10.78198051533948
 31
0
  0
LINE
  8
0
 62
7
 10
7.425000000000023
 20
10.39484848098352
 30
0
 11
7.600000000000022
 21
10.56984848098351
 31
0
  0
LINE
  8
0
 62
7
 10
7.425000000000023
 20
10.18271644662755
 30
0
 11
7.600000000000022
 21
10.35771644662755
 31
0
  0
LINE
  8
0
 62
7
 10
7.425000000000023
 20
9.97058441227159
 30
0
 11
7.600000000000022
 21
10.14558441227159
 31
0
  0
LINE
  8
0
 62
7
 10
7.425000000000023
 20
9.758452377915626
 30
0
 11
7.600000000000022
 21
9.933452377915623
 31
0
  0
LINE
  8
0
 62
7
 10
7.425000000000023
 20
9.546320343559662
 30
0
 11
7.600000000000022
 21
9.721320343559659
 31
0
  0
LINE
  8
0
 62
7
 10
7.425000000000023
 20
9.334188309203698
 30
0
 11
7.600000000000022
 21
9.509188309203696
 31
0
  0
LINE
  8
0
 62
7
 10
7.425000000000023
 20
9.122056274847735
 30
0
 11
7.600000000000022
 21
9.297056274847732
 31
0
  0
LINE
  8
0
 62
7
 10
7.425000000000023
 20
8.909924240491771
 30
0
 11
7.600000000000022
 21
9.084924240491768
 31
0
  0
LINE
  8
0
 62
7
 10
7.425000000000023
 20
8.697792206135807
 30
0
 11
7.600000000000022
 21
8.872792206135804
 31
0
  0
LINE
  8
0
 62
7
 10
7.425000000000023
 20
8.485660171779843
 30
0
 11
7.600000000000022
 21
8.66066017177984
 31
0
  0
LINE
  8
0
 62
7
 10
7.451471862576145
 20
8.300000000000001
 30
0
 11
7.600000000000022
 21
8.448528137423876
 31
0
  0
ENDBLK
  8
0
  0
BLOCK
  8
0
  2
*X14
 70
1
 10
0
 20
0
 30
0
  0
LINE
  8
0
 62
7
 10
7.425000000000022
 20
7.955330085889933
 30
0
 11
7.569669914110088
 21
8.099999999999998
 31
0
  0
LINE
  8
0
 62
7
 10
7.425000000000024
 20
8.061396103067915
 30
0
 11
7.463603896932107
 21
8.099999999999998
 31
0
  0
LINE
  8
0
 62
7
 10
7.525735931288072
 20
7.949999999999999
 30
0
 11
7.600000000000025
 21
8.02426406871195
 31
0
  0
ENDBLK
  8
0
  0
BLOCK
  8
0
  2
*X15
 70
1
 10
0
 20
0
 30
0
  0
LINE
  8
0
 62
7
 10
4.365000000000022
 20
5.531726188957824
 30
0
 11
4.433273811042198
 21
5.6
 31
0
  0
LINE
  8
0
 62
7
 10
4.215000000000021
 20
5.381726188957824
 30
0
 11
4.283273811042197
 21
5.449999999999999
 31
0
  0
LINE
  8
0
 62
7
 10
4.255405845398166
 20
5.209999999999999
 30
0
 11
4.540000000000021
 21
5.49459415460186
 31
0
  0
LINE
  8
0
 62
7
 10
4.46753787975413
 20
5.209999999999999
 30
0
 11
4.70753787975413
 21
5.449999999999999
 31
0
  0
LINE
  8
0
 62
7
 10
4.679669914110094
 20
5.209999999999999
 30
0
 11
4.919669914110094
 21
5.449999999999999
 31
0
  0
LINE
  8
0
 62
7
 10
4.891801948466058
 20
5.209999999999999
 30
0
 11
5.131801948466058
 21
5.449999999999999
 31
0
  0
LINE
  8
0
 62
7
 10
5.103933982822022
 20
5.209999999999999
 30
0
 11
5.343933982822022
 21
5.449999999999999
 31
0
  0
LINE
  8
0
 62
7
 10
5.316066017177985
 20
5.209999999999999
 30
0
 11
5.556066017177986
 21
5.449999999999999
 31
0
  0
LINE
  8
0
 62
7
 10
5.528198051533949
 20
5.209999999999999
 30
0
 11
5.768198051533949
 21
5.449999999999999
 31
0
  0
LINE
  8
0
 62
7
 10
5.740330085889913
 20
5.209999999999999
 30
0
 11
5.980330085889913
 21
5.449999999999999
 31
0
  0
LINE
  8
0
 62
7
 10
5.952462120245877
 20
5.209999999999999
 30
0
 11
6.192462120245877
 21
5.449999999999999
 31
0
  0
LINE
  8
0
 62
7
 10
6.164594154601841
 20
5.209999999999999
 30
0
 11
6.404594154601841
 21
5.449999999999999
 31
0
  0
LINE
  8
0
 62
7
 10
6.376726188957805
 20
5.209999999999999
 30
0
 11
6.616726188957805
 21
5.449999999999999
 31
0
  0
LINE
  8
0
 62
7
 10
6.588858223313768
 20
5.209999999999999
 30
0
 11
6.828858223313769
 21
5.449999999999999
 31
0
  0
LINE
  8
0
 62
7
 10
6.800990257669732
 20
5.209999999999999
 30
0
 11
7.040990257669733
 21
5.449999999999999
 31
0
  0
LINE
  8
0
 62
7
 10
7.013122292025696
 20
5.209999999999999
 30
0
 11
7.253122292025696
 21
5.449999999999999
 31
0
  0
LINE
  8
0
 62
7
 10
7.22525432638166
 20
5.209999999999999
 30
0
 11
7.600000000000023
 21
5.584745673618361
 31
0
  0
LINE
  8
0
 62
7
 10
7.437386360737624
 20
5.209999999999999
 30
0
 11
7.677386360737625
 21
5.45
 31
0
  0
LINE
  8
0
 62
7
 10
7.649518395093588
 20
5.209999999999999
 30
0
 11
7.765000000000024
 21
5.325481604906434
 31
0
  0
LINE
  8
0
 62
7
 10
4.215000000000023
 20
5.275660171779843
 30
0
 11
4.53933982822018
 21
5.6
 31
0
  0
LINE
  8
0
 62
7
 10
4.361471862576149
 20
5.209999999999999
 30
0
 11
4.601471862576147
 21
5.449999999999998
 31
0
  0
LINE
  8
0
 62
7
 10
4.573603896932113
 20
5.209999999999999
 30
0
 11
4.813603896932111
 21
5.449999999999998
 31
0
  0
LINE
  8
0
 62
7
 10
4.785735931288077
 20
5.209999999999999
 30
0
 11
5.025735931288075
 21
5.449999999999998
 31
0
  0
LINE
  8
0
 62
7
 10
4.997867965644041
 20
5.209999999999999
 30
0
 11
5.237867965644039
 21
5.449999999999998
 31
0
  0
LINE
  8
0
 62
7
 10
5.210000000000004
 20
5.209999999999999
 30
0
 11
5.450000000000003
 21
5.449999999999998
 31
0
  0
LINE
  8
0
 62
7
 10
5.422132034355968
 20
5.209999999999999
 30
0
 11
5.662132034355967
 21
5.449999999999998
 31
0
  0
LINE
  8
0
 62
7
 10
5.634264068711932
 20
5.209999999999999
 30
0
 11
5.874264068711931
 21
5.449999999999998
 31
0
  0
LINE
  8
0
 62
7
 10
5.846396103067896
 20
5.209999999999999
 30
0
 11
6.086396103067894
 21
5.449999999999998
 31
0
  0
LINE
  8
0
 62
7
 10
6.05852813742386
 20
5.209999999999999
 30
0
 11
6.298528137423858
 21
5.449999999999998
 31
0
  0
LINE
  8
0
 62
7
 10
6.270660171779824
 20
5.209999999999999
 30
0
 11
6.510660171779822
 21
5.449999999999998
 31
0
  0
LINE
  8
0
 62
7
 10
6.482792206135787
 20
5.209999999999999
 30
0
 11
6.722792206135786
 21
5.449999999999998
 31
0
  0
LINE
  8
0
 62
7
 10
6.694924240491751
 20
5.209999999999999
 30
0
 11
6.93492424049175
 21
5.449999999999998
 31
0
  0
LINE
  8
0
 62
7
 10
6.907056274847715
 20
5.209999999999999
 30
0
 11
7.147056274847714
 21
5.449999999999998
 31
0
  0
LINE
  8
0
 62
7
 10
7.425000000000022
 20
5.515811690796343
 30
0
 11
7.509188309203679
 21
5.6
 31
0
  0
LINE
  8
0
 62
7
 10
7.119188309203679
 20
5.209999999999999
 30
0
 11
7.359188309203677
 21
5.449999999999998
 31
0
  0
LINE
  8
0
 62
7
 10
7.331320343559643
 20
5.209999999999999
 30
0
 11
7.600000000000023
 21
5.47867965644038
 31
0
  0
LINE
  8
0
 62
7
 10
7.543452377915607
 20
5.209999999999999
 30
0
 11
7.765000000000024
 21
5.431547622084415
 31
0
  0
LINE
  8
0
 62
7
 10
7.75558441227157
 20
5.209999999999999
 30
0
 11
7.765000000000024
 21
5.219415587728451
 31
0
  0
ENDBLK
  8
0
  0
BLOCK
  8
0
  2
*X16
 70
1
 10
0
 20
0
 30
0
  0
LINE
  8
0
 62
7
 10
4.215000000000021
 20
5.169594154601859
 30
0
 11
4.215405845398166
 21
5.169999999999998
 31
0
  0
LINE
  8
0
 62
7
 10
4.215000000000021
 20
4.957462120245895
 30
0
 11
4.42753787975413
 21
5.169999999999998
 31
0
  0
LINE
  8
0
 62
7
 10
4.365000000000022
 20
4.895330085889931
 30
0
 11
4.639669914110094
 21
5.169999999999998
 31
0
  0
LINE
  8
0
 62
7
 10
4.611801948466059
 20
4.93
 30
0
 11
4.851801948466058
 21
5.169999999999998
 31
0
  0
LINE
  8
0
 62
7
 10
4.365000000000022
 20
4.683198051533967
 30
0
 11
4.540000000000021
 21
4.858198051533966
 31
0
  0
LINE
  8
0
 62
7
 10
4.823933982822023
 20
4.93
 30
0
 11
5.063933982822022
 21
5.169999999999998
 31
0
  0
LINE
  8
0
 62
7
 10
4.365000000000022
 20
4.471066017178003
 30
0
 11
4.540000000000021
 21
4.646066017178002
 31
0
  0
LINE
  8
0
 62
7
 10
5.036066017177987
 20
4.93
 30
0
 11
5.276066017177985
 21
5.169999999999998
 31
0
  0
LINE
  8
0
 62
7
 10
4.365000000000022
 20
4.25893398282204
 30
0
 11
4.540000000000021
 21
4.433933982822039
 31
0
  0
LINE
  8
0
 62
7
 10
5.248198051533951
 20
4.93
 30
0
 11
5.488198051533949
 21
5.169999999999998
 31
0
  0
LINE
  8
0
 62
7
 10
4.365000000000022
 20
4.046801948466076
 30
0
 11
4.540000000000021
 21
4.221801948466075
 31
0
  0
LINE
  8
0
 62
7
 10
5.460330085889915
 20
4.93
 30
0
 11
5.700330085889913
 21
5.169999999999998
 31
0
  0
LINE
  8
0
 62
7
 10
4.365000000000022
 20
3.834669914110111
 30
0
 11
4.540000000000021
 21
4.009669914110111
 31
0
  0
LINE
  8
0
 62
7
 10
5.672462120245878
 20
4.93
 30
0
 11
5.912462120245877
 21
5.169999999999998
 31
0
  0
LINE
  8
0
 62
7
 10
4.365000000000022
 20
3.622537879754147
 30
0
 11
4.540000000000021
 21
3.797537879754147
 31
0
  0
LINE
  8
0
 62
7
 10
5.884594154601842
 20
4.93
 30
0
 11
6.124594154601841
 21
5.169999999999998
 31
0
  0
LINE
  8
0
 62
7
 10
4.365000000000022
 20
3.410405845398183
 30
0
 11
4.540000000000021
 21
3.585405845398182
 31
0
  0
LINE
  8
0
 62
7
 10
6.096726188957806
 20
4.93
 30
0
 11
6.336726188957805
 21
5.169999999999998
 31
0
  0
LINE
  8
0
 62
7
 10
4.416726188957803
 20
3.25
 30
0
 11
4.540000000000022
 21
3.373273811042218
 31
0
  0
LINE
  8
0
 62
7
 10
6.30885822331377
 20
4.93
 30
0
 11
6.548858223313768
 21
5.169999999999998
 31
0
  0
LINE
  8
0
 62
7
 10
6.520990257669734
 20
4.93
 30
0
 11
6.760990257669732
 21
5.169999999999998
 31
0
  0
LINE
  8
0
 62
7
 10
6.733122292025698
 20
4.93
 30
0
 11
6.973122292025696
 21
5.169999999999998
 31
0
  0
LINE
  8
0
 62
7
 10
6.945254326381662
 20
4.93
 30
0
 11
7.18525432638166
 21
5.169999999999998
 31
0
  0
LINE
  8
0
 62
7
 10
7.157386360737625
 20
4.93
 30
0
 11
7.397386360737624
 21
5.169999999999998
 31
0
  0
LINE
  8
0
 62
7
 10
7.369518395093589
 20
4.93
 30
0
 11
7.609518395093588
 21
5.169999999999998
 31
0
  0
LINE
  8
0
 62
7
 10
7.425000000000022
 20
4.773349570550467
 30
0
 11
7.765000000000022
 21
5.113349570550469
 31
0
  0
LINE
  8
0
 62
7
 10
7.425000000000022
 20
4.561217536194503
 30
0
 11
7.600000000000024
 21
4.736217536194505
 31
0
  0
LINE
  8
0
 62
7
 10
7.425000000000022
 20
4.349085501838539
 30
0
 11
7.600000000000024
 21
4.524085501838541
 31
0
  0
LINE
  8
0
 62
7
 10
7.425000000000022
 20
4.136953467482575
 30
0
 11
7.600000000000024
 21
4.311953467482577
 31
0
  0
LINE
  8
0
 62
7
 10
7.425000000000022
 20
3.924821433126612
 30
0
 11
7.600000000000024
 21
4.099821433126613
 31
0
  0
LINE
  8
0
 62
7
 10
7.425000000000022
 20
3.712689398770647
 30
0
 11
7.600000000000024
 21
3.887689398770649
 31
0
  0
LINE
  8
0
 62
7
 10
7.425000000000022
 20
3.500557364414683
 30
0
 11
7.600000000000024
 21
3.675557364414685
 31
0
  0
LINE
  8
0
 62
7
 10
7.486574669941303
 20
3.35
 30
0
 11
7.600000000000024
 21
3.46342533005872
 31
0
  0
LINE
  8
0
 62
7
 10
4.215000000000022
 20
5.063528137423878
 30
0
 11
4.32147186257615
 21
5.17
 31
0
  0
LINE
  8
0
 62
7
 10
4.293603896932106
 20
4.93
 30
0
 11
4.533603896932114
 21
5.17
 31
0
  0
LINE
  8
0
 62
7
 10
4.365000000000023
 20
4.78926406871195
 30
0
 11
4.745735931288078
 21
5.17
 31
0
  0
LINE
  8
0
 62
7
 10
4.717867965644041
 20
4.93
 30
0
 11
4.957867965644041
 21
5.17
 31
0
  0
LINE
  8
0
 62
7
 10
4.365000000000023
 20
4.577132034355986
 30
0
 11
4.540000000000021
 21
4.752132034355984
 31
0
  0
LINE
  8
0
 62
7
 10
4.930000000000005
 20
4.93
 30
0
 11
5.170000000000005
 21
5.17
 31
0
  0
LINE
  8
0
 62
7
 10
4.365000000000023
 20
4.365000000000022
 30
0
 11
4.540000000000021
 21
4.54000000000002
 31
0
  0
LINE
  8
0
 62
7
 10
5.142132034355969
 20
4.93
 30
0
 11
5.382132034355969
 21
5.17
 31
0
  0
LINE
  8
0
 62
7
 10
4.365000000000023
 20
4.152867965644059
 30
0
 11
4.540000000000021
 21
4.327867965644057
 31
0
  0
LINE
  8
0
 62
7
 10
5.354264068711933
 20
4.93
 30
0
 11
5.594264068711933
 21
5.17
 31
0
  0
LINE
  8
0
 62
7
 10
4.365000000000023
 20
3.940735931288094
 30
0
 11
4.540000000000021
 21
4.115735931288093
 31
0
  0
LINE
  8
0
 62
7
 10
5.566396103067897
 20
4.93
 30
0
 11
5.806396103067897
 21
5.17
 31
0
  0
LINE
  8
0
 62
7
 10
4.365000000000023
 20
3.72860389693213
 30
0
 11
4.540000000000021
 21
3.903603896932129
 31
0
  0
LINE
  8
0
 62
7
 10
5.77852813742386
 20
4.93
 30
0
 11
6.018528137423861
 21
5.17
 31
0
  0
LINE
  8
0
 62
7
 10
4.365000000000023
 20
3.516471862576166
 30
0
 11
4.540000000000021
 21
3.691471862576165
 31
0
  0
LINE
  8
0
 62
7
 10
5.990660171779824
 20
4.93
 30
0
 11
6.230660171779824
 21
5.17
 31
0
  0
LINE
  8
0
 62
7
 10
4.365000000000023
 20
3.304339828220201
 30
0
 11
4.540000000000021
 21
3.4793398282202
 31
0
  0
LINE
  8
0
 62
7
 10
6.202792206135788
 20
4.93
 30
0
 11
6.442792206135788
 21
5.17
 31
0
  0
LINE
  8
0
 62
7
 10
4.522792206135787
 20
3.25
 30
0
 11
4.540000000000022
 21
3.267207793864236
 31
0
  0
LINE
  8
0
 62
7
 10
6.414924240491752
 20
4.93
 30
0
 11
6.654924240491752
 21
5.17
 31
0
  0
LINE
  8
0
 62
7
 10
6.627056274847716
 20
4.93
 30
0
 11
6.867056274847716
 21
5.17
 31
0
  0
LINE
  8
0
 62
7
 10
6.83918830920368
 20
4.93
 30
0
 11
7.07918830920368
 21
5.17
 31
0
  0
LINE
  8
0
 62
7
 10
7.051320343559643
 20
4.93
 30
0
 11
7.291320343559644
 21
5.17
 31
0
  0
LINE
  8
0
 62
7
 10
7.263452377915607
 20
4.93
 30
0
 11
7.503452377915607
 21
5.17
 31
0
  0
LINE
  8
0
 62
7
 10
7.425000000000022
 20
4.879415587728449
 30
0
 11
7.715584412271571
 21
5.17
 31
0
  0
LINE
  8
0
 62
7
 10
7.687716446627536
 20
4.93
 30
0
 11
7.765000000000024
 21
5.007283553372488
 31
0
  0
LINE
  8
0
 62
7
 10
7.425000000000022
 20
4.667283553372485
 30
0
 11
7.600000000000023
 21
4.842283553372486
 31
0
  0
LINE
  8
0
 62
7
 10
7.425000000000022
 20
4.455151519016521
 30
0
 11
7.600000000000023
 21
4.630151519016522
 31
0
  0
LINE
  8
0
 62
7
 10
7.425000000000022
 20
4.243019484660557
 30
0
 11
7.600000000000023
 21
4.418019484660558
 31
0
  0
LINE
  8
0
 62
7
 10
7.425000000000022
 20
4.030887450304594
 30
0
 11
7.600000000000023
 21
4.205887450304594
 31
0
  0
LINE
  8
0
 62
7
 10
7.425000000000022
 20
3.818755415948629
 30
0
 11
7.600000000000023
 21
3.99375541594863
 31
0
  0
LINE
  8
0
 62
7
 10
7.425000000000022
 20
3.606623381592665
 30
0
 11
7.600000000000023
 21
3.781623381592666
 31
0
  0
LINE
  8
0
 62
7
 10
7.425000000000022
 20
3.394491347236701
 30
0
 11
7.600000000000023
 21
3.569491347236702
 31
0
  0
LINE
  8
0
 62
7
 10
7.592640687119285
 20
3.35
 30
0
 11
7.600000000000023
 21
3.357359312880738
 31
0
  0
ENDBLK
  8
0
  0
BLOCK
  8
0
  2
*D0
 70
1
 10
0
 20
0
 30
0
  0
LINE
  8
0
 62
7
 10
7.96915251391019
 20
4.48184324433657
 30
0
 11
7.96915251391019
 21
4.929999999999999
 31
0
  0
LINE
  8
0
 62
7
 10
7.96915251391019
 20
3.349999999999999
 30
0
 11
7.96915251391019
 21
3.73684324433657
 31
0
  0
LINE
  8
0
 62
7
 10
7.600000000000023
 20
4.929999999999999
 30
0
 11
8.019152513910191
 21
4.929999999999999
 31
0
  0
LINE
  8
0
 62
7
 10
7.600000000000023
 20
3.349999999999999
 30
0
 11
8.019152513910191
 21
3.349999999999999
 31
0
  0
LINE
  8
0
 62
7
 10
8.004507852969518
 20
4.894644660940672
 30
0
 11
7.933797174850863
 21
4.965355339059326
 31
0
  0
LINE
  8
0
 62
7
 10
7.933797174850863
 20
3.385355339059326
 30
0
 11
8.004507852969518
 21
3.314644660940671
 31
0
  0
TEXT
  8
0
 62
7
 10
8.01415251391019
 20
3.98684324433657
 30
0
 40
0.1
  1
1,58
 50
90
 41
0.9
  0
ENDBLK
  8
0
  0
BLOCK
  8
0
  2
*D1
 70
1
 10
0
 20
0
 30
0
  0
LINE
  8
0
 62
7
 10
6.358611445949021
 20
5.82371181499461
 30
0
 11
7.425000000000022
 21
5.82371181499461
 31
0
  0
LINE
  8
0
 62
7
 10
4.540000000000021
 20
5.82371181499461
 30
0
 11
5.58361144594902
 21
5.82371181499461
 31
0
  0
LINE
  8
0
 62
7
 10
7.425000000000022
 20
5.449999999999999
 30
0
 11
7.425000000000022
 21
5.87371181499461
 31
0
  0
LINE
  8
0
 62
7
 10
4.540000000000021
 20
5.449999999999999
 30
0
 11
4.540000000000021
 21
5.87371181499461
 31
0
  0
LINE
  8
0
 62
7
 10
4.575355339059349
 20
5.859067154053937
 30
0
 11
4.504644660940694
 21
5.788356475935283
 31
0
  0
LINE
  8
0
 62
7
 10
7.389644660940695
 20
5.788356475935283
 30
0
 11
7.460355339059349
 21
5.859067154053937
 31
0
  0
TEXT
  8
0
 62
7
 10
5.83361144594902
 20
5.77871181499461
 30
0
 40
0.1
  1
2,89
 41
0.9
  0
ENDBLK
  8
0
  0
BLOCK
  8
0
  2
*D2
 70
1
 10
0
 20
0
 30
0
  0
LINE
  8
0
 62
7
 10
4.05940548586273
 20
4.457176070658041
 30
0
 11
4.05940548586273
 21
4.929999999999999
 31
0
  0
LINE
  8
0
 62
7
 10
4.05940548586273
 20
3.249999999999999
 30
0
 11
4.05940548586273
 21
3.71217607065804
 31
0
  0
LINE
  8
0
 62
7
 10
4.365000000000022
 20
4.929999999999999
 30
0
 11
4.009405485862731
 21
4.929999999999999
 31
0
  0
LINE
  8
0
 62
7
 10
4.365000000000022
 20
3.249999999999999
 30
0
 11
4.009405485862731
 21
3.249999999999999
 31
0
  0
LINE
  8
0
 62
7
 10
4.024050146803403
 20
3.285355339059326
 30
0
 11
4.094760824922058
 21
3.214644660940672
 31
0
  0
LINE
  8
0
 62
7
 10
4.094760824922058
 20
4.894644660940672
 30
0
 11
4.024050146803403
 21
4.965355339059326
 31
0
  0
TEXT
  8
0
 62
7
 10
4.10440548586273
 20
3.96217607065804
 30
0
 40
0.1
  1
1,68
 50
90
 41
0.9
  0
ENDBLK
  8
0
  0
BLOCK
  8
0
  2
*D3
 70
1
 10
0
 20
0
 30
0
  0
LINE
  8
0
 62
7
 10
6.271610685431231
 20
11.4724945873786
 30
0
 11
7.425000000000024
 21
11.4724945873786
 31
0
  0
LINE
  8
0
 62
7
 10
4.540000000000022
 20
11.4724945873786
 30
0
 11
5.59661068543123
 21
11.4724945873786
 31
0
  0
LINE
  8
0
 62
7
 10
7.425000000000024
 20
11.2
 30
0
 11
7.425000000000024
 21
11.5224945873786
 31
0
  0
LINE
  8
0
 62
7
 10
4.540000000000022
 20
11.2
 30
0
 11
4.540000000000022
 21
11.5224945873786
 31
0
  0
LINE
  8
0
 62
7
 10
7.389644660940696
 20
11.43713924831927
 30
0
 11
7.460355339059351
 21
11.50784992643793
 31
0
  0
LINE
  8
0
 62
7
 10
4.57535533905935
 20
11.50784992643793
 30
0
 11
4.504644660940695
 21
11.43713924831927
 31
0
  0
TEXT
  8
0
 62
7
 10
5.79661068543123
 20
11.4274945873786
 30
0
 40
0.1
  1
2,89
 41
0.9
  0
ENDBLK
  8
0
  0
BLOCK
  8
0
  2
*D4
 70
1
 10
0
 20
0
 30
0
  0
LINE
  8
0
 62
7
 10
8.03334216843354
 20
10.1624937584794
 30
0
 11
8.03334216843354
 21
11.05
 31
0
  0
LINE
  8
0
 62
7
 10
8.03334216843354
 20
8.299999999999999
 30
0
 11
8.03334216843354
 21
9.0824937584794
 31
0
  0
LINE
  8
0
 62
7
 10
7.750000000000022
 20
11.05
 30
0
 11
8.083342168433541
 21
11.05
 31
0
  0
LINE
  8
0
 62
7
 10
7.750000000000022
 20
8.299999999999999
 30
0
 11
8.083342168433541
 21
8.299999999999999
 31
0
  0
LINE
  8
0
 62
7
 10
7.997986829374213
 20
8.335355339059326
 30
0
 11
8.068697507492868
 21
8.264644660940672
 31
0
  0
LINE
  8
0
 62
7
 10
8.068697507492868
 20
11.01464466094067
 30
0
 11
7.997986829374213
 21
11.08535533905933
 31
0
  0
TEXT
  8
0
 62
7
 10
8.003342168433541
 20
9.484993758479401
 30
0
 40
0.1
  1
2,75
 50
90
 41
0.9
  0
TEXT
  8
0
 62
7
 10
8.163342168433541
 20
9.282493758479401
 30
0
 40
0.1
  1
(260-280)
 50
90
 41
0.9
  0
ENDBLK
  8
0
  0
ENDSEC
  0
SECTION
  2
ENTITIES
  0
INSERT
  8
0
  2
*X0
 10
0
 20
0
 30
0
  0
INSERT
  8
0
  2
*X1
 10
0
 20
0
 30
0
  0
INSERT
  8
0
  2
*X2
 10
0
 20
0
 30
0
  0
INSERT
  8
0
  2
*X3
 10
0
 20
0
 30
0
  0
INSERT
  8
0
  2
*X4
 10
0
 20
0
 30
0
  0
INSERT
  8
0
  2
*X5
 10
0
 20
0
 30
0
  0
INSERT
  8
0
  2
*X6
 10
0
 20
0
 30
0
  0
INSERT
  8
0
  2
*X7
 10
0
 20
0
 30
0
  0
INSERT
  8
0
  2
*X8
 10
0
 20
0
 30
0
  0
INSERT
  8
0
  2
*X9
 10
0
 20
0
 30
0
  0
INSERT
  8
0
  2
*X10
 10
0
 20
0
 30
0
  0
INSERT
  8
0
  2
*X11
 10
0
 20
0
 30
0
  0
INSERT
  8
0
  2
*X12
 10
0
 20
0
 30
0
  0
INSERT
  8
0
  2
*X13
 10
0
 20
0
 30
0
  0
INSERT
  8
0
  2
*X14
 10
0
 20
0
 30
0
  0
INSERT
  8
0
  2
*X15
 10
0
 20
0
 30
0
  0
INSERT
  8
0
  2
*X16
 10
0
 20
0
 30
0
  0
LINE
  8
0
 62
7
  6
DASHDOT
 10
7.425000000000023
 20
5.6
 30
0
 11
7.600000000000023
 21
5.6
 31
0
  0
LINE
  8
0
 62
7
  6
DASHDOT
 10
7.600000000000023
 20
5.6
 30
0
 11
7.650000000000023
 21
5.6
 31
0
  0
LINE
  8
0
 62
7
  6
DASHDOT
 10
4.215000000000022
 20
5.169999999999999
 30
0
 11
4.215000000000022
 21
4.93
 31
0
  0
LINE
  8
0
 62
7
  6
DASHDOT
 10
7.765000000000024
 20
5.169999999999999
 30
0
 11
7.765000000000024
 21
4.93
 31
0
  0
LINE
  8
0
 62
7
  6
DASHDOT
 10
4.215000000000022
 20
5.21
 30
0
 11
4.215000000000022
 21
5.169999999999999
 31
0
  0
LINE
  8
0
 62
7
  6
DASHDOT
 10
7.765000000000024
 20
5.21
 30
0
 11
7.765000000000024
 21
5.169999999999999
 31
0
  0
LINE
  8
0
 62
7
  6
DASHDOT
 10
4.215000000000022
 20
4.93
 30
0
 11
4.215000000000022
 21
4.879999999999999
 31
0
  0
LINE
  8
0
 62
7
  6
DASHDOT
 10
4.215000000000022
 20
5.449999999999999
 30
0
 11
4.215000000000022
 21
5.21
 31
0
  0
LINE
  8
0
 62
7
  6
DASHDOT
 10
4.540000000000022
 20
5.6
 30
0
 11
4.590000000000022
 21
5.6
 31
0
  0
LINE
  8
0
 62
7
  6
DASHDOT
 10
4.365000000000022
 20
5.6
 30
0
 11
4.540000000000022
 21
5.6
 31
0
  0
LINE
  8
0
 62
7
  6
DASHDOT
 10
7.765000000000024
 20
4.93
 30
0
 11
7.765000000000024
 21
4.879999999999999
 31
0
  0
LINE
  8
0
 62
7
  6
DASHDOT
 10
7.765000000000024
 20
5.449999999999999
 30
0
 11
7.765000000000024
 21
5.21
 31
0
  0
LINE
  8
0
 62
7
  6
DASHDOT
 10
7.765000000000024
 20
5.5
 30
0
 11
7.765000000000024
 21
5.449999999999999
 31
0
  0
LINE
  8
0
 62
7
  6
DASHDOT
 10
4.215000000000022
 20
5.5
 30
0
 11
4.215000000000022
 21
5.449999999999999
 31
0
  0
LINE
  8
0
 62
7
  6
DASHDOT
 10
7.375000000000023
 20
5.6
 30
0
 11
7.425000000000023
 21
5.6
 31
0
  0
LINE
  8
0
 62
7
  6
DASHDOT
 10
4.315000000000022
 20
5.6
 30
0
 11
4.365000000000022
 21
5.6
 31
0
  0
LINE
  8
0
 62
7
 10
4.540000000000022
 20
3.35
 30
0
 11
4.540000000000022
 21
3.399999999999999
 31
0
  0
LINE
  8
0
 62
7
  6
DASHDOT
 10
7.425000000000023
 20
3.35
 30
0
 11
4.540000000000022
 21
3.35
 31
0
  0
LINE
  8
0
 62
7
 10
7.425000000000023
 20
3.399999999999999
 30
0
 11
7.425000000000023
 21
3.35
 31
0
  0
LINE
  8
0
 62
7
 10
4.540000000000022
 20
3.399999999999999
 30
0
 11
4.540000000000022
 21
4.93
 31
0
  0
LINE
  8
0
 62
7
 10
7.425000000000023
 20
3.399999999999999
 30
0
 11
4.540000000000022
 21
3.399999999999999
 31
0
  0
LINE
  8
0
 62
7
 10
7.425000000000023
 20
3.35
 30
0
 11
7.600000000000023
 21
3.35
 31
0
  0
LINE
  8
0
 62
7
 10
7.600000000000023
 20
4.93
 30
0
 11
7.765000000000024
 21
4.93
 31
0
  0
LINE
  8
0
 62
7
 10
7.600000000000023
 20
3.35
 30
0
 11
7.600000000000023
 21
4.93
 31
0
  0
LINE
  8
0
 62
7
 10
7.425000000000023
 20
4.93
 30
0
 11
7.425000000000023
 21
3.399999999999999
 31
0
  0
LINE
  8
0
 62
7
 10
4.540000000000022
 20
4.93
 30
0
 11
7.425000000000023
 21
4.93
 31
0
  0
LINE
  8
0
 62
7
 10
4.365000000000022
 20
4.93
 30
0
 11
4.365000000000022
 21
3.25
 31
0
  0
LINE
  8
0
 62
7
 10
4.365000000000022
 20
3.25
 30
0
 11
4.540000000000022
 21
3.25
 31
0
  0
LINE
  8
0
 62
7
 10
4.540000000000022
 20
3.25
 30
0
 11
4.540000000000022
 21
3.35
 31
0
  0
LINE
  8
0
 62
7
 10
4.215000000000022
 20
4.93
 30
0
 11
4.365000000000022
 21
4.93
 31
0
  0
LINE
  8
0
 62
7
 10
4.215000000000022
 20
5.169999999999999
 30
0
 11
7.765000000000024
 21
5.169999999999999
 31
0
  0
LINE
  8
0
 62
7
 10
4.215000000000022
 20
5.21
 30
0
 11
7.765000000000024
 21
5.21
 31
0
  0
LINE
  8
0
 62
7
 10
7.600000000000023
 20
5.449999999999999
 30
0
 11
7.765000000000024
 21
5.449999999999999
 31
0
  0
LINE
  8
0
 62
7
 10
7.600000000000023
 20
5.6
 30
0
 11
7.600000000000023
 21
5.449999999999999
 31
0
  0
LINE
  8
0
 62
7
 10
7.425000000000023
 20
5.449999999999999
 30
0
 11
7.425000000000023
 21
5.6
 31
0
  0
LINE
  8
0
 62
7
 10
4.540000000000022
 20
5.449999999999999
 30
0
 11
7.425000000000023
 21
5.449999999999999
 31
0
  0
LINE
  8
0
 62
7
 10
4.540000000000022
 20
5.6
 30
0
 11
4.540000000000022
 21
5.449999999999999
 31
0
  0
LINE
  8
0
 62
7
 10
4.365000000000022
 20
5.449999999999999
 30
0
 11
4.365000000000022
 21
5.6
 31
0
  0
LINE
  8
0
 62
7
 10
4.215000000000022
 20
5.449999999999999
 30
0
 11
4.365000000000022
 21
5.449999999999999
 31
0
  0
LINE
  8
0
 62
7
  6
DASHED
 10
0.7400000000000001
 20
8.1
 30
0
 11
2.32
 21
8.1
 31
0
  0
LINE
  8
0
 62
7
  6
DASHED
 10
0.7400000000000001
 20
8.300000000000001
 30
0
 11
2.32
 21
8.300000000000001
 31
0
  0
LINE
  8
0
 62
7
  6
DASHED
 10
0.7400000000000001
 20
10.85
 30
0
 11
2.32
 21
10.85
 31
0
  0
LINE
  8
0
 62
7
  6
DASHED
 10
0.7400000000000001
 20
11.05
 30
0
 11
2.32
 21
11.05
 31
0
  0
LINE
  8
0
 62
7
  6
DASHDOT
 10
2.62
 20
11.05
 30
0
 11
2.62
 21
10.85
 31
0
  0
LINE
  8
0
 62
7
  6
DASHDOT
 10
2.62
 20
10.85
 30
0
 11
2.62
 21
10.8
 31
0
  0
LINE
  8
0
 62
7
  6
DASHDOT
 10
0.5
 20
11.2
 30
0
 11
0.7400000000000001
 21
11.2
 31
0
  0
LINE
  8
0
 62
7
  6
DASHDOT
 10
0.7400000000000001
 20
11.2
 30
0
 11
0.79
 21
11.2
 31
0
  0
LINE
  8
0
 62
7
  6
DASHDOT
 10
0.7400000000000001
 20
7.95
 30
0
 11
0.79
 21
7.95
 31
0
  0
LINE
  8
0
 62
7
  6
DASHDOT
 10
0.5
 20
7.95
 30
0
 11
0.7400000000000001
 21
7.95
 31
0
  0
LINE
  8
0
 62
7
  6
DASHDOT
 10
2.62
 20
8.1
 30
0
 11
2.62
 21
8.300000000000001
 31
0
  0
LINE
  8
0
 62
7
  6
DASHDOT
 10
2.62
 20
8.300000000000001
 30
0
 11
2.62
 21
8.4
 31
0
  0
LINE
  8
0
 62
7
  6
DASHDOT
 10
2.62
 20
11.15
 30
0
 11
2.62
 21
11.05
 31
0
  0
LINE
  8
0
 62
7
 10
2.32
 20
11.15
 30
0
 11
2.62
 21
11.15
 31
0
  0
LINE
  8
0
 62
7
  6
DASHDOT
 10
2.62
 20
8.4
 30
0
 11
2.62
 21
8.450000000000001
 31
0
  0
LINE
  8
0
 62
7
 10
2.32
 20
8.4
 30
0
 11
2.62
 21
8.4
 31
0
  0
LINE
  8
0
 62
7
  6
DASHDOT
 10
0.45
 20
7.95
 30
0
 11
0.5
 21
7.95
 31
0
  0
LINE
  8
0
 62
7
  6
DASHDOT
 10
2.62
 20
8.050000000000001
 30
0
 11
2.62
 21
8.1
 31
0
  0
LINE
  8
0
 62
7
  6
DASHDOT
 10
2.62
 20
11.2
 30
0
 11
2.62
 21
11.15
 31
0
  0
LINE
  8
0
 62
7
  6
DASHDOT
 10
0.45
 20
11.2
 30
0
 11
0.5
 21
11.2
 31
0
  0
LINE
  8
0
 62
7
 10
2.32
 20
8.1
 30
0
 11
2.62
 21
8.1
 31
0
  0
LINE
  8
0
 62
7
 10
2.32
 20
8.300000000000001
 30
0
 11
2.32
 21
8.1
 31
0
  0
LINE
  8
0
 62
7
 10
2.32
 20
8.300000000000001
 30
0
 11
2.62
 21
8.300000000000001
 31
0
  0
LINE
  8
0
 62
7
 10
2.32
 20
11.05
 30
0
 11
2.62
 21
11.05
 31
0
  0
LINE
  8
0
 62
7
 10
2.32
 20
10.85
 30
0
 11
2.62
 21
10.85
 31
0
  0
LINE
  8
0
 62
7
 10
2.32
 20
11.05
 30
0
 11
2.32
 21
10.85
 31
0
  0
LINE
  8
0
 62
7
 10
0.7400000000000001
 20
8.1
 30
0
 11
0.7400000000000001
 21
7.95
 31
0
  0
LINE
  8
0
 62
7
 10
0.5
 20
8.1
 30
0
 11
0.5
 21
8.300000000000001
 31
0
  0
LINE
  8
0
 62
7
 10
0.5
 20
8.1
 30
0
 11
0.7400000000000001
 21
8.1
 31
0
  0
LINE
  8
0
 62
7
 10
0.7400000000000001
 20
8.300000000000001
 30
0
 11
0.7400000000000001
 21
8.1
 31
0
  0
LINE
  8
0
 62
7
 10
0.5
 20
8.300000000000001
 30
0
 11
0.5
 21
10.85
 31
0
  0
LINE
  8
0
 62
7
 10
0.5
 20
8.300000000000001
 30
0
 11
0.7400000000000001
 21
8.300000000000001
 31
0
  0
LINE
  8
0
 62
7
 10
0.7400000000000001
 20
10.85
 30
0
 11
0.7400000000000001
 21
8.300000000000001
 31
0
  0
LINE
  8
0
 62
7
 10
0.5
 20
10.85
 30
0
 11
0.5
 21
11.05
 31
0
  0
LINE
  8
0
 62
7
 10
0.5
 20
10.85
 30
0
 11
0.7400000000000001
 21
10.85
 31
0
  0
LINE
  8
0
 62
7
 10
0.7400000000000001
 20
11.05
 30
0
 11
0.7400000000000001
 21
10.85
 31
0
  0
LINE
  8
0
 62
7
 10
0.5
 20
11.05
 30
0
 11
0.5
 21
11.2
 31
0
  0
LINE
  8
0
 62
7
 10
0.5
 20
11.05
 30
0
 11
0.7400000000000001
 21
11.05
 31
0
  0
LINE
  8
0
 62
7
 10
0.7400000000000001
 20
11.2
 30
0
 11
0.7400000000000001
 21
11.05
 31
0
  0
LINE
  8
0
 62
7
 10
0.5
 20
7.95
 30
0
 11
0.5
 21
8.1
 31
0
  0
LINE
  8
0
 62
7
  6
DASHDOT
 10
4.315000000000022
 20
11.2
 30
0
 11
4.365000000000022
 21
11.2
 31
0
  0
LINE
  8
0
 62
7
  6
DASHDOT
 10
4.365000000000022
 20
11.2
 30
0
 11
4.540000000000022
 21
11.2
 31
0
  0
LINE
  8
0
 62
7
  6
DASHDOT
 10
4.215000000000022
 20
11.15
 30
0
 11
4.215000000000022
 21
11.05
 31
0
  0
LINE
  8
0
 62
7
  6
DASHDOT
 10
4.215000000000022
 20
11.05
 30
0
 11
4.215000000000022
 21
10.85
 31
0
  0
LINE
  8
0
 62
7
  6
DASHDOT
 10
7.375000000000023
 20
11.2
 30
0
 11
7.425000000000023
 21
11.2
 31
0
  0
LINE
  8
0
 62
7
  6
DASHDOT
 10
7.425000000000023
 20
11.2
 30
0
 11
7.600000000000023
 21
11.2
 31
0
  0
LINE
  8
0
 62
7
  6
DASHDOT
 10
7.750000000000023
 20
11.15
 30
0
 11
7.750000000000023
 21
11.05
 31
0
  0
LINE
  8
0
 62
7
  6
DASHDOT
 10
7.750000000000023
 20
11.05
 30
0
 11
7.750000000000023
 21
10.85
 31
0
  0
LINE
  8
0
 62
7
  6
DASHDOT
 10
7.375000000000023
 20
7.95
 30
0
 11
7.425000000000023
 21
7.95
 31
0
  0
LINE
  8
0
 62
7
  6
DASHDOT
 10
7.425000000000023
 20
7.95
 30
0
 11
7.600000000000023
 21
7.95
 31
0
  0
LINE
  8
0
 62
7
  6
DASHDOT
 10
7.750000000000023
 20
8.4
 30
0
 11
7.750000000000023
 21
8.300000000000001
 31
0
  0
LINE
  8
0
 62
7
  6
DASHDOT
 10
7.750000000000023
 20
8.300000000000001
 30
0
 11
7.750000000000023
 21
8.1
 31
0
  0
LINE
  8
0
 62
7
  6
DASHDOT
 10
4.315000000000022
 20
7.95
 30
0
 11
4.365000000000022
 21
7.95
 31
0
  0
LINE
  8
0
 62
7
  6
DASHDOT
 10
4.365000000000022
 20
7.95
 30
0
 11
4.540000000000022
 21
7.95
 31
0
  0
LINE
  8
0
 62
7
  6
DASHDOT
 10
4.215000000000022
 20
8.4
 30
0
 11
4.215000000000022
 21
8.300000000000001
 31
0
  0
LINE
  8
0
 62
7
  6
DASHDOT
 10
4.215000000000022
 20
8.300000000000001
 30
0
 11
4.215000000000022
 21
8.1
 31
0
  0
LINE
  8
0
 62
7
  6
DASHDOT
 10
4.215000000000022
 20
11.2
 30
0
 11
4.215000000000022
 21
11.15
 31
0
  0
LINE
  8
0
 62
7
 10
4.365000000000022
 20
11.2
 30
0
 11
4.365000000000022
 21
11.15
 31
0
  0
LINE
  8
0
 62
7
 10
4.215000000000022
 20
11.15
 30
0
 11
4.365000000000022
 21
11.15
 31
0
  0
LINE
  8
0
 62
7
 10
4.540000000000022
 20
11.2
 30
0
 11
4.540000000000022
 21
11.15
 31
0
  0
LINE
  8
0
 62
7
 10
7.425000000000023
 20
11.2
 30
0
 11
7.425000000000023
 21
11.15
 31
0
  0
LINE
  8
0
 62
7
 10
4.540000000000022
 20
11.15
 30
0
 11
7.425000000000023
 21
11.15
 31
0
  0
LINE
  8
0
 62
7
  6
DASHDOT
 10
7.750000000000023
 20
11.2
 30
0
 11
7.750000000000023
 21
11.15
 31
0
  0
LINE
  8
0
 62
7
 10
7.600000000000023
 20
11.2
 30
0
 11
7.600000000000023
 21
11.15
 31
0
  0
LINE
  8
0
 62
7
 10
7.600000000000023
 20
11.15
 30
0
 11
7.750000000000023
 21
11.15
 31
0
  0
LINE
  8
0
 62
7
  6
DASHDOT
 10
4.215000000000022
 20
8.450000000000001
 30
0
 11
4.215000000000022
 21
8.4
 31
0
  0
LINE
  8
0
 62
7
 10
4.365000000000022
 20
10.85
 30
0
 11
4.365000000000022
 21
8.4
 31
0
  0
LINE
  8
0
 62
7
 10
4.215000000000022
 20
8.4
 30
0
 11
4.365000000000022
 21
8.4
 31
0
  0
LINE
  8
0
 62
7
 10
4.540000000000022
 20
10.85
 30
0
 11
4.540000000000022
 21
8.4
 31
0
  0
LINE
  8
0
 62
7
 10
7.425000000000023
 20
10.85
 30
0
 11
7.425000000000023
 21
8.4
 31
0
  0
LINE
  8
0
 62
7
 10
4.540000000000022
 20
8.4
 30
0
 11
7.425000000000023
 21
8.4
 31
0
  0
LINE
  8
0
 62
7
  6
DASHDOT
 10
7.750000000000023
 20
8.450000000000001
 30
0
 11
7.750000000000023
 21
8.4
 31
0
  0
LINE
  8
0
 62
7
 10
7.600000000000023
 20
10.85
 30
0
 11
7.600000000000023
 21
8.4
 31
0
  0
LINE
  8
0
 62
7
 10
7.600000000000023
 20
8.4
 30
0
 11
7.750000000000023
 21
8.4
 31
0
  0
LINE
  8
0
 62
7
  6
DASHDOT
 10
4.540000000000022
 20
7.95
 30
0
 11
4.590000000000022
 21
7.95
 31
0
  0
LINE
  8
0
 62
7
  6
DASHDOT
 10
4.540000000000022
 20
11.2
 30
0
 11
4.590000000000022
 21
11.2
 31
0
  0
LINE
  8
0
 62
7
  6
DASHDOT
 10
7.600000000000023
 20
7.95
 30
0
 11
7.650000000000023
 21
7.95
 31
0
  0
LINE
  8
0
 62
7
  6
DASHDOT
 10
7.600000000000023
 20
11.2
 30
0
 11
7.650000000000023
 21
11.2
 31
0
  0
LINE
  8
0
 62
7
  6
DASHDOT
 10
4.215000000000022
 20
10.85
 30
0
 11
4.215000000000022
 21
10.8
 31
0
  0
LINE
  8
0
 62
7
  6
DASHDOT
 10
4.215000000000022
 20
8.1
 30
0
 11
4.215000000000022
 21
8.050000000000001
 31
0
  0
LINE
  8
0
 62
7
  6
DASHDOT
 10
7.750000000000023
 20
10.85
 30
0
 11
7.750000000000023
 21
10.8
 31
0
  0
LINE
  8
0
 62
7
  6
DASHDOT
 10
7.750000000000023
 20
8.1
 30
0
 11
7.750000000000023
 21
8.050000000000001
 31
0
  0
LINE
  8
0
 62
7
 10
4.215000000000022
 20
11.05
 30
0
 11
4.365000000000022
 21
11.05
 31
0
  0
LINE
  8
0
 62
7
 10
4.365000000000022
 20
11.15
 30
0
 11
4.365000000000022
 21
11.05
 31
0
  0
LINE
  8
0
 62
7
 10
4.215000000000022
 20
10.85
 30
0
 11
4.365000000000022
 21
10.85
 31
0
  0
LINE
  8
0
 62
7
 10
4.215000000000022
 20
8.300000000000001
 30
0
 11
4.365000000000022
 21
8.300000000000001
 31
0
  0
LINE
  8
0
 62
7
 10
4.365000000000022
 20
8.4
 30
0
 11
4.365000000000022
 21
8.300000000000001
 31
0
  0
LINE
  8
0
 62
7
 10
4.215000000000022
 20
8.1
 30
0
 11
4.365000000000022
 21
8.1
 31
0
  0
LINE
  8
0
 62
7
 10
4.365000000000022
 20
8.1
 30
0
 11
4.365000000000022
 21
7.95
 31
0
  0
LINE
  8
0
 62
7
 10
4.365000000000022
 20
11.05
 30
0
 11
4.540000000000022
 21
11.05
 31
0
  0
LINE
  8
0
 62
7
 10
4.540000000000022
 20
11.15
 30
0
 11
4.540000000000022
 21
11.05
 31
0
  0
LINE
  8
0
 62
7
 10
4.365000000000022
 20
10.85
 30
0
 11
4.540000000000022
 21
10.85
 31
0
  0
LINE
  8
0
 62
7
 10
4.365000000000022
 20
8.300000000000001
 30
0
 11
4.540000000000022
 21
8.300000000000001
 31
0
  0
LINE
  8
0
 62
7
 10
4.540000000000022
 20
8.4
 30
0
 11
4.540000000000022
 21
8.300000000000001
 31
0
  0
LINE
  8
0
 62
7
 10
4.365000000000022
 20
8.1
 30
0
 11
4.540000000000022
 21
8.1
 31
0
  0
LINE
  8
0
 62
7
 10
4.540000000000022
 20
8.1
 30
0
 11
4.540000000000022
 21
7.95
 31
0
  0
LINE
  8
0
 62
7
 10
4.540000000000022
 20
11.05
 30
0
 11
7.425000000000023
 21
11.05
 31
0
  0
LINE
  8
0
 62
7
 10
7.425000000000023
 20
11.15
 30
0
 11
7.425000000000023
 21
11.05
 31
0
  0
LINE
  8
0
 62
7
 10
4.540000000000022
 20
10.85
 30
0
 11
7.425000000000023
 21
10.85
 31
0
  0
LINE
  8
0
 62
7
 10
4.540000000000022
 20
8.300000000000001
 30
0
 11
7.425000000000023
 21
8.300000000000001
 31
0
  0
LINE
  8
0
 62
7
 10
7.425000000000023
 20
8.4
 30
0
 11
7.425000000000023
 21
8.300000000000001
 31
0
  0
LINE
  8
0
 62
7
 10
4.540000000000022
 20
8.1
 30
0
 11
7.425000000000023
 21
8.1
 31
0
  0
LINE
  8
0
 62
7
 10
7.425000000000023
 20
8.1
 30
0
 11
7.425000000000023
 21
7.95
 31
0
  0
LINE
  8
0
 62
7
 10
7.425000000000023
 20
11.05
 30
0
 11
7.600000000000023
 21
11.05
 31
0
  0
LINE
  8
0
 62
7
 10
7.600000000000023
 20
11.15
 30
0
 11
7.600000000000023
 21
11.05
 31
0
  0
LINE
  8
0
 62
7
 10
7.425000000000023
 20
10.85
 30
0
 11
7.600000000000023
 21
10.85
 31
0
  0
LINE
  8
0
 62
7
 10
7.425000000000023
 20
8.300000000000001
 30
0
 11
7.600000000000023
 21
8.300000000000001
 31
0
  0
LINE
  8
0
 62
7
 10
7.600000000000023
 20
8.4
 30
0
 11
7.600000000000023
 21
8.300000000000001
 31
0
  0
LINE
  8
0
 62
7
 10
7.425000000000023
 20
8.1
 30
0
 11
7.600000000000023
 21
8.1
 31
0
  0
LINE
  8
0
 62
7
 10
7.600000000000023
 20
8.1
 30
0
 11
7.600000000000023
 21
7.95
 31
0
  0
LINE
  8
0
 62
7
 10
7.600000000000023
 20
11.05
 30
0
 11
7.750000000000023
 21
11.05
 31
0
  0
LINE
  8
0
 62
7
 10
7.600000000000023
 20
10.85
 30
0
 11
7.750000000000023
 21
10.85
 31
0
  0
LINE
  8
0
 62
7
 10
7.600000000000023
 20
8.300000000000001
 30
0
 11
7.750000000000023
 21
8.300000000000001
 31
0
  0
LINE
  8
0
 62
7
 10
7.600000000000023
 20
8.1
 30
0
 11
7.750000000000023
 21
8.1
 31
0
  0
LINE
  8
0
 62
7
 10
2.003386380000011
 20
8.518333226666659
 30
0
 11
2.003386380000011
 21
8.583333226666658
 31
0
  0
LINE
  8
0
 62
7
 10
2.420000270000012
 20
8.583333226666658
 30
0
 11
2.420000270000012
 21
8.518333226666659
 31
0
  0
LINE
  8
0
 62
7
 10
2.420000270000012
 20
8.518333226666659
 30
0
 11
2.003386380000011
 21
8.518333226666659
 31
0
  0
LINE
  8
0
 62
7
 10
2.003386380000011
 20
8.583333226666658
 30
0
 11
2.420000270000012
 21
8.583333226666658
 31
0
  0
LINE
  8
0
 62
7
 10
1.629914700000012
 20
8.70166656666666
 30
0
 11
1.629914700000012
 21
8.766666566666661
 31
0
  0
LINE
  8
0
 62
7
 10
2.260744860000021
 20
8.766666566666661
 30
0
 11
2.260744860000021
 21
8.70166656666666
 31
0
  0
LINE
  8
0
 62
7
 10
1.629914700000012
 20
8.766666566666661
 30
0
 11
2.260744860000021
 21
8.766666566666661
 31
0
  0
LINE
  8
0
 62
7
 10
2.260744860000021
 20
8.70166656666666
 30
0
 11
1.629914700000012
 21
8.70166656666666
 31
0
  0
LINE
  8
0
 62
7
 10
1.20662369
 20
8.884999906666662
 30
0
 11
1.20662369
 21
8.94999990666666
 31
0
  0
LINE
  8
0
 62
7
 10
2.165569080000012
 20
8.94999990666666
 30
0
 11
2.165569080000012
 21
8.884999906666662
 31
0
  0
LINE
  8
0
 62
7
 10
1.20662369
 20
8.94999990666666
 30
0
 11
2.165569080000012
 21
8.94999990666666
 31
0
  0
LINE
  8
0
 62
7
 10
2.165569080000012
 20
8.884999906666662
 30
0
 11
1.20662369
 21
8.884999906666662
 31
0
  0
LINE
  8
0
 62
7
 10
0.795
 20
9.068333226666658
 30
0
 11
0.795
 21
9.133333226666659
 31
0
  0
LINE
  8
0
 62
7
 10
2.07693997000001
 20
9.133333226666659
 30
0
 11
2.07693997000001
 21
9.068333226666658
 31
0
  0
LINE
  8
0
 62
7
 10
0.795
 20
9.133333226666659
 30
0
 11
2.07693997000001
 21
9.133333226666659
 31
0
  0
LINE
  8
0
 62
7
 10
2.07693997000001
 20
9.068333226666658
 30
0
 11
0.795
 21
9.068333226666658
 31
0
  0
LINE
  8
0
 62
7
 10
0.7950001499999999
 20
9.251666586666659
 30
0
 11
0.7950001499999999
 21
9.31666658666666
 31
0
  0
LINE
  8
0
 62
7
 10
1.937232930000013
 20
9.31666658666666
 30
0
 11
1.937232930000013
 21
9.251666586666659
 31
0
  0
LINE
  8
0
 62
7
 10
1.937232930000013
 20
9.251666586666659
 30
0
 11
0.7950001499999999
 21
9.251666586666659
 31
0
  0
LINE
  8
0
 62
7
 10
0.7950001499999999
 20
9.31666658666666
 30
0
 11
1.937232930000013
 21
9.31666658666666
 31
0
  0
LINE
  8
0
 62
7
 10
1.855000230000009
 20
9.434999946666661
 30
0
 11
0.7950001499999999
 21
9.434999946666661
 31
0
  0
LINE
  8
0
 62
7
 10
0.7950001499999999
 20
9.434999946666661
 30
0
 11
0.7950001499999999
 21
9.49999994666666
 31
0
  0
LINE
  8
0
 62
7
 10
1.855000230000009
 20
9.49999994666666
 30
0
 11
1.855000230000009
 21
9.434999946666661
 31
0
  0
LINE
  8
0
 62
7
 10
0.7950001499999999
 20
9.49999994666666
 30
0
 11
1.855000230000009
 21
9.49999994666666
 31
0
  0
LINE
  8
0
 62
7
 10
1.85500015
 20
9.618333226666659
 30
0
 11
0.795
 21
9.618333226666659
 31
0
  0
LINE
  8
0
 62
7
 10
0.795
 20
9.618333226666659
 30
0
 11
0.795
 21
9.68333322666666
 31
0
  0
LINE
  8
0
 62
7
 10
1.85500015
 20
9.68333322666666
 30
0
 11
1.85500015
 21
9.618333226666659
 31
0
  0
LINE
  8
0
 62
7
 10
0.795
 20
9.68333322666666
 30
0
 11
1.85500015
 21
9.68333322666666
 31
0
  0
LINE
  8
0
 62
7
 10
1.855000310000021
 20
9.801666666666657
 30
0
 11
0.7949998500000113
 21
9.801666666666657
 31
0
  0
LINE
  8
0
 62
7
 10
0.7949998500000113
 20
9.801666666666657
 30
0
 11
0.7949998500000113
 21
9.866666666666658
 31
0
  0
LINE
  8
0
 62
7
 10
1.855000310000021
 20
9.866666666666658
 30
0
 11
1.855000310000021
 21
9.801666666666657
 31
0
  0
LINE
  8
0
 62
7
 10
0.7949998500000113
 20
9.866666666666658
 30
0
 11
1.855000310000021
 21
9.866666666666658
 31
0
  0
LINE
  8
0
 62
7
 10
1.855000230000009
 20
9.984999946666662
 30
0
 11
0.7950001499999999
 21
9.984999946666662
 31
0
  0
LINE
  8
0
 62
7
 10
0.7950001499999999
 20
9.984999946666662
 30
0
 11
0.7950001499999999
 21
10.04999994666666
 31
0
  0
LINE
  8
0
 62
7
 10
1.855000230000009
 20
10.04999994666666
 30
0
 11
1.855000230000009
 21
9.984999946666662
 31
0
  0
LINE
  8
0
 62
7
 10
0.7950001499999999
 20
10.04999994666666
 30
0
 11
1.855000230000009
 21
10.04999994666666
 31
0
  0
LINE
  8
0
 62
7
 10
1.85500046000001
 20
10.16833322666666
 30
0
 11
0.7950001499999999
 21
10.16833322666666
 31
0
  0
LINE
  8
0
 62
7
 10
0.7950001499999999
 20
10.16833322666666
 30
0
 11
0.7950001499999999
 21
10.23333322666666
 31
0
  0
LINE
  8
0
 62
7
 10
1.85500046000001
 20
10.23333322666666
 30
0
 11
1.85500046000001
 21
10.16833322666666
 31
0
  0
LINE
  8
0
 62
7
 10
0.7950001499999999
 20
10.23333322666666
 30
0
 11
1.85500046000001
 21
10.23333322666666
 31
0
  0
LINE
  8
0
 62
7
 10
0.7950004600000102
 20
10.35166666666666
 30
0
 11
0.7950004600000102
 21
10.41666666666666
 31
0
  0
LINE
  8
0
 62
7
 10
1.987375830000008
 20
10.41666666666666
 30
0
 11
1.987375830000008
 21
10.35166666666666
 31
0
  0
LINE
  8
0
 62
7
 10
0.7950004600000102
 20
10.41666666666666
 30
0
 11
1.987375830000008
 21
10.41666666666666
 31
0
  0
LINE
  8
0
 62
7
 10
1.987375830000008
 20
10.35166666666666
 30
0
 11
0.7950004600000102
 21
10.35166666666666
 31
0
  0
LINE
  8
0
 62
7
 10
1.12849121
 20
10.53499994666666
 30
0
 11
1.12849121
 21
10.59999994666666
 31
0
  0
LINE
  8
0
 62
7
 10
2.124403080000011
 20
10.59999994666666
 30
0
 11
2.124403080000011
 21
10.53499994666666
 31
0
  0
LINE
  8
0
 62
7
 10
1.12849121
 20
10.59999994666666
 30
0
 11
2.124403080000011
 21
10.59999994666666
 31
0
  0
LINE
  8
0
 62
7
 10
2.124403080000011
 20
10.53499994666666
 30
0
 11
1.12849121
 21
10.53499994666666
 31
0
  0
LINE
  8
0
 62
7
 10
1.564099430000009
 20
10.71833322666666
 30
0
 11
1.564099430000009
 21
10.78333322666666
 31
0
  0
LINE
  8
0
 62
7
 10
2.245041430000009
 20
10.78333322666666
 30
0
 11
2.245041430000009
 21
10.71833322666666
 31
0
  0
LINE
  8
0
 62
7
 10
1.564099430000009
 20
10.78333322666666
 30
0
 11
2.245041430000009
 21
10.78333322666666
 31
0
  0
LINE
  8
0
 62
7
 10
2.245041430000009
 20
10.71833322666666
 30
0
 11
1.564099430000009
 21
10.71833322666666
 31
0
  0
LINE
  8
0
 62
7
 10
1.91679123000001
 20
10.90166666666666
 30
0
 11
1.91679123000001
 21
10.96666666666666
 31
0
  0
LINE
  8
0
 62
7
 10
2.28999975000001
 20
10.96666666666666
 30
0
 11
2.28999975000001
 21
10.90166666666666
 31
0
  0
LINE
  8
0
 62
7
 10
2.28999975000001
 20
10.90166666666666
 30
0
 11
1.91679123000001
 21
10.90166666666666
 31
0
  0
LINE
  8
0
 62
7
 10
1.91679123000001
 20
10.96666666666666
 30
0
 11
2.28999975000001
 21
10.96666666666666
 31
0
  0
LINE
  8
0
 62
7
 10
5.655000160000011
 20
8.518333226666659
 30
0
 11
4.59500061000001
 21
8.518333226666659
 31
0
  0
LINE
  8
0
 62
7
 10
5.655000160000011
 20
8.583333226666658
 30
0
 11
5.655000160000011
 21
8.518333226666659
 31
0
  0
LINE
  8
0
 62
7
 10
4.59500061000001
 20
8.518333226666659
 30
0
 11
4.59500061000001
 21
8.583333226666658
 31
0
  0
LINE
  8
0
 62
7
 10
4.59500061000001
 20
8.583333226666658
 30
0
 11
5.655000160000011
 21
8.583333226666658
 31
0
  0
LINE
  8
0
 62
7
 10
5.65500023000001
 20
8.70166656666666
 30
0
 11
4.594999580000011
 21
8.70166656666666
 31
0
  0
LINE
  8
0
 62
7
 10
5.65500023000001
 20
8.766666566666661
 30
0
 11
5.65500023000001
 21
8.70166656666666
 31
0
  0
LINE
  8
0
 62
7
 10
4.594999580000011
 20
8.70166656666666
 30
0
 11
4.594999580000011
 21
8.766666566666661
 31
0
  0
LINE
  8
0
 62
7
 10
4.594999580000011
 20
8.766666566666661
 30
0
 11
5.65500023000001
 21
8.766666566666661
 31
0
  0
LINE
  8
0
 62
7
 10
5.655000160000011
 20
8.884999906666662
 30
0
 11
4.595000130000012
 21
8.884999906666662
 31
0
  0
LINE
  8
0
 62
7
 10
5.655000160000011
 20
8.94999990666666
 30
0
 11
5.655000160000011
 21
8.884999906666662
 31
0
  0
LINE
  8
0
 62
7
 10
4.595000130000012
 20
8.884999906666662
 30
0
 11
4.595000130000012
 21
8.94999990666666
 31
0
  0
LINE
  8
0
 62
7
 10
4.595000130000012
 20
8.94999990666666
 30
0
 11
5.655000160000011
 21
8.94999990666666
 31
0
  0
LINE
  8
0
 62
7
 10
5.655000160000011
 20
9.133333226666659
 30
0
 11
5.655000160000011
 21
9.068333226666658
 31
0
  0
LINE
  8
0
 62
7
 10
4.59500017000001
 20
9.068333226666658
 30
0
 11
4.59500017000001
 21
9.133333226666659
 31
0
  0
LINE
  8
0
 62
7
 10
5.655000160000011
 20
9.068333226666658
 30
0
 11
4.59500017000001
 21
9.068333226666658
 31
0
  0
LINE
  8
0
 62
7
 10
4.59500017000001
 20
9.133333226666659
 30
0
 11
5.655000160000011
 21
9.133333226666659
 31
0
  0
LINE
  8
0
 62
7
 10
5.752643280000012
 20
9.31666658666666
 30
0
 11
5.752643280000012
 21
9.251666586666659
 31
0
  0
LINE
  8
0
 62
7
 10
4.686198540000013
 20
9.251666586666659
 30
0
 11
4.686198540000013
 21
9.31666658666666
 31
0
  0
LINE
  8
0
 62
7
 10
4.686198540000013
 20
9.31666658666666
 30
0
 11
5.752643280000012
 21
9.31666658666666
 31
0
  0
LINE
  8
0
 62
7
 10
5.752643280000012
 20
9.251666586666659
 30
0
 11
4.686198540000013
 21
9.251666586666659
 31
0
  0
LINE
  8
0
 62
7
 10
5.870529640000012
 20
9.49999994666666
 30
0
 11
5.870529640000012
 21
9.434999946666661
 31
0
  0
LINE
  8
0
 62
7
 10
5.172643740000012
 20
9.434999946666661
 30
0
 11
5.172643740000012
 21
9.49999994666666
 31
0
  0
LINE
  8
0
 62
7
 10
5.172643740000012
 20
9.49999994666666
 30
0
 11
5.870529640000012
 21
9.49999994666666
 31
0
  0
LINE
  8
0
 62
7
 10
5.870529640000012
 20
9.434999946666661
 30
0
 11
5.172643740000012
 21
9.434999946666661
 31
0
  0
LINE
  8
0
 62
7
 10
6.01053360000001
 20
9.68333322666666
 30
0
 11
6.01053360000001
 21
9.618333226666659
 31
0
  0
LINE
  8
0
 62
7
 10
5.562672430000011
 20
9.618333226666659
 30
0
 11
5.562672430000011
 21
9.68333322666666
 31
0
  0
LINE
  8
0
 62
7
 10
5.562672430000011
 20
9.68333322666666
 30
0
 11
6.01053360000001
 21
9.68333322666666
 31
0
  0
LINE
  8
0
 62
7
 10
6.01053360000001
 20
9.618333226666659
 30
0
 11
5.562672430000011
 21
9.618333226666659
 31
0
  0
LINE
  8
0
 62
7
 10
6.373290100000021
 20
9.866666666666658
 30
0
 11
6.373290100000021
 21
9.801666666666657
 31
0
  0
LINE
  8
0
 62
7
 10
5.888273010000012
 20
9.801666666666657
 30
0
 11
5.888273010000012
 21
9.866666666666658
 31
0
  0
LINE
  8
0
 62
7
 10
5.888273010000012
 20
9.866666666666658
 30
0
 11
6.373290100000021
 21
9.866666666666658
 31
0
  0
LINE
  8
0
 62
7
 10
6.373290100000021
 20
9.801666666666657
 30
0
 11
5.888273010000012
 21
9.801666666666657
 31
0
  0
LINE
  8
0
 62
7
 10
6.752356880000011
 20
10.04999994666666
 30
0
 11
6.752356880000011
 21
9.984999946666662
 31
0
  0
LINE
  8
0
 62
7
 10
5.995106210000021
 20
9.984999946666662
 30
0
 11
5.995106210000021
 21
10.04999994666666
 31
0
  0
LINE
  8
0
 62
7
 10
5.995106210000021
 20
10.04999994666666
 30
0
 11
6.752356880000011
 21
10.04999994666666
 31
0
  0
LINE
  8
0
 62
7
 10
6.752356880000011
 20
9.984999946666662
 30
0
 11
5.995106210000021
 21
9.984999946666662
 31
0
  0
LINE
  8
0
 62
7
 10
7.263875130000009
 20
10.23333322666666
 30
0
 11
7.263875130000009
 21
10.16833322666666
 31
0
  0
LINE
  8
0
 62
7
 10
6.098473060000011
 20
10.16833322666666
 30
0
 11
6.098473060000011
 21
10.23333322666666
 31
0
  0
LINE
  8
0
 62
7
 10
6.098473060000011
 20
10.23333322666666
 30
0
 11
7.263875130000009
 21
10.23333322666666
 31
0
  0
LINE
  8
0
 62
7
 10
7.263875130000009
 20
10.16833322666666
 30
0
 11
6.098473060000011
 21
10.16833322666666
 31
0
  0
LINE
  8
0
 62
7
 10
7.370000000000023
 20
10.41666666666666
 30
0
 11
7.370000000000023
 21
10.35166666666666
 31
0
  0
LINE
  8
0
 62
7
 10
6.237717750000011
 20
10.35166666666666
 30
0
 11
6.237717750000011
 21
10.41666666666666
 31
0
  0
LINE
  8
0
 62
7
 10
6.237717750000011
 20
10.41666666666666
 30
0
 11
7.370000000000023
 21
10.41666666666666
 31
0
  0
LINE
  8
0
 62
7
 10
7.370000000000023
 20
10.35166666666666
 30
0
 11
6.237717750000011
 21
10.35166666666666
 31
0
  0
LINE
  8
0
 62
7
 10
7.370000000000023
 20
10.53499994666666
 30
0
 11
6.310000000000024
 21
10.53499994666666
 31
0
  0
LINE
  8
0
 62
7
 10
7.370000000000023
 20
10.59999994666666
 30
0
 11
7.370000000000023
 21
10.53499994666666
 31
0
  0
LINE
  8
0
 62
7
 10
6.310000000000024
 20
10.53499994666666
 30
0
 11
6.310000000000024
 21
10.59999994666666
 31
0
  0
LINE
  8
0
 62
7
 10
6.310000000000024
 20
10.59999994666666
 30
0
 11
7.370000000000023
 21
10.59999994666666
 31
0
  0
LINE
  8
0
 62
7
 10
7.370000000000023
 20
10.71833322666666
 30
0
 11
6.310000000000024
 21
10.71833322666666
 31
0
  0
LINE
  8
0
 62
7
 10
7.370000000000023
 20
10.78333322666666
 30
0
 11
7.370000000000023
 21
10.71833322666666
 31
0
  0
LINE
  8
0
 62
7
 10
6.310000000000024
 20
10.71833322666666
 30
0
 11
6.310000000000024
 21
10.78333322666666
 31
0
  0
LINE
  8
0
 62
7
 10
6.310000000000024
 20
10.78333322666666
 30
0
 11
7.370000000000023
 21
10.78333322666666
 31
0
  0
LINE
  8
0
 62
7
  6
DASHED
 10
7.370000000000023
 20
10.90166666666666
 30
0
 11
6.310000000000024
 21
10.90166666666666
 31
0
  0
LINE
  8
0
 62
7
  6
DASHED
 10
7.370000000000023
 20
10.96666666666666
 30
0
 11
7.370000000000023
 21
10.90166666666666
 31
0
  0
LINE
  8
0
 62
7
  6
DASHED
 10
6.310000000000024
 20
10.90166666666666
 30
0
 11
6.310000000000024
 21
10.96666666666666
 31
0
  0
LINE
  8
0
 62
7
  6
DASHED
 10
6.310000000000024
 20
10.96666666666666
 30
0
 11
7.370000000000023
 21
10.96666666666666
 31
0
  0
LINE
  8
0
 62
7
 10
6.952313792525392
 20
3.815000031888495
 30
0
 11
6.952313792525392
 21
3.400000000000001
 31
0
  0
LINE
  8
0
 62
7
 10
7.0579688917871
 20
3.461000000000001
 30
0
 11
6.952313792525392
 21
3.400000000000001
 31
0
  0
LINE
  8
0
 62
7
 10
6.846658693263695
 20
3.461000000000001
 30
0
 11
7.0579688917871
 21
3.461000000000001
 31
0
  0
LINE
  8
0
 62
7
 10
6.952313792525392
 20
3.400000000000001
 30
0
 11
6.846658693263695
 21
3.461000000000001
 31
0
  0
LINE
  8
0
 62
7
 10
5.654999968113971
 20
4.457313792525382
 30
0
 11
6.310000031895671
 21
4.457313792525382
 31
0
  0
LINE
  8
0
 62
7
 10
5.012686207474633
 20
3.250000000000001
 30
0
 11
5.012686207474633
 21
3.815000031918752
 31
0
  0
LINE
  8
0
 62
7
 10
4.595000000000022
 20
3.666613295063901
 30
0
 11
4.595000000000022
 21
3.250000000000001
 31
0
  0
LINE
  8
0
 62
7
 10
5.655000000000022
 20
3.250000000000001
 30
0
 11
5.655000000000022
 21
3.5003551105579
 31
0
  0
LINE
  8
0
 62
7
 10
4.595000000000022
 20
3.250000000000001
 30
0
 11
5.655000000000022
 21
3.250000000000001
 31
0
  0
LINE
  8
0
 62
7
 10
4.595000000000022
 20
4.040084728001669
 30
0
 11
4.595000000000022
 21
3.575512972215031
 31
0
  0
LINE
  8
0
 62
7
 10
5.655000000000022
 20
3.409254787709025
 30
0
 11
5.655000000000022
 21
3.593059872736102
 31
0
  0
LINE
  8
0
 62
7
 10
4.595000000000022
 20
3.575512972215031
 30
0
 11
5.655000000000022
 21
3.409254787709025
 31
0
  0
LINE
  8
0
 62
7
 10
4.595000000000022
 20
4.463376760596058
 30
0
 11
4.595000000000022
 21
3.94269545307597
 31
0
  0
LINE
  8
0
 62
7
 10
5.655000000000022
 20
3.504430609792501
 30
0
 11
5.655000000000022
 21
3.593059872736102
 31
0
  0
LINE
  8
0
 62
7
 10
4.595000000000022
 20
3.94269545307597
 30
0
 11
5.655000000000022
 21
3.504430609792501
 31
0
  0
LINE
  8
0
 62
7
 10
4.595000000000022
 20
4.875
 30
0
 11
4.595000000000022
 21
4.352654319228921
 31
0
  0
LINE
  8
0
 62
7
 10
4.801155485837852
 20
4.875
 30
0
 11
4.595000000000022
 21
4.875
 31
0
  0
LINE
  8
0
 62
7
 10
4.595000000000022
 20
4.352654319228921
 30
0
 11
5.655000000000022
 21
3.593059872736102
 31
0
  0
LINE
  8
0
 62
7
 10
5.271991838609833
 20
4.875
 30
0
 11
4.68619832819725
 21
4.875
 31
0
  0
LINE
  8
0
 62
7
 10
5.593896136135982
 20
3.732767034080699
 30
0
 11
5.655000000000022
 21
3.776659524466487
 31
0
  0
LINE
  8
0
 62
7
 10
4.68619832819725
 20
4.875
 30
0
 11
5.593896136135982
 21
3.732767034080699
 31
0
  0
LINE
  8
0
 62
7
 10
5.65452191861505
 20
4.875
 30
0
 11
5.172643631120792
 21
4.875
 31
0
  0
LINE
  8
0
 62
7
 10
5.668160138031771
 20
3.815000000000001
 30
0
 11
5.708374761306361
 21
3.815000000000001
 31
0
  0
LINE
  8
0
 62
7
 10
5.172643631120792
 20
4.875
 30
0
 11
5.668160138031771
 21
3.815000000000001
 31
0
  0
LINE
  8
0
 62
7
 10
6.010533569505832
 20
4.875
 30
0
 11
5.562672226976559
 21
4.875
 31
0
  0
LINE
  8
0
 62
7
 10
5.778679963934909
 20
3.815000000000001
 30
0
 11
5.97831430355266
 21
3.815000000000001
 31
0
  0
LINE
  8
0
 62
7
 10
5.562672226976559
 20
4.875
 30
0
 11
5.778679963934909
 21
3.815000000000001
 31
0
  0
LINE
  8
0
 62
7
 10
6.373289961106632
 20
4.875
 30
0
 11
5.920492004122353
 21
4.875
 31
0
  0
LINE
  8
0
 62
7
 10
5.888272738169203
 20
3.815000000000001
 30
0
 11
6.088301887844381
 21
3.815000000000001
 31
0
  0
LINE
  8
0
 62
7
 10
5.920492004122353
 20
4.875
 30
0
 11
5.888272738169203
 21
3.815000000000001
 31
0
  0
LINE
  8
0
 62
7
 10
6.752356593619069
 20
4.875
 30
0
 11
6.280093932889163
 21
4.875
 31
0
  0
LINE
  8
0
 62
7
 10
5.995105859626901
 20
3.815000000000001
 30
0
 11
6.098472528689581
 21
3.815000000000001
 31
0
  0
LINE
  8
0
 62
7
 10
6.280093932889163
 20
4.875
 30
0
 11
5.995105859626901
 21
3.815000000000001
 31
0
  0
LINE
  8
0
 62
7
 10
7.263874966188502
 20
4.875
 30
0
 11
6.650868870948712
 21
4.875
 31
0
  0
LINE
  8
0
 62
7
 10
6.650868870948712
 20
4.875
 30
0
 11
6.098472528689581
 21
3.815000000000001
 31
0
  0
LINE
  8
0
 62
7
 10
7.370000000000023
 20
4.875
 30
0
 11
7.142743375023461
 21
4.875
 31
0
  0
LINE
  8
0
 62
7
 10
7.370000000000023
 20
4.430134569261462
 30
0
 11
7.370000000000023
 21
4.875
 31
0
  0
LINE
  8
0
 62
7
 10
6.237717691196712
 20
3.870323730956262
 30
0
 11
6.269202993370481
 21
3.815000000000001
 31
0
  0
LINE
  8
0
 62
7
 10
7.142743375023461
 20
4.875
 30
0
 11
6.237717691196712
 21
3.870323730956262
 31
0
  0
LINE
  8
0
 62
7
 10
7.370000000000023
 20
4.007719877808023
 30
0
 11
7.370000000000023
 21
4.54150823230061
 31
0
  0
LINE
  8
0
 62
7
 10
6.310000000000024
 20
3.768820227996995
 30
0
 11
6.310000000000024
 21
3.743314405047292
 31
0
  0
LINE
  8
0
 62
7
 10
7.370000000000023
 20
4.54150823230061
 30
0
 11
6.310000000000024
 21
3.768820227996995
 31
0
  0
LINE
  8
0
 62
7
 10
7.370000000000023
 20
3.661004674075003
 30
0
 11
7.370000000000023
 21
4.10590098950833
 31
0
  0
LINE
  8
0
 62
7
 10
6.310000000000024
 20
3.643778044965152
 30
0
 11
6.310000000000024
 21
3.424958512391569
 31
0
  0
LINE
  8
0
 62
7
 10
7.370000000000023
 20
4.10590098950833
 30
0
 11
6.310000000000024
 21
3.643778044965152
 31
0
  0
LINE
  8
0
 62
7
 10
7.370000000000023
 20
3.380000000000001
 30
0
 11
7.370000000000023
 21
3.753209163904131
 31
0
  0
LINE
  8
0
 62
7
 10
6.310000000000024
 20
3.517163002220701
 30
0
 11
6.310000000000024
 21
3.380000000000001
 31
0
  0
LINE
  8
0
 62
7
 10
7.370000000000023
 20
3.753209163904131
 30
0
 11
6.310000000000024
 21
3.517163002220701
 31
0
  0
LINE
  8
0
 62
7
 10
5.655000000000022
 20
3.593059872736102
 30
0
 11
5.655000000000022
 21
3.776659524466487
 31
0
  0
LINE
  8
0
 62
7
 10
5.655000000000022
 20
3.593059872736102
 30
0
 11
5.655000000000022
 21
3.60181988471819
 31
0
  0
LINE
  8
0
 62
7
 10
5.655000000000022
 20
3.593059872736102
 30
0
 11
5.655000000000022
 21
3.703782314103241
 31
0
  0
LINE
  8
0
 62
7
 10
5.655000000000022
 20
3.776659524466487
 30
0
 11
5.708374761306361
 21
3.815000000000001
 31
0
  0
LINE
  8
0
 62
7
 10
5.708374761306361
 20
3.815000000000001
 30
0
 11
5.870529655573399
 21
3.815000000000001
 31
0
  0
LINE
  8
0
 62
7
 10
6.098472528689581
 20
3.815000000000001
 30
0
 11
6.199960251359961
 21
3.815000000000001
 31
0
  0
LINE
  8
0
 62
7
 10
6.098472528689581
 20
3.815000000000001
 30
0
 11
6.269202993370481
 21
3.815000000000001
 31
0
  0
LINE
  8
0
 62
7
 10
6.269202993370481
 20
3.815000000000001
 30
0
 11
6.310000000000024
 21
3.743314405047292
 31
0
  0
LINE
  8
0
 62
7
 10
6.310000000000024
 20
3.743314405047292
 30
0
 11
6.310000000000024
 21
3.545596933264843
 31
0
  0
LINE
  8
0
 62
7
 10
5.182928195792892
 20
4.618403883495151
 30
0
 11
5.182928195792892
 21
4.73840388349515
 31
0
  0
LINE
  8
0
 62
7
 10
5.258528195792891
 20
4.73840388349515
 30
0
 11
5.204528195792892
 21
4.678403883495149
 31
0
  0
LINE
  8
0
 62
7
 10
5.204528195792892
 20
4.678403883495149
 30
0
 11
5.258528195792891
 21
4.618403883495151
 31
0
  0
LINE
  8
0
 62
7
 10
5.204528195792892
 20
4.678403883495149
 30
0
 11
5.182928195792892
 21
4.65440388349515
 31
0
  0
LINE
  8
0
 62
7
 10
5.366528195792892
 20
4.73840388349515
 30
0
 11
5.29092819579289
 21
4.73840388349515
 31
0
  0
LINE
  8
0
 62
7
 10
5.29092819579289
 20
4.73840388349515
 30
0
 11
5.29092819579289
 21
4.678403883495149
 31
0
  0
LINE
  8
0
 62
7
 10
5.29092819579289
 20
4.618403883495151
 30
0
 11
5.366528195792892
 21
4.618403883495151
 31
0
  0
LINE
  8
0
 62
7
 10
5.355728195792891
 20
4.678403883495149
 30
0
 11
5.29092819579289
 21
4.678403883495149
 31
0
  0
LINE
  8
0
 62
7
 10
5.29092819579289
 20
4.678403883495149
 30
0
 11
5.29092819579289
 21
4.618403883495151
 31
0
  0
LINE
  8
0
 62
7
 10
5.398928195792891
 20
4.618403883495151
 30
0
 11
5.398928195792891
 21
4.73840388349515
 31
0
  0
LINE
  8
0
 62
7
 10
5.398928195792891
 20
4.73840388349515
 30
0
 11
5.474528195792892
 21
4.618403883495151
 31
0
  0
LINE
  8
0
 62
7
 10
5.474528195792892
 20
4.618403883495151
 30
0
 11
5.474528195792892
 21
4.73840388349515
 31
0
  0
LINE
  8
0
 62
7
 10
5.506928195792892
 20
4.618403883495151
 30
0
 11
5.506928195792892
 21
4.73840388349515
 31
0
  0
LINE
  8
0
 62
7
 10
5.506928195792892
 20
4.73840388349515
 30
0
 11
5.582528195792893
 21
4.618403883495151
 31
0
  0
LINE
  8
0
 62
7
 10
5.582528195792893
 20
4.618403883495151
 30
0
 11
5.582528195792893
 21
4.73840388349515
 31
0
  0
LINE
  8
0
 62
7
 10
5.690528195792892
 20
4.70240388349515
 30
0
 11
5.687828195792891
 21
4.714403883495151
 31
0
  0
LINE
  8
0
 62
7
 10
5.687828195792891
 20
4.714403883495151
 30
0
 11
5.682428195792891
 21
4.72340388349515
 31
0
  0
LINE
  8
0
 62
7
 10
5.682428195792891
 20
4.72340388349515
 30
0
 11
5.677028195792891
 21
4.72940388349515
 31
0
  0
LINE
  8
0
 62
7
 10
5.677028195792891
 20
4.72940388349515
 30
0
 11
5.668928195792891
 21
4.73540388349515
 31
0
  0
LINE
  8
0
 62
7
 10
5.668928195792891
 20
4.73540388349515
 30
0
 11
5.660828195792892
 21
4.73840388349515
 31
0
  0
LINE
  8
0
 62
7
 10
5.660828195792892
 20
4.73840388349515
 30
0
 11
5.644628195792892
 21
4.73840388349515
 31
0
  0
LINE
  8
0
 62
7
 10
5.644628195792892
 20
4.73840388349515
 30
0
 11
5.636528195792891
 21
4.73540388349515
 31
0
  0
LINE
  8
0
 62
7
 10
5.636528195792891
 20
4.73540388349515
 30
0
 11
5.628428195792891
 21
4.72940388349515
 31
0
  0
LINE
  8
0
 62
7
 10
5.628428195792891
 20
4.72940388349515
 30
0
 11
5.623028195792891
 21
4.72340388349515
 31
0
  0
LINE
  8
0
 62
7
 10
5.623028195792891
 20
4.72340388349515
 30
0
 11
5.617628195792891
 21
4.714403883495151
 31
0
  0
LINE
  8
0
 62
7
 10
5.617628195792891
 20
4.714403883495151
 30
0
 11
5.614928195792891
 21
4.70240388349515
 31
0
  0
LINE
  8
0
 62
7
 10
5.614928195792891
 20
4.70240388349515
 30
0
 11
5.614928195792891
 21
4.65440388349515
 31
0
  0
LINE
  8
0
 62
7
 10
5.614928195792891
 20
4.65440388349515
 30
0
 11
5.617628195792891
 21
4.64240388349515
 31
0
  0
LINE
  8
0
 62
7
 10
5.617628195792891
 20
4.64240388349515
 30
0
 11
5.623028195792891
 21
4.63340388349515
 31
0
  0
LINE
  8
0
 62
7
 10
5.623028195792891
 20
4.63340388349515
 30
0
 11
5.628428195792891
 21
4.62740388349515
 31
0
  0
LINE
  8
0
 62
7
 10
5.628428195792891
 20
4.62740388349515
 30
0
 11
5.636528195792891
 21
4.621403883495151
 31
0
  0
LINE
  8
0
 62
7
 10
5.636528195792891
 20
4.621403883495151
 30
0
 11
5.644628195792892
 21
4.618403883495151
 31
0
  0
LINE
  8
0
 62
7
 10
5.644628195792892
 20
4.618403883495151
 30
0
 11
5.660828195792892
 21
4.618403883495151
 31
0
  0
LINE
  8
0
 62
7
 10
5.660828195792892
 20
4.618403883495151
 30
0
 11
5.668928195792891
 21
4.621403883495151
 31
0
  0
LINE
  8
0
 62
7
 10
5.668928195792891
 20
4.621403883495151
 30
0
 11
5.677028195792891
 21
4.62740388349515
 31
0
  0
LINE
  8
0
 62
7
 10
5.677028195792891
 20
4.62740388349515
 30
0
 11
5.682428195792891
 21
4.63340388349515
 31
0
  0
LINE
  8
0
 62
7
 10
5.682428195792891
 20
4.63340388349515
 30
0
 11
5.687828195792891
 21
4.64240388349515
 31
0
  0
LINE
  8
0
 62
7
 10
5.687828195792891
 20
4.64240388349515
 30
0
 11
5.690528195792892
 21
4.65440388349515
 31
0
  0
LINE
  8
0
 62
7
 10
5.690528195792892
 20
4.65440388349515
 30
0
 11
5.690528195792892
 21
4.678403883495149
 31
0
  0
LINE
  8
0
 62
7
 10
5.690528195792892
 20
4.678403883495149
 30
0
 11
5.658128195792892
 21
4.678403883495149
 31
0
  0
LINE
  8
0
 62
7
 10
5.76882819579289
 20
4.73840388349515
 30
0
 11
5.752628195792891
 21
4.73840388349515
 31
0
  0
LINE
  8
0
 62
7
 10
5.752628195792891
 20
4.73840388349515
 30
0
 11
5.744528195792892
 21
4.73540388349515
 31
0
  0
LINE
  8
0
 62
7
 10
5.744528195792892
 20
4.73540388349515
 30
0
 11
5.736428195792891
 21
4.72940388349515
 31
0
  0
LINE
  8
0
 62
7
 10
5.736428195792891
 20
4.72940388349515
 30
0
 11
5.731028195792891
 21
4.72340388349515
 31
0
  0
LINE
  8
0
 62
7
 10
5.731028195792891
 20
4.72340388349515
 30
0
 11
5.725628195792892
 21
4.714403883495151
 31
0
  0
LINE
  8
0
 62
7
 10
5.725628195792892
 20
4.714403883495151
 30
0
 11
5.722928195792893
 21
4.70240388349515
 31
0
  0
LINE
  8
0
 62
7
 10
5.722928195792893
 20
4.70240388349515
 30
0
 11
5.722928195792893
 21
4.65440388349515
 31
0
  0
LINE
  8
0
 62
7
 10
5.722928195792893
 20
4.65440388349515
 30
0
 11
5.725628195792892
 21
4.64240388349515
 31
0
  0
LINE
  8
0
 62
7
 10
5.725628195792892
 20
4.64240388349515
 30
0
 11
5.731028195792891
 21
4.63340388349515
 31
0
  0
LINE
  8
0
 62
7
 10
5.731028195792891
 20
4.63340388349515
 30
0
 11
5.736428195792891
 21
4.62740388349515
 31
0
  0
LINE
  8
0
 62
7
 10
5.736428195792891
 20
4.62740388349515
 30
0
 11
5.744528195792892
 21
4.621403883495151
 31
0
  0
LINE
  8
0
 62
7
 10
5.744528195792892
 20
4.621403883495151
 30
0
 11
5.752628195792891
 21
4.618403883495151
 31
0
  0
LINE
  8
0
 62
7
 10
5.752628195792891
 20
4.618403883495151
 30
0
 11
5.76882819579289
 21
4.618403883495151
 31
0
  0
LINE
  8
0
 62
7
 10
5.76882819579289
 20
4.618403883495151
 30
0
 11
5.776928195792891
 21
4.621403883495151
 31
0
  0
LINE
  8
0
 62
7
 10
5.776928195792891
 20
4.621403883495151
 30
0
 11
5.785028195792893
 21
4.62740388349515
 31
0
  0
LINE
  8
0
 62
7
 10
5.785028195792893
 20
4.62740388349515
 30
0
 11
5.790428195792892
 21
4.63340388349515
 31
0
  0
LINE
  8
0
 62
7
 10
5.790428195792892
 20
4.63340388349515
 30
0
 11
5.795828195792891
 21
4.64240388349515
 31
0
  0
LINE
  8
0
 62
7
 10
5.795828195792891
 20
4.64240388349515
 30
0
 11
5.798528195792891
 21
4.65440388349515
 31
0
  0
LINE
  8
0
 62
7
 10
5.798528195792891
 20
4.65440388349515
 30
0
 11
5.798528195792891
 21
4.70240388349515
 31
0
  0
LINE
  8
0
 62
7
 10
5.798528195792891
 20
4.70240388349515
 30
0
 11
5.795828195792891
 21
4.714403883495151
 31
0
  0
LINE
  8
0
 62
7
 10
5.795828195792891
 20
4.714403883495151
 30
0
 11
5.790428195792892
 21
4.72340388349515
 31
0
  0
LINE
  8
0
 62
7
 10
5.790428195792892
 20
4.72340388349515
 30
0
 11
5.785028195792893
 21
4.72940388349515
 31
0
  0
LINE
  8
0
 62
7
 10
5.785028195792893
 20
4.72940388349515
 30
0
 11
5.776928195792891
 21
4.73540388349515
 31
0
  0
LINE
  8
0
 62
7
 10
5.776928195792891
 20
4.73540388349515
 30
0
 11
5.76882819579289
 21
4.73840388349515
 31
0
  0
LINE
  8
0
 62
7
 10
5.820128195792891
 20
4.73840388349515
 30
0
 11
5.857928195792891
 21
4.73840388349515
 31
0
  0
LINE
  8
0
 62
7
 10
5.857928195792891
 20
4.73840388349515
 30
0
 11
5.857928195792891
 21
4.618403883495151
 31
0
  0
LINE
  8
0
 62
7
 10
5.857928195792891
 20
4.73840388349515
 30
0
 11
5.895728195792891
 21
4.73840388349515
 31
0
  0
LINE
  8
0
 62
7
 10
5.928128195792891
 20
4.73840388349515
 30
0
 11
5.965928195792891
 21
4.73840388349515
 31
0
  0
LINE
  8
0
 62
7
 10
5.965928195792891
 20
4.73840388349515
 30
0
 11
5.965928195792891
 21
4.618403883495151
 31
0
  0
LINE
  8
0
 62
7
 10
5.965928195792891
 20
4.73840388349515
 30
0
 11
6.003728195792892
 21
4.73840388349515
 31
0
  0
LINE
  8
0
 62
7
 10
6.122528195792892
 20
4.66040388349515
 30
0
 11
6.176528195792891
 21
4.66040388349515
 31
0
  0
LINE
  8
0
 62
7
 10
6.284528195792891
 20
4.73840388349515
 30
0
 11
6.322328195792891
 21
4.73840388349515
 31
0
  0
LINE
  8
0
 62
7
 10
6.322328195792891
 20
4.73840388349515
 30
0
 11
6.322328195792891
 21
4.618403883495151
 31
0
  0
LINE
  8
0
 62
7
 10
6.322328195792891
 20
4.73840388349515
 30
0
 11
6.360128195792891
 21
4.73840388349515
 31
0
  0
LINE
  8
0
 62
7
 10
6.392528195792892
 20
4.618403883495151
 30
0
 11
6.392528195792892
 21
4.73840388349515
 31
0
  0
LINE
  8
0
 62
7
 10
6.392528195792892
 20
4.73840388349515
 30
0
 11
6.443828195792891
 21
4.73840388349515
 31
0
  0
LINE
  8
0
 62
7
 10
6.443828195792891
 20
4.73840388349515
 30
0
 11
6.454628195792892
 21
4.73540388349515
 31
0
  0
LINE
  8
0
 62
7
 10
6.454628195792892
 20
4.73540388349515
 30
0
 11
6.462728195792891
 21
4.72940388349515
 31
0
  0
LINE
  8
0
 62
7
 10
6.462728195792891
 20
4.72940388349515
 30
0
 11
6.465428195792891
 21
4.72340388349515
 31
0
  0
LINE
  8
0
 62
7
 10
6.465428195792891
 20
4.72340388349515
 30
0
 11
6.468128195792892
 21
4.714403883495151
 31
0
  0
LINE
  8
0
 62
7
 10
6.468128195792892
 20
4.714403883495151
 30
0
 11
6.468128195792892
 21
4.70240388349515
 31
0
  0
LINE
  8
0
 62
7
 10
6.468128195792892
 20
4.70240388349515
 30
0
 11
6.465428195792891
 21
4.69340388349515
 31
0
  0
LINE
  8
0
 62
7
 10
6.465428195792891
 20
4.69340388349515
 30
0
 11
6.462728195792891
 21
4.68740388349515
 31
0
  0
LINE
  8
0
 62
7
 10
6.462728195792891
 20
4.68740388349515
 30
0
 11
6.454628195792892
 21
4.681403883495149
 31
0
  0
LINE
  8
0
 62
7
 10
6.454628195792892
 20
4.681403883495149
 30
0
 11
6.443828195792891
 21
4.678403883495149
 31
0
  0
LINE
  8
0
 62
7
 10
6.443828195792891
 20
4.678403883495149
 30
0
 11
6.43572819579289
 21
4.678403883495149
 31
0
  0
LINE
  8
0
 62
7
 10
6.43572819579289
 20
4.678403883495149
 30
0
 11
6.468128195792892
 21
4.618403883495151
 31
0
  0
LINE
  8
0
 62
7
 10
6.43572819579289
 20
4.678403883495149
 30
0
 11
6.392528195792892
 21
4.678403883495149
 31
0
  0
LINE
  8
0
 62
7
 10
6.56532819579289
 20
4.73840388349515
 30
0
 11
6.489728195792892
 21
4.73840388349515
 31
0
  0
LINE
  8
0
 62
7
 10
6.489728195792892
 20
4.73840388349515
 30
0
 11
6.489728195792892
 21
4.678403883495149
 31
0
  0
LINE
  8
0
 62
7
 10
6.489728195792892
 20
4.618403883495151
 30
0
 11
6.56532819579289
 21
4.618403883495151
 31
0
  0
LINE
  8
0
 62
7
 10
6.554528195792891
 20
4.678403883495149
 30
0
 11
6.489728195792892
 21
4.678403883495149
 31
0
  0
LINE
  8
0
 62
7
 10
6.489728195792892
 20
4.678403883495149
 30
0
 11
6.489728195792892
 21
4.618403883495151
 31
0
  0
LINE
  8
0
 62
7
 10
6.597728195792889
 20
4.618403883495151
 30
0
 11
6.597728195792889
 21
4.678403883495149
 31
0
  0
LINE
  8
0
 62
7
 10
6.597728195792889
 20
4.73840388349515
 30
0
 11
6.649028195792891
 21
4.73840388349515
 31
0
  0
LINE
  8
0
 62
7
 10
6.649028195792891
 20
4.73840388349515
 30
0
 11
6.65982819579289
 21
4.73540388349515
 31
0
  0
LINE
  8
0
 62
7
 10
6.65982819579289
 20
4.73540388349515
 30
0
 11
6.667928195792891
 21
4.72940388349515
 31
0
  0
LINE
  8
0
 62
7
 10
6.667928195792891
 20
4.72940388349515
 30
0
 11
6.67062819579289
 21
4.72340388349515
 31
0
  0
LINE
  8
0
 62
7
 10
6.67062819579289
 20
4.72340388349515
 30
0
 11
6.673328195792891
 21
4.714403883495151
 31
0
  0
LINE
  8
0
 62
7
 10
6.673328195792891
 20
4.714403883495151
 30
0
 11
6.673328195792891
 21
4.70240388349515
 31
0
  0
LINE
  8
0
 62
7
 10
6.673328195792891
 20
4.70240388349515
 30
0
 11
6.67062819579289
 21
4.69340388349515
 31
0
  0
LINE
  8
0
 62
7
 10
6.67062819579289
 20
4.69340388349515
 30
0
 11
6.667928195792891
 21
4.68740388349515
 31
0
  0
LINE
  8
0
 62
7
 10
6.667928195792891
 20
4.68740388349515
 30
0
 11
6.65982819579289
 21
4.681403883495149
 31
0
  0
LINE
  8
0
 62
7
 10
6.65982819579289
 20
4.681403883495149
 30
0
 11
6.649028195792891
 21
4.678403883495149
 31
0
  0
LINE
  8
0
 62
7
 10
6.649028195792891
 20
4.678403883495149
 30
0
 11
6.597728195792889
 21
4.678403883495149
 31
0
  0
LINE
  8
0
 62
7
 10
6.597728195792889
 20
4.678403883495149
 30
0
 11
6.597728195792889
 21
4.73840388349515
 31
0
  0
LINE
  8
0
 62
7
 10
6.69492819579289
 20
4.618403883495151
 30
0
 11
6.69492819579289
 21
4.678403883495149
 31
0
  0
LINE
  8
0
 62
7
 10
6.69492819579289
 20
4.73840388349515
 30
0
 11
6.746228195792892
 21
4.73840388349515
 31
0
  0
LINE
  8
0
 62
7
 10
6.746228195792892
 20
4.73840388349515
 30
0
 11
6.757028195792891
 21
4.73540388349515
 31
0
  0
LINE
  8
0
 62
7
 10
6.757028195792891
 20
4.73540388349515
 30
0
 11
6.76512819579289
 21
4.72940388349515
 31
0
  0
LINE
  8
0
 62
7
 10
6.76512819579289
 20
4.72940388349515
 30
0
 11
6.767828195792891
 21
4.72340388349515
 31
0
  0
LINE
  8
0
 62
7
 10
6.767828195792891
 20
4.72340388349515
 30
0
 11
6.770528195792892
 21
4.714403883495151
 31
0
  0
LINE
  8
0
 62
7
 10
6.770528195792892
 20
4.714403883495151
 30
0
 11
6.770528195792892
 21
4.70240388349515
 31
0
  0
LINE
  8
0
 62
7
 10
6.770528195792892
 20
4.70240388349515
 30
0
 11
6.767828195792891
 21
4.69340388349515
 31
0
  0
LINE
  8
0
 62
7
 10
6.767828195792891
 20
4.69340388349515
 30
0
 11
6.76512819579289
 21
4.68740388349515
 31
0
  0
LINE
  8
0
 62
7
 10
6.76512819579289
 20
4.68740388349515
 30
0
 11
6.757028195792891
 21
4.681403883495149
 31
0
  0
LINE
  8
0
 62
7
 10
6.757028195792891
 20
4.681403883495149
 30
0
 11
6.746228195792892
 21
4.678403883495149
 31
0
  0
LINE
  8
0
 62
7
 10
6.746228195792892
 20
4.678403883495149
 30
0
 11
6.69492819579289
 21
4.678403883495149
 31
0
  0
LINE
  8
0
 62
7
 10
6.69492819579289
 20
4.678403883495149
 30
0
 11
6.69492819579289
 21
4.73840388349515
 31
0
  0
LINE
  8
0
 62
7
 10
6.867728195792892
 20
4.73840388349515
 30
0
 11
6.792128195792891
 21
4.73840388349515
 31
0
  0
LINE
  8
0
 62
7
 10
6.792128195792891
 20
4.73840388349515
 30
0
 11
6.792128195792891
 21
4.678403883495149
 31
0
  0
LINE
  8
0
 62
7
 10
6.792128195792891
 20
4.618403883495151
 30
0
 11
6.867728195792892
 21
4.618403883495151
 31
0
  0
LINE
  8
0
 62
7
 10
6.856928195792891
 20
4.678403883495149
 30
0
 11
6.792128195792891
 21
4.678403883495149
 31
0
  0
LINE
  8
0
 62
7
 10
6.792128195792891
 20
4.678403883495149
 30
0
 11
6.792128195792891
 21
4.618403883495151
 31
0
  0
LINE
  8
0
 62
7
 10
4.375000000000023
 20
2.890000000000001
 30
0
 11
4.375000000000023
 21
3.010000000000001
 31
0
  0
LINE
  8
0
 62
7
 10
4.375000000000023
 20
3.010000000000001
 30
0
 11
4.418200000000024
 21
2.914000000000001
 31
0
  0
LINE
  8
0
 62
7
 10
4.418200000000024
 20
2.914000000000001
 30
0
 11
4.461400000000023
 21
3.010000000000001
 31
0
  0
LINE
  8
0
 62
7
 10
4.461400000000023
 20
3.010000000000001
 30
0
 11
4.461400000000023
 21
2.890000000000001
 31
0
  0
LINE
  8
0
 62
7
 10
4.493800000000023
 20
2.992000000000001
 30
0
 11
4.499200000000022
 21
3.001000000000001
 31
0
  0
LINE
  8
0
 62
7
 10
4.499200000000022
 20
3.001000000000001
 30
0
 11
4.507300000000023
 21
3.007000000000001
 31
0
  0
LINE
  8
0
 62
7
 10
4.507300000000023
 20
3.007000000000001
 30
0
 11
4.518100000000024
 21
3.010000000000001
 31
0
  0
LINE
  8
0
 62
7
 10
4.518100000000024
 20
3.010000000000001
 30
0
 11
4.534300000000023
 21
3.010000000000001
 31
0
  0
LINE
  8
0
 62
7
 10
4.534300000000023
 20
3.010000000000001
 30
0
 11
4.545100000000024
 21
3.007000000000001
 31
0
  0
LINE
  8
0
 62
7
 10
4.545100000000024
 20
3.007000000000001
 30
0
 11
4.553200000000024
 21
3.001000000000001
 31
0
  0
LINE
  8
0
 62
7
 10
4.553200000000024
 20
3.001000000000001
 30
0
 11
4.558600000000023
 21
2.992000000000001
 31
0
  0
LINE
  8
0
 62
7
 10
4.558600000000023
 20
2.992000000000001
 30
0
 11
4.558600000000023
 21
2.980000000000001
 31
0
  0
LINE
  8
0
 62
7
 10
4.558600000000023
 20
2.980000000000001
 30
0
 11
4.553200000000024
 21
2.968000000000002
 31
0
  0
LINE
  8
0
 62
7
 10
4.553200000000024
 20
2.968000000000002
 30
0
 11
4.493800000000023
 21
2.890000000000001
 31
0
  0
LINE
  8
0
 62
7
 10
4.493800000000023
 20
2.890000000000001
 30
0
 11
4.558600000000023
 21
2.890000000000001
 31
0
  0
LINE
  8
0
 62
7
 10
4.591000000000023
 20
3.010000000000001
 30
0
 11
4.628800000000023
 21
2.890000000000001
 31
0
  0
LINE
  8
0
 62
7
 10
4.628800000000023
 20
2.890000000000001
 30
0
 11
4.666600000000024
 21
3.010000000000001
 31
0
  0
LINE
  8
0
 62
7
 10
4.699000000000023
 20
2.992000000000001
 30
0
 11
4.704400000000024
 21
3.001000000000001
 31
0
  0
LINE
  8
0
 62
7
 10
4.704400000000024
 20
3.001000000000001
 30
0
 11
4.712500000000023
 21
3.007000000000001
 31
0
  0
LINE
  8
0
 62
7
 10
4.712500000000023
 20
3.007000000000001
 30
0
 11
4.723300000000023
 21
3.010000000000001
 31
0
  0
LINE
  8
0
 62
7
 10
4.723300000000023
 20
3.010000000000001
 30
0
 11
4.739500000000024
 21
3.010000000000001
 31
0
  0
LINE
  8
0
 62
7
 10
4.739500000000024
 20
3.010000000000001
 30
0
 11
4.750300000000023
 21
3.007000000000001
 31
0
  0
LINE
  8
0
 62
7
 10
4.750300000000023
 20
3.007000000000001
 30
0
 11
4.758400000000022
 21
3.001000000000001
 31
0
  0
LINE
  8
0
 62
7
 10
4.758400000000022
 20
3.001000000000001
 30
0
 11
4.763800000000024
 21
2.992000000000001
 31
0
  0
LINE
  8
0
 62
7
 10
4.763800000000024
 20
2.992000000000001
 30
0
 11
4.763800000000024
 21
2.980000000000001
 31
0
  0
LINE
  8
0
 62
7
 10
4.763800000000024
 20
2.980000000000001
 30
0
 11
4.758400000000022
 21
2.968000000000002
 31
0
  0
LINE
  8
0
 62
7
 10
4.758400000000022
 20
2.968000000000002
 30
0
 11
4.699000000000023
 21
2.890000000000001
 31
0
  0
LINE
  8
0
 62
7
 10
4.699000000000023
 20
2.890000000000001
 30
0
 11
4.763800000000024
 21
2.890000000000001
 31
0
  0
LINE
  8
0
 62
7
 10
4.823200000000024
 20
3.010000000000001
 30
0
 11
4.834000000000024
 21
3.010000000000001
 31
0
  0
LINE
  8
0
 62
7
 10
4.834000000000024
 20
3.010000000000001
 30
0
 11
4.842100000000023
 21
3.007000000000001
 31
0
  0
LINE
  8
0
 62
7
 10
4.842100000000023
 20
3.007000000000001
 30
0
 11
4.847500000000023
 21
3.001000000000001
 31
0
  0
LINE
  8
0
 62
7
 10
4.847500000000023
 20
3.001000000000001
 30
0
 11
4.852900000000022
 21
2.992000000000001
 31
0
  0
LINE
  8
0
 62
7
 10
4.852900000000022
 20
2.992000000000001
 30
0
 11
4.852900000000022
 21
2.980000000000001
 31
0
  0
LINE
  8
0
 62
7
 10
4.852900000000022
 20
2.980000000000001
 30
0
 11
4.850200000000024
 21
2.974000000000001
 31
0
  0
LINE
  8
0
 62
7
 10
4.850200000000024
 20
2.974000000000001
 30
0
 11
4.842100000000023
 21
2.965000000000001
 31
0
  0
LINE
  8
0
 62
7
 10
4.842100000000023
 20
2.965000000000001
 30
0
 11
4.834000000000024
 21
2.962000000000001
 31
0
  0
LINE
  8
0
 62
7
 10
4.834000000000024
 20
2.962000000000001
 30
0
 11
4.823200000000024
 21
2.962000000000001
 31
0
  0
LINE
  8
0
 62
7
 10
4.823200000000024
 20
2.962000000000001
 30
0
 11
4.815100000000023
 21
2.965000000000001
 31
0
  0
LINE
  8
0
 62
7
 10
4.815100000000023
 20
2.965000000000001
 30
0
 11
4.807000000000023
 21
2.974000000000001
 31
0
  0
LINE
  8
0
 62
7
 10
4.807000000000023
 20
2.974000000000001
 30
0
 11
4.804300000000024
 21
2.980000000000001
 31
0
  0
LINE
  8
0
 62
7
 10
4.804300000000024
 20
2.980000000000001
 30
0
 11
4.804300000000024
 21
2.992000000000001
 31
0
  0
LINE
  8
0
 62
7
 10
4.804300000000024
 20
2.992000000000001
 30
0
 11
4.809700000000023
 21
3.001000000000001
 31
0
  0
LINE
  8
0
 62
7
 10
4.809700000000023
 20
3.001000000000001
 30
0
 11
4.815100000000023
 21
3.007000000000001
 31
0
  0
LINE
  8
0
 62
7
 10
4.815100000000023
 20
3.007000000000001
 30
0
 11
4.823200000000024
 21
3.010000000000001
 31
0
  0
LINE
  8
0
 62
7
 10
4.823200000000024
 20
2.962000000000001
 30
0
 11
4.809700000000023
 21
2.956000000000001
 31
0
  0
LINE
  8
0
 62
7
 10
4.809700000000023
 20
2.956000000000001
 30
0
 11
4.801600000000023
 21
2.947000000000001
 31
0
  0
LINE
  8
0
 62
7
 10
4.801600000000023
 20
2.947000000000001
 30
0
 11
4.796200000000023
 21
2.935000000000001
 31
0
  0
LINE
  8
0
 62
7
 10
4.796200000000023
 20
2.935000000000001
 30
0
 11
4.796200000000023
 21
2.917000000000001
 31
0
  0
LINE
  8
0
 62
7
 10
4.796200000000023
 20
2.917000000000001
 30
0
 11
4.801600000000023
 21
2.905000000000001
 31
0
  0
LINE
  8
0
 62
7
 10
4.801600000000023
 20
2.905000000000001
 30
0
 11
4.809700000000023
 21
2.896000000000001
 31
0
  0
LINE
  8
0
 62
7
 10
4.809700000000023
 20
2.896000000000001
 30
0
 11
4.820500000000023
 21
2.890000000000001
 31
0
  0
LINE
  8
0
 62
7
 10
4.820500000000023
 20
2.890000000000001
 30
0
 11
4.836700000000023
 21
2.890000000000001
 31
0
  0
LINE
  8
0
 62
7
 10
4.836700000000023
 20
2.890000000000001
 30
0
 11
4.847500000000023
 21
2.896000000000001
 31
0
  0
LINE
  8
0
 62
7
 10
4.847500000000023
 20
2.896000000000001
 30
0
 11
4.855600000000023
 21
2.905000000000001
 31
0
  0
LINE
  8
0
 62
7
 10
4.855600000000023
 20
2.905000000000001
 30
0
 11
4.861000000000023
 21
2.917000000000001
 31
0
  0
LINE
  8
0
 62
7
 10
4.861000000000023
 20
2.917000000000001
 30
0
 11
4.861000000000023
 21
2.935000000000001
 31
0
  0
LINE
  8
0
 62
7
 10
4.861000000000023
 20
2.935000000000001
 30
0
 11
4.855600000000023
 21
2.947000000000001
 31
0
  0
LINE
  8
0
 62
7
 10
4.855600000000023
 20
2.947000000000001
 30
0
 11
4.847500000000023
 21
2.956000000000001
 31
0
  0
LINE
  8
0
 62
7
 10
4.847500000000023
 20
2.956000000000001
 30
0
 11
4.834000000000024
 21
2.962000000000001
 31
0
  0
LINE
  8
0
 62
7
 10
4.931200000000023
 20
3.010000000000001
 30
0
 11
4.942000000000024
 21
3.010000000000001
 31
0
  0
LINE
  8
0
 62
7
 10
4.942000000000024
 20
3.010000000000001
 30
0
 11
4.950100000000024
 21
3.007000000000001
 31
0
  0
LINE
  8
0
 62
7
 10
4.950100000000024
 20
3.007000000000001
 30
0
 11
4.955500000000023
 21
3.001000000000001
 31
0
  0
LINE
  8
0
 62
7
 10
4.955500000000023
 20
3.001000000000001
 30
0
 11
4.960900000000022
 21
2.992000000000001
 31
0
  0
LINE
  8
0
 62
7
 10
4.960900000000022
 20
2.992000000000001
 30
0
 11
4.960900000000022
 21
2.980000000000001
 31
0
  0
LINE
  8
0
 62
7
 10
4.960900000000022
 20
2.980000000000001
 30
0
 11
4.958200000000024
 21
2.974000000000001
 31
0
  0
LINE
  8
0
 62
7
 10
4.958200000000024
 20
2.974000000000001
 30
0
 11
4.950100000000024
 21
2.965000000000001
 31
0
  0
LINE
  8
0
 62
7
 10
4.950100000000024
 20
2.965000000000001
 30
0
 11
4.942000000000024
 21
2.962000000000001
 31
0
  0
LINE
  8
0
 62
7
 10
4.942000000000024
 20
2.962000000000001
 30
0
 11
4.931200000000023
 21
2.962000000000001
 31
0
  0
LINE
  8
0
 62
7
 10
4.931200000000023
 20
2.962000000000001
 30
0
 11
4.923100000000023
 21
2.965000000000001
 31
0
  0
LINE
  8
0
 62
7
 10
4.923100000000023
 20
2.965000000000001
 30
0
 11
4.915000000000023
 21
2.974000000000001
 31
0
  0
LINE
  8
0
 62
7
 10
4.915000000000023
 20
2.974000000000001
 30
0
 11
4.912300000000023
 21
2.980000000000001
 31
0
  0
LINE
  8
0
 62
7
 10
4.912300000000023
 20
2.980000000000001
 30
0
 11
4.912300000000023
 21
2.992000000000001
 31
0
  0
LINE
  8
0
 62
7
 10
4.912300000000023
 20
2.992000000000001
 30
0
 11
4.917700000000024
 21
3.001000000000001
 31
0
  0
LINE
  8
0
 62
7
 10
4.917700000000024
 20
3.001000000000001
 30
0
 11
4.923100000000023
 21
3.007000000000001
 31
0
  0
LINE
  8
0
 62
7
 10
4.923100000000023
 20
3.007000000000001
 30
0
 11
4.931200000000023
 21
3.010000000000001
 31
0
  0
LINE
  8
0
 62
7
 10
4.931200000000023
 20
2.962000000000001
 30
0
 11
4.917700000000024
 21
2.956000000000001
 31
0
  0
LINE
  8
0
 62
7
 10
4.917700000000024
 20
2.956000000000001
 30
0
 11
4.909600000000023
 21
2.947000000000001
 31
0
  0
LINE
  8
0
 62
7
 10
4.909600000000023
 20
2.947000000000001
 30
0
 11
4.904200000000023
 21
2.935000000000001
 31
0
  0
LINE
  8
0
 62
7
 10
4.904200000000023
 20
2.935000000000001
 30
0
 11
4.904200000000023
 21
2.917000000000001
 31
0
  0
LINE
  8
0
 62
7
 10
4.904200000000023
 20
2.917000000000001
 30
0
 11
4.909600000000023
 21
2.905000000000001
 31
0
  0
LINE
  8
0
 62
7
 10
4.909600000000023
 20
2.905000000000001
 30
0
 11
4.917700000000024
 21
2.896000000000001
 31
0
  0
LINE
  8
0
 62
7
 10
4.917700000000024
 20
2.896000000000001
 30
0
 11
4.928500000000024
 21
2.890000000000001
 31
0
  0
LINE
  8
0
 62
7
 10
4.928500000000024
 20
2.890000000000001
 30
0
 11
4.944700000000023
 21
2.890000000000001
 31
0
  0
LINE
  8
0
 62
7
 10
4.944700000000023
 20
2.890000000000001
 30
0
 11
4.955500000000023
 21
2.896000000000001
 31
0
  0
LINE
  8
0
 62
7
 10
4.955500000000023
 20
2.896000000000001
 30
0
 11
4.963600000000023
 21
2.905000000000001
 31
0
  0
LINE
  8
0
 62
7
 10
4.963600000000023
 20
2.905000000000001
 30
0
 11
4.969000000000023
 21
2.917000000000001
 31
0
  0
LINE
  8
0
 62
7
 10
4.969000000000023
 20
2.917000000000001
 30
0
 11
4.969000000000023
 21
2.935000000000001
 31
0
  0
LINE
  8
0
 62
7
 10
4.969000000000023
 20
2.935000000000001
 30
0
 11
4.963600000000023
 21
2.947000000000001
 31
0
  0
LINE
  8
0
 62
7
 10
4.963600000000023
 20
2.947000000000001
 30
0
 11
4.955500000000023
 21
2.956000000000001
 31
0
  0
LINE
  8
0
 62
7
 10
4.955500000000023
 20
2.956000000000001
 30
0
 11
4.942000000000024
 21
2.962000000000001
 31
0
  0
LINE
  8
0
 62
7
 10
5.012200000000023
 20
2.890000000000001
 30
0
 11
5.012200000000023
 21
3.010000000000001
 31
0
  0
LINE
  8
0
 62
7
 10
5.012200000000023
 20
3.010000000000001
 30
0
 11
5.063500000000023
 21
3.010000000000001
 31
0
  0
LINE
  8
0
 62
7
 10
5.063500000000023
 20
3.010000000000001
 30
0
 11
5.074300000000023
 21
3.007000000000001
 31
0
  0
LINE
  8
0
 62
7
 10
5.074300000000023
 20
3.007000000000001
 30
0
 11
5.082400000000024
 21
3.001000000000001
 31
0
  0
LINE
  8
0
 62
7
 10
5.082400000000024
 20
3.001000000000001
 30
0
 11
5.085100000000024
 21
2.995000000000001
 31
0
  0
LINE
  8
0
 62
7
 10
5.085100000000024
 20
2.995000000000001
 30
0
 11
5.087800000000023
 21
2.986000000000001
 31
0
  0
LINE
  8
0
 62
7
 10
5.087800000000023
 20
2.986000000000001
 30
0
 11
5.087800000000023
 21
2.974000000000001
 31
0
  0
LINE
  8
0
 62
7
 10
5.087800000000023
 20
2.974000000000001
 30
0
 11
5.085100000000024
 21
2.965000000000001
 31
0
  0
LINE
  8
0
 62
7
 10
5.085100000000024
 20
2.965000000000001
 30
0
 11
5.082400000000024
 21
2.959000000000001
 31
0
  0
LINE
  8
0
 62
7
 10
5.082400000000024
 20
2.959000000000001
 30
0
 11
5.074300000000023
 21
2.953000000000002
 31
0
  0
LINE
  8
0
 62
7
 10
5.074300000000023
 20
2.953000000000002
 30
0
 11
5.063500000000023
 21
2.950000000000001
 31
0
  0
LINE
  8
0
 62
7
 10
5.063500000000023
 20
2.950000000000001
 30
0
 11
5.055400000000022
 21
2.950000000000001
 31
0
  0
LINE
  8
0
 62
7
 10
5.055400000000022
 20
2.950000000000001
 30
0
 11
5.087800000000023
 21
2.890000000000001
 31
0
  0
LINE
  8
0
 62
7
 10
5.055400000000022
 20
2.950000000000001
 30
0
 11
5.012200000000023
 21
2.950000000000001
 31
0
  0
LINE
  8
0
 62
7
 10
5.109400000000024
 20
2.938000000000001
 30
0
 11
5.112100000000023
 21
2.950000000000001
 31
0
  0
LINE
  8
0
 62
7
 10
5.112100000000023
 20
2.950000000000001
 30
0
 11
5.117500000000025
 21
2.959000000000001
 31
0
  0
LINE
  8
0
 62
7
 10
5.117500000000025
 20
2.959000000000001
 30
0
 11
5.125600000000023
 21
2.965000000000001
 31
0
  0
LINE
  8
0
 62
7
 10
5.125600000000023
 20
2.965000000000001
 30
0
 11
5.133700000000025
 21
2.968000000000002
 31
0
  0
LINE
  8
0
 62
7
 10
5.133700000000025
 20
2.968000000000002
 30
0
 11
5.149900000000025
 21
2.968000000000002
 31
0
  0
LINE
  8
0
 62
7
 10
5.149900000000025
 20
2.968000000000002
 30
0
 11
5.158000000000024
 21
2.965000000000001
 31
0
  0
LINE
  8
0
 62
7
 10
5.158000000000024
 20
2.965000000000001
 30
0
 11
5.166100000000023
 21
2.959000000000001
 31
0
  0
LINE
  8
0
 62
7
 10
5.166100000000023
 20
2.959000000000001
 30
0
 11
5.171500000000024
 21
2.950000000000001
 31
0
  0
LINE
  8
0
 62
7
 10
5.171500000000024
 20
2.950000000000001
 30
0
 11
5.174200000000024
 21
2.938000000000001
 31
0
  0
LINE
  8
0
 62
7
 10
5.174200000000024
 20
2.938000000000001
 30
0
 11
5.174200000000024
 21
2.920000000000001
 31
0
  0
LINE
  8
0
 62
7
 10
5.174200000000024
 20
2.920000000000001
 30
0
 11
5.171500000000024
 21
2.908000000000001
 31
0
  0
LINE
  8
0
 62
7
 10
5.171500000000024
 20
2.908000000000001
 30
0
 11
5.166100000000023
 21
2.899000000000001
 31
0
  0
LINE
  8
0
 62
7
 10
5.166100000000023
 20
2.899000000000001
 30
0
 11
5.158000000000024
 21
2.893000000000002
 31
0
  0
LINE
  8
0
 62
7
 10
5.158000000000024
 20
2.893000000000002
 30
0
 11
5.149900000000025
 21
2.890000000000001
 31
0
  0
LINE
  8
0
 62
7
 10
5.149900000000025
 20
2.890000000000001
 30
0
 11
5.133700000000025
 21
2.890000000000001
 31
0
  0
LINE
  8
0
 62
7
 10
5.133700000000025
 20
2.890000000000001
 30
0
 11
5.125600000000023
 21
2.893000000000002
 31
0
  0
LINE
  8
0
 62
7
 10
5.125600000000023
 20
2.893000000000002
 30
0
 11
5.117500000000025
 21
2.899000000000001
 31
0
  0
LINE
  8
0
 62
7
 10
5.117500000000025
 20
2.899000000000001
 30
0
 11
5.112100000000023
 21
2.908000000000001
 31
0
  0
LINE
  8
0
 62
7
 10
5.112100000000023
 20
2.908000000000001
 30
0
 11
5.109400000000024
 21
2.920000000000001
 31
0
  0
LINE
  8
0
 62
7
 10
5.109400000000024
 20
2.920000000000001
 30
0
 11
5.109400000000024
 21
2.938000000000001
 31
0
  0
LINE
  8
0
 62
7
 10
5.109400000000024
 20
2.980000000000001
 30
0
 11
5.112100000000023
 21
2.992000000000001
 31
0
  0
LINE
  8
0
 62
7
 10
5.112100000000023
 20
2.992000000000001
 30
0
 11
5.117500000000025
 21
3.001000000000001
 31
0
  0
LINE
  8
0
 62
7
 10
5.117500000000025
 20
3.001000000000001
 30
0
 11
5.125600000000023
 21
3.007000000000001
 31
0
  0
LINE
  8
0
 62
7
 10
5.125600000000023
 20
3.007000000000001
 30
0
 11
5.133700000000025
 21
3.010000000000001
 31
0
  0
LINE
  8
0
 62
7
 10
5.133700000000025
 20
3.010000000000001
 30
0
 11
5.149900000000025
 21
3.010000000000001
 31
0
  0
LINE
  8
0
 62
7
 10
5.149900000000025
 20
3.010000000000001
 30
0
 11
5.158000000000024
 21
3.007000000000001
 31
0
  0
LINE
  8
0
 62
7
 10
5.158000000000024
 20
3.007000000000001
 30
0
 11
5.166100000000023
 21
3.001000000000001
 31
0
  0
LINE
  8
0
 62
7
 10
5.166100000000023
 20
3.001000000000001
 30
0
 11
5.171500000000024
 21
2.992000000000001
 31
0
  0
LINE
  8
0
 62
7
 10
5.109400000000024
 20
2.938000000000001
 30
0
 11
5.109400000000024
 21
2.980000000000001
 31
0
  0
LINE
  8
0
 62
7
 10
6.875000000000023
 20
2.890000000000001
 30
0
 11
6.875000000000023
 21
2.990000000000001
 31
0
  0
LINE
  8
0
 62
7
 10
6.875000000000023
 20
2.990000000000001
 30
0
 11
6.938000000000024
 21
2.890000000000001
 31
0
  0
LINE
  8
0
 62
7
 10
6.938000000000024
 20
2.890000000000001
 30
0
 11
6.938000000000024
 21
2.990000000000001
 31
0
  0
LINE
  8
0
 62
7
 10
7.019000000000024
 20
2.890000000000001
 30
0
 11
6.965000000000024
 21
2.890000000000001
 31
0
  0
LINE
  8
0
 62
7
 10
6.965000000000024
 20
2.890000000000001
 30
0
 11
6.965000000000024
 21
2.990000000000001
 31
0
  0
LINE
  8
0
 62
7
 10
7.046000000000024
 20
2.940000000000001
 30
0
 11
7.082000000000024
 21
2.940000000000001
 31
0
  0
LINE
  8
0
 62
7
 10
7.082000000000024
 20
2.940000000000001
 30
0
 11
7.086500000000024
 21
2.940000000000001
 31
0
  0
LINE
  8
0
 62
7
 10
7.086500000000024
 20
2.940000000000001
 30
0
 11
7.095500000000024
 21
2.935000000000001
 31
0
  0
LINE
  8
0
 62
7
 10
7.095500000000024
 20
2.935000000000001
 30
0
 11
7.100000000000023
 21
2.930000000000001
 31
0
  0
LINE
  8
0
 62
7
 10
7.100000000000023
 20
2.930000000000001
 30
0
 11
7.104500000000025
 21
2.920000000000001
 31
0
  0
LINE
  8
0
 62
7
 10
7.104500000000025
 20
2.920000000000001
 30
0
 11
7.104500000000025
 21
2.910000000000001
 31
0
  0
LINE
  8
0
 62
7
 10
7.104500000000025
 20
2.910000000000001
 30
0
 11
7.100000000000023
 21
2.900000000000001
 31
0
  0
LINE
  8
0
 62
7
 10
7.100000000000023
 20
2.900000000000001
 30
0
 11
7.095500000000024
 21
2.895000000000001
 31
0
  0
LINE
  8
0
 62
7
 10
7.095500000000024
 20
2.895000000000001
 30
0
 11
7.086500000000024
 21
2.890000000000001
 31
0
  0
LINE
  8
0
 62
7
 10
7.086500000000024
 20
2.890000000000001
 30
0
 11
7.046000000000024
 21
2.890000000000001
 31
0
  0
LINE
  8
0
 62
7
 10
7.046000000000024
 20
2.890000000000001
 30
0
 11
7.046000000000024
 21
2.940000000000001
 31
0
  0
LINE
  8
0
 62
7
 10
7.046000000000024
 20
2.990000000000001
 30
0
 11
7.079750000000023
 21
2.990000000000001
 31
0
  0
LINE
  8
0
 62
7
 10
7.079750000000023
 20
2.990000000000001
 30
0
 11
7.091000000000022
 21
2.987500000000001
 31
0
  0
LINE
  8
0
 62
7
 10
7.091000000000022
 20
2.987500000000001
 30
0
 11
7.097750000000024
 21
2.980000000000001
 31
0
  0
LINE
  8
0
 62
7
 10
7.097750000000024
 20
2.980000000000001
 30
0
 11
7.100000000000023
 21
2.970000000000001
 31
0
  0
LINE
  8
0
 62
7
 10
7.100000000000023
 20
2.970000000000001
 30
0
 11
7.100000000000023
 21
2.960000000000001
 31
0
  0
LINE
  8
0
 62
7
 10
7.100000000000023
 20
2.960000000000001
 30
0
 11
7.095500000000024
 21
2.950000000000001
 31
0
  0
LINE
  8
0
 62
7
 10
7.095500000000024
 20
2.950000000000001
 30
0
 11
7.088750000000023
 21
2.942500000000001
 31
0
  0
LINE
  8
0
 62
7
 10
7.088750000000023
 20
2.942500000000001
 30
0
 11
7.082000000000024
 21
2.940000000000001
 31
0
  0
LINE
  8
0
 62
7
 10
7.046000000000024
 20
2.940000000000001
 30
0
 11
7.046000000000024
 21
2.990000000000001
 31
0
  0
LINE
  8
0
 62
7
 10
7.246250000000024
 20
2.942500000000001
 30
0
 11
7.239500000000024
 21
2.952500000000001
 31
0
  0
LINE
  8
0
 62
7
 10
7.239500000000024
 20
2.952500000000001
 30
0
 11
7.232750000000024
 21
2.957500000000001
 31
0
  0
LINE
  8
0
 62
7
 10
7.232750000000024
 20
2.957500000000001
 30
0
 11
7.226000000000024
 21
2.960000000000001
 31
0
  0
LINE
  8
0
 62
7
 10
7.226000000000024
 20
2.960000000000001
 30
0
 11
7.217000000000025
 21
2.960000000000001
 31
0
  0
LINE
  8
0
 62
7
 10
7.217000000000025
 20
2.960000000000001
 30
0
 11
7.210250000000023
 21
2.957500000000001
 31
0
  0
LINE
  8
0
 62
7
 10
7.210250000000023
 20
2.957500000000001
 30
0
 11
7.203500000000023
 21
2.952500000000001
 31
0
  0
LINE
  8
0
 62
7
 10
7.203500000000023
 20
2.952500000000001
 30
0
 11
7.196750000000025
 21
2.942500000000001
 31
0
  0
LINE
  8
0
 62
7
 10
7.196750000000025
 20
2.942500000000001
 30
0
 11
7.194500000000024
 21
2.935000000000001
 31
0
  0
LINE
  8
0
 62
7
 10
7.194500000000024
 20
2.935000000000001
 30
0
 11
7.194500000000024
 21
2.915000000000001
 31
0
  0
LINE
  8
0
 62
7
 10
7.194500000000024
 20
2.915000000000001
 30
0
 11
7.196750000000025
 21
2.907500000000001
 31
0
  0
LINE
  8
0
 62
7
 10
7.196750000000025
 20
2.907500000000001
 30
0
 11
7.203500000000023
 21
2.897500000000001
 31
0
  0
LINE
  8
0
 62
7
 10
7.203500000000023
 20
2.897500000000001
 30
0
 11
7.210250000000023
 21
2.892500000000001
 31
0
  0
LINE
  8
0
 62
7
 10
7.210250000000023
 20
2.892500000000001
 30
0
 11
7.217000000000025
 21
2.890000000000001
 31
0
  0
LINE
  8
0
 62
7
 10
7.217000000000025
 20
2.890000000000001
 30
0
 11
7.226000000000024
 21
2.890000000000001
 31
0
  0
LINE
  8
0
 62
7
 10
7.226000000000024
 20
2.890000000000001
 30
0
 11
7.232750000000024
 21
2.892500000000001
 31
0
  0
LINE
  8
0
 62
7
 10
7.232750000000024
 20
2.892500000000001
 30
0
 11
7.239500000000024
 21
2.897500000000001
 31
0
  0
LINE
  8
0
 62
7
 10
7.239500000000024
 20
2.897500000000001
 30
0
 11
7.246250000000024
 21
2.907500000000001
 31
0
  0
LINE
  8
0
 62
7
 10
7.318250000000024
 20
2.935000000000001
 30
0
 11
7.316000000000023
 21
2.942500000000001
 31
0
  0
LINE
  8
0
 62
7
 10
7.316000000000023
 20
2.942500000000001
 30
0
 11
7.309250000000024
 21
2.952500000000001
 31
0
  0
LINE
  8
0
 62
7
 10
7.309250000000024
 20
2.952500000000001
 30
0
 11
7.302500000000023
 21
2.957500000000001
 31
0
  0
LINE
  8
0
 62
7
 10
7.302500000000023
 20
2.957500000000001
 30
0
 11
7.295750000000024
 21
2.960000000000001
 31
0
  0
LINE
  8
0
 62
7
 10
7.295750000000024
 20
2.960000000000001
 30
0
 11
7.286750000000024
 21
2.960000000000001
 31
0
  0
LINE
  8
0
 62
7
 10
7.286750000000024
 20
2.960000000000001
 30
0
 11
7.280000000000022
 21
2.957500000000001
 31
0
  0
LINE
  8
0
 62
7
 10
7.280000000000022
 20
2.957500000000001
 30
0
 11
7.273250000000025
 21
2.952500000000001
 31
0
  0
LINE
  8
0
 62
7
 10
7.273250000000025
 20
2.952500000000001
 30
0
 11
7.266500000000024
 21
2.942500000000001
 31
0
  0
LINE
  8
0
 62
7
 10
7.266500000000024
 20
2.942500000000001
 30
0
 11
7.264250000000025
 21
2.935000000000001
 31
0
  0
LINE
  8
0
 62
7
 10
7.264250000000025
 20
2.935000000000001
 30
0
 11
7.264250000000025
 21
2.915000000000001
 31
0
  0
LINE
  8
0
 62
7
 10
7.264250000000025
 20
2.915000000000001
 30
0
 11
7.266500000000024
 21
2.907500000000001
 31
0
  0
LINE
  8
0
 62
7
 10
7.266500000000024
 20
2.907500000000001
 30
0
 11
7.273250000000025
 21
2.897500000000001
 31
0
  0
LINE
  8
0
 62
7
 10
7.273250000000025
 20
2.897500000000001
 30
0
 11
7.280000000000022
 21
2.892500000000001
 31
0
  0
LINE
  8
0
 62
7
 10
7.280000000000022
 20
2.892500000000001
 30
0
 11
7.286750000000024
 21
2.890000000000001
 31
0
  0
LINE
  8
0
 62
7
 10
7.286750000000024
 20
2.890000000000001
 30
0
 11
7.295750000000024
 21
2.890000000000001
 31
0
  0
LINE
  8
0
 62
7
 10
7.295750000000024
 20
2.890000000000001
 30
0
 11
7.302500000000023
 21
2.892500000000001
 31
0
  0
LINE
  8
0
 62
7
 10
7.302500000000023
 20
2.892500000000001
 30
0
 11
7.309250000000024
 21
2.897500000000001
 31
0
  0
LINE
  8
0
 62
7
 10
7.309250000000024
 20
2.897500000000001
 30
0
 11
7.316000000000023
 21
2.907500000000001
 31
0
  0
LINE
  8
0
 62
7
 10
7.316000000000023
 20
2.907500000000001
 30
0
 11
7.318250000000024
 21
2.915000000000001
 31
0
  0
LINE
  8
0
 62
7
 10
7.318250000000024
 20
2.960000000000001
 30
0
 11
7.318250000000024
 21
2.935000000000001
 31
0
  0
LINE
  8
0
 62
7
 10
7.318250000000024
 20
2.892500000000001
 30
0
 11
7.320500000000024
 21
2.890000000000001
 31
0
  0
LINE
  8
0
 62
7
 10
7.320500000000024
 20
2.890000000000001
 30
0
 11
7.322750000000024
 21
2.890000000000001
 31
0
  0
LINE
  8
0
 62
7
 10
7.318250000000024
 20
2.915000000000001
 30
0
 11
7.318250000000024
 21
2.892500000000001
 31
0
  0
LINE
  8
0
 62
7
 10
7.318250000000024
 20
2.935000000000001
 30
0
 11
7.318250000000024
 21
2.915000000000001
 31
0
  0
LINE
  8
0
 62
7
 10
7.340750000000025
 20
2.890000000000001
 30
0
 11
7.340750000000025
 21
2.892500000000001
 31
0
  0
LINE
  8
0
 62
7
 10
7.340750000000025
 20
2.892500000000001
 30
0
 11
7.343000000000024
 21
2.892500000000001
 31
0
  0
LINE
  8
0
 62
7
 10
7.343000000000024
 20
2.892500000000001
 30
0
 11
7.343000000000024
 21
2.890000000000001
 31
0
  0
LINE
  8
0
 62
7
 10
7.343000000000024
 20
2.890000000000001
 30
0
 11
7.340750000000025
 21
2.890000000000001
 31
0
  0
LINE
  8
0
 62
7
 10
7.444250000000024
 20
2.960000000000001
 30
0
 11
7.471250000000023
 21
2.990000000000001
 31
0
  0
LINE
  8
0
 62
7
 10
7.471250000000023
 20
2.990000000000001
 30
0
 11
7.471250000000023
 21
2.890000000000001
 31
0
  0
LINE
  8
0
 62
7
 10
7.498250000000025
 20
2.965000000000001
 30
0
 11
7.500500000000024
 21
2.975000000000001
 31
0
  0
LINE
  8
0
 62
7
 10
7.500500000000024
 20
2.975000000000001
 30
0
 11
7.505000000000023
 21
2.982500000000001
 31
0
  0
LINE
  8
0
 62
7
 10
7.505000000000023
 20
2.982500000000001
 30
0
 11
7.511750000000024
 21
2.987500000000001
 31
0
  0
LINE
  8
0
 62
7
 10
7.511750000000024
 20
2.987500000000001
 30
0
 11
7.518500000000023
 21
2.990000000000001
 31
0
  0
LINE
  8
0
 62
7
 10
7.518500000000023
 20
2.990000000000001
 30
0
 11
7.532000000000024
 21
2.990000000000001
 31
0
  0
LINE
  8
0
 62
7
 10
7.532000000000024
 20
2.990000000000001
 30
0
 11
7.538750000000023
 21
2.987500000000001
 31
0
  0
LINE
  8
0
 62
7
 10
7.538750000000023
 20
2.987500000000001
 30
0
 11
7.545500000000025
 21
2.982500000000001
 31
0
  0
LINE
  8
0
 62
7
 10
7.545500000000025
 20
2.982500000000001
 30
0
 11
7.550000000000023
 21
2.975000000000001
 31
0
  0
LINE
  8
0
 62
7
 10
7.550000000000023
 20
2.975000000000001
 30
0
 11
7.552250000000024
 21
2.965000000000001
 31
0
  0
LINE
  8
0
 62
7
 10
7.552250000000024
 20
2.965000000000001
 30
0
 11
7.552250000000024
 21
2.915000000000001
 31
0
  0
LINE
  8
0
 62
7
 10
7.552250000000024
 20
2.915000000000001
 30
0
 11
7.550000000000023
 21
2.905000000000001
 31
0
  0
LINE
  8
0
 62
7
 10
7.550000000000023
 20
2.905000000000001
 30
0
 11
7.545500000000025
 21
2.897500000000001
 31
0
  0
LINE
  8
0
 62
7
 10
7.545500000000025
 20
2.897500000000001
 30
0
 11
7.538750000000023
 21
2.892500000000001
 31
0
  0
LINE
  8
0
 62
7
 10
7.538750000000023
 20
2.892500000000001
 30
0
 11
7.532000000000024
 21
2.890000000000001
 31
0
  0
LINE
  8
0
 62
7
 10
7.532000000000024
 20
2.890000000000001
 30
0
 11
7.518500000000023
 21
2.890000000000001
 31
0
  0
LINE
  8
0
 62
7
 10
7.518500000000023
 20
2.890000000000001
 30
0
 11
7.511750000000024
 21
2.892500000000001
 31
0
  0
LINE
  8
0
 62
7
 10
7.511750000000024
 20
2.892500000000001
 30
0
 11
7.505000000000023
 21
2.897500000000001
 31
0
  0
LINE
  8
0
 62
7
 10
7.505000000000023
 20
2.897500000000001
 30
0
 11
7.500500000000024
 21
2.905000000000001
 31
0
  0
LINE
  8
0
 62
7
 10
7.500500000000024
 20
2.905000000000001
 30
0
 11
7.498250000000025
 21
2.915000000000001
 31
0
  0
LINE
  8
0
 62
7
 10
7.498250000000025
 20
2.915000000000001
 30
0
 11
7.498250000000025
 21
2.965000000000001
 31
0
  0
LINE
  8
0
 62
7
 10
7.579250000000023
 20
2.965000000000001
 30
0
 11
7.581500000000024
 21
2.975000000000001
 31
0
  0
LINE
  8
0
 62
7
 10
7.581500000000024
 20
2.975000000000001
 30
0
 11
7.586000000000023
 21
2.982500000000001
 31
0
  0
LINE
  8
0
 62
7
 10
7.586000000000023
 20
2.982500000000001
 30
0
 11
7.592750000000024
 21
2.987500000000001
 31
0
  0
LINE
  8
0
 62
7
 10
7.592750000000024
 20
2.987500000000001
 30
0
 11
7.599500000000024
 21
2.990000000000001
 31
0
  0
LINE
  8
0
 62
7
 10
7.599500000000024
 20
2.990000000000001
 30
0
 11
7.613000000000024
 21
2.990000000000001
 31
0
  0
LINE
  8
0
 62
7
 10
7.613000000000024
 20
2.990000000000001
 30
0
 11
7.619750000000024
 21
2.987500000000001
 31
0
  0
LINE
  8
0
 62
7
 10
7.619750000000024
 20
2.987500000000001
 30
0
 11
7.626500000000025
 21
2.982500000000001
 31
0
  0
LINE
  8
0
 62
7
 10
7.626500000000025
 20
2.982500000000001
 30
0
 11
7.631000000000023
 21
2.975000000000001
 31
0
  0
LINE
  8
0
 62
7
 10
7.631000000000023
 20
2.975000000000001
 30
0
 11
7.633250000000024
 21
2.965000000000001
 31
0
  0
LINE
  8
0
 62
7
 10
7.633250000000024
 20
2.965000000000001
 30
0
 11
7.633250000000024
 21
2.915000000000001
 31
0
  0
LINE
  8
0
 62
7
 10
7.633250000000024
 20
2.915000000000001
 30
0
 11
7.631000000000023
 21
2.905000000000001
 31
0
  0
LINE
  8
0
 62
7
 10
7.631000000000023
 20
2.905000000000001
 30
0
 11
7.626500000000025
 21
2.897500000000001
 31
0
  0
LINE
  8
0
 62
7
 10
7.626500000000025
 20
2.897500000000001
 30
0
 11
7.619750000000024
 21
2.892500000000001
 31
0
  0
LINE
  8
0
 62
7
 10
7.619750000000024
 20
2.892500000000001
 30
0
 11
7.613000000000024
 21
2.890000000000001
 31
0
  0
LINE
  8
0
 62
7
 10
7.613000000000024
 20
2.890000000000001
 30
0
 11
7.599500000000024
 21
2.890000000000001
 31
0
  0
LINE
  8
0
 62
7
 10
7.599500000000024
 20
2.890000000000001
 30
0
 11
7.592750000000024
 21
2.892500000000001
 31
0
  0
LINE
  8
0
 62
7
 10
7.592750000000024
 20
2.892500000000001
 30
0
 11
7.586000000000023
 21
2.897500000000001
 31
0
  0
LINE
  8
0
 62
7
 10
7.586000000000023
 20
2.897500000000001
 30
0
 11
7.581500000000024
 21
2.905000000000001
 31
0
  0
LINE
  8
0
 62
7
 10
7.581500000000024
 20
2.905000000000001
 30
0
 11
7.579250000000023
 21
2.915000000000001
 31
0
  0
LINE
  8
0
 62
7
 10
7.579250000000023
 20
2.915000000000001
 30
0
 11
7.579250000000023
 21
2.965000000000001
 31
0
  0
LINE
  8
0
 62
7
 10
7.784000000000025
 20
2.942500000000001
 30
0
 11
7.777250000000024
 21
2.952500000000001
 31
0
  0
LINE
  8
0
 62
7
 10
7.777250000000024
 20
2.952500000000001
 30
0
 11
7.770500000000024
 21
2.957500000000001
 31
0
  0
LINE
  8
0
 62
7
 10
7.770500000000024
 20
2.957500000000001
 30
0
 11
7.763750000000023
 21
2.960000000000001
 31
0
  0
LINE
  8
0
 62
7
 10
7.763750000000023
 20
2.960000000000001
 30
0
 11
7.754750000000023
 21
2.960000000000001
 31
0
  0
LINE
  8
0
 62
7
 10
7.754750000000023
 20
2.960000000000001
 30
0
 11
7.748000000000023
 21
2.957500000000001
 31
0
  0
LINE
  8
0
 62
7
 10
7.748000000000023
 20
2.957500000000001
 30
0
 11
7.741250000000024
 21
2.952500000000001
 31
0
  0
LINE
  8
0
 62
7
 10
7.741250000000024
 20
2.952500000000001
 30
0
 11
7.734500000000025
 21
2.942500000000001
 31
0
  0
LINE
  8
0
 62
7
 10
7.734500000000025
 20
2.942500000000001
 30
0
 11
7.732250000000024
 21
2.935000000000001
 31
0
  0
LINE
  8
0
 62
7
 10
7.732250000000024
 20
2.935000000000001
 30
0
 11
7.732250000000024
 21
2.915000000000001
 31
0
  0
LINE
  8
0
 62
7
 10
7.732250000000024
 20
2.915000000000001
 30
0
 11
7.734500000000025
 21
2.907500000000001
 31
0
  0
LINE
  8
0
 62
7
 10
7.734500000000025
 20
2.907500000000001
 30
0
 11
7.741250000000024
 21
2.897500000000001
 31
0
  0
LINE
  8
0
 62
7
 10
7.741250000000024
 20
2.897500000000001
 30
0
 11
7.748000000000023
 21
2.892500000000001
 31
0
  0
LINE
  8
0
 62
7
 10
7.748000000000023
 20
2.892500000000001
 30
0
 11
7.754750000000023
 21
2.890000000000001
 31
0
  0
LINE
  8
0
 62
7
 10
7.754750000000023
 20
2.890000000000001
 30
0
 11
7.763750000000023
 21
2.890000000000001
 31
0
  0
LINE
  8
0
 62
7
 10
7.763750000000023
 20
2.890000000000001
 30
0
 11
7.770500000000024
 21
2.892500000000001
 31
0
  0
LINE
  8
0
 62
7
 10
7.770500000000024
 20
2.892500000000001
 30
0
 11
7.777250000000024
 21
2.897500000000001
 31
0
  0
LINE
  8
0
 62
7
 10
7.777250000000024
 20
2.897500000000001
 30
0
 11
7.784000000000025
 21
2.907500000000001
 31
0
  0
LINE
  8
0
 62
7
 10
7.842500000000022
 20
2.935000000000001
 30
0
 11
7.842500000000022
 21
2.890000000000001
 31
0
  0
LINE
  8
0
 62
7
 10
7.802000000000024
 20
2.960000000000001
 30
0
 11
7.802000000000024
 21
2.935000000000001
 31
0
  0
LINE
  8
0
 62
7
 10
7.802000000000024
 20
2.890000000000001
 30
0
 11
7.802000000000024
 21
2.935000000000001
 31
0
  0
LINE
  8
0
 62
7
 10
7.802000000000024
 20
2.935000000000001
 30
0
 11
7.804250000000024
 21
2.947500000000001
 31
0
  0
LINE
  8
0
 62
7
 10
7.804250000000024
 20
2.947500000000001
 30
0
 11
7.806500000000025
 21
2.952500000000001
 31
0
  0
LINE
  8
0
 62
7
 10
7.806500000000025
 20
2.952500000000001
 30
0
 11
7.811000000000023
 21
2.957500000000001
 31
0
  0
LINE
  8
0
 62
7
 10
7.811000000000023
 20
2.957500000000001
 30
0
 11
7.817750000000024
 21
2.960000000000001
 31
0
  0
LINE
  8
0
 62
7
 10
7.817750000000024
 20
2.960000000000001
 30
0
 11
7.826750000000025
 21
2.960000000000001
 31
0
  0
LINE
  8
0
 62
7
 10
7.826750000000025
 20
2.960000000000001
 30
0
 11
7.833500000000024
 21
2.957500000000001
 31
0
  0
LINE
  8
0
 62
7
 10
7.833500000000024
 20
2.957500000000001
 30
0
 11
7.838000000000024
 21
2.952500000000001
 31
0
  0
LINE
  8
0
 62
7
 10
7.838000000000024
 20
2.952500000000001
 30
0
 11
7.840250000000025
 21
2.947500000000001
 31
0
  0
LINE
  8
0
 62
7
 10
7.840250000000025
 20
2.947500000000001
 30
0
 11
7.842500000000022
 21
2.935000000000001
 31
0
  0
LINE
  8
0
 62
7
 10
7.842500000000022
 20
2.935000000000001
 30
0
 11
7.844750000000023
 21
2.947500000000001
 31
0
  0
LINE
  8
0
 62
7
 10
7.844750000000023
 20
2.947500000000001
 30
0
 11
7.847000000000024
 21
2.952500000000001
 31
0
  0
LINE
  8
0
 62
7
 10
7.847000000000024
 20
2.952500000000001
 30
0
 11
7.851500000000025
 21
2.957500000000001
 31
0
  0
LINE
  8
0
 62
7
 10
7.851500000000025
 20
2.957500000000001
 30
0
 11
7.858250000000024
 21
2.960000000000001
 31
0
  0
LINE
  8
0
 62
7
 10
7.858250000000024
 20
2.960000000000001
 30
0
 11
7.867250000000023
 21
2.960000000000001
 31
0
  0
LINE
  8
0
 62
7
 10
7.867250000000023
 20
2.960000000000001
 30
0
 11
7.874000000000024
 21
2.957500000000001
 31
0
  0
LINE
  8
0
 62
7
 10
7.878500000000023
 20
2.952500000000001
 30
0
 11
7.874000000000024
 21
2.957500000000001
 31
0
  0
LINE
  8
0
 62
7
 10
7.874000000000024
 20
2.957500000000001
 30
0
 11
7.878500000000023
 21
2.952500000000001
 31
0
  0
LINE
  8
0
 62
7
 10
7.878500000000023
 20
2.952500000000001
 30
0
 11
7.880750000000024
 21
2.947500000000001
 31
0
  0
LINE
  8
0
 62
7
 10
7.880750000000024
 20
2.947500000000001
 30
0
 11
7.883000000000024
 21
2.935000000000001
 31
0
  0
LINE
  8
0
 62
7
 10
7.883000000000024
 20
2.935000000000001
 30
0
 11
7.883000000000024
 21
2.890000000000001
 31
0
  0
ARC
  8
0
 62
7
 10
6.310313869234041
 20
3.815313869234008
 30
0
 40
0.6419999999999846
 50
359.971991345689
 51
90.02800865367354
  0
ARC
  8
0
 62
7
 10
5.654686130766023
 20
3.815313869234026
 30
0
 40
0.641999999999991
 50
89.97199134547166
 51
180.0280086516123
  0
CIRCLE
  8
0
 62
7
 10
5.012686207474633
 20
3.250000000000001
 30
0
 40
0.05999999999999961
  0
DIMENSION
  8
0
  6
CONTINUOUS
 62
7
  2
*D0
  3
DMST_1
 10
7.96915251391019
 20
3.349999999999999
 30
0
 11
7.96915251391019
 21
4.10934324433657
 31
0
 12
0
 22
0
 32
0
 70
0
 13
7.600000000000023
 23
4.93
 33
0
 14
7.600000000000023
 24
3.35
 34
0
 50
90
 53
0
  0
DIMENSION
  8
0
  6
CONTINUOUS
 62
7
  2
*D1
  3
DMST_1
 10
4.540000000000021
 20
5.82371181499461
 30
0
 11
5.97111144594902
 21
5.82371181499461
 31
0
 12
0
 22
0
 32
0
 70
0
 13
7.425000000000023
 23
5.449999999999999
 33
0
 14
4.540000000000022
 24
5.449999999999999
 34
0
 53
0
  0
DIMENSION
  8
0
  6
CONTINUOUS
 62
7
  2
*D2
  3
DMST_1
 10
4.05940548586273
 20
3.249999999999999
 30
0
 11
4.05940548586273
 21
4.08467607065804
 31
0
 12
0
 22
0
 32
0
 70
0
 13
4.365000000000022
 23
4.93
 33
0
 14
4.365000000000022
 24
3.25
 34
0
 50
90
 53
0
  0
DIMENSION
  8
0
  6
CONTINUOUS
 62
7
  2
*D3
  3
DMST_2
 10
4.540000000000022
 20
11.4724945873786
 30
0
 11
5.93411068543123
 21
11.4724945873786
 31
0
 12
0
 22
0
 32
0
 70
0
 13
7.425000000000023
 23
11.2
 33
0
 14
4.540000000000022
 24
11.2
 34
0
 53
0
  0
INSERT
  8
0
  2
*D4
 10
0
 20
0
 30
0
  0
ENDSEC
  0
EOF
