  0
SECTION
  2
HEADER
  9
$ACADVER
  1
AC1009
  9
$INSBASE
 10
0
 20
0
  9
$EXTMIN
 10
0.440124010674201
 20
2.890000000000001
  9
$EXTMAX
 10
8.250000000000005
 20
11.5696469806392
  9
$LIMMIN
 10
0.440124010674201
 20
2.890000000000001
  9
$LIMMAX
 10
8.250000000000005
 20
11.5696469806392
  9
$VIEWCTR
 10
10
 20
10
  9
$VIEWSIZE
 40
10
  9
$SNAPMODE
 70
0
  9
$SNAPUNIT
 10
1
 20
1
  9
$SNAPBASE
 10
0
 20
0
  9
$SNAPANG
 50
0
  9
$SNAPSTYLE
 70
0
  9
$SNAPISOPAIR
 70
0
  9
$GRIDMODE
 70
0
  9
$GRIDUNIT
 10
0
 20
0
  9
$ORTHOMODE
 70
0
  9
$REGENMODE
 70
1
  9
$FILLMODE
 70
1
  9
$QTEXTMODE
 70
0
  9
$DRAGMODE
 70
2
  9
$LTSCALE
 40
1
  9
$OSMODE
 70
0
  9
$ATTMODE
 70
1
  9
$TEXTSIZE
 40
3.5
  9
$TRACEWID
 40
0.5
  9
$TEXTSTYLE
  7
STANDARD
  9
$CLAYER
  8
0
  9
$CELTYPE
  6
BYLAYER
  9
$CECOLOR
 62
256
  9
$DIMSCALE
 40
1
  9
$DIMASZ
 40
0.18
  9
$DIMEXO
 40
0.0625
  9
$DIMDLI
 40
0.38
  9
$DIMRND
 40
0
  9
$DIMDLE
 40
0
  9
$DIMEXE
 40
0.18
  9
$DIMTP
 40
0
  9
$DIMTM
 40
0
  9
$DIMTXT
 40
0.18
  9
$DIMCEN
 40
0.09
  9
$DIMTSZ
 40
0
  9
$DIMTOL
 70
0
  9
$DIMLIM
 70
0
  9
$DIMTIH
 70
1
  9
$DIMTOH
 70
1
  9
$DIMSE1
 70
0
  9
$DIMSE2
 70
0
  9
$DIMTAD
 70
0
  9
$DIMZIN
 70
0
  9
$DIMBLK
  1

  9
$DIMASO
 70
1
  9
$DIMSHO
 70
1
  9
$DIMPOST
  1

  9
$DIMAPOST
  1

  9
$DIMALT
 70
0
  9
$DIMALTD
 70
2
  9
$DIMALTF
 40
25.4
  9
$DIMLFAC
 40
1
  9
$DIMTOFL
 70
0
  9
$DIMTVP
 40
0
  9
$DIMTIX
 70
0
  9
$DIMSOXD
 70
0
  9
$DIMSAH
 70
0
  9
$DIMBLK1
  1

  9
$DIMBLK2
  1

  9
$DIMSTYLE
  2
*UNNAMED
  9
$DIMCLRD
 70
0
  9
$DIMCLRE
 70
0
  9
$DIMCLRT
 70
0
  9
$DIMTFAC
 40
1
  9
$DIMGAP
 40
0.09
  9
$LUNITS
 70
2
  9
$LUPREC
 70
4
  9
$AXISMODE
 70
0
  9
$AXISUNIT
 10
0
 20
0
  9
$SKETCHINC
 40
0.1
  9
$FILLETRAD
 40
2
  9
$AUNITS
 70
0
  9
$AUPREC
 70
0
  9
$MENU
  1
ACAD
  9
$ELEVATION
 40
0
  9
$THICKNESS
 40
0
  9
$VIEWDIR
 10
0
 20
0
 30
1
  9
$LIMCHECK
 70
0
  9
$BLIPMODE
 70
1
  9
$CHAMFERA
 40
0
  9
$CHAMFERB
 40
0
  9
$FASTZOOM
 70
1
  9
$SKPOLY
 70
0
  9
$ANGBASE
 50
0
  9
$ANGDIR
 70
0
  9
$PDMODE
 70
0
  9
$PDSIZE
 40
0
  9
$PLINEWID
 40
0
  9
$COORDS
 70
2
  0
ENDSEC
  0
SECTION
  2
TABLES
  0
TABLE
  2
DIMSTYLE
 70
2
  0
DIMSTYLE
  2
DMST_1
 70
0
  3

  4

  5

  6

  7

 40
1
 41
0.1
 42
0
 43
0.7
 44
0.2
 45
0
 46
0
 47
0
 48
0
140
0.1
141
0
142
0.1
143
25.4
144
1
145
0
146
1
147
0.2
 71
0
 72
0
 73
0
 74
0
 75
0
 76
0
 77
0
 78
9
170
0
171
2
172
0
173
0
174
0
175
0
176
7
177
7
178
7
  0
DIMSTYLE
  2
DMST_2
 70
0
  3

  4

  5

  6

  7

 40
1
 41
0.1
 42
0
 43
0.7
 44
0.2
 45
0
 46
0
 47
0
 48
0
140
0.1
141
0
142
0.1
143
25.4
144
1
145
0
146
1
147
0.25
 71
0
 72
0
 73
0
 74
0
 75
0
 76
0
 77
0
 78
9
170
0
171
2
172
0
173
0
174
0
175
0
176
7
177
7
178
7
  0
ENDTAB
  0
TABLE
  2
LTYPE
 70
9
  0
LTYPE
  2
CONTINUOUS
 70
64
  3
Solid line
 72
65
 73
0
 40
0
  0
LTYPE
  2
BORDER
 70
64
  3
__ __ . __ __ .
 72
65
 73
6
 40
0.3997205846347
 49
0.1142058813242
 49
-0.0571029406621
 49
0.1142058813242
 49
-0.0571029406621
 49
0
 49
-0.0571029406621
  0
LTYPE
  2
CENTER
 70
64
  3
____ _ ____ _
 72
65
 73
4
 40
0.4568235252968
 49
0.2855147033105
 49
-0.0571029406621
 49
0.0571029406621
 49
-0.0571029406621
  0
LTYPE
  2
DASHDOT
 70
64
  3
__ . __ . __ .
 72
65
 73
4
 40
0.2284117626484
 49
0.1142058813242
 49
-0.0571029406621
 49
0
 49
-0.0571029406621
  0
LTYPE
  2
DASHED
 70
64
  3
__ __ __ __ __
 72
65
 73
2
 40
0.1713088219863
 49
0.1142058813242
 49
-0.0571029406621
  0
LTYPE
  2
DIVIDE
 70
64
  3
__ . . __ . . 
 72
65
 73
6
 40
0.2855147033105
 49
0.1142058813242
 49
-0.0571029406621
 49
0
 49
-0.0571029406621
 49
0
 49
-0.0571029406621
  0
LTYPE
  2
DOT
 70
64
  3
..............
 72
65
 73
4
 40
0.1142058813242
 49
0
 49
-0.0571029406621
 49
0
 49
-0.0571029406621
  0
LTYPE
  2
HIDDEN
 70
64
  3
_ _ _ _ _ _ _
 72
65
 73
2
 40
0.08565441099314999
 49
0.0571029406621
 49
-0.02855147033105
  0
LTYPE
  2
PHANTOM
 70
64
  3
_____ _ _ _____ _ _ 
 72
65
 73
6
 40
0.571029406621
 49
0.2855147033105
 49
-0.0571029406621
 49
0.0571029406621
 49
-0.0571029406621
 49
0.0571029406621
 49
-0.0571029406621
  0
ENDTAB
  0
TABLE
  2
LAYER
 70
2
  0
LAYER
  2
0
 70
0
 62
7
  6
CONTINUOUS
  0
ENDTAB
  0
TABLE
  2
STYLE
 70
4
  0
STYLE
  2
STANDARD
 70
0
 40
0
 41
1
 50
0
 71
0
 42
3.5
  3
txt
  4

  0
STYLE
  2
SIMPLEX
 70
0
 40
0
 41
1
 50
0
 71
0
 42
3.5
  3
simplex
  4

  0
STYLE
  2
COMPLEX
 70
0
 40
0
 41
1
 50
0
 71
0
 42
3.5
  3
complex
  4

  0
STYLE
  2
ITALIC
 70
0
 40
0
 41
1
 50
0
 71
0
 42
3.5
  3
italic
  4

  0
ENDTAB
  0
TABLE
  2
VIEW
 70
0
  0
ENDTAB
  0
ENDSEC
  0
SECTION
  2
BLOCKS
  0
BLOCK
  8
0
  2
*X0
 70
1
 10
0
 20
0
 30
0
  0
LINE
  8
0
 62
7
 10
1.099999999999999
 20
7.994291116568838
 30
0
 11
1.205708883431162
 21
8.1
 31
0
  0
LINE
  8
0
 62
7
 10
1.267840917787126
 20
7.949999999999999
 30
0
 11
1.275
 21
7.957159082212874
 31
0
  0
LINE
  8
0
 62
7
 10
1.161774900609143
 20
7.949999999999999
 30
0
 11
1.274999999999999
 21
8.063225099390854
 31
0
  0
ENDBLK
  8
0
  0
BLOCK
  8
0
  2
*X1
 70
1
 10
0
 20
0
 30
0
  0
LINE
  8
0
 62
7
 10
1.1
 20
10.75200756319637
 30
0
 11
1.197992436803626
 21
10.85
 31
0
  0
LINE
  8
0
 62
7
 10
1.1
 20
10.5398755288404
 30
0
 11
1.275
 21
10.7148755288404
 31
0
  0
LINE
  8
0
 62
7
 10
1.1
 20
10.32774349448444
 30
0
 11
1.275
 21
10.50274349448444
 31
0
  0
LINE
  8
0
 62
7
 10
1.1
 20
10.11561146012848
 30
0
 11
1.275
 21
10.29061146012848
 31
0
  0
LINE
  8
0
 62
7
 10
1.1
 20
9.903479425772513
 30
0
 11
1.275
 21
10.07847942577251
 31
0
  0
LINE
  8
0
 62
7
 10
1.1
 20
9.691347391416549
 30
0
 11
1.275
 21
9.866347391416548
 31
0
  0
LINE
  8
0
 62
7
 10
1.1
 20
9.479215357060585
 30
0
 11
1.275
 21
9.654215357060584
 31
0
  0
LINE
  8
0
 62
7
 10
1.1
 20
9.267083322704622
 30
0
 11
1.275
 21
9.442083322704621
 31
0
  0
LINE
  8
0
 62
7
 10
1.1
 20
9.054951288348658
 30
0
 11
1.275
 21
9.229951288348657
 31
0
  0
LINE
  8
0
 62
7
 10
1.1
 20
8.842819253992694
 30
0
 11
1.275
 21
9.017819253992693
 31
0
  0
LINE
  8
0
 62
7
 10
1.1
 20
8.63068721963673
 30
0
 11
1.275
 21
8.805687219636729
 31
0
  0
LINE
  8
0
 62
7
 10
1.1
 20
8.418555185280766
 30
0
 11
1.275
 21
8.593555185280765
 31
0
  0
LINE
  8
0
 62
7
 10
1.193576849075197
 20
8.299999999999997
 30
0
 11
1.275
 21
8.381423150924801
 31
0
  0
LINE
  8
0
 62
7
 10
1.100000000000001
 20
10.64594154601839
 30
0
 11
1.274999999999999
 21
10.82094154601838
 31
0
  0
LINE
  8
0
 62
7
 10
1.100000000000001
 20
10.43380951166242
 30
0
 11
1.274999999999999
 21
10.60880951166242
 31
0
  0
LINE
  8
0
 62
7
 10
1.100000000000001
 20
10.22167747730646
 30
0
 11
1.274999999999999
 21
10.39667747730646
 31
0
  0
LINE
  8
0
 62
7
 10
1.100000000000001
 20
10.0095454429505
 30
0
 11
1.274999999999999
 21
10.18454544295049
 31
0
  0
LINE
  8
0
 62
7
 10
1.100000000000001
 20
9.797413408594531
 30
0
 11
1.274999999999999
 21
9.972413408594528
 31
0
  0
LINE
  8
0
 62
7
 10
1.100000000000001
 20
9.585281374238567
 30
0
 11
1.274999999999999
 21
9.760281374238565
 31
0
  0
LINE
  8
0
 62
7
 10
1.100000000000001
 20
9.373149339882604
 30
0
 11
1.274999999999999
 21
9.548149339882601
 31
0
  0
LINE
  8
0
 62
7
 10
1.100000000000001
 20
9.16101730552664
 30
0
 11
1.274999999999999
 21
9.336017305526637
 31
0
  0
LINE
  8
0
 62
7
 10
1.100000000000001
 20
8.948885271170676
 30
0
 11
1.274999999999999
 21
9.123885271170673
 31
0
  0
LINE
  8
0
 62
7
 10
1.100000000000001
 20
8.736753236814712
 30
0
 11
1.274999999999999
 21
8.911753236814709
 31
0
  0
LINE
  8
0
 62
7
 10
1.100000000000001
 20
8.524621202458748
 30
0
 11
1.274999999999999
 21
8.699621202458745
 31
0
  0
LINE
  8
0
 62
7
 10
1.100000000000001
 20
8.312489168102784
 30
0
 11
1.274999999999999
 21
8.487489168102782
 31
0
  0
ENDBLK
  8
0
  0
BLOCK
  8
0
  2
*X2
 70
1
 10
0
 20
0
 30
0
  0
LINE
  8
0
 62
7
 10
1.100000000000001
 20
11.1762716319083
 30
0
 11
1.123728368091698
 21
11.2
 31
0
  0
LINE
  8
0
 62
7
 10
1.185860402447664
 20
11.05
 30
0
 11
1.274999999999999
 21
11.13913959755234
 31
0
  0
LINE
  8
0
 62
7
 10
1.1
 20
11.07020561473032
 30
0
 11
1.229794385269681
 21
11.2
 31
0
  0
ENDBLK
  8
0
  0
BLOCK
  8
0
  2
*X3
 70
1
 10
0
 20
0
 30
0
  0
LINE
  8
0
 62
7
 10
4.284999999999999
 20
7.997310601229373
 30
0
 11
4.387689398770626
 21
8.1
 31
0
  0
LINE
  8
0
 62
7
 10
4.44982143312659
 20
7.949999999999999
 30
0
 11
4.459999999999997
 21
7.960178566873407
 31
0
  0
LINE
  8
0
 62
7
 10
4.343755415948607
 20
7.949999999999998
 30
0
 11
4.459999999999997
 21
8.066244584051388
 31
0
  0
ENDBLK
  8
0
  0
BLOCK
  8
0
  2
*X4
 70
1
 10
0
 20
0
 30
0
  0
LINE
  8
0
 62
7
 10
4.285000000000002
 20
10.7550270478569
 30
0
 11
4.379972952143091
 21
10.85
 31
0
  0
LINE
  8
0
 62
7
 10
4.285000000000002
 20
10.54289501350094
 30
0
 11
4.459999999999997
 21
10.71789501350094
 31
0
  0
LINE
  8
0
 62
7
 10
4.285000000000002
 20
10.33076297914498
 30
0
 11
4.459999999999997
 21
10.50576297914497
 31
0
  0
LINE
  8
0
 62
7
 10
4.285000000000002
 20
10.11863094478901
 30
0
 11
4.459999999999997
 21
10.29363094478901
 31
0
  0
LINE
  8
0
 62
7
 10
4.285000000000002
 20
9.906498910433049
 30
0
 11
4.459999999999997
 21
10.08149891043305
 31
0
  0
LINE
  8
0
 62
7
 10
4.285000000000002
 20
9.694366876077085
 30
0
 11
4.459999999999997
 21
9.869366876077082
 31
0
  0
LINE
  8
0
 62
7
 10
4.285000000000002
 20
9.482234841721121
 30
0
 11
4.459999999999997
 21
9.657234841721118
 31
0
  0
LINE
  8
0
 62
7
 10
4.285000000000002
 20
9.270102807365157
 30
0
 11
4.459999999999997
 21
9.445102807365155
 31
0
  0
LINE
  8
0
 62
7
 10
4.285000000000002
 20
9.057970773009194
 30
0
 11
4.459999999999997
 21
9.232970773009191
 31
0
  0
LINE
  8
0
 62
7
 10
4.285000000000002
 20
8.84583873865323
 30
0
 11
4.459999999999997
 21
9.020838738653227
 31
0
  0
LINE
  8
0
 62
7
 10
4.285000000000002
 20
8.633706704297266
 30
0
 11
4.459999999999997
 21
8.808706704297263
 31
0
  0
LINE
  8
0
 62
7
 10
4.285000000000002
 20
8.421574669941302
 30
0
 11
4.459999999999997
 21
8.596574669941299
 31
0
  0
LINE
  8
0
 62
7
 10
4.375557364414658
 20
8.299999999999995
 30
0
 11
4.459999999999997
 21
8.384442635585335
 31
0
  0
LINE
  8
0
 62
7
 10
4.285000000000001
 20
10.64896103067892
 30
0
 11
4.459999999999998
 21
10.82396103067892
 31
0
  0
LINE
  8
0
 62
7
 10
4.285000000000001
 20
10.43682899632296
 30
0
 11
4.459999999999998
 21
10.61182899632296
 31
0
  0
LINE
  8
0
 62
7
 10
4.285000000000001
 20
10.22469696196699
 30
0
 11
4.459999999999998
 21
10.39969696196699
 31
0
  0
LINE
  8
0
 62
7
 10
4.285000000000001
 20
10.01256492761103
 30
0
 11
4.459999999999998
 21
10.18756492761103
 31
0
  0
LINE
  8
0
 62
7
 10
4.285000000000001
 20
9.800432893255067
 30
0
 11
4.459999999999998
 21
9.975432893255064
 31
0
  0
LINE
  8
0
 62
7
 10
4.285000000000001
 20
9.588300858899103
 30
0
 11
4.459999999999998
 21
9.7633008588991
 31
0
  0
LINE
  8
0
 62
7
 10
4.285000000000001
 20
9.376168824543139
 30
0
 11
4.459999999999998
 21
9.551168824543137
 31
0
  0
LINE
  8
0
 62
7
 10
4.285000000000001
 20
9.164036790187176
 30
0
 11
4.459999999999998
 21
9.339036790187173
 31
0
  0
LINE
  8
0
 62
7
 10
4.285000000000001
 20
8.951904755831212
 30
0
 11
4.459999999999998
 21
9.126904755831209
 31
0
  0
LINE
  8
0
 62
7
 10
4.285000000000001
 20
8.739772721475248
 30
0
 11
4.459999999999998
 21
8.914772721475245
 31
0
  0
LINE
  8
0
 62
7
 10
4.285000000000001
 20
8.527640687119284
 30
0
 11
4.459999999999998
 21
8.702640687119281
 31
0
  0
LINE
  8
0
 62
7
 10
4.285000000000001
 20
8.31550865276332
 30
0
 11
4.459999999999998
 21
8.490508652763317
 31
0
  0
ENDBLK
  8
0
  0
BLOCK
  8
0
  2
*X5
 70
1
 10
0
 20
0
 30
0
  0
LINE
  8
0
 62
7
 10
4.285
 20
11.17929111656884
 30
0
 11
4.305708883431162
 21
11.2
 31
0
  0
LINE
  8
0
 62
7
 10
4.367840917787129
 20
11.05
 30
0
 11
4.459999999999996
 21
11.14215908221287
 31
0
  0
LINE
  8
0
 62
7
 10
4.285
 20
11.07322509939086
 30
0
 11
4.411774900609145
 21
11.2
 31
0
  0
ENDBLK
  8
0
  0
BLOCK
  8
0
  2
*X6
 70
1
 10
0
 20
0
 30
0
  0
LINE
  8
0
 62
7
  6
DASHED
 10
0.9500000000000002
 20
8.268555185280766
 30
0
 11
0.9814448147192327
 21
8.299999999999999
 31
0
  0
LINE
  8
0
 62
7
  6
DASHED
 10
0.9935768490751991
 20
8.100000000000001
 30
0
 11
1.193576849075197
 21
8.299999999999999
 31
0
  0
LINE
  8
0
 62
7
  6
DASHED
 10
1.205708883431163
 20
8.100000000000001
 30
0
 11
1.405708883431161
 21
8.299999999999999
 31
0
  0
LINE
  8
0
 62
7
  6
DASHED
 10
1.417840917787128
 20
8.100000000000001
 30
0
 11
1.617840917787126
 21
8.299999999999999
 31
0
  0
LINE
  8
0
 62
7
  6
DASHED
 10
1.629972952143092
 20
8.100000000000001
 30
0
 11
1.82997295214309
 21
8.299999999999999
 31
0
  0
LINE
  8
0
 62
7
  6
DASHED
 10
1.842104986499056
 20
8.100000000000001
 30
0
 11
2.042104986499054
 21
8.299999999999999
 31
0
  0
LINE
  8
0
 62
7
  6
DASHED
 10
2.05423702085502
 20
8.100000000000001
 30
0
 11
2.254237020855018
 21
8.299999999999999
 31
0
  0
LINE
  8
0
 62
7
  6
DASHED
 10
2.266369055210985
 20
8.100000000000001
 30
0
 11
2.466369055210983
 21
8.299999999999999
 31
0
  0
LINE
  8
0
 62
7
  6
DASHED
 10
2.478501089566949
 20
8.100000000000001
 30
0
 11
2.678501089566947
 21
8.299999999999999
 31
0
  0
LINE
  8
0
 62
7
  6
DASHED
 10
2.690633123922913
 20
8.100000000000001
 30
0
 11
2.890633123922911
 21
8.299999999999999
 31
0
  0
LINE
  8
0
 62
7
  6
DASHED
 10
2.902765158278878
 20
8.100000000000001
 30
0
 11
3.102765158278876
 21
8.299999999999999
 31
0
  0
LINE
  8
0
 62
7
  6
DASHED
 10
3.114897192634842
 20
8.100000000000001
 30
0
 11
3.31489719263484
 21
8.299999999999999
 31
0
  0
LINE
  8
0
 62
7
  6
DASHED
 10
3.327029226990806
 20
8.100000000000001
 30
0
 11
3.527029226990804
 21
8.299999999999999
 31
0
  0
LINE
  8
0
 62
7
  6
DASHED
 10
3.53916126134677
 20
8.100000000000001
 30
0
 11
3.739161261346768
 21
8.299999999999999
 31
0
  0
LINE
  8
0
 62
7
  6
DASHED
 10
3.751293295702735
 20
8.100000000000001
 30
0
 11
3.951293295702733
 21
8.299999999999999
 31
0
  0
LINE
  8
0
 62
7
  6
DASHED
 10
3.963425330058699
 20
8.100000000000001
 30
0
 11
4.163425330058697
 21
8.299999999999999
 31
0
  0
LINE
  8
0
 62
7
  6
DASHED
 10
4.175557364414663
 20
8.100000000000001
 30
0
 11
4.375557364414661
 21
8.299999999999999
 31
0
  0
LINE
  8
0
 62
7
  6
DASHED
 10
4.387689398770627
 20
8.100000000000001
 30
0
 11
4.587689398770625
 21
8.299999999999999
 31
0
  0
LINE
  8
0
 62
7
  6
DASHED
 10
4.599821433126591
 20
8.100000000000001
 30
0
 11
4.609999999999999
 21
8.110178566873408
 31
0
  0
LINE
  8
0
 62
7
 10
0.9500000000000002
 20
8.162489168102784
 30
0
 11
1.087510831897216
 21
8.299999999999999
 31
0
  0
LINE
  8
0
 62
7
 10
1.099642866253181
 20
8.100000000000001
 30
0
 11
1.29964286625318
 21
8.299999999999999
 31
0
  0
LINE
  8
0
 62
7
 10
1.311774900609146
 20
8.100000000000001
 30
0
 11
1.511774900609145
 21
8.299999999999999
 31
0
  0
LINE
  8
0
 62
7
 10
1.52390693496511
 20
8.100000000000001
 30
0
 11
1.723906934965109
 21
8.299999999999999
 31
0
  0
LINE
  8
0
 62
7
 10
1.736038969321074
 20
8.100000000000001
 30
0
 11
1.936038969321073
 21
8.299999999999999
 31
0
  0
LINE
  8
0
 62
7
 10
1.948171003677039
 20
8.100000000000001
 30
0
 11
2.148171003677037
 21
8.299999999999999
 31
0
  0
LINE
  8
0
 62
7
 10
2.160303038033003
 20
8.100000000000001
 30
0
 11
2.360303038033002
 21
8.299999999999999
 31
0
  0
LINE
  8
0
 62
7
 10
2.372435072388967
 20
8.100000000000001
 30
0
 11
2.572435072388966
 21
8.299999999999999
 31
0
  0
LINE
  8
0
 62
7
 10
2.584567106744931
 20
8.100000000000001
 30
0
 11
2.78456710674493
 21
8.299999999999999
 31
0
  0
LINE
  8
0
 62
7
 10
2.796699141100896
 20
8.100000000000001
 30
0
 11
2.996699141100895
 21
8.299999999999999
 31
0
  0
LINE
  8
0
 62
7
 10
3.00883117545686
 20
8.100000000000001
 30
0
 11
3.208831175456859
 21
8.299999999999999
 31
0
  0
LINE
  8
0
 62
7
 10
3.220963209812824
 20
8.100000000000001
 30
0
 11
3.420963209812823
 21
8.299999999999999
 31
0
  0
LINE
  8
0
 62
7
 10
3.433095244168789
 20
8.100000000000001
 30
0
 11
3.633095244168787
 21
8.299999999999999
 31
0
  0
LINE
  8
0
 62
7
 10
3.645227278524753
 20
8.100000000000001
 30
0
 11
3.845227278524752
 21
8.299999999999999
 31
0
  0
LINE
  8
0
 62
7
 10
3.857359312880717
 20
8.100000000000001
 30
0
 11
4.057359312880716
 21
8.299999999999999
 31
0
  0
LINE
  8
0
 62
7
 10
4.069491347236681
 20
8.100000000000001
 30
0
 11
4.26949134723668
 21
8.299999999999999
 31
0
  0
LINE
  8
0
 62
7
 10
4.281623381592645
 20
8.100000000000001
 30
0
 11
4.481623381592644
 21
8.299999999999999
 31
0
  0
LINE
  8
0
 62
7
 10
4.493755415948609
 20
8.100000000000001
 30
0
 11
4.609999999999998
 21
8.216244584051388
 31
0
  0
ENDBLK
  8
0
  0
BLOCK
  8
0
  2
*X7
 70
1
 10
0
 20
0
 30
0
  0
LINE
  8
0
 62
7
  6
DASHED
 10
0.9500000000000002
 20
11.0262716319083
 30
0
 11
0.9737283680917002
 21
11.05
 31
0
  0
LINE
  8
0
 62
7
  6
DASHED
 10
0.9858604024476638
 20
10.85
 30
0
 11
1.185860402447664
 21
11.05
 31
0
  0
LINE
  8
0
 62
7
  6
DASHED
 10
1.197992436803628
 20
10.85
 30
0
 11
1.397992436803629
 21
11.05
 31
0
  0
LINE
  8
0
 62
7
  6
DASHED
 10
1.410124471159592
 20
10.85
 30
0
 11
1.610124471159593
 21
11.05
 31
0
  0
LINE
  8
0
 62
7
  6
DASHED
 10
1.622256505515557
 20
10.85
 30
0
 11
1.822256505515557
 21
11.05
 31
0
  0
LINE
  8
0
 62
7
  6
DASHED
 10
1.834388539871521
 20
10.85
 30
0
 11
2.034388539871522
 21
11.05
 31
0
  0
LINE
  8
0
 62
7
  6
DASHED
 10
2.046520574227485
 20
10.85
 30
0
 11
2.246520574227486
 21
11.05
 31
0
  0
LINE
  8
0
 62
7
  6
DASHED
 10
2.25865260858345
 20
10.85
 30
0
 11
2.45865260858345
 21
11.05
 31
0
  0
LINE
  8
0
 62
7
  6
DASHED
 10
2.470784642939414
 20
10.85
 30
0
 11
2.670784642939414
 21
11.05
 31
0
  0
LINE
  8
0
 62
7
  6
DASHED
 10
2.682916677295378
 20
10.85
 30
0
 11
2.882916677295379
 21
11.05
 31
0
  0
LINE
  8
0
 62
7
  6
DASHED
 10
2.895048711651342
 20
10.85
 30
0
 11
3.095048711651343
 21
11.05
 31
0
  0
LINE
  8
0
 62
7
  6
DASHED
 10
3.107180746007307
 20
10.85
 30
0
 11
3.307180746007307
 21
11.05
 31
0
  0
LINE
  8
0
 62
7
  6
DASHED
 10
3.319312780363271
 20
10.85
 30
0
 11
3.519312780363272
 21
11.05
 31
0
  0
LINE
  8
0
 62
7
  6
DASHED
 10
3.531444814719235
 20
10.85
 30
0
 11
3.731444814719236
 21
11.05
 31
0
  0
LINE
  8
0
 62
7
  6
DASHED
 10
3.743576849075199
 20
10.85
 30
0
 11
3.9435768490752
 21
11.05
 31
0
  0
LINE
  8
0
 62
7
  6
DASHED
 10
3.955708883431164
 20
10.85
 30
0
 11
4.155708883431164
 21
11.05
 31
0
  0
LINE
  8
0
 62
7
  6
DASHED
 10
4.167840917787128
 20
10.85
 30
0
 11
4.367840917787128
 21
11.05
 31
0
  0
LINE
  8
0
 62
7
  6
DASHED
 10
4.379972952143092
 20
10.85
 30
0
 11
4.579972952143092
 21
11.05
 31
0
  0
LINE
  8
0
 62
7
  6
DASHED
 10
4.592104986499056
 20
10.85
 30
0
 11
4.609999999999998
 21
10.86789501350094
 31
0
  0
LINE
  8
0
 62
7
 10
0.9500000000000002
 20
10.92020561473032
 30
0
 11
1.079794385269682
 21
11.05
 31
0
  0
LINE
  8
0
 62
7
 10
1.091926419625646
 20
10.85
 30
0
 11
1.291926419625646
 21
11.05
 31
0
  0
LINE
  8
0
 62
7
 10
1.30405845398161
 20
10.85
 30
0
 11
1.50405845398161
 21
11.05
 31
0
  0
LINE
  8
0
 62
7
 10
1.516190488337575
 20
10.85
 30
0
 11
1.716190488337574
 21
11.05
 31
0
  0
LINE
  8
0
 62
7
 10
1.728322522693539
 20
10.85
 30
0
 11
1.928322522693539
 21
11.05
 31
0
  0
LINE
  8
0
 62
7
 10
1.940454557049503
 20
10.85
 30
0
 11
2.140454557049503
 21
11.05
 31
0
  0
LINE
  8
0
 62
7
 10
2.152586591405468
 20
10.85
 30
0
 11
2.352586591405467
 21
11.05
 31
0
  0
LINE
  8
0
 62
7
 10
2.364718625761432
 20
10.85
 30
0
 11
2.564718625761432
 21
11.05
 31
0
  0
LINE
  8
0
 62
7
 10
2.576850660117396
 20
10.85
 30
0
 11
2.776850660117396
 21
11.05
 31
0
  0
LINE
  8
0
 62
7
 10
2.78898269447336
 20
10.85
 30
0
 11
2.98898269447336
 21
11.05
 31
0
  0
LINE
  8
0
 62
7
 10
3.001114728829325
 20
10.85
 30
0
 11
3.201114728829324
 21
11.05
 31
0
  0
LINE
  8
0
 62
7
 10
3.213246763185289
 20
10.85
 30
0
 11
3.413246763185289
 21
11.05
 31
0
  0
LINE
  8
0
 62
7
 10
3.425378797541253
 20
10.85
 30
0
 11
3.625378797541253
 21
11.05
 31
0
  0
LINE
  8
0
 62
7
 10
3.637510831897218
 20
10.85
 30
0
 11
3.837510831897217
 21
11.05
 31
0
  0
LINE
  8
0
 62
7
 10
3.849642866253182
 20
10.85
 30
0
 11
4.049642866253182
 21
11.05
 31
0
  0
LINE
  8
0
 62
7
 10
4.061774900609146
 20
10.85
 30
0
 11
4.261774900609145
 21
11.05
 31
0
  0
LINE
  8
0
 62
7
 10
4.27390693496511
 20
10.85
 30
0
 11
4.473906934965109
 21
11.05
 31
0
  0
LINE
  8
0
 62
7
 10
4.486038969321074
 20
10.85
 30
0
 11
4.609999999999996
 21
10.97396103067892
 31
0
  0
ENDBLK
  8
0
  0
BLOCK
  8
0
  2
*X8
 70
1
 10
0
 20
0
 30
0
  0
LINE
  8
0
 62
7
 10
7.960000000000005
 20
8.066066017177986
 30
0
 11
7.993933982822019
 21
8.1
 31
0
  0
LINE
  8
0
 62
7
 10
8.056066017177983
 20
7.95
 30
0
 11
8.200000000000005
 21
8.093933982822019
 31
0
  0
LINE
  8
0
 62
7
 10
7.960000000000006
 20
7.960000000000004
 30
0
 11
8.100000000000001
 21
8.1
 31
0
  0
LINE
  8
0
 62
7
 10
8.162132034355965
 20
7.949999999999999
 30
0
 11
8.200000000000005
 21
7.987867965644039
 31
0
  0
ENDBLK
  8
0
  0
BLOCK
  8
0
  2
*X9
 70
1
 10
0
 20
0
 30
0
  0
LINE
  8
0
 62
7
 10
7.960000000000006
 20
10.82378246380552
 30
0
 11
7.986217536194484
 21
10.85
 31
0
  0
LINE
  8
0
 62
7
 10
7.960000000000006
 20
10.61165042944955
 30
0
 11
8.198349570550448
 21
10.85
 31
0
  0
LINE
  8
0
 62
7
 10
7.960000000000006
 20
10.39951839509359
 30
0
 11
8.200000000000005
 21
10.63951839509359
 31
0
  0
LINE
  8
0
 62
7
 10
7.960000000000006
 20
10.18738636073763
 30
0
 11
8.200000000000005
 21
10.42738636073762
 31
0
  0
LINE
  8
0
 62
7
 10
7.960000000000006
 20
9.975254326381663
 30
0
 11
8.200000000000005
 21
10.21525432638166
 31
0
  0
LINE
  8
0
 62
7
 10
7.960000000000006
 20
9.763122292025699
 30
0
 11
8.200000000000005
 21
10.0031222920257
 31
0
  0
LINE
  8
0
 62
7
 10
7.960000000000006
 20
9.550990257669735
 30
0
 11
8.200000000000005
 21
9.790990257669733
 31
0
  0
LINE
  8
0
 62
7
 10
7.960000000000006
 20
9.338858223313771
 30
0
 11
8.200000000000005
 21
9.57885822331377
 31
0
  0
LINE
  8
0
 62
7
 10
7.960000000000006
 20
9.126726188957807
 30
0
 11
8.200000000000005
 21
9.366726188957806
 31
0
  0
LINE
  8
0
 62
7
 10
7.960000000000006
 20
8.914594154601843
 30
0
 11
8.200000000000005
 21
9.154594154601842
 31
0
  0
LINE
  8
0
 62
7
 10
7.960000000000006
 20
8.70246212024588
 30
0
 11
8.200000000000005
 21
8.942462120245878
 31
0
  0
LINE
  8
0
 62
7
 10
7.960000000000006
 20
8.490330085889916
 30
0
 11
8.200000000000005
 21
8.730330085889914
 31
0
  0
LINE
  8
0
 62
7
 10
7.98180194846605
 20
8.299999999999997
 30
0
 11
8.200000000000005
 21
8.51819805153395
 31
0
  0
LINE
  8
0
 62
7
 10
8.193933982822013
 20
8.299999999999997
 30
0
 11
8.200000000000005
 21
8.306066017177987
 31
0
  0
LINE
  8
0
 62
7
 10
7.960000000000006
 20
10.71771644662754
 30
0
 11
8.092283553372464
 21
10.85
 31
0
  0
LINE
  8
0
 62
7
 10
7.960000000000006
 20
10.50558441227157
 30
0
 11
8.200000000000006
 21
10.74558441227157
 31
0
  0
LINE
  8
0
 62
7
 10
7.960000000000006
 20
10.29345237791561
 30
0
 11
8.200000000000006
 21
10.53345237791561
 31
0
  0
LINE
  8
0
 62
7
 10
7.960000000000006
 20
10.08132034355964
 30
0
 11
8.200000000000006
 21
10.32132034355964
 31
0
  0
LINE
  8
0
 62
7
 10
7.960000000000006
 20
9.869188309203681
 30
0
 11
8.200000000000006
 21
10.10918830920368
 31
0
  0
LINE
  8
0
 62
7
 10
7.960000000000006
 20
9.657056274847717
 30
0
 11
8.200000000000006
 21
9.897056274847715
 31
0
  0
LINE
  8
0
 62
7
 10
7.960000000000006
 20
9.444924240491753
 30
0
 11
8.200000000000006
 21
9.684924240491751
 31
0
  0
LINE
  8
0
 62
7
 10
7.960000000000006
 20
9.232792206135789
 30
0
 11
8.200000000000006
 21
9.472792206135788
 31
0
  0
LINE
  8
0
 62
7
 10
7.960000000000006
 20
9.020660171779825
 30
0
 11
8.200000000000006
 21
9.260660171779824
 31
0
  0
LINE
  8
0
 62
7
 10
7.960000000000006
 20
8.808528137423862
 30
0
 11
8.200000000000006
 21
9.04852813742386
 31
0
  0
LINE
  8
0
 62
7
 10
7.960000000000006
 20
8.596396103067898
 30
0
 11
8.200000000000006
 21
8.836396103067896
 31
0
  0
LINE
  8
0
 62
7
 10
7.960000000000006
 20
8.384264068711934
 30
0
 11
8.200000000000006
 21
8.624264068711932
 31
0
  0
LINE
  8
0
 62
7
 10
8.087867965644033
 20
8.299999999999995
 30
0
 11
8.200000000000006
 21
8.412132034355968
 31
0
  0
ENDBLK
  8
0
  0
BLOCK
  8
0
  2
*X10
 70
1
 10
0
 20
0
 30
0
  0
LINE
  8
0
 62
7
 10
7.974085501838521
 20
11.05
 30
0
 11
8.12408550183852
 21
11.2
 31
0
  0
LINE
  8
0
 62
7
 10
8.186217536194485
 20
11.05
 30
0
 11
8.200000000000005
 21
11.06378246380552
 31
0
  0
LINE
  8
0
 62
7
 10
7.960000000000005
 20
11.14198051533947
 30
0
 11
8.018019484660536
 21
11.2
 31
0
  0
LINE
  8
0
 62
7
 10
8.080151519016503
 20
11.05
 30
0
 11
8.200000000000003
 21
11.1698484809835
 31
0
  0
ENDBLK
  8
0
  0
BLOCK
  8
0
  2
*X11
 70
1
 10
0
 20
0
 30
0
  0
LINE
  8
0
 62
7
  6
DASHED
 10
6.140000000000006
 20
8.155254326381664
 30
0
 11
6.284745673618337
 21
8.299999999999997
 31
0
  0
LINE
  8
0
 62
7
  6
DASHED
 10
6.296877707974304
 20
8.1
 30
0
 11
6.440000000000007
 21
8.243122292025703
 31
0
  0
LINE
  8
0
 62
7
 10
6.140000000000005
 20
8.261320343559646
 30
0
 11
6.178679656440356
 21
8.299999999999997
 31
0
  0
LINE
  8
0
 62
7
 10
6.190811690796322
 20
8.099999999999998
 30
0
 11
6.39081169079632
 21
8.299999999999997
 31
0
  0
LINE
  8
0
 62
7
 10
6.402943725152286
 20
8.099999999999998
 30
0
 11
6.440000000000007
 21
8.137056274847719
 31
0
  0
ENDBLK
  8
0
  0
BLOCK
  8
0
  2
*X12
 70
1
 10
0
 20
0
 30
0
  0
LINE
  8
0
 62
7
  6
DASHED
 10
6.140000000000006
 20
10.9129707730092
 30
0
 11
6.277029226990805
 21
11.05
 31
0
  0
LINE
  8
0
 62
7
  6
DASHED
 10
6.28916126134677
 20
10.85
 30
0
 11
6.440000000000005
 21
11.00083873865324
 31
0
  0
LINE
  8
0
 62
7
 10
6.140000000000003
 20
11.01903679018718
 30
0
 11
6.170963209812826
 21
11.05
 31
0
  0
LINE
  8
0
 62
7
 10
6.18309524416879
 20
10.85
 30
0
 11
6.38309524416879
 21
11.05
 31
0
  0
LINE
  8
0
 62
7
 10
6.395227278524754
 20
10.85
 30
0
 11
6.440000000000005
 21
10.89477272147525
 31
0
  0
ENDBLK
  8
0
  0
BLOCK
  8
0
  2
*X13
 70
1
 10
0
 20
0
 30
0
  0
LINE
  8
0
 62
7
  6
DASHED
 10
7.960000000000003
 20
11.03591449816148
 30
0
 11
7.974085501838521
 21
11.05
 31
0
  0
LINE
  8
0
 62
7
  6
DASHED
 10
7.986217536194484
 20
10.85
 30
0
 11
8.186217536194485
 21
11.05
 31
0
  0
LINE
  8
0
 62
7
  6
DASHED
 10
8.198349570550448
 20
10.85
 30
0
 11
8.200000000000005
 21
10.85165042944956
 31
0
  0
LINE
  8
0
 62
7
 10
7.960000000000005
 20
10.9298484809835
 30
0
 11
8.080151519016503
 21
11.05
 31
0
  0
LINE
  8
0
 62
7
 10
8.092283553372466
 20
10.85
 30
0
 11
8.200000000000005
 21
10.95771644662754
 31
0
  0
ENDBLK
  8
0
  0
BLOCK
  8
0
  2
*X14
 70
1
 10
0
 20
0
 30
0
  0
LINE
  8
0
 62
7
  6
DASHED
 10
7.960000000000005
 20
8.27819805153395
 30
0
 11
7.98180194846605
 21
8.299999999999997
 31
0
  0
LINE
  8
0
 62
7
  6
DASHED
 10
7.993933982822019
 20
8.1
 30
0
 11
8.193933982822013
 21
8.299999999999997
 31
0
  0
LINE
  8
0
 62
7
 10
7.960000000000006
 20
8.172132034355968
 30
0
 11
8.087867965644033
 21
8.299999999999995
 31
0
  0
LINE
  8
0
 62
7
 10
8.100000000000001
 20
8.1
 30
0
 11
8.200000000000005
 21
8.200000000000003
 31
0
  0
ENDBLK
  8
0
  0
BLOCK
  8
0
  2
*X15
 70
1
 10
0
 20
0
 30
0
  0
LINE
  8
0
 62
7
 10
1.1
 20
5.448706704297266
 30
0
 11
1.191293295702733
 21
5.539999999999999
 31
0
  0
LINE
  8
0
 62
7
 10
0.9350000000000001
 20
5.283706704297266
 30
0
 11
1.041293295702733
 21
5.389999999999999
 31
0
  0
LINE
  8
0
 62
7
 10
1.013425330058697
 20
5.15
 30
0
 11
1.274999999999999
 21
5.411574669941301
 31
0
  0
LINE
  8
0
 62
7
 10
1.225557364414661
 20
5.15
 30
0
 11
1.465557364414661
 21
5.389999999999998
 31
0
  0
LINE
  8
0
 62
7
 10
1.437689398770626
 20
5.15
 30
0
 11
1.677689398770625
 21
5.389999999999998
 31
0
  0
LINE
  8
0
 62
7
 10
1.64982143312659
 20
5.15
 30
0
 11
1.889821433126589
 21
5.389999999999998
 31
0
  0
LINE
  8
0
 62
7
 10
1.861953467482554
 20
5.15
 30
0
 11
2.101953467482554
 21
5.389999999999998
 31
0
  0
LINE
  8
0
 62
7
 10
2.074085501838518
 20
5.15
 30
0
 11
2.314085501838518
 21
5.389999999999998
 31
0
  0
LINE
  8
0
 62
7
 10
2.286217536194483
 20
5.15
 30
0
 11
2.526217536194482
 21
5.389999999999998
 31
0
  0
LINE
  8
0
 62
7
 10
2.498349570550447
 20
5.15
 30
0
 11
2.738349570550446
 21
5.389999999999998
 31
0
  0
LINE
  8
0
 62
7
 10
2.710481604906411
 20
5.15
 30
0
 11
2.950481604906411
 21
5.389999999999998
 31
0
  0
LINE
  8
0
 62
7
 10
2.922613639262376
 20
5.15
 30
0
 11
3.162613639262375
 21
5.389999999999998
 31
0
  0
LINE
  8
0
 62
7
 10
3.13474567361834
 20
5.15
 30
0
 11
3.374745673618339
 21
5.389999999999998
 31
0
  0
LINE
  8
0
 62
7
 10
3.346877707974304
 20
5.15
 30
0
 11
3.586877707974303
 21
5.389999999999998
 31
0
  0
LINE
  8
0
 62
7
 10
3.559009742330268
 20
5.15
 30
0
 11
3.799009742330268
 21
5.389999999999998
 31
0
  0
LINE
  8
0
 62
7
 10
3.771141776686233
 20
5.15
 30
0
 11
4.011141776686232
 21
5.389999999999998
 31
0
  0
LINE
  8
0
 62
7
 10
4.284999999999999
 20
5.451726188957801
 30
0
 11
4.373273811042197
 21
5.539999999999999
 31
0
  0
LINE
  8
0
 62
7
 10
3.983273811042197
 20
5.15
 30
0
 11
4.223273811042196
 21
5.389999999999998
 31
0
  0
LINE
  8
0
 62
7
 10
4.195405845398161
 20
5.15
 30
0
 11
4.459999999999997
 21
5.414594154601835
 31
0
  0
LINE
  8
0
 62
7
 10
4.407537879754125
 20
5.15
 30
0
 11
4.609999999999998
 21
5.352462120245873
 31
0
  0
LINE
  8
0
 62
7
 10
0.9350000000000005
 20
5.389772721475248
 30
0
 11
0.9352272785247497
 21
5.389999999999999
 31
0
  0
LINE
  8
0
 62
7
 10
0.9350000000000005
 20
5.177640687119284
 30
0
 11
1.274999999999999
 21
5.517640687119283
 31
0
  0
LINE
  8
0
 62
7
 10
1.11949134723668
 20
5.150000000000001
 30
0
 11
1.359491347236679
 21
5.389999999999999
 31
0
  0
LINE
  8
0
 62
7
 10
1.331623381592645
 20
5.150000000000001
 30
0
 11
1.571623381592643
 21
5.389999999999999
 31
0
  0
LINE
  8
0
 62
7
 10
1.543755415948609
 20
5.150000000000001
 30
0
 11
1.783755415948608
 21
5.389999999999999
 31
0
  0
LINE
  8
0
 62
7
 10
1.755887450304573
 20
5.150000000000001
 30
0
 11
1.995887450304572
 21
5.389999999999999
 31
0
  0
LINE
  8
0
 62
7
 10
1.968019484660537
 20
5.150000000000001
 30
0
 11
2.208019484660536
 21
5.389999999999999
 31
0
  0
LINE
  8
0
 62
7
 10
2.180151519016502
 20
5.150000000000001
 30
0
 11
2.420151519016501
 21
5.389999999999999
 31
0
  0
LINE
  8
0
 62
7
 10
2.392283553372466
 20
5.150000000000001
 30
0
 11
2.632283553372465
 21
5.389999999999999
 31
0
  0
LINE
  8
0
 62
7
 10
2.60441558772843
 20
5.150000000000001
 30
0
 11
2.844415587728429
 21
5.389999999999999
 31
0
  0
LINE
  8
0
 62
7
 10
2.816547622084395
 20
5.150000000000001
 30
0
 11
3.056547622084393
 21
5.389999999999999
 31
0
  0
LINE
  8
0
 62
7
 10
3.028679656440359
 20
5.150000000000001
 30
0
 11
3.268679656440358
 21
5.389999999999999
 31
0
  0
LINE
  8
0
 62
7
 10
3.240811690796323
 20
5.150000000000001
 30
0
 11
3.480811690796322
 21
5.389999999999999
 31
0
  0
LINE
  8
0
 62
7
 10
3.452943725152287
 20
5.150000000000001
 30
0
 11
3.692943725152286
 21
5.389999999999999
 31
0
  0
LINE
  8
0
 62
7
 10
3.665075759508252
 20
5.150000000000001
 30
0
 11
3.905075759508251
 21
5.389999999999999
 31
0
  0
LINE
  8
0
 62
7
 10
3.877207793864216
 20
5.150000000000001
 30
0
 11
4.117207793864215
 21
5.389999999999999
 31
0
  0
LINE
  8
0
 62
7
 10
4.08933982822018
 20
5.150000000000001
 30
0
 11
4.459999999999997
 21
5.520660171779817
 31
0
  0
LINE
  8
0
 62
7
 10
4.301471862576144
 20
5.150000000000001
 30
0
 11
4.541471862576143
 21
5.389999999999999
 31
0
  0
LINE
  8
0
 62
7
 10
4.513603896932108
 20
5.150000000000001
 30
0
 11
4.609999999999999
 21
5.246396103067891
 31
0
  0
ENDBLK
  8
0
  0
BLOCK
  8
0
  2
*X16
 70
1
 10
0
 20
0
 30
0
  0
LINE
  8
0
 62
7
 10
0.9350000000000001
 20
5.071574669941302
 30
0
 11
0.9734253300586979
 21
5.11
 31
0
  0
LINE
  8
0
 62
7
 10
0.9455573644146629
 20
4.870000000000001
 30
0
 11
1.185557364414662
 21
5.11
 31
0
  0
LINE
  8
0
 62
7
 10
1.1
 20
4.812310601229372
 30
0
 11
1.397689398770626
 21
5.11
 31
0
  0
LINE
  8
0
 62
7
 10
1.36982143312659
 20
4.870000000000001
 30
0
 11
1.609821433126591
 21
5.11
 31
0
  0
LINE
  8
0
 62
7
 10
1.1
 20
4.600178566873408
 30
0
 11
1.274999999999999
 21
4.775178566873408
 31
0
  0
LINE
  8
0
 62
7
 10
1.581953467482554
 20
4.870000000000001
 30
0
 11
1.821953467482555
 21
5.11
 31
0
  0
LINE
  8
0
 62
7
 10
1.1
 20
4.388046532517444
 30
0
 11
1.274999999999999
 21
4.563046532517444
 31
0
  0
LINE
  8
0
 62
7
 10
1.794085501838519
 20
4.870000000000001
 30
0
 11
2.034085501838519
 21
5.11
 31
0
  0
LINE
  8
0
 62
7
 10
1.1
 20
4.175914498161481
 30
0
 11
1.274999999999999
 21
4.35091449816148
 31
0
  0
LINE
  8
0
 62
7
 10
2.006217536194483
 20
4.870000000000001
 30
0
 11
2.246217536194484
 21
5.11
 31
0
  0
LINE
  8
0
 62
7
 10
1.1
 20
3.963782463805517
 30
0
 11
1.274999999999999
 21
4.138782463805517
 31
0
  0
LINE
  8
0
 62
7
 10
2.218349570550447
 20
4.870000000000001
 30
0
 11
2.458349570550448
 21
5.11
 31
0
  0
LINE
  8
0
 62
7
 10
1.1
 20
3.751650429449553
 30
0
 11
1.274999999999999
 21
3.926650429449553
 31
0
  0
LINE
  8
0
 62
7
 10
2.430481604906412
 20
4.870000000000001
 30
0
 11
2.670481604906412
 21
5.11
 31
0
  0
LINE
  8
0
 62
7
 10
1.1
 20
3.539518395093588
 30
0
 11
1.274999999999999
 21
3.714518395093588
 31
0
  0
LINE
  8
0
 62
7
 10
2.642613639262376
 20
4.870000000000001
 30
0
 11
2.882613639262376
 21
5.11
 31
0
  0
LINE
  8
0
 62
7
 10
1.122613639262376
 20
3.35
 30
0
 11
1.274999999999999
 21
3.502386360737624
 31
0
  0
LINE
  8
0
 62
7
 10
2.85474567361834
 20
4.870000000000001
 30
0
 11
3.094745673618341
 21
5.11
 31
0
  0
LINE
  8
0
 62
7
 10
3.066877707974304
 20
4.870000000000001
 30
0
 11
3.306877707974305
 21
5.11
 31
0
  0
LINE
  8
0
 62
7
 10
3.279009742330269
 20
4.870000000000001
 30
0
 11
3.519009742330269
 21
5.11
 31
0
  0
LINE
  8
0
 62
7
 10
3.491141776686233
 20
4.870000000000001
 30
0
 11
3.731141776686234
 21
5.11
 31
0
  0
LINE
  8
0
 62
7
 10
3.703273811042197
 20
4.870000000000001
 30
0
 11
3.943273811042198
 21
5.11
 31
0
  0
LINE
  8
0
 62
7
 10
3.915405845398161
 20
4.870000000000001
 30
0
 11
4.155405845398162
 21
5.11
 31
0
  0
LINE
  8
0
 62
7
 10
4.127537879754126
 20
4.870000000000001
 30
0
 11
4.367537879754126
 21
5.11
 31
0
  0
LINE
  8
0
 62
7
 10
4.285
 20
4.815330085889909
 30
0
 11
4.57966991411009
 21
5.11
 31
0
  0
LINE
  8
0
 62
7
 10
4.551801948466056
 20
4.870000000000001
 30
0
 11
4.609999999999998
 21
4.928198051533943
 31
0
  0
LINE
  8
0
 62
7
 10
4.285
 20
4.603198051533945
 30
0
 11
4.459999999999998
 21
4.778198051533943
 31
0
  0
LINE
  8
0
 62
7
 10
4.285
 20
4.391066017177981
 30
0
 11
4.459999999999998
 21
4.566066017177979
 31
0
  0
LINE
  8
0
 62
7
 10
4.285
 20
4.178933982822017
 30
0
 11
4.459999999999998
 21
4.353933982822015
 31
0
  0
LINE
  8
0
 62
7
 10
4.285
 20
3.966801948466053
 30
0
 11
4.459999999999998
 21
4.141801948466052
 31
0
  0
LINE
  8
0
 62
7
 10
4.285
 20
3.754669914110089
 30
0
 11
4.459999999999998
 21
3.929669914110087
 31
0
  0
LINE
  8
0
 62
7
 10
4.285
 20
3.542537879754124
 30
0
 11
4.459999999999998
 21
3.717537879754123
 31
0
  0
LINE
  8
0
 62
7
 10
4.284999999999999
 20
3.33040584539816
 30
0
 11
4.459999999999998
 21
3.505405845398159
 31
0
  0
LINE
  8
0
 62
7
 10
4.416726188957804
 20
3.25
 30
0
 11
4.459999999999998
 21
3.293273811042194
 31
0
  0
LINE
  8
0
 62
7
 10
0.9349999999999996
 20
4.965508652763321
 30
0
 11
1.07949134723668
 21
5.11
 31
0
  0
LINE
  8
0
 62
7
 10
1.051623381592645
 20
4.870000000000001
 30
0
 11
1.291623381592645
 21
5.11
 31
0
  0
LINE
  8
0
 62
7
 10
1.1
 20
4.70624458405139
 30
0
 11
1.503755415948609
 21
5.11
 31
0
  0
LINE
  8
0
 62
7
 10
1.475887450304573
 20
4.870000000000001
 30
0
 11
1.715887450304573
 21
5.11
 31
0
  0
LINE
  8
0
 62
7
 10
1.1
 20
4.494112549695426
 30
0
 11
1.275
 21
4.669112549695426
 31
0
  0
LINE
  8
0
 62
7
 10
1.688019484660538
 20
4.870000000000001
 30
0
 11
1.928019484660537
 21
5.11
 31
0
  0
LINE
  8
0
 62
7
 10
1.1
 20
4.281980515339463
 30
0
 11
1.275
 21
4.456980515339462
 31
0
  0
LINE
  8
0
 62
7
 10
1.900151519016502
 20
4.870000000000001
 30
0
 11
2.140151519016502
 21
5.11
 31
0
  0
LINE
  8
0
 62
7
 10
1.1
 20
4.069848480983499
 30
0
 11
1.275
 21
4.244848480983499
 31
0
  0
LINE
  8
0
 62
7
 10
2.112283553372466
 20
4.870000000000001
 30
0
 11
2.352283553372466
 21
5.11
 31
0
  0
LINE
  8
0
 62
7
 10
1.1
 20
3.857716446627535
 30
0
 11
1.275
 21
4.032716446627535
 31
0
  0
LINE
  8
0
 62
7
 10
2.32441558772843
 20
4.870000000000001
 30
0
 11
2.56441558772843
 21
5.11
 31
0
  0
LINE
  8
0
 62
7
 10
1.1
 20
3.645584412271571
 30
0
 11
1.275
 21
3.82058441227157
 31
0
  0
LINE
  8
0
 62
7
 10
2.536547622084395
 20
4.870000000000001
 30
0
 11
2.776547622084395
 21
5.11
 31
0
  0
LINE
  8
0
 62
7
 10
1.1
 20
3.433452377915606
 30
0
 11
1.275
 21
3.608452377915606
 31
0
  0
LINE
  8
0
 62
7
 10
2.748679656440359
 20
4.870000000000001
 30
0
 11
2.988679656440359
 21
5.11
 31
0
  0
LINE
  8
0
 62
7
 10
1.228679656440357
 20
3.35
 30
0
 11
1.275
 21
3.396320343559642
 31
0
  0
LINE
  8
0
 62
7
 10
2.960811690796323
 20
4.870000000000001
 30
0
 11
3.200811690796323
 21
5.11
 31
0
  0
LINE
  8
0
 62
7
 10
3.172943725152288
 20
4.870000000000001
 30
0
 11
3.412943725152287
 21
5.11
 31
0
  0
LINE
  8
0
 62
7
 10
3.385075759508252
 20
4.870000000000001
 30
0
 11
3.625075759508252
 21
5.11
 31
0
  0
LINE
  8
0
 62
7
 10
3.597207793864216
 20
4.870000000000001
 30
0
 11
3.837207793864216
 21
5.11
 31
0
  0
LINE
  8
0
 62
7
 10
3.80933982822018
 20
4.870000000000001
 30
0
 11
4.04933982822018
 21
5.11
 31
0
  0
LINE
  8
0
 62
7
 10
4.021471862576145
 20
4.870000000000001
 30
0
 11
4.261471862576144
 21
5.11
 31
0
  0
LINE
  8
0
 62
7
 10
4.233603896932109
 20
4.870000000000001
 30
0
 11
4.473603896932108
 21
5.11
 31
0
  0
LINE
  8
0
 62
7
 10
4.285
 20
4.709264068711926
 30
0
 11
4.609999999999998
 21
5.034264068711925
 31
0
  0
LINE
  8
0
 62
7
 10
4.285
 20
4.497132034355962
 30
0
 11
4.459999999999997
 21
4.67213203435596
 31
0
  0
LINE
  8
0
 62
7
 10
4.285
 20
4.284999999999998
 30
0
 11
4.459999999999997
 21
4.459999999999996
 31
0
  0
LINE
  8
0
 62
7
 10
4.285
 20
4.072867965644035
 30
0
 11
4.459999999999997
 21
4.247867965644033
 31
0
  0
LINE
  8
0
 62
7
 10
4.285
 20
3.860735931288071
 30
0
 11
4.459999999999997
 21
4.035735931288069
 31
0
  0
LINE
  8
0
 62
7
 10
4.285
 20
3.648603896932106
 30
0
 11
4.459999999999997
 21
3.823603896932104
 31
0
  0
LINE
  8
0
 62
7
 10
4.285
 20
3.436471862576142
 30
0
 11
4.459999999999997
 21
3.61147186257614
 31
0
  0
LINE
  8
0
 62
7
 10
4.310660171779822
 20
3.25
 30
0
 11
4.459999999999997
 21
3.399339828220176
 31
0
  0
ENDBLK
  8
0
  0
BLOCK
  8
0
  2
*D0
 70
1
 10
0
 20
0
 30
0
  0
LINE
  8
0
 62
7
 10
0.570124010674201
 20
10.14035494634636
 30
0
 11
0.570124010674201
 21
11.05
 31
0
  0
LINE
  8
0
 62
7
 10
0.570124010674201
 20
8.299999999999997
 30
0
 11
0.570124010674201
 21
9.06035494634636
 31
0
  0
LINE
  8
0
 62
7
 10
0.9500000000000001
 20
11.05
 30
0
 11
0.520124010674201
 21
11.05
 31
0
  0
LINE
  8
0
 62
7
 10
0.9500000000000001
 20
8.299999999999997
 30
0
 11
0.520124010674201
 21
8.299999999999997
 31
0
  0
LINE
  8
0
 62
7
 10
0.5347686716148736
 20
8.335355339059324
 30
0
 11
0.6054793497335285
 21
8.26464466094067
 31
0
  0
LINE
  8
0
 62
7
 10
0.6054793497335285
 20
11.01464466094067
 30
0
 11
0.5347686716148736
 21
11.08535533905933
 31
0
  0
TEXT
  8
0
 62
7
 10
0.540124010674201
 20
9.462854946346361
 30
0
 40
0.1
  1
2,75
 50
90
 41
0.9
  0
TEXT
  8
0
 62
7
 10
0.700124010674201
 20
9.260354946346361
 30
0
 40
0.1
  1
(260-280)
 50
90
 41
0.9
  0
ENDBLK
  8
0
  0
BLOCK
  8
0
  2
*D1
 70
1
 10
0
 20
0
 30
0
  0
LINE
  8
0
 62
7
 10
3.09405985011095
 20
11.5146469806392
 30
0
 11
4.285
 21
11.5146469806392
 31
0
  0
LINE
  8
0
 62
7
 10
1.275
 20
11.5146469806392
 30
0
 11
2.44905985011095
 21
11.5146469806392
 31
0
  0
LINE
  8
0
 62
7
 10
4.285
 20
11.2
 30
0
 11
4.285
 21
11.5646469806392
 31
0
  0
LINE
  8
0
 62
7
 10
1.275
 20
11.2
 30
0
 11
1.275
 21
11.5646469806392
 31
0
  0
LINE
  8
0
 62
7
 10
1.310355339059327
 20
11.55000231969853
 30
0
 11
1.239644660940673
 21
11.47929164157987
 31
0
  0
LINE
  8
0
 62
7
 10
4.249644660940673
 20
11.47929164157987
 30
0
 11
4.320355339059327
 21
11.55000231969853
 31
0
  0
TEXT
  8
0
 62
7
 10
2.64905985011095
 20
11.4696469806392
 30
0
 40
0.1
  1
3,01
 41
0.9
  0
ENDBLK
  8
0
  0
BLOCK
  8
0
  2
*D2
 70
1
 10
0
 20
0
 30
0
  0
LINE
  8
0
 62
7
 10
4.75763783568976
 20
4.44533669732582
 30
0
 11
4.75763783568976
 21
4.870000000000001
 31
0
  0
LINE
  8
0
 62
7
 10
4.75763783568976
 20
3.25
 30
0
 11
4.75763783568976
 21
3.70033669732582
 31
0
  0
LINE
  8
0
 62
7
 10
4.459999999999997
 20
4.870000000000001
 30
0
 11
4.80763783568976
 21
4.870000000000001
 31
0
  0
LINE
  8
0
 62
7
 10
4.459999999999997
 20
3.25
 30
0
 11
4.80763783568976
 21
3.25
 31
0
  0
LINE
  8
0
 62
7
 10
4.722282496630433
 20
3.285355339059327
 30
0
 11
4.792993174749087
 21
3.214644660940673
 31
0
  0
LINE
  8
0
 62
7
 10
4.792993174749087
 20
4.834644660940674
 30
0
 11
4.722282496630433
 21
4.905355339059328
 31
0
  0
TEXT
  8
0
 62
7
 10
4.80263783568976
 20
3.95033669732582
 30
0
 40
0.1
  1
1,62
 50
90
 41
0.9
  0
ENDBLK
  8
0
  0
BLOCK
  8
0
  2
*D3
 70
1
 10
0
 20
0
 30
0
  0
LINE
  8
0
 62
7
 10
3.14405985011095
 20
5.735877902117721
 30
0
 11
4.285
 21
5.735877902117721
 31
0
  0
LINE
  8
0
 62
7
 10
1.275
 20
5.735877902117721
 30
0
 11
2.39905985011095
 21
5.735877902117721
 31
0
  0
LINE
  8
0
 62
7
 10
4.285
 20
5.389999999999999
 30
0
 11
4.285
 21
5.785877902117721
 31
0
  0
LINE
  8
0
 62
7
 10
1.275
 20
5.389999999999999
 30
0
 11
1.275
 21
5.785877902117721
 31
0
  0
LINE
  8
0
 62
7
 10
4.249644660940673
 20
5.700522563058394
 30
0
 11
4.320355339059327
 21
5.771233241177049
 31
0
  0
LINE
  8
0
 62
7
 10
1.310355339059327
 20
5.771233241177049
 30
0
 11
1.239644660940673
 21
5.700522563058394
 31
0
  0
TEXT
  8
0
 62
7
 10
2.64905985011095
 20
5.690877902117721
 30
0
 40
0.1
  1
3,01
 41
0.9
  0
ENDBLK
  8
0
  0
BLOCK
  8
0
  2
*D4
 70
1
 10
0
 20
0
 30
0
  0
LINE
  8
0
 62
7
 10
0.821374840175135
 20
4.49319399818314
 30
0
 11
0.821374840175135
 21
4.870000000000001
 31
0
  0
LINE
  8
0
 62
7
 10
0.821374840175135
 20
3.35
 30
0
 11
0.821374840175135
 21
3.74819399818314
 31
0
  0
LINE
  8
0
 62
7
 10
1.1
 20
4.870000000000001
 30
0
 11
0.7713748401751349
 21
4.870000000000001
 31
0
  0
LINE
  8
0
 62
7
 10
1.1
 20
3.35
 30
0
 11
0.7713748401751349
 21
3.35
 31
0
  0
LINE
  8
0
 62
7
 10
0.8567301792344624
 20
4.834644660940674
 30
0
 11
0.7860195011158075
 21
4.905355339059328
 31
0
  0
LINE
  8
0
 62
7
 10
0.7860195011158075
 20
3.385355339059327
 30
0
 11
0.8567301792344624
 21
3.314644660940673
 31
0
  0
TEXT
  8
0
 62
7
 10
0.866374840175135
 20
3.99819399818314
 30
0
 40
0.1
  1
1,52
 50
90
 41
0.9
  0
ENDBLK
  8
0
  0
ENDSEC
  0
SECTION
  2
ENTITIES
  0
INSERT
  8
0
  2
*X0
 10
0
 20
0
 30
0
  0
INSERT
  8
0
  2
*X1
 10
0
 20
0
 30
0
  0
INSERT
  8
0
  2
*X2
 10
0
 20
0
 30
0
  0
INSERT
  8
0
  2
*X3
 10
0
 20
0
 30
0
  0
INSERT
  8
0
  2
*X4
 10
0
 20
0
 30
0
  0
INSERT
  8
0
  2
*X5
 10
0
 20
0
 30
0
  0
INSERT
  8
0
  2
*X6
 10
0
 20
0
 30
0
  0
INSERT
  8
0
  2
*X7
 10
0
 20
0
 30
0
  0
INSERT
  8
0
  2
*X8
 10
0
 20
0
 30
0
  0
INSERT
  8
0
  2
*X9
 10
0
 20
0
 30
0
  0
INSERT
  8
0
  2
*X10
 10
0
 20
0
 30
0
  0
INSERT
  8
0
  2
*X11
 10
0
 20
0
 30
0
  0
INSERT
  8
0
  2
*X12
 10
0
 20
0
 30
0
  0
INSERT
  8
0
  2
*X13
 10
0
 20
0
 30
0
  0
INSERT
  8
0
  2
*X14
 10
0
 20
0
 30
0
  0
INSERT
  8
0
  2
*X15
 10
0
 20
0
 30
0
  0
INSERT
  8
0
  2
*X16
 10
0
 20
0
 30
0
  0
LINE
  8
0
 62
7
 10
2.390000000000004
 20
3.5349925080169
 30
0
 11
2.390000000000004
 21
3.711954440397888
 31
0
  0
LINE
  8
0
 62
7
 10
2.390000000000004
 20
3.711954440397888
 30
0
 11
2.44607250527118
 21
3.755000000000001
 31
0
  0
LINE
  8
0
 62
7
 10
2.526825024775022
 20
3.755000000000001
 30
0
 11
2.62571508730288
 21
3.755000000000001
 31
0
  0
LINE
  8
0
 62
7
 10
2.44607250527118
 20
3.755000000000001
 30
0
 11
2.62571508730288
 21
3.755000000000001
 31
0
  0
LINE
  8
0
 62
7
 10
2.951504438376691
 20
3.755000000000001
 30
0
 11
3.124213055698283
 21
3.755000000000001
 31
0
  0
LINE
  8
0
 62
7
 10
3.124213055698283
 20
3.755000000000001
 30
0
 11
3.17
 21
3.686319583547423
 31
0
  0
LINE
  8
0
 62
7
 10
3.17
 20
3.589495299847349
 30
0
 11
3.17
 21
3.491349494676788
 31
0
  0
LINE
  8
0
 62
7
 10
3.17
 20
3.686319583547423
 30
0
 11
3.17
 21
3.491349494676788
 31
0
  0
LINE
  8
0
 62
7
 10
4.230000000000002
 20
3.25
 30
0
 11
4.230000000000002
 21
3.69249518361197
 31
0
  0
LINE
  8
0
 62
7
 10
3.17
 20
3.463863033753769
 30
0
 11
3.17
 21
3.25
 31
0
  0
LINE
  8
0
 62
7
 10
3.17
 20
3.25
 30
0
 11
4.230000000000002
 21
3.25
 31
0
  0
LINE
  8
0
 62
7
 10
4.230000000000002
 20
3.600425470360308
 30
0
 11
4.230000000000002
 21
4.050576733691391
 31
0
  0
LINE
  8
0
 62
7
 10
3.17
 20
3.491349494676788
 30
0
 11
3.17
 21
3.371793320502107
 31
0
  0
LINE
  8
0
 62
7
 10
3.17
 20
3.371793320502107
 30
0
 11
4.230000000000002
 21
3.600425470360308
 31
0
  0
LINE
  8
0
 62
7
 10
4.230000000000002
 20
3.952430928520831
 30
0
 11
4.230000000000002
 21
4.478694946352651
 31
0
  0
LINE
  8
0
 62
7
 10
3.17
 20
3.491349494676788
 30
0
 11
4.230000000000002
 21
3.952430928520831
 31
0
  0
LINE
  8
0
 62
7
 10
4.230000000000002
 20
4.367750411459311
 30
0
 11
4.230000000000002
 21
4.815
 31
0
  0
LINE
  8
0
 62
7
 10
4.230000000000002
 20
4.815
 30
0
 11
4.009251038106671
 21
4.815
 31
0
  0
LINE
  8
0
 62
7
 10
3.17
 20
3.686319583547423
 30
0
 11
3.207213898461891
 21
3.630498735854588
 31
0
  0
LINE
  8
0
 62
7
 10
3.207213898461891
 20
3.630498735854588
 30
0
 11
4.230000000000002
 21
4.367750411459311
 31
0
  0
LINE
  8
0
 62
7
 10
4.131292603794351
 20
4.815
 30
0
 11
3.509002049672781
 21
4.815
 31
0
  0
LINE
  8
0
 62
7
 10
3.124213055698283
 20
3.755000000000001
 30
0
 11
3.160490471173631
 21
3.755000000000001
 31
0
  0
LINE
  8
0
 62
7
 10
3.160490471173631
 20
3.755000000000001
 30
0
 11
4.131292603794351
 21
4.815
 31
0
  0
LINE
  8
0
 62
7
 10
3.610690663064392
 20
4.815
 30
0
 11
3.134244302001382
 21
4.815
 31
0
  0
LINE
  8
0
 62
7
 10
2.850053745258812
 20
3.755000000000001
 30
0
 11
3.053193051768301
 21
3.755000000000001
 31
0
  0
LINE
  8
0
 62
7
 10
3.053193051768301
 20
3.755000000000001
 30
0
 11
3.610690663064392
 21
4.815
 31
0
  0
LINE
  8
0
 62
7
 10
3.227422772217651
 20
4.815
 30
0
 11
2.778372535470253
 21
4.815
 31
0
  0
LINE
  8
0
 62
7
 10
2.74450490541486
 20
3.755000000000001
 30
0
 11
2.943232215475082
 21
3.755000000000001
 31
0
  0
LINE
  8
0
 62
7
 10
2.943232215475082
 20
3.755000000000001
 30
0
 11
3.227422772217651
 21
4.815
 31
0
  0
LINE
  8
0
 62
7
 10
2.86841846157412
 20
4.815
 30
0
 11
2.4156487392027
 21
4.815
 31
0
  0
LINE
  8
0
 62
7
 10
2.636727911502061
 20
3.755000000000001
 30
0
 11
2.83455083151874
 21
3.755000000000001
 31
0
  0
LINE
  8
0
 62
7
 10
2.83455083151874
 20
3.755000000000001
 30
0
 11
2.86841846157412
 21
4.815
 31
0
  0
LINE
  8
0
 62
7
 10
2.507585378676194
 20
4.815
 30
0
 11
2.044188351513151
 21
4.815
 31
0
  0
LINE
  8
0
 62
7
 10
2.62571508730288
 20
3.755000000000001
 30
0
 11
2.728664550975551
 21
3.755000000000001
 31
0
  0
LINE
  8
0
 62
7
 10
2.728664550975551
 20
3.755000000000001
 30
0
 11
2.507585378676194
 21
4.815
 31
0
  0
LINE
  8
0
 62
7
 10
2.143078414041014
 20
4.815
 30
0
 11
1.578312423322801
 21
4.815
 31
0
  0
LINE
  8
0
 62
7
 10
2.62571508730288
 20
3.755000000000001
 30
0
 11
2.143078414041014
 21
4.815
 31
0
  0
LINE
  8
0
 62
7
 10
1.693133569153281
 20
4.815
 30
0
 11
1.33
 21
4.815
 31
0
  0
LINE
  8
0
 62
7
 10
1.33
 20
4.815
 30
0
 11
1.33
 21
4.482189999192587
 31
0
  0
LINE
  8
0
 62
7
 10
2.44607250527118
 20
3.755000000000001
 30
0
 11
2.500067355748882
 21
3.79645059228591
 31
0
  0
LINE
  8
0
 62
7
 10
2.500067355748882
 20
3.79645059228591
 30
0
 11
1.693133569153281
 21
4.815
 31
0
  0
LINE
  8
0
 62
7
 10
1.33
 20
4.597435658204612
 30
0
 11
1.33
 21
4.023538337662621
 31
0
  0
LINE
  8
0
 62
7
 10
2.390000000000004
 20
3.711954440397888
 30
0
 11
2.390000000000004
 21
3.74963509242933
 31
0
  0
LINE
  8
0
 62
7
 10
2.390000000000004
 20
3.74963509242933
 30
0
 11
1.33
 21
4.597435658204612
 31
0
  0
LINE
  8
0
 62
7
 10
1.33
 20
4.122637357889707
 30
0
 11
1.33
 21
3.66239636004201
 31
0
  0
LINE
  8
0
 62
7
 10
2.390000000000004
 20
3.424276874413368
 30
0
 11
2.390000000000004
 21
3.634091528243978
 31
0
  0
LINE
  8
0
 62
7
 10
2.390000000000004
 20
3.634091528243978
 30
0
 11
1.33
 21
4.122637357889707
 31
0
  0
LINE
  8
0
 62
7
 10
1.33
 20
3.75463927346588
 30
0
 11
1.33
 21
3.38
 31
0
  0
LINE
  8
0
 62
7
 10
2.390000000000004
 20
3.38
 30
0
 11
2.390000000000004
 21
3.516519787837238
 31
0
  0
LINE
  8
0
 62
7
 10
2.390000000000004
 20
3.516519787837238
 30
0
 11
1.33
 21
3.75463927346588
 31
0
  0
LINE
  8
0
 62
7
 10
1.749236746194171
 20
3.4
 30
0
 11
1.749236746194171
 21
3.75500007639406
 31
0
  0
LINE
  8
0
 62
7
 10
1.749236746194171
 20
3.4
 30
0
 11
1.64358164693247
 21
3.460999999999999
 31
0
  0
LINE
  8
0
 62
7
 10
1.64358164693247
 20
3.460999999999999
 30
0
 11
1.854891845455872
 21
3.460999999999999
 31
0
  0
LINE
  8
0
 62
7
 10
1.854891845455872
 20
3.460999999999999
 30
0
 11
1.749236746194171
 21
3.4
 31
0
  0
LINE
  8
0
 62
7
 10
2.389999923569731
 20
4.395763253805829
 30
0
 11
3.17000007639441
 21
4.395763253805829
 31
0
  0
LINE
  8
0
 62
7
 10
3.810763253805833
 20
3.755000076431898
 30
0
 11
3.810763253805833
 21
3.25
 31
0
  0
LINE
  8
0
 62
7
 10
3.170000230000003
 20
8.583333226666666
 30
0
 11
4.230000540000002
 21
8.583333226666666
 31
0
  0
LINE
  8
0
 62
7
 10
4.230000540000002
 20
8.583333226666666
 30
0
 11
4.230000540000002
 21
8.518333226666664
 31
0
  0
LINE
  8
0
 62
7
 10
3.170000230000003
 20
8.518333226666664
 30
0
 11
3.170000230000003
 21
8.583333226666666
 31
0
  0
LINE
  8
0
 62
7
 10
4.230000540000002
 20
8.518333226666664
 30
0
 11
3.170000230000003
 21
8.518333226666664
 31
0
  0
LINE
  8
0
 62
7
 10
3.170000080000003
 20
8.766666566666665
 30
0
 11
4.230000250000002
 21
8.766666566666665
 31
0
  0
LINE
  8
0
 62
7
 10
4.230000250000002
 20
8.766666566666665
 30
0
 11
4.230000250000002
 21
8.701666566666665
 31
0
  0
LINE
  8
0
 62
7
 10
3.170000080000003
 20
8.701666566666665
 30
0
 11
3.170000080000003
 21
8.766666566666665
 31
0
  0
LINE
  8
0
 62
7
 10
4.230000250000002
 20
8.701666566666665
 30
0
 11
3.170000080000003
 21
8.701666566666665
 31
0
  0
LINE
  8
0
 62
7
 10
3.17000015
 20
8.949999906666665
 30
0
 11
4.230000080000002
 21
8.949999906666665
 31
0
  0
LINE
  8
0
 62
7
 10
4.230000080000002
 20
8.949999906666665
 30
0
 11
4.230000080000002
 21
8.884999906666664
 31
0
  0
LINE
  8
0
 62
7
 10
3.17000015
 20
8.884999906666664
 30
0
 11
3.17000015
 21
8.949999906666665
 31
0
  0
LINE
  8
0
 62
7
 10
4.230000080000002
 20
8.884999906666664
 30
0
 11
3.17000015
 21
8.884999906666664
 31
0
  0
LINE
  8
0
 62
7
 10
4.229999990000001
 20
9.068333226666665
 30
0
 11
3.088083340000003
 21
9.068333226666665
 31
0
  0
LINE
  8
0
 62
7
 10
3.088083340000003
 20
9.133333226666664
 30
0
 11
4.229999990000001
 21
9.133333226666664
 31
0
  0
LINE
  8
0
 62
7
 10
4.229999990000001
 20
9.133333226666664
 30
0
 11
4.229999990000001
 21
9.068333226666665
 31
0
  0
LINE
  8
0
 62
7
 10
3.088083340000003
 20
9.068333226666665
 30
0
 11
3.088083340000003
 21
9.133333226666664
 31
0
  0
LINE
  8
0
 62
7
 10
4.131292590000004
 20
9.251666586666667
 30
0
 11
2.95150467
 21
9.251666586666667
 31
0
  0
LINE
  8
0
 62
7
 10
2.95150467
 20
9.316666586666667
 30
0
 11
4.131292590000004
 21
9.316666586666667
 31
0
  0
LINE
  8
0
 62
7
 10
4.131292590000004
 20
9.316666586666667
 30
0
 11
4.131292590000004
 21
9.251666586666667
 31
0
  0
LINE
  8
0
 62
7
 10
2.95150467
 20
9.251666586666667
 30
0
 11
2.95150467
 21
9.316666586666667
 31
0
  0
LINE
  8
0
 62
7
 10
3.610690770000001
 20
9.434999946666665
 30
0
 11
2.850053560000001
 21
9.434999946666665
 31
0
  0
LINE
  8
0
 62
7
 10
2.850053560000001
 20
9.499999946666666
 30
0
 11
3.610690770000001
 21
9.499999946666666
 31
0
  0
LINE
  8
0
 62
7
 10
3.610690770000001
 20
9.499999946666666
 30
0
 11
3.610690770000001
 21
9.434999946666665
 31
0
  0
LINE
  8
0
 62
7
 10
2.850053560000001
 20
9.434999946666665
 30
0
 11
2.850053560000001
 21
9.499999946666666
 31
0
  0
LINE
  8
0
 62
7
 10
3.22742287
 20
9.618333226666664
 30
0
 11
2.744505160000001
 21
9.618333226666664
 31
0
  0
LINE
  8
0
 62
7
 10
2.744505160000001
 20
9.683333226666665
 30
0
 11
3.22742287
 21
9.683333226666665
 31
0
  0
LINE
  8
0
 62
7
 10
3.22742287
 20
9.683333226666665
 30
0
 11
3.22742287
 21
9.618333226666664
 31
0
  0
LINE
  8
0
 62
7
 10
2.744505160000001
 20
9.618333226666664
 30
0
 11
2.744505160000001
 21
9.683333226666665
 31
0
  0
LINE
  8
0
 62
7
 10
2.868418730000003
 20
9.801666666666662
 30
0
 11
2.415648800000002
 21
9.801666666666662
 31
0
  0
LINE
  8
0
 62
7
 10
2.415648800000002
 20
9.866666666666667
 30
0
 11
2.868418730000003
 21
9.866666666666667
 31
0
  0
LINE
  8
0
 62
7
 10
2.868418730000003
 20
9.866666666666667
 30
0
 11
2.868418730000003
 21
9.801666666666662
 31
0
  0
LINE
  8
0
 62
7
 10
2.415648800000002
 20
9.801666666666662
 30
0
 11
2.415648800000002
 21
9.866666666666667
 31
0
  0
LINE
  8
0
 62
7
 10
2.728664400000002
 20
9.984999946666665
 30
0
 11
2.04418838
 21
9.984999946666665
 31
0
  0
LINE
  8
0
 62
7
 10
2.04418838
 20
10.04999994666667
 30
0
 11
2.728664400000002
 21
10.04999994666667
 31
0
  0
LINE
  8
0
 62
7
 10
2.728664400000002
 20
10.04999994666667
 30
0
 11
2.728664400000002
 21
9.984999946666665
 31
0
  0
LINE
  8
0
 62
7
 10
2.04418838
 20
9.984999946666665
 30
0
 11
2.04418838
 21
10.04999994666667
 31
0
  0
LINE
  8
0
 62
7
 10
2.625715330000001
 20
10.16833322666666
 30
0
 11
1.578312380000001
 21
10.16833322666666
 31
0
  0
LINE
  8
0
 62
7
 10
1.578312380000001
 20
10.23333322666666
 30
0
 11
2.625715330000001
 21
10.23333322666666
 31
0
  0
LINE
  8
0
 62
7
 10
2.625715330000001
 20
10.23333322666666
 30
0
 11
2.625715330000001
 21
10.16833322666666
 31
0
  0
LINE
  8
0
 62
7
 10
1.578312380000001
 20
10.16833322666666
 30
0
 11
1.578312380000001
 21
10.23333322666666
 31
0
  0
LINE
  8
0
 62
7
 10
2.500067440000002
 20
10.35166666666666
 30
0
 11
1.33
 21
10.35166666666666
 31
0
  0
LINE
  8
0
 62
7
 10
1.33
 20
10.41666666666666
 30
0
 11
2.500067440000002
 21
10.41666666666666
 31
0
  0
LINE
  8
0
 62
7
 10
2.500067440000002
 20
10.41666666666666
 30
0
 11
2.500067440000002
 21
10.35166666666666
 31
0
  0
LINE
  8
0
 62
7
 10
1.33
 20
10.35166666666666
 30
0
 11
1.33
 21
10.41666666666666
 31
0
  0
LINE
  8
0
 62
7
 10
1.33
 20
10.59999994666666
 30
0
 11
2.390000150000002
 21
10.59999994666666
 31
0
  0
LINE
  8
0
 62
7
 10
2.390000150000002
 20
10.59999994666666
 30
0
 11
2.390000150000002
 21
10.53499994666666
 31
0
  0
LINE
  8
0
 62
7
 10
1.33
 20
10.53499994666666
 30
0
 11
1.33
 21
10.59999994666666
 31
0
  0
LINE
  8
0
 62
7
 10
2.390000150000002
 20
10.53499994666666
 30
0
 11
1.33
 21
10.53499994666666
 31
0
  0
LINE
  8
0
 62
7
 10
1.33
 20
10.78333322666666
 30
0
 11
2.390000150000002
 21
10.78333322666666
 31
0
  0
LINE
  8
0
 62
7
 10
2.390000150000002
 20
10.78333322666666
 30
0
 11
2.390000150000002
 21
10.71833322666666
 31
0
  0
LINE
  8
0
 62
7
 10
1.33
 20
10.71833322666666
 30
0
 11
1.33
 21
10.78333322666666
 31
0
  0
LINE
  8
0
 62
7
 10
2.390000150000002
 20
10.71833322666666
 30
0
 11
1.33
 21
10.71833322666666
 31
0
  0
LINE
  8
0
 62
7
  6
DASHED
 10
1.33
 20
10.96666666666666
 30
0
 11
2.390000150000002
 21
10.96666666666666
 31
0
  0
LINE
  8
0
 62
7
  6
DASHED
 10
2.390000150000002
 20
10.96666666666666
 30
0
 11
2.390000150000002
 21
10.90166666666666
 31
0
  0
LINE
  8
0
 62
7
  6
DASHED
 10
1.33
 20
10.90166666666666
 30
0
 11
1.33
 21
10.96666666666666
 31
0
  0
LINE
  8
0
 62
7
  6
DASHED
 10
2.390000150000002
 20
10.90166666666666
 30
0
 11
1.33
 21
10.90166666666666
 31
0
  0
LINE
  8
0
 62
7
 10
6.340000169999996
 20
8.583333226666666
 30
0
 11
6.782495300000007
 21
8.583333226666666
 31
0
  0
LINE
  8
0
 62
7
 10
6.782495300000007
 20
8.518333226666664
 30
0
 11
6.340000169999996
 21
8.518333226666664
 31
0
  0
LINE
  8
0
 62
7
 10
6.340000169999996
 20
8.518333226666664
 30
0
 11
6.340000169999996
 21
8.583333226666666
 31
0
  0
LINE
  8
0
 62
7
 10
6.782495300000007
 20
8.583333226666666
 30
0
 11
6.782495300000007
 21
8.518333226666664
 31
0
  0
LINE
  8
0
 62
7
 10
7.140576859999998
 20
8.701666566666661
 30
0
 11
6.461794009999996
 21
8.701666566666661
 31
0
  0
LINE
  8
0
 62
7
 10
6.461794009999996
 20
8.766666566666663
 30
0
 11
7.140576859999998
 21
8.766666566666663
 31
0
  0
LINE
  8
0
 62
7
 10
6.461794009999996
 20
8.701666566666661
 30
0
 11
6.461794009999996
 21
8.766666566666663
 31
0
  0
LINE
  8
0
 62
7
 10
7.140576859999998
 20
8.766666566666663
 30
0
 11
7.140576859999998
 21
8.701666566666661
 31
0
  0
LINE
  8
0
 62
7
 10
7.568695219999997
 20
8.884999906666662
 30
0
 11
6.581349639999996
 21
8.884999906666662
 31
0
  0
LINE
  8
0
 62
7
 10
6.581349639999996
 20
8.949999906666664
 30
0
 11
7.568695219999997
 21
8.949999906666664
 31
0
  0
LINE
  8
0
 62
7
 10
6.581349639999996
 20
8.884999906666662
 30
0
 11
6.581349639999996
 21
8.949999906666664
 31
0
  0
LINE
  8
0
 62
7
 10
7.568695219999997
 20
8.949999906666664
 30
0
 11
7.568695219999997
 21
8.884999906666662
 31
0
  0
LINE
  8
0
 62
7
 10
7.905000149999996
 20
9.068333226666665
 30
0
 11
6.720499259999996
 21
9.068333226666665
 31
0
  0
LINE
  8
0
 62
7
 10
6.720499259999996
 20
9.133333226666664
 30
0
 11
7.905000149999996
 21
9.133333226666664
 31
0
  0
LINE
  8
0
 62
7
 10
6.720499259999996
 20
9.068333226666665
 30
0
 11
6.720499259999996
 21
9.133333226666664
 31
0
  0
LINE
  8
0
 62
7
 10
7.905000149999996
 20
9.133333226666664
 30
0
 11
7.905000149999996
 21
9.068333226666665
 31
0
  0
LINE
  8
0
 62
7
 10
6.844999959999997
 20
9.316666586666667
 30
0
 11
7.905000149999996
 21
9.316666586666667
 31
0
  0
LINE
  8
0
 62
7
 10
6.844999959999997
 20
9.251666586666667
 30
0
 11
6.844999959999997
 21
9.316666586666667
 31
0
  0
LINE
  8
0
 62
7
 10
7.905000149999996
 20
9.316666586666667
 30
0
 11
7.905000149999996
 21
9.251666586666667
 31
0
  0
LINE
  8
0
 62
7
 10
7.905000149999996
 20
9.251666586666667
 30
0
 11
6.844999959999997
 21
9.251666586666667
 31
0
  0
LINE
  8
0
 62
7
 10
6.844999920000006
 20
9.499999946666664
 30
0
 11
7.905000149999996
 21
9.499999946666664
 31
0
  0
LINE
  8
0
 62
7
 10
6.844999920000006
 20
9.434999946666663
 30
0
 11
6.844999920000006
 21
9.499999946666664
 31
0
  0
LINE
  8
0
 62
7
 10
7.905000149999996
 20
9.499999946666664
 30
0
 11
7.905000149999996
 21
9.434999946666663
 31
0
  0
LINE
  8
0
 62
7
 10
7.905000149999996
 20
9.434999946666663
 30
0
 11
6.844999920000006
 21
9.434999946666663
 31
0
  0
LINE
  8
0
 62
7
 10
6.845000029999998
 20
9.683333226666665
 30
0
 11
7.905000299999998
 21
9.683333226666665
 31
0
  0
LINE
  8
0
 62
7
 10
6.845000029999998
 20
9.618333226666664
 30
0
 11
6.845000029999998
 21
9.683333226666665
 31
0
  0
LINE
  8
0
 62
7
 10
7.905000299999998
 20
9.683333226666665
 30
0
 11
7.905000299999998
 21
9.618333226666664
 31
0
  0
LINE
  8
0
 62
7
 10
7.905000299999998
 20
9.618333226666664
 30
0
 11
6.845000029999998
 21
9.618333226666664
 31
0
  0
LINE
  8
0
 62
7
 10
6.844999920000006
 20
9.866666666666664
 30
0
 11
7.905000299999998
 21
9.866666666666664
 31
0
  0
LINE
  8
0
 62
7
 10
6.844999920000006
 20
9.801666666666662
 30
0
 11
6.844999920000006
 21
9.866666666666664
 31
0
  0
LINE
  8
0
 62
7
 10
7.905000299999998
 20
9.866666666666664
 30
0
 11
7.905000299999998
 21
9.801666666666662
 31
0
  0
LINE
  8
0
 62
7
 10
7.905000299999998
 20
9.801666666666662
 30
0
 11
6.844999920000006
 21
9.801666666666662
 31
0
  0
LINE
  8
0
 62
7
 10
6.845000069999997
 20
10.04999994666666
 30
0
 11
7.905000000000006
 21
10.04999994666666
 31
0
  0
LINE
  8
0
 62
7
 10
6.845000069999997
 20
9.984999946666663
 30
0
 11
6.845000069999997
 21
10.04999994666666
 31
0
  0
LINE
  8
0
 62
7
 10
7.905000000000006
 20
10.04999994666666
 30
0
 11
7.905000000000006
 21
9.984999946666663
 31
0
  0
LINE
  8
0
 62
7
 10
7.905000000000006
 20
9.984999946666663
 30
0
 11
6.845000069999997
 21
9.984999946666663
 31
0
  0
LINE
  8
0
 62
7
 10
6.844999959999997
 20
10.23333322666666
 30
0
 11
7.905000000000006
 21
10.23333322666666
 31
0
  0
LINE
  8
0
 62
7
 10
6.844999959999997
 20
10.16833322666666
 30
0
 11
6.844999959999997
 21
10.23333322666666
 31
0
  0
LINE
  8
0
 62
7
 10
7.905000000000006
 20
10.23333322666666
 30
0
 11
7.905000000000006
 21
10.16833322666666
 31
0
  0
LINE
  8
0
 62
7
 10
7.905000000000006
 20
10.16833322666666
 30
0
 11
6.844999959999997
 21
10.16833322666666
 31
0
  0
LINE
  8
0
 62
7
 10
7.905000000000006
 20
10.35166666666666
 30
0
 11
6.763967549999997
 21
10.35166666666666
 31
0
  0
LINE
  8
0
 62
7
 10
6.763967549999997
 20
10.41666666666666
 30
0
 11
7.905000000000006
 21
10.41666666666666
 31
0
  0
LINE
  8
0
 62
7
 10
6.763967549999997
 20
10.35166666666666
 30
0
 11
6.763967549999997
 21
10.41666666666666
 31
0
  0
LINE
  8
0
 62
7
 10
7.905000000000006
 20
10.41666666666666
 30
0
 11
7.905000000000006
 21
10.35166666666666
 31
0
  0
LINE
  8
0
 62
7
 10
7.687435909999997
 20
10.53499994666666
 30
0
 11
6.624993239999997
 21
10.53499994666666
 31
0
  0
LINE
  8
0
 62
7
 10
6.624993239999997
 20
10.59999994666666
 30
0
 11
7.687435909999997
 21
10.59999994666666
 31
0
  0
LINE
  8
0
 62
7
 10
6.624993239999997
 20
10.53499994666666
 30
0
 11
6.624993239999997
 21
10.59999994666666
 31
0
  0
LINE
  8
0
 62
7
 10
7.687435909999997
 20
10.59999994666666
 30
0
 11
7.687435909999997
 21
10.53499994666666
 31
0
  0
LINE
  8
0
 62
7
 10
7.212637330000007
 20
10.71833322666666
 30
0
 11
6.514277039999996
 21
10.71833322666666
 31
0
  0
LINE
  8
0
 62
7
 10
6.514277039999996
 20
10.78333322666666
 30
0
 11
7.212637330000007
 21
10.78333322666666
 31
0
  0
LINE
  8
0
 62
7
 10
6.514277039999996
 20
10.71833322666666
 30
0
 11
6.514277039999996
 21
10.78333322666666
 31
0
  0
LINE
  8
0
 62
7
 10
7.212637330000007
 20
10.78333322666666
 30
0
 11
7.212637330000007
 21
10.71833322666666
 31
0
  0
LINE
  8
0
 62
7
 10
6.469999389999998
 20
10.96666666666666
 30
0
 11
6.844638330000008
 21
10.96666666666666
 31
0
  0
LINE
  8
0
 62
7
 10
6.844638330000008
 20
10.90166666666666
 30
0
 11
6.469999389999998
 21
10.90166666666666
 31
0
  0
LINE
  8
0
 62
7
 10
6.469999389999998
 20
10.90166666666666
 30
0
 11
6.469999389999998
 21
10.96666666666666
 31
0
  0
LINE
  8
0
 62
7
 10
6.844638330000008
 20
10.96666666666666
 30
0
 11
6.844638330000008
 21
10.90166666666666
 31
0
  0
LINE
  8
0
 62
7
 10
0.9500000000000001
 20
8.1
 30
0
 11
1.1
 21
8.1
 31
0
  0
LINE
  8
0
 62
7
 10
0.9500000000000001
 20
8.299999999999997
 30
0
 11
1.1
 21
8.299999999999997
 31
0
  0
LINE
  8
0
 62
7
 10
0.9500000000000001
 20
10.85
 30
0
 11
1.1
 21
10.85
 31
0
  0
LINE
  8
0
 62
7
 10
0.9500000000000001
 20
11.05
 30
0
 11
1.1
 21
11.05
 31
0
  0
LINE
  8
0
 62
7
 10
1.1
 20
7.949999999999999
 30
0
 11
1.1
 21
8.1
 31
0
  0
LINE
  8
0
 62
7
 10
1.1
 20
8.1
 30
0
 11
1.275
 21
8.1
 31
0
  0
LINE
  8
0
 62
7
 10
1.1
 20
8.299999999999997
 30
0
 11
1.1
 21
8.399999999999997
 31
0
  0
LINE
  8
0
 62
7
 10
1.1
 20
8.299999999999997
 30
0
 11
1.275
 21
8.299999999999997
 31
0
  0
LINE
  8
0
 62
7
 10
1.1
 20
10.85
 30
0
 11
1.275
 21
10.85
 31
0
  0
LINE
  8
0
 62
7
 10
1.1
 20
11.05
 30
0
 11
1.1
 21
11.15
 31
0
  0
LINE
  8
0
 62
7
 10
1.1
 20
11.05
 30
0
 11
1.275
 21
11.05
 31
0
  0
LINE
  8
0
 62
7
 10
1.275
 20
7.949999999999999
 30
0
 11
1.275
 21
8.1
 31
0
  0
LINE
  8
0
 62
7
 10
1.275
 20
8.1
 30
0
 11
4.285
 21
8.1
 31
0
  0
LINE
  8
0
 62
7
 10
1.275
 20
8.299999999999997
 30
0
 11
1.275
 21
8.399999999999997
 31
0
  0
LINE
  8
0
 62
7
 10
1.275
 20
8.299999999999997
 30
0
 11
4.285
 21
8.299999999999997
 31
0
  0
LINE
  8
0
 62
7
 10
1.275
 20
10.85
 30
0
 11
4.285
 21
10.85
 31
0
  0
LINE
  8
0
 62
7
 10
1.275
 20
11.05
 30
0
 11
1.275
 21
11.15
 31
0
  0
LINE
  8
0
 62
7
 10
1.275
 20
11.05
 30
0
 11
4.285
 21
11.05
 31
0
  0
LINE
  8
0
 62
7
 10
4.285
 20
7.949999999999999
 30
0
 11
4.285
 21
8.1
 31
0
  0
LINE
  8
0
 62
7
 10
4.285
 20
8.1
 30
0
 11
4.459999999999997
 21
8.1
 31
0
  0
LINE
  8
0
 62
7
 10
4.285
 20
8.299999999999997
 30
0
 11
4.285
 21
8.399999999999997
 31
0
  0
LINE
  8
0
 62
7
 10
4.285
 20
8.299999999999997
 30
0
 11
4.459999999999997
 21
8.299999999999997
 31
0
  0
LINE
  8
0
 62
7
 10
4.285
 20
10.85
 30
0
 11
4.459999999999997
 21
10.85
 31
0
  0
LINE
  8
0
 62
7
 10
4.285
 20
11.05
 30
0
 11
4.285
 21
11.15
 31
0
  0
LINE
  8
0
 62
7
 10
4.285
 20
11.05
 30
0
 11
4.459999999999997
 21
11.05
 31
0
  0
LINE
  8
0
 62
7
 10
4.459999999999997
 20
7.949999999999999
 30
0
 11
4.459999999999997
 21
8.1
 31
0
  0
LINE
  8
0
 62
7
 10
4.459999999999997
 20
8.1
 30
0
 11
4.609999999999998
 21
8.1
 31
0
  0
LINE
  8
0
 62
7
 10
4.459999999999997
 20
8.299999999999997
 30
0
 11
4.459999999999997
 21
8.399999999999997
 31
0
  0
LINE
  8
0
 62
7
 10
4.459999999999997
 20
8.299999999999997
 30
0
 11
4.609999999999998
 21
8.299999999999997
 31
0
  0
LINE
  8
0
 62
7
 10
4.459999999999997
 20
10.85
 30
0
 11
4.609999999999998
 21
10.85
 31
0
  0
LINE
  8
0
 62
7
 10
4.459999999999997
 20
11.05
 30
0
 11
4.459999999999997
 21
11.15
 31
0
  0
LINE
  8
0
 62
7
 10
4.459999999999997
 20
11.05
 30
0
 11
4.609999999999998
 21
11.05
 31
0
  0
LINE
  8
0
 62
7
  6
DASHDOT
 10
0.9500000000000001
 20
8.049999999999999
 30
0
 11
0.9500000000000001
 21
8.1
 31
0
  0
LINE
  8
0
 62
7
  6
DASHDOT
 10
0.9500000000000001
 20
10.8
 30
0
 11
0.9500000000000001
 21
10.85
 31
0
  0
LINE
  8
0
 62
7
  6
DASHDOT
 10
4.609999999999998
 20
8.049999999999999
 30
0
 11
4.609999999999998
 21
8.1
 31
0
  0
LINE
  8
0
 62
7
  6
DASHDOT
 10
4.609999999999998
 20
10.8
 30
0
 11
4.609999999999998
 21
10.85
 31
0
  0
LINE
  8
0
 62
7
  6
DASHDOT
 10
1.05
 20
11.2
 30
0
 11
1.1
 21
11.2
 31
0
  0
LINE
  8
0
 62
7
  6
DASHDOT
 10
1.05
 20
7.949999999999999
 30
0
 11
1.1
 21
7.949999999999999
 31
0
  0
LINE
  8
0
 62
7
  6
DASHDOT
 10
4.235
 20
11.2
 30
0
 11
4.285
 21
11.2
 31
0
  0
LINE
  8
0
 62
7
  6
DASHDOT
 10
4.235
 20
7.949999999999999
 30
0
 11
4.285
 21
7.949999999999999
 31
0
  0
LINE
  8
0
 62
7
 10
0.9500000000000001
 20
8.399999999999997
 30
0
 11
1.1
 21
8.399999999999997
 31
0
  0
LINE
  8
0
 62
7
 10
1.1
 20
8.399999999999997
 30
0
 11
1.1
 21
10.85
 31
0
  0
LINE
  8
0
 62
7
  6
DASHDOT
 10
0.9500000000000001
 20
8.399999999999997
 30
0
 11
0.9500000000000001
 21
8.449999999999998
 31
0
  0
LINE
  8
0
 62
7
 10
1.275
 20
8.399999999999997
 30
0
 11
4.285
 21
8.399999999999997
 31
0
  0
LINE
  8
0
 62
7
 10
1.275
 20
8.399999999999997
 30
0
 11
1.275
 21
10.85
 31
0
  0
LINE
  8
0
 62
7
 10
4.285
 20
8.399999999999997
 30
0
 11
4.285
 21
10.85
 31
0
  0
LINE
  8
0
 62
7
 10
4.459999999999997
 20
8.399999999999997
 30
0
 11
4.609999999999998
 21
8.399999999999997
 31
0
  0
LINE
  8
0
 62
7
 10
4.459999999999997
 20
8.399999999999997
 30
0
 11
4.459999999999997
 21
10.85
 31
0
  0
LINE
  8
0
 62
7
  6
DASHDOT
 10
4.609999999999998
 20
8.399999999999997
 30
0
 11
4.609999999999998
 21
8.449999999999998
 31
0
  0
LINE
  8
0
 62
7
 10
0.9500000000000001
 20
11.15
 30
0
 11
1.1
 21
11.15
 31
0
  0
LINE
  8
0
 62
7
 10
1.1
 20
11.15
 30
0
 11
1.1
 21
11.2
 31
0
  0
LINE
  8
0
 62
7
  6
DASHDOT
 10
0.9500000000000001
 20
11.15
 30
0
 11
0.9500000000000001
 21
11.2
 31
0
  0
LINE
  8
0
 62
7
 10
1.275
 20
11.15
 30
0
 11
4.285
 21
11.15
 31
0
  0
LINE
  8
0
 62
7
 10
1.275
 20
11.15
 30
0
 11
1.275
 21
11.2
 31
0
  0
LINE
  8
0
 62
7
 10
4.285
 20
11.15
 30
0
 11
4.285
 21
11.2
 31
0
  0
LINE
  8
0
 62
7
 10
4.459999999999997
 20
11.15
 30
0
 11
4.609999999999998
 21
11.15
 31
0
  0
LINE
  8
0
 62
7
 10
4.459999999999997
 20
11.15
 30
0
 11
4.459999999999997
 21
11.2
 31
0
  0
LINE
  8
0
 62
7
  6
DASHDOT
 10
4.609999999999998
 20
11.15
 30
0
 11
4.609999999999998
 21
11.2
 31
0
  0
LINE
  8
0
 62
7
  6
DASHDOT
 10
4.609999999999998
 20
8.1
 30
0
 11
4.609999999999998
 21
8.299999999999997
 31
0
  0
LINE
  8
0
 62
7
  6
DASHDOT
 10
4.609999999999998
 20
8.299999999999997
 30
0
 11
4.609999999999998
 21
8.399999999999997
 31
0
  0
LINE
  8
0
 62
7
  6
DASHDOT
 10
4.285
 20
7.949999999999999
 30
0
 11
4.459999999999997
 21
7.949999999999999
 31
0
  0
LINE
  8
0
 62
7
  6
DASHDOT
 10
4.459999999999997
 20
7.949999999999999
 30
0
 11
4.509999999999997
 21
7.949999999999999
 31
0
  0
LINE
  8
0
 62
7
  6
DASHDOT
 10
0.9500000000000001
 20
8.1
 30
0
 11
0.9500000000000001
 21
8.299999999999997
 31
0
  0
LINE
  8
0
 62
7
  6
DASHDOT
 10
0.9500000000000001
 20
8.299999999999997
 30
0
 11
0.9500000000000001
 21
8.399999999999997
 31
0
  0
LINE
  8
0
 62
7
  6
DASHDOT
 10
1.1
 20
7.949999999999999
 30
0
 11
1.275
 21
7.949999999999999
 31
0
  0
LINE
  8
0
 62
7
  6
DASHDOT
 10
1.275
 20
7.949999999999999
 30
0
 11
1.325
 21
7.949999999999999
 31
0
  0
LINE
  8
0
 62
7
  6
DASHDOT
 10
0.9500000000000001
 20
10.85
 30
0
 11
0.9500000000000001
 21
11.05
 31
0
  0
LINE
  8
0
 62
7
  6
DASHDOT
 10
0.9500000000000001
 20
11.05
 30
0
 11
0.9500000000000001
 21
11.15
 31
0
  0
LINE
  8
0
 62
7
  6
DASHDOT
 10
1.1
 20
11.2
 30
0
 11
1.275
 21
11.2
 31
0
  0
LINE
  8
0
 62
7
  6
DASHDOT
 10
1.275
 20
11.2
 30
0
 11
1.325
 21
11.2
 31
0
  0
LINE
  8
0
 62
7
  6
DASHDOT
 10
4.609999999999998
 20
10.85
 30
0
 11
4.609999999999998
 21
11.05
 31
0
  0
LINE
  8
0
 62
7
  6
DASHDOT
 10
4.609999999999998
 20
11.05
 30
0
 11
4.609999999999998
 21
11.15
 31
0
  0
LINE
  8
0
 62
7
  6
DASHDOT
 10
4.285
 20
11.2
 30
0
 11
4.459999999999997
 21
11.2
 31
0
  0
LINE
  8
0
 62
7
  6
DASHDOT
 10
4.459999999999997
 20
11.2
 30
0
 11
4.509999999999997
 21
11.2
 31
0
  0
LINE
  8
0
 62
7
 10
8.200000000000005
 20
8.1
 30
0
 11
8.200000000000005
 21
7.949999999999999
 31
0
  0
LINE
  8
0
 62
7
 10
7.960000000000005
 20
11.05
 30
0
 11
7.960000000000005
 21
11.2
 31
0
  0
LINE
  8
0
 62
7
 10
7.960000000000005
 20
11.05
 30
0
 11
8.200000000000005
 21
11.05
 31
0
  0
LINE
  8
0
 62
7
 10
8.200000000000005
 20
11.2
 30
0
 11
8.200000000000005
 21
11.05
 31
0
  0
LINE
  8
0
 62
7
 10
7.960000000000005
 20
10.85
 30
0
 11
7.960000000000005
 21
11.05
 31
0
  0
LINE
  8
0
 62
7
 10
7.960000000000005
 20
10.85
 30
0
 11
8.200000000000005
 21
10.85
 31
0
  0
LINE
  8
0
 62
7
 10
8.200000000000005
 20
11.05
 30
0
 11
8.200000000000005
 21
10.85
 31
0
  0
LINE
  8
0
 62
7
 10
7.960000000000005
 20
8.299999999999997
 30
0
 11
7.960000000000005
 21
10.85
 31
0
  0
LINE
  8
0
 62
7
 10
7.960000000000005
 20
8.299999999999997
 30
0
 11
8.200000000000005
 21
8.299999999999997
 31
0
  0
LINE
  8
0
 62
7
 10
8.200000000000005
 20
10.85
 30
0
 11
8.200000000000005
 21
8.299999999999997
 31
0
  0
LINE
  8
0
 62
7
 10
7.960000000000005
 20
8.1
 30
0
 11
7.960000000000005
 21
8.299999999999997
 31
0
  0
LINE
  8
0
 62
7
 10
7.960000000000005
 20
8.1
 30
0
 11
8.200000000000005
 21
8.1
 31
0
  0
LINE
  8
0
 62
7
 10
8.200000000000005
 20
8.299999999999997
 30
0
 11
8.200000000000005
 21
8.1
 31
0
  0
LINE
  8
0
 62
7
 10
7.960000000000005
 20
7.949999999999999
 30
0
 11
7.960000000000005
 21
8.1
 31
0
  0
LINE
  8
0
 62
7
 10
6.440000000000007
 20
10.85
 30
0
 11
6.440000000000007
 21
11.05
 31
0
  0
LINE
  8
0
 62
7
 10
6.140000000000006
 20
10.85
 30
0
 11
6.440000000000007
 21
10.85
 31
0
  0
LINE
  8
0
 62
7
 10
6.140000000000006
 20
11.05
 30
0
 11
6.440000000000007
 21
11.05
 31
0
  0
LINE
  8
0
 62
7
 10
6.140000000000006
 20
8.299999999999997
 30
0
 11
6.440000000000007
 21
8.299999999999997
 31
0
  0
LINE
  8
0
 62
7
 10
6.440000000000007
 20
8.1
 30
0
 11
6.440000000000007
 21
8.299999999999997
 31
0
  0
LINE
  8
0
 62
7
 10
6.140000000000006
 20
8.1
 30
0
 11
6.440000000000007
 21
8.1
 31
0
  0
LINE
  8
0
 62
7
  6
DASHDOT
 10
8.200000000000005
 20
11.2
 30
0
 11
8.250000000000005
 21
11.2
 31
0
  0
LINE
  8
0
 62
7
  6
DASHDOT
 10
6.140000000000006
 20
11.15
 30
0
 11
6.140000000000006
 21
11.2
 31
0
  0
LINE
  8
0
 62
7
  6
DASHDOT
 10
6.140000000000006
 20
8.1
 30
0
 11
6.140000000000006
 21
8.049999999999999
 31
0
  0
LINE
  8
0
 62
7
  6
DASHDOT
 10
8.200000000000005
 20
7.949999999999999
 30
0
 11
8.250000000000005
 21
7.949999999999999
 31
0
  0
LINE
  8
0
 62
7
 10
6.140000000000006
 20
8.399999999999997
 30
0
 11
6.440000000000007
 21
8.399999999999997
 31
0
  0
LINE
  8
0
 62
7
  6
DASHDOT
 10
6.140000000000006
 20
8.449999999999998
 30
0
 11
6.140000000000006
 21
8.399999999999997
 31
0
  0
LINE
  8
0
 62
7
 10
6.140000000000006
 20
11.15
 30
0
 11
6.440000000000007
 21
11.15
 31
0
  0
LINE
  8
0
 62
7
  6
DASHDOT
 10
6.140000000000006
 20
11.05
 30
0
 11
6.140000000000006
 21
11.15
 31
0
  0
LINE
  8
0
 62
7
  6
DASHDOT
 10
6.140000000000006
 20
8.399999999999997
 30
0
 11
6.140000000000006
 21
8.299999999999997
 31
0
  0
LINE
  8
0
 62
7
  6
DASHDOT
 10
6.140000000000006
 20
8.299999999999997
 30
0
 11
6.140000000000006
 21
8.1
 31
0
  0
LINE
  8
0
 62
7
  6
DASHDOT
 10
7.960000000000005
 20
7.949999999999999
 30
0
 11
8.200000000000005
 21
7.949999999999999
 31
0
  0
LINE
  8
0
 62
7
  6
DASHDOT
 10
7.910000000000005
 20
7.949999999999999
 30
0
 11
7.960000000000005
 21
7.949999999999999
 31
0
  0
LINE
  8
0
 62
7
  6
DASHDOT
 10
7.910000000000005
 20
11.2
 30
0
 11
7.960000000000005
 21
11.2
 31
0
  0
LINE
  8
0
 62
7
  6
DASHDOT
 10
7.960000000000005
 20
11.2
 30
0
 11
8.200000000000005
 21
11.2
 31
0
  0
LINE
  8
0
 62
7
  6
DASHDOT
 10
6.140000000000006
 20
10.8
 30
0
 11
6.140000000000006
 21
10.85
 31
0
  0
LINE
  8
0
 62
7
  6
DASHDOT
 10
6.140000000000006
 20
10.85
 30
0
 11
6.140000000000006
 21
11.05
 31
0
  0
LINE
  8
0
 62
7
  6
DASHED
 10
6.440000000000007
 20
11.05
 30
0
 11
7.960000000000005
 21
11.05
 31
0
  0
LINE
  8
0
 62
7
  6
DASHED
 10
6.440000000000007
 20
10.85
 30
0
 11
7.960000000000005
 21
10.85
 31
0
  0
LINE
  8
0
 62
7
  6
DASHED
 10
6.440000000000007
 20
8.299999999999997
 30
0
 11
7.960000000000005
 21
8.299999999999997
 31
0
  0
LINE
  8
0
 62
7
  6
DASHED
 10
6.440000000000007
 20
8.1
 30
0
 11
7.960000000000005
 21
8.1
 31
0
  0
LINE
  8
0
 62
7
 10
4.459999999999997
 20
5.389999999999999
 30
0
 11
4.609999999999998
 21
5.389999999999999
 31
0
  0
LINE
  8
0
 62
7
 10
4.459999999999997
 20
5.539999999999999
 30
0
 11
4.459999999999997
 21
5.389999999999999
 31
0
  0
LINE
  8
0
 62
7
 10
4.285
 20
5.389999999999999
 30
0
 11
4.285
 21
5.539999999999999
 31
0
  0
LINE
  8
0
 62
7
 10
1.275
 20
5.389999999999999
 30
0
 11
4.285
 21
5.389999999999999
 31
0
  0
LINE
  8
0
 62
7
 10
1.275
 20
5.539999999999999
 30
0
 11
1.275
 21
5.389999999999999
 31
0
  0
LINE
  8
0
 62
7
 10
1.1
 20
5.389999999999999
 30
0
 11
1.1
 21
5.539999999999999
 31
0
  0
LINE
  8
0
 62
7
 10
0.9350000000000001
 20
5.389999999999999
 30
0
 11
1.1
 21
5.389999999999999
 31
0
  0
LINE
  8
0
 62
7
 10
0.9350000000000001
 20
5.15
 30
0
 11
4.609999999999998
 21
5.15
 31
0
  0
LINE
  8
0
 62
7
 10
0.9350000000000001
 20
5.11
 30
0
 11
4.609999999999998
 21
5.11
 31
0
  0
LINE
  8
0
 62
7
 10
4.459999999999997
 20
4.870000000000001
 30
0
 11
4.609999999999998
 21
4.870000000000001
 31
0
  0
LINE
  8
0
 62
7
 10
4.285
 20
3.35
 30
0
 11
4.285
 21
3.25
 31
0
  0
LINE
  8
0
 62
7
 10
4.285
 20
3.25
 30
0
 11
4.459999999999997
 21
3.25
 31
0
  0
LINE
  8
0
 62
7
 10
4.459999999999997
 20
3.25
 30
0
 11
4.459999999999997
 21
4.870000000000001
 31
0
  0
LINE
  8
0
 62
7
 10
1.275
 20
4.870000000000001
 30
0
 11
4.285
 21
4.870000000000001
 31
0
  0
LINE
  8
0
 62
7
 10
1.275
 20
3.4
 30
0
 11
1.275
 21
4.870000000000001
 31
0
  0
LINE
  8
0
 62
7
 10
1.1
 20
4.870000000000001
 30
0
 11
1.1
 21
3.35
 31
0
  0
LINE
  8
0
 62
7
 10
0.9350000000000001
 20
4.870000000000001
 30
0
 11
1.1
 21
4.870000000000001
 31
0
  0
LINE
  8
0
 62
7
 10
1.1
 20
3.35
 30
0
 11
1.275
 21
3.35
 31
0
  0
LINE
  8
0
 62
7
 10
4.285
 20
3.4
 30
0
 11
1.275
 21
3.4
 31
0
  0
LINE
  8
0
 62
7
 10
4.285
 20
4.870000000000001
 30
0
 11
4.285
 21
3.4
 31
0
  0
LINE
  8
0
 62
7
 10
1.275
 20
3.35
 30
0
 11
1.275
 21
3.4
 31
0
  0
LINE
  8
0
 62
7
  6
DASHDOT
 10
4.285
 20
3.35
 30
0
 11
1.275
 21
3.35
 31
0
  0
LINE
  8
0
 62
7
 10
4.285
 20
3.4
 30
0
 11
4.285
 21
3.35
 31
0
  0
LINE
  8
0
 62
7
  6
DASHDOT
 10
4.459999999999997
 20
5.539999999999999
 30
0
 11
4.509999999999997
 21
5.539999999999999
 31
0
  0
LINE
  8
0
 62
7
  6
DASHDOT
 10
1.275
 20
5.539999999999999
 30
0
 11
1.325
 21
5.539999999999999
 31
0
  0
LINE
  8
0
 62
7
  6
DASHDOT
 10
4.609999999999998
 20
5.389999999999999
 30
0
 11
4.609999999999998
 21
5.439999999999999
 31
0
  0
LINE
  8
0
 62
7
  6
DASHDOT
 10
0.9350000000000001
 20
5.389999999999999
 30
0
 11
0.9350000000000001
 21
5.439999999999999
 31
0
  0
LINE
  8
0
 62
7
  6
DASHDOT
 10
0.9350000000000001
 20
5.15
 30
0
 11
0.9350000000000001
 21
5.389999999999999
 31
0
  0
LINE
  8
0
 62
7
  6
DASHDOT
 10
0.9350000000000001
 20
4.82
 30
0
 11
0.9350000000000001
 21
4.870000000000001
 31
0
  0
LINE
  8
0
 62
7
  6
DASHDOT
 10
4.285
 20
5.539999999999999
 30
0
 11
4.459999999999997
 21
5.539999999999999
 31
0
  0
LINE
  8
0
 62
7
  6
DASHDOT
 10
4.235
 20
5.539999999999999
 30
0
 11
4.285
 21
5.539999999999999
 31
0
  0
LINE
  8
0
 62
7
  6
DASHDOT
 10
4.609999999999998
 20
5.15
 30
0
 11
4.609999999999998
 21
5.389999999999999
 31
0
  0
LINE
  8
0
 62
7
  6
DASHDOT
 10
4.609999999999998
 20
4.82
 30
0
 11
4.609999999999998
 21
4.870000000000001
 31
0
  0
LINE
  8
0
 62
7
  6
DASHDOT
 10
0.9350000000000001
 20
5.11
 30
0
 11
0.9350000000000001
 21
5.15
 31
0
  0
LINE
  8
0
 62
7
  6
DASHDOT
 10
4.609999999999998
 20
5.11
 30
0
 11
4.609999999999998
 21
5.15
 31
0
  0
LINE
  8
0
 62
7
  6
DASHDOT
 10
0.9350000000000001
 20
4.870000000000001
 30
0
 11
0.9350000000000001
 21
5.11
 31
0
  0
LINE
  8
0
 62
7
  6
DASHDOT
 10
4.609999999999998
 20
4.870000000000001
 30
0
 11
4.609999999999998
 21
5.11
 31
0
  0
LINE
  8
0
 62
7
  6
DASHDOT
 10
1.05
 20
5.539999999999999
 30
0
 11
1.1
 21
5.539999999999999
 31
0
  0
LINE
  8
0
 62
7
  6
DASHDOT
 10
1.1
 20
5.539999999999999
 30
0
 11
1.275
 21
5.539999999999999
 31
0
  0
LINE
  8
0
 62
7
 10
1.91893346548004
 20
4.547236159654811
 30
0
 11
1.91893346548004
 21
4.667236159654811
 31
0
  0
LINE
  8
0
 62
7
 10
1.99453346548004
 20
4.667236159654811
 30
0
 11
1.94053346548004
 21
4.607236159654811
 31
0
  0
LINE
  8
0
 62
7
 10
1.94053346548004
 20
4.607236159654811
 30
0
 11
1.99453346548004
 21
4.547236159654811
 31
0
  0
LINE
  8
0
 62
7
 10
1.94053346548004
 20
4.607236159654811
 30
0
 11
1.91893346548004
 21
4.583236159654811
 31
0
  0
LINE
  8
0
 62
7
 10
2.10253346548004
 20
4.667236159654811
 30
0
 11
2.02693346548004
 21
4.667236159654811
 31
0
  0
LINE
  8
0
 62
7
 10
2.02693346548004
 20
4.667236159654811
 30
0
 11
2.02693346548004
 21
4.607236159654811
 31
0
  0
LINE
  8
0
 62
7
 10
2.02693346548004
 20
4.547236159654811
 30
0
 11
2.10253346548004
 21
4.547236159654811
 31
0
  0
LINE
  8
0
 62
7
 10
2.09173346548004
 20
4.607236159654811
 30
0
 11
2.02693346548004
 21
4.607236159654811
 31
0
  0
LINE
  8
0
 62
7
 10
2.02693346548004
 20
4.607236159654811
 30
0
 11
2.02693346548004
 21
4.547236159654811
 31
0
  0
LINE
  8
0
 62
7
 10
2.13493346548004
 20
4.547236159654811
 30
0
 11
2.13493346548004
 21
4.667236159654811
 31
0
  0
LINE
  8
0
 62
7
 10
2.13493346548004
 20
4.667236159654811
 30
0
 11
2.21053346548004
 21
4.547236159654811
 31
0
  0
LINE
  8
0
 62
7
 10
2.21053346548004
 20
4.547236159654811
 30
0
 11
2.21053346548004
 21
4.667236159654811
 31
0
  0
LINE
  8
0
 62
7
 10
2.24293346548004
 20
4.547236159654811
 30
0
 11
2.24293346548004
 21
4.667236159654811
 31
0
  0
LINE
  8
0
 62
7
 10
2.24293346548004
 20
4.667236159654811
 30
0
 11
2.31853346548004
 21
4.547236159654811
 31
0
  0
LINE
  8
0
 62
7
 10
2.31853346548004
 20
4.547236159654811
 30
0
 11
2.31853346548004
 21
4.667236159654811
 31
0
  0
LINE
  8
0
 62
7
 10
2.42653346548004
 20
4.631236159654811
 30
0
 11
2.42383346548004
 21
4.643236159654811
 31
0
  0
LINE
  8
0
 62
7
 10
2.42383346548004
 20
4.643236159654811
 30
0
 11
2.418433465480041
 21
4.652236159654811
 31
0
  0
LINE
  8
0
 62
7
 10
2.418433465480041
 20
4.652236159654811
 30
0
 11
2.41303346548004
 21
4.658236159654812
 31
0
  0
LINE
  8
0
 62
7
 10
2.41303346548004
 20
4.658236159654812
 30
0
 11
2.40493346548004
 21
4.664236159654811
 31
0
  0
LINE
  8
0
 62
7
 10
2.40493346548004
 20
4.664236159654811
 30
0
 11
2.39683346548004
 21
4.667236159654811
 31
0
  0
LINE
  8
0
 62
7
 10
2.39683346548004
 20
4.667236159654811
 30
0
 11
2.38063346548004
 21
4.667236159654811
 31
0
  0
LINE
  8
0
 62
7
 10
2.38063346548004
 20
4.667236159654811
 30
0
 11
2.37253346548004
 21
4.664236159654811
 31
0
  0
LINE
  8
0
 62
7
 10
2.37253346548004
 20
4.664236159654811
 30
0
 11
2.36443346548004
 21
4.658236159654812
 31
0
  0
LINE
  8
0
 62
7
 10
2.36443346548004
 20
4.658236159654812
 30
0
 11
2.35903346548004
 21
4.652236159654811
 31
0
  0
LINE
  8
0
 62
7
 10
2.35903346548004
 20
4.652236159654811
 30
0
 11
2.35363346548004
 21
4.643236159654811
 31
0
  0
LINE
  8
0
 62
7
 10
2.35363346548004
 20
4.643236159654811
 30
0
 11
2.35093346548004
 21
4.631236159654811
 31
0
  0
LINE
  8
0
 62
7
 10
2.35093346548004
 20
4.631236159654811
 30
0
 11
2.35093346548004
 21
4.583236159654811
 31
0
  0
LINE
  8
0
 62
7
 10
2.35093346548004
 20
4.583236159654811
 30
0
 11
2.35363346548004
 21
4.571236159654811
 31
0
  0
LINE
  8
0
 62
7
 10
2.35363346548004
 20
4.571236159654811
 30
0
 11
2.35903346548004
 21
4.562236159654812
 31
0
  0
LINE
  8
0
 62
7
 10
2.35903346548004
 20
4.562236159654812
 30
0
 11
2.36443346548004
 21
4.556236159654811
 31
0
  0
LINE
  8
0
 62
7
 10
2.36443346548004
 20
4.556236159654811
 30
0
 11
2.37253346548004
 21
4.550236159654811
 31
0
  0
LINE
  8
0
 62
7
 10
2.37253346548004
 20
4.550236159654811
 30
0
 11
2.38063346548004
 21
4.547236159654811
 31
0
  0
LINE
  8
0
 62
7
 10
2.38063346548004
 20
4.547236159654811
 30
0
 11
2.39683346548004
 21
4.547236159654811
 31
0
  0
LINE
  8
0
 62
7
 10
2.39683346548004
 20
4.547236159654811
 30
0
 11
2.40493346548004
 21
4.550236159654811
 31
0
  0
LINE
  8
0
 62
7
 10
2.40493346548004
 20
4.550236159654811
 30
0
 11
2.41303346548004
 21
4.556236159654811
 31
0
  0
LINE
  8
0
 62
7
 10
2.41303346548004
 20
4.556236159654811
 30
0
 11
2.418433465480041
 21
4.562236159654812
 31
0
  0
LINE
  8
0
 62
7
 10
2.418433465480041
 20
4.562236159654812
 30
0
 11
2.42383346548004
 21
4.571236159654811
 31
0
  0
LINE
  8
0
 62
7
 10
2.42383346548004
 20
4.571236159654811
 30
0
 11
2.42653346548004
 21
4.583236159654811
 31
0
  0
LINE
  8
0
 62
7
 10
2.42653346548004
 20
4.583236159654811
 30
0
 11
2.42653346548004
 21
4.607236159654811
 31
0
  0
LINE
  8
0
 62
7
 10
2.42653346548004
 20
4.607236159654811
 30
0
 11
2.39413346548004
 21
4.607236159654811
 31
0
  0
LINE
  8
0
 62
7
 10
2.50483346548004
 20
4.667236159654811
 30
0
 11
2.48863346548004
 21
4.667236159654811
 31
0
  0
LINE
  8
0
 62
7
 10
2.48863346548004
 20
4.667236159654811
 30
0
 11
2.48053346548004
 21
4.664236159654811
 31
0
  0
LINE
  8
0
 62
7
 10
2.48053346548004
 20
4.664236159654811
 30
0
 11
2.47243346548004
 21
4.658236159654812
 31
0
  0
LINE
  8
0
 62
7
 10
2.47243346548004
 20
4.658236159654812
 30
0
 11
2.46703346548004
 21
4.652236159654811
 31
0
  0
LINE
  8
0
 62
7
 10
2.46703346548004
 20
4.652236159654811
 30
0
 11
2.46163346548004
 21
4.643236159654811
 31
0
  0
LINE
  8
0
 62
7
 10
2.46163346548004
 20
4.643236159654811
 30
0
 11
2.45893346548004
 21
4.631236159654811
 31
0
  0
LINE
  8
0
 62
7
 10
2.45893346548004
 20
4.631236159654811
 30
0
 11
2.45893346548004
 21
4.583236159654811
 31
0
  0
LINE
  8
0
 62
7
 10
2.45893346548004
 20
4.583236159654811
 30
0
 11
2.46163346548004
 21
4.571236159654811
 31
0
  0
LINE
  8
0
 62
7
 10
2.46163346548004
 20
4.571236159654811
 30
0
 11
2.46703346548004
 21
4.562236159654812
 31
0
  0
LINE
  8
0
 62
7
 10
2.46703346548004
 20
4.562236159654812
 30
0
 11
2.47243346548004
 21
4.556236159654811
 31
0
  0
LINE
  8
0
 62
7
 10
2.47243346548004
 20
4.556236159654811
 30
0
 11
2.48053346548004
 21
4.550236159654811
 31
0
  0
LINE
  8
0
 62
7
 10
2.48053346548004
 20
4.550236159654811
 30
0
 11
2.48863346548004
 21
4.547236159654811
 31
0
  0
LINE
  8
0
 62
7
 10
2.48863346548004
 20
4.547236159654811
 30
0
 11
2.50483346548004
 21
4.547236159654811
 31
0
  0
LINE
  8
0
 62
7
 10
2.50483346548004
 20
4.547236159654811
 30
0
 11
2.512933465480041
 21
4.550236159654811
 31
0
  0
LINE
  8
0
 62
7
 10
2.512933465480041
 20
4.550236159654811
 30
0
 11
2.52103346548004
 21
4.556236159654811
 31
0
  0
LINE
  8
0
 62
7
 10
2.52103346548004
 20
4.556236159654811
 30
0
 11
2.52643346548004
 21
4.562236159654812
 31
0
  0
LINE
  8
0
 62
7
 10
2.52643346548004
 20
4.562236159654812
 30
0
 11
2.531833465480041
 21
4.571236159654811
 31
0
  0
LINE
  8
0
 62
7
 10
2.531833465480041
 20
4.571236159654811
 30
0
 11
2.53453346548004
 21
4.583236159654811
 31
0
  0
LINE
  8
0
 62
7
 10
2.53453346548004
 20
4.583236159654811
 30
0
 11
2.53453346548004
 21
4.631236159654811
 31
0
  0
LINE
  8
0
 62
7
 10
2.53453346548004
 20
4.631236159654811
 30
0
 11
2.531833465480041
 21
4.643236159654811
 31
0
  0
LINE
  8
0
 62
7
 10
2.531833465480041
 20
4.643236159654811
 30
0
 11
2.52643346548004
 21
4.652236159654811
 31
0
  0
LINE
  8
0
 62
7
 10
2.52643346548004
 20
4.652236159654811
 30
0
 11
2.52103346548004
 21
4.658236159654812
 31
0
  0
LINE
  8
0
 62
7
 10
2.52103346548004
 20
4.658236159654812
 30
0
 11
2.512933465480041
 21
4.664236159654811
 31
0
  0
LINE
  8
0
 62
7
 10
2.512933465480041
 20
4.664236159654811
 30
0
 11
2.50483346548004
 21
4.667236159654811
 31
0
  0
LINE
  8
0
 62
7
 10
2.55613346548004
 20
4.667236159654811
 30
0
 11
2.59393346548004
 21
4.667236159654811
 31
0
  0
LINE
  8
0
 62
7
 10
2.59393346548004
 20
4.667236159654811
 30
0
 11
2.59393346548004
 21
4.547236159654811
 31
0
  0
LINE
  8
0
 62
7
 10
2.59393346548004
 20
4.667236159654811
 30
0
 11
2.63173346548004
 21
4.667236159654811
 31
0
  0
LINE
  8
0
 62
7
 10
2.66413346548004
 20
4.667236159654811
 30
0
 11
2.701933465480042
 21
4.667236159654811
 31
0
  0
LINE
  8
0
 62
7
 10
2.701933465480042
 20
4.667236159654811
 30
0
 11
2.701933465480042
 21
4.547236159654811
 31
0
  0
LINE
  8
0
 62
7
 10
2.701933465480042
 20
4.667236159654811
 30
0
 11
2.73973346548004
 21
4.667236159654811
 31
0
  0
LINE
  8
0
 62
7
 10
2.858533465480041
 20
4.589236159654811
 30
0
 11
2.91253346548004
 21
4.589236159654811
 31
0
  0
LINE
  8
0
 62
7
 10
3.02053346548004
 20
4.667236159654811
 30
0
 11
3.05833346548004
 21
4.667236159654811
 31
0
  0
LINE
  8
0
 62
7
 10
3.05833346548004
 20
4.667236159654811
 30
0
 11
3.05833346548004
 21
4.547236159654811
 31
0
  0
LINE
  8
0
 62
7
 10
3.05833346548004
 20
4.667236159654811
 30
0
 11
3.09613346548004
 21
4.667236159654811
 31
0
  0
LINE
  8
0
 62
7
 10
3.128533465480041
 20
4.547236159654811
 30
0
 11
3.128533465480041
 21
4.667236159654811
 31
0
  0
LINE
  8
0
 62
7
 10
3.128533465480041
 20
4.667236159654811
 30
0
 11
3.179833465480041
 21
4.667236159654811
 31
0
  0
LINE
  8
0
 62
7
 10
3.179833465480041
 20
4.667236159654811
 30
0
 11
3.19063346548004
 21
4.664236159654811
 31
0
  0
LINE
  8
0
 62
7
 10
3.19063346548004
 20
4.664236159654811
 30
0
 11
3.198733465480041
 21
4.658236159654812
 31
0
  0
LINE
  8
0
 62
7
 10
3.198733465480041
 20
4.658236159654812
 30
0
 11
3.20143346548004
 21
4.652236159654811
 31
0
  0
LINE
  8
0
 62
7
 10
3.20143346548004
 20
4.652236159654811
 30
0
 11
3.20413346548004
 21
4.643236159654811
 31
0
  0
LINE
  8
0
 62
7
 10
3.20413346548004
 20
4.643236159654811
 30
0
 11
3.20413346548004
 21
4.631236159654811
 31
0
  0
LINE
  8
0
 62
7
 10
3.20413346548004
 20
4.631236159654811
 30
0
 11
3.20143346548004
 21
4.622236159654811
 31
0
  0
LINE
  8
0
 62
7
 10
3.20143346548004
 20
4.622236159654811
 30
0
 11
3.198733465480041
 21
4.616236159654811
 31
0
  0
LINE
  8
0
 62
7
 10
3.198733465480041
 20
4.616236159654811
 30
0
 11
3.19063346548004
 21
4.610236159654811
 31
0
  0
LINE
  8
0
 62
7
 10
3.19063346548004
 20
4.610236159654811
 30
0
 11
3.179833465480041
 21
4.607236159654811
 31
0
  0
LINE
  8
0
 62
7
 10
3.179833465480041
 20
4.607236159654811
 30
0
 11
3.17173346548004
 21
4.607236159654811
 31
0
  0
LINE
  8
0
 62
7
 10
3.17173346548004
 20
4.607236159654811
 30
0
 11
3.20413346548004
 21
4.547236159654811
 31
0
  0
LINE
  8
0
 62
7
 10
3.17173346548004
 20
4.607236159654811
 30
0
 11
3.128533465480041
 21
4.607236159654811
 31
0
  0
LINE
  8
0
 62
7
 10
3.301333465480041
 20
4.667236159654811
 30
0
 11
3.225733465480041
 21
4.667236159654811
 31
0
  0
LINE
  8
0
 62
7
 10
3.225733465480041
 20
4.667236159654811
 30
0
 11
3.225733465480041
 21
4.607236159654811
 31
0
  0
LINE
  8
0
 62
7
 10
3.225733465480041
 20
4.547236159654811
 30
0
 11
3.301333465480041
 21
4.547236159654811
 31
0
  0
LINE
  8
0
 62
7
 10
3.290533465480041
 20
4.607236159654811
 30
0
 11
3.225733465480041
 21
4.607236159654811
 31
0
  0
LINE
  8
0
 62
7
 10
3.225733465480041
 20
4.607236159654811
 30
0
 11
3.225733465480041
 21
4.547236159654811
 31
0
  0
LINE
  8
0
 62
7
 10
3.333733465480042
 20
4.547236159654811
 30
0
 11
3.333733465480042
 21
4.607236159654811
 31
0
  0
LINE
  8
0
 62
7
 10
3.333733465480042
 20
4.667236159654811
 30
0
 11
3.385033465480042
 21
4.667236159654811
 31
0
  0
LINE
  8
0
 62
7
 10
3.385033465480042
 20
4.667236159654811
 30
0
 11
3.39583346548004
 21
4.664236159654811
 31
0
  0
LINE
  8
0
 62
7
 10
3.39583346548004
 20
4.664236159654811
 30
0
 11
3.40393346548004
 21
4.658236159654812
 31
0
  0
LINE
  8
0
 62
7
 10
3.40393346548004
 20
4.658236159654812
 30
0
 11
3.40663346548004
 21
4.652236159654811
 31
0
  0
LINE
  8
0
 62
7
 10
3.40663346548004
 20
4.652236159654811
 30
0
 11
3.40933346548004
 21
4.643236159654811
 31
0
  0
LINE
  8
0
 62
7
 10
3.40933346548004
 20
4.643236159654811
 30
0
 11
3.40933346548004
 21
4.631236159654811
 31
0
  0
LINE
  8
0
 62
7
 10
3.40933346548004
 20
4.631236159654811
 30
0
 11
3.40663346548004
 21
4.622236159654811
 31
0
  0
LINE
  8
0
 62
7
 10
3.40663346548004
 20
4.622236159654811
 30
0
 11
3.40393346548004
 21
4.616236159654811
 31
0
  0
LINE
  8
0
 62
7
 10
3.40393346548004
 20
4.616236159654811
 30
0
 11
3.39583346548004
 21
4.610236159654811
 31
0
  0
LINE
  8
0
 62
7
 10
3.39583346548004
 20
4.610236159654811
 30
0
 11
3.385033465480042
 21
4.607236159654811
 31
0
  0
LINE
  8
0
 62
7
 10
3.385033465480042
 20
4.607236159654811
 30
0
 11
3.333733465480042
 21
4.607236159654811
 31
0
  0
LINE
  8
0
 62
7
 10
3.333733465480042
 20
4.607236159654811
 30
0
 11
3.333733465480042
 21
4.667236159654811
 31
0
  0
LINE
  8
0
 62
7
 10
3.430933465480041
 20
4.547236159654811
 30
0
 11
3.430933465480041
 21
4.607236159654811
 31
0
  0
LINE
  8
0
 62
7
 10
3.430933465480041
 20
4.667236159654811
 30
0
 11
3.482233465480041
 21
4.667236159654811
 31
0
  0
LINE
  8
0
 62
7
 10
3.482233465480041
 20
4.667236159654811
 30
0
 11
3.493033465480041
 21
4.664236159654811
 31
0
  0
LINE
  8
0
 62
7
 10
3.493033465480041
 20
4.664236159654811
 30
0
 11
3.501133465480041
 21
4.658236159654812
 31
0
  0
LINE
  8
0
 62
7
 10
3.501133465480041
 20
4.658236159654812
 30
0
 11
3.503833465480041
 21
4.652236159654811
 31
0
  0
LINE
  8
0
 62
7
 10
3.503833465480041
 20
4.652236159654811
 30
0
 11
3.50653346548004
 21
4.643236159654811
 31
0
  0
LINE
  8
0
 62
7
 10
3.50653346548004
 20
4.643236159654811
 30
0
 11
3.50653346548004
 21
4.631236159654811
 31
0
  0
LINE
  8
0
 62
7
 10
3.50653346548004
 20
4.631236159654811
 30
0
 11
3.503833465480041
 21
4.622236159654811
 31
0
  0
LINE
  8
0
 62
7
 10
3.503833465480041
 20
4.622236159654811
 30
0
 11
3.501133465480041
 21
4.616236159654811
 31
0
  0
LINE
  8
0
 62
7
 10
3.501133465480041
 20
4.616236159654811
 30
0
 11
3.493033465480041
 21
4.610236159654811
 31
0
  0
LINE
  8
0
 62
7
 10
3.493033465480041
 20
4.610236159654811
 30
0
 11
3.482233465480041
 21
4.607236159654811
 31
0
  0
LINE
  8
0
 62
7
 10
3.482233465480041
 20
4.607236159654811
 30
0
 11
3.430933465480041
 21
4.607236159654811
 31
0
  0
LINE
  8
0
 62
7
 10
3.430933465480041
 20
4.607236159654811
 30
0
 11
3.430933465480041
 21
4.667236159654811
 31
0
  0
LINE
  8
0
 62
7
 10
3.603733465480041
 20
4.667236159654811
 30
0
 11
3.528133465480041
 21
4.667236159654811
 31
0
  0
LINE
  8
0
 62
7
 10
3.528133465480041
 20
4.667236159654811
 30
0
 11
3.528133465480041
 21
4.607236159654811
 31
0
  0
LINE
  8
0
 62
7
 10
3.528133465480041
 20
4.547236159654811
 30
0
 11
3.603733465480041
 21
4.547236159654811
 31
0
  0
LINE
  8
0
 62
7
 10
3.592933465480041
 20
4.607236159654811
 30
0
 11
3.528133465480041
 21
4.607236159654811
 31
0
  0
LINE
  8
0
 62
7
 10
3.528133465480041
 20
4.607236159654811
 30
0
 11
3.528133465480041
 21
4.547236159654811
 31
0
  0
LINE
  8
0
 62
7
 10
0.625
 20
2.890000000000001
 30
0
 11
0.625
 21
3.01
 31
0
  0
LINE
  8
0
 62
7
 10
0.625
 20
3.01
 30
0
 11
0.6682
 21
2.914
 31
0
  0
LINE
  8
0
 62
7
 10
0.6682
 20
2.914
 30
0
 11
0.7113999999999999
 21
3.01
 31
0
  0
LINE
  8
0
 62
7
 10
0.7113999999999999
 20
3.01
 30
0
 11
0.7113999999999999
 21
2.890000000000001
 31
0
  0
LINE
  8
0
 62
7
 10
0.7437999999999999
 20
2.992
 30
0
 11
0.7491999999999999
 21
3.001
 31
0
  0
LINE
  8
0
 62
7
 10
0.7491999999999999
 20
3.001
 30
0
 11
0.7573
 21
3.007
 31
0
  0
LINE
  8
0
 62
7
 10
0.7573
 20
3.007
 30
0
 11
0.7681
 21
3.01
 31
0
  0
LINE
  8
0
 62
7
 10
0.7681
 20
3.01
 30
0
 11
0.7843
 21
3.01
 31
0
  0
LINE
  8
0
 62
7
 10
0.7843
 20
3.01
 30
0
 11
0.7951
 21
3.007
 31
0
  0
LINE
  8
0
 62
7
 10
0.7951
 20
3.007
 30
0
 11
0.8032
 21
3.001
 31
0
  0
LINE
  8
0
 62
7
 10
0.8032
 20
3.001
 30
0
 11
0.8085999999999999
 21
2.992
 31
0
  0
LINE
  8
0
 62
7
 10
0.8085999999999999
 20
2.992
 30
0
 11
0.8085999999999999
 21
2.98
 31
0
  0
LINE
  8
0
 62
7
 10
0.8085999999999999
 20
2.98
 30
0
 11
0.8032
 21
2.968
 31
0
  0
LINE
  8
0
 62
7
 10
0.8032
 20
2.968
 30
0
 11
0.7437999999999999
 21
2.890000000000001
 31
0
  0
LINE
  8
0
 62
7
 10
0.7437999999999999
 20
2.890000000000001
 30
0
 11
0.8085999999999999
 21
2.890000000000001
 31
0
  0
LINE
  8
0
 62
7
 10
0.8410000000000001
 20
3.01
 30
0
 11
0.8788
 21
2.890000000000001
 31
0
  0
LINE
  8
0
 62
7
 10
0.8788
 20
2.890000000000001
 30
0
 11
0.9165999999999999
 21
3.01
 31
0
  0
LINE
  8
0
 62
7
 10
0.9489999999999998
 20
2.992
 30
0
 11
0.9544000000000001
 21
3.001
 31
0
  0
LINE
  8
0
 62
7
 10
0.9544000000000001
 20
3.001
 30
0
 11
0.9625
 21
3.007
 31
0
  0
LINE
  8
0
 62
7
 10
0.9625
 20
3.007
 30
0
 11
0.9732999999999999
 21
3.01
 31
0
  0
LINE
  8
0
 62
7
 10
0.9732999999999999
 20
3.01
 30
0
 11
0.9895
 21
3.01
 31
0
  0
LINE
  8
0
 62
7
 10
0.9895
 20
3.01
 30
0
 11
0.9975999999999999
 21
3.007
 31
0
  0
LINE
  8
0
 62
7
 10
0.9975999999999999
 20
3.007
 30
0
 11
1.0057
 21
3.001
 31
0
  0
LINE
  8
0
 62
7
 10
1.0057
 20
3.001
 30
0
 11
1.0111
 21
2.992
 31
0
  0
LINE
  8
0
 62
7
 10
1.0111
 20
2.992
 30
0
 11
1.0138
 21
2.98
 31
0
  0
LINE
  8
0
 62
7
 10
1.0138
 20
2.98
 30
0
 11
1.0138
 21
2.971
 31
0
  0
LINE
  8
0
 62
7
 10
1.0138
 20
2.971
 30
0
 11
1.0111
 21
2.962
 31
0
  0
LINE
  8
0
 62
7
 10
1.0111
 20
2.962
 30
0
 11
1.0057
 21
2.956
 31
0
  0
LINE
  8
0
 62
7
 10
1.0057
 20
2.956
 30
0
 11
0.9922000000000001
 21
2.95
 31
0
  0
LINE
  8
0
 62
7
 10
0.9732999999999999
 20
2.95
 30
0
 11
0.9922000000000001
 21
2.95
 31
0
  0
LINE
  8
0
 62
7
 10
0.9922000000000001
 20
2.95
 30
0
 11
1.0057
 21
2.944
 31
0
  0
LINE
  8
0
 62
7
 10
1.0057
 20
2.944
 30
0
 11
1.0111
 21
2.938
 31
0
  0
LINE
  8
0
 62
7
 10
1.0111
 20
2.938
 30
0
 11
1.0138
 21
2.929
 31
0
  0
LINE
  8
0
 62
7
 10
1.0138
 20
2.929
 30
0
 11
1.0138
 21
2.92
 31
0
  0
LINE
  8
0
 62
7
 10
1.0138
 20
2.92
 30
0
 11
1.0111
 21
2.908
 31
0
  0
LINE
  8
0
 62
7
 10
1.0111
 20
2.908
 30
0
 11
1.0057
 21
2.899
 31
0
  0
LINE
  8
0
 62
7
 10
1.0057
 20
2.899
 30
0
 11
0.9975999999999999
 21
2.893
 31
0
  0
LINE
  8
0
 62
7
 10
0.9975999999999999
 20
2.893
 30
0
 11
0.9895
 21
2.890000000000001
 31
0
  0
LINE
  8
0
 62
7
 10
0.9895
 20
2.890000000000001
 30
0
 11
0.9732999999999999
 21
2.890000000000001
 31
0
  0
LINE
  8
0
 62
7
 10
0.9732999999999999
 20
2.890000000000001
 30
0
 11
0.9625
 21
2.893
 31
0
  0
LINE
  8
0
 62
7
 10
0.9625
 20
2.893
 30
0
 11
0.9544000000000001
 21
2.899
 31
0
  0
LINE
  8
0
 62
7
 10
0.9544000000000001
 20
2.899
 30
0
 11
0.9489999999999998
 21
2.908
 31
0
  0
LINE
  8
0
 62
7
 10
1.0462
 20
2.98
 30
0
 11
1.0489
 21
2.992
 31
0
  0
LINE
  8
0
 62
7
 10
1.0489
 20
2.992
 30
0
 11
1.0543
 21
3.001
 31
0
  0
LINE
  8
0
 62
7
 10
1.0543
 20
3.001
 30
0
 11
1.0624
 21
3.007
 31
0
  0
LINE
  8
0
 62
7
 10
1.0624
 20
3.007
 30
0
 11
1.0705
 21
3.01
 31
0
  0
LINE
  8
0
 62
7
 10
1.0705
 20
3.01
 30
0
 11
1.0867
 21
3.01
 31
0
  0
LINE
  8
0
 62
7
 10
1.0867
 20
3.01
 30
0
 11
1.0948
 21
3.007
 31
0
  0
LINE
  8
0
 62
7
 10
1.0948
 20
3.007
 30
0
 11
1.1029
 21
3.001
 31
0
  0
LINE
  8
0
 62
7
 10
1.1029
 20
3.001
 30
0
 11
1.1083
 21
2.992
 31
0
  0
LINE
  8
0
 62
7
 10
1.1083
 20
2.992
 30
0
 11
1.111
 21
2.98
 31
0
  0
LINE
  8
0
 62
7
 10
1.111
 20
2.98
 30
0
 11
1.111
 21
2.92
 31
0
  0
LINE
  8
0
 62
7
 10
1.111
 20
2.92
 30
0
 11
1.1083
 21
2.908
 31
0
  0
LINE
  8
0
 62
7
 10
1.1083
 20
2.908
 30
0
 11
1.1029
 21
2.899
 31
0
  0
LINE
  8
0
 62
7
 10
1.1029
 20
2.899
 30
0
 11
1.0948
 21
2.893
 31
0
  0
LINE
  8
0
 62
7
 10
1.0948
 20
2.893
 30
0
 11
1.0867
 21
2.890000000000001
 31
0
  0
LINE
  8
0
 62
7
 10
1.0867
 20
2.890000000000001
 30
0
 11
1.0705
 21
2.890000000000001
 31
0
  0
LINE
  8
0
 62
7
 10
1.0705
 20
2.890000000000001
 30
0
 11
1.0624
 21
2.893
 31
0
  0
LINE
  8
0
 62
7
 10
1.0624
 20
2.893
 30
0
 11
1.0543
 21
2.899
 31
0
  0
LINE
  8
0
 62
7
 10
1.0543
 20
2.899
 30
0
 11
1.0489
 21
2.908
 31
0
  0
LINE
  8
0
 62
7
 10
1.0489
 20
2.908
 30
0
 11
1.0462
 21
2.92
 31
0
  0
LINE
  8
0
 62
7
 10
1.0462
 20
2.92
 30
0
 11
1.0462
 21
2.98
 31
0
  0
LINE
  8
0
 62
7
 10
1.1434
 20
2.974
 30
0
 11
1.1758
 21
3.01
 31
0
  0
LINE
  8
0
 62
7
 10
1.1758
 20
3.01
 30
0
 11
1.1758
 21
2.890000000000001
 31
0
  0
LINE
  8
0
 62
7
 10
1.273
 20
2.890000000000001
 30
0
 11
1.2082
 21
2.890000000000001
 31
0
  0
LINE
  8
0
 62
7
 10
1.2082
 20
2.890000000000001
 30
0
 11
1.2082
 21
3.01
 31
0
  0
LINE
  8
0
 62
7
 10
1.3054
 20
2.938
 30
0
 11
1.3081
 21
2.95
 31
0
  0
LINE
  8
0
 62
7
 10
1.3081
 20
2.95
 30
0
 11
1.3135
 21
2.959
 31
0
  0
LINE
  8
0
 62
7
 10
1.3135
 20
2.959
 30
0
 11
1.3216
 21
2.965
 31
0
  0
LINE
  8
0
 62
7
 10
1.3216
 20
2.965
 30
0
 11
1.3297
 21
2.968
 31
0
  0
LINE
  8
0
 62
7
 10
1.3297
 20
2.968
 30
0
 11
1.3459
 21
2.968
 31
0
  0
LINE
  8
0
 62
7
 10
1.3459
 20
2.968
 30
0
 11
1.354
 21
2.965
 31
0
  0
LINE
  8
0
 62
7
 10
1.354
 20
2.965
 30
0
 11
1.3621
 21
2.959
 31
0
  0
LINE
  8
0
 62
7
 10
1.3621
 20
2.959
 30
0
 11
1.3675
 21
2.95
 31
0
  0
LINE
  8
0
 62
7
 10
1.3675
 20
2.95
 30
0
 11
1.3702
 21
2.938
 31
0
  0
LINE
  8
0
 62
7
 10
1.3702
 20
2.938
 30
0
 11
1.3702
 21
2.92
 31
0
  0
LINE
  8
0
 62
7
 10
1.3702
 20
2.92
 30
0
 11
1.3675
 21
2.908
 31
0
  0
LINE
  8
0
 62
7
 10
1.3675
 20
2.908
 30
0
 11
1.3621
 21
2.899
 31
0
  0
LINE
  8
0
 62
7
 10
1.3621
 20
2.899
 30
0
 11
1.354
 21
2.893
 31
0
  0
LINE
  8
0
 62
7
 10
1.354
 20
2.893
 30
0
 11
1.3459
 21
2.890000000000001
 31
0
  0
LINE
  8
0
 62
7
 10
1.3459
 20
2.890000000000001
 30
0
 11
1.3297
 21
2.890000000000001
 31
0
  0
LINE
  8
0
 62
7
 10
1.3297
 20
2.890000000000001
 30
0
 11
1.3216
 21
2.893
 31
0
  0
LINE
  8
0
 62
7
 10
1.3216
 20
2.893
 30
0
 11
1.3135
 21
2.899
 31
0
  0
LINE
  8
0
 62
7
 10
1.3135
 20
2.899
 30
0
 11
1.3081
 21
2.908
 31
0
  0
LINE
  8
0
 62
7
 10
1.3081
 20
2.908
 30
0
 11
1.3054
 21
2.92
 31
0
  0
LINE
  8
0
 62
7
 10
1.3054
 20
2.92
 30
0
 11
1.3054
 21
2.938
 31
0
  0
LINE
  8
0
 62
7
 10
1.3054
 20
2.98
 30
0
 11
1.3081
 21
2.992
 31
0
  0
LINE
  8
0
 62
7
 10
1.3081
 20
2.992
 30
0
 11
1.3135
 21
3.001
 31
0
  0
LINE
  8
0
 62
7
 10
1.3135
 20
3.001
 30
0
 11
1.3216
 21
3.007
 31
0
  0
LINE
  8
0
 62
7
 10
1.3216
 20
3.007
 30
0
 11
1.3297
 21
3.01
 31
0
  0
LINE
  8
0
 62
7
 10
1.3297
 20
3.01
 30
0
 11
1.3459
 21
3.01
 31
0
  0
LINE
  8
0
 62
7
 10
1.3459
 20
3.01
 30
0
 11
1.354
 21
3.007
 31
0
  0
LINE
  8
0
 62
7
 10
1.354
 20
3.007
 30
0
 11
1.3621
 21
3.001
 31
0
  0
LINE
  8
0
 62
7
 10
1.3621
 20
3.001
 30
0
 11
1.3675
 21
2.992
 31
0
  0
LINE
  8
0
 62
7
 10
1.3054
 20
2.938
 30
0
 11
1.3054
 21
2.98
 31
0
  0
LINE
  8
0
 62
7
 10
3.125
 20
2.890000000000001
 30
0
 11
3.125
 21
2.99
 31
0
  0
LINE
  8
0
 62
7
 10
3.125
 20
2.99
 30
0
 11
3.188
 21
2.890000000000001
 31
0
  0
LINE
  8
0
 62
7
 10
3.188
 20
2.890000000000001
 30
0
 11
3.188
 21
2.99
 31
0
  0
LINE
  8
0
 62
7
 10
3.269
 20
2.890000000000001
 30
0
 11
3.215
 21
2.890000000000001
 31
0
  0
LINE
  8
0
 62
7
 10
3.215
 20
2.890000000000001
 30
0
 11
3.215
 21
2.99
 31
0
  0
LINE
  8
0
 62
7
 10
3.296
 20
2.94
 30
0
 11
3.332
 21
2.94
 31
0
  0
LINE
  8
0
 62
7
 10
3.332
 20
2.94
 30
0
 11
3.3365
 21
2.94
 31
0
  0
LINE
  8
0
 62
7
 10
3.3365
 20
2.94
 30
0
 11
3.3455
 21
2.935
 31
0
  0
LINE
  8
0
 62
7
 10
3.3455
 20
2.935
 30
0
 11
3.35
 21
2.93
 31
0
  0
LINE
  8
0
 62
7
 10
3.35
 20
2.93
 30
0
 11
3.3545
 21
2.92
 31
0
  0
LINE
  8
0
 62
7
 10
3.3545
 20
2.92
 30
0
 11
3.3545
 21
2.91
 31
0
  0
LINE
  8
0
 62
7
 10
3.3545
 20
2.91
 30
0
 11
3.35
 21
2.9
 31
0
  0
LINE
  8
0
 62
7
 10
3.35
 20
2.9
 30
0
 11
3.3455
 21
2.895
 31
0
  0
LINE
  8
0
 62
7
 10
3.3455
 20
2.895
 30
0
 11
3.3365
 21
2.890000000000001
 31
0
  0
LINE
  8
0
 62
7
 10
3.3365
 20
2.890000000000001
 30
0
 11
3.296
 21
2.890000000000001
 31
0
  0
LINE
  8
0
 62
7
 10
3.296
 20
2.890000000000001
 30
0
 11
3.296
 21
2.94
 31
0
  0
LINE
  8
0
 62
7
 10
3.296
 20
2.99
 30
0
 11
3.32975
 21
2.99
 31
0
  0
LINE
  8
0
 62
7
 10
3.32975
 20
2.99
 30
0
 11
3.341000000000001
 21
2.9875
 31
0
  0
LINE
  8
0
 62
7
 10
3.341000000000001
 20
2.9875
 30
0
 11
3.34775
 21
2.98
 31
0
  0
LINE
  8
0
 62
7
 10
3.34775
 20
2.98
 30
0
 11
3.35
 21
2.97
 31
0
  0
LINE
  8
0
 62
7
 10
3.35
 20
2.97
 30
0
 11
3.35
 21
2.96
 31
0
  0
LINE
  8
0
 62
7
 10
3.35
 20
2.96
 30
0
 11
3.3455
 21
2.95
 31
0
  0
LINE
  8
0
 62
7
 10
3.3455
 20
2.95
 30
0
 11
3.338750000000001
 21
2.9425
 31
0
  0
LINE
  8
0
 62
7
 10
3.338750000000001
 20
2.9425
 30
0
 11
3.332
 21
2.94
 31
0
  0
LINE
  8
0
 62
7
 10
3.296
 20
2.94
 30
0
 11
3.296
 21
2.99
 31
0
  0
LINE
  8
0
 62
7
 10
3.49625
 20
2.9425
 30
0
 11
3.4895
 21
2.952500000000001
 31
0
  0
LINE
  8
0
 62
7
 10
3.4895
 20
2.952500000000001
 30
0
 11
3.48275
 21
2.9575
 31
0
  0
LINE
  8
0
 62
7
 10
3.48275
 20
2.9575
 30
0
 11
3.476
 21
2.96
 31
0
  0
LINE
  8
0
 62
7
 10
3.476
 20
2.96
 30
0
 11
3.467000000000001
 21
2.96
 31
0
  0
LINE
  8
0
 62
7
 10
3.467000000000001
 20
2.96
 30
0
 11
3.46025
 21
2.9575
 31
0
  0
LINE
  8
0
 62
7
 10
3.46025
 20
2.9575
 30
0
 11
3.4535
 21
2.952500000000001
 31
0
  0
LINE
  8
0
 62
7
 10
3.4535
 20
2.952500000000001
 30
0
 11
3.44675
 21
2.9425
 31
0
  0
LINE
  8
0
 62
7
 10
3.44675
 20
2.9425
 30
0
 11
3.4445
 21
2.935
 31
0
  0
LINE
  8
0
 62
7
 10
3.4445
 20
2.935
 30
0
 11
3.4445
 21
2.915
 31
0
  0
LINE
  8
0
 62
7
 10
3.4445
 20
2.915
 30
0
 11
3.44675
 21
2.9075
 31
0
  0
LINE
  8
0
 62
7
 10
3.44675
 20
2.9075
 30
0
 11
3.4535
 21
2.8975
 31
0
  0
LINE
  8
0
 62
7
 10
3.4535
 20
2.8975
 30
0
 11
3.46025
 21
2.8925
 31
0
  0
LINE
  8
0
 62
7
 10
3.46025
 20
2.8925
 30
0
 11
3.467000000000001
 21
2.890000000000001
 31
0
  0
LINE
  8
0
 62
7
 10
3.467000000000001
 20
2.890000000000001
 30
0
 11
3.476
 21
2.890000000000001
 31
0
  0
LINE
  8
0
 62
7
 10
3.476
 20
2.890000000000001
 30
0
 11
3.48275
 21
2.8925
 31
0
  0
LINE
  8
0
 62
7
 10
3.48275
 20
2.8925
 30
0
 11
3.4895
 21
2.8975
 31
0
  0
LINE
  8
0
 62
7
 10
3.4895
 20
2.8975
 30
0
 11
3.49625
 21
2.9075
 31
0
  0
LINE
  8
0
 62
7
 10
3.56825
 20
2.935
 30
0
 11
3.566000000000001
 21
2.9425
 31
0
  0
LINE
  8
0
 62
7
 10
3.566000000000001
 20
2.9425
 30
0
 11
3.55925
 21
2.952500000000001
 31
0
  0
LINE
  8
0
 62
7
 10
3.55925
 20
2.952500000000001
 30
0
 11
3.5525
 21
2.9575
 31
0
  0
LINE
  8
0
 62
7
 10
3.5525
 20
2.9575
 30
0
 11
3.54575
 21
2.96
 31
0
  0
LINE
  8
0
 62
7
 10
3.54575
 20
2.96
 30
0
 11
3.53675
 21
2.96
 31
0
  0
LINE
  8
0
 62
7
 10
3.53675
 20
2.96
 30
0
 11
3.530000000000001
 21
2.9575
 31
0
  0
LINE
  8
0
 62
7
 10
3.530000000000001
 20
2.9575
 30
0
 11
3.52325
 21
2.952500000000001
 31
0
  0
LINE
  8
0
 62
7
 10
3.52325
 20
2.952500000000001
 30
0
 11
3.5165
 21
2.9425
 31
0
  0
LINE
  8
0
 62
7
 10
3.5165
 20
2.9425
 30
0
 11
3.51425
 21
2.935
 31
0
  0
LINE
  8
0
 62
7
 10
3.51425
 20
2.935
 30
0
 11
3.51425
 21
2.915
 31
0
  0
LINE
  8
0
 62
7
 10
3.51425
 20
2.915
 30
0
 11
3.5165
 21
2.9075
 31
0
  0
LINE
  8
0
 62
7
 10
3.5165
 20
2.9075
 30
0
 11
3.52325
 21
2.8975
 31
0
  0
LINE
  8
0
 62
7
 10
3.52325
 20
2.8975
 30
0
 11
3.530000000000001
 21
2.8925
 31
0
  0
LINE
  8
0
 62
7
 10
3.530000000000001
 20
2.8925
 30
0
 11
3.53675
 21
2.890000000000001
 31
0
  0
LINE
  8
0
 62
7
 10
3.53675
 20
2.890000000000001
 30
0
 11
3.54575
 21
2.890000000000001
 31
0
  0
LINE
  8
0
 62
7
 10
3.54575
 20
2.890000000000001
 30
0
 11
3.5525
 21
2.8925
 31
0
  0
LINE
  8
0
 62
7
 10
3.5525
 20
2.8925
 30
0
 11
3.55925
 21
2.8975
 31
0
  0
LINE
  8
0
 62
7
 10
3.55925
 20
2.8975
 30
0
 11
3.566000000000001
 21
2.9075
 31
0
  0
LINE
  8
0
 62
7
 10
3.566000000000001
 20
2.9075
 30
0
 11
3.56825
 21
2.915
 31
0
  0
LINE
  8
0
 62
7
 10
3.56825
 20
2.96
 30
0
 11
3.56825
 21
2.935
 31
0
  0
LINE
  8
0
 62
7
 10
3.56825
 20
2.8925
 30
0
 11
3.5705
 21
2.890000000000001
 31
0
  0
LINE
  8
0
 62
7
 10
3.5705
 20
2.890000000000001
 30
0
 11
3.57275
 21
2.890000000000001
 31
0
  0
LINE
  8
0
 62
7
 10
3.56825
 20
2.915
 30
0
 11
3.56825
 21
2.8925
 31
0
  0
LINE
  8
0
 62
7
 10
3.56825
 20
2.935
 30
0
 11
3.56825
 21
2.915
 31
0
  0
LINE
  8
0
 62
7
 10
3.59075
 20
2.890000000000001
 30
0
 11
3.59075
 21
2.8925
 31
0
  0
LINE
  8
0
 62
7
 10
3.59075
 20
2.8925
 30
0
 11
3.593
 21
2.8925
 31
0
  0
LINE
  8
0
 62
7
 10
3.593
 20
2.8925
 30
0
 11
3.593
 21
2.890000000000001
 31
0
  0
LINE
  8
0
 62
7
 10
3.593
 20
2.890000000000001
 30
0
 11
3.59075
 21
2.890000000000001
 31
0
  0
LINE
  8
0
 62
7
 10
3.69425
 20
2.96
 30
0
 11
3.72125
 21
2.99
 31
0
  0
LINE
  8
0
 62
7
 10
3.72125
 20
2.99
 30
0
 11
3.72125
 21
2.890000000000001
 31
0
  0
LINE
  8
0
 62
7
 10
3.748250000000001
 20
2.965
 30
0
 11
3.750500000000001
 21
2.975
 31
0
  0
LINE
  8
0
 62
7
 10
3.750500000000001
 20
2.975
 30
0
 11
3.755000000000001
 21
2.9825
 31
0
  0
LINE
  8
0
 62
7
 10
3.755000000000001
 20
2.9825
 30
0
 11
3.76175
 21
2.9875
 31
0
  0
LINE
  8
0
 62
7
 10
3.76175
 20
2.9875
 30
0
 11
3.7685
 21
2.99
 31
0
  0
LINE
  8
0
 62
7
 10
3.7685
 20
2.99
 30
0
 11
3.782
 21
2.99
 31
0
  0
LINE
  8
0
 62
7
 10
3.782
 20
2.99
 30
0
 11
3.78875
 21
2.9875
 31
0
  0
LINE
  8
0
 62
7
 10
3.78875
 20
2.9875
 30
0
 11
3.7955
 21
2.9825
 31
0
  0
LINE
  8
0
 62
7
 10
3.7955
 20
2.9825
 30
0
 11
3.8
 21
2.975
 31
0
  0
LINE
  8
0
 62
7
 10
3.8
 20
2.975
 30
0
 11
3.80225
 21
2.965
 31
0
  0
LINE
  8
0
 62
7
 10
3.80225
 20
2.965
 30
0
 11
3.80225
 21
2.915
 31
0
  0
LINE
  8
0
 62
7
 10
3.80225
 20
2.915
 30
0
 11
3.8
 21
2.905
 31
0
  0
LINE
  8
0
 62
7
 10
3.8
 20
2.905
 30
0
 11
3.7955
 21
2.8975
 31
0
  0
LINE
  8
0
 62
7
 10
3.7955
 20
2.8975
 30
0
 11
3.78875
 21
2.8925
 31
0
  0
LINE
  8
0
 62
7
 10
3.78875
 20
2.8925
 30
0
 11
3.782
 21
2.890000000000001
 31
0
  0
LINE
  8
0
 62
7
 10
3.782
 20
2.890000000000001
 30
0
 11
3.7685
 21
2.890000000000001
 31
0
  0
LINE
  8
0
 62
7
 10
3.7685
 20
2.890000000000001
 30
0
 11
3.76175
 21
2.8925
 31
0
  0
LINE
  8
0
 62
7
 10
3.76175
 20
2.8925
 30
0
 11
3.755000000000001
 21
2.8975
 31
0
  0
LINE
  8
0
 62
7
 10
3.755000000000001
 20
2.8975
 30
0
 11
3.750500000000001
 21
2.905
 31
0
  0
LINE
  8
0
 62
7
 10
3.750500000000001
 20
2.905
 30
0
 11
3.748250000000001
 21
2.915
 31
0
  0
LINE
  8
0
 62
7
 10
3.748250000000001
 20
2.915
 30
0
 11
3.748250000000001
 21
2.965
 31
0
  0
LINE
  8
0
 62
7
 10
3.82925
 20
2.965
 30
0
 11
3.8315
 21
2.975
 31
0
  0
LINE
  8
0
 62
7
 10
3.8315
 20
2.975
 30
0
 11
3.836
 21
2.9825
 31
0
  0
LINE
  8
0
 62
7
 10
3.836
 20
2.9825
 30
0
 11
3.842750000000001
 21
2.9875
 31
0
  0
LINE
  8
0
 62
7
 10
3.842750000000001
 20
2.9875
 30
0
 11
3.8495
 21
2.99
 31
0
  0
LINE
  8
0
 62
7
 10
3.8495
 20
2.99
 30
0
 11
3.863
 21
2.99
 31
0
  0
LINE
  8
0
 62
7
 10
3.863
 20
2.99
 30
0
 11
3.86975
 21
2.9875
 31
0
  0
LINE
  8
0
 62
7
 10
3.86975
 20
2.9875
 30
0
 11
3.8765
 21
2.9825
 31
0
  0
LINE
  8
0
 62
7
 10
3.8765
 20
2.9825
 30
0
 11
3.881
 21
2.975
 31
0
  0
LINE
  8
0
 62
7
 10
3.881
 20
2.975
 30
0
 11
3.88325
 21
2.965
 31
0
  0
LINE
  8
0
 62
7
 10
3.88325
 20
2.965
 30
0
 11
3.88325
 21
2.915
 31
0
  0
LINE
  8
0
 62
7
 10
3.88325
 20
2.915
 30
0
 11
3.881
 21
2.905
 31
0
  0
LINE
  8
0
 62
7
 10
3.881
 20
2.905
 30
0
 11
3.8765
 21
2.8975
 31
0
  0
LINE
  8
0
 62
7
 10
3.8765
 20
2.8975
 30
0
 11
3.86975
 21
2.8925
 31
0
  0
LINE
  8
0
 62
7
 10
3.86975
 20
2.8925
 30
0
 11
3.863
 21
2.890000000000001
 31
0
  0
LINE
  8
0
 62
7
 10
3.863
 20
2.890000000000001
 30
0
 11
3.8495
 21
2.890000000000001
 31
0
  0
LINE
  8
0
 62
7
 10
3.8495
 20
2.890000000000001
 30
0
 11
3.842750000000001
 21
2.8925
 31
0
  0
LINE
  8
0
 62
7
 10
3.842750000000001
 20
2.8925
 30
0
 11
3.836
 21
2.8975
 31
0
  0
LINE
  8
0
 62
7
 10
3.836
 20
2.8975
 30
0
 11
3.8315
 21
2.905
 31
0
  0
LINE
  8
0
 62
7
 10
3.8315
 20
2.905
 30
0
 11
3.82925
 21
2.915
 31
0
  0
LINE
  8
0
 62
7
 10
3.82925
 20
2.915
 30
0
 11
3.82925
 21
2.965
 31
0
  0
LINE
  8
0
 62
7
 10
4.034000000000001
 20
2.9425
 30
0
 11
4.02725
 21
2.952500000000001
 31
0
  0
LINE
  8
0
 62
7
 10
4.02725
 20
2.952500000000001
 30
0
 11
4.0205
 21
2.9575
 31
0
  0
LINE
  8
0
 62
7
 10
4.0205
 20
2.9575
 30
0
 11
4.013750000000001
 21
2.96
 31
0
  0
LINE
  8
0
 62
7
 10
4.013750000000001
 20
2.96
 30
0
 11
4.00475
 21
2.96
 31
0
  0
LINE
  8
0
 62
7
 10
4.00475
 20
2.96
 30
0
 11
3.998000000000001
 21
2.9575
 31
0
  0
LINE
  8
0
 62
7
 10
3.998000000000001
 20
2.9575
 30
0
 11
3.99125
 21
2.952500000000001
 31
0
  0
LINE
  8
0
 62
7
 10
3.99125
 20
2.952500000000001
 30
0
 11
3.9845
 21
2.9425
 31
0
  0
LINE
  8
0
 62
7
 10
3.9845
 20
2.9425
 30
0
 11
3.98225
 21
2.935
 31
0
  0
LINE
  8
0
 62
7
 10
3.98225
 20
2.935
 30
0
 11
3.98225
 21
2.915
 31
0
  0
LINE
  8
0
 62
7
 10
3.98225
 20
2.915
 30
0
 11
3.9845
 21
2.9075
 31
0
  0
LINE
  8
0
 62
7
 10
3.9845
 20
2.9075
 30
0
 11
3.99125
 21
2.8975
 31
0
  0
LINE
  8
0
 62
7
 10
3.99125
 20
2.8975
 30
0
 11
3.998000000000001
 21
2.8925
 31
0
  0
LINE
  8
0
 62
7
 10
3.998000000000001
 20
2.8925
 30
0
 11
4.00475
 21
2.890000000000001
 31
0
  0
LINE
  8
0
 62
7
 10
4.00475
 20
2.890000000000001
 30
0
 11
4.013750000000001
 21
2.890000000000001
 31
0
  0
LINE
  8
0
 62
7
 10
4.013750000000001
 20
2.890000000000001
 30
0
 11
4.0205
 21
2.8925
 31
0
  0
LINE
  8
0
 62
7
 10
4.0205
 20
2.8925
 30
0
 11
4.02725
 21
2.8975
 31
0
  0
LINE
  8
0
 62
7
 10
4.02725
 20
2.8975
 30
0
 11
4.034000000000001
 21
2.9075
 31
0
  0
LINE
  8
0
 62
7
 10
4.0925
 20
2.935
 30
0
 11
4.0925
 21
2.890000000000001
 31
0
  0
LINE
  8
0
 62
7
 10
4.052
 20
2.96
 30
0
 11
4.052
 21
2.935
 31
0
  0
LINE
  8
0
 62
7
 10
4.052
 20
2.890000000000001
 30
0
 11
4.052
 21
2.935
 31
0
  0
LINE
  8
0
 62
7
 10
4.052
 20
2.935
 30
0
 11
4.054250000000001
 21
2.9475
 31
0
  0
LINE
  8
0
 62
7
 10
4.054250000000001
 20
2.9475
 30
0
 11
4.0565
 21
2.952500000000001
 31
0
  0
LINE
  8
0
 62
7
 10
4.0565
 20
2.952500000000001
 30
0
 11
4.061
 21
2.9575
 31
0
  0
LINE
  8
0
 62
7
 10
4.061
 20
2.9575
 30
0
 11
4.06775
 21
2.96
 31
0
  0
LINE
  8
0
 62
7
 10
4.06775
 20
2.96
 30
0
 11
4.07675
 21
2.96
 31
0
  0
LINE
  8
0
 62
7
 10
4.07675
 20
2.96
 30
0
 11
4.0835
 21
2.9575
 31
0
  0
LINE
  8
0
 62
7
 10
4.0835
 20
2.9575
 30
0
 11
4.088
 21
2.952500000000001
 31
0
  0
LINE
  8
0
 62
7
 10
4.088
 20
2.952500000000001
 30
0
 11
4.09025
 21
2.9475
 31
0
  0
LINE
  8
0
 62
7
 10
4.09025
 20
2.9475
 30
0
 11
4.0925
 21
2.935
 31
0
  0
LINE
  8
0
 62
7
 10
4.0925
 20
2.935
 30
0
 11
4.09475
 21
2.9475
 31
0
  0
LINE
  8
0
 62
7
 10
4.09475
 20
2.9475
 30
0
 11
4.097
 21
2.952500000000001
 31
0
  0
LINE
  8
0
 62
7
 10
4.097
 20
2.952500000000001
 30
0
 11
4.101500000000001
 21
2.9575
 31
0
  0
LINE
  8
0
 62
7
 10
4.101500000000001
 20
2.9575
 30
0
 11
4.108250000000001
 21
2.96
 31
0
  0
LINE
  8
0
 62
7
 10
4.108250000000001
 20
2.96
 30
0
 11
4.11725
 21
2.96
 31
0
  0
LINE
  8
0
 62
7
 10
4.11725
 20
2.96
 30
0
 11
4.124000000000001
 21
2.9575
 31
0
  0
LINE
  8
0
 62
7
 10
4.128500000000001
 20
2.952500000000001
 30
0
 11
4.124000000000001
 21
2.9575
 31
0
  0
LINE
  8
0
 62
7
 10
4.124000000000001
 20
2.9575
 30
0
 11
4.128500000000001
 21
2.952500000000001
 31
0
  0
LINE
  8
0
 62
7
 10
4.128500000000001
 20
2.952500000000001
 30
0
 11
4.13075
 21
2.9475
 31
0
  0
LINE
  8
0
 62
7
 10
4.13075
 20
2.9475
 30
0
 11
4.133
 21
2.935
 31
0
  0
LINE
  8
0
 62
7
 10
4.133
 20
2.935
 30
0
 11
4.133
 21
2.890000000000001
 31
0
  0
ARC
  8
0
 62
7
 10
2.389236290619522
 20
3.755763709380429
 30
0
 40
0.640000000000002
 50
89.93163600699107
 51
180.0683639962462
  0
ARC
  8
0
 62
7
 10
3.170763709380433
 20
3.755763709380482
 30
0
 40
0.6399999999999996
 50
359.9316360071365
 51
90.06836399621523
  0
CIRCLE
  8
0
 62
7
 10
3.810763253805833
 20
3.25
 30
0
 40
0.06000000000000094
  0
DIMENSION
  8
0
  6
CONTINUOUS
 62
7
  2
*D1
  3
DMST_1
 10
1.275
 20
11.5146469806392
 30
0
 11
2.77155985011095
 21
11.5146469806392
 31
0
 12
0
 22
0
 32
0
 70
0
 13
4.285
 23
11.2
 33
0
 14
1.275
 24
11.2
 34
0
 53
0
  0
DIMENSION
  8
0
  6
CONTINUOUS
 62
7
  2
*D2
  3
DMST_2
 10
4.75763783568976
 20
4.870000000000001
 30
0
 11
4.75763783568976
 21
4.07283669732582
 31
0
 12
0
 22
0
 32
0
 70
0
 13
4.459999999999997
 23
3.25
 33
0
 14
4.459999999999997
 24
4.870000000000001
 34
0
 50
90
 53
0
  0
DIMENSION
  8
0
  6
CONTINUOUS
 62
7
  2
*D3
  3
DMST_2
 10
1.275
 20
5.735877902117721
 30
0
 11
2.77155985011095
 21
5.735877902117721
 31
0
 12
0
 22
0
 32
0
 70
0
 13
4.285
 23
5.389999999999999
 33
0
 14
1.275
 24
5.389999999999999
 34
0
 53
0
  0
DIMENSION
  8
0
  6
CONTINUOUS
 62
7
  2
*D4
  3
DMST_2
 10
0.821374840175135
 20
4.870000000000001
 30
0
 11
0.821374840175135
 21
4.12069399818314
 31
0
 12
0
 22
0
 32
0
 70
0
 13
1.1
 23
3.35
 33
0
 14
1.1
 24
4.870000000000001
 34
0
 50
90
 53
0
  0
INSERT
  8
0
  2
*D0
 10
0
 20
0
 30
0
  0
ENDSEC
  0
EOF
