  0
SECTION
  2
HEADER
  9
$ACADVER
  1
AC1009
  9
$INSBASE
 10
0
 20
0
  9
$EXTMIN
 10
0.45
 20
2.890000000000001
  9
$EXTMAX
 10
8.160214199738771
 20
11.4994155027536
  9
$LIMMIN
 10
0.45
 20
2.890000000000001
  9
$LIMMAX
 10
8.160214199738771
 20
11.4994155027536
  9
$VIEWCTR
 10
10
 20
10
  9
$VIEWSIZE
 40
10
  9
$SNAPMODE
 70
0
  9
$SNAPUNIT
 10
1
 20
1
  9
$SNAPBASE
 10
0
 20
0
  9
$SNAPANG
 50
0
  9
$SNAPSTYLE
 70
0
  9
$SNAPISOPAIR
 70
0
  9
$GRIDMODE
 70
0
  9
$GRIDUNIT
 10
0
 20
0
  9
$ORTHOMODE
 70
0
  9
$REGENMODE
 70
1
  9
$FILLMODE
 70
1
  9
$QTEXTMODE
 70
0
  9
$DRAGMODE
 70
2
  9
$LTSCALE
 40
1
  9
$OSMODE
 70
0
  9
$ATTMODE
 70
1
  9
$TEXTSIZE
 40
3.5
  9
$TRACEWID
 40
0.5
  9
$TEXTSTYLE
  7
STANDARD
  9
$CLAYER
  8
0
  9
$CELTYPE
  6
BYLAYER
  9
$CECOLOR
 62
256
  9
$DIMSCALE
 40
1
  9
$DIMASZ
 40
0.18
  9
$DIMEXO
 40
0.0625
  9
$DIMDLI
 40
0.38
  9
$DIMRND
 40
0
  9
$DIMDLE
 40
0
  9
$DIMEXE
 40
0.18
  9
$DIMTP
 40
0
  9
$DIMTM
 40
0
  9
$DIMTXT
 40
0.18
  9
$DIMCEN
 40
0.09
  9
$DIMTSZ
 40
0
  9
$DIMTOL
 70
0
  9
$DIMLIM
 70
0
  9
$DIMTIH
 70
1
  9
$DIMTOH
 70
1
  9
$DIMSE1
 70
0
  9
$DIMSE2
 70
0
  9
$DIMTAD
 70
0
  9
$DIMZIN
 70
0
  9
$DIMBLK
  1

  9
$DIMASO
 70
1
  9
$DIMSHO
 70
1
  9
$DIMPOST
  1

  9
$DIMAPOST
  1

  9
$DIMALT
 70
0
  9
$DIMALTD
 70
2
  9
$DIMALTF
 40
25.4
  9
$DIMLFAC
 40
1
  9
$DIMTOFL
 70
0
  9
$DIMTVP
 40
0
  9
$DIMTIX
 70
0
  9
$DIMSOXD
 70
0
  9
$DIMSAH
 70
0
  9
$DIMBLK1
  1

  9
$DIMBLK2
  1

  9
$DIMSTYLE
  2
*UNNAMED
  9
$DIMCLRD
 70
0
  9
$DIMCLRE
 70
0
  9
$DIMCLRT
 70
0
  9
$DIMTFAC
 40
1
  9
$DIMGAP
 40
0.09
  9
$LUNITS
 70
2
  9
$LUPREC
 70
4
  9
$AXISMODE
 70
0
  9
$AXISUNIT
 10
0
 20
0
  9
$SKETCHINC
 40
0.1
  9
$FILLETRAD
 40
2
  9
$AUNITS
 70
0
  9
$AUPREC
 70
0
  9
$MENU
  1
ACAD
  9
$ELEVATION
 40
0
  9
$THICKNESS
 40
0
  9
$VIEWDIR
 10
0
 20
0
 30
1
  9
$LIMCHECK
 70
0
  9
$BLIPMODE
 70
1
  9
$CHAMFERA
 40
0
  9
$CHAMFERB
 40
0
  9
$FASTZOOM
 70
1
  9
$SKPOLY
 70
0
  9
$ANGBASE
 50
0
  9
$ANGDIR
 70
0
  9
$PDMODE
 70
0
  9
$PDSIZE
 40
0
  9
$PLINEWID
 40
0
  9
$COORDS
 70
2
  0
ENDSEC
  0
SECTION
  2
TABLES
  0
TABLE
  2
DIMSTYLE
 70
2
  0
DIMSTYLE
  2
DMST_1
 70
0
  3

  4

  5

  6

  7

 40
1
 41
0.1
 42
0
 43
0.7
 44
0.2
 45
0
 46
0
 47
0
 48
0
140
0.1
141
0
142
0.1
143
25.4
144
1
145
0
146
1
147
0.2
 71
0
 72
0
 73
0
 74
0
 75
0
 76
0
 77
0
 78
9
170
0
171
2
172
0
173
0
174
0
175
0
176
7
177
7
178
7
  0
DIMSTYLE
  2
DMST_2
 70
0
  3

  4

  5

  6

  7

 40
1
 41
0.1
 42
0
 43
0.7
 44
0.2
 45
0
 46
0
 47
0
 48
0
140
0.1
141
0
142
0.1
143
25.4
144
1
145
0
146
1
147
0.25
 71
0
 72
0
 73
0
 74
0
 75
0
 76
0
 77
0
 78
9
170
0
171
2
172
0
173
0
174
0
175
0
176
7
177
7
178
7
  0
ENDTAB
  0
TABLE
  2
LTYPE
 70
9
  0
LTYPE
  2
CONTINUOUS
 70
64
  3
Solid line
 72
65
 73
0
 40
0
  0
LTYPE
  2
BORDER
 70
64
  3
__ __ . __ __ .
 72
65
 73
6
 40
0.3964862402583894
 49
0.1132817829309684
 49
-0.05664089146548421
 49
0.1132817829309684
 49
-0.05664089146548421
 49
0
 49
-0.05664089146548421
  0
LTYPE
  2
CENTER
 70
64
  3
____ _ ____ _
 72
65
 73
4
 40
0.4531271317238736
 49
0.2832044573274211
 49
-0.05664089146548421
 49
0.05664089146548421
 49
-0.05664089146548421
  0
LTYPE
  2
DASHDOT
 70
64
  3
__ . __ . __ .
 72
65
 73
4
 40
0.2265635658619368
 49
0.1132817829309684
 49
-0.05664089146548421
 49
0
 49
-0.05664089146548421
  0
LTYPE
  2
DASHED
 70
64
  3
__ __ __ __ __
 72
65
 73
2
 40
0.1699226743964526
 49
0.1132817829309684
 49
-0.05664089146548421
  0
LTYPE
  2
DIVIDE
 70
64
  3
__ . . __ . . 
 72
65
 73
6
 40
0.2832044573274211
 49
0.1132817829309684
 49
-0.05664089146548421
 49
0
 49
-0.05664089146548421
 49
0
 49
-0.05664089146548421
  0
LTYPE
  2
DOT
 70
64
  3
..............
 72
65
 73
4
 40
0.1132817829309684
 49
0
 49
-0.05664089146548421
 49
0
 49
-0.05664089146548421
  0
LTYPE
  2
HIDDEN
 70
64
  3
_ _ _ _ _ _ _
 72
65
 73
2
 40
0.08496133719822631
 49
0.05664089146548421
 49
-0.0283204457327421
  0
LTYPE
  2
PHANTOM
 70
64
  3
_____ _ _ _____ _ _ 
 72
65
 73
6
 40
0.5664089146548421
 49
0.2832044573274211
 49
-0.05664089146548421
 49
0.05664089146548421
 49
-0.05664089146548421
 49
0.05664089146548421
 49
-0.05664089146548421
  0
ENDTAB
  0
TABLE
  2
LAYER
 70
2
  0
LAYER
  2
0
 70
0
 62
7
  6
CONTINUOUS
  0
ENDTAB
  0
TABLE
  2
STYLE
 70
4
  0
STYLE
  2
STANDARD
 70
0
 40
0
 41
1
 50
0
 71
0
 42
3.5
  3
txt
  4

  0
STYLE
  2
SIMPLEX
 70
0
 40
0
 41
1
 50
0
 71
0
 42
3.5
  3
simplex
  4

  0
STYLE
  2
COMPLEX
 70
0
 40
0
 41
1
 50
0
 71
0
 42
3.5
  3
complex
  4

  0
STYLE
  2
ITALIC
 70
0
 40
0
 41
1
 50
0
 71
0
 42
3.5
  3
italic
  4

  0
ENDTAB
  0
TABLE
  2
VIEW
 70
0
  0
ENDTAB
  0
ENDSEC
  0
SECTION
  2
BLOCKS
  0
BLOCK
  8
0
  2
*X0
 70
1
 10
0
 20
0
 30
0
  0
LINE
  8
0
 62
7
 10
7.424999999999997
 20
7.955330085889907
 30
0
 11
7.56966991411009
 21
8.1
 31
0
  0
LINE
  8
0
 62
7
 10
7.424999999999998
 20
8.061396103067889
 30
0
 11
7.463603896932107
 21
8.099999999999998
 31
0
  0
LINE
  8
0
 62
7
 10
7.525735931288072
 20
7.949999999999999
 30
0
 11
7.599999999999999
 21
8.024264068711926
 31
0
  0
ENDBLK
  8
0
  0
BLOCK
  8
0
  2
*X1
 70
1
 10
0
 20
0
 30
0
  0
LINE
  8
0
 62
7
 10
7.424999999999999
 20
10.71304653251744
 30
0
 11
7.561953467482555
 21
10.85
 31
0
  0
LINE
  8
0
 62
7
 10
7.424999999999999
 20
10.50091449816147
 30
0
 11
7.6
 21
10.67591449816148
 31
0
  0
LINE
  8
0
 62
7
 10
7.424999999999999
 20
10.28878246380551
 30
0
 11
7.6
 21
10.46378246380551
 31
0
  0
LINE
  8
0
 62
7
 10
7.424999999999999
 20
10.07665042944955
 30
0
 11
7.6
 21
10.25165042944955
 31
0
  0
LINE
  8
0
 62
7
 10
7.424999999999999
 20
9.864518395093583
 30
0
 11
7.6
 21
10.03951839509358
 31
0
  0
LINE
  8
0
 62
7
 10
7.424999999999999
 20
9.652386360737619
 30
0
 11
7.6
 21
9.82738636073762
 31
0
  0
LINE
  8
0
 62
7
 10
7.424999999999999
 20
9.440254326381655
 30
0
 11
7.6
 21
9.615254326381656
 31
0
  0
LINE
  8
0
 62
7
 10
7.424999999999999
 20
9.228122292025692
 30
0
 11
7.6
 21
9.403122292025692
 31
0
  0
LINE
  8
0
 62
7
 10
7.424999999999999
 20
9.015990257669728
 30
0
 11
7.6
 21
9.190990257669728
 31
0
  0
LINE
  8
0
 62
7
 10
7.424999999999999
 20
8.803858223313764
 30
0
 11
7.6
 21
8.978858223313765
 31
0
  0
LINE
  8
0
 62
7
 10
7.424999999999999
 20
8.5917261889578
 30
0
 11
7.6
 21
8.766726188957801
 31
0
  0
LINE
  8
0
 62
7
 10
7.424999999999999
 20
8.379594154601836
 30
0
 11
7.6
 21
8.554594154601837
 31
0
  0
LINE
  8
0
 62
7
 10
7.557537879754123
 20
8.299999999999995
 30
0
 11
7.6
 21
8.342462120245873
 31
0
  0
LINE
  8
0
 62
7
 10
7.425
 20
10.81911254969542
 30
0
 11
7.455887450304571
 21
10.85
 31
0
  0
LINE
  8
0
 62
7
 10
7.425
 20
10.60698051533946
 30
0
 11
7.600000000000001
 21
10.78198051533946
 31
0
  0
LINE
  8
0
 62
7
 10
7.425
 20
10.39484848098349
 30
0
 11
7.600000000000001
 21
10.56984848098349
 31
0
  0
LINE
  8
0
 62
7
 10
7.425
 20
10.18271644662753
 30
0
 11
7.600000000000001
 21
10.35771644662753
 31
0
  0
LINE
  8
0
 62
7
 10
7.425
 20
9.970584412271567
 30
0
 11
7.600000000000001
 21
10.14558441227157
 31
0
  0
LINE
  8
0
 62
7
 10
7.425
 20
9.758452377915603
 30
0
 11
7.600000000000001
 21
9.933452377915602
 31
0
  0
LINE
  8
0
 62
7
 10
7.425
 20
9.546320343559639
 30
0
 11
7.600000000000001
 21
9.721320343559638
 31
0
  0
LINE
  8
0
 62
7
 10
7.425
 20
9.334188309203675
 30
0
 11
7.600000000000001
 21
9.509188309203674
 31
0
  0
LINE
  8
0
 62
7
 10
7.425
 20
9.122056274847711
 30
0
 11
7.600000000000001
 21
9.29705627484771
 31
0
  0
LINE
  8
0
 62
7
 10
7.425
 20
8.909924240491748
 30
0
 11
7.600000000000001
 21
9.084924240491747
 31
0
  0
LINE
  8
0
 62
7
 10
7.425
 20
8.697792206135784
 30
0
 11
7.600000000000001
 21
8.872792206135783
 31
0
  0
LINE
  8
0
 62
7
 10
7.425
 20
8.48566017177982
 30
0
 11
7.600000000000001
 21
8.660660171779819
 31
0
  0
LINE
  8
0
 62
7
 10
7.451471862576141
 20
8.299999999999997
 30
0
 11
7.600000000000001
 21
8.448528137423855
 31
0
  0
ENDBLK
  8
0
  0
BLOCK
  8
0
  2
*X2
 70
1
 10
0
 20
0
 30
0
  0
LINE
  8
0
 62
7
 10
7.424999999999998
 20
11.13731060122937
 30
0
 11
7.487689398770626
 21
11.2
 31
0
  0
LINE
  8
0
 62
7
 10
7.549821433126593
 20
11.05
 30
0
 11
7.599999999999997
 21
11.10017856687341
 31
0
  0
LINE
  8
0
 62
7
 10
7.44375541594861
 20
11.05
 30
0
 11
7.593755415948609
 21
11.2
 31
0
  0
ENDBLK
  8
0
  0
BLOCK
  8
0
  2
*X3
 70
1
 10
0
 20
0
 30
0
  0
LINE
  8
0
 62
7
 10
4.239999999999998
 20
7.952310601229372
 30
0
 11
4.387689398770626
 21
8.1
 31
0
  0
LINE
  8
0
 62
7
 10
4.239999999999998
 20
8.058376618407355
 30
0
 11
4.281623381592643
 21
8.1
 31
0
  0
LINE
  8
0
 62
7
 10
4.343755415948608
 20
7.949999999999999
 30
0
 11
4.414999999999999
 21
8.02124458405139
 31
0
  0
ENDBLK
  8
0
  0
BLOCK
  8
0
  2
*X4
 70
1
 10
0
 20
0
 30
0
  0
LINE
  8
0
 62
7
 10
4.239999999999998
 20
10.7100270478569
 30
0
 11
4.379972952143091
 21
10.85
 31
0
  0
LINE
  8
0
 62
7
 10
4.239999999999998
 20
10.49789501350094
 30
0
 11
4.415
 21
10.67289501350094
 31
0
  0
LINE
  8
0
 62
7
 10
4.239999999999998
 20
10.28576297914497
 30
0
 11
4.415
 21
10.46076297914498
 31
0
  0
LINE
  8
0
 62
7
 10
4.239999999999998
 20
10.07363094478901
 30
0
 11
4.415
 21
10.24863094478901
 31
0
  0
LINE
  8
0
 62
7
 10
4.239999999999998
 20
9.861498910433047
 30
0
 11
4.415
 21
10.03649891043305
 31
0
  0
LINE
  8
0
 62
7
 10
4.239999999999998
 20
9.649366876077083
 30
0
 11
4.415
 21
9.824366876077084
 31
0
  0
LINE
  8
0
 62
7
 10
4.239999999999998
 20
9.43723484172112
 30
0
 11
4.415
 21
9.61223484172112
 31
0
  0
LINE
  8
0
 62
7
 10
4.239999999999998
 20
9.225102807365156
 30
0
 11
4.415
 21
9.400102807365156
 31
0
  0
LINE
  8
0
 62
7
 10
4.239999999999998
 20
9.012970773009192
 30
0
 11
4.415
 21
9.187970773009193
 31
0
  0
LINE
  8
0
 62
7
 10
4.239999999999998
 20
8.800838738653228
 30
0
 11
4.415
 21
8.975838738653229
 31
0
  0
LINE
  8
0
 62
7
 10
4.239999999999998
 20
8.588706704297264
 30
0
 11
4.415
 21
8.763706704297265
 31
0
  0
LINE
  8
0
 62
7
 10
4.239999999999998
 20
8.3765746699413
 30
0
 11
4.415
 21
8.551574669941301
 31
0
  0
LINE
  8
0
 62
7
 10
4.375557364414659
 20
8.299999999999997
 30
0
 11
4.415
 21
8.339442635585337
 31
0
  0
LINE
  8
0
 62
7
 10
4.24
 20
10.81609306503489
 30
0
 11
4.273906934965108
 21
10.85
 31
0
  0
LINE
  8
0
 62
7
 10
4.24
 20
10.60396103067892
 30
0
 11
4.414999999999998
 21
10.77896103067892
 31
0
  0
LINE
  8
0
 62
7
 10
4.24
 20
10.39182899632296
 30
0
 11
4.414999999999998
 21
10.56682899632296
 31
0
  0
LINE
  8
0
 62
7
 10
4.24
 20
10.17969696196699
 30
0
 11
4.414999999999998
 21
10.35469696196699
 31
0
  0
LINE
  8
0
 62
7
 10
4.24
 20
9.967564927611031
 30
0
 11
4.414999999999998
 21
10.14256492761103
 31
0
  0
LINE
  8
0
 62
7
 10
4.24
 20
9.755432893255067
 30
0
 11
4.414999999999998
 21
9.930432893255064
 31
0
  0
LINE
  8
0
 62
7
 10
4.24
 20
9.543300858899103
 30
0
 11
4.414999999999998
 21
9.7183008588991
 31
0
  0
LINE
  8
0
 62
7
 10
4.24
 20
9.331168824543139
 30
0
 11
4.414999999999998
 21
9.506168824543137
 31
0
  0
LINE
  8
0
 62
7
 10
4.24
 20
9.119036790187176
 30
0
 11
4.414999999999998
 21
9.294036790187173
 31
0
  0
LINE
  8
0
 62
7
 10
4.24
 20
8.906904755831212
 30
0
 11
4.414999999999998
 21
9.081904755831209
 31
0
  0
LINE
  8
0
 62
7
 10
4.24
 20
8.694772721475248
 30
0
 11
4.414999999999998
 21
8.869772721475245
 31
0
  0
LINE
  8
0
 62
7
 10
4.24
 20
8.482640687119284
 30
0
 11
4.414999999999998
 21
8.657640687119281
 31
0
  0
LINE
  8
0
 62
7
 10
4.269491347236678
 20
8.299999999999997
 30
0
 11
4.414999999999998
 21
8.445508652763317
 31
0
  0
ENDBLK
  8
0
  0
BLOCK
  8
0
  2
*X5
 70
1
 10
0
 20
0
 30
0
  0
LINE
  8
0
 62
7
 10
4.24
 20
11.13429111656884
 30
0
 11
4.305708883431162
 21
11.2
 31
0
  0
LINE
  8
0
 62
7
 10
4.367840917787128
 20
11.05
 30
0
 11
4.415
 21
11.09715908221287
 31
0
  0
LINE
  8
0
 62
7
 10
4.261774900609145
 20
11.05
 30
0
 11
4.411774900609145
 21
11.2
 31
0
  0
ENDBLK
  8
0
  0
BLOCK
  8
0
  2
*X6
 70
1
 10
0
 20
0
 30
0
  0
LINE
  8
0
 62
7
  6
DASHED
 10
4.089999999999999
 20
8.2265746699413
 30
0
 11
4.163425330058701
 21
8.299999999999995
 31
0
  0
LINE
  8
0
 62
7
  6
DASHED
 10
4.175557364414667
 20
8.099999999999998
 30
0
 11
4.375557364414665
 21
8.299999999999995
 31
0
  0
LINE
  8
0
 62
7
  6
DASHED
 10
4.387689398770631
 20
8.099999999999998
 30
0
 11
4.587689398770629
 21
8.299999999999995
 31
0
  0
LINE
  8
0
 62
7
  6
DASHED
 10
4.599821433126595
 20
8.099999999999998
 30
0
 11
4.799821433126593
 21
8.299999999999995
 31
0
  0
LINE
  8
0
 62
7
  6
DASHED
 10
4.811953467482558
 20
8.099999999999998
 30
0
 11
5.011953467482557
 21
8.299999999999995
 31
0
  0
LINE
  8
0
 62
7
  6
DASHED
 10
5.024085501838522
 20
8.099999999999998
 30
0
 11
5.224085501838521
 21
8.299999999999995
 31
0
  0
LINE
  8
0
 62
7
  6
DASHED
 10
5.236217536194486
 20
8.099999999999998
 30
0
 11
5.436217536194484
 21
8.299999999999995
 31
0
  0
LINE
  8
0
 62
7
  6
DASHED
 10
5.44834957055045
 20
8.099999999999998
 30
0
 11
5.648349570550448
 21
8.299999999999995
 31
0
  0
LINE
  8
0
 62
7
  6
DASHED
 10
5.660481604906414
 20
8.099999999999998
 30
0
 11
5.860481604906412
 21
8.299999999999995
 31
0
  0
LINE
  8
0
 62
7
  6
DASHED
 10
5.872613639262378
 20
8.099999999999998
 30
0
 11
6.072613639262376
 21
8.299999999999995
 31
0
  0
LINE
  8
0
 62
7
  6
DASHED
 10
6.084745673618341
 20
8.099999999999998
 30
0
 11
6.28474567361834
 21
8.299999999999995
 31
0
  0
LINE
  8
0
 62
7
  6
DASHED
 10
6.296877707974305
 20
8.099999999999998
 30
0
 11
6.496877707974304
 21
8.299999999999995
 31
0
  0
LINE
  8
0
 62
7
  6
DASHED
 10
6.509009742330269
 20
8.099999999999998
 30
0
 11
6.709009742330267
 21
8.299999999999995
 31
0
  0
LINE
  8
0
 62
7
  6
DASHED
 10
6.721141776686233
 20
8.099999999999998
 30
0
 11
6.921141776686231
 21
8.299999999999995
 31
0
  0
LINE
  8
0
 62
7
  6
DASHED
 10
6.933273811042197
 20
8.099999999999998
 30
0
 11
7.133273811042195
 21
8.299999999999995
 31
0
  0
LINE
  8
0
 62
7
  6
DASHED
 10
7.145405845398161
 20
8.099999999999998
 30
0
 11
7.345405845398159
 21
8.299999999999995
 31
0
  0
LINE
  8
0
 62
7
  6
DASHED
 10
7.357537879754124
 20
8.099999999999998
 30
0
 11
7.557537879754123
 21
8.299999999999995
 31
0
  0
LINE
  8
0
 62
7
  6
DASHED
 10
7.569669914110088
 20
8.099999999999998
 30
0
 11
7.749999999999998
 21
8.28033008588991
 31
0
  0
LINE
  8
0
 62
7
 10
4.089999999999999
 20
8.120508652763318
 30
0
 11
4.269491347236682
 21
8.299999999999995
 31
0
  0
LINE
  8
0
 62
7
 10
4.28162338159265
 20
8.099999999999998
 30
0
 11
4.481623381592646
 21
8.299999999999995
 31
0
  0
LINE
  8
0
 62
7
 10
4.493755415948613
 20
8.099999999999998
 30
0
 11
4.69375541594861
 21
8.299999999999995
 31
0
  0
LINE
  8
0
 62
7
 10
4.705887450304577
 20
8.099999999999998
 30
0
 11
4.905887450304574
 21
8.299999999999995
 31
0
  0
LINE
  8
0
 62
7
 10
4.918019484660541
 20
8.099999999999998
 30
0
 11
5.118019484660538
 21
8.299999999999995
 31
0
  0
LINE
  8
0
 62
7
 10
5.130151519016505
 20
8.099999999999998
 30
0
 11
5.330151519016502
 21
8.299999999999995
 31
0
  0
LINE
  8
0
 62
7
 10
5.342283553372469
 20
8.099999999999998
 30
0
 11
5.542283553372465
 21
8.299999999999995
 31
0
  0
LINE
  8
0
 62
7
 10
5.554415587728433
 20
8.099999999999998
 30
0
 11
5.754415587728429
 21
8.299999999999995
 31
0
  0
LINE
  8
0
 62
7
 10
5.766547622084397
 20
8.099999999999998
 30
0
 11
5.966547622084393
 21
8.299999999999995
 31
0
  0
LINE
  8
0
 62
7
 10
5.97867965644036
 20
8.099999999999998
 30
0
 11
6.178679656440357
 21
8.299999999999995
 31
0
  0
LINE
  8
0
 62
7
 10
6.190811690796324
 20
8.099999999999998
 30
0
 11
6.390811690796321
 21
8.299999999999995
 31
0
  0
LINE
  8
0
 62
7
 10
6.402943725152288
 20
8.099999999999998
 30
0
 11
6.602943725152285
 21
8.299999999999995
 31
0
  0
LINE
  8
0
 62
7
 10
6.615075759508252
 20
8.099999999999998
 30
0
 11
6.815075759508249
 21
8.299999999999995
 31
0
  0
LINE
  8
0
 62
7
 10
6.827207793864216
 20
8.099999999999998
 30
0
 11
7.027207793864212
 21
8.299999999999995
 31
0
  0
LINE
  8
0
 62
7
 10
7.03933982822018
 20
8.099999999999998
 30
0
 11
7.239339828220176
 21
8.299999999999995
 31
0
  0
LINE
  8
0
 62
7
 10
7.251471862576143
 20
8.099999999999998
 30
0
 11
7.45147186257614
 21
8.299999999999995
 31
0
  0
LINE
  8
0
 62
7
 10
7.463603896932107
 20
8.099999999999998
 30
0
 11
7.663603896932104
 21
8.299999999999995
 31
0
  0
LINE
  8
0
 62
7
 10
7.675735931288071
 20
8.099999999999998
 30
0
 11
7.749999999999999
 21
8.174264068711926
 31
0
  0
ENDBLK
  8
0
  0
BLOCK
  8
0
  2
*X7
 70
1
 10
0
 20
0
 30
0
  0
LINE
  8
0
 62
7
  6
DASHED
 10
4.089999999999998
 20
10.98429111656884
 30
0
 11
4.15570888343117
 21
11.05
 31
0
  0
LINE
  8
0
 62
7
  6
DASHED
 10
4.167840917787133
 20
10.85
 30
0
 11
4.367840917787134
 21
11.05
 31
0
  0
LINE
  8
0
 62
7
  6
DASHED
 10
4.379972952143097
 20
10.85
 30
0
 11
4.579972952143097
 21
11.05
 31
0
  0
LINE
  8
0
 62
7
  6
DASHED
 10
4.592104986499061
 20
10.85
 30
0
 11
4.792104986499061
 21
11.05
 31
0
  0
LINE
  8
0
 62
7
  6
DASHED
 10
4.804237020855025
 20
10.85
 30
0
 11
5.004237020855025
 21
11.05
 31
0
  0
LINE
  8
0
 62
7
  6
DASHED
 10
5.016369055210989
 20
10.85
 30
0
 11
5.216369055210989
 21
11.05
 31
0
  0
LINE
  8
0
 62
7
  6
DASHED
 10
5.228501089566953
 20
10.85
 30
0
 11
5.428501089566953
 21
11.05
 31
0
  0
LINE
  8
0
 62
7
  6
DASHED
 10
5.440633123922916
 20
10.85
 30
0
 11
5.640633123922917
 21
11.05
 31
0
  0
LINE
  8
0
 62
7
  6
DASHED
 10
5.65276515827888
 20
10.85
 30
0
 11
5.85276515827888
 21
11.05
 31
0
  0
LINE
  8
0
 62
7
  6
DASHED
 10
5.864897192634844
 20
10.85
 30
0
 11
6.064897192634844
 21
11.05
 31
0
  0
LINE
  8
0
 62
7
  6
DASHED
 10
6.077029226990808
 20
10.85
 30
0
 11
6.277029226990808
 21
11.05
 31
0
  0
LINE
  8
0
 62
7
  6
DASHED
 10
6.289161261346772
 20
10.85
 30
0
 11
6.489161261346772
 21
11.05
 31
0
  0
LINE
  8
0
 62
7
  6
DASHED
 10
6.501293295702736
 20
10.85
 30
0
 11
6.701293295702736
 21
11.05
 31
0
  0
LINE
  8
0
 62
7
  6
DASHED
 10
6.713425330058699
 20
10.85
 30
0
 11
6.9134253300587
 21
11.05
 31
0
  0
LINE
  8
0
 62
7
  6
DASHED
 10
6.925557364414663
 20
10.85
 30
0
 11
7.125557364414663
 21
11.05
 31
0
  0
LINE
  8
0
 62
7
  6
DASHED
 10
7.137689398770627
 20
10.85
 30
0
 11
7.337689398770627
 21
11.05
 31
0
  0
LINE
  8
0
 62
7
  6
DASHED
 10
7.349821433126591
 20
10.85
 30
0
 11
7.549821433126591
 21
11.05
 31
0
  0
LINE
  8
0
 62
7
  6
DASHED
 10
7.561953467482555
 20
10.85
 30
0
 11
7.75
 21
11.03804653251744
 31
0
  0
LINE
  8
0
 62
7
 10
4.089999999999999
 20
10.87822509939085
 30
0
 11
4.261774900609151
 21
11.05
 31
0
  0
LINE
  8
0
 62
7
 10
4.273906934965116
 20
10.85
 30
0
 11
4.473906934965115
 21
11.05
 31
0
  0
LINE
  8
0
 62
7
 10
4.48603896932108
 20
10.85
 30
0
 11
4.686038969321078
 21
11.05
 31
0
  0
LINE
  8
0
 62
7
 10
4.698171003677044
 20
10.85
 30
0
 11
4.898171003677042
 21
11.05
 31
0
  0
LINE
  8
0
 62
7
 10
4.910303038033008
 20
10.85
 30
0
 11
5.110303038033006
 21
11.05
 31
0
  0
LINE
  8
0
 62
7
 10
5.122435072388972
 20
10.85
 30
0
 11
5.32243507238897
 21
11.05
 31
0
  0
LINE
  8
0
 62
7
 10
5.334567106744935
 20
10.85
 30
0
 11
5.534567106744934
 21
11.05
 31
0
  0
LINE
  8
0
 62
7
 10
5.546699141100899
 20
10.85
 30
0
 11
5.746699141100898
 21
11.05
 31
0
  0
LINE
  8
0
 62
7
 10
5.758831175456863
 20
10.85
 30
0
 11
5.958831175456861
 21
11.05
 31
0
  0
LINE
  8
0
 62
7
 10
5.970963209812827
 20
10.85
 30
0
 11
6.170963209812825
 21
11.05
 31
0
  0
LINE
  8
0
 62
7
 10
6.183095244168791
 20
10.85
 30
0
 11
6.383095244168789
 21
11.05
 31
0
  0
LINE
  8
0
 62
7
 10
6.395227278524755
 20
10.85
 30
0
 11
6.595227278524753
 21
11.05
 31
0
  0
LINE
  8
0
 62
7
 10
6.607359312880718
 20
10.85
 30
0
 11
6.807359312880717
 21
11.05
 31
0
  0
LINE
  8
0
 62
7
 10
6.819491347236682
 20
10.85
 30
0
 11
7.019491347236681
 21
11.05
 31
0
  0
LINE
  8
0
 62
7
 10
7.031623381592646
 20
10.85
 30
0
 11
7.231623381592645
 21
11.05
 31
0
  0
LINE
  8
0
 62
7
 10
7.24375541594861
 20
10.85
 30
0
 11
7.443755415948608
 21
11.05
 31
0
  0
LINE
  8
0
 62
7
 10
7.455887450304574
 20
10.85
 30
0
 11
7.655887450304572
 21
11.05
 31
0
  0
LINE
  8
0
 62
7
 10
7.668019484660538
 20
10.85
 30
0
 11
7.749999999999999
 21
10.93198051533946
 31
0
  0
ENDBLK
  8
0
  0
BLOCK
  8
0
  2
*X8
 70
1
 10
0
 20
0
 30
0
  0
LINE
  8
0
 62
7
 10
0.4999999999999991
 20
8.030687219636729
 30
0
 11
0.5693127803632692
 21
8.1
 31
0
  0
LINE
  8
0
 62
7
 10
0.6314448147192331
 20
7.949999999999999
 30
0
 11
0.7399999999999989
 21
8.058555185280763
 31
0
  0
LINE
  8
0
 62
7
 10
0.5253787975412521
 20
7.949999999999999
 30
0
 11
0.6753787975412515
 21
8.099999999999998
 31
0
  0
LINE
  8
0
 62
7
 10
0.7375108318972163
 20
7.949999999999999
 30
0
 11
0.7400000000000002
 21
7.952489168102783
 31
0
  0
ENDBLK
  8
0
  0
BLOCK
  8
0
  2
*X9
 70
1
 10
0
 20
0
 30
0
  0
LINE
  8
0
 62
7
 10
0.5000000000000004
 20
10.78840366626426
 30
0
 11
0.5615963337357339
 21
10.85
 31
0
  0
LINE
  8
0
 62
7
 10
0.5000000000000004
 20
10.5762716319083
 30
0
 11
0.7400000000000002
 21
10.8162716319083
 31
0
  0
LINE
  8
0
 62
7
 10
0.5000000000000004
 20
10.36413959755233
 30
0
 11
0.7400000000000002
 21
10.60413959755233
 31
0
  0
LINE
  8
0
 62
7
 10
0.5000000000000004
 20
10.15200756319637
 30
0
 11
0.7400000000000002
 21
10.39200756319637
 31
0
  0
LINE
  8
0
 62
7
 10
0.5000000000000004
 20
9.939875528840407
 30
0
 11
0.7400000000000002
 21
10.17987552884041
 31
0
  0
LINE
  8
0
 62
7
 10
0.5000000000000004
 20
9.727743494484443
 30
0
 11
0.7400000000000002
 21
9.967743494484441
 31
0
  0
LINE
  8
0
 62
7
 10
0.5000000000000004
 20
9.515611460128479
 30
0
 11
0.7400000000000002
 21
9.755611460128478
 31
0
  0
LINE
  8
0
 62
7
 10
0.5000000000000004
 20
9.303479425772515
 30
0
 11
0.7400000000000002
 21
9.543479425772514
 31
0
  0
LINE
  8
0
 62
7
 10
0.5000000000000004
 20
9.091347391416551
 30
0
 11
0.7400000000000002
 21
9.33134739141655
 31
0
  0
LINE
  8
0
 62
7
 10
0.5000000000000004
 20
8.879215357060588
 30
0
 11
0.7400000000000002
 21
9.119215357060586
 31
0
  0
LINE
  8
0
 62
7
 10
0.5000000000000004
 20
8.667083322704624
 30
0
 11
0.7400000000000002
 21
8.907083322704622
 31
0
  0
LINE
  8
0
 62
7
 10
0.5000000000000004
 20
8.45495128834866
 30
0
 11
0.7400000000000002
 21
8.694951288348658
 31
0
  0
LINE
  8
0
 62
7
 10
0.5571807460073028
 20
8.299999999999997
 30
0
 11
0.7400000000000002
 21
8.482819253992695
 31
0
  0
LINE
  8
0
 62
7
 10
0.5
 20
10.68233764908628
 30
0
 11
0.6676623509137176
 21
10.85
 31
0
  0
LINE
  8
0
 62
7
 10
0.5
 20
10.47020561473031
 30
0
 11
0.7400000000000007
 21
10.71020561473031
 31
0
  0
LINE
  8
0
 62
7
 10
0.5
 20
10.25807358037435
 30
0
 11
0.7400000000000007
 21
10.49807358037435
 31
0
  0
LINE
  8
0
 62
7
 10
0.5
 20
10.04594154601839
 30
0
 11
0.7400000000000007
 21
10.28594154601839
 31
0
  0
LINE
  8
0
 62
7
 10
0.5
 20
9.833809511662423
 30
0
 11
0.7400000000000007
 21
10.07380951166242
 31
0
  0
LINE
  8
0
 62
7
 10
0.5
 20
9.621677477306459
 30
0
 11
0.7400000000000007
 21
9.861677477306458
 31
0
  0
LINE
  8
0
 62
7
 10
0.5
 20
9.409545442950495
 30
0
 11
0.7400000000000007
 21
9.649545442950494
 31
0
  0
LINE
  8
0
 62
7
 10
0.5
 20
9.197413408594532
 30
0
 11
0.7400000000000007
 21
9.43741340859453
 31
0
  0
LINE
  8
0
 62
7
 10
0.5
 20
8.985281374238568
 30
0
 11
0.7400000000000007
 21
9.225281374238566
 31
0
  0
LINE
  8
0
 62
7
 10
0.5
 20
8.773149339882604
 30
0
 11
0.7400000000000007
 21
9.013149339882602
 31
0
  0
LINE
  8
0
 62
7
 10
0.5
 20
8.56101730552664
 30
0
 11
0.7400000000000007
 21
8.801017305526639
 31
0
  0
LINE
  8
0
 62
7
 10
0.5
 20
8.348885271170676
 30
0
 11
0.7400000000000007
 21
8.588885271170675
 31
0
  0
LINE
  8
0
 62
7
 10
0.6632467631852861
 20
8.299999999999997
 30
0
 11
0.7400000000000007
 21
8.376753236814711
 31
0
  0
ENDBLK
  8
0
  0
BLOCK
  8
0
  2
*X10
 70
1
 10
0
 20
0
 30
0
  0
LINE
  8
0
 62
7
 10
0.549464299379772
 20
11.05
 30
0
 11
0.6994642993797706
 21
11.2
 31
0
  0
LINE
  8
0
 62
7
 10
0.5
 20
11.10660171779821
 30
0
 11
0.5933982822017896
 21
11.2
 31
0
  0
LINE
  8
0
 62
7
 10
0.655530316557754
 20
11.05
 30
0
 11
0.7400000000000002
 21
11.13446968344225
 31
0
  0
ENDBLK
  8
0
  0
BLOCK
  8
0
  2
*X11
 70
1
 10
0
 20
0
 30
0
  0
LINE
  8
0
 62
7
  6
DASHED
 10
2.266369055210983
 20
8.099999999999998
 30
0
 11
2.466369055210981
 21
8.299999999999997
 31
0
  0
LINE
  8
0
 62
7
  6
DASHED
 10
2.478501089566947
 20
8.099999999999998
 30
0
 11
2.560000000000001
 21
8.181498910433053
 31
0
  0
LINE
  8
0
 62
7
 10
2.26
 20
8.199696961966998
 30
0
 11
2.360303038033
 21
8.299999999999997
 31
0
  0
LINE
  8
0
 62
7
 10
2.372435072388965
 20
8.099999999999998
 30
0
 11
2.560000000000001
 21
8.287564927611033
 31
0
  0
ENDBLK
  8
0
  0
BLOCK
  8
0
  2
*X12
 70
1
 10
0
 20
0
 30
0
  0
LINE
  8
0
 62
7
  6
DASHED
 10
2.26
 20
10.85134739141655
 30
0
 11
2.458652608583451
 21
11.05
 31
0
  0
LINE
  8
0
 62
7
  6
DASHED
 10
2.470784642939413
 20
10.85
 30
0
 11
2.56
 21
10.93921535706059
 31
0
  0
LINE
  8
0
 62
7
 10
2.259999999999999
 20
10.95741340859453
 30
0
 11
2.352586591405468
 21
11.05
 31
0
  0
LINE
  8
0
 62
7
 10
2.364718625761432
 20
10.85
 30
0
 11
2.559999999999998
 21
11.04528137423857
 31
0
  0
ENDBLK
  8
0
  0
BLOCK
  8
0
  2
*X13
 70
1
 10
0
 20
0
 30
0
  0
LINE
  8
0
 62
7
  6
DASHED
 10
0.4999999999999991
 20
11.00053570062023
 30
0
 11
0.5494642993797729
 21
11.05
 31
0
  0
LINE
  8
0
 62
7
  6
DASHED
 10
0.5615963337357357
 20
10.85
 30
0
 11
0.7399999999999993
 21
11.02840366626426
 31
0
  0
LINE
  8
0
 62
7
 10
0.5000000000000009
 20
10.89446968344225
 30
0
 11
0.655530316557754
 21
11.05
 31
0
  0
LINE
  8
0
 62
7
 10
0.6676623509137176
 20
10.85
 30
0
 11
0.7400000000000002
 21
10.92233764908628
 31
0
  0
ENDBLK
  8
0
  0
BLOCK
  8
0
  2
*X14
 70
1
 10
0
 20
0
 30
0
  0
LINE
  8
0
 62
7
  6
DASHED
 10
0.5
 20
8.242819253992694
 30
0
 11
0.5571807460073028
 21
8.299999999999997
 31
0
  0
LINE
  8
0
 62
7
  6
DASHED
 10
0.5693127803632705
 20
8.100000000000001
 30
0
 11
0.7399999999999998
 21
8.270687219636729
 31
0
  0
LINE
  8
0
 62
7
 10
0.4999999999999991
 20
8.136753236814712
 30
0
 11
0.6632467631852856
 21
8.299999999999997
 31
0
  0
LINE
  8
0
 62
7
 10
0.6753787975412515
 20
8.099999999999998
 30
0
 11
0.7399999999999998
 21
8.164621202458747
 31
0
  0
ENDBLK
  8
0
  0
BLOCK
  8
0
  2
*X15
 70
1
 10
0
 20
0
 30
0
  0
LINE
  8
0
 62
7
 10
4.239999999999998
 20
5.406726188957801
 30
0
 11
4.373273811042196
 21
5.539999999999999
 31
0
  0
LINE
  8
0
 62
7
 10
4.089999999999999
 20
5.256726188957801
 30
0
 11
4.223273811042197
 21
5.389999999999999
 31
0
  0
LINE
  8
0
 62
7
 10
4.195405845398169
 20
5.150000000000002
 30
0
 11
4.435405845398166
 21
5.389999999999999
 31
0
  0
LINE
  8
0
 62
7
 10
4.407537879754133
 20
5.150000000000002
 30
0
 11
4.64753787975413
 21
5.389999999999999
 31
0
  0
LINE
  8
0
 62
7
 10
4.619669914110097
 20
5.150000000000002
 30
0
 11
4.859669914110094
 21
5.389999999999999
 31
0
  0
LINE
  8
0
 62
7
 10
4.831801948466061
 20
5.150000000000002
 30
0
 11
5.071801948466057
 21
5.389999999999999
 31
0
  0
LINE
  8
0
 62
7
 10
5.043933982822025
 20
5.150000000000002
 30
0
 11
5.283933982822021
 21
5.389999999999999
 31
0
  0
LINE
  8
0
 62
7
 10
5.256066017177988
 20
5.150000000000002
 30
0
 11
5.496066017177985
 21
5.389999999999999
 31
0
  0
LINE
  8
0
 62
7
 10
5.468198051533952
 20
5.150000000000002
 30
0
 11
5.708198051533949
 21
5.389999999999999
 31
0
  0
LINE
  8
0
 62
7
 10
5.680330085889916
 20
5.150000000000002
 30
0
 11
5.920330085889913
 21
5.389999999999999
 31
0
  0
LINE
  8
0
 62
7
 10
5.89246212024588
 20
5.150000000000002
 30
0
 11
6.132462120245877
 21
5.389999999999999
 31
0
  0
LINE
  8
0
 62
7
 10
6.104594154601844
 20
5.150000000000002
 30
0
 11
6.344594154601841
 21
5.389999999999999
 31
0
  0
LINE
  8
0
 62
7
 10
6.316726188957808
 20
5.150000000000002
 30
0
 11
6.556726188957804
 21
5.389999999999999
 31
0
  0
LINE
  8
0
 62
7
 10
6.528858223313772
 20
5.150000000000002
 30
0
 11
6.768858223313768
 21
5.389999999999999
 31
0
  0
LINE
  8
0
 62
7
 10
6.740990257669735
 20
5.150000000000002
 30
0
 11
6.980990257669732
 21
5.389999999999999
 31
0
  0
LINE
  8
0
 62
7
 10
6.953122292025699
 20
5.150000000000002
 30
0
 11
7.193122292025696
 21
5.389999999999999
 31
0
  0
LINE
  8
0
 62
7
 10
7.424999999999998
 20
5.409745673618336
 30
0
 11
7.555254326381659
 21
5.539999999999998
 31
0
  0
LINE
  8
0
 62
7
 10
7.165254326381663
 20
5.150000000000002
 30
0
 11
7.40525432638166
 21
5.389999999999999
 31
0
  0
LINE
  8
0
 62
7
 10
7.377386360737627
 20
5.150000000000002
 30
0
 11
7.617386360737624
 21
5.389999999999999
 31
0
  0
LINE
  8
0
 62
7
 10
7.589518395093591
 20
5.150000000000002
 30
0
 11
7.764999999999999
 21
5.325481604906409
 31
0
  0
LINE
  8
0
 62
7
 10
4.239999999999998
 20
5.512792206135785
 30
0
 11
4.267207793864213
 21
5.539999999999999
 31
0
  0
LINE
  8
0
 62
7
 10
4.09
 20
5.362792206135784
 30
0
 11
4.117207793864213
 21
5.389999999999999
 31
0
  0
LINE
  8
0
 62
7
 10
4.09
 20
5.15066017177982
 30
0
 11
4.414999999999999
 21
5.475660171779819
 31
0
  0
LINE
  8
0
 62
7
 10
4.301471862576152
 20
5.150000000000001
 30
0
 11
4.541471862576148
 21
5.389999999999999
 31
0
  0
LINE
  8
0
 62
7
 10
4.513603896932116
 20
5.150000000000001
 30
0
 11
4.753603896932112
 21
5.389999999999999
 31
0
  0
LINE
  8
0
 62
7
 10
4.72573593128808
 20
5.150000000000001
 30
0
 11
4.965735931288076
 21
5.389999999999999
 31
0
  0
LINE
  8
0
 62
7
 10
4.937867965644044
 20
5.150000000000001
 30
0
 11
5.177867965644039
 21
5.389999999999999
 31
0
  0
LINE
  8
0
 62
7
 10
5.150000000000007
 20
5.150000000000001
 30
0
 11
5.390000000000003
 21
5.389999999999999
 31
0
  0
LINE
  8
0
 62
7
 10
5.362132034355971
 20
5.150000000000001
 30
0
 11
5.602132034355967
 21
5.389999999999999
 31
0
  0
LINE
  8
0
 62
7
 10
5.574264068711935
 20
5.150000000000001
 30
0
 11
5.814264068711931
 21
5.389999999999999
 31
0
  0
LINE
  8
0
 62
7
 10
5.786396103067899
 20
5.150000000000001
 30
0
 11
6.026396103067895
 21
5.389999999999999
 31
0
  0
LINE
  8
0
 62
7
 10
5.998528137423863
 20
5.150000000000001
 30
0
 11
6.238528137423859
 21
5.389999999999999
 31
0
  0
LINE
  8
0
 62
7
 10
6.210660171779827
 20
5.150000000000001
 30
0
 11
6.450660171779822
 21
5.389999999999999
 31
0
  0
LINE
  8
0
 62
7
 10
6.42279220613579
 20
5.150000000000001
 30
0
 11
6.662792206135786
 21
5.389999999999999
 31
0
  0
LINE
  8
0
 62
7
 10
6.634924240491754
 20
5.150000000000001
 30
0
 11
6.87492424049175
 21
5.389999999999999
 31
0
  0
LINE
  8
0
 62
7
 10
6.847056274847718
 20
5.150000000000001
 30
0
 11
7.087056274847714
 21
5.389999999999999
 31
0
  0
LINE
  8
0
 62
7
 10
7.424999999999997
 20
5.515811690796318
 30
0
 11
7.449188309203679
 21
5.54
 31
0
  0
LINE
  8
0
 62
7
 10
7.059188309203682
 20
5.150000000000001
 30
0
 11
7.299188309203678
 21
5.389999999999999
 31
0
  0
LINE
  8
0
 62
7
 10
7.271320343559646
 20
5.150000000000001
 30
0
 11
7.599999999999999
 21
5.478679656440356
 31
0
  0
LINE
  8
0
 62
7
 10
7.48345237791561
 20
5.150000000000001
 30
0
 11
7.723452377915605
 21
5.389999999999999
 31
0
  0
LINE
  8
0
 62
7
 10
7.695584412271574
 20
5.150000000000001
 30
0
 11
7.764999999999997
 21
5.219415587728425
 31
0
  0
ENDBLK
  8
0
  0
BLOCK
  8
0
  2
*X16
 70
1
 10
0
 20
0
 30
0
  0
LINE
  8
0
 62
7
 10
4.089999999999998
 20
5.044594154601839
 30
0
 11
4.155405845398171
 21
5.110000000000001
 31
0
  0
LINE
  8
0
 62
7
 10
4.127537879754126
 20
4.870000000000001
 30
0
 11
4.367537879754135
 21
5.110000000000001
 31
0
  0
LINE
  8
0
 62
7
 10
4.239999999999999
 20
4.770330085889908
 30
0
 11
4.579669914110099
 21
5.110000000000001
 31
0
  0
LINE
  8
0
 62
7
 10
4.551801948466061
 20
4.870000000000001
 30
0
 11
4.791801948466063
 21
5.110000000000001
 31
0
  0
LINE
  8
0
 62
7
 10
4.239999999999999
 20
4.558198051533944
 30
0
 11
4.414999999999998
 21
4.733198051533946
 31
0
  0
LINE
  8
0
 62
7
 10
4.763933982822025
 20
4.870000000000001
 30
0
 11
5.003933982822026
 21
5.110000000000001
 31
0
  0
LINE
  8
0
 62
7
 10
4.239999999999999
 20
4.34606601717798
 30
0
 11
4.414999999999998
 21
4.521066017177981
 31
0
  0
LINE
  8
0
 62
7
 10
4.976066017177989
 20
4.870000000000001
 30
0
 11
5.21606601717799
 21
5.110000000000001
 31
0
  0
LINE
  8
0
 62
7
 10
4.239999999999999
 20
4.133933982822017
 30
0
 11
4.414999999999998
 21
4.308933982822016
 31
0
  0
LINE
  8
0
 62
7
 10
5.188198051533953
 20
4.870000000000001
 30
0
 11
5.428198051533954
 21
5.110000000000001
 31
0
  0
LINE
  8
0
 62
7
 10
4.239999999999999
 20
3.921801948466052
 30
0
 11
4.414999999999998
 21
4.096801948466052
 31
0
  0
LINE
  8
0
 62
7
 10
5.400330085889917
 20
4.870000000000001
 30
0
 11
5.640330085889918
 21
5.110000000000001
 31
0
  0
LINE
  8
0
 62
7
 10
4.239999999999999
 20
3.709669914110088
 30
0
 11
4.414999999999998
 21
3.884669914110087
 31
0
  0
LINE
  8
0
 62
7
 10
5.612462120245881
 20
4.870000000000001
 30
0
 11
5.852462120245882
 21
5.110000000000001
 31
0
  0
LINE
  8
0
 62
7
 10
4.239999999999999
 20
3.497537879754124
 30
0
 11
4.414999999999998
 21
3.672537879754123
 31
0
  0
LINE
  8
0
 62
7
 10
5.824594154601844
 20
4.870000000000001
 30
0
 11
6.064594154601846
 21
5.110000000000001
 31
0
  0
LINE
  8
0
 62
7
 10
4.239999999999999
 20
3.285405845398159
 30
0
 11
4.414999999999998
 21
3.460405845398158
 31
0
  0
LINE
  8
0
 62
7
 10
6.036726188957808
 20
4.870000000000001
 30
0
 11
6.276726188957809
 21
5.110000000000001
 31
0
  0
LINE
  8
0
 62
7
 10
6.248858223313772
 20
4.870000000000001
 30
0
 11
6.488858223313773
 21
5.110000000000001
 31
0
  0
LINE
  8
0
 62
7
 10
6.460990257669736
 20
4.870000000000001
 30
0
 11
6.700990257669737
 21
5.110000000000001
 31
0
  0
LINE
  8
0
 62
7
 10
6.6731222920257
 20
4.870000000000001
 30
0
 11
6.913122292025701
 21
5.110000000000001
 31
0
  0
LINE
  8
0
 62
7
 10
6.885254326381664
 20
4.870000000000001
 30
0
 11
7.125254326381665
 21
5.110000000000001
 31
0
  0
LINE
  8
0
 62
7
 10
7.097386360737628
 20
4.870000000000001
 30
0
 11
7.337386360737629
 21
5.110000000000001
 31
0
  0
LINE
  8
0
 62
7
 10
7.309518395093591
 20
4.870000000000001
 30
0
 11
7.549518395093592
 21
5.110000000000001
 31
0
  0
LINE
  8
0
 62
7
 10
7.424999999999999
 20
4.773349570550444
 30
0
 11
7.761650429449556
 21
5.110000000000001
 31
0
  0
LINE
  8
0
 62
7
 10
7.733782463805518
 20
4.87
 30
0
 11
7.764999999999998
 21
4.901217536194479
 31
0
  0
LINE
  8
0
 62
7
 10
7.424999999999999
 20
4.56121753619448
 30
0
 11
7.599999999999999
 21
4.73621753619448
 31
0
  0
LINE
  8
0
 62
7
 10
7.424999999999999
 20
4.349085501838516
 30
0
 11
7.599999999999999
 21
4.524085501838516
 31
0
  0
LINE
  8
0
 62
7
 10
7.424999999999999
 20
4.136953467482552
 30
0
 11
7.599999999999999
 21
4.311953467482552
 31
0
  0
LINE
  8
0
 62
7
 10
7.424999999999999
 20
3.924821433126588
 30
0
 11
7.599999999999999
 21
4.099821433126588
 31
0
  0
LINE
  8
0
 62
7
 10
7.424999999999999
 20
3.712689398770624
 30
0
 11
7.599999999999999
 21
3.887689398770624
 31
0
  0
LINE
  8
0
 62
7
 10
7.424999999999999
 20
3.50055736441466
 30
0
 11
7.599999999999999
 21
3.67555736441466
 31
0
  0
LINE
  8
0
 62
7
 10
7.486574669941303
 20
3.35
 30
0
 11
7.599999999999999
 21
3.463425330058695
 31
0
  0
LINE
  8
0
 62
7
 10
4.089999999999999
 20
4.938528137423855
 30
0
 11
4.261471862576152
 21
5.110000000000001
 31
0
  0
LINE
  8
0
 62
7
 10
4.233603896932109
 20
4.870000000000001
 30
0
 11
4.473603896932116
 21
5.110000000000001
 31
0
  0
LINE
  8
0
 62
7
 10
4.44573593128808
 20
4.870000000000001
 30
0
 11
4.68573593128808
 21
5.110000000000001
 31
0
  0
LINE
  8
0
 62
7
 10
4.239999999999999
 20
4.664264068711926
 30
0
 11
4.414999999999998
 21
4.839264068711928
 31
0
  0
LINE
  8
0
 62
7
 10
4.657867965644043
 20
4.870000000000001
 30
0
 11
4.897867965644044
 21
5.110000000000001
 31
0
  0
LINE
  8
0
 62
7
 10
4.239999999999999
 20
4.452132034355962
 30
0
 11
4.414999999999998
 21
4.627132034355963
 31
0
  0
LINE
  8
0
 62
7
 10
4.870000000000007
 20
4.870000000000001
 30
0
 11
5.110000000000007
 21
5.110000000000001
 31
0
  0
LINE
  8
0
 62
7
 10
4.239999999999999
 20
4.239999999999998
 30
0
 11
4.414999999999998
 21
4.414999999999998
 31
0
  0
LINE
  8
0
 62
7
 10
5.082132034355971
 20
4.870000000000001
 30
0
 11
5.322132034355971
 21
5.110000000000001
 31
0
  0
LINE
  8
0
 62
7
 10
4.239999999999999
 20
4.027867965644035
 30
0
 11
4.414999999999998
 21
4.202867965644034
 31
0
  0
LINE
  8
0
 62
7
 10
5.294264068711935
 20
4.870000000000001
 30
0
 11
5.534264068711935
 21
5.110000000000001
 31
0
  0
LINE
  8
0
 62
7
 10
4.239999999999999
 20
3.815735931288071
 30
0
 11
4.414999999999998
 21
3.990735931288069
 31
0
  0
LINE
  8
0
 62
7
 10
5.506396103067899
 20
4.870000000000001
 30
0
 11
5.746396103067899
 21
5.110000000000001
 31
0
  0
LINE
  8
0
 62
7
 10
4.239999999999999
 20
3.603603896932106
 30
0
 11
4.414999999999998
 21
3.778603896932105
 31
0
  0
LINE
  8
0
 62
7
 10
5.718528137423863
 20
4.870000000000001
 30
0
 11
5.958528137423863
 21
5.110000000000001
 31
0
  0
LINE
  8
0
 62
7
 10
4.239999999999999
 20
3.391471862576142
 30
0
 11
4.414999999999998
 21
3.56647186257614
 31
0
  0
LINE
  8
0
 62
7
 10
5.930660171779826
 20
4.870000000000001
 30
0
 11
6.170660171779827
 21
5.110000000000001
 31
0
  0
LINE
  8
0
 62
7
 10
4.310660171779822
 20
3.25
 30
0
 11
4.414999999999999
 21
3.354339828220177
 31
0
  0
LINE
  8
0
 62
7
 10
6.14279220613579
 20
4.870000000000001
 30
0
 11
6.38279220613579
 21
5.110000000000001
 31
0
  0
LINE
  8
0
 62
7
 10
6.354924240491754
 20
4.870000000000001
 30
0
 11
6.594924240491754
 21
5.110000000000001
 31
0
  0
LINE
  8
0
 62
7
 10
6.567056274847718
 20
4.870000000000001
 30
0
 11
6.807056274847718
 21
5.110000000000001
 31
0
  0
LINE
  8
0
 62
7
 10
6.779188309203682
 20
4.870000000000001
 30
0
 11
7.019188309203682
 21
5.110000000000001
 31
0
  0
LINE
  8
0
 62
7
 10
6.991320343559646
 20
4.870000000000001
 30
0
 11
7.231320343559646
 21
5.110000000000001
 31
0
  0
LINE
  8
0
 62
7
 10
7.203452377915609
 20
4.870000000000001
 30
0
 11
7.44345237791561
 21
5.110000000000001
 31
0
  0
LINE
  8
0
 62
7
 10
7.415584412271573
 20
4.870000000000001
 30
0
 11
7.655584412271573
 21
5.110000000000001
 31
0
  0
LINE
  8
0
 62
7
 10
7.627716446627536
 20
4.87
 30
0
 11
7.764999999999999
 21
5.007283553372462
 31
0
  0
LINE
  8
0
 62
7
 10
7.424999999999998
 20
4.667283553372461
 30
0
 11
7.6
 21
4.842283553372462
 31
0
  0
LINE
  8
0
 62
7
 10
7.424999999999998
 20
4.455151519016497
 30
0
 11
7.6
 21
4.630151519016498
 31
0
  0
LINE
  8
0
 62
7
 10
7.424999999999998
 20
4.243019484660533
 30
0
 11
7.6
 21
4.418019484660534
 31
0
  0
LINE
  8
0
 62
7
 10
7.424999999999998
 20
4.03088745030457
 30
0
 11
7.6
 21
4.20588745030457
 31
0
  0
LINE
  8
0
 62
7
 10
7.424999999999998
 20
3.818755415948605
 30
0
 11
7.6
 21
3.993755415948606
 31
0
  0
LINE
  8
0
 62
7
 10
7.424999999999998
 20
3.606623381592641
 30
0
 11
7.6
 21
3.781623381592642
 31
0
  0
LINE
  8
0
 62
7
 10
7.424999999999999
 20
3.394491347236678
 30
0
 11
7.6
 21
3.569491347236678
 31
0
  0
LINE
  8
0
 62
7
 10
7.592640687119285
 20
3.35
 30
0
 11
7.6
 21
3.357359312880714
 31
0
  0
ENDBLK
  8
0
  0
BLOCK
  8
0
  2
*D0
 70
1
 10
0
 20
0
 30
0
  0
LINE
  8
0
 62
7
 10
8.03021419973877
 20
10.28230087151535
 30
0
 11
8.03021419973877
 21
11.05
 31
0
  0
LINE
  8
0
 62
7
 10
8.03021419973877
 20
8.299999999999999
 30
0
 11
8.03021419973877
 21
9.202300871515352
 31
0
  0
LINE
  8
0
 62
7
 10
7.749999999999998
 20
11.05
 30
0
 11
8.080214199738771
 21
11.05
 31
0
  0
LINE
  8
0
 62
7
 10
7.749999999999998
 20
8.299999999999999
 30
0
 11
8.080214199738771
 21
8.299999999999999
 31
0
  0
LINE
  8
0
 62
7
 10
7.994858860679443
 20
8.335355339059326
 30
0
 11
8.065569538798098
 21
8.264644660940672
 31
0
  0
LINE
  8
0
 62
7
 10
8.065569538798098
 20
11.01464466094067
 30
0
 11
7.994858860679443
 21
11.08535533905933
 31
0
  0
TEXT
  8
0
 62
7
 10
8.000214199738771
 20
9.604800871515353
 30
0
 40
0.1
  1
2,75
 50
90
 41
0.9
  0
TEXT
  8
0
 62
7
 10
8.160214199738771
 20
9.402300871515353
 30
0
 40
0.1
  1
(260-280)
 50
90
 41
0.9
  0
ENDBLK
  8
0
  0
BLOCK
  8
0
  2
*D1
 70
1
 10
0
 20
0
 30
0
  0
LINE
  8
0
 62
7
 10
6.276134349628061
 20
11.4444155027536
 30
0
 11
7.424999999999998
 21
11.4444155027536
 31
0
  0
LINE
  8
0
 62
7
 10
4.414999999999999
 20
11.4444155027536
 30
0
 11
5.631134349628061
 21
11.4444155027536
 31
0
  0
LINE
  8
0
 62
7
 10
7.424999999999998
 20
11.2
 30
0
 11
7.424999999999998
 21
11.4944155027536
 31
0
  0
LINE
  8
0
 62
7
 10
4.414999999999999
 20
11.2
 30
0
 11
4.414999999999999
 21
11.4944155027536
 31
0
  0
LINE
  8
0
 62
7
 10
7.389644660940671
 20
11.40906016369427
 30
0
 11
7.460355339059325
 21
11.47977084181293
 31
0
  0
LINE
  8
0
 62
7
 10
4.450355339059326
 20
11.47977084181293
 30
0
 11
4.379644660940672
 21
11.40906016369427
 31
0
  0
TEXT
  8
0
 62
7
 10
5.831134349628061
 20
11.3994155027536
 30
0
 40
0.1
  1
3,01
 41
0.9
  0
ENDBLK
  8
0
  0
BLOCK
  8
0
  2
*D2
 70
1
 10
0
 20
0
 30
0
  0
LINE
  8
0
 62
7
 10
3.96783394651672
 20
4.463780295804232
 30
0
 11
3.96783394651672
 21
4.870000000000001
 31
0
  0
LINE
  8
0
 62
7
 10
3.96783394651672
 20
3.25
 30
0
 11
3.96783394651672
 21
3.718780295804231
 31
0
  0
LINE
  8
0
 62
7
 10
4.239999999999999
 20
4.870000000000001
 30
0
 11
3.91783394651672
 21
4.870000000000001
 31
0
  0
LINE
  8
0
 62
7
 10
4.239999999999999
 20
3.25
 30
0
 11
3.91783394651672
 21
3.25
 31
0
  0
LINE
  8
0
 62
7
 10
3.932478607457393
 20
3.285355339059328
 30
0
 11
4.003189285576047
 21
3.214644660940673
 31
0
  0
LINE
  8
0
 62
7
 10
4.003189285576047
 20
4.834644660940674
 30
0
 11
3.932478607457393
 21
4.905355339059328
 31
0
  0
TEXT
  8
0
 62
7
 10
4.01283394651672
 20
3.968780295804231
 30
0
 40
0.1
  1
1,62
 50
90
 41
0.9
  0
ENDBLK
  8
0
  0
BLOCK
  8
0
  2
*D3
 70
1
 10
0
 20
0
 30
0
  0
LINE
  8
0
 62
7
 10
6.258049764378532
 20
5.725310341792991
 30
0
 11
7.424999999999999
 21
5.725310341792991
 31
0
  0
LINE
  8
0
 62
7
 10
4.415
 20
5.725310341792991
 30
0
 11
5.513049764378531
 21
5.725310341792991
 31
0
  0
LINE
  8
0
 62
7
 10
7.424999999999999
 20
5.389999999999999
 30
0
 11
7.424999999999999
 21
5.775310341792991
 31
0
  0
LINE
  8
0
 62
7
 10
4.415
 20
5.389999999999999
 30
0
 11
4.415
 21
5.775310341792991
 31
0
  0
LINE
  8
0
 62
7
 10
4.450355339059327
 20
5.760665680852318
 30
0
 11
4.379644660940673
 21
5.689955002733663
 31
0
  0
LINE
  8
0
 62
7
 10
7.389644660940672
 20
5.689955002733663
 30
0
 11
7.460355339059326
 21
5.760665680852318
 31
0
  0
TEXT
  8
0
 62
7
 10
5.763049764378532
 20
5.680310341792991
 30
0
 40
0.1
  1
3,01
 41
0.9
  0
ENDBLK
  8
0
  0
BLOCK
  8
0
  2
*D4
 70
1
 10
0
 20
0
 30
0
  0
LINE
  8
0
 62
7
 10
8.03021419973877
 20
4.520517450178841
 30
0
 11
8.03021419973877
 21
4.87
 31
0
  0
LINE
  8
0
 62
7
 10
8.03021419973877
 20
3.35
 30
0
 11
8.03021419973877
 21
3.77551745017884
 31
0
  0
LINE
  8
0
 62
7
 10
7.599999999999998
 20
4.87
 30
0
 11
8.080214199738771
 21
4.87
 31
0
  0
LINE
  8
0
 62
7
 10
7.599999999999998
 20
3.35
 30
0
 11
8.080214199738771
 21
3.35
 31
0
  0
LINE
  8
0
 62
7
 10
8.065569538798098
 20
4.834644660940673
 30
0
 11
7.994858860679443
 21
4.905355339059327
 31
0
  0
LINE
  8
0
 62
7
 10
7.994858860679443
 20
3.385355339059327
 30
0
 11
8.065569538798098
 21
3.314644660940672
 31
0
  0
TEXT
  8
0
 62
7
 10
8.07521419973877
 20
4.025517450178841
 30
0
 40
0.1
  1
1,52
 50
90
 41
0.9
  0
ENDBLK
  8
0
  0
ENDSEC
  0
SECTION
  2
ENTITIES
  0
INSERT
  8
0
  2
*X0
 10
0
 20
0
 30
0
  0
INSERT
  8
0
  2
*X1
 10
0
 20
0
 30
0
  0
INSERT
  8
0
  2
*X2
 10
0
 20
0
 30
0
  0
INSERT
  8
0
  2
*X3
 10
0
 20
0
 30
0
  0
INSERT
  8
0
  2
*X4
 10
0
 20
0
 30
0
  0
INSERT
  8
0
  2
*X5
 10
0
 20
0
 30
0
  0
INSERT
  8
0
  2
*X6
 10
0
 20
0
 30
0
  0
INSERT
  8
0
  2
*X7
 10
0
 20
0
 30
0
  0
INSERT
  8
0
  2
*X8
 10
0
 20
0
 30
0
  0
INSERT
  8
0
  2
*X9
 10
0
 20
0
 30
0
  0
INSERT
  8
0
  2
*X10
 10
0
 20
0
 30
0
  0
INSERT
  8
0
  2
*X11
 10
0
 20
0
 30
0
  0
INSERT
  8
0
  2
*X12
 10
0
 20
0
 30
0
  0
INSERT
  8
0
  2
*X13
 10
0
 20
0
 30
0
  0
INSERT
  8
0
  2
*X14
 10
0
 20
0
 30
0
  0
INSERT
  8
0
  2
*X15
 10
0
 20
0
 30
0
  0
INSERT
  8
0
  2
*X16
 10
0
 20
0
 30
0
  0
LINE
  8
0
 62
7
 10
6.309999999999999
 20
3.711954440397888
 30
0
 11
6.309999999999999
 21
3.5349925080169
 31
0
  0
LINE
  8
0
 62
7
 10
6.253927494728828
 20
3.755000000000001
 30
0
 11
6.309999999999999
 21
3.711954440397888
 31
0
  0
LINE
  8
0
 62
7
 10
6.074284912697117
 20
3.755000000000001
 30
0
 11
6.173174975224978
 21
3.755000000000001
 31
0
  0
LINE
  8
0
 62
7
 10
6.074284912697117
 20
3.755000000000001
 30
0
 11
6.253927494728828
 21
3.755000000000001
 31
0
  0
LINE
  8
0
 62
7
 10
5.575786944301717
 20
3.755000000000001
 30
0
 11
5.748495561623308
 21
3.755000000000001
 31
0
  0
LINE
  8
0
 62
7
 10
5.529999999999998
 20
3.686319583547423
 30
0
 11
5.575786944301717
 21
3.755000000000001
 31
0
  0
LINE
  8
0
 62
7
 10
5.529999999999998
 20
3.491349494676788
 30
0
 11
5.529999999999998
 21
3.589495299847349
 31
0
  0
LINE
  8
0
 62
7
 10
5.529999999999998
 20
3.491349494676788
 30
0
 11
5.529999999999998
 21
3.686319583547423
 31
0
  0
LINE
  8
0
 62
7
 10
4.469999999999998
 20
3.69249518361197
 30
0
 11
4.469999999999998
 21
3.25
 31
0
  0
LINE
  8
0
 62
7
 10
5.529999999999998
 20
3.25
 30
0
 11
5.529999999999998
 21
3.463863033753769
 31
0
  0
LINE
  8
0
 62
7
 10
4.469999999999998
 20
3.25
 30
0
 11
5.529999999999998
 21
3.25
 31
0
  0
LINE
  8
0
 62
7
 10
4.469999999999998
 20
4.050576733691391
 30
0
 11
4.469999999999998
 21
3.600425470360308
 31
0
  0
LINE
  8
0
 62
7
 10
5.529999999999998
 20
3.371793320502107
 30
0
 11
5.529999999999998
 21
3.491349494676788
 31
0
  0
LINE
  8
0
 62
7
 10
4.469999999999998
 20
3.600425470360308
 30
0
 11
5.529999999999998
 21
3.371793320502107
 31
0
  0
LINE
  8
0
 62
7
 10
4.469999999999998
 20
4.478694946352651
 30
0
 11
4.469999999999998
 21
3.952430928520831
 31
0
  0
LINE
  8
0
 62
7
 10
4.469999999999998
 20
3.952430928520831
 30
0
 11
5.529999999999998
 21
3.491349494676788
 31
0
  0
LINE
  8
0
 62
7
 10
4.469999999999998
 20
4.815
 30
0
 11
4.469999999999998
 21
4.367750411459311
 31
0
  0
LINE
  8
0
 62
7
 10
4.69074896189333
 20
4.815
 30
0
 11
4.469999999999998
 21
4.815
 31
0
  0
LINE
  8
0
 62
7
 10
5.492786101538108
 20
3.630498735854588
 30
0
 11
5.529999999999998
 21
3.686319583547423
 31
0
  0
LINE
  8
0
 62
7
 10
4.469999999999998
 20
4.367750411459311
 30
0
 11
5.492786101538108
 21
3.630498735854588
 31
0
  0
LINE
  8
0
 62
7
 10
5.190997950327219
 20
4.815
 30
0
 11
4.568707396205648
 21
4.815
 31
0
  0
LINE
  8
0
 62
7
 10
5.539509528826367
 20
3.755000000000001
 30
0
 11
5.575786944301717
 21
3.755000000000001
 31
0
  0
LINE
  8
0
 62
7
 10
4.568707396205648
 20
4.815
 30
0
 11
5.539509528826367
 21
3.755000000000001
 31
0
  0
LINE
  8
0
 62
7
 10
5.565755697998616
 20
4.815
 30
0
 11
5.089309336935607
 21
4.815
 31
0
  0
LINE
  8
0
 62
7
 10
5.646806948231698
 20
3.755000000000001
 30
0
 11
5.849946254741188
 21
3.755000000000001
 31
0
  0
LINE
  8
0
 62
7
 10
5.089309336935607
 20
4.815
 30
0
 11
5.646806948231698
 21
3.755000000000001
 31
0
  0
LINE
  8
0
 62
7
 10
5.921627464529746
 20
4.815
 30
0
 11
5.472577227782349
 21
4.815
 31
0
  0
LINE
  8
0
 62
7
 10
5.756767784524918
 20
3.755000000000001
 30
0
 11
5.955495094585135
 21
3.755000000000001
 31
0
  0
LINE
  8
0
 62
7
 10
5.472577227782349
 20
4.815
 30
0
 11
5.756767784524918
 21
3.755000000000001
 31
0
  0
LINE
  8
0
 62
7
 10
6.284351260797298
 20
4.815
 30
0
 11
5.831581538425876
 21
4.815
 31
0
  0
LINE
  8
0
 62
7
 10
5.865449168481256
 20
3.755000000000001
 30
0
 11
6.063272088497937
 21
3.755000000000001
 31
0
  0
LINE
  8
0
 62
7
 10
5.831581538425876
 20
4.815
 30
0
 11
5.865449168481256
 21
3.755000000000001
 31
0
  0
LINE
  8
0
 62
7
 10
6.65581164848685
 20
4.815
 30
0
 11
6.192414621323807
 21
4.815
 31
0
  0
LINE
  8
0
 62
7
 10
5.971335449024447
 20
3.755000000000001
 30
0
 11
6.074284912697117
 21
3.755000000000001
 31
0
  0
LINE
  8
0
 62
7
 10
6.192414621323807
 20
4.815
 30
0
 11
5.971335449024447
 21
3.755000000000001
 31
0
  0
LINE
  8
0
 62
7
 10
7.121687576677196
 20
4.815
 30
0
 11
6.556921585958988
 21
4.815
 31
0
  0
LINE
  8
0
 62
7
 10
6.556921585958988
 20
4.815
 30
0
 11
6.074284912697117
 21
3.755000000000001
 31
0
  0
LINE
  8
0
 62
7
 10
7.369999999999999
 20
4.815
 30
0
 11
7.006866430846718
 21
4.815
 31
0
  0
LINE
  8
0
 62
7
 10
7.369999999999999
 20
4.482189999192587
 30
0
 11
7.369999999999999
 21
4.815
 31
0
  0
LINE
  8
0
 62
7
 10
6.199932644251117
 20
3.79645059228591
 30
0
 11
6.253927494728828
 21
3.755000000000001
 31
0
  0
LINE
  8
0
 62
7
 10
7.006866430846718
 20
4.815
 30
0
 11
6.199932644251117
 21
3.79645059228591
 31
0
  0
LINE
  8
0
 62
7
 10
7.369999999999999
 20
4.023538337662621
 30
0
 11
7.369999999999999
 21
4.597435658204612
 31
0
  0
LINE
  8
0
 62
7
 10
6.309999999999999
 20
3.74963509242933
 30
0
 11
6.309999999999999
 21
3.711954440397888
 31
0
  0
LINE
  8
0
 62
7
 10
7.369999999999999
 20
4.597435658204612
 30
0
 11
6.309999999999999
 21
3.74963509242933
 31
0
  0
LINE
  8
0
 62
7
 10
7.369999999999999
 20
3.66239636004201
 30
0
 11
7.369999999999999
 21
4.122637357889707
 31
0
  0
LINE
  8
0
 62
7
 10
6.309999999999999
 20
3.634091528243978
 30
0
 11
6.309999999999999
 21
3.424276874413368
 31
0
  0
LINE
  8
0
 62
7
 10
7.369999999999999
 20
4.122637357889707
 30
0
 11
6.309999999999999
 21
3.634091528243978
 31
0
  0
LINE
  8
0
 62
7
 10
7.369999999999999
 20
3.38
 30
0
 11
7.369999999999999
 21
3.75463927346588
 31
0
  0
LINE
  8
0
 62
7
 10
6.309999999999999
 20
3.516519787837238
 30
0
 11
6.309999999999999
 21
3.38
 31
0
  0
LINE
  8
0
 62
7
 10
7.369999999999999
 20
3.75463927346588
 30
0
 11
6.309999999999999
 21
3.516519787837238
 31
0
  0
LINE
  8
0
 62
7
 10
6.950763253805828
 20
3.75500007639406
 30
0
 11
6.950763253805828
 21
3.4
 31
0
  0
LINE
  8
0
 62
7
 10
7.05641835306753
 20
3.460999999999999
 30
0
 11
6.950763253805828
 21
3.4
 31
0
  0
LINE
  8
0
 62
7
 10
6.845108154544127
 20
3.460999999999999
 30
0
 11
7.05641835306753
 21
3.460999999999999
 31
0
  0
LINE
  8
0
 62
7
 10
6.950763253805828
 20
3.4
 30
0
 11
6.845108154544127
 21
3.460999999999999
 31
0
  0
LINE
  8
0
 62
7
 10
5.529999923605587
 20
4.395763253805829
 30
0
 11
6.310000076430265
 21
4.395763253805829
 31
0
  0
LINE
  8
0
 62
7
 10
4.889236746194168
 20
3.25
 30
0
 11
4.889236746194168
 21
3.755000076431898
 31
0
  0
LINE
  8
0
 62
7
 10
4.469999459999999
 20
8.583333226666662
 30
0
 11
5.529999769999996
 21
8.583333226666662
 31
0
  0
LINE
  8
0
 62
7
 10
4.469999459999999
 20
8.518333226666662
 30
0
 11
4.469999459999999
 21
8.583333226666662
 31
0
  0
LINE
  8
0
 62
7
 10
5.529999769999996
 20
8.583333226666662
 30
0
 11
5.529999769999996
 21
8.518333226666662
 31
0
  0
LINE
  8
0
 62
7
 10
5.529999769999996
 20
8.518333226666662
 30
0
 11
4.469999459999999
 21
8.518333226666662
 31
0
  0
LINE
  8
0
 62
7
 10
4.469999749999999
 20
8.766666566666663
 30
0
 11
5.529999919999996
 21
8.766666566666663
 31
0
  0
LINE
  8
0
 62
7
 10
4.469999749999999
 20
8.701666566666665
 30
0
 11
4.469999749999999
 21
8.766666566666663
 31
0
  0
LINE
  8
0
 62
7
 10
5.529999919999996
 20
8.766666566666663
 30
0
 11
5.529999919999996
 21
8.701666566666665
 31
0
  0
LINE
  8
0
 62
7
 10
5.529999919999996
 20
8.701666566666665
 30
0
 11
4.469999749999999
 21
8.701666566666665
 31
0
  0
LINE
  8
0
 62
7
 10
4.469999919999998
 20
8.949999906666665
 30
0
 11
5.529999849999996
 21
8.949999906666665
 31
0
  0
LINE
  8
0
 62
7
 10
4.469999919999998
 20
8.884999906666664
 30
0
 11
4.469999919999998
 21
8.949999906666665
 31
0
  0
LINE
  8
0
 62
7
 10
5.529999849999996
 20
8.949999906666665
 30
0
 11
5.529999849999996
 21
8.884999906666664
 31
0
  0
LINE
  8
0
 62
7
 10
5.529999849999996
 20
8.884999906666664
 30
0
 11
4.469999919999998
 21
8.884999906666664
 31
0
  0
LINE
  8
0
 62
7
 10
5.611916659999997
 20
9.068333226666663
 30
0
 11
4.470000010000002
 21
9.068333226666663
 31
0
  0
LINE
  8
0
 62
7
 10
4.470000010000002
 20
9.133333226666663
 30
0
 11
5.611916659999997
 21
9.133333226666663
 31
0
  0
LINE
  8
0
 62
7
 10
4.470000010000002
 20
9.068333226666663
 30
0
 11
4.470000010000002
 21
9.133333226666663
 31
0
  0
LINE
  8
0
 62
7
 10
5.611916659999997
 20
9.133333226666663
 30
0
 11
5.611916659999997
 21
9.068333226666663
 31
0
  0
LINE
  8
0
 62
7
 10
5.748495329999997
 20
9.251666586666664
 30
0
 11
4.568707409999998
 21
9.251666586666664
 31
0
  0
LINE
  8
0
 62
7
 10
4.568707409999998
 20
9.316666586666663
 30
0
 11
5.748495329999997
 21
9.316666586666663
 31
0
  0
LINE
  8
0
 62
7
 10
4.568707409999998
 20
9.251666586666664
 30
0
 11
4.568707409999998
 21
9.316666586666663
 31
0
  0
LINE
  8
0
 62
7
 10
5.748495329999997
 20
9.316666586666663
 30
0
 11
5.748495329999997
 21
9.251666586666664
 31
0
  0
LINE
  8
0
 62
7
 10
5.849946439999998
 20
9.434999946666663
 30
0
 11
5.089309229999998
 21
9.434999946666663
 31
0
  0
LINE
  8
0
 62
7
 10
5.089309229999998
 20
9.499999946666664
 30
0
 11
5.849946439999998
 21
9.499999946666664
 31
0
  0
LINE
  8
0
 62
7
 10
5.089309229999998
 20
9.434999946666663
 30
0
 11
5.089309229999998
 21
9.499999946666664
 31
0
  0
LINE
  8
0
 62
7
 10
5.849946439999998
 20
9.499999946666664
 30
0
 11
5.849946439999998
 21
9.434999946666663
 31
0
  0
LINE
  8
0
 62
7
 10
5.955494839999997
 20
9.618333226666664
 30
0
 11
5.472577129999996
 21
9.618333226666664
 31
0
  0
LINE
  8
0
 62
7
 10
5.472577129999996
 20
9.683333226666662
 30
0
 11
5.955494839999997
 21
9.683333226666662
 31
0
  0
LINE
  8
0
 62
7
 10
5.472577129999996
 20
9.618333226666664
 30
0
 11
5.472577129999996
 21
9.683333226666662
 31
0
  0
LINE
  8
0
 62
7
 10
5.955494839999997
 20
9.683333226666662
 30
0
 11
5.955494839999997
 21
9.618333226666664
 31
0
  0
LINE
  8
0
 62
7
 10
6.2843512
 20
9.801666666666662
 30
0
 11
5.831581269999996
 21
9.801666666666662
 31
0
  0
LINE
  8
0
 62
7
 10
5.831581269999996
 20
9.866666666666665
 30
0
 11
6.2843512
 21
9.866666666666665
 31
0
  0
LINE
  8
0
 62
7
 10
5.831581269999996
 20
9.801666666666662
 30
0
 11
5.831581269999996
 21
9.866666666666665
 31
0
  0
LINE
  8
0
 62
7
 10
6.2843512
 20
9.866666666666665
 30
0
 11
6.2843512
 21
9.801666666666662
 31
0
  0
LINE
  8
0
 62
7
 10
6.655811619999996
 20
9.984999946666663
 30
0
 11
5.971335599999997
 21
9.984999946666663
 31
0
  0
LINE
  8
0
 62
7
 10
5.971335599999997
 20
10.04999994666667
 30
0
 11
6.655811619999996
 21
10.04999994666667
 31
0
  0
LINE
  8
0
 62
7
 10
5.971335599999997
 20
9.984999946666663
 30
0
 11
5.971335599999997
 21
10.04999994666667
 31
0
  0
LINE
  8
0
 62
7
 10
6.655811619999996
 20
10.04999994666667
 30
0
 11
6.655811619999996
 21
9.984999946666663
 31
0
  0
LINE
  8
0
 62
7
 10
7.121687619999998
 20
10.16833322666666
 30
0
 11
6.074284669999997
 21
10.16833322666666
 31
0
  0
LINE
  8
0
 62
7
 10
6.074284669999997
 20
10.23333322666666
 30
0
 11
7.121687619999998
 21
10.23333322666666
 31
0
  0
LINE
  8
0
 62
7
 10
6.074284669999997
 20
10.16833322666666
 30
0
 11
6.074284669999997
 21
10.23333322666666
 31
0
  0
LINE
  8
0
 62
7
 10
7.121687619999998
 20
10.23333322666666
 30
0
 11
7.121687619999998
 21
10.16833322666666
 31
0
  0
LINE
  8
0
 62
7
 10
7.369999999999999
 20
10.35166666666666
 30
0
 11
6.199932559999998
 21
10.35166666666666
 31
0
  0
LINE
  8
0
 62
7
 10
6.199932559999998
 20
10.41666666666666
 30
0
 11
7.369999999999999
 21
10.41666666666666
 31
0
  0
LINE
  8
0
 62
7
 10
6.199932559999998
 20
10.35166666666666
 30
0
 11
6.199932559999998
 21
10.41666666666666
 31
0
  0
LINE
  8
0
 62
7
 10
7.369999999999999
 20
10.41666666666666
 30
0
 11
7.369999999999999
 21
10.35166666666666
 31
0
  0
LINE
  8
0
 62
7
 10
6.309999849999996
 20
10.59999994666666
 30
0
 11
7.369999999999999
 21
10.59999994666666
 31
0
  0
LINE
  8
0
 62
7
 10
6.309999849999996
 20
10.53499994666666
 30
0
 11
6.309999849999996
 21
10.59999994666666
 31
0
  0
LINE
  8
0
 62
7
 10
7.369999999999999
 20
10.59999994666666
 30
0
 11
7.369999999999999
 21
10.53499994666666
 31
0
  0
LINE
  8
0
 62
7
 10
7.369999999999999
 20
10.53499994666666
 30
0
 11
6.309999849999996
 21
10.53499994666666
 31
0
  0
LINE
  8
0
 62
7
 10
6.309999849999996
 20
10.78333322666666
 30
0
 11
7.369999999999999
 21
10.78333322666666
 31
0
  0
LINE
  8
0
 62
7
 10
6.309999849999996
 20
10.71833322666666
 30
0
 11
6.309999849999996
 21
10.78333322666666
 31
0
  0
LINE
  8
0
 62
7
 10
7.369999999999999
 20
10.78333322666666
 30
0
 11
7.369999999999999
 21
10.71833322666666
 31
0
  0
LINE
  8
0
 62
7
 10
7.369999999999999
 20
10.71833322666666
 30
0
 11
6.309999849999996
 21
10.71833322666666
 31
0
  0
LINE
  8
0
 62
7
  6
DASHED
 10
6.309999849999996
 20
10.96666666666666
 30
0
 11
7.369999999999999
 21
10.96666666666666
 31
0
  0
LINE
  8
0
 62
7
  6
DASHED
 10
6.309999849999996
 20
10.90166666666666
 30
0
 11
6.309999849999996
 21
10.96666666666666
 31
0
  0
LINE
  8
0
 62
7
  6
DASHED
 10
7.369999999999999
 20
10.96666666666666
 30
0
 11
7.369999999999999
 21
10.90166666666666
 31
0
  0
LINE
  8
0
 62
7
  6
DASHED
 10
7.369999999999999
 20
10.90166666666666
 30
0
 11
6.309999849999996
 21
10.90166666666666
 31
0
  0
LINE
  8
0
 62
7
 10
1.917504700000001
 20
8.583333226666662
 30
0
 11
2.35999983
 21
8.583333226666662
 31
0
  0
LINE
  8
0
 62
7
 10
2.35999983
 20
8.518333226666662
 30
0
 11
1.917504700000001
 21
8.518333226666662
 31
0
  0
LINE
  8
0
 62
7
 10
2.35999983
 20
8.583333226666662
 30
0
 11
2.35999983
 21
8.518333226666662
 31
0
  0
LINE
  8
0
 62
7
 10
1.917504700000001
 20
8.518333226666662
 30
0
 11
1.917504700000001
 21
8.583333226666662
 31
0
  0
LINE
  8
0
 62
7
 10
2.23820599
 20
8.70166656666666
 30
0
 11
1.55942314
 21
8.70166656666666
 31
0
  0
LINE
  8
0
 62
7
 10
1.55942314
 20
8.766666566666661
 30
0
 11
2.23820599
 21
8.766666566666661
 31
0
  0
LINE
  8
0
 62
7
 10
2.23820599
 20
8.766666566666661
 30
0
 11
2.23820599
 21
8.70166656666666
 31
0
  0
LINE
  8
0
 62
7
 10
1.55942314
 20
8.70166656666666
 30
0
 11
1.55942314
 21
8.766666566666661
 31
0
  0
LINE
  8
0
 62
7
 10
2.118650360000001
 20
8.884999906666662
 30
0
 11
1.13130478
 21
8.884999906666662
 31
0
  0
LINE
  8
0
 62
7
 10
1.13130478
 20
8.94999990666666
 30
0
 11
2.118650360000001
 21
8.94999990666666
 31
0
  0
LINE
  8
0
 62
7
 10
2.118650360000001
 20
8.94999990666666
 30
0
 11
2.118650360000001
 21
8.884999906666662
 31
0
  0
LINE
  8
0
 62
7
 10
1.13130478
 20
8.884999906666662
 30
0
 11
1.13130478
 21
8.94999990666666
 31
0
  0
LINE
  8
0
 62
7
 10
1.97950074
 20
9.068333226666663
 30
0
 11
0.7949998499999993
 21
9.068333226666663
 31
0
  0
LINE
  8
0
 62
7
 10
0.7949998499999993
 20
9.133333226666663
 30
0
 11
1.97950074
 21
9.133333226666663
 31
0
  0
LINE
  8
0
 62
7
 10
1.97950074
 20
9.133333226666663
 30
0
 11
1.97950074
 21
9.068333226666663
 31
0
  0
LINE
  8
0
 62
7
 10
0.7949998499999993
 20
9.068333226666663
 30
0
 11
0.7949998499999993
 21
9.133333226666663
 31
0
  0
LINE
  8
0
 62
7
 10
0.7949998499999993
 20
9.316666586666663
 30
0
 11
1.85500004
 21
9.316666586666663
 31
0
  0
LINE
  8
0
 62
7
 10
1.85500004
 20
9.316666586666663
 30
0
 11
1.85500004
 21
9.251666586666664
 31
0
  0
LINE
  8
0
 62
7
 10
0.7949998499999993
 20
9.251666586666664
 30
0
 11
0.7949998499999993
 21
9.316666586666663
 31
0
  0
LINE
  8
0
 62
7
 10
1.85500004
 20
9.251666586666664
 30
0
 11
0.7949998499999993
 21
9.251666586666664
 31
0
  0
LINE
  8
0
 62
7
 10
0.7949998499999993
 20
9.49999994666666
 30
0
 11
1.855000080000001
 21
9.49999994666666
 31
0
  0
LINE
  8
0
 62
7
 10
1.855000080000001
 20
9.49999994666666
 30
0
 11
1.855000080000001
 21
9.434999946666661
 31
0
  0
LINE
  8
0
 62
7
 10
0.7949998499999993
 20
9.434999946666661
 30
0
 11
0.7949998499999993
 21
9.49999994666666
 31
0
  0
LINE
  8
0
 62
7
 10
1.855000080000001
 20
9.434999946666661
 30
0
 11
0.7949998499999993
 21
9.434999946666661
 31
0
  0
LINE
  8
0
 62
7
 10
0.7949996999999995
 20
9.683333226666662
 30
0
 11
1.85499997
 21
9.683333226666662
 31
0
  0
LINE
  8
0
 62
7
 10
1.85499997
 20
9.683333226666662
 30
0
 11
1.85499997
 21
9.618333226666664
 31
0
  0
LINE
  8
0
 62
7
 10
0.7949996999999995
 20
9.618333226666664
 30
0
 11
0.7949996999999995
 21
9.683333226666662
 31
0
  0
LINE
  8
0
 62
7
 10
1.85499997
 20
9.618333226666664
 30
0
 11
0.7949996999999995
 21
9.618333226666664
 31
0
  0
LINE
  8
0
 62
7
 10
0.7949996999999995
 20
9.866666666666662
 30
0
 11
1.855000080000001
 21
9.866666666666662
 31
0
  0
LINE
  8
0
 62
7
 10
1.855000080000001
 20
9.866666666666662
 30
0
 11
1.855000080000001
 21
9.801666666666662
 31
0
  0
LINE
  8
0
 62
7
 10
0.7949996999999995
 20
9.801666666666662
 30
0
 11
0.7949996999999995
 21
9.866666666666662
 31
0
  0
LINE
  8
0
 62
7
 10
1.855000080000001
 20
9.801666666666662
 30
0
 11
0.7949996999999995
 21
9.801666666666662
 31
0
  0
LINE
  8
0
 62
7
 10
0.795
 20
10.04999994666666
 30
0
 11
1.85499993
 21
10.04999994666666
 31
0
  0
LINE
  8
0
 62
7
 10
1.85499993
 20
10.04999994666666
 30
0
 11
1.85499993
 21
9.984999946666662
 31
0
  0
LINE
  8
0
 62
7
 10
0.795
 20
9.984999946666662
 30
0
 11
0.795
 21
10.04999994666666
 31
0
  0
LINE
  8
0
 62
7
 10
1.85499993
 20
9.984999946666662
 30
0
 11
0.795
 21
9.984999946666662
 31
0
  0
LINE
  8
0
 62
7
 10
0.795
 20
10.23333322666666
 30
0
 11
1.855000040000001
 21
10.23333322666666
 31
0
  0
LINE
  8
0
 62
7
 10
1.855000040000001
 20
10.23333322666666
 30
0
 11
1.855000040000001
 21
10.16833322666666
 31
0
  0
LINE
  8
0
 62
7
 10
0.795
 20
10.16833322666666
 30
0
 11
0.795
 21
10.23333322666666
 31
0
  0
LINE
  8
0
 62
7
 10
1.855000040000001
 20
10.16833322666666
 30
0
 11
0.795
 21
10.16833322666666
 31
0
  0
LINE
  8
0
 62
7
 10
1.93603245
 20
10.35166666666666
 30
0
 11
0.795
 21
10.35166666666666
 31
0
  0
LINE
  8
0
 62
7
 10
0.795
 20
10.41666666666666
 30
0
 11
1.93603245
 21
10.41666666666666
 31
0
  0
LINE
  8
0
 62
7
 10
1.93603245
 20
10.41666666666666
 30
0
 11
1.93603245
 21
10.35166666666666
 31
0
  0
LINE
  8
0
 62
7
 10
0.795
 20
10.35166666666666
 30
0
 11
0.795
 21
10.41666666666666
 31
0
  0
LINE
  8
0
 62
7
 10
2.07500676
 20
10.53499994666666
 30
0
 11
1.012564090000001
 21
10.53499994666666
 31
0
  0
LINE
  8
0
 62
7
 10
1.012564090000001
 20
10.59999994666666
 30
0
 11
2.07500676
 21
10.59999994666666
 31
0
  0
LINE
  8
0
 62
7
 10
2.07500676
 20
10.59999994666666
 30
0
 11
2.07500676
 21
10.53499994666666
 31
0
  0
LINE
  8
0
 62
7
 10
1.012564090000001
 20
10.53499994666666
 30
0
 11
1.012564090000001
 21
10.59999994666666
 31
0
  0
LINE
  8
0
 62
7
 10
2.185722959999999
 20
10.71833322666666
 30
0
 11
1.48736267
 21
10.71833322666666
 31
0
  0
LINE
  8
0
 62
7
 10
1.48736267
 20
10.78333322666666
 30
0
 11
2.185722959999999
 21
10.78333322666666
 31
0
  0
LINE
  8
0
 62
7
 10
2.185722959999999
 20
10.78333322666666
 30
0
 11
2.185722959999999
 21
10.71833322666666
 31
0
  0
LINE
  8
0
 62
7
 10
1.48736267
 20
10.71833322666666
 30
0
 11
1.48736267
 21
10.78333322666666
 31
0
  0
LINE
  8
0
 62
7
 10
1.855361669999999
 20
10.96666666666666
 30
0
 11
2.23000061
 21
10.96666666666666
 31
0
  0
LINE
  8
0
 62
7
 10
2.23000061
 20
10.90166666666666
 30
0
 11
1.855361669999999
 21
10.90166666666666
 31
0
  0
LINE
  8
0
 62
7
 10
2.23000061
 20
10.96666666666666
 30
0
 11
2.23000061
 21
10.90166666666666
 31
0
  0
LINE
  8
0
 62
7
 10
1.855361669999999
 20
10.90166666666666
 30
0
 11
1.855361669999999
 21
10.96666666666666
 31
0
  0
LINE
  8
0
 62
7
 10
7.599999999999998
 20
8.1
 30
0
 11
7.749999999999999
 21
8.099999999999998
 31
0
  0
LINE
  8
0
 62
7
 10
7.599999999999999
 20
8.299999999999997
 30
0
 11
7.749999999999999
 21
8.299999999999997
 31
0
  0
LINE
  8
0
 62
7
 10
7.599999999999999
 20
10.85
 30
0
 11
7.749999999999999
 21
10.85
 31
0
  0
LINE
  8
0
 62
7
 10
7.599999999999999
 20
11.05
 30
0
 11
7.749999999999999
 21
11.05
 31
0
  0
LINE
  8
0
 62
7
 10
7.599999999999998
 20
8.1
 30
0
 11
7.599999999999999
 21
7.949999999999999
 31
0
  0
LINE
  8
0
 62
7
 10
7.424999999999997
 20
8.1
 30
0
 11
7.599999999999998
 21
8.1
 31
0
  0
LINE
  8
0
 62
7
 10
7.599999999999999
 20
8.399999999999997
 30
0
 11
7.599999999999999
 21
8.299999999999997
 31
0
  0
LINE
  8
0
 62
7
 10
7.424999999999999
 20
8.299999999999997
 30
0
 11
7.599999999999999
 21
8.299999999999997
 31
0
  0
LINE
  8
0
 62
7
 10
7.424999999999999
 20
10.85
 30
0
 11
7.599999999999999
 21
10.85
 31
0
  0
LINE
  8
0
 62
7
 10
7.599999999999999
 20
11.15
 30
0
 11
7.599999999999999
 21
11.05
 31
0
  0
LINE
  8
0
 62
7
 10
7.424999999999999
 20
11.05
 30
0
 11
7.599999999999999
 21
11.05
 31
0
  0
LINE
  8
0
 62
7
 10
7.424999999999997
 20
8.1
 30
0
 11
7.424999999999999
 21
7.949999999999999
 31
0
  0
LINE
  8
0
 62
7
 10
4.414999999999998
 20
8.1
 30
0
 11
7.424999999999997
 21
8.1
 31
0
  0
LINE
  8
0
 62
7
 10
7.424999999999999
 20
8.399999999999997
 30
0
 11
7.424999999999999
 21
8.299999999999997
 31
0
  0
LINE
  8
0
 62
7
 10
4.414999999999999
 20
8.299999999999997
 30
0
 11
7.424999999999999
 21
8.299999999999997
 31
0
  0
LINE
  8
0
 62
7
 10
4.414999999999999
 20
10.85
 30
0
 11
7.424999999999999
 21
10.85
 31
0
  0
LINE
  8
0
 62
7
 10
7.424999999999999
 20
11.15
 30
0
 11
7.424999999999999
 21
11.05
 31
0
  0
LINE
  8
0
 62
7
 10
4.414999999999999
 20
11.05
 30
0
 11
7.424999999999999
 21
11.05
 31
0
  0
LINE
  8
0
 62
7
 10
4.414999999999998
 20
8.1
 30
0
 11
4.414999999999999
 21
7.949999999999999
 31
0
  0
LINE
  8
0
 62
7
 10
4.239999999999998
 20
8.1
 30
0
 11
4.414999999999998
 21
8.1
 31
0
  0
LINE
  8
0
 62
7
 10
4.414999999999999
 20
8.399999999999997
 30
0
 11
4.414999999999999
 21
8.299999999999997
 31
0
  0
LINE
  8
0
 62
7
 10
4.239999999999999
 20
8.299999999999997
 30
0
 11
4.414999999999999
 21
8.299999999999997
 31
0
  0
LINE
  8
0
 62
7
 10
4.239999999999999
 20
10.85
 30
0
 11
4.414999999999999
 21
10.85
 31
0
  0
LINE
  8
0
 62
7
 10
4.414999999999999
 20
11.15
 30
0
 11
4.414999999999999
 21
11.05
 31
0
  0
LINE
  8
0
 62
7
 10
4.239999999999999
 20
11.05
 30
0
 11
4.414999999999999
 21
11.05
 31
0
  0
LINE
  8
0
 62
7
 10
4.239999999999998
 20
8.1
 30
0
 11
4.239999999999999
 21
7.949999999999999
 31
0
  0
LINE
  8
0
 62
7
 10
4.089999999999999
 20
8.099999999999998
 30
0
 11
4.239999999999998
 21
8.1
 31
0
  0
LINE
  8
0
 62
7
 10
4.239999999999999
 20
8.399999999999997
 30
0
 11
4.239999999999999
 21
8.299999999999997
 31
0
  0
LINE
  8
0
 62
7
 10
4.089999999999999
 20
8.299999999999997
 30
0
 11
4.239999999999999
 21
8.299999999999997
 31
0
  0
LINE
  8
0
 62
7
 10
4.089999999999999
 20
10.85
 30
0
 11
4.239999999999999
 21
10.85
 31
0
  0
LINE
  8
0
 62
7
 10
4.239999999999999
 20
11.15
 30
0
 11
4.239999999999999
 21
11.05
 31
0
  0
LINE
  8
0
 62
7
 10
4.089999999999999
 20
11.05
 30
0
 11
4.239999999999999
 21
11.05
 31
0
  0
LINE
  8
0
 62
7
  6
DASHDOT
 10
7.749999999999999
 20
8.099999999999998
 30
0
 11
7.749999999999999
 21
8.049999999999997
 31
0
  0
LINE
  8
0
 62
7
  6
DASHDOT
 10
7.749999999999999
 20
10.85
 30
0
 11
7.749999999999999
 21
10.8
 31
0
  0
LINE
  8
0
 62
7
  6
DASHDOT
 10
4.089999999999999
 20
8.099999999999998
 30
0
 11
4.089999999999999
 21
8.049999999999997
 31
0
  0
LINE
  8
0
 62
7
  6
DASHDOT
 10
4.089999999999999
 20
10.85
 30
0
 11
4.089999999999999
 21
10.8
 31
0
  0
LINE
  8
0
 62
7
  6
DASHDOT
 10
7.599999999999998
 20
11.2
 30
0
 11
7.649999999999999
 21
11.2
 31
0
  0
LINE
  8
0
 62
7
  6
DASHDOT
 10
7.599999999999999
 20
7.949999999999999
 30
0
 11
7.649999999999999
 21
7.949999999999999
 31
0
  0
LINE
  8
0
 62
7
  6
DASHDOT
 10
4.414999999999998
 20
11.2
 30
0
 11
4.464999999999999
 21
11.2
 31
0
  0
LINE
  8
0
 62
7
  6
DASHDOT
 10
4.414999999999999
 20
7.949999999999999
 30
0
 11
4.464999999999999
 21
7.949999999999999
 31
0
  0
LINE
  8
0
 62
7
 10
7.599999999999999
 20
8.399999999999997
 30
0
 11
7.749999999999999
 21
8.399999999999997
 31
0
  0
LINE
  8
0
 62
7
 10
7.599999999999999
 20
10.85
 30
0
 11
7.599999999999999
 21
8.399999999999997
 31
0
  0
LINE
  8
0
 62
7
  6
DASHDOT
 10
7.749999999999997
 20
8.449999999999998
 30
0
 11
7.749999999999999
 21
8.399999999999997
 31
0
  0
LINE
  8
0
 62
7
 10
4.414999999999999
 20
8.399999999999997
 30
0
 11
7.424999999999999
 21
8.399999999999997
 31
0
  0
LINE
  8
0
 62
7
 10
7.424999999999999
 20
10.85
 30
0
 11
7.424999999999999
 21
8.399999999999997
 31
0
  0
LINE
  8
0
 62
7
 10
4.414999999999999
 20
10.85
 30
0
 11
4.414999999999999
 21
8.399999999999997
 31
0
  0
LINE
  8
0
 62
7
 10
4.089999999999999
 20
8.399999999999997
 30
0
 11
4.239999999999999
 21
8.399999999999997
 31
0
  0
LINE
  8
0
 62
7
 10
4.239999999999999
 20
10.85
 30
0
 11
4.239999999999999
 21
8.399999999999997
 31
0
  0
LINE
  8
0
 62
7
  6
DASHDOT
 10
4.089999999999998
 20
8.449999999999998
 30
0
 11
4.089999999999999
 21
8.399999999999997
 31
0
  0
LINE
  8
0
 62
7
 10
7.599999999999999
 20
11.15
 30
0
 11
7.749999999999999
 21
11.15
 31
0
  0
LINE
  8
0
 62
7
 10
7.599999999999998
 20
11.2
 30
0
 11
7.599999999999999
 21
11.15
 31
0
  0
LINE
  8
0
 62
7
  6
DASHDOT
 10
7.749999999999997
 20
11.2
 30
0
 11
7.749999999999999
 21
11.15
 31
0
  0
LINE
  8
0
 62
7
 10
4.414999999999999
 20
11.15
 30
0
 11
7.424999999999999
 21
11.15
 31
0
  0
LINE
  8
0
 62
7
 10
7.424999999999997
 20
11.2
 30
0
 11
7.424999999999999
 21
11.15
 31
0
  0
LINE
  8
0
 62
7
 10
4.414999999999998
 20
11.2
 30
0
 11
4.414999999999999
 21
11.15
 31
0
  0
LINE
  8
0
 62
7
 10
4.089999999999999
 20
11.15
 30
0
 11
4.239999999999999
 21
11.15
 31
0
  0
LINE
  8
0
 62
7
 10
4.239999999999998
 20
11.2
 30
0
 11
4.239999999999999
 21
11.15
 31
0
  0
LINE
  8
0
 62
7
  6
DASHDOT
 10
4.089999999999998
 20
11.2
 30
0
 11
4.089999999999999
 21
11.15
 31
0
  0
LINE
  8
0
 62
7
  6
DASHDOT
 10
4.089999999999999
 20
8.299999999999997
 30
0
 11
4.089999999999999
 21
8.099999999999998
 31
0
  0
LINE
  8
0
 62
7
  6
DASHDOT
 10
4.089999999999999
 20
8.399999999999997
 30
0
 11
4.089999999999999
 21
8.299999999999997
 31
0
  0
LINE
  8
0
 62
7
  6
DASHDOT
 10
4.239999999999999
 20
7.949999999999999
 30
0
 11
4.414999999999999
 21
7.949999999999999
 31
0
  0
LINE
  8
0
 62
7
  6
DASHDOT
 10
4.19
 20
7.949999999999999
 30
0
 11
4.239999999999999
 21
7.949999999999999
 31
0
  0
LINE
  8
0
 62
7
  6
DASHDOT
 10
7.749999999999999
 20
8.299999999999997
 30
0
 11
7.749999999999999
 21
8.099999999999998
 31
0
  0
LINE
  8
0
 62
7
  6
DASHDOT
 10
7.749999999999999
 20
8.399999999999997
 30
0
 11
7.749999999999999
 21
8.299999999999997
 31
0
  0
LINE
  8
0
 62
7
  6
DASHDOT
 10
7.424999999999999
 20
7.949999999999999
 30
0
 11
7.599999999999999
 21
7.949999999999999
 31
0
  0
LINE
  8
0
 62
7
  6
DASHDOT
 10
7.374999999999999
 20
7.949999999999999
 30
0
 11
7.424999999999999
 21
7.949999999999999
 31
0
  0
LINE
  8
0
 62
7
  6
DASHDOT
 10
7.749999999999999
 20
11.05
 30
0
 11
7.749999999999999
 21
10.85
 31
0
  0
LINE
  8
0
 62
7
  6
DASHDOT
 10
7.749999999999999
 20
11.15
 30
0
 11
7.749999999999999
 21
11.05
 31
0
  0
LINE
  8
0
 62
7
  6
DASHDOT
 10
7.424999999999997
 20
11.2
 30
0
 11
7.599999999999998
 21
11.2
 31
0
  0
LINE
  8
0
 62
7
  6
DASHDOT
 10
7.374999999999999
 20
11.2
 30
0
 11
7.424999999999997
 21
11.2
 31
0
  0
LINE
  8
0
 62
7
  6
DASHDOT
 10
4.089999999999999
 20
11.05
 30
0
 11
4.089999999999999
 21
10.85
 31
0
  0
LINE
  8
0
 62
7
  6
DASHDOT
 10
4.089999999999999
 20
11.15
 30
0
 11
4.089999999999999
 21
11.05
 31
0
  0
LINE
  8
0
 62
7
  6
DASHDOT
 10
4.239999999999998
 20
11.2
 30
0
 11
4.414999999999998
 21
11.2
 31
0
  0
LINE
  8
0
 62
7
  6
DASHDOT
 10
4.19
 20
11.2
 30
0
 11
4.239999999999998
 21
11.2
 31
0
  0
LINE
  8
0
 62
7
 10
0.5
 20
7.949999999999999
 30
0
 11
0.4999999999999991
 21
8.1
 31
0
  0
LINE
  8
0
 62
7
 10
0.7399999999999992
 20
11.2
 30
0
 11
0.7400000000000001
 21
11.05
 31
0
  0
LINE
  8
0
 62
7
 10
0.5
 20
11.05
 30
0
 11
0.7400000000000001
 21
11.05
 31
0
  0
LINE
  8
0
 62
7
 10
0.5
 20
11.05
 30
0
 11
0.4999999999999991
 21
11.2
 31
0
  0
LINE
  8
0
 62
7
 10
0.7400000000000001
 20
11.05
 30
0
 11
0.7400000000000001
 21
10.85
 31
0
  0
LINE
  8
0
 62
7
 10
0.5
 20
10.85
 30
0
 11
0.7400000000000001
 21
10.85
 31
0
  0
LINE
  8
0
 62
7
 10
0.5
 20
10.85
 30
0
 11
0.5
 21
11.05
 31
0
  0
LINE
  8
0
 62
7
 10
0.7400000000000001
 20
10.85
 30
0
 11
0.7400000000000001
 21
8.299999999999997
 31
0
  0
LINE
  8
0
 62
7
 10
0.5
 20
8.299999999999997
 30
0
 11
0.7400000000000001
 21
8.299999999999997
 31
0
  0
LINE
  8
0
 62
7
 10
0.5
 20
8.299999999999997
 30
0
 11
0.5
 21
10.85
 31
0
  0
LINE
  8
0
 62
7
 10
0.7400000000000001
 20
8.299999999999997
 30
0
 11
0.7399999999999992
 21
8.1
 31
0
  0
LINE
  8
0
 62
7
 10
0.4999999999999991
 20
8.1
 30
0
 11
0.7399999999999992
 21
8.1
 31
0
  0
LINE
  8
0
 62
7
 10
0.4999999999999991
 20
8.1
 30
0
 11
0.5
 21
8.299999999999997
 31
0
  0
LINE
  8
0
 62
7
 10
0.7399999999999992
 20
8.1
 30
0
 11
0.7400000000000001
 21
7.949999999999999
 31
0
  0
LINE
  8
0
 62
7
 10
2.26
 20
11.05
 30
0
 11
2.26
 21
10.85
 31
0
  0
LINE
  8
0
 62
7
 10
2.26
 20
10.85
 30
0
 11
2.56
 21
10.85
 31
0
  0
LINE
  8
0
 62
7
 10
2.26
 20
11.05
 30
0
 11
2.56
 21
11.05
 31
0
  0
LINE
  8
0
 62
7
 10
2.26
 20
8.299999999999997
 30
0
 11
2.56
 21
8.299999999999997
 31
0
  0
LINE
  8
0
 62
7
 10
2.26
 20
8.299999999999997
 30
0
 11
2.26
 21
8.099999999999998
 31
0
  0
LINE
  8
0
 62
7
 10
2.26
 20
8.099999999999998
 30
0
 11
2.56
 21
8.099999999999998
 31
0
  0
LINE
  8
0
 62
7
  6
DASHDOT
 10
0.45
 20
11.2
 30
0
 11
0.4999999999999991
 21
11.2
 31
0
  0
LINE
  8
0
 62
7
  6
DASHDOT
 10
2.559999999999999
 20
11.2
 30
0
 11
2.56
 21
11.15
 31
0
  0
LINE
  8
0
 62
7
  6
DASHDOT
 10
2.56
 20
8.049999999999997
 30
0
 11
2.56
 21
8.099999999999998
 31
0
  0
LINE
  8
0
 62
7
  6
DASHDOT
 10
0.45
 20
7.949999999999999
 30
0
 11
0.5
 21
7.949999999999999
 31
0
  0
LINE
  8
0
 62
7
 10
2.26
 20
8.399999999999997
 30
0
 11
2.56
 21
8.399999999999997
 31
0
  0
LINE
  8
0
 62
7
  6
DASHDOT
 10
2.56
 20
8.399999999999997
 30
0
 11
2.559999999999999
 21
8.449999999999998
 31
0
  0
LINE
  8
0
 62
7
 10
2.26
 20
11.15
 30
0
 11
2.56
 21
11.15
 31
0
  0
LINE
  8
0
 62
7
  6
DASHDOT
 10
2.56
 20
11.15
 30
0
 11
2.56
 21
11.05
 31
0
  0
LINE
  8
0
 62
7
  6
DASHDOT
 10
2.56
 20
8.299999999999997
 30
0
 11
2.56
 21
8.399999999999997
 31
0
  0
LINE
  8
0
 62
7
  6
DASHDOT
 10
2.56
 20
8.099999999999998
 30
0
 11
2.56
 21
8.299999999999997
 31
0
  0
LINE
  8
0
 62
7
  6
DASHDOT
 10
0.5
 20
7.949999999999999
 30
0
 11
0.7400000000000001
 21
7.949999999999999
 31
0
  0
LINE
  8
0
 62
7
  6
DASHDOT
 10
0.7400000000000001
 20
7.949999999999999
 30
0
 11
0.79
 21
7.949999999999999
 31
0
  0
LINE
  8
0
 62
7
  6
DASHDOT
 10
0.7399999999999992
 20
11.2
 30
0
 11
0.79
 21
11.2
 31
0
  0
LINE
  8
0
 62
7
  6
DASHDOT
 10
0.4999999999999991
 20
11.2
 30
0
 11
0.7399999999999992
 21
11.2
 31
0
  0
LINE
  8
0
 62
7
  6
DASHDOT
 10
2.56
 20
10.85
 30
0
 11
2.56
 21
10.8
 31
0
  0
LINE
  8
0
 62
7
  6
DASHDOT
 10
2.56
 20
11.05
 30
0
 11
2.56
 21
10.85
 31
0
  0
LINE
  8
0
 62
7
  6
DASHED
 10
0.7400000000000001
 20
11.05
 30
0
 11
2.26
 21
11.05
 31
0
  0
LINE
  8
0
 62
7
  6
DASHED
 10
0.7400000000000001
 20
10.85
 30
0
 11
2.26
 21
10.85
 31
0
  0
LINE
  8
0
 62
7
  6
DASHED
 10
0.7400000000000001
 20
8.299999999999997
 30
0
 11
2.26
 21
8.299999999999997
 31
0
  0
LINE
  8
0
 62
7
  6
DASHED
 10
0.7399999999999992
 20
8.1
 30
0
 11
2.26
 21
8.099999999999998
 31
0
  0
LINE
  8
0
 62
7
 10
4.089999999999999
 20
5.389999999999999
 30
0
 11
4.239999999999999
 21
5.389999999999999
 31
0
  0
LINE
  8
0
 62
7
 10
4.239999999999999
 20
5.389999999999999
 30
0
 11
4.239999999999998
 21
5.539999999999999
 31
0
  0
LINE
  8
0
 62
7
 10
4.414999999999998
 20
5.539999999999999
 30
0
 11
4.414999999999999
 21
5.389999999999999
 31
0
  0
LINE
  8
0
 62
7
 10
4.414999999999999
 20
5.389999999999999
 30
0
 11
7.424999999999999
 21
5.389999999999999
 31
0
  0
LINE
  8
0
 62
7
 10
7.424999999999999
 20
5.389999999999999
 30
0
 11
7.424999999999997
 21
5.539999999999999
 31
0
  0
LINE
  8
0
 62
7
 10
7.599999999999998
 20
5.539999999999999
 30
0
 11
7.599999999999999
 21
5.389999999999999
 31
0
  0
LINE
  8
0
 62
7
 10
7.599999999999999
 20
5.389999999999999
 30
0
 11
7.764999999999998
 21
5.389999999999999
 31
0
  0
LINE
  8
0
 62
7
 10
4.089999999999999
 20
5.15
 30
0
 11
7.764999999999998
 21
5.15
 31
0
  0
LINE
  8
0
 62
7
 10
4.089999999999999
 20
5.11
 30
0
 11
7.764999999999998
 21
5.11
 31
0
  0
LINE
  8
0
 62
7
 10
4.089999999999999
 20
4.870000000000001
 30
0
 11
4.239999999999999
 21
4.870000000000001
 31
0
  0
LINE
  8
0
 62
7
 10
4.414999999999999
 20
3.25
 30
0
 11
4.414999999999999
 21
3.35
 31
0
  0
LINE
  8
0
 62
7
 10
4.239999999999999
 20
3.25
 30
0
 11
4.414999999999999
 21
3.25
 31
0
  0
LINE
  8
0
 62
7
 10
4.239999999999999
 20
4.870000000000001
 30
0
 11
4.239999999999999
 21
3.25
 31
0
  0
LINE
  8
0
 62
7
 10
4.414999999999999
 20
4.870000000000001
 30
0
 11
7.424999999999999
 21
4.870000000000001
 31
0
  0
LINE
  8
0
 62
7
 10
7.424999999999999
 20
4.870000000000001
 30
0
 11
7.424999999999999
 21
3.4
 31
0
  0
LINE
  8
0
 62
7
 10
7.599999999999999
 20
3.35
 30
0
 11
7.599999999999999
 21
4.870000000000001
 31
0
  0
LINE
  8
0
 62
7
 10
7.599999999999999
 20
4.870000000000001
 30
0
 11
7.764999999999998
 21
4.870000000000001
 31
0
  0
LINE
  8
0
 62
7
 10
7.424999999999999
 20
3.35
 30
0
 11
7.599999999999999
 21
3.35
 31
0
  0
LINE
  8
0
 62
7
 10
7.424999999999999
 20
3.4
 30
0
 11
4.414999999999998
 21
3.4
 31
0
  0
LINE
  8
0
 62
7
 10
4.414999999999998
 20
3.4
 30
0
 11
4.414999999999999
 21
4.870000000000001
 31
0
  0
LINE
  8
0
 62
7
 10
7.424999999999999
 20
3.4
 30
0
 11
7.424999999999999
 21
3.35
 31
0
  0
LINE
  8
0
 62
7
  6
DASHDOT
 10
7.424999999999999
 20
3.35
 30
0
 11
4.414999999999999
 21
3.35
 31
0
  0
LINE
  8
0
 62
7
 10
4.414999999999999
 20
3.35
 30
0
 11
4.414999999999998
 21
3.4
 31
0
  0
LINE
  8
0
 62
7
  6
DASHDOT
 10
4.19
 20
5.539999999999999
 30
0
 11
4.239999999999998
 21
5.539999999999999
 31
0
  0
LINE
  8
0
 62
7
  6
DASHDOT
 10
7.374999999999999
 20
5.539999999999999
 30
0
 11
7.424999999999997
 21
5.539999999999999
 31
0
  0
LINE
  8
0
 62
7
  6
DASHDOT
 10
4.089999999999999
 20
5.439999999999999
 30
0
 11
4.089999999999999
 21
5.389999999999999
 31
0
  0
LINE
  8
0
 62
7
  6
DASHDOT
 10
7.764999999999998
 20
5.439999999999999
 30
0
 11
7.764999999999998
 21
5.389999999999999
 31
0
  0
LINE
  8
0
 62
7
  6
DASHDOT
 10
7.764999999999998
 20
5.389999999999999
 30
0
 11
7.764999999999998
 21
5.15
 31
0
  0
LINE
  8
0
 62
7
  6
DASHDOT
 10
7.764999999999998
 20
4.870000000000001
 30
0
 11
7.764999999999998
 21
4.82
 31
0
  0
LINE
  8
0
 62
7
  6
DASHDOT
 10
4.239999999999998
 20
5.539999999999999
 30
0
 11
4.414999999999998
 21
5.539999999999999
 31
0
  0
LINE
  8
0
 62
7
  6
DASHDOT
 10
4.414999999999998
 20
5.539999999999999
 30
0
 11
4.464999999999999
 21
5.539999999999999
 31
0
  0
LINE
  8
0
 62
7
  6
DASHDOT
 10
4.089999999999999
 20
5.389999999999999
 30
0
 11
4.089999999999999
 21
5.15
 31
0
  0
LINE
  8
0
 62
7
  6
DASHDOT
 10
4.089999999999999
 20
4.870000000000001
 30
0
 11
4.089999999999999
 21
4.82
 31
0
  0
LINE
  8
0
 62
7
  6
DASHDOT
 10
7.764999999999998
 20
5.15
 30
0
 11
7.764999999999998
 21
5.11
 31
0
  0
LINE
  8
0
 62
7
  6
DASHDOT
 10
4.089999999999999
 20
5.15
 30
0
 11
4.089999999999999
 21
5.11
 31
0
  0
LINE
  8
0
 62
7
  6
DASHDOT
 10
7.764999999999998
 20
5.11
 30
0
 11
7.764999999999998
 21
4.870000000000001
 31
0
  0
LINE
  8
0
 62
7
  6
DASHDOT
 10
4.089999999999999
 20
5.11
 30
0
 11
4.089999999999999
 21
4.870000000000001
 31
0
  0
LINE
  8
0
 62
7
  6
DASHDOT
 10
7.599999999999998
 20
5.539999999999999
 30
0
 11
7.649999999999999
 21
5.539999999999999
 31
0
  0
LINE
  8
0
 62
7
  6
DASHDOT
 10
7.424999999999997
 20
5.539999999999999
 30
0
 11
7.599999999999998
 21
5.539999999999999
 31
0
  0
LINE
  8
0
 62
7
 10
5.127641032901831
 20
4.5553359223301
 30
0
 11
5.127641032901831
 21
4.6753359223301
 31
0
  0
LINE
  8
0
 62
7
 10
5.203241032901833
 20
4.6753359223301
 30
0
 11
5.149241032901831
 21
4.615335922330099
 31
0
  0
LINE
  8
0
 62
7
 10
5.149241032901831
 20
4.615335922330099
 30
0
 11
5.203241032901833
 21
4.5553359223301
 31
0
  0
LINE
  8
0
 62
7
 10
5.149241032901831
 20
4.615335922330099
 30
0
 11
5.127641032901831
 21
4.591335922330098
 31
0
  0
LINE
  8
0
 62
7
 10
5.311241032901831
 20
4.6753359223301
 30
0
 11
5.235641032901832
 21
4.6753359223301
 31
0
  0
LINE
  8
0
 62
7
 10
5.235641032901832
 20
4.6753359223301
 30
0
 11
5.235641032901832
 21
4.615335922330099
 31
0
  0
LINE
  8
0
 62
7
 10
5.235641032901832
 20
4.5553359223301
 30
0
 11
5.311241032901831
 21
4.5553359223301
 31
0
  0
LINE
  8
0
 62
7
 10
5.300441032901832
 20
4.615335922330099
 30
0
 11
5.235641032901832
 21
4.615335922330099
 31
0
  0
LINE
  8
0
 62
7
 10
5.235641032901832
 20
4.615335922330099
 30
0
 11
5.235641032901832
 21
4.5553359223301
 31
0
  0
LINE
  8
0
 62
7
 10
5.343641032901832
 20
4.5553359223301
 30
0
 11
5.343641032901832
 21
4.6753359223301
 31
0
  0
LINE
  8
0
 62
7
 10
5.343641032901832
 20
4.6753359223301
 30
0
 11
5.419241032901832
 21
4.5553359223301
 31
0
  0
LINE
  8
0
 62
7
 10
5.419241032901832
 20
4.5553359223301
 30
0
 11
5.419241032901832
 21
4.6753359223301
 31
0
  0
LINE
  8
0
 62
7
 10
5.451641032901831
 20
4.5553359223301
 30
0
 11
5.451641032901831
 21
4.6753359223301
 31
0
  0
LINE
  8
0
 62
7
 10
5.451641032901831
 20
4.6753359223301
 30
0
 11
5.527241032901832
 21
4.5553359223301
 31
0
  0
LINE
  8
0
 62
7
 10
5.527241032901832
 20
4.5553359223301
 30
0
 11
5.527241032901832
 21
4.6753359223301
 31
0
  0
LINE
  8
0
 62
7
 10
5.635241032901831
 20
4.6393359223301
 30
0
 11
5.63254103290183
 21
4.651335922330099
 31
0
  0
LINE
  8
0
 62
7
 10
5.63254103290183
 20
4.651335922330099
 30
0
 11
5.627141032901831
 21
4.6603359223301
 31
0
  0
LINE
  8
0
 62
7
 10
5.627141032901831
 20
4.6603359223301
 30
0
 11
5.621741032901832
 21
4.666335922330099
 31
0
  0
LINE
  8
0
 62
7
 10
5.621741032901832
 20
4.666335922330099
 30
0
 11
5.613641032901832
 21
4.6723359223301
 31
0
  0
LINE
  8
0
 62
7
 10
5.613641032901832
 20
4.6723359223301
 30
0
 11
5.605541032901831
 21
4.6753359223301
 31
0
  0
LINE
  8
0
 62
7
 10
5.605541032901831
 20
4.6753359223301
 30
0
 11
5.589341032901832
 21
4.6753359223301
 31
0
  0
LINE
  8
0
 62
7
 10
5.589341032901832
 20
4.6753359223301
 30
0
 11
5.581241032901832
 21
4.6723359223301
 31
0
  0
LINE
  8
0
 62
7
 10
5.581241032901832
 20
4.6723359223301
 30
0
 11
5.573141032901831
 21
4.666335922330099
 31
0
  0
LINE
  8
0
 62
7
 10
5.573141032901831
 20
4.666335922330099
 30
0
 11
5.567741032901832
 21
4.6603359223301
 31
0
  0
LINE
  8
0
 62
7
 10
5.567741032901832
 20
4.6603359223301
 30
0
 11
5.562341032901831
 21
4.651335922330099
 31
0
  0
LINE
  8
0
 62
7
 10
5.562341032901831
 20
4.651335922330099
 30
0
 11
5.559641032901832
 21
4.6393359223301
 31
0
  0
LINE
  8
0
 62
7
 10
5.559641032901832
 20
4.6393359223301
 30
0
 11
5.559641032901832
 21
4.591335922330098
 31
0
  0
LINE
  8
0
 62
7
 10
5.559641032901832
 20
4.591335922330098
 30
0
 11
5.562341032901831
 21
4.579335922330101
 31
0
  0
LINE
  8
0
 62
7
 10
5.562341032901831
 20
4.579335922330101
 30
0
 11
5.567741032901832
 21
4.570335922330099
 31
0
  0
LINE
  8
0
 62
7
 10
5.567741032901832
 20
4.570335922330099
 30
0
 11
5.573141032901831
 21
4.564335922330101
 31
0
  0
LINE
  8
0
 62
7
 10
5.573141032901831
 20
4.564335922330101
 30
0
 11
5.581241032901832
 21
4.5583359223301
 31
0
  0
LINE
  8
0
 62
7
 10
5.581241032901832
 20
4.5583359223301
 30
0
 11
5.589341032901832
 21
4.5553359223301
 31
0
  0
LINE
  8
0
 62
7
 10
5.589341032901832
 20
4.5553359223301
 30
0
 11
5.605541032901831
 21
4.5553359223301
 31
0
  0
LINE
  8
0
 62
7
 10
5.605541032901831
 20
4.5553359223301
 30
0
 11
5.613641032901832
 21
4.5583359223301
 31
0
  0
LINE
  8
0
 62
7
 10
5.613641032901832
 20
4.5583359223301
 30
0
 11
5.621741032901832
 21
4.564335922330101
 31
0
  0
LINE
  8
0
 62
7
 10
5.621741032901832
 20
4.564335922330101
 30
0
 11
5.627141032901831
 21
4.570335922330099
 31
0
  0
LINE
  8
0
 62
7
 10
5.627141032901831
 20
4.570335922330099
 30
0
 11
5.63254103290183
 21
4.579335922330101
 31
0
  0
LINE
  8
0
 62
7
 10
5.63254103290183
 20
4.579335922330101
 30
0
 11
5.635241032901831
 21
4.591335922330098
 31
0
  0
LINE
  8
0
 62
7
 10
5.635241032901831
 20
4.591335922330098
 30
0
 11
5.635241032901831
 21
4.615335922330099
 31
0
  0
LINE
  8
0
 62
7
 10
5.635241032901831
 20
4.615335922330099
 30
0
 11
5.602841032901832
 21
4.615335922330099
 31
0
  0
LINE
  8
0
 62
7
 10
5.713541032901831
 20
4.6753359223301
 30
0
 11
5.697341032901831
 21
4.6753359223301
 31
0
  0
LINE
  8
0
 62
7
 10
5.697341032901831
 20
4.6753359223301
 30
0
 11
5.689241032901831
 21
4.6723359223301
 31
0
  0
LINE
  8
0
 62
7
 10
5.689241032901831
 20
4.6723359223301
 30
0
 11
5.681141032901832
 21
4.666335922330099
 31
0
  0
LINE
  8
0
 62
7
 10
5.681141032901832
 20
4.666335922330099
 30
0
 11
5.675741032901833
 21
4.6603359223301
 31
0
  0
LINE
  8
0
 62
7
 10
5.675741032901833
 20
4.6603359223301
 30
0
 11
5.670341032901832
 21
4.651335922330099
 31
0
  0
LINE
  8
0
 62
7
 10
5.670341032901832
 20
4.651335922330099
 30
0
 11
5.667641032901831
 21
4.6393359223301
 31
0
  0
LINE
  8
0
 62
7
 10
5.667641032901831
 20
4.6393359223301
 30
0
 11
5.667641032901831
 21
4.591335922330098
 31
0
  0
LINE
  8
0
 62
7
 10
5.667641032901831
 20
4.591335922330098
 30
0
 11
5.670341032901832
 21
4.579335922330101
 31
0
  0
LINE
  8
0
 62
7
 10
5.670341032901832
 20
4.579335922330101
 30
0
 11
5.675741032901833
 21
4.570335922330099
 31
0
  0
LINE
  8
0
 62
7
 10
5.675741032901833
 20
4.570335922330099
 30
0
 11
5.681141032901832
 21
4.564335922330101
 31
0
  0
LINE
  8
0
 62
7
 10
5.681141032901832
 20
4.564335922330101
 30
0
 11
5.689241032901831
 21
4.5583359223301
 31
0
  0
LINE
  8
0
 62
7
 10
5.689241032901831
 20
4.5583359223301
 30
0
 11
5.697341032901831
 21
4.5553359223301
 31
0
  0
LINE
  8
0
 62
7
 10
5.697341032901831
 20
4.5553359223301
 30
0
 11
5.713541032901831
 21
4.5553359223301
 31
0
  0
LINE
  8
0
 62
7
 10
5.713541032901831
 20
4.5553359223301
 30
0
 11
5.721641032901831
 21
4.5583359223301
 31
0
  0
LINE
  8
0
 62
7
 10
5.721641032901831
 20
4.5583359223301
 30
0
 11
5.729741032901831
 21
4.564335922330101
 31
0
  0
LINE
  8
0
 62
7
 10
5.729741032901831
 20
4.564335922330101
 30
0
 11
5.735141032901831
 21
4.570335922330099
 31
0
  0
LINE
  8
0
 62
7
 10
5.735141032901831
 20
4.570335922330099
 30
0
 11
5.740541032901831
 21
4.579335922330101
 31
0
  0
LINE
  8
0
 62
7
 10
5.740541032901831
 20
4.579335922330101
 30
0
 11
5.743241032901833
 21
4.591335922330098
 31
0
  0
LINE
  8
0
 62
7
 10
5.743241032901833
 20
4.591335922330098
 30
0
 11
5.743241032901833
 21
4.6393359223301
 31
0
  0
LINE
  8
0
 62
7
 10
5.743241032901833
 20
4.6393359223301
 30
0
 11
5.740541032901831
 21
4.651335922330099
 31
0
  0
LINE
  8
0
 62
7
 10
5.740541032901831
 20
4.651335922330099
 30
0
 11
5.735141032901831
 21
4.6603359223301
 31
0
  0
LINE
  8
0
 62
7
 10
5.735141032901831
 20
4.6603359223301
 30
0
 11
5.729741032901831
 21
4.666335922330099
 31
0
  0
LINE
  8
0
 62
7
 10
5.729741032901831
 20
4.666335922330099
 30
0
 11
5.721641032901831
 21
4.6723359223301
 31
0
  0
LINE
  8
0
 62
7
 10
5.721641032901831
 20
4.6723359223301
 30
0
 11
5.713541032901831
 21
4.6753359223301
 31
0
  0
LINE
  8
0
 62
7
 10
5.764841032901831
 20
4.6753359223301
 30
0
 11
5.802641032901832
 21
4.6753359223301
 31
0
  0
LINE
  8
0
 62
7
 10
5.802641032901832
 20
4.6753359223301
 30
0
 11
5.802641032901832
 21
4.5553359223301
 31
0
  0
LINE
  8
0
 62
7
 10
5.802641032901832
 20
4.6753359223301
 30
0
 11
5.840441032901832
 21
4.6753359223301
 31
0
  0
LINE
  8
0
 62
7
 10
5.872841032901832
 20
4.6753359223301
 30
0
 11
5.910641032901832
 21
4.6753359223301
 31
0
  0
LINE
  8
0
 62
7
 10
5.910641032901832
 20
4.6753359223301
 30
0
 11
5.910641032901832
 21
4.5553359223301
 31
0
  0
LINE
  8
0
 62
7
 10
5.910641032901832
 20
4.6753359223301
 30
0
 11
5.948441032901832
 21
4.6753359223301
 31
0
  0
LINE
  8
0
 62
7
 10
6.067241032901831
 20
4.5973359223301
 30
0
 11
6.121241032901831
 21
4.5973359223301
 31
0
  0
LINE
  8
0
 62
7
 10
6.229241032901832
 20
4.6753359223301
 30
0
 11
6.26704103290183
 21
4.6753359223301
 31
0
  0
LINE
  8
0
 62
7
 10
6.26704103290183
 20
4.6753359223301
 30
0
 11
6.26704103290183
 21
4.5553359223301
 31
0
  0
LINE
  8
0
 62
7
 10
6.26704103290183
 20
4.6753359223301
 30
0
 11
6.304841032901832
 21
4.6753359223301
 31
0
  0
LINE
  8
0
 62
7
 10
6.33724103290183
 20
4.5553359223301
 30
0
 11
6.33724103290183
 21
4.6753359223301
 31
0
  0
LINE
  8
0
 62
7
 10
6.33724103290183
 20
4.6753359223301
 30
0
 11
6.388541032901831
 21
4.6753359223301
 31
0
  0
LINE
  8
0
 62
7
 10
6.388541032901831
 20
4.6753359223301
 30
0
 11
6.399341032901831
 21
4.6723359223301
 31
0
  0
LINE
  8
0
 62
7
 10
6.399341032901831
 20
4.6723359223301
 30
0
 11
6.407441032901831
 21
4.666335922330099
 31
0
  0
LINE
  8
0
 62
7
 10
6.407441032901831
 20
4.666335922330099
 30
0
 11
6.410141032901831
 21
4.6603359223301
 31
0
  0
LINE
  8
0
 62
7
 10
6.410141032901831
 20
4.6603359223301
 30
0
 11
6.412841032901833
 21
4.651335922330099
 31
0
  0
LINE
  8
0
 62
7
 10
6.412841032901833
 20
4.651335922330099
 30
0
 11
6.412841032901833
 21
4.6393359223301
 31
0
  0
LINE
  8
0
 62
7
 10
6.412841032901833
 20
4.6393359223301
 30
0
 11
6.410141032901831
 21
4.6303359223301
 31
0
  0
LINE
  8
0
 62
7
 10
6.410141032901831
 20
4.6303359223301
 30
0
 11
6.407441032901831
 21
4.624335922330101
 31
0
  0
LINE
  8
0
 62
7
 10
6.407441032901831
 20
4.624335922330101
 30
0
 11
6.399341032901831
 21
4.618335922330099
 31
0
  0
LINE
  8
0
 62
7
 10
6.399341032901831
 20
4.618335922330099
 30
0
 11
6.388541032901831
 21
4.615335922330099
 31
0
  0
LINE
  8
0
 62
7
 10
6.388541032901831
 20
4.615335922330099
 30
0
 11
6.380441032901832
 21
4.615335922330099
 31
0
  0
LINE
  8
0
 62
7
 10
6.380441032901832
 20
4.615335922330099
 30
0
 11
6.412841032901833
 21
4.5553359223301
 31
0
  0
LINE
  8
0
 62
7
 10
6.380441032901832
 20
4.615335922330099
 30
0
 11
6.33724103290183
 21
4.615335922330099
 31
0
  0
LINE
  8
0
 62
7
 10
6.510041032901832
 20
4.6753359223301
 30
0
 11
6.434441032901832
 21
4.6753359223301
 31
0
  0
LINE
  8
0
 62
7
 10
6.434441032901832
 20
4.6753359223301
 30
0
 11
6.434441032901832
 21
4.615335922330099
 31
0
  0
LINE
  8
0
 62
7
 10
6.434441032901832
 20
4.5553359223301
 30
0
 11
6.510041032901832
 21
4.5553359223301
 31
0
  0
LINE
  8
0
 62
7
 10
6.499241032901832
 20
4.615335922330099
 30
0
 11
6.434441032901832
 21
4.615335922330099
 31
0
  0
LINE
  8
0
 62
7
 10
6.434441032901832
 20
4.615335922330099
 30
0
 11
6.434441032901832
 21
4.5553359223301
 31
0
  0
LINE
  8
0
 62
7
 10
6.542441032901831
 20
4.5553359223301
 30
0
 11
6.542441032901831
 21
4.615335922330099
 31
0
  0
LINE
  8
0
 62
7
 10
6.542441032901831
 20
4.6753359223301
 30
0
 11
6.593741032901831
 21
4.6753359223301
 31
0
  0
LINE
  8
0
 62
7
 10
6.593741032901831
 20
4.6753359223301
 30
0
 11
6.604541032901832
 21
4.6723359223301
 31
0
  0
LINE
  8
0
 62
7
 10
6.604541032901832
 20
4.6723359223301
 30
0
 11
6.612641032901831
 21
4.666335922330099
 31
0
  0
LINE
  8
0
 62
7
 10
6.612641032901831
 20
4.666335922330099
 30
0
 11
6.615341032901831
 21
4.6603359223301
 31
0
  0
LINE
  8
0
 62
7
 10
6.615341032901831
 20
4.6603359223301
 30
0
 11
6.61804103290183
 21
4.651335922330099
 31
0
  0
LINE
  8
0
 62
7
 10
6.61804103290183
 20
4.651335922330099
 30
0
 11
6.61804103290183
 21
4.6393359223301
 31
0
  0
LINE
  8
0
 62
7
 10
6.61804103290183
 20
4.6393359223301
 30
0
 11
6.615341032901831
 21
4.6303359223301
 31
0
  0
LINE
  8
0
 62
7
 10
6.615341032901831
 20
4.6303359223301
 30
0
 11
6.612641032901831
 21
4.624335922330101
 31
0
  0
LINE
  8
0
 62
7
 10
6.612641032901831
 20
4.624335922330101
 30
0
 11
6.604541032901832
 21
4.618335922330099
 31
0
  0
LINE
  8
0
 62
7
 10
6.604541032901832
 20
4.618335922330099
 30
0
 11
6.593741032901831
 21
4.615335922330099
 31
0
  0
LINE
  8
0
 62
7
 10
6.593741032901831
 20
4.615335922330099
 30
0
 11
6.542441032901831
 21
4.615335922330099
 31
0
  0
LINE
  8
0
 62
7
 10
6.542441032901831
 20
4.615335922330099
 30
0
 11
6.542441032901831
 21
4.6753359223301
 31
0
  0
LINE
  8
0
 62
7
 10
6.639641032901832
 20
4.5553359223301
 30
0
 11
6.639641032901832
 21
4.615335922330099
 31
0
  0
LINE
  8
0
 62
7
 10
6.639641032901832
 20
4.6753359223301
 30
0
 11
6.690941032901832
 21
4.6753359223301
 31
0
  0
LINE
  8
0
 62
7
 10
6.690941032901832
 20
4.6753359223301
 30
0
 11
6.701741032901833
 21
4.6723359223301
 31
0
  0
LINE
  8
0
 62
7
 10
6.701741032901833
 20
4.6723359223301
 30
0
 11
6.709841032901832
 21
4.666335922330099
 31
0
  0
LINE
  8
0
 62
7
 10
6.709841032901832
 20
4.666335922330099
 30
0
 11
6.712541032901831
 21
4.6603359223301
 31
0
  0
LINE
  8
0
 62
7
 10
6.712541032901831
 20
4.6603359223301
 30
0
 11
6.715241032901831
 21
4.651335922330099
 31
0
  0
LINE
  8
0
 62
7
 10
6.715241032901831
 20
4.651335922330099
 30
0
 11
6.715241032901831
 21
4.6393359223301
 31
0
  0
LINE
  8
0
 62
7
 10
6.715241032901831
 20
4.6393359223301
 30
0
 11
6.712541032901831
 21
4.6303359223301
 31
0
  0
LINE
  8
0
 62
7
 10
6.712541032901831
 20
4.6303359223301
 30
0
 11
6.709841032901832
 21
4.624335922330101
 31
0
  0
LINE
  8
0
 62
7
 10
6.709841032901832
 20
4.624335922330101
 30
0
 11
6.701741032901833
 21
4.618335922330099
 31
0
  0
LINE
  8
0
 62
7
 10
6.701741032901833
 20
4.618335922330099
 30
0
 11
6.690941032901832
 21
4.615335922330099
 31
0
  0
LINE
  8
0
 62
7
 10
6.690941032901832
 20
4.615335922330099
 30
0
 11
6.639641032901832
 21
4.615335922330099
 31
0
  0
LINE
  8
0
 62
7
 10
6.639641032901832
 20
4.615335922330099
 30
0
 11
6.639641032901832
 21
4.6753359223301
 31
0
  0
LINE
  8
0
 62
7
 10
6.812441032901832
 20
4.6753359223301
 30
0
 11
6.736841032901831
 21
4.6753359223301
 31
0
  0
LINE
  8
0
 62
7
 10
6.736841032901831
 20
4.6753359223301
 30
0
 11
6.736841032901831
 21
4.615335922330099
 31
0
  0
LINE
  8
0
 62
7
 10
6.736841032901831
 20
4.5553359223301
 30
0
 11
6.812441032901832
 21
4.5553359223301
 31
0
  0
LINE
  8
0
 62
7
 10
6.801641032901832
 20
4.615335922330099
 30
0
 11
6.736841032901831
 21
4.615335922330099
 31
0
  0
LINE
  8
0
 62
7
 10
6.736841032901831
 20
4.615335922330099
 30
0
 11
6.736841032901831
 21
4.5553359223301
 31
0
  0
LINE
  8
0
 62
7
 10
4.374999999999997
 20
2.890000000000001
 30
0
 11
4.374999999999997
 21
3.01
 31
0
  0
LINE
  8
0
 62
7
 10
4.374999999999997
 20
3.01
 30
0
 11
4.418199999999998
 21
2.914
 31
0
  0
LINE
  8
0
 62
7
 10
4.418199999999998
 20
2.914
 30
0
 11
4.461399999999997
 21
3.01
 31
0
  0
LINE
  8
0
 62
7
 10
4.461399999999997
 20
3.01
 30
0
 11
4.461399999999997
 21
2.890000000000001
 31
0
  0
LINE
  8
0
 62
7
 10
4.493799999999998
 20
2.992
 30
0
 11
4.499199999999997
 21
3.001
 31
0
  0
LINE
  8
0
 62
7
 10
4.499199999999997
 20
3.001
 30
0
 11
4.507299999999996
 21
3.007
 31
0
  0
LINE
  8
0
 62
7
 10
4.507299999999996
 20
3.007
 30
0
 11
4.518099999999997
 21
3.01
 31
0
  0
LINE
  8
0
 62
7
 10
4.518099999999997
 20
3.01
 30
0
 11
4.534299999999997
 21
3.01
 31
0
  0
LINE
  8
0
 62
7
 10
4.534299999999997
 20
3.01
 30
0
 11
4.545099999999997
 21
3.007
 31
0
  0
LINE
  8
0
 62
7
 10
4.545099999999997
 20
3.007
 30
0
 11
4.553199999999998
 21
3.001
 31
0
  0
LINE
  8
0
 62
7
 10
4.553199999999998
 20
3.001
 30
0
 11
4.558599999999998
 21
2.992
 31
0
  0
LINE
  8
0
 62
7
 10
4.558599999999998
 20
2.992
 30
0
 11
4.558599999999998
 21
2.98
 31
0
  0
LINE
  8
0
 62
7
 10
4.558599999999998
 20
2.98
 30
0
 11
4.553199999999998
 21
2.968
 31
0
  0
LINE
  8
0
 62
7
 10
4.553199999999998
 20
2.968
 30
0
 11
4.493799999999998
 21
2.890000000000001
 31
0
  0
LINE
  8
0
 62
7
 10
4.493799999999998
 20
2.890000000000001
 30
0
 11
4.558599999999998
 21
2.890000000000001
 31
0
  0
LINE
  8
0
 62
7
 10
4.590999999999997
 20
3.01
 30
0
 11
4.628799999999997
 21
2.890000000000001
 31
0
  0
LINE
  8
0
 62
7
 10
4.628799999999997
 20
2.890000000000001
 30
0
 11
4.666599999999997
 21
3.01
 31
0
  0
LINE
  8
0
 62
7
 10
4.698999999999995
 20
2.992
 30
0
 11
4.704399999999996
 21
3.001
 31
0
  0
LINE
  8
0
 62
7
 10
4.704399999999996
 20
3.001
 30
0
 11
4.712499999999998
 21
3.007
 31
0
  0
LINE
  8
0
 62
7
 10
4.712499999999998
 20
3.007
 30
0
 11
4.723299999999997
 21
3.01
 31
0
  0
LINE
  8
0
 62
7
 10
4.723299999999997
 20
3.01
 30
0
 11
4.739499999999997
 21
3.01
 31
0
  0
LINE
  8
0
 62
7
 10
4.739499999999997
 20
3.01
 30
0
 11
4.747599999999998
 21
3.007
 31
0
  0
LINE
  8
0
 62
7
 10
4.747599999999998
 20
3.007
 30
0
 11
4.755699999999997
 21
3.001
 31
0
  0
LINE
  8
0
 62
7
 10
4.755699999999997
 20
3.001
 30
0
 11
4.761099999999997
 21
2.992
 31
0
  0
LINE
  8
0
 62
7
 10
4.761099999999997
 20
2.992
 30
0
 11
4.763799999999998
 21
2.98
 31
0
  0
LINE
  8
0
 62
7
 10
4.763799999999998
 20
2.98
 30
0
 11
4.763799999999998
 21
2.971
 31
0
  0
LINE
  8
0
 62
7
 10
4.763799999999998
 20
2.971
 30
0
 11
4.761099999999997
 21
2.962
 31
0
  0
LINE
  8
0
 62
7
 10
4.761099999999997
 20
2.962
 30
0
 11
4.755699999999997
 21
2.956
 31
0
  0
LINE
  8
0
 62
7
 10
4.755699999999997
 20
2.956
 30
0
 11
4.742199999999996
 21
2.95
 31
0
  0
LINE
  8
0
 62
7
 10
4.723299999999997
 20
2.95
 30
0
 11
4.742199999999996
 21
2.95
 31
0
  0
LINE
  8
0
 62
7
 10
4.742199999999996
 20
2.95
 30
0
 11
4.755699999999997
 21
2.944
 31
0
  0
LINE
  8
0
 62
7
 10
4.755699999999997
 20
2.944
 30
0
 11
4.761099999999997
 21
2.938
 31
0
  0
LINE
  8
0
 62
7
 10
4.761099999999997
 20
2.938
 30
0
 11
4.763799999999998
 21
2.929
 31
0
  0
LINE
  8
0
 62
7
 10
4.763799999999998
 20
2.929
 30
0
 11
4.763799999999998
 21
2.92
 31
0
  0
LINE
  8
0
 62
7
 10
4.763799999999998
 20
2.92
 30
0
 11
4.761099999999997
 21
2.908
 31
0
  0
LINE
  8
0
 62
7
 10
4.761099999999997
 20
2.908
 30
0
 11
4.755699999999997
 21
2.899
 31
0
  0
LINE
  8
0
 62
7
 10
4.755699999999997
 20
2.899
 30
0
 11
4.747599999999998
 21
2.893
 31
0
  0
LINE
  8
0
 62
7
 10
4.747599999999998
 20
2.893
 30
0
 11
4.739499999999997
 21
2.890000000000001
 31
0
  0
LINE
  8
0
 62
7
 10
4.739499999999997
 20
2.890000000000001
 30
0
 11
4.723299999999997
 21
2.890000000000001
 31
0
  0
LINE
  8
0
 62
7
 10
4.723299999999997
 20
2.890000000000001
 30
0
 11
4.712499999999998
 21
2.893
 31
0
  0
LINE
  8
0
 62
7
 10
4.712499999999998
 20
2.893
 30
0
 11
4.704399999999996
 21
2.899
 31
0
  0
LINE
  8
0
 62
7
 10
4.704399999999996
 20
2.899
 30
0
 11
4.698999999999995
 21
2.908
 31
0
  0
LINE
  8
0
 62
7
 10
4.796199999999998
 20
2.98
 30
0
 11
4.798899999999996
 21
2.992
 31
0
  0
LINE
  8
0
 62
7
 10
4.798899999999996
 20
2.992
 30
0
 11
4.804299999999998
 21
3.001
 31
0
  0
LINE
  8
0
 62
7
 10
4.804299999999998
 20
3.001
 30
0
 11
4.812399999999997
 21
3.007
 31
0
  0
LINE
  8
0
 62
7
 10
4.812399999999997
 20
3.007
 30
0
 11
4.820499999999998
 21
3.01
 31
0
  0
LINE
  8
0
 62
7
 10
4.820499999999998
 20
3.01
 30
0
 11
4.836699999999997
 21
3.01
 31
0
  0
LINE
  8
0
 62
7
 10
4.836699999999997
 20
3.01
 30
0
 11
4.844799999999997
 21
3.007
 31
0
  0
LINE
  8
0
 62
7
 10
4.844799999999997
 20
3.007
 30
0
 11
4.852899999999996
 21
3.001
 31
0
  0
LINE
  8
0
 62
7
 10
4.852899999999996
 20
3.001
 30
0
 11
4.858299999999998
 21
2.992
 31
0
  0
LINE
  8
0
 62
7
 10
4.858299999999998
 20
2.992
 30
0
 11
4.860999999999997
 21
2.98
 31
0
  0
LINE
  8
0
 62
7
 10
4.860999999999997
 20
2.98
 30
0
 11
4.860999999999997
 21
2.92
 31
0
  0
LINE
  8
0
 62
7
 10
4.860999999999997
 20
2.92
 30
0
 11
4.858299999999998
 21
2.908
 31
0
  0
LINE
  8
0
 62
7
 10
4.858299999999998
 20
2.908
 30
0
 11
4.852899999999996
 21
2.899
 31
0
  0
LINE
  8
0
 62
7
 10
4.852899999999996
 20
2.899
 30
0
 11
4.844799999999997
 21
2.893
 31
0
  0
LINE
  8
0
 62
7
 10
4.844799999999997
 20
2.893
 30
0
 11
4.836699999999997
 21
2.890000000000001
 31
0
  0
LINE
  8
0
 62
7
 10
4.836699999999997
 20
2.890000000000001
 30
0
 11
4.820499999999998
 21
2.890000000000001
 31
0
  0
LINE
  8
0
 62
7
 10
4.820499999999998
 20
2.890000000000001
 30
0
 11
4.812399999999997
 21
2.893
 31
0
  0
LINE
  8
0
 62
7
 10
4.812399999999997
 20
2.893
 30
0
 11
4.804299999999998
 21
2.899
 31
0
  0
LINE
  8
0
 62
7
 10
4.804299999999998
 20
2.899
 30
0
 11
4.798899999999996
 21
2.908
 31
0
  0
LINE
  8
0
 62
7
 10
4.798899999999996
 20
2.908
 30
0
 11
4.796199999999998
 21
2.92
 31
0
  0
LINE
  8
0
 62
7
 10
4.796199999999998
 20
2.92
 30
0
 11
4.796199999999998
 21
2.98
 31
0
  0
LINE
  8
0
 62
7
 10
4.893399999999996
 20
2.974
 30
0
 11
4.925799999999996
 21
3.01
 31
0
  0
LINE
  8
0
 62
7
 10
4.925799999999996
 20
3.01
 30
0
 11
4.925799999999996
 21
2.890000000000001
 31
0
  0
LINE
  8
0
 62
7
 10
4.958199999999998
 20
2.890000000000001
 30
0
 11
4.958199999999998
 21
3.01
 31
0
  0
LINE
  8
0
 62
7
 10
4.958199999999998
 20
3.01
 30
0
 11
5.009499999999997
 21
3.01
 31
0
  0
LINE
  8
0
 62
7
 10
5.009499999999997
 20
3.01
 30
0
 11
5.020299999999997
 21
3.007
 31
0
  0
LINE
  8
0
 62
7
 10
5.020299999999997
 20
3.007
 30
0
 11
5.028399999999997
 21
3.001
 31
0
  0
LINE
  8
0
 62
7
 10
5.028399999999997
 20
3.001
 30
0
 11
5.031099999999996
 21
2.995
 31
0
  0
LINE
  8
0
 62
7
 10
5.031099999999996
 20
2.995
 30
0
 11
5.033799999999998
 21
2.986
 31
0
  0
LINE
  8
0
 62
7
 10
5.033799999999998
 20
2.986
 30
0
 11
5.033799999999998
 21
2.974
 31
0
  0
LINE
  8
0
 62
7
 10
5.033799999999998
 20
2.974
 30
0
 11
5.031099999999996
 21
2.965
 31
0
  0
LINE
  8
0
 62
7
 10
5.031099999999996
 20
2.965
 30
0
 11
5.028399999999997
 21
2.959
 31
0
  0
LINE
  8
0
 62
7
 10
5.028399999999997
 20
2.959
 30
0
 11
5.020299999999997
 21
2.953
 31
0
  0
LINE
  8
0
 62
7
 10
5.020299999999997
 20
2.953
 30
0
 11
5.009499999999997
 21
2.95
 31
0
  0
LINE
  8
0
 62
7
 10
5.009499999999997
 20
2.95
 30
0
 11
5.001399999999997
 21
2.95
 31
0
  0
LINE
  8
0
 62
7
 10
5.001399999999997
 20
2.95
 30
0
 11
5.033799999999998
 21
2.890000000000001
 31
0
  0
LINE
  8
0
 62
7
 10
5.001399999999997
 20
2.95
 30
0
 11
4.958199999999998
 21
2.95
 31
0
  0
LINE
  8
0
 62
7
 10
5.055399999999996
 20
2.938
 30
0
 11
5.058099999999996
 21
2.95
 31
0
  0
LINE
  8
0
 62
7
 10
5.058099999999996
 20
2.95
 30
0
 11
5.063499999999997
 21
2.959
 31
0
  0
LINE
  8
0
 62
7
 10
5.063499999999997
 20
2.959
 30
0
 11
5.071599999999997
 21
2.965
 31
0
  0
LINE
  8
0
 62
7
 10
5.071599999999997
 20
2.965
 30
0
 11
5.079699999999995
 21
2.968
 31
0
  0
LINE
  8
0
 62
7
 10
5.079699999999995
 20
2.968
 30
0
 11
5.095899999999997
 21
2.968
 31
0
  0
LINE
  8
0
 62
7
 10
5.095899999999997
 20
2.968
 30
0
 11
5.103999999999996
 21
2.965
 31
0
  0
LINE
  8
0
 62
7
 10
5.103999999999996
 20
2.965
 30
0
 11
5.112099999999996
 21
2.959
 31
0
  0
LINE
  8
0
 62
7
 10
5.112099999999996
 20
2.959
 30
0
 11
5.117499999999998
 21
2.95
 31
0
  0
LINE
  8
0
 62
7
 10
5.117499999999998
 20
2.95
 30
0
 11
5.120199999999997
 21
2.938
 31
0
  0
LINE
  8
0
 62
7
 10
5.120199999999997
 20
2.938
 30
0
 11
5.120199999999997
 21
2.92
 31
0
  0
LINE
  8
0
 62
7
 10
5.120199999999997
 20
2.92
 30
0
 11
5.117499999999998
 21
2.908
 31
0
  0
LINE
  8
0
 62
7
 10
5.117499999999998
 20
2.908
 30
0
 11
5.112099999999996
 21
2.899
 31
0
  0
LINE
  8
0
 62
7
 10
5.112099999999996
 20
2.899
 30
0
 11
5.103999999999996
 21
2.893
 31
0
  0
LINE
  8
0
 62
7
 10
5.103999999999996
 20
2.893
 30
0
 11
5.095899999999997
 21
2.890000000000001
 31
0
  0
LINE
  8
0
 62
7
 10
5.095899999999997
 20
2.890000000000001
 30
0
 11
5.079699999999995
 21
2.890000000000001
 31
0
  0
LINE
  8
0
 62
7
 10
5.079699999999995
 20
2.890000000000001
 30
0
 11
5.071599999999997
 21
2.893
 31
0
  0
LINE
  8
0
 62
7
 10
5.071599999999997
 20
2.893
 30
0
 11
5.063499999999997
 21
2.899
 31
0
  0
LINE
  8
0
 62
7
 10
5.063499999999997
 20
2.899
 30
0
 11
5.058099999999996
 21
2.908
 31
0
  0
LINE
  8
0
 62
7
 10
5.058099999999996
 20
2.908
 30
0
 11
5.055399999999996
 21
2.92
 31
0
  0
LINE
  8
0
 62
7
 10
5.055399999999996
 20
2.92
 30
0
 11
5.055399999999996
 21
2.938
 31
0
  0
LINE
  8
0
 62
7
 10
5.055399999999996
 20
2.98
 30
0
 11
5.058099999999996
 21
2.992
 31
0
  0
LINE
  8
0
 62
7
 10
5.058099999999996
 20
2.992
 30
0
 11
5.063499999999997
 21
3.001
 31
0
  0
LINE
  8
0
 62
7
 10
5.063499999999997
 20
3.001
 30
0
 11
5.071599999999997
 21
3.007
 31
0
  0
LINE
  8
0
 62
7
 10
5.071599999999997
 20
3.007
 30
0
 11
5.079699999999995
 21
3.01
 31
0
  0
LINE
  8
0
 62
7
 10
5.079699999999995
 20
3.01
 30
0
 11
5.095899999999997
 21
3.01
 31
0
  0
LINE
  8
0
 62
7
 10
5.095899999999997
 20
3.01
 30
0
 11
5.103999999999996
 21
3.007
 31
0
  0
LINE
  8
0
 62
7
 10
5.103999999999996
 20
3.007
 30
0
 11
5.112099999999996
 21
3.001
 31
0
  0
LINE
  8
0
 62
7
 10
5.112099999999996
 20
3.001
 30
0
 11
5.117499999999998
 21
2.992
 31
0
  0
LINE
  8
0
 62
7
 10
5.055399999999996
 20
2.938
 30
0
 11
5.055399999999996
 21
2.98
 31
0
  0
LINE
  8
0
 62
7
 10
6.874999999999997
 20
2.890000000000001
 30
0
 11
6.874999999999997
 21
2.99
 31
0
  0
LINE
  8
0
 62
7
 10
6.874999999999997
 20
2.99
 30
0
 11
6.937999999999999
 21
2.890000000000001
 31
0
  0
LINE
  8
0
 62
7
 10
6.937999999999999
 20
2.890000000000001
 30
0
 11
6.937999999999999
 21
2.99
 31
0
  0
LINE
  8
0
 62
7
 10
7.018999999999997
 20
2.890000000000001
 30
0
 11
6.964999999999996
 21
2.890000000000001
 31
0
  0
LINE
  8
0
 62
7
 10
6.964999999999996
 20
2.890000000000001
 30
0
 11
6.964999999999996
 21
2.99
 31
0
  0
LINE
  8
0
 62
7
 10
7.045999999999997
 20
2.94
 30
0
 11
7.081999999999998
 21
2.94
 31
0
  0
LINE
  8
0
 62
7
 10
7.081999999999998
 20
2.94
 30
0
 11
7.086499999999997
 21
2.94
 31
0
  0
LINE
  8
0
 62
7
 10
7.086499999999997
 20
2.94
 30
0
 11
7.095499999999998
 21
2.935
 31
0
  0
LINE
  8
0
 62
7
 10
7.095499999999998
 20
2.935
 30
0
 11
7.099999999999998
 21
2.93
 31
0
  0
LINE
  8
0
 62
7
 10
7.099999999999998
 20
2.93
 30
0
 11
7.104499999999998
 21
2.92
 31
0
  0
LINE
  8
0
 62
7
 10
7.104499999999998
 20
2.92
 30
0
 11
7.104499999999998
 21
2.91
 31
0
  0
LINE
  8
0
 62
7
 10
7.104499999999998
 20
2.91
 30
0
 11
7.099999999999998
 21
2.9
 31
0
  0
LINE
  8
0
 62
7
 10
7.099999999999998
 20
2.9
 30
0
 11
7.095499999999998
 21
2.895
 31
0
  0
LINE
  8
0
 62
7
 10
7.095499999999998
 20
2.895
 30
0
 11
7.086499999999997
 21
2.890000000000001
 31
0
  0
LINE
  8
0
 62
7
 10
7.086499999999997
 20
2.890000000000001
 30
0
 11
7.045999999999997
 21
2.890000000000001
 31
0
  0
LINE
  8
0
 62
7
 10
7.045999999999997
 20
2.890000000000001
 30
0
 11
7.045999999999997
 21
2.94
 31
0
  0
LINE
  8
0
 62
7
 10
7.045999999999997
 20
2.99
 30
0
 11
7.079749999999997
 21
2.99
 31
0
  0
LINE
  8
0
 62
7
 10
7.079749999999997
 20
2.99
 30
0
 11
7.090999999999998
 21
2.9875
 31
0
  0
LINE
  8
0
 62
7
 10
7.090999999999998
 20
2.9875
 30
0
 11
7.097749999999997
 21
2.98
 31
0
  0
LINE
  8
0
 62
7
 10
7.097749999999997
 20
2.98
 30
0
 11
7.099999999999998
 21
2.97
 31
0
  0
LINE
  8
0
 62
7
 10
7.099999999999998
 20
2.97
 30
0
 11
7.099999999999998
 21
2.96
 31
0
  0
LINE
  8
0
 62
7
 10
7.099999999999998
 20
2.96
 30
0
 11
7.095499999999998
 21
2.95
 31
0
  0
LINE
  8
0
 62
7
 10
7.095499999999998
 20
2.95
 30
0
 11
7.088749999999997
 21
2.9425
 31
0
  0
LINE
  8
0
 62
7
 10
7.088749999999997
 20
2.9425
 30
0
 11
7.081999999999998
 21
2.94
 31
0
  0
LINE
  8
0
 62
7
 10
7.045999999999997
 20
2.94
 30
0
 11
7.045999999999997
 21
2.99
 31
0
  0
LINE
  8
0
 62
7
 10
7.246249999999996
 20
2.9425
 30
0
 11
7.239499999999997
 21
2.952500000000001
 31
0
  0
LINE
  8
0
 62
7
 10
7.239499999999997
 20
2.952500000000001
 30
0
 11
7.232749999999998
 21
2.9575
 31
0
  0
LINE
  8
0
 62
7
 10
7.232749999999998
 20
2.9575
 30
0
 11
7.225999999999996
 21
2.96
 31
0
  0
LINE
  8
0
 62
7
 10
7.225999999999996
 20
2.96
 30
0
 11
7.216999999999998
 21
2.96
 31
0
  0
LINE
  8
0
 62
7
 10
7.216999999999998
 20
2.96
 30
0
 11
7.210249999999997
 21
2.9575
 31
0
  0
LINE
  8
0
 62
7
 10
7.210249999999997
 20
2.9575
 30
0
 11
7.203499999999997
 21
2.952500000000001
 31
0
  0
LINE
  8
0
 62
7
 10
7.203499999999997
 20
2.952500000000001
 30
0
 11
7.196749999999998
 21
2.9425
 31
0
  0
LINE
  8
0
 62
7
 10
7.196749999999998
 20
2.9425
 30
0
 11
7.194499999999998
 21
2.935
 31
0
  0
LINE
  8
0
 62
7
 10
7.194499999999998
 20
2.935
 30
0
 11
7.194499999999998
 21
2.915
 31
0
  0
LINE
  8
0
 62
7
 10
7.194499999999998
 20
2.915
 30
0
 11
7.196749999999998
 21
2.9075
 31
0
  0
LINE
  8
0
 62
7
 10
7.196749999999998
 20
2.9075
 30
0
 11
7.203499999999997
 21
2.8975
 31
0
  0
LINE
  8
0
 62
7
 10
7.203499999999997
 20
2.8975
 30
0
 11
7.210249999999997
 21
2.8925
 31
0
  0
LINE
  8
0
 62
7
 10
7.210249999999997
 20
2.8925
 30
0
 11
7.216999999999998
 21
2.890000000000001
 31
0
  0
LINE
  8
0
 62
7
 10
7.216999999999998
 20
2.890000000000001
 30
0
 11
7.225999999999996
 21
2.890000000000001
 31
0
  0
LINE
  8
0
 62
7
 10
7.225999999999996
 20
2.890000000000001
 30
0
 11
7.232749999999998
 21
2.8925
 31
0
  0
LINE
  8
0
 62
7
 10
7.232749999999998
 20
2.8925
 30
0
 11
7.239499999999997
 21
2.8975
 31
0
  0
LINE
  8
0
 62
7
 10
7.239499999999997
 20
2.8975
 30
0
 11
7.246249999999996
 21
2.9075
 31
0
  0
LINE
  8
0
 62
7
 10
7.318249999999998
 20
2.935
 30
0
 11
7.315999999999997
 21
2.9425
 31
0
  0
LINE
  8
0
 62
7
 10
7.315999999999997
 20
2.9425
 30
0
 11
7.309249999999998
 21
2.952500000000001
 31
0
  0
LINE
  8
0
 62
7
 10
7.309249999999998
 20
2.952500000000001
 30
0
 11
7.302499999999997
 21
2.9575
 31
0
  0
LINE
  8
0
 62
7
 10
7.302499999999997
 20
2.9575
 30
0
 11
7.295749999999997
 21
2.96
 31
0
  0
LINE
  8
0
 62
7
 10
7.295749999999997
 20
2.96
 30
0
 11
7.286749999999998
 21
2.96
 31
0
  0
LINE
  8
0
 62
7
 10
7.286749999999998
 20
2.96
 30
0
 11
7.279999999999998
 21
2.9575
 31
0
  0
LINE
  8
0
 62
7
 10
7.279999999999998
 20
2.9575
 30
0
 11
7.273249999999997
 21
2.952500000000001
 31
0
  0
LINE
  8
0
 62
7
 10
7.273249999999997
 20
2.952500000000001
 30
0
 11
7.266499999999997
 21
2.9425
 31
0
  0
LINE
  8
0
 62
7
 10
7.266499999999997
 20
2.9425
 30
0
 11
7.264249999999997
 21
2.935
 31
0
  0
LINE
  8
0
 62
7
 10
7.264249999999997
 20
2.935
 30
0
 11
7.264249999999997
 21
2.915
 31
0
  0
LINE
  8
0
 62
7
 10
7.264249999999997
 20
2.915
 30
0
 11
7.266499999999997
 21
2.9075
 31
0
  0
LINE
  8
0
 62
7
 10
7.266499999999997
 20
2.9075
 30
0
 11
7.273249999999997
 21
2.8975
 31
0
  0
LINE
  8
0
 62
7
 10
7.273249999999997
 20
2.8975
 30
0
 11
7.279999999999998
 21
2.8925
 31
0
  0
LINE
  8
0
 62
7
 10
7.279999999999998
 20
2.8925
 30
0
 11
7.286749999999998
 21
2.890000000000001
 31
0
  0
LINE
  8
0
 62
7
 10
7.286749999999998
 20
2.890000000000001
 30
0
 11
7.295749999999997
 21
2.890000000000001
 31
0
  0
LINE
  8
0
 62
7
 10
7.295749999999997
 20
2.890000000000001
 30
0
 11
7.302499999999997
 21
2.8925
 31
0
  0
LINE
  8
0
 62
7
 10
7.302499999999997
 20
2.8925
 30
0
 11
7.309249999999998
 21
2.8975
 31
0
  0
LINE
  8
0
 62
7
 10
7.309249999999998
 20
2.8975
 30
0
 11
7.315999999999997
 21
2.9075
 31
0
  0
LINE
  8
0
 62
7
 10
7.315999999999997
 20
2.9075
 30
0
 11
7.318249999999998
 21
2.915
 31
0
  0
LINE
  8
0
 62
7
 10
7.318249999999998
 20
2.96
 30
0
 11
7.318249999999998
 21
2.935
 31
0
  0
LINE
  8
0
 62
7
 10
7.318249999999998
 20
2.8925
 30
0
 11
7.320499999999997
 21
2.890000000000001
 31
0
  0
LINE
  8
0
 62
7
 10
7.320499999999997
 20
2.890000000000001
 30
0
 11
7.322749999999997
 21
2.890000000000001
 31
0
  0
LINE
  8
0
 62
7
 10
7.318249999999998
 20
2.915
 30
0
 11
7.318249999999998
 21
2.8925
 31
0
  0
LINE
  8
0
 62
7
 10
7.318249999999998
 20
2.935
 30
0
 11
7.318249999999998
 21
2.915
 31
0
  0
LINE
  8
0
 62
7
 10
7.340749999999997
 20
2.890000000000001
 30
0
 11
7.340749999999997
 21
2.8925
 31
0
  0
LINE
  8
0
 62
7
 10
7.340749999999997
 20
2.8925
 30
0
 11
7.342999999999998
 21
2.8925
 31
0
  0
LINE
  8
0
 62
7
 10
7.342999999999998
 20
2.8925
 30
0
 11
7.342999999999998
 21
2.890000000000001
 31
0
  0
LINE
  8
0
 62
7
 10
7.342999999999998
 20
2.890000000000001
 30
0
 11
7.340749999999997
 21
2.890000000000001
 31
0
  0
LINE
  8
0
 62
7
 10
7.444249999999998
 20
2.96
 30
0
 11
7.471249999999997
 21
2.99
 31
0
  0
LINE
  8
0
 62
7
 10
7.471249999999997
 20
2.99
 30
0
 11
7.471249999999997
 21
2.890000000000001
 31
0
  0
LINE
  8
0
 62
7
 10
7.498249999999998
 20
2.965
 30
0
 11
7.500499999999999
 21
2.975
 31
0
  0
LINE
  8
0
 62
7
 10
7.500499999999999
 20
2.975
 30
0
 11
7.504999999999997
 21
2.9825
 31
0
  0
LINE
  8
0
 62
7
 10
7.504999999999997
 20
2.9825
 30
0
 11
7.511749999999998
 21
2.9875
 31
0
  0
LINE
  8
0
 62
7
 10
7.511749999999998
 20
2.9875
 30
0
 11
7.518499999999996
 21
2.99
 31
0
  0
LINE
  8
0
 62
7
 10
7.518499999999996
 20
2.99
 30
0
 11
7.531999999999998
 21
2.99
 31
0
  0
LINE
  8
0
 62
7
 10
7.531999999999998
 20
2.99
 30
0
 11
7.538749999999997
 21
2.9875
 31
0
  0
LINE
  8
0
 62
7
 10
7.538749999999997
 20
2.9875
 30
0
 11
7.545499999999997
 21
2.9825
 31
0
  0
LINE
  8
0
 62
7
 10
7.545499999999997
 20
2.9825
 30
0
 11
7.549999999999997
 21
2.975
 31
0
  0
LINE
  8
0
 62
7
 10
7.549999999999997
 20
2.975
 30
0
 11
7.552249999999997
 21
2.965
 31
0
  0
LINE
  8
0
 62
7
 10
7.552249999999997
 20
2.965
 30
0
 11
7.552249999999997
 21
2.915
 31
0
  0
LINE
  8
0
 62
7
 10
7.552249999999997
 20
2.915
 30
0
 11
7.549999999999997
 21
2.905
 31
0
  0
LINE
  8
0
 62
7
 10
7.549999999999997
 20
2.905
 30
0
 11
7.545499999999997
 21
2.8975
 31
0
  0
LINE
  8
0
 62
7
 10
7.545499999999997
 20
2.8975
 30
0
 11
7.538749999999997
 21
2.8925
 31
0
  0
LINE
  8
0
 62
7
 10
7.538749999999997
 20
2.8925
 30
0
 11
7.531999999999998
 21
2.890000000000001
 31
0
  0
LINE
  8
0
 62
7
 10
7.531999999999998
 20
2.890000000000001
 30
0
 11
7.518499999999996
 21
2.890000000000001
 31
0
  0
LINE
  8
0
 62
7
 10
7.518499999999996
 20
2.890000000000001
 30
0
 11
7.511749999999998
 21
2.8925
 31
0
  0
LINE
  8
0
 62
7
 10
7.511749999999998
 20
2.8925
 30
0
 11
7.504999999999997
 21
2.8975
 31
0
  0
LINE
  8
0
 62
7
 10
7.504999999999997
 20
2.8975
 30
0
 11
7.500499999999999
 21
2.905
 31
0
  0
LINE
  8
0
 62
7
 10
7.500499999999999
 20
2.905
 30
0
 11
7.498249999999998
 21
2.915
 31
0
  0
LINE
  8
0
 62
7
 10
7.498249999999998
 20
2.915
 30
0
 11
7.498249999999998
 21
2.965
 31
0
  0
LINE
  8
0
 62
7
 10
7.579249999999998
 20
2.965
 30
0
 11
7.581499999999997
 21
2.975
 31
0
  0
LINE
  8
0
 62
7
 10
7.581499999999997
 20
2.975
 30
0
 11
7.585999999999998
 21
2.9825
 31
0
  0
LINE
  8
0
 62
7
 10
7.585999999999998
 20
2.9825
 30
0
 11
7.592749999999997
 21
2.9875
 31
0
  0
LINE
  8
0
 62
7
 10
7.592749999999997
 20
2.9875
 30
0
 11
7.599499999999998
 21
2.99
 31
0
  0
LINE
  8
0
 62
7
 10
7.599499999999998
 20
2.99
 30
0
 11
7.612999999999999
 21
2.99
 31
0
  0
LINE
  8
0
 62
7
 10
7.612999999999999
 20
2.99
 30
0
 11
7.619749999999996
 21
2.9875
 31
0
  0
LINE
  8
0
 62
7
 10
7.619749999999996
 20
2.9875
 30
0
 11
7.626499999999997
 21
2.9825
 31
0
  0
LINE
  8
0
 62
7
 10
7.626499999999997
 20
2.9825
 30
0
 11
7.630999999999997
 21
2.975
 31
0
  0
LINE
  8
0
 62
7
 10
7.630999999999997
 20
2.975
 30
0
 11
7.633249999999997
 21
2.965
 31
0
  0
LINE
  8
0
 62
7
 10
7.633249999999997
 20
2.965
 30
0
 11
7.633249999999997
 21
2.915
 31
0
  0
LINE
  8
0
 62
7
 10
7.633249999999997
 20
2.915
 30
0
 11
7.630999999999997
 21
2.905
 31
0
  0
LINE
  8
0
 62
7
 10
7.630999999999997
 20
2.905
 30
0
 11
7.626499999999997
 21
2.8975
 31
0
  0
LINE
  8
0
 62
7
 10
7.626499999999997
 20
2.8975
 30
0
 11
7.619749999999996
 21
2.8925
 31
0
  0
LINE
  8
0
 62
7
 10
7.619749999999996
 20
2.8925
 30
0
 11
7.612999999999999
 21
2.890000000000001
 31
0
  0
LINE
  8
0
 62
7
 10
7.612999999999999
 20
2.890000000000001
 30
0
 11
7.599499999999998
 21
2.890000000000001
 31
0
  0
LINE
  8
0
 62
7
 10
7.599499999999998
 20
2.890000000000001
 30
0
 11
7.592749999999997
 21
2.8925
 31
0
  0
LINE
  8
0
 62
7
 10
7.592749999999997
 20
2.8925
 30
0
 11
7.585999999999998
 21
2.8975
 31
0
  0
LINE
  8
0
 62
7
 10
7.585999999999998
 20
2.8975
 30
0
 11
7.581499999999997
 21
2.905
 31
0
  0
LINE
  8
0
 62
7
 10
7.581499999999997
 20
2.905
 30
0
 11
7.579249999999998
 21
2.915
 31
0
  0
LINE
  8
0
 62
7
 10
7.579249999999998
 20
2.915
 30
0
 11
7.579249999999998
 21
2.965
 31
0
  0
LINE
  8
0
 62
7
 10
7.783999999999996
 20
2.9425
 30
0
 11
7.777249999999997
 21
2.952500000000001
 31
0
  0
LINE
  8
0
 62
7
 10
7.777249999999997
 20
2.952500000000001
 30
0
 11
7.770499999999998
 21
2.9575
 31
0
  0
LINE
  8
0
 62
7
 10
7.770499999999998
 20
2.9575
 30
0
 11
7.763749999999996
 21
2.96
 31
0
  0
LINE
  8
0
 62
7
 10
7.763749999999996
 20
2.96
 30
0
 11
7.754749999999998
 21
2.96
 31
0
  0
LINE
  8
0
 62
7
 10
7.754749999999998
 20
2.96
 30
0
 11
7.747999999999998
 21
2.9575
 31
0
  0
LINE
  8
0
 62
7
 10
7.747999999999998
 20
2.9575
 30
0
 11
7.741249999999997
 21
2.952500000000001
 31
0
  0
LINE
  8
0
 62
7
 10
7.741249999999997
 20
2.952500000000001
 30
0
 11
7.734499999999997
 21
2.9425
 31
0
  0
LINE
  8
0
 62
7
 10
7.734499999999997
 20
2.9425
 30
0
 11
7.732249999999997
 21
2.935
 31
0
  0
LINE
  8
0
 62
7
 10
7.732249999999997
 20
2.935
 30
0
 11
7.732249999999997
 21
2.915
 31
0
  0
LINE
  8
0
 62
7
 10
7.732249999999997
 20
2.915
 30
0
 11
7.734499999999997
 21
2.9075
 31
0
  0
LINE
  8
0
 62
7
 10
7.734499999999997
 20
2.9075
 30
0
 11
7.741249999999997
 21
2.8975
 31
0
  0
LINE
  8
0
 62
7
 10
7.741249999999997
 20
2.8975
 30
0
 11
7.747999999999998
 21
2.8925
 31
0
  0
LINE
  8
0
 62
7
 10
7.747999999999998
 20
2.8925
 30
0
 11
7.754749999999998
 21
2.890000000000001
 31
0
  0
LINE
  8
0
 62
7
 10
7.754749999999998
 20
2.890000000000001
 30
0
 11
7.763749999999996
 21
2.890000000000001
 31
0
  0
LINE
  8
0
 62
7
 10
7.763749999999996
 20
2.890000000000001
 30
0
 11
7.770499999999998
 21
2.8925
 31
0
  0
LINE
  8
0
 62
7
 10
7.770499999999998
 20
2.8925
 30
0
 11
7.777249999999997
 21
2.8975
 31
0
  0
LINE
  8
0
 62
7
 10
7.777249999999997
 20
2.8975
 30
0
 11
7.783999999999996
 21
2.9075
 31
0
  0
LINE
  8
0
 62
7
 10
7.842499999999998
 20
2.935
 30
0
 11
7.842499999999998
 21
2.890000000000001
 31
0
  0
LINE
  8
0
 62
7
 10
7.801999999999997
 20
2.96
 30
0
 11
7.801999999999997
 21
2.935
 31
0
  0
LINE
  8
0
 62
7
 10
7.801999999999997
 20
2.890000000000001
 30
0
 11
7.801999999999997
 21
2.935
 31
0
  0
LINE
  8
0
 62
7
 10
7.801999999999997
 20
2.935
 30
0
 11
7.804249999999998
 21
2.9475
 31
0
  0
LINE
  8
0
 62
7
 10
7.804249999999998
 20
2.9475
 30
0
 11
7.806499999999997
 21
2.952500000000001
 31
0
  0
LINE
  8
0
 62
7
 10
7.806499999999997
 20
2.952500000000001
 30
0
 11
7.810999999999997
 21
2.9575
 31
0
  0
LINE
  8
0
 62
7
 10
7.810999999999997
 20
2.9575
 30
0
 11
7.817749999999997
 21
2.96
 31
0
  0
LINE
  8
0
 62
7
 10
7.817749999999997
 20
2.96
 30
0
 11
7.826749999999997
 21
2.96
 31
0
  0
LINE
  8
0
 62
7
 10
7.826749999999997
 20
2.96
 30
0
 11
7.833499999999997
 21
2.9575
 31
0
  0
LINE
  8
0
 62
7
 10
7.833499999999997
 20
2.9575
 30
0
 11
7.837999999999998
 21
2.952500000000001
 31
0
  0
LINE
  8
0
 62
7
 10
7.837999999999998
 20
2.952500000000001
 30
0
 11
7.840249999999997
 21
2.9475
 31
0
  0
LINE
  8
0
 62
7
 10
7.840249999999997
 20
2.9475
 30
0
 11
7.842499999999998
 21
2.935
 31
0
  0
LINE
  8
0
 62
7
 10
7.842499999999998
 20
2.935
 30
0
 11
7.844749999999997
 21
2.9475
 31
0
  0
LINE
  8
0
 62
7
 10
7.844749999999997
 20
2.9475
 30
0
 11
7.846999999999998
 21
2.952500000000001
 31
0
  0
LINE
  8
0
 62
7
 10
7.846999999999998
 20
2.952500000000001
 30
0
 11
7.851499999999998
 21
2.9575
 31
0
  0
LINE
  8
0
 62
7
 10
7.851499999999998
 20
2.9575
 30
0
 11
7.858249999999997
 21
2.96
 31
0
  0
LINE
  8
0
 62
7
 10
7.858249999999997
 20
2.96
 30
0
 11
7.867249999999998
 21
2.96
 31
0
  0
LINE
  8
0
 62
7
 10
7.867249999999998
 20
2.96
 30
0
 11
7.873999999999997
 21
2.9575
 31
0
  0
LINE
  8
0
 62
7
 10
7.878499999999997
 20
2.952500000000001
 30
0
 11
7.873999999999997
 21
2.9575
 31
0
  0
LINE
  8
0
 62
7
 10
7.873999999999997
 20
2.9575
 30
0
 11
7.878499999999997
 21
2.952500000000001
 31
0
  0
LINE
  8
0
 62
7
 10
7.878499999999997
 20
2.952500000000001
 30
0
 11
7.880749999999998
 21
2.9475
 31
0
  0
LINE
  8
0
 62
7
 10
7.880749999999998
 20
2.9475
 30
0
 11
7.882999999999997
 21
2.935
 31
0
  0
LINE
  8
0
 62
7
 10
7.882999999999997
 20
2.935
 30
0
 11
7.882999999999997
 21
2.890000000000001
 31
0
  0
ARC
  8
0
 62
7
 10
6.310763709380479
 20
3.755763709380429
 30
0
 40
0.6399999999999937
 50
359.9316360037539
 51
90.06836399300941
  0
ARC
  8
0
 62
7
 10
5.529236290619566
 20
3.755763709380482
 30
0
 40
0.6399999999999919
 50
89.93163600378499
 51
180.0683639928635
  0
CIRCLE
  8
0
 62
7
 10
4.889236746194168
 20
3.25
 30
0
 40
0.05999999999999961
  0
DIMENSION
  8
0
  6
CONTINUOUS
 62
7
  2
*D1
  3
DMST_1
 10
7.424999999999998
 20
11.4444155027536
 30
0
 11
5.953634349628061
 21
11.4444155027536
 31
0
 12
0
 22
0
 32
0
 70
0
 13
4.414999999999998
 23
11.2
 33
0
 14
7.424999999999997
 24
11.2
 34
0
 53
0
  0
DIMENSION
  8
0
  6
CONTINUOUS
 62
7
  2
*D2
  3
DMST_2
 10
3.96783394651672
 20
4.870000000000001
 30
0
 11
3.96783394651672
 21
4.091280295804231
 31
0
 12
0
 22
0
 32
0
 70
0
 13
4.239999999999999
 23
3.25
 33
0
 14
4.239999999999999
 24
4.870000000000001
 34
0
 50
90
 53
0
  0
DIMENSION
  8
0
  6
CONTINUOUS
 62
7
  2
*D3
  3
DMST_2
 10
4.415000000000001
 20
5.725310341792991
 30
0
 11
5.885549764378531
 21
5.725310341792991
 31
0
 12
0
 22
0
 32
0
 70
0
 13
7.424999999999999
 23
5.389999999999999
 33
0
 14
4.414999999999999
 24
5.389999999999999
 34
0
 53
0
  0
DIMENSION
  8
0
  6
CONTINUOUS
 62
7
  2
*D4
  3
DMST_2
 10
8.03021419973877
 20
4.87
 30
0
 11
8.03021419973877
 21
4.14801745017884
 31
0
 12
0
 22
0
 32
0
 70
0
 13
7.599999999999999
 23
3.35
 33
0
 14
7.599999999999999
 24
4.870000000000001
 34
0
 50
90
 53
0
  0
INSERT
  8
0
  2
*D0
 10
0
 20
0
 30
0
  0
ENDSEC
  0
EOF
