  0
SECTION
  2
HEADER
  9
$ACADVER
  1
AC1009
  9
$INSBASE
 10
0
 20
0
  9
$EXTMIN
 10
0.60729609223324
 20
2.889999999999999
  9
$EXTMAX
 10
8.25
 20
11.4823401699028
  9
$LIMMIN
 10
0.60729609223324
 20
2.889999999999999
  9
$LIMMAX
 10
8.25
 20
11.4823401699028
  9
$VIEWCTR
 10
10
 20
10
  9
$VIEWSIZE
 40
10
  9
$SNAPMODE
 70
0
  9
$SNAPUNIT
 10
1
 20
1
  9
$SNAPBASE
 10
0
 20
0
  9
$SNAPANG
 50
0
  9
$SNAPSTYLE
 70
0
  9
$SNAPISOPAIR
 70
0
  9
$GRIDMODE
 70
0
  9
$GRIDUNIT
 10
0
 20
0
  9
$ORTHOMODE
 70
0
  9
$REGENMODE
 70
1
  9
$FILLMODE
 70
1
  9
$QTEXTMODE
 70
0
  9
$DRAGMODE
 70
2
  9
$LTSCALE
 40
1
  9
$OSMODE
 70
0
  9
$ATTMODE
 70
1
  9
$TEXTSIZE
 40
3.5
  9
$TRACEWID
 40
0.5
  9
$TEXTSTYLE
  7
STANDARD
  9
$CLAYER
  8
0
  9
$CELTYPE
  6
BYLAYER
  9
$CECOLOR
 62
256
  9
$DIMSCALE
 40
1
  9
$DIMASZ
 40
0.18
  9
$DIMEXO
 40
0.0625
  9
$DIMDLI
 40
0.38
  9
$DIMRND
 40
0
  9
$DIMDLE
 40
0
  9
$DIMEXE
 40
0.18
  9
$DIMTP
 40
0
  9
$DIMTM
 40
0
  9
$DIMTXT
 40
0.18
  9
$DIMCEN
 40
0.09
  9
$DIMTSZ
 40
0
  9
$DIMTOL
 70
0
  9
$DIMLIM
 70
0
  9
$DIMTIH
 70
1
  9
$DIMTOH
 70
1
  9
$DIMSE1
 70
0
  9
$DIMSE2
 70
0
  9
$DIMTAD
 70
0
  9
$DIMZIN
 70
0
  9
$DIMBLK
  1

  9
$DIMASO
 70
1
  9
$DIMSHO
 70
1
  9
$DIMPOST
  1

  9
$DIMAPOST
  1

  9
$DIMALT
 70
0
  9
$DIMALTD
 70
2
  9
$DIMALTF
 40
25.4
  9
$DIMLFAC
 40
1
  9
$DIMTOFL
 70
0
  9
$DIMTVP
 40
0
  9
$DIMTIX
 70
0
  9
$DIMSOXD
 70
0
  9
$DIMSAH
 70
0
  9
$DIMBLK1
  1

  9
$DIMBLK2
  1

  9
$DIMSTYLE
  2
*UNNAMED
  9
$DIMCLRD
 70
0
  9
$DIMCLRE
 70
0
  9
$DIMCLRT
 70
0
  9
$DIMTFAC
 40
1
  9
$DIMGAP
 40
0.09
  9
$LUNITS
 70
2
  9
$LUPREC
 70
4
  9
$AXISMODE
 70
0
  9
$AXISUNIT
 10
0
 20
0
  9
$SKETCHINC
 40
0.1
  9
$FILLETRAD
 40
2
  9
$AUNITS
 70
0
  9
$AUPREC
 70
0
  9
$MENU
  1
ACAD
  9
$ELEVATION
 40
0
  9
$THICKNESS
 40
0
  9
$VIEWDIR
 10
0
 20
0
 30
1
  9
$LIMCHECK
 70
0
  9
$BLIPMODE
 70
1
  9
$CHAMFERA
 40
0
  9
$CHAMFERB
 40
0
  9
$FASTZOOM
 70
1
  9
$SKPOLY
 70
0
  9
$ANGBASE
 50
0
  9
$ANGDIR
 70
0
  9
$PDMODE
 70
0
  9
$PDSIZE
 40
0
  9
$PLINEWID
 40
0
  9
$COORDS
 70
2
  0
ENDSEC
  0
SECTION
  2
TABLES
  0
TABLE
  2
DIMSTYLE
 70
2
  0
DIMSTYLE
  2
DMST_1
 70
0
  3

  4

  5

  6

  7

 40
1
 41
0.1
 42
0
 43
0.7
 44
0.2
 45
0
 46
0
 47
0
 48
0
140
0.1
141
0
142
0.1
143
25.4
144
1
145
0
146
1
147
0.2
 71
0
 72
0
 73
0
 74
0
 75
0
 76
0
 77
0
 78
9
170
0
171
2
172
0
173
0
174
0
175
0
176
7
177
7
178
7
  0
DIMSTYLE
  2
DMST_2
 70
0
  3

  4

  5

  6

  7

 40
1
 41
0.1
 42
0
 43
0.7
 44
0.2
 45
0
 46
0
 47
0
 48
0
140
0.1
141
0
142
0.1
143
25.4
144
1
145
0
146
1
147
0.25
 71
0
 72
0
 73
0
 74
0
 75
0
 76
0
 77
0
 78
9
170
0
171
2
172
0
173
0
174
0
175
0
176
7
177
7
178
7
  0
ENDTAB
  0
TABLE
  2
LTYPE
 70
9
  0
LTYPE
  2
CONTINUOUS
 70
64
  3
Solid line
 72
65
 73
0
 40
0
  0
LTYPE
  2
BORDER
 70
64
  3
__ __ . __ __ .
 72
65
 73
6
 40
0.3956998762455237
 49
0.1130571074987211
 49
-0.05652855374936053
 49
0.1130571074987211
 49
-0.05652855374936053
 49
0
 49
-0.05652855374936053
  0
LTYPE
  2
CENTER
 70
64
  3
____ _ ____ _
 72
65
 73
4
 40
0.4522284299948843
 49
0.2826427687468027
 49
-0.05652855374936053
 49
0.05652855374936053
 49
-0.05652855374936053
  0
LTYPE
  2
DASHDOT
 70
64
  3
__ . __ . __ .
 72
65
 73
4
 40
0.2261142149974421
 49
0.1130571074987211
 49
-0.05652855374936053
 49
0
 49
-0.05652855374936053
  0
LTYPE
  2
DASHED
 70
64
  3
__ __ __ __ __
 72
65
 73
2
 40
0.1695856612480816
 49
0.1130571074987211
 49
-0.05652855374936053
  0
LTYPE
  2
DIVIDE
 70
64
  3
__ . . __ . . 
 72
65
 73
6
 40
0.2826427687468027
 49
0.1130571074987211
 49
-0.05652855374936053
 49
0
 49
-0.05652855374936053
 49
0
 49
-0.05652855374936053
  0
LTYPE
  2
DOT
 70
64
  3
..............
 72
65
 73
4
 40
0.1130571074987211
 49
0
 49
-0.05652855374936053
 49
0
 49
-0.05652855374936053
  0
LTYPE
  2
HIDDEN
 70
64
  3
_ _ _ _ _ _ _
 72
65
 73
2
 40
0.0847928306240408
 49
0.05652855374936053
 49
-0.02826427687468027
  0
LTYPE
  2
PHANTOM
 70
64
  3
_____ _ _ _____ _ _ 
 72
65
 73
6
 40
0.5652855374936053
 49
0.2826427687468027
 49
-0.05652855374936053
 49
0.05652855374936053
 49
-0.05652855374936053
 49
0.05652855374936053
 49
-0.05652855374936053
  0
ENDTAB
  0
TABLE
  2
LAYER
 70
2
  0
LAYER
  2
0
 70
0
 62
7
  6
CONTINUOUS
  0
ENDTAB
  0
TABLE
  2
STYLE
 70
4
  0
STYLE
  2
STANDARD
 70
0
 40
0
 41
1
 50
0
 71
0
 42
3.5
  3
txt
  4

  0
STYLE
  2
SIMPLEX
 70
0
 40
0
 41
1
 50
0
 71
0
 42
3.5
  3
simplex
  4

  0
STYLE
  2
COMPLEX
 70
0
 40
0
 41
1
 50
0
 71
0
 42
3.5
  3
complex
  4

  0
STYLE
  2
ITALIC
 70
0
 40
0
 41
1
 50
0
 71
0
 42
3.5
  3
italic
  4

  0
ENDTAB
  0
TABLE
  2
VIEW
 70
0
  0
ENDTAB
  0
ENDSEC
  0
SECTION
  2
BLOCKS
  0
BLOCK
  8
0
  2
*X0
 70
1
 10
0
 20
0
 30
0
  0
LINE
  8
0
 62
7
 10
1.099999999999999
 20
7.994291116568838
 30
0
 11
1.205708883431155
 21
8.099999999999993
 31
0
  0
LINE
  8
0
 62
7
 10
1.26784091778712
 20
7.949999999999992
 30
0
 11
1.275
 21
7.957159082212874
 31
0
  0
LINE
  8
0
 62
7
 10
1.161774900609137
 20
7.949999999999992
 30
0
 11
1.274999999999999
 21
8.063225099390854
 31
0
  0
ENDBLK
  8
0
  0
BLOCK
  8
0
  2
*X1
 70
1
 10
0
 20
0
 30
0
  0
LINE
  8
0
 62
7
 10
1.1
 20
10.75200756319637
 30
0
 11
1.197992436803617
 21
10.84999999999999
 31
0
  0
LINE
  8
0
 62
7
 10
1.1
 20
10.5398755288404
 30
0
 11
1.275
 21
10.7148755288404
 31
0
  0
LINE
  8
0
 62
7
 10
1.1
 20
10.32774349448444
 30
0
 11
1.275
 21
10.50274349448444
 31
0
  0
LINE
  8
0
 62
7
 10
1.1
 20
10.11561146012848
 30
0
 11
1.275
 21
10.29061146012848
 31
0
  0
LINE
  8
0
 62
7
 10
1.1
 20
9.903479425772513
 30
0
 11
1.275
 21
10.07847942577251
 31
0
  0
LINE
  8
0
 62
7
 10
1.1
 20
9.691347391416549
 30
0
 11
1.275
 21
9.866347391416548
 31
0
  0
LINE
  8
0
 62
7
 10
1.1
 20
9.479215357060585
 30
0
 11
1.275
 21
9.654215357060584
 31
0
  0
LINE
  8
0
 62
7
 10
1.1
 20
9.267083322704622
 30
0
 11
1.275
 21
9.442083322704621
 31
0
  0
LINE
  8
0
 62
7
 10
1.1
 20
9.054951288348658
 30
0
 11
1.275
 21
9.229951288348657
 31
0
  0
LINE
  8
0
 62
7
 10
1.1
 20
8.842819253992694
 30
0
 11
1.275
 21
9.017819253992693
 31
0
  0
LINE
  8
0
 62
7
 10
1.1
 20
8.63068721963673
 30
0
 11
1.275
 21
8.805687219636729
 31
0
  0
LINE
  8
0
 62
7
 10
1.1
 20
8.418555185280766
 30
0
 11
1.275
 21
8.593555185280765
 31
0
  0
LINE
  8
0
 62
7
 10
1.193576849075192
 20
8.299999999999992
 30
0
 11
1.275
 21
8.381423150924801
 31
0
  0
LINE
  8
0
 62
7
 10
1.100000000000001
 20
10.64594154601838
 30
0
 11
1.274999999999999
 21
10.82094154601838
 31
0
  0
LINE
  8
0
 62
7
 10
1.100000000000001
 20
10.43380951166242
 30
0
 11
1.274999999999999
 21
10.60880951166242
 31
0
  0
LINE
  8
0
 62
7
 10
1.100000000000001
 20
10.22167747730646
 30
0
 11
1.274999999999999
 21
10.39667747730646
 31
0
  0
LINE
  8
0
 62
7
 10
1.100000000000001
 20
10.00954544295049
 30
0
 11
1.274999999999999
 21
10.18454544295049
 31
0
  0
LINE
  8
0
 62
7
 10
1.100000000000001
 20
9.797413408594529
 30
0
 11
1.274999999999999
 21
9.972413408594528
 31
0
  0
LINE
  8
0
 62
7
 10
1.100000000000001
 20
9.585281374238566
 30
0
 11
1.274999999999999
 21
9.760281374238565
 31
0
  0
LINE
  8
0
 62
7
 10
1.100000000000001
 20
9.373149339882602
 30
0
 11
1.274999999999999
 21
9.548149339882601
 31
0
  0
LINE
  8
0
 62
7
 10
1.100000000000001
 20
9.161017305526638
 30
0
 11
1.274999999999999
 21
9.336017305526637
 31
0
  0
LINE
  8
0
 62
7
 10
1.100000000000001
 20
8.948885271170674
 30
0
 11
1.274999999999999
 21
9.123885271170673
 31
0
  0
LINE
  8
0
 62
7
 10
1.100000000000001
 20
8.73675323681471
 30
0
 11
1.274999999999999
 21
8.911753236814709
 31
0
  0
LINE
  8
0
 62
7
 10
1.100000000000001
 20
8.524621202458746
 30
0
 11
1.274999999999999
 21
8.699621202458745
 31
0
  0
LINE
  8
0
 62
7
 10
1.100000000000001
 20
8.312489168102783
 30
0
 11
1.274999999999999
 21
8.487489168102782
 31
0
  0
ENDBLK
  8
0
  0
BLOCK
  8
0
  2
*X2
 70
1
 10
0
 20
0
 30
0
  0
LINE
  8
0
 62
7
 10
1.100000000000001
 20
11.1762716319083
 30
0
 11
1.123728368091689
 21
11.19999999999999
 31
0
  0
LINE
  8
0
 62
7
 10
1.185860402447653
 20
11.04999999999999
 30
0
 11
1.274999999999999
 21
11.13913959755233
 31
0
  0
LINE
  8
0
 62
7
 10
1.1
 20
11.07020561473032
 30
0
 11
1.229794385269672
 21
11.19999999999999
 31
0
  0
ENDBLK
  8
0
  0
BLOCK
  8
0
  2
*X3
 70
1
 10
0
 20
0
 30
0
  0
LINE
  8
0
 62
7
 10
4.449821433126584
 20
7.949999999999993
 30
0
 11
4.585
 21
8.08517856687341
 31
0
  0
LINE
  8
0
 62
7
 10
4.409999999999999
 20
8.016244584051391
 30
0
 11
4.4937554159486
 21
8.099999999999991
 31
0
  0
LINE
  8
0
 62
7
 10
4.555887450304565
 20
7.949999999999992
 30
0
 11
4.584999999999999
 21
7.979112549695426
 31
0
  0
ENDBLK
  8
0
  0
BLOCK
  8
0
  2
*X4
 70
1
 10
0
 20
0
 30
0
  0
LINE
  8
0
 62
7
 10
4.409999999999999
 20
10.66789501350094
 30
0
 11
4.585000000000001
 21
10.84289501350094
 31
0
  0
LINE
  8
0
 62
7
 10
4.409999999999999
 20
10.45576297914497
 30
0
 11
4.585000000000001
 21
10.63076297914498
 31
0
  0
LINE
  8
0
 62
7
 10
4.409999999999999
 20
10.24363094478901
 30
0
 11
4.585000000000001
 21
10.41863094478901
 31
0
  0
LINE
  8
0
 62
7
 10
4.409999999999999
 20
10.03149891043305
 30
0
 11
4.585000000000001
 21
10.20649891043305
 31
0
  0
LINE
  8
0
 62
7
 10
4.409999999999999
 20
9.819366876077083
 30
0
 11
4.585000000000001
 21
9.994366876077084
 31
0
  0
LINE
  8
0
 62
7
 10
4.409999999999999
 20
9.60723484172112
 30
0
 11
4.585000000000001
 21
9.78223484172112
 31
0
  0
LINE
  8
0
 62
7
 10
4.409999999999999
 20
9.395102807365156
 30
0
 11
4.585000000000001
 21
9.570102807365156
 31
0
  0
LINE
  8
0
 62
7
 10
4.409999999999999
 20
9.182970773009192
 30
0
 11
4.585000000000001
 21
9.357970773009193
 31
0
  0
LINE
  8
0
 62
7
 10
4.409999999999999
 20
8.970838738653228
 30
0
 11
4.585000000000001
 21
9.145838738653229
 31
0
  0
LINE
  8
0
 62
7
 10
4.409999999999999
 20
8.758706704297264
 30
0
 11
4.585000000000001
 21
8.933706704297265
 31
0
  0
LINE
  8
0
 62
7
 10
4.409999999999999
 20
8.5465746699413
 30
0
 11
4.585000000000001
 21
8.721574669941301
 31
0
  0
LINE
  8
0
 62
7
 10
4.409999999999999
 20
8.334442635585336
 30
0
 11
4.585000000000001
 21
8.509442635585337
 31
0
  0
LINE
  8
0
 62
7
 10
4.41
 20
10.77396103067892
 30
0
 11
4.486038969321064
 21
10.84999999999999
 31
0
  0
LINE
  8
0
 62
7
 10
4.41
 20
10.56182899632296
 30
0
 11
4.585
 21
10.73682899632296
 31
0
  0
LINE
  8
0
 62
7
 10
4.41
 20
10.34969696196699
 30
0
 11
4.585
 21
10.52469696196699
 31
0
  0
LINE
  8
0
 62
7
 10
4.41
 20
10.13756492761103
 30
0
 11
4.585
 21
10.31256492761103
 31
0
  0
LINE
  8
0
 62
7
 10
4.41
 20
9.925432893255067
 30
0
 11
4.585
 21
10.10043289325507
 31
0
  0
LINE
  8
0
 62
7
 10
4.41
 20
9.713300858899103
 30
0
 11
4.585
 21
9.888300858899102
 31
0
  0
LINE
  8
0
 62
7
 10
4.41
 20
9.501168824543139
 30
0
 11
4.585
 21
9.676168824543138
 31
0
  0
LINE
  8
0
 62
7
 10
4.41
 20
9.289036790187176
 30
0
 11
4.585
 21
9.464036790187174
 31
0
  0
LINE
  8
0
 62
7
 10
4.41
 20
9.076904755831212
 30
0
 11
4.585
 21
9.251904755831211
 31
0
  0
LINE
  8
0
 62
7
 10
4.41
 20
8.864772721475248
 30
0
 11
4.585
 21
9.039772721475247
 31
0
  0
LINE
  8
0
 62
7
 10
4.41
 20
8.652640687119284
 30
0
 11
4.585
 21
8.827640687119283
 31
0
  0
LINE
  8
0
 62
7
 10
4.41
 20
8.44050865276332
 30
0
 11
4.585
 21
8.615508652763319
 31
0
  0
LINE
  8
0
 62
7
 10
4.481623381592636
 20
8.299999999999992
 30
0
 11
4.585
 21
8.403376618407355
 31
0
  0
ENDBLK
  8
0
  0
BLOCK
  8
0
  2
*X5
 70
1
 10
0
 20
0
 30
0
  0
LINE
  8
0
 62
7
 10
4.409999999999999
 20
11.09215908221287
 30
0
 11
4.517840917787119
 21
11.19999999999999
 31
0
  0
LINE
  8
0
 62
7
 10
4.579972952143081
 20
11.04999999999999
 30
0
 11
4.584999999999999
 21
11.05502704785691
 31
0
  0
LINE
  8
0
 62
7
 10
4.409999999999999
 20
11.19822509939085
 30
0
 11
4.411774900609136
 21
11.19999999999999
 31
0
  0
LINE
  8
0
 62
7
 10
4.4739069349651
 20
11.04999999999999
 30
0
 11
4.584999999999999
 21
11.16109306503489
 31
0
  0
ENDBLK
  8
0
  0
BLOCK
  8
0
  2
*X6
 70
1
 10
0
 20
0
 30
0
  0
LINE
  8
0
 62
7
  6
DASHED
 10
0.9500000000000002
 20
8.268555185280766
 30
0
 11
0.9814448147192265
 21
8.299999999999992
 31
0
  0
LINE
  8
0
 62
7
  6
DASHED
 10
0.9935768490751911
 20
8.099999999999993
 30
0
 11
1.193576849075191
 21
8.299999999999992
 31
0
  0
LINE
  8
0
 62
7
  6
DASHED
 10
1.205708883431155
 20
8.099999999999993
 30
0
 11
1.405708883431155
 21
8.299999999999992
 31
0
  0
LINE
  8
0
 62
7
  6
DASHED
 10
1.41784091778712
 20
8.099999999999993
 30
0
 11
1.617840917787119
 21
8.299999999999992
 31
0
  0
LINE
  8
0
 62
7
  6
DASHED
 10
1.629972952143084
 20
8.099999999999993
 30
0
 11
1.829972952143084
 21
8.299999999999992
 31
0
  0
LINE
  8
0
 62
7
  6
DASHED
 10
1.842104986499048
 20
8.099999999999993
 30
0
 11
2.042104986499048
 21
8.299999999999992
 31
0
  0
LINE
  8
0
 62
7
  6
DASHED
 10
2.054237020855012
 20
8.099999999999993
 30
0
 11
2.254237020855012
 21
8.299999999999992
 31
0
  0
LINE
  8
0
 62
7
  6
DASHED
 10
2.266369055210977
 20
8.099999999999993
 30
0
 11
2.466369055210976
 21
8.299999999999992
 31
0
  0
LINE
  8
0
 62
7
  6
DASHED
 10
2.478501089566941
 20
8.099999999999993
 30
0
 11
2.678501089566941
 21
8.299999999999992
 31
0
  0
LINE
  8
0
 62
7
  6
DASHED
 10
2.690633123922905
 20
8.099999999999993
 30
0
 11
2.890633123922905
 21
8.299999999999992
 31
0
  0
LINE
  8
0
 62
7
  6
DASHED
 10
2.90276515827887
 20
8.099999999999993
 30
0
 11
3.102765158278869
 21
8.299999999999992
 31
0
  0
LINE
  8
0
 62
7
  6
DASHED
 10
3.114897192634834
 20
8.099999999999993
 30
0
 11
3.314897192634834
 21
8.299999999999992
 31
0
  0
LINE
  8
0
 62
7
  6
DASHED
 10
3.327029226990798
 20
8.099999999999993
 30
0
 11
3.527029226990798
 21
8.299999999999992
 31
0
  0
LINE
  8
0
 62
7
  6
DASHED
 10
3.539161261346762
 20
8.099999999999993
 30
0
 11
3.739161261346762
 21
8.299999999999992
 31
0
  0
LINE
  8
0
 62
7
  6
DASHED
 10
3.751293295702727
 20
8.099999999999993
 30
0
 11
3.951293295702726
 21
8.299999999999992
 31
0
  0
LINE
  8
0
 62
7
  6
DASHED
 10
3.963425330058691
 20
8.099999999999993
 30
0
 11
4.163425330058691
 21
8.299999999999992
 31
0
  0
LINE
  8
0
 62
7
  6
DASHED
 10
4.175557364414655
 20
8.099999999999993
 30
0
 11
4.375557364414655
 21
8.299999999999992
 31
0
  0
LINE
  8
0
 62
7
  6
DASHED
 10
4.387689398770619
 20
8.099999999999993
 30
0
 11
4.587689398770618
 21
8.299999999999992
 31
0
  0
LINE
  8
0
 62
7
  6
DASHED
 10
4.599821433126583
 20
8.099999999999993
 30
0
 11
4.735
 21
8.23517856687341
 31
0
  0
LINE
  8
0
 62
7
 10
0.9500000000000011
 20
8.162489168102784
 30
0
 11
1.08751083189721
 21
8.299999999999994
 31
0
  0
LINE
  8
0
 62
7
 10
1.099642866253174
 20
8.099999999999993
 30
0
 11
1.299642866253174
 21
8.299999999999994
 31
0
  0
LINE
  8
0
 62
7
 10
1.311774900609139
 20
8.099999999999993
 30
0
 11
1.511774900609138
 21
8.299999999999994
 31
0
  0
LINE
  8
0
 62
7
 10
1.523906934965103
 20
8.099999999999993
 30
0
 11
1.723906934965103
 21
8.299999999999994
 31
0
  0
LINE
  8
0
 62
7
 10
1.736038969321067
 20
8.099999999999993
 30
0
 11
1.936038969321067
 21
8.299999999999994
 31
0
  0
LINE
  8
0
 62
7
 10
1.948171003677031
 20
8.099999999999993
 30
0
 11
2.148171003677031
 21
8.299999999999994
 31
0
  0
LINE
  8
0
 62
7
 10
2.160303038032996
 20
8.099999999999993
 30
0
 11
2.360303038032995
 21
8.299999999999994
 31
0
  0
LINE
  8
0
 62
7
 10
2.37243507238896
 20
8.099999999999993
 30
0
 11
2.57243507238896
 21
8.299999999999994
 31
0
  0
LINE
  8
0
 62
7
 10
2.584567106744924
 20
8.099999999999993
 30
0
 11
2.784567106744924
 21
8.299999999999994
 31
0
  0
LINE
  8
0
 62
7
 10
2.796699141100889
 20
8.099999999999993
 30
0
 11
2.996699141100888
 21
8.299999999999994
 31
0
  0
LINE
  8
0
 62
7
 10
3.008831175456853
 20
8.099999999999993
 30
0
 11
3.208831175456853
 21
8.299999999999994
 31
0
  0
LINE
  8
0
 62
7
 10
3.220963209812817
 20
8.099999999999993
 30
0
 11
3.420963209812817
 21
8.299999999999994
 31
0
  0
LINE
  8
0
 62
7
 10
3.433095244168781
 20
8.099999999999993
 30
0
 11
3.633095244168781
 21
8.299999999999994
 31
0
  0
LINE
  8
0
 62
7
 10
3.645227278524746
 20
8.099999999999993
 30
0
 11
3.845227278524745
 21
8.299999999999994
 31
0
  0
LINE
  8
0
 62
7
 10
3.85735931288071
 20
8.099999999999993
 30
0
 11
4.05735931288071
 21
8.299999999999994
 31
0
  0
LINE
  8
0
 62
7
 10
4.069491347236674
 20
8.099999999999993
 30
0
 11
4.269491347236674
 21
8.299999999999994
 31
0
  0
LINE
  8
0
 62
7
 10
4.281623381592638
 20
8.099999999999993
 30
0
 11
4.481623381592637
 21
8.299999999999994
 31
0
  0
LINE
  8
0
 62
7
 10
4.493755415948602
 20
8.099999999999993
 30
0
 11
4.693755415948601
 21
8.299999999999994
 31
0
  0
LINE
  8
0
 62
7
 10
4.705887450304566
 20
8.099999999999993
 30
0
 11
4.734999999999999
 21
8.129112549695426
 31
0
  0
ENDBLK
  8
0
  0
BLOCK
  8
0
  2
*X7
 70
1
 10
0
 20
0
 30
0
  0
LINE
  8
0
 62
7
  6
DASHED
 10
0.9500000000000002
 20
11.0262716319083
 30
0
 11
0.9737283680916904
 21
11.04999999999999
 31
0
  0
LINE
  8
0
 62
7
  6
DASHED
 10
0.9858604024476549
 20
10.84999999999999
 30
0
 11
1.185860402447655
 21
11.04999999999999
 31
0
  0
LINE
  8
0
 62
7
  6
DASHED
 10
1.197992436803619
 20
10.84999999999999
 30
0
 11
1.397992436803619
 21
11.04999999999999
 31
0
  0
LINE
  8
0
 62
7
  6
DASHED
 10
1.410124471159584
 20
10.84999999999999
 30
0
 11
1.610124471159583
 21
11.04999999999999
 31
0
  0
LINE
  8
0
 62
7
  6
DASHED
 10
1.622256505515548
 20
10.84999999999999
 30
0
 11
1.822256505515548
 21
11.04999999999999
 31
0
  0
LINE
  8
0
 62
7
  6
DASHED
 10
1.834388539871512
 20
10.84999999999999
 30
0
 11
2.034388539871512
 21
11.04999999999999
 31
0
  0
LINE
  8
0
 62
7
  6
DASHED
 10
2.046520574227476
 20
10.84999999999999
 30
0
 11
2.246520574227476
 21
11.04999999999999
 31
0
  0
LINE
  8
0
 62
7
  6
DASHED
 10
2.258652608583441
 20
10.84999999999999
 30
0
 11
2.45865260858344
 21
11.04999999999999
 31
0
  0
LINE
  8
0
 62
7
  6
DASHED
 10
2.470784642939405
 20
10.84999999999999
 30
0
 11
2.670784642939405
 21
11.04999999999999
 31
0
  0
LINE
  8
0
 62
7
  6
DASHED
 10
2.682916677295369
 20
10.84999999999999
 30
0
 11
2.882916677295369
 21
11.04999999999999
 31
0
  0
LINE
  8
0
 62
7
  6
DASHED
 10
2.895048711651333
 20
10.84999999999999
 30
0
 11
3.095048711651333
 21
11.04999999999999
 31
0
  0
LINE
  8
0
 62
7
  6
DASHED
 10
3.107180746007298
 20
10.84999999999999
 30
0
 11
3.307180746007298
 21
11.04999999999999
 31
0
  0
LINE
  8
0
 62
7
  6
DASHED
 10
3.319312780363262
 20
10.84999999999999
 30
0
 11
3.519312780363262
 21
11.04999999999999
 31
0
  0
LINE
  8
0
 62
7
  6
DASHED
 10
3.531444814719226
 20
10.84999999999999
 30
0
 11
3.731444814719226
 21
11.04999999999999
 31
0
  0
LINE
  8
0
 62
7
  6
DASHED
 10
3.743576849075191
 20
10.84999999999999
 30
0
 11
3.94357684907519
 21
11.04999999999999
 31
0
  0
LINE
  8
0
 62
7
  6
DASHED
 10
3.955708883431155
 20
10.84999999999999
 30
0
 11
4.155708883431155
 21
11.04999999999999
 31
0
  0
LINE
  8
0
 62
7
  6
DASHED
 10
4.167840917787119
 20
10.84999999999999
 30
0
 11
4.367840917787118
 21
11.04999999999999
 31
0
  0
LINE
  8
0
 62
7
  6
DASHED
 10
4.379972952143083
 20
10.84999999999999
 30
0
 11
4.579972952143082
 21
11.04999999999999
 31
0
  0
LINE
  8
0
 62
7
  6
DASHED
 10
4.592104986499047
 20
10.84999999999999
 30
0
 11
4.734999999999999
 21
10.99289501350094
 31
0
  0
LINE
  8
0
 62
7
 10
0.9500000000000002
 20
10.92020561473032
 30
0
 11
1.079794385269673
 21
11.04999999999999
 31
0
  0
LINE
  8
0
 62
7
 10
1.091926419625639
 20
10.84999999999999
 30
0
 11
1.291926419625637
 21
11.04999999999999
 31
0
  0
LINE
  8
0
 62
7
 10
1.304058453981603
 20
10.84999999999999
 30
0
 11
1.504058453981601
 21
11.04999999999999
 31
0
  0
LINE
  8
0
 62
7
 10
1.516190488337568
 20
10.84999999999999
 30
0
 11
1.716190488337566
 21
11.04999999999999
 31
0
  0
LINE
  8
0
 62
7
 10
1.728322522693532
 20
10.84999999999999
 30
0
 11
1.92832252269353
 21
11.04999999999999
 31
0
  0
LINE
  8
0
 62
7
 10
1.940454557049496
 20
10.84999999999999
 30
0
 11
2.140454557049494
 21
11.04999999999999
 31
0
  0
LINE
  8
0
 62
7
 10
2.15258659140546
 20
10.84999999999999
 30
0
 11
2.352586591405458
 21
11.04999999999999
 31
0
  0
LINE
  8
0
 62
7
 10
2.364718625761425
 20
10.84999999999999
 30
0
 11
2.564718625761423
 21
11.04999999999999
 31
0
  0
LINE
  8
0
 62
7
 10
2.576850660117389
 20
10.84999999999999
 30
0
 11
2.776850660117387
 21
11.04999999999999
 31
0
  0
LINE
  8
0
 62
7
 10
2.788982694473353
 20
10.84999999999999
 30
0
 11
2.988982694473351
 21
11.04999999999999
 31
0
  0
LINE
  8
0
 62
7
 10
3.001114728829318
 20
10.84999999999999
 30
0
 11
3.201114728829316
 21
11.04999999999999
 31
0
  0
LINE
  8
0
 62
7
 10
3.213246763185282
 20
10.84999999999999
 30
0
 11
3.41324676318528
 21
11.04999999999999
 31
0
  0
LINE
  8
0
 62
7
 10
3.425378797541246
 20
10.84999999999999
 30
0
 11
3.625378797541244
 21
11.04999999999999
 31
0
  0
LINE
  8
0
 62
7
 10
3.63751083189721
 20
10.84999999999999
 30
0
 11
3.837510831897208
 21
11.04999999999999
 31
0
  0
LINE
  8
0
 62
7
 10
3.849642866253175
 20
10.84999999999999
 30
0
 11
4.049642866253173
 21
11.04999999999999
 31
0
  0
LINE
  8
0
 62
7
 10
4.061774900609139
 20
10.84999999999999
 30
0
 11
4.261774900609137
 21
11.04999999999999
 31
0
  0
LINE
  8
0
 62
7
 10
4.273906934965103
 20
10.84999999999999
 30
0
 11
4.4739069349651
 21
11.04999999999999
 31
0
  0
LINE
  8
0
 62
7
 10
4.486038969321067
 20
10.84999999999999
 30
0
 11
4.686038969321064
 21
11.04999999999999
 31
0
  0
LINE
  8
0
 62
7
 10
4.698171003677031
 20
10.84999999999999
 30
0
 11
4.735
 21
10.88682899632296
 31
0
  0
ENDBLK
  8
0
  0
BLOCK
  8
0
  2
*X8
 70
1
 10
0
 20
0
 30
0
  0
LINE
  8
0
 62
7
 10
7.960000000000002
 20
8.066066017177983
 30
0
 11
7.99393398282201
 21
8.099999999999993
 31
0
  0
LINE
  8
0
 62
7
 10
8.056066017177976
 20
7.949999999999991
 30
0
 11
8.200000000000001
 21
8.093933982822016
 31
0
  0
LINE
  8
0
 62
7
 10
7.960000000000001
 20
7.96
 30
0
 11
8.099999999999993
 21
8.099999999999993
 31
0
  0
LINE
  8
0
 62
7
 10
8.162132034355956
 20
7.949999999999992
 30
0
 11
8.200000000000001
 21
7.987867965644035
 31
0
  0
ENDBLK
  8
0
  0
BLOCK
  8
0
  2
*X9
 70
1
 10
0
 20
0
 30
0
  0
LINE
  8
0
 62
7
 10
7.960000000000001
 20
10.82378246380551
 30
0
 11
7.986217536194475
 21
10.84999999999999
 31
0
  0
LINE
  8
0
 62
7
 10
7.960000000000001
 20
10.61165042944955
 30
0
 11
8.198349570550439
 21
10.84999999999999
 31
0
  0
LINE
  8
0
 62
7
 10
7.960000000000001
 20
10.39951839509358
 30
0
 11
8.200000000000001
 21
10.63951839509359
 31
0
  0
LINE
  8
0
 62
7
 10
7.960000000000001
 20
10.18738636073762
 30
0
 11
8.200000000000001
 21
10.42738636073762
 31
0
  0
LINE
  8
0
 62
7
 10
7.960000000000001
 20
9.975254326381657
 30
0
 11
8.200000000000001
 21
10.21525432638166
 31
0
  0
LINE
  8
0
 62
7
 10
7.960000000000001
 20
9.763122292025693
 30
0
 11
8.200000000000001
 21
10.0031222920257
 31
0
  0
LINE
  8
0
 62
7
 10
7.960000000000001
 20
9.55099025766973
 30
0
 11
8.200000000000001
 21
9.790990257669732
 31
0
  0
LINE
  8
0
 62
7
 10
7.960000000000001
 20
9.338858223313766
 30
0
 11
8.200000000000001
 21
9.578858223313768
 31
0
  0
LINE
  8
0
 62
7
 10
7.960000000000001
 20
9.126726188957802
 30
0
 11
8.200000000000001
 21
9.366726188957804
 31
0
  0
LINE
  8
0
 62
7
 10
7.960000000000001
 20
8.914594154601838
 30
0
 11
8.200000000000001
 21
9.15459415460184
 31
0
  0
LINE
  8
0
 62
7
 10
7.960000000000001
 20
8.702462120245874
 30
0
 11
8.200000000000001
 21
8.942462120245876
 31
0
  0
LINE
  8
0
 62
7
 10
7.960000000000001
 20
8.49033008588991
 30
0
 11
8.200000000000001
 21
8.730330085889912
 31
0
  0
LINE
  8
0
 62
7
 10
7.981801948466044
 20
8.29999999999999
 30
0
 11
8.200000000000001
 21
8.518198051533949
 31
0
  0
LINE
  8
0
 62
7
 10
8.193933982822008
 20
8.29999999999999
 30
0
 11
8.200000000000001
 21
8.306066017177985
 31
0
  0
LINE
  8
0
 62
7
 10
7.960000000000003
 20
10.71771644662753
 30
0
 11
8.092283553372457
 21
10.84999999999999
 31
0
  0
LINE
  8
0
 62
7
 10
7.960000000000003
 20
10.50558441227157
 30
0
 11
8.200000000000001
 21
10.74558441227157
 31
0
  0
LINE
  8
0
 62
7
 10
7.960000000000003
 20
10.2934523779156
 30
0
 11
8.200000000000001
 21
10.5334523779156
 31
0
  0
LINE
  8
0
 62
7
 10
7.960000000000003
 20
10.08132034355964
 30
0
 11
8.200000000000001
 21
10.32132034355964
 31
0
  0
LINE
  8
0
 62
7
 10
7.960000000000003
 20
9.869188309203675
 30
0
 11
8.200000000000001
 21
10.10918830920367
 31
0
  0
LINE
  8
0
 62
7
 10
7.960000000000003
 20
9.657056274847712
 30
0
 11
8.200000000000001
 21
9.89705627484771
 31
0
  0
LINE
  8
0
 62
7
 10
7.960000000000003
 20
9.444924240491748
 30
0
 11
8.200000000000001
 21
9.684924240491746
 31
0
  0
LINE
  8
0
 62
7
 10
7.960000000000003
 20
9.232792206135784
 30
0
 11
8.200000000000001
 21
9.472792206135782
 31
0
  0
LINE
  8
0
 62
7
 10
7.960000000000003
 20
9.02066017177982
 30
0
 11
8.200000000000001
 21
9.260660171779818
 31
0
  0
LINE
  8
0
 62
7
 10
7.960000000000003
 20
8.808528137423856
 30
0
 11
8.200000000000001
 21
9.048528137423855
 31
0
  0
LINE
  8
0
 62
7
 10
7.960000000000003
 20
8.596396103067892
 30
0
 11
8.200000000000001
 21
8.836396103067891
 31
0
  0
LINE
  8
0
 62
7
 10
7.960000000000003
 20
8.384264068711929
 30
0
 11
8.200000000000001
 21
8.624264068711927
 31
0
  0
LINE
  8
0
 62
7
 10
8.087867965644028
 20
8.299999999999992
 30
0
 11
8.200000000000001
 21
8.412132034355963
 31
0
  0
ENDBLK
  8
0
  0
BLOCK
  8
0
  2
*X10
 70
1
 10
0
 20
0
 30
0
  0
LINE
  8
0
 62
7
 10
7.974085501838511
 20
11.04999999999999
 30
0
 11
8.124085501838511
 21
11.19999999999999
 31
0
  0
LINE
  8
0
 62
7
 10
8.186217536194475
 20
11.04999999999999
 30
0
 11
8.200000000000001
 21
11.06378246380552
 31
0
  0
LINE
  8
0
 62
7
 10
7.96
 20
11.14198051533946
 30
0
 11
8.018019484660527
 21
11.19999999999999
 31
0
  0
LINE
  8
0
 62
7
 10
8.080151519016493
 20
11.04999999999999
 30
0
 11
8.199999999999999
 21
11.1698484809835
 31
0
  0
ENDBLK
  8
0
  0
BLOCK
  8
0
  2
*X11
 70
1
 10
0
 20
0
 30
0
  0
LINE
  8
0
 62
7
  6
DASHED
 10
6.260000000000009
 20
8.275254326381669
 30
0
 11
6.284745673618333
 21
8.299999999999992
 31
0
  0
LINE
  8
0
 62
7
  6
DASHED
 10
6.296877707974297
 20
8.099999999999993
 30
0
 11
6.496877707974297
 21
8.299999999999992
 31
0
  0
LINE
  8
0
 62
7
  6
DASHED
 10
6.509009742330261
 20
8.099999999999993
 30
0
 11
6.560000000000008
 21
8.15099025766974
 31
0
  0
LINE
  8
0
 62
7
 10
6.260000000000009
 20
8.169188309203687
 30
0
 11
6.390811690796315
 21
8.299999999999992
 31
0
  0
LINE
  8
0
 62
7
 10
6.40294372515228
 20
8.099999999999993
 30
0
 11
6.560000000000008
 21
8.25705627484772
 31
0
  0
ENDBLK
  8
0
  0
BLOCK
  8
0
  2
*X12
 70
1
 10
0
 20
0
 30
0
  0
LINE
  8
0
 62
7
  6
DASHED
 10
6.26000000000001
 20
11.0329707730092
 30
0
 11
6.277029226990797
 21
11.04999999999999
 31
0
  0
LINE
  8
0
 62
7
  6
DASHED
 10
6.289161261346761
 20
10.84999999999999
 30
0
 11
6.48916126134676
 21
11.04999999999999
 31
0
  0
LINE
  8
0
 62
7
  6
DASHED
 10
6.501293295702725
 20
10.84999999999999
 30
0
 11
6.560000000000008
 21
10.90870670429728
 31
0
  0
LINE
  8
0
 62
7
 10
6.260000000000008
 20
10.92690475583122
 30
0
 11
6.383095244168779
 21
11.04999999999999
 31
0
  0
LINE
  8
0
 62
7
 10
6.395227278524745
 20
10.84999999999999
 30
0
 11
6.560000000000009
 21
11.01477272147526
 31
0
  0
ENDBLK
  8
0
  0
BLOCK
  8
0
  2
*X13
 70
1
 10
0
 20
0
 30
0
  0
LINE
  8
0
 62
7
  6
DASHED
 10
7.960000000000001
 20
11.03591449816148
 30
0
 11
7.974085501838511
 21
11.04999999999999
 31
0
  0
LINE
  8
0
 62
7
  6
DASHED
 10
7.986217536194475
 20
10.84999999999999
 30
0
 11
8.186217536194475
 21
11.04999999999999
 31
0
  0
LINE
  8
0
 62
7
  6
DASHED
 10
8.198349570550439
 20
10.84999999999999
 30
0
 11
8.200000000000001
 21
10.85165042944955
 31
0
  0
LINE
  8
0
 62
7
 10
7.960000000000002
 20
10.9298484809835
 30
0
 11
8.080151519016493
 21
11.04999999999999
 31
0
  0
LINE
  8
0
 62
7
 10
8.092283553372457
 20
10.84999999999999
 30
0
 11
8.200000000000003
 21
10.95771644662754
 31
0
  0
ENDBLK
  8
0
  0
BLOCK
  8
0
  2
*X14
 70
1
 10
0
 20
0
 30
0
  0
LINE
  8
0
 62
7
  6
DASHED
 10
7.960000000000002
 20
8.278198051533948
 30
0
 11
7.981801948466044
 21
8.29999999999999
 31
0
  0
LINE
  8
0
 62
7
  6
DASHED
 10
7.99393398282201
 20
8.099999999999993
 30
0
 11
8.193933982822008
 21
8.29999999999999
 31
0
  0
LINE
  8
0
 62
7
 10
7.960000000000001
 20
8.172132034355965
 30
0
 11
8.087867965644028
 21
8.299999999999992
 31
0
  0
LINE
  8
0
 62
7
 10
8.099999999999993
 20
8.099999999999993
 30
0
 11
8.200000000000003
 21
8.200000000000001
 31
0
  0
ENDBLK
  8
0
  0
BLOCK
  8
0
  2
*X15
 70
1
 10
0
 20
0
 30
0
  0
LINE
  8
0
 62
7
 10
0.9350000000000005
 20
5.071574669941302
 30
0
 11
1.274999999999999
 21
5.411574669941302
 31
0
  0
LINE
  8
0
 62
7
 10
1.105557364414665
 20
5.030000000000001
 30
0
 11
1.345557364414659
 21
5.269999999999997
 31
0
  0
LINE
  8
0
 62
7
 10
1.317689398770629
 20
5.030000000000001
 30
0
 11
1.557689398770624
 21
5.269999999999997
 31
0
  0
LINE
  8
0
 62
7
 10
1.529821433126593
 20
5.030000000000001
 30
0
 11
1.769821433126588
 21
5.269999999999997
 31
0
  0
LINE
  8
0
 62
7
 10
1.741953467482558
 20
5.030000000000001
 30
0
 11
1.981953467482552
 21
5.269999999999997
 31
0
  0
LINE
  8
0
 62
7
 10
1.954085501838522
 20
5.030000000000001
 30
0
 11
2.194085501838516
 21
5.269999999999997
 31
0
  0
LINE
  8
0
 62
7
 10
2.166217536194486
 20
5.030000000000001
 30
0
 11
2.406217536194481
 21
5.269999999999997
 31
0
  0
LINE
  8
0
 62
7
 10
2.37834957055045
 20
5.030000000000001
 30
0
 11
2.618349570550445
 21
5.269999999999997
 31
0
  0
LINE
  8
0
 62
7
 10
2.590481604906415
 20
5.030000000000001
 30
0
 11
2.830481604906409
 21
5.269999999999997
 31
0
  0
LINE
  8
0
 62
7
 10
2.802613639262379
 20
5.030000000000001
 30
0
 11
3.042613639262373
 21
5.269999999999997
 31
0
  0
LINE
  8
0
 62
7
 10
3.014745673618343
 20
5.030000000000001
 30
0
 11
3.254745673618338
 21
5.269999999999997
 31
0
  0
LINE
  8
0
 62
7
 10
3.226877707974308
 20
5.030000000000001
 30
0
 11
3.466877707974302
 21
5.269999999999997
 31
0
  0
LINE
  8
0
 62
7
 10
3.439009742330272
 20
5.030000000000001
 30
0
 11
3.679009742330266
 21
5.269999999999997
 31
0
  0
LINE
  8
0
 62
7
 10
3.651141776686236
 20
5.030000000000001
 30
0
 11
3.891141776686231
 21
5.269999999999997
 31
0
  0
LINE
  8
0
 62
7
 10
3.8632738110422
 20
5.030000000000001
 30
0
 11
4.103273811042195
 21
5.269999999999997
 31
0
  0
LINE
  8
0
 62
7
 10
4.409999999999999
 20
5.364594154601837
 30
0
 11
4.465405845398159
 21
5.419999999999997
 31
0
  0
LINE
  8
0
 62
7
 10
4.075405845398165
 20
5.030000000000001
 30
0
 11
4.315405845398159
 21
5.269999999999997
 31
0
  0
LINE
  8
0
 62
7
 10
4.287537879754129
 20
5.030000000000001
 30
0
 11
4.585
 21
5.327462120245874
 31
0
  0
LINE
  8
0
 62
7
 10
4.499669914110092
 20
5.030000000000001
 30
0
 11
4.735
 21
5.265330085889909
 31
0
  0
LINE
  8
0
 62
7
 10
4.711801948466056
 20
5.030000000000001
 30
0
 11
4.735
 21
5.053198051533945
 31
0
  0
LINE
  8
0
 62
7
 10
1.1
 20
5.342640687119284
 30
0
 11
1.177359312880713
 21
5.419999999999997
 31
0
  0
LINE
  8
0
 62
7
 10
0.9350000000000001
 20
5.177640687119284
 30
0
 11
1.027359312880713
 21
5.269999999999997
 31
0
  0
LINE
  8
0
 62
7
 10
0.9994913472366815
 20
5.03
 30
0
 11
1.275
 21
5.30550865276332
 31
0
  0
LINE
  8
0
 62
7
 10
1.211623381592646
 20
5.03
 30
0
 11
1.451623381592641
 21
5.269999999999997
 31
0
  0
LINE
  8
0
 62
7
 10
1.42375541594861
 20
5.03
 30
0
 11
1.663755415948605
 21
5.269999999999997
 31
0
  0
LINE
  8
0
 62
7
 10
1.635887450304574
 20
5.03
 30
0
 11
1.87588745030457
 21
5.269999999999997
 31
0
  0
LINE
  8
0
 62
7
 10
1.848019484660539
 20
5.03
 30
0
 11
2.088019484660534
 21
5.269999999999997
 31
0
  0
LINE
  8
0
 62
7
 10
2.060151519016503
 20
5.03
 30
0
 11
2.300151519016498
 21
5.269999999999997
 31
0
  0
LINE
  8
0
 62
7
 10
2.272283553372467
 20
5.03
 30
0
 11
2.512283553372463
 21
5.269999999999997
 31
0
  0
LINE
  8
0
 62
7
 10
2.484415587728432
 20
5.03
 30
0
 11
2.724415587728427
 21
5.269999999999997
 31
0
  0
LINE
  8
0
 62
7
 10
2.696547622084396
 20
5.03
 30
0
 11
2.936547622084391
 21
5.269999999999997
 31
0
  0
LINE
  8
0
 62
7
 10
2.90867965644036
 20
5.03
 30
0
 11
3.148679656440355
 21
5.269999999999997
 31
0
  0
LINE
  8
0
 62
7
 10
3.120811690796324
 20
5.03
 30
0
 11
3.36081169079632
 21
5.269999999999997
 31
0
  0
LINE
  8
0
 62
7
 10
3.332943725152289
 20
5.03
 30
0
 11
3.572943725152284
 21
5.269999999999997
 31
0
  0
LINE
  8
0
 62
7
 10
3.545075759508253
 20
5.03
 30
0
 11
3.785075759508248
 21
5.269999999999997
 31
0
  0
LINE
  8
0
 62
7
 10
3.757207793864217
 20
5.03
 30
0
 11
3.997207793864213
 21
5.269999999999997
 31
0
  0
LINE
  8
0
 62
7
 10
3.969339828220181
 20
5.03
 30
0
 11
4.209339828220177
 21
5.269999999999997
 31
0
  0
LINE
  8
0
 62
7
 10
4.181471862576146
 20
5.03
 30
0
 11
4.57147186257614
 21
5.419999999999997
 31
0
  0
LINE
  8
0
 62
7
 10
4.39360389693211
 20
5.03
 30
0
 11
4.633603896932105
 21
5.269999999999997
 31
0
  0
LINE
  8
0
 62
7
 10
4.605735931288073
 20
5.03
 30
0
 11
4.735
 21
5.159264068711927
 31
0
  0
ENDBLK
  8
0
  0
BLOCK
  8
0
  2
*X16
 70
1
 10
0
 20
0
 30
0
  0
LINE
  8
0
 62
7
 10
0.9349999999999996
 20
4.859442635585339
 30
0
 11
1.065557364414664
 21
4.99
 31
0
  0
LINE
  8
0
 62
7
 10
1.037689398770627
 20
4.750000000000001
 30
0
 11
1.277689398770628
 21
4.99
 31
0
  0
LINE
  8
0
 62
7
 10
1.1
 20
4.600178566873409
 30
0
 11
1.489821433126592
 21
4.99
 31
0
  0
LINE
  8
0
 62
7
 10
1.461953467482554
 20
4.75
 30
0
 11
1.701953467482557
 21
4.99
 31
0
  0
LINE
  8
0
 62
7
 10
1.1
 20
4.388046532517445
 30
0
 11
1.275
 21
4.563046532517444
 31
0
  0
LINE
  8
0
 62
7
 10
1.674085501838519
 20
4.75
 30
0
 11
1.914085501838521
 21
4.99
 31
0
  0
LINE
  8
0
 62
7
 10
1.1
 20
4.175914498161482
 30
0
 11
1.275
 21
4.35091449816148
 31
0
  0
LINE
  8
0
 62
7
 10
1.886217536194483
 20
4.75
 30
0
 11
2.126217536194485
 21
4.99
 31
0
  0
LINE
  8
0
 62
7
 10
1.1
 20
3.963782463805518
 30
0
 11
1.275
 21
4.138782463805517
 31
0
  0
LINE
  8
0
 62
7
 10
2.098349570550447
 20
4.75
 30
0
 11
2.33834957055045
 21
4.99
 31
0
  0
LINE
  8
0
 62
7
 10
1.1
 20
3.751650429449553
 30
0
 11
1.275
 21
3.926650429449553
 31
0
  0
LINE
  8
0
 62
7
 10
2.310481604906411
 20
4.75
 30
0
 11
2.550481604906414
 21
4.99
 31
0
  0
LINE
  8
0
 62
7
 10
1.1
 20
3.539518395093589
 30
0
 11
1.275
 21
3.714518395093588
 31
0
  0
LINE
  8
0
 62
7
 10
2.522613639262376
 20
4.75
 30
0
 11
2.762613639262378
 21
4.99
 31
0
  0
LINE
  8
0
 62
7
 10
1.122613639262376
 20
3.35
 30
0
 11
1.275
 21
3.502386360737624
 31
0
  0
LINE
  8
0
 62
7
 10
2.73474567361834
 20
4.75
 30
0
 11
2.974745673618342
 21
4.99
 31
0
  0
LINE
  8
0
 62
7
 10
2.946877707974304
 20
4.75
 30
0
 11
3.186877707974307
 21
4.99
 31
0
  0
LINE
  8
0
 62
7
 10
3.159009742330269
 20
4.75
 30
0
 11
3.399009742330271
 21
4.99
 31
0
  0
LINE
  8
0
 62
7
 10
3.371141776686233
 20
4.75
 30
0
 11
3.611141776686235
 21
4.99
 31
0
  0
LINE
  8
0
 62
7
 10
3.583273811042197
 20
4.75
 30
0
 11
3.8232738110422
 21
4.99
 31
0
  0
LINE
  8
0
 62
7
 10
3.795405845398161
 20
4.75
 30
0
 11
4.035405845398164
 21
4.99
 31
0
  0
LINE
  8
0
 62
7
 10
4.007537879754126
 20
4.75
 30
0
 11
4.247537879754128
 21
4.99
 31
0
  0
LINE
  8
0
 62
7
 10
4.21966991411009
 20
4.75
 30
0
 11
4.459669914110092
 21
4.99
 31
0
  0
LINE
  8
0
 62
7
 10
4.41
 20
4.728198051533945
 30
0
 11
4.671801948466055
 21
4.99
 31
0
  0
LINE
  8
0
 62
7
 10
4.643933982822018
 20
4.749999999999999
 30
0
 11
4.734999999999999
 21
4.841066017177981
 31
0
  0
LINE
  8
0
 62
7
 10
4.41
 20
4.516066017177981
 30
0
 11
4.584999999999999
 21
4.69106601717798
 31
0
  0
LINE
  8
0
 62
7
 10
4.41
 20
4.303933982822017
 30
0
 11
4.584999999999999
 21
4.478933982822016
 31
0
  0
LINE
  8
0
 62
7
 10
4.41
 20
4.091801948466053
 30
0
 11
4.584999999999999
 21
4.266801948466052
 31
0
  0
LINE
  8
0
 62
7
 10
4.41
 20
3.879669914110089
 30
0
 11
4.584999999999999
 21
4.054669914110089
 31
0
  0
LINE
  8
0
 62
7
 10
4.41
 20
3.667537879754125
 30
0
 11
4.584999999999999
 21
3.842537879754125
 31
0
  0
LINE
  8
0
 62
7
 10
4.41
 20
3.455405845398161
 30
0
 11
4.584999999999999
 21
3.63040584539816
 31
0
  0
LINE
  8
0
 62
7
 10
4.416726188957804
 20
3.25
 30
0
 11
4.584999999999999
 21
3.418273811042196
 31
0
  0
LINE
  8
0
 62
7
 10
0.9350000000000003
 20
4.965508652763321
 30
0
 11
0.9594913472366806
 21
4.99
 31
0
  0
LINE
  8
0
 62
7
 10
0.9350000000000003
 20
4.753376618407357
 30
0
 11
1.171623381592645
 21
4.99
 31
0
  0
LINE
  8
0
 62
7
 10
1.1
 20
4.70624458405139
 30
0
 11
1.383755415948609
 21
4.99
 31
0
  0
LINE
  8
0
 62
7
 10
1.355887450304573
 20
4.75
 30
0
 11
1.595887450304573
 21
4.99
 31
0
  0
LINE
  8
0
 62
7
 10
1.1
 20
4.494112549695426
 30
0
 11
1.275
 21
4.669112549695426
 31
0
  0
LINE
  8
0
 62
7
 10
1.568019484660537
 20
4.75
 30
0
 11
1.808019484660538
 21
4.99
 31
0
  0
LINE
  8
0
 62
7
 10
1.1
 20
4.281980515339463
 30
0
 11
1.275
 21
4.456980515339462
 31
0
  0
LINE
  8
0
 62
7
 10
1.780151519016501
 20
4.75
 30
0
 11
2.020151519016502
 21
4.99
 31
0
  0
LINE
  8
0
 62
7
 10
1.1
 20
4.069848480983499
 30
0
 11
1.275
 21
4.244848480983499
 31
0
  0
LINE
  8
0
 62
7
 10
1.992283553372466
 20
4.75
 30
0
 11
2.232283553372466
 21
4.99
 31
0
  0
LINE
  8
0
 62
7
 10
1.1
 20
3.857716446627535
 30
0
 11
1.275
 21
4.032716446627535
 31
0
  0
LINE
  8
0
 62
7
 10
2.20441558772843
 20
4.75
 30
0
 11
2.444415587728431
 21
4.99
 31
0
  0
LINE
  8
0
 62
7
 10
1.1
 20
3.645584412271571
 30
0
 11
1.275
 21
3.820584412271571
 31
0
  0
LINE
  8
0
 62
7
 10
2.416547622084394
 20
4.75
 30
0
 11
2.656547622084395
 21
4.99
 31
0
  0
LINE
  8
0
 62
7
 10
1.1
 20
3.433452377915606
 30
0
 11
1.275
 21
3.608452377915607
 31
0
  0
LINE
  8
0
 62
7
 10
2.628679656440359
 20
4.75
 30
0
 11
2.868679656440359
 21
4.99
 31
0
  0
LINE
  8
0
 62
7
 10
1.228679656440358
 20
3.35
 30
0
 11
1.275
 21
3.396320343559642
 31
0
  0
LINE
  8
0
 62
7
 10
2.840811690796323
 20
4.75
 30
0
 11
3.080811690796323
 21
4.99
 31
0
  0
LINE
  8
0
 62
7
 10
3.052943725152287
 20
4.75
 30
0
 11
3.292943725152288
 21
4.99
 31
0
  0
LINE
  8
0
 62
7
 10
3.265075759508251
 20
4.75
 30
0
 11
3.505075759508252
 21
4.99
 31
0
  0
LINE
  8
0
 62
7
 10
3.477207793864216
 20
4.75
 30
0
 11
3.717207793864216
 21
4.99
 31
0
  0
LINE
  8
0
 62
7
 10
3.68933982822018
 20
4.75
 30
0
 11
3.929339828220181
 21
4.99
 31
0
  0
LINE
  8
0
 62
7
 10
3.901471862576144
 20
4.75
 30
0
 11
4.141471862576145
 21
4.99
 31
0
  0
LINE
  8
0
 62
7
 10
4.113603896932108
 20
4.75
 30
0
 11
4.353603896932109
 21
4.99
 31
0
  0
LINE
  8
0
 62
7
 10
4.325735931288072
 20
4.75
 30
0
 11
4.565735931288073
 21
4.99
 31
0
  0
LINE
  8
0
 62
7
 10
4.41
 20
4.622132034355963
 30
0
 11
4.734999999999999
 21
4.947132034355962
 31
0
  0
LINE
  8
0
 62
7
 10
4.41
 20
4.409999999999999
 30
0
 11
4.585
 21
4.584999999999998
 31
0
  0
LINE
  8
0
 62
7
 10
4.41
 20
4.197867965644035
 30
0
 11
4.585
 21
4.372867965644034
 31
0
  0
LINE
  8
0
 62
7
 10
4.41
 20
3.985735931288071
 30
0
 11
4.585
 21
4.160735931288071
 31
0
  0
LINE
  8
0
 62
7
 10
4.41
 20
3.773603896932107
 30
0
 11
4.585
 21
3.948603896932107
 31
0
  0
LINE
  8
0
 62
7
 10
4.41
 20
3.561471862576143
 30
0
 11
4.585
 21
3.736471862576142
 31
0
  0
LINE
  8
0
 62
7
 10
4.41
 20
3.349339828220178
 30
0
 11
4.585
 21
3.524339828220178
 31
0
  0
LINE
  8
0
 62
7
 10
4.522792206135786
 20
3.25
 30
0
 11
4.585
 21
3.312207793864214
 31
0
  0
ENDBLK
  8
0
  0
BLOCK
  8
0
  2
*D0
 70
1
 10
0
 20
0
 30
0
  0
LINE
  8
0
 62
7
 10
0.73729609223324
 20
10.18693072006466
 30
0
 11
0.73729609223324
 21
11.04999999999999
 31
0
  0
LINE
  8
0
 62
7
 10
0.73729609223324
 20
8.299999999999992
 30
0
 11
0.73729609223324
 21
9.106930720064659
 31
0
  0
LINE
  8
0
 62
7
 10
0.95
 20
11.04999999999999
 30
0
 11
0.68729609223324
 21
11.04999999999999
 31
0
  0
LINE
  8
0
 62
7
 10
0.95
 20
8.299999999999992
 30
0
 11
0.68729609223324
 21
8.299999999999992
 31
0
  0
LINE
  8
0
 62
7
 10
0.7019407531739126
 20
8.335355339059319
 30
0
 11
0.7726514312925674
 21
8.264644660940665
 31
0
  0
LINE
  8
0
 62
7
 10
0.7726514312925674
 20
11.01464466094066
 30
0
 11
0.7019407531739126
 21
11.08535533905932
 31
0
  0
TEXT
  8
0
 62
7
 10
0.70729609223324
 20
9.50943072006466
 30
0
 40
0.1
  1
2,75
 50
90
 41
0.9
  0
TEXT
  8
0
 62
7
 10
0.86729609223324
 20
9.30693072006466
 30
0
 40
0.1
  1
(260-280)
 50
90
 41
0.9
  0
ENDBLK
  8
0
  0
BLOCK
  8
0
  2
*D1
 70
1
 10
0
 20
0
 30
0
  0
LINE
  8
0
 62
7
 10
3.19160214401315
 20
11.4273401699028
 30
0
 11
4.41
 21
11.4273401699028
 31
0
  0
LINE
  8
0
 62
7
 10
1.275
 20
11.4273401699028
 30
0
 11
2.54660214401315
 21
11.4273401699028
 31
0
  0
LINE
  8
0
 62
7
 10
4.41
 20
11.19999999999999
 30
0
 11
4.41
 21
11.4773401699028
 31
0
  0
LINE
  8
0
 62
7
 10
1.275
 20
11.19999999999999
 30
0
 11
1.275
 21
11.4773401699028
 31
0
  0
LINE
  8
0
 62
7
 10
1.310355339059327
 20
11.46269550896213
 30
0
 11
1.239644660940673
 21
11.39198483084347
 31
0
  0
LINE
  8
0
 62
7
 10
4.374644660940673
 20
11.39198483084347
 30
0
 11
4.445355339059327
 21
11.46269550896213
 31
0
  0
TEXT
  8
0
 62
7
 10
2.74660214401315
 20
11.3823401699028
 30
0
 40
0.1
  1
3,14
 41
0.9
  0
ENDBLK
  8
0
  0
BLOCK
  8
0
  2
*D2
 70
1
 10
0
 20
0
 30
0
  0
LINE
  8
0
 62
7
 10
4.81349667475747
 20
4.3755115291262
 30
0
 11
4.81349667475747
 21
4.75
 31
0
  0
LINE
  8
0
 62
7
 10
4.81349667475747
 20
3.25
 30
0
 11
4.81349667475747
 21
3.720511529126201
 31
0
  0
LINE
  8
0
 62
7
 10
4.585
 20
4.75
 30
0
 11
4.86349667475747
 21
4.75
 31
0
  0
LINE
  8
0
 62
7
 10
4.585
 20
3.25
 30
0
 11
4.86349667475747
 21
3.25
 31
0
  0
LINE
  8
0
 62
7
 10
4.778141335698143
 20
3.285355339059327
 30
0
 11
4.848852013816797
 21
3.214644660940673
 31
0
  0
LINE
  8
0
 62
7
 10
4.848852013816797
 20
4.714644660940673
 30
0
 11
4.778141335698143
 21
4.785355339059327
 31
0
  0
TEXT
  8
0
 62
7
 10
4.85849667475747
 20
3.9705115291262
 30
0
 40
0.1
  1
1,5
 50
90
 41
0.9
  0
ENDBLK
  8
0
  0
BLOCK
  8
0
  2
*D3
 70
1
 10
0
 20
0
 30
0
  0
LINE
  8
0
 62
7
 10
3.21817570388371
 20
5.58244335760515
 30
0
 11
4.41
 21
5.58244335760515
 31
0
  0
LINE
  8
0
 62
7
 10
1.275
 20
5.58244335760515
 30
0
 11
2.47317570388371
 21
5.58244335760515
 31
0
  0
LINE
  8
0
 62
7
 10
4.41
 20
5.269999999999997
 30
0
 11
4.41
 21
5.63244335760515
 31
0
  0
LINE
  8
0
 62
7
 10
1.275
 20
5.269999999999997
 30
0
 11
1.275
 21
5.63244335760515
 31
0
  0
LINE
  8
0
 62
7
 10
4.374644660940673
 20
5.547088018545823
 30
0
 11
4.445355339059327
 21
5.617798696664478
 31
0
  0
LINE
  8
0
 62
7
 10
1.310355339059327
 20
5.617798696664478
 30
0
 11
1.239644660940673
 21
5.547088018545823
 31
0
  0
TEXT
  8
0
 62
7
 10
2.72317570388371
 20
5.53744335760515
 30
0
 40
0.1
  1
3,14
 41
0.9
  0
ENDBLK
  8
0
  0
BLOCK
  8
0
  2
*D4
 70
1
 10
0
 20
0
 30
0
  0
LINE
  8
0
 62
7
 10
0.784148972492139
 20
4.39893796925565
 30
0
 11
0.784148972492139
 21
4.75
 31
0
  0
LINE
  8
0
 62
7
 10
0.784148972492139
 20
3.35
 30
0
 11
0.784148972492139
 21
3.743937969255651
 31
0
  0
LINE
  8
0
 62
7
 10
1.1
 20
4.75
 30
0
 11
0.734148972492139
 21
4.75
 31
0
  0
LINE
  8
0
 62
7
 10
1.1
 20
3.35
 30
0
 11
0.734148972492139
 21
3.35
 31
0
  0
LINE
  8
0
 62
7
 10
0.8195043115514664
 20
4.714644660940673
 30
0
 11
0.7487936334328116
 21
4.785355339059327
 31
0
  0
LINE
  8
0
 62
7
 10
0.7487936334328116
 20
3.385355339059327
 30
0
 11
0.8195043115514664
 21
3.314644660940672
 31
0
  0
TEXT
  8
0
 62
7
 10
0.829148972492139
 20
3.99393796925565
 30
0
 40
0.1
  1
1,4
 50
90
 41
0.9
  0
ENDBLK
  8
0
  0
ENDSEC
  0
SECTION
  2
ENTITIES
  0
INSERT
  8
0
  2
*X0
 10
0
 20
0
 30
0
  0
INSERT
  8
0
  2
*X1
 10
0
 20
0
 30
0
  0
INSERT
  8
0
  2
*X2
 10
0
 20
0
 30
0
  0
INSERT
  8
0
  2
*X3
 10
0
 20
0
 30
0
  0
INSERT
  8
0
  2
*X4
 10
0
 20
0
 30
0
  0
INSERT
  8
0
  2
*X5
 10
0
 20
0
 30
0
  0
INSERT
  8
0
  2
*X6
 10
0
 20
0
 30
0
  0
INSERT
  8
0
  2
*X7
 10
0
 20
0
 30
0
  0
INSERT
  8
0
  2
*X8
 10
0
 20
0
 30
0
  0
INSERT
  8
0
  2
*X9
 10
0
 20
0
 30
0
  0
INSERT
  8
0
  2
*X10
 10
0
 20
0
 30
0
  0
INSERT
  8
0
  2
*X11
 10
0
 20
0
 30
0
  0
INSERT
  8
0
  2
*X12
 10
0
 20
0
 30
0
  0
INSERT
  8
0
  2
*X13
 10
0
 20
0
 30
0
  0
INSERT
  8
0
  2
*X14
 10
0
 20
0
 30
0
  0
INSERT
  8
0
  2
*X15
 10
0
 20
0
 30
0
  0
INSERT
  8
0
  2
*X16
 10
0
 20
0
 30
0
  0
LINE
  8
0
 62
7
 10
2.39
 20
3.425292396888449
 30
0
 11
2.39
 21
3.581625238693654
 31
0
  0
LINE
  8
0
 62
7
 10
2.39
 20
3.581625238693654
 30
0
 11
2.428340475533511
 21
3.635
 31
0
  0
LINE
  8
0
 62
7
 10
2.511876331599801
 20
3.635
 30
0
 11
2.62530002682488
 21
3.635
 31
0
  0
LINE
  8
0
 62
7
 10
2.623823173723991
 20
3.635
 30
0
 11
2.62530002682488
 21
3.635
 31
0
  0
LINE
  8
0
 62
7
 10
2.428340475533511
 20
3.635
 30
0
 11
2.62530002682488
 21
3.635
 31
0
  0
LINE
  8
0
 62
7
 10
3.061247624197309
 20
3.635
 30
0
 11
3.240943296460078
 21
3.635
 31
0
  0
LINE
  8
0
 62
7
 10
3.240943296460078
 20
3.635
 30
0
 11
3.295
 21
3.59781760990239
 31
0
  0
LINE
  8
0
 62
7
 10
3.295
 20
3.539913542802779
 30
0
 11
3.295
 21
3.439381772876919
 31
0
  0
LINE
  8
0
 62
7
 10
3.295
 20
3.442912394784619
 30
0
 11
3.295
 21
3.439381772876919
 31
0
  0
LINE
  8
0
 62
7
 10
3.295
 20
3.59781760990239
 30
0
 11
3.295
 21
3.439381772876919
 31
0
  0
LINE
  8
0
 62
7
 10
2.39
 20
3.517274463904769
 30
0
 11
1.33
 21
3.740959442250608
 31
0
  0
LINE
  8
0
 62
7
 10
2.39
 20
3.379999999999999
 30
0
 11
2.39
 21
3.517274463904769
 31
0
  0
LINE
  8
0
 62
7
 10
1.33
 20
3.740959442250608
 30
0
 11
1.33
 21
3.379999999999999
 31
0
  0
LINE
  8
0
 62
7
 10
2.39
 20
3.621620774592209
 30
0
 11
1.33
 21
4.122200845057309
 31
0
  0
LINE
  8
0
 62
7
 10
2.39
 20
3.581625238693654
 30
0
 11
2.39
 21
3.621620774592209
 31
0
  0
LINE
  8
0
 62
7
 10
1.33
 20
4.122200845057309
 30
0
 11
1.33
 21
3.648977375234289
 31
0
  0
LINE
  8
0
 62
7
 10
2.472567612074799
 20
3.696569733377219
 30
0
 11
1.33
 21
4.587721378351629
 31
0
  0
LINE
  8
0
 62
7
 10
2.428340475533511
 20
3.635
 30
0
 11
2.472567612074799
 21
3.696569733377219
 31
0
  0
LINE
  8
0
 62
7
 10
1.33
 20
4.587721378351629
 30
0
 11
1.33
 21
4.02266981005831
 31
0
  0
LINE
  8
0
 62
7
 10
2.62530002682488
 20
3.635
 30
0
 11
1.81229762300256
 21
4.695
 31
0
  0
LINE
  8
0
 62
7
 10
1.33
 20
4.695
 30
0
 11
1.33
 21
4.47358341372354
 31
0
  0
LINE
  8
0
 62
7
 10
1.81229762300256
 20
4.695
 30
0
 11
1.33
 21
4.695
 31
0
  0
LINE
  8
0
 62
7
 10
2.723714340000912
 20
3.635
 30
0
 11
2.21328046566726
 21
4.695
 31
0
  0
LINE
  8
0
 62
7
 10
2.62530002682488
 20
3.635
 30
0
 11
2.723714340000912
 21
3.635
 31
0
  0
LINE
  8
0
 62
7
 10
2.21328046566726
 20
4.695
 30
0
 11
1.69887392777748
 21
4.695
 31
0
  0
LINE
  8
0
 62
7
 10
2.829072843209302
 20
3.635
 30
0
 11
2.56079227492994
 21
4.695
 31
0
  0
LINE
  8
0
 62
7
 10
2.62530002682488
 20
3.635
 30
0
 11
2.829072843209302
 21
3.635
 31
0
  0
LINE
  8
0
 62
7
 10
2.56079227492994
 20
4.695
 30
0
 11
2.113389299390328
 21
4.695
 31
0
  0
LINE
  8
0
 62
7
 10
2.93678277980935
 20
3.635
 30
0
 11
2.90697340520455
 21
4.695
 31
0
  0
LINE
  8
0
 62
7
 10
2.736235017779149
 20
3.635
 30
0
 11
2.93678277980935
 21
3.635
 31
0
  0
LINE
  8
0
 62
7
 10
2.90697340520455
 20
4.695
 30
0
 11
2.46795444949979
 21
4.695
 31
0
  0
LINE
  8
0
 62
7
 10
3.046943824464761
 20
3.635
 30
0
 11
3.251767450478861
 21
4.695
 31
0
  0
LINE
  8
0
 62
7
 10
2.846747198602641
 20
3.635
 30
0
 11
3.046943824464761
 21
3.635
 31
0
  0
LINE
  8
0
 62
7
 10
3.251767450478861
 20
4.695
 30
0
 11
2.816937823997861
 21
4.695
 31
0
  0
LINE
  8
0
 62
7
 10
3.158884579921601
 20
3.635
 30
0
 11
3.604728328269379
 21
4.695
 31
0
  0
LINE
  8
0
 62
7
 10
2.95527902242665
 20
3.635
 30
0
 11
3.158884579921601
 21
3.635
 31
0
  0
LINE
  8
0
 62
7
 10
3.604728328269379
 20
4.695
 30
0
 11
3.16010264844075
 21
4.695
 31
0
  0
LINE
  8
0
 62
7
 10
3.269528099197869
 20
3.635
 30
0
 11
4.039927139020929
 21
4.695
 31
0
  0
LINE
  8
0
 62
7
 10
3.240943296460078
 20
3.635
 30
0
 11
3.269528099197869
 21
3.635
 31
0
  0
LINE
  8
0
 62
7
 10
4.039927139020929
 20
4.695
 30
0
 11
3.50709137254511
 21
4.695
 31
0
  0
LINE
  8
0
 62
7
 10
3.34783325609802
 20
3.561476756507348
 30
0
 11
4.355
 21
4.444742851412366
 31
0
  0
LINE
  8
0
 62
7
 10
3.295
 20
3.59781760990239
 30
0
 11
3.34783325609802
 21
3.561476756507348
 31
0
  0
LINE
  8
0
 62
7
 10
4.355
 20
4.695
 30
0
 11
3.928667846296055
 21
4.695
 31
0
  0
LINE
  8
0
 62
7
 10
4.355
 20
4.444742851412366
 30
0
 11
4.355
 21
4.695
 31
0
  0
LINE
  8
0
 62
7
 10
3.295
 20
3.439381772876919
 30
0
 11
4.355
 21
3.966973209982607
 31
0
  0
LINE
  8
0
 62
7
 10
4.355
 20
3.966973209982607
 30
0
 11
4.355
 21
4.56444947159425
 31
0
  0
LINE
  8
0
 62
7
 10
3.295
 20
3.350446162329149
 30
0
 11
4.355
 21
3.600291708881968
 31
0
  0
LINE
  8
0
 62
7
 10
3.295
 20
3.439381772876919
 30
0
 11
3.295
 21
3.350446162329149
 31
0
  0
LINE
  8
0
 62
7
 10
4.355
 20
3.600291708881968
 30
0
 11
4.355
 21
4.067504979908468
 31
0
  0
LINE
  8
0
 62
7
 10
3.295
 20
3.25
 30
0
 11
4.355
 21
3.25
 31
0
  0
LINE
  8
0
 62
7
 10
3.295
 20
3.439381772876919
 30
0
 11
3.295
 21
3.25
 31
0
  0
LINE
  8
0
 62
7
 10
4.355
 20
3.25
 30
0
 11
4.355
 21
3.69275794133745
 31
0
  0
LINE
  8
0
 62
7
 10
3.971926486241559
 20
3.635000606139368
 30
0
 11
3.971926486241559
 21
3.25
 31
0
  0
LINE
  8
0
 62
7
 10
2.38999939388939
 20
4.311926486241551
 30
0
 11
3.295000606116279
 21
4.311926486241551
 31
0
  0
LINE
  8
0
 62
7
 10
1.818728613020157
 20
3.460999999999999
 30
0
 11
1.713073513758449
 21
3.399999999999999
 31
0
  0
LINE
  8
0
 62
7
 10
1.607418414496751
 20
3.460999999999999
 30
0
 11
1.818728613020157
 21
3.460999999999999
 31
0
  0
LINE
  8
0
 62
7
 10
1.713073513758449
 20
3.399999999999999
 30
0
 11
1.607418414496751
 21
3.460999999999999
 31
0
  0
LINE
  8
0
 62
7
 10
1.713073513758449
 20
3.399999999999999
 30
0
 11
1.713073513758449
 21
3.635000606116369
 31
0
  0
LINE
  8
0
 62
7
  6
DASHED
 10
1.33
 20
10.96666666666666
 30
0
 11
2.390000310000011
 21
10.96666666666666
 31
0
  0
LINE
  8
0
 62
7
  6
DASHED
 10
2.390000310000011
 20
10.96666666666666
 30
0
 11
2.390000310000011
 21
10.90166666666666
 31
0
  0
LINE
  8
0
 62
7
  6
DASHED
 10
1.33
 20
10.90166666666666
 30
0
 11
1.33
 21
10.96666666666666
 31
0
  0
LINE
  8
0
 62
7
  6
DASHED
 10
2.390000310000011
 20
10.90166666666666
 30
0
 11
1.33
 21
10.90166666666666
 31
0
  0
LINE
  8
0
 62
7
 10
1.33
 20
10.78333322666666
 30
0
 11
2.390000310000011
 21
10.78333322666666
 31
0
  0
LINE
  8
0
 62
7
 10
2.390000310000011
 20
10.78333322666666
 30
0
 11
2.390000310000011
 21
10.71833322666666
 31
0
  0
LINE
  8
0
 62
7
 10
1.33
 20
10.71833322666666
 30
0
 11
1.33
 21
10.78333322666666
 31
0
  0
LINE
  8
0
 62
7
 10
2.390000310000011
 20
10.71833322666666
 30
0
 11
1.33
 21
10.71833322666666
 31
0
  0
LINE
  8
0
 62
7
 10
1.3299997
 20
10.59999994666666
 30
0
 11
2.472567749999998
 21
10.59999994666666
 31
0
  0
LINE
  8
0
 62
7
 10
2.472567749999998
 20
10.53499994666666
 30
0
 11
1.3299997
 21
10.53499994666666
 31
0
  0
LINE
  8
0
 62
7
 10
2.472567749999998
 20
10.59999994666666
 30
0
 11
2.472567749999998
 21
10.53499994666666
 31
0
  0
LINE
  8
0
 62
7
 10
1.3299997
 20
10.53499994666666
 30
0
 11
1.3299997
 21
10.59999994666666
 31
0
  0
LINE
  8
0
 62
7
 10
2.62529999
 20
10.35166666666666
 30
0
 11
1.33
 21
10.35166666666666
 31
0
  0
LINE
  8
0
 62
7
 10
1.33
 20
10.41666666666666
 30
0
 11
2.62529999
 21
10.41666666666666
 31
0
  0
LINE
  8
0
 62
7
 10
2.62529999
 20
10.41666666666666
 30
0
 11
2.62529999
 21
10.35166666666666
 31
0
  0
LINE
  8
0
 62
7
 10
1.33
 20
10.35166666666666
 30
0
 11
1.33
 21
10.41666666666666
 31
0
  0
LINE
  8
0
 62
7
 10
2.723714300000011
 20
10.16833322666666
 30
0
 11
1.698873909999999
 21
10.16833322666666
 31
0
  0
LINE
  8
0
 62
7
 10
1.698873909999999
 20
10.23333322666666
 30
0
 11
2.723714300000011
 21
10.23333322666666
 31
0
  0
LINE
  8
0
 62
7
 10
2.723714300000011
 20
10.23333322666666
 30
0
 11
2.723714300000011
 21
10.16833322666666
 31
0
  0
LINE
  8
0
 62
7
 10
1.698873909999999
 20
10.16833322666666
 30
0
 11
1.698873909999999
 21
10.23333322666666
 31
0
  0
LINE
  8
0
 62
7
 10
2.82907303
 20
9.984999946666663
 30
0
 11
2.11338944000001
 21
9.984999946666663
 31
0
  0
LINE
  8
0
 62
7
 10
2.11338944000001
 20
10.04999994666666
 30
0
 11
2.82907303
 21
10.04999994666666
 31
0
  0
LINE
  8
0
 62
7
 10
2.82907303
 20
10.04999994666666
 30
0
 11
2.82907303
 21
9.984999946666663
 31
0
  0
LINE
  8
0
 62
7
 10
2.11338944000001
 20
9.984999946666663
 30
0
 11
2.11338944000001
 21
10.04999994666666
 31
0
  0
LINE
  8
0
 62
7
 10
2.936783150000011
 20
9.801666666666662
 30
0
 11
2.467954409999999
 21
9.801666666666662
 31
0
  0
LINE
  8
0
 62
7
 10
2.467954409999999
 20
9.866666666666664
 30
0
 11
2.936783150000011
 21
9.866666666666664
 31
0
  0
LINE
  8
0
 62
7
 10
2.936783150000011
 20
9.866666666666664
 30
0
 11
2.936783150000011
 21
9.801666666666662
 31
0
  0
LINE
  8
0
 62
7
 10
2.467954409999999
 20
9.801666666666662
 30
0
 11
2.467954409999999
 21
9.866666666666664
 31
0
  0
LINE
  8
0
 62
7
 10
3.251767580000011
 20
9.618333226666664
 30
0
 11
2.816938019999998
 21
9.618333226666664
 31
0
  0
LINE
  8
0
 62
7
 10
2.816938019999998
 20
9.683333226666662
 30
0
 11
3.251767580000011
 21
9.683333226666662
 31
0
  0
LINE
  8
0
 62
7
 10
3.251767580000011
 20
9.683333226666662
 30
0
 11
3.251767580000011
 21
9.618333226666664
 31
0
  0
LINE
  8
0
 62
7
 10
2.816938019999998
 20
9.618333226666664
 30
0
 11
2.816938019999998
 21
9.683333226666662
 31
0
  0
LINE
  8
0
 62
7
 10
3.60472832
 20
9.434999946666663
 30
0
 11
2.95527924
 21
9.434999946666663
 31
0
  0
LINE
  8
0
 62
7
 10
2.95527924
 20
9.499999946666664
 30
0
 11
3.60472832
 21
9.499999946666664
 31
0
  0
LINE
  8
0
 62
7
 10
3.60472832
 20
9.499999946666664
 30
0
 11
3.60472832
 21
9.434999946666663
 31
0
  0
LINE
  8
0
 62
7
 10
2.95527924
 20
9.434999946666663
 30
0
 11
2.95527924
 21
9.499999946666664
 31
0
  0
LINE
  8
0
 62
7
 10
4.039927219999998
 20
9.251666586666662
 30
0
 11
3.06124772000001
 21
9.251666586666662
 31
0
  0
LINE
  8
0
 62
7
 10
3.06124772000001
 20
9.316666586666662
 30
0
 11
4.039927219999998
 21
9.316666586666662
 31
0
  0
LINE
  8
0
 62
7
 10
4.039927219999998
 20
9.316666586666662
 30
0
 11
4.039927219999998
 21
9.251666586666662
 31
0
  0
LINE
  8
0
 62
7
 10
3.06124772000001
 20
9.251666586666662
 30
0
 11
3.06124772000001
 21
9.316666586666662
 31
0
  0
LINE
  8
0
 62
7
 10
4.355000199999998
 20
9.068333226666663
 30
0
 11
3.185823830000002
 21
9.068333226666663
 31
0
  0
LINE
  8
0
 62
7
 10
3.185823830000002
 20
9.133333226666663
 30
0
 11
4.355000199999998
 21
9.133333226666663
 31
0
  0
LINE
  8
0
 62
7
 10
4.355000199999998
 20
9.133333226666663
 30
0
 11
4.355000199999998
 21
9.068333226666663
 31
0
  0
LINE
  8
0
 62
7
 10
3.185823830000002
 20
9.068333226666663
 30
0
 11
3.185823830000002
 21
9.133333226666663
 31
0
  0
LINE
  8
0
 62
7
 10
3.29500016
 20
8.94999990666666
 30
0
 11
4.35500017
 21
8.94999990666666
 31
0
  0
LINE
  8
0
 62
7
 10
4.35500017
 20
8.94999990666666
 30
0
 11
4.35500017
 21
8.884999906666662
 31
0
  0
LINE
  8
0
 62
7
 10
3.29500016
 20
8.884999906666662
 30
0
 11
3.29500016
 21
8.94999990666666
 31
0
  0
LINE
  8
0
 62
7
 10
4.35500017
 20
8.884999906666662
 30
0
 11
3.29500016
 21
8.884999906666662
 31
0
  0
LINE
  8
0
 62
7
 10
3.29500016
 20
8.766666566666663
 30
0
 11
4.355000369999998
 21
8.766666566666663
 31
0
  0
LINE
  8
0
 62
7
 10
4.355000369999998
 20
8.766666566666663
 30
0
 11
4.355000369999998
 21
8.701666566666661
 31
0
  0
LINE
  8
0
 62
7
 10
3.29500016
 20
8.701666566666661
 30
0
 11
3.29500016
 21
8.766666566666663
 31
0
  0
LINE
  8
0
 62
7
 10
4.355000369999998
 20
8.701666566666661
 30
0
 11
3.29500016
 21
8.701666566666661
 31
0
  0
LINE
  8
0
 62
7
 10
3.29500016
 20
8.583333226666662
 30
0
 11
4.35500003000001
 21
8.583333226666662
 31
0
  0
LINE
  8
0
 62
7
 10
4.35500003000001
 20
8.583333226666662
 30
0
 11
4.35500003000001
 21
8.518333226666662
 31
0
  0
LINE
  8
0
 62
7
 10
3.29500016
 20
8.518333226666662
 30
0
 11
3.29500016
 21
8.583333226666662
 31
0
  0
LINE
  8
0
 62
7
 10
4.35500003000001
 20
8.518333226666662
 30
0
 11
3.29500016
 21
8.518333226666662
 31
0
  0
LINE
  8
0
 62
7
 10
6.589998820000002
 20
10.96666666666666
 30
0
 11
6.950959170000002
 21
10.96666666666666
 31
0
  0
LINE
  8
0
 62
7
 10
6.950959170000002
 20
10.90166666666666
 30
0
 11
6.589998820000002
 21
10.90166666666666
 31
0
  0
LINE
  8
0
 62
7
 10
6.589998820000002
 20
10.90166666666666
 30
0
 11
6.589998820000002
 21
10.96666666666666
 31
0
  0
LINE
  8
0
 62
7
 10
6.950959170000002
 20
10.96666666666666
 30
0
 11
6.950959170000002
 21
10.90166666666666
 31
0
  0
LINE
  8
0
 62
7
 10
7.332200699999999
 20
10.71833322666666
 30
0
 11
6.635292200000001
 21
10.71833322666666
 31
0
  0
LINE
  8
0
 62
7
 10
6.635292200000001
 20
10.78333322666666
 30
0
 11
7.332200699999999
 21
10.78333322666666
 31
0
  0
LINE
  8
0
 62
7
 10
6.635292200000001
 20
10.71833322666666
 30
0
 11
6.635292200000001
 21
10.78333322666666
 31
0
  0
LINE
  8
0
 62
7
 10
7.332200699999999
 20
10.78333322666666
 30
0
 11
7.332200699999999
 21
10.71833322666666
 31
0
  0
LINE
  8
0
 62
7
 10
7.797720949999996
 20
10.53499994666666
 30
0
 11
6.74716961
 21
10.53499994666666
 31
0
  0
LINE
  8
0
 62
7
 10
6.74716961
 20
10.59999994666666
 30
0
 11
7.797720949999996
 21
10.59999994666666
 31
0
  0
LINE
  8
0
 62
7
 10
6.74716961
 20
10.53499994666666
 30
0
 11
6.74716961
 21
10.59999994666666
 31
0
  0
LINE
  8
0
 62
7
 10
7.797720949999996
 20
10.59999994666666
 30
0
 11
7.797720949999996
 21
10.53499994666666
 31
0
  0
LINE
  8
0
 62
7
 10
6.84499946
 20
10.41666666666666
 30
0
 11
7.90499985
 21
10.41666666666666
 31
0
  0
LINE
  8
0
 62
7
 10
7.90499985
 20
10.35166666666666
 30
0
 11
6.84499946
 21
10.35166666666666
 31
0
  0
LINE
  8
0
 62
7
 10
6.84499946
 20
10.35166666666666
 30
0
 11
6.84499946
 21
10.41666666666666
 31
0
  0
LINE
  8
0
 62
7
 10
7.90499985
 20
10.41666666666666
 30
0
 11
7.90499985
 21
10.35166666666666
 31
0
  0
LINE
  8
0
 62
7
 10
6.844999619999999
 20
10.23333322666666
 30
0
 11
7.905
 21
10.23333322666666
 31
0
  0
LINE
  8
0
 62
7
 10
6.844999619999999
 20
10.16833322666666
 30
0
 11
6.844999619999999
 21
10.23333322666666
 31
0
  0
LINE
  8
0
 62
7
 10
7.905
 20
10.23333322666666
 30
0
 11
7.905
 21
10.16833322666666
 31
0
  0
LINE
  8
0
 62
7
 10
7.905
 20
10.16833322666666
 30
0
 11
6.844999619999999
 21
10.16833322666666
 31
0
  0
LINE
  8
0
 62
7
 10
6.844999619999999
 20
10.04999994666666
 30
0
 11
7.90499985
 21
10.04999994666666
 31
0
  0
LINE
  8
0
 62
7
 10
6.844999619999999
 20
9.984999946666663
 30
0
 11
6.844999619999999
 21
10.04999994666666
 31
0
  0
LINE
  8
0
 62
7
 10
7.90499985
 20
10.04999994666666
 30
0
 11
7.90499985
 21
9.984999946666663
 31
0
  0
LINE
  8
0
 62
7
 10
7.90499985
 20
9.984999946666663
 30
0
 11
6.844999619999999
 21
9.984999946666663
 31
0
  0
LINE
  8
0
 62
7
 10
6.84499958
 20
9.866666666666664
 30
0
 11
7.90499985
 21
9.866666666666664
 31
0
  0
LINE
  8
0
 62
7
 10
6.84499958
 20
9.801666666666662
 30
0
 11
6.84499958
 21
9.866666666666664
 31
0
  0
LINE
  8
0
 62
7
 10
7.90499985
 20
9.866666666666664
 30
0
 11
7.90499985
 21
9.801666666666662
 31
0
  0
LINE
  8
0
 62
7
 10
7.90499985
 20
9.801666666666662
 30
0
 11
6.84499958
 21
9.801666666666662
 31
0
  0
LINE
  8
0
 62
7
 10
6.84499977
 20
9.683333226666662
 30
0
 11
7.905
 21
9.683333226666662
 31
0
  0
LINE
  8
0
 62
7
 10
6.84499977
 20
9.618333226666664
 30
0
 11
6.84499977
 21
9.683333226666662
 31
0
  0
LINE
  8
0
 62
7
 10
7.905
 20
9.683333226666662
 30
0
 11
7.905
 21
9.618333226666664
 31
0
  0
LINE
  8
0
 62
7
 10
7.905
 20
9.618333226666664
 30
0
 11
6.84499977
 21
9.618333226666664
 31
0
  0
LINE
  8
0
 62
7
 10
6.844999659999999
 20
9.499999946666664
 30
0
 11
7.90499985
 21
9.499999946666664
 31
0
  0
LINE
  8
0
 62
7
 10
6.844999659999999
 20
9.434999946666663
 30
0
 11
6.844999659999999
 21
9.499999946666664
 31
0
  0
LINE
  8
0
 62
7
 10
7.90499985
 20
9.499999946666664
 30
0
 11
7.90499985
 21
9.434999946666663
 31
0
  0
LINE
  8
0
 62
7
 10
7.90499985
 20
9.434999946666663
 30
0
 11
6.844999659999999
 21
9.434999946666663
 31
0
  0
LINE
  8
0
 62
7
 10
6.84499977
 20
9.316666586666662
 30
0
 11
7.90499985
 21
9.316666586666662
 31
0
  0
LINE
  8
0
 62
7
 10
6.84499977
 20
9.251666586666662
 30
0
 11
6.84499977
 21
9.316666586666662
 31
0
  0
LINE
  8
0
 62
7
 10
7.90499985
 20
9.316666586666662
 30
0
 11
7.90499985
 21
9.251666586666662
 31
0
  0
LINE
  8
0
 62
7
 10
7.90499985
 20
9.251666586666662
 30
0
 11
6.84499977
 21
9.251666586666662
 31
0
  0
LINE
  8
0
 62
7
 10
7.90499985
 20
9.068333226666663
 30
0
 11
6.771476480000001
 21
9.068333226666663
 31
0
  0
LINE
  8
0
 62
7
 10
6.771476480000001
 20
9.133333226666663
 30
0
 11
7.90499985
 21
9.133333226666663
 31
0
  0
LINE
  8
0
 62
7
 10
6.771476480000001
 20
9.068333226666663
 30
0
 11
6.771476480000001
 21
9.133333226666663
 31
0
  0
LINE
  8
0
 62
7
 10
7.90499985
 20
9.133333226666663
 30
0
 11
7.90499985
 21
9.068333226666663
 31
0
  0
LINE
  8
0
 62
7
 10
7.774449309999998
 20
8.884999906666662
 30
0
 11
6.649381600000002
 21
8.884999906666662
 31
0
  0
LINE
  8
0
 62
7
 10
6.649381600000002
 20
8.94999990666666
 30
0
 11
7.774449309999998
 21
8.94999990666666
 31
0
  0
LINE
  8
0
 62
7
 10
6.649381600000002
 20
8.884999906666662
 30
0
 11
6.649381600000002
 21
8.94999990666666
 31
0
  0
LINE
  8
0
 62
7
 10
7.774449309999998
 20
8.94999990666666
 30
0
 11
7.774449309999998
 21
8.884999906666662
 31
0
  0
LINE
  8
0
 62
7
 10
7.277504730000001
 20
8.701666566666661
 30
0
 11
6.560446069999998
 21
8.701666566666661
 31
0
  0
LINE
  8
0
 62
7
 10
6.560446069999998
 20
8.766666566666663
 30
0
 11
7.277504730000001
 21
8.766666566666663
 31
0
  0
LINE
  8
0
 62
7
 10
6.560446069999998
 20
8.701666566666661
 30
0
 11
6.560446069999998
 21
8.766666566666663
 31
0
  0
LINE
  8
0
 62
7
 10
7.277504730000001
 20
8.766666566666663
 30
0
 11
7.277504730000001
 21
8.701666566666661
 31
0
  0
LINE
  8
0
 62
7
 10
6.45999977
 20
8.583333226666662
 30
0
 11
6.902757720000001
 21
8.583333226666662
 31
0
  0
LINE
  8
0
 62
7
 10
6.902757720000001
 20
8.518333226666662
 30
0
 11
6.45999977
 21
8.518333226666662
 31
0
  0
LINE
  8
0
 62
7
 10
6.45999977
 20
8.518333226666662
 30
0
 11
6.45999977
 21
8.583333226666662
 31
0
  0
LINE
  8
0
 62
7
 10
6.902757720000001
 20
8.583333226666662
 30
0
 11
6.902757720000001
 21
8.518333226666662
 31
0
  0
LINE
  8
0
 62
7
 10
0.9500000000000001
 20
8.099999999999993
 30
0
 11
1.1
 21
8.099999999999993
 31
0
  0
LINE
  8
0
 62
7
 10
0.9500000000000001
 20
8.299999999999992
 30
0
 11
1.1
 21
8.299999999999992
 31
0
  0
LINE
  8
0
 62
7
 10
0.9500000000000001
 20
10.84999999999999
 30
0
 11
1.1
 21
10.84999999999999
 31
0
  0
LINE
  8
0
 62
7
 10
0.9500000000000001
 20
11.04999999999999
 30
0
 11
1.1
 21
11.04999999999999
 31
0
  0
LINE
  8
0
 62
7
 10
1.1
 20
7.949999999999992
 30
0
 11
1.1
 21
8.099999999999993
 31
0
  0
LINE
  8
0
 62
7
 10
1.1
 20
8.099999999999993
 30
0
 11
1.275
 21
8.099999999999993
 31
0
  0
LINE
  8
0
 62
7
 10
1.1
 20
8.299999999999992
 30
0
 11
1.1
 21
8.399999999999991
 31
0
  0
LINE
  8
0
 62
7
 10
1.1
 20
8.299999999999992
 30
0
 11
1.275
 21
8.299999999999992
 31
0
  0
LINE
  8
0
 62
7
 10
1.1
 20
10.84999999999999
 30
0
 11
1.275
 21
10.84999999999999
 31
0
  0
LINE
  8
0
 62
7
 10
1.1
 20
11.04999999999999
 30
0
 11
1.1
 21
11.14999999999999
 31
0
  0
LINE
  8
0
 62
7
 10
1.1
 20
11.04999999999999
 30
0
 11
1.275
 21
11.04999999999999
 31
0
  0
LINE
  8
0
 62
7
 10
1.275
 20
7.949999999999992
 30
0
 11
1.275
 21
8.099999999999993
 31
0
  0
LINE
  8
0
 62
7
 10
1.275
 20
8.099999999999993
 30
0
 11
4.41
 21
8.099999999999993
 31
0
  0
LINE
  8
0
 62
7
 10
1.275
 20
8.299999999999992
 30
0
 11
1.275
 21
8.399999999999991
 31
0
  0
LINE
  8
0
 62
7
 10
1.275
 20
8.299999999999992
 30
0
 11
4.41
 21
8.299999999999992
 31
0
  0
LINE
  8
0
 62
7
 10
1.275
 20
10.84999999999999
 30
0
 11
4.41
 21
10.84999999999999
 31
0
  0
LINE
  8
0
 62
7
 10
1.275
 20
11.04999999999999
 30
0
 11
1.275
 21
11.14999999999999
 31
0
  0
LINE
  8
0
 62
7
 10
1.275
 20
11.04999999999999
 30
0
 11
4.41
 21
11.04999999999999
 31
0
  0
LINE
  8
0
 62
7
 10
4.41
 20
7.949999999999992
 30
0
 11
4.41
 21
8.099999999999993
 31
0
  0
LINE
  8
0
 62
7
 10
4.41
 20
8.099999999999993
 30
0
 11
4.585
 21
8.099999999999993
 31
0
  0
LINE
  8
0
 62
7
 10
4.41
 20
8.299999999999992
 30
0
 11
4.41
 21
8.399999999999991
 31
0
  0
LINE
  8
0
 62
7
 10
4.41
 20
8.299999999999992
 30
0
 11
4.585
 21
8.299999999999992
 31
0
  0
LINE
  8
0
 62
7
 10
4.41
 20
10.84999999999999
 30
0
 11
4.585
 21
10.84999999999999
 31
0
  0
LINE
  8
0
 62
7
 10
4.41
 20
11.04999999999999
 30
0
 11
4.41
 21
11.14999999999999
 31
0
  0
LINE
  8
0
 62
7
 10
4.41
 20
11.04999999999999
 30
0
 11
4.585
 21
11.04999999999999
 31
0
  0
LINE
  8
0
 62
7
 10
4.585
 20
7.949999999999992
 30
0
 11
4.585
 21
8.099999999999993
 31
0
  0
LINE
  8
0
 62
7
 10
4.585
 20
8.099999999999993
 30
0
 11
4.735
 21
8.099999999999993
 31
0
  0
LINE
  8
0
 62
7
 10
4.585
 20
8.299999999999992
 30
0
 11
4.585
 21
8.399999999999991
 31
0
  0
LINE
  8
0
 62
7
 10
4.585
 20
8.299999999999992
 30
0
 11
4.735
 21
8.299999999999992
 31
0
  0
LINE
  8
0
 62
7
 10
4.585
 20
10.84999999999999
 30
0
 11
4.735
 21
10.84999999999999
 31
0
  0
LINE
  8
0
 62
7
 10
4.585
 20
11.04999999999999
 30
0
 11
4.585
 21
11.14999999999999
 31
0
  0
LINE
  8
0
 62
7
 10
4.585
 20
11.04999999999999
 30
0
 11
4.735
 21
11.04999999999999
 31
0
  0
LINE
  8
0
 62
7
  6
DASHDOT
 10
0.9500000000000001
 20
8.049999999999992
 30
0
 11
0.9500000000000001
 21
8.099999999999993
 31
0
  0
LINE
  8
0
 62
7
  6
DASHDOT
 10
0.9500000000000001
 20
10.79999999999999
 30
0
 11
0.9500000000000001
 21
10.84999999999999
 31
0
  0
LINE
  8
0
 62
7
  6
DASHDOT
 10
4.735
 20
8.049999999999992
 30
0
 11
4.735
 21
8.099999999999993
 31
0
  0
LINE
  8
0
 62
7
  6
DASHDOT
 10
4.735
 20
10.79999999999999
 30
0
 11
4.735
 21
10.84999999999999
 31
0
  0
LINE
  8
0
 62
7
  6
DASHDOT
 10
1.05
 20
11.19999999999999
 30
0
 11
1.1
 21
11.19999999999999
 31
0
  0
LINE
  8
0
 62
7
  6
DASHDOT
 10
1.05
 20
7.949999999999992
 30
0
 11
1.1
 21
7.949999999999992
 31
0
  0
LINE
  8
0
 62
7
  6
DASHDOT
 10
4.36
 20
11.19999999999999
 30
0
 11
4.41
 21
11.19999999999999
 31
0
  0
LINE
  8
0
 62
7
  6
DASHDOT
 10
4.36
 20
7.949999999999992
 30
0
 11
4.41
 21
7.949999999999992
 31
0
  0
LINE
  8
0
 62
7
 10
0.9500000000000001
 20
8.399999999999991
 30
0
 11
1.1
 21
8.399999999999991
 31
0
  0
LINE
  8
0
 62
7
 10
1.1
 20
8.399999999999991
 30
0
 11
1.1
 21
10.84999999999999
 31
0
  0
LINE
  8
0
 62
7
  6
DASHDOT
 10
0.9500000000000001
 20
8.399999999999991
 30
0
 11
0.9500000000000001
 21
8.449999999999992
 31
0
  0
LINE
  8
0
 62
7
 10
1.275
 20
8.399999999999991
 30
0
 11
4.41
 21
8.399999999999991
 31
0
  0
LINE
  8
0
 62
7
 10
1.275
 20
8.399999999999991
 30
0
 11
1.275
 21
10.84999999999999
 31
0
  0
LINE
  8
0
 62
7
 10
4.41
 20
8.399999999999991
 30
0
 11
4.41
 21
10.84999999999999
 31
0
  0
LINE
  8
0
 62
7
 10
4.585
 20
8.399999999999991
 30
0
 11
4.735
 21
8.399999999999991
 31
0
  0
LINE
  8
0
 62
7
 10
4.585
 20
8.399999999999991
 30
0
 11
4.585
 21
10.84999999999999
 31
0
  0
LINE
  8
0
 62
7
  6
DASHDOT
 10
4.735
 20
8.399999999999991
 30
0
 11
4.735
 21
8.449999999999992
 31
0
  0
LINE
  8
0
 62
7
 10
0.9500000000000001
 20
11.14999999999999
 30
0
 11
1.1
 21
11.14999999999999
 31
0
  0
LINE
  8
0
 62
7
 10
1.1
 20
11.14999999999999
 30
0
 11
1.1
 21
11.19999999999999
 31
0
  0
LINE
  8
0
 62
7
  6
DASHDOT
 10
0.9500000000000001
 20
11.14999999999999
 30
0
 11
0.9500000000000001
 21
11.19999999999999
 31
0
  0
LINE
  8
0
 62
7
 10
1.275
 20
11.14999999999999
 30
0
 11
4.41
 21
11.14999999999999
 31
0
  0
LINE
  8
0
 62
7
 10
1.275
 20
11.14999999999999
 30
0
 11
1.275
 21
11.19999999999999
 31
0
  0
LINE
  8
0
 62
7
 10
4.41
 20
11.14999999999999
 30
0
 11
4.41
 21
11.19999999999999
 31
0
  0
LINE
  8
0
 62
7
 10
4.585
 20
11.14999999999999
 30
0
 11
4.735
 21
11.14999999999999
 31
0
  0
LINE
  8
0
 62
7
 10
4.585
 20
11.14999999999999
 30
0
 11
4.585
 21
11.19999999999999
 31
0
  0
LINE
  8
0
 62
7
  6
DASHDOT
 10
4.735
 20
11.14999999999999
 30
0
 11
4.735
 21
11.19999999999999
 31
0
  0
LINE
  8
0
 62
7
  6
DASHDOT
 10
4.735
 20
8.099999999999993
 30
0
 11
4.735
 21
8.299999999999992
 31
0
  0
LINE
  8
0
 62
7
  6
DASHDOT
 10
4.735
 20
8.299999999999992
 30
0
 11
4.735
 21
8.399999999999991
 31
0
  0
LINE
  8
0
 62
7
  6
DASHDOT
 10
4.41
 20
7.949999999999992
 30
0
 11
4.585
 21
7.949999999999992
 31
0
  0
LINE
  8
0
 62
7
  6
DASHDOT
 10
4.585
 20
7.949999999999992
 30
0
 11
4.635000000000001
 21
7.949999999999992
 31
0
  0
LINE
  8
0
 62
7
  6
DASHDOT
 10
0.9500000000000001
 20
8.099999999999993
 30
0
 11
0.9500000000000001
 21
8.299999999999992
 31
0
  0
LINE
  8
0
 62
7
  6
DASHDOT
 10
0.9500000000000001
 20
8.299999999999992
 30
0
 11
0.9500000000000001
 21
8.399999999999991
 31
0
  0
LINE
  8
0
 62
7
  6
DASHDOT
 10
1.1
 20
7.949999999999992
 30
0
 11
1.275
 21
7.949999999999992
 31
0
  0
LINE
  8
0
 62
7
  6
DASHDOT
 10
1.275
 20
7.949999999999992
 30
0
 11
1.325
 21
7.949999999999992
 31
0
  0
LINE
  8
0
 62
7
  6
DASHDOT
 10
0.9500000000000001
 20
10.84999999999999
 30
0
 11
0.9500000000000001
 21
11.04999999999999
 31
0
  0
LINE
  8
0
 62
7
  6
DASHDOT
 10
0.9500000000000001
 20
11.04999999999999
 30
0
 11
0.9500000000000001
 21
11.14999999999999
 31
0
  0
LINE
  8
0
 62
7
  6
DASHDOT
 10
1.1
 20
11.19999999999999
 30
0
 11
1.275
 21
11.19999999999999
 31
0
  0
LINE
  8
0
 62
7
  6
DASHDOT
 10
1.275
 20
11.19999999999999
 30
0
 11
1.325
 21
11.19999999999999
 31
0
  0
LINE
  8
0
 62
7
  6
DASHDOT
 10
4.735
 20
10.84999999999999
 30
0
 11
4.735
 21
11.04999999999999
 31
0
  0
LINE
  8
0
 62
7
  6
DASHDOT
 10
4.735
 20
11.04999999999999
 30
0
 11
4.735
 21
11.14999999999999
 31
0
  0
LINE
  8
0
 62
7
  6
DASHDOT
 10
4.41
 20
11.19999999999999
 30
0
 11
4.585
 21
11.19999999999999
 31
0
  0
LINE
  8
0
 62
7
  6
DASHDOT
 10
4.585
 20
11.19999999999999
 30
0
 11
4.635000000000001
 21
11.19999999999999
 31
0
  0
LINE
  8
0
 62
7
 10
8.200000000000001
 20
8.099999999999993
 30
0
 11
8.200000000000001
 21
7.949999999999992
 31
0
  0
LINE
  8
0
 62
7
 10
7.960000000000001
 20
11.04999999999999
 30
0
 11
7.960000000000001
 21
11.19999999999999
 31
0
  0
LINE
  8
0
 62
7
 10
7.960000000000001
 20
11.04999999999999
 30
0
 11
8.200000000000001
 21
11.04999999999999
 31
0
  0
LINE
  8
0
 62
7
 10
8.200000000000001
 20
11.19999999999999
 30
0
 11
8.200000000000001
 21
11.04999999999999
 31
0
  0
LINE
  8
0
 62
7
 10
7.960000000000001
 20
10.84999999999999
 30
0
 11
7.960000000000001
 21
11.04999999999999
 31
0
  0
LINE
  8
0
 62
7
 10
7.960000000000001
 20
10.84999999999999
 30
0
 11
8.200000000000001
 21
10.84999999999999
 31
0
  0
LINE
  8
0
 62
7
 10
8.200000000000001
 20
11.04999999999999
 30
0
 11
8.200000000000001
 21
10.84999999999999
 31
0
  0
LINE
  8
0
 62
7
 10
7.960000000000001
 20
8.299999999999992
 30
0
 11
7.960000000000001
 21
10.84999999999999
 31
0
  0
LINE
  8
0
 62
7
 10
7.960000000000001
 20
8.299999999999992
 30
0
 11
8.200000000000001
 21
8.299999999999992
 31
0
  0
LINE
  8
0
 62
7
 10
8.200000000000001
 20
10.84999999999999
 30
0
 11
8.200000000000001
 21
8.299999999999992
 31
0
  0
LINE
  8
0
 62
7
 10
7.960000000000001
 20
8.099999999999993
 30
0
 11
7.960000000000001
 21
8.299999999999992
 31
0
  0
LINE
  8
0
 62
7
 10
7.960000000000001
 20
8.099999999999993
 30
0
 11
8.200000000000001
 21
8.099999999999993
 31
0
  0
LINE
  8
0
 62
7
 10
8.200000000000001
 20
8.299999999999992
 30
0
 11
8.200000000000001
 21
8.099999999999993
 31
0
  0
LINE
  8
0
 62
7
 10
7.960000000000001
 20
7.949999999999992
 30
0
 11
7.960000000000001
 21
8.099999999999993
 31
0
  0
LINE
  8
0
 62
7
 10
6.560000000000008
 20
10.84999999999999
 30
0
 11
6.560000000000008
 21
11.04999999999999
 31
0
  0
LINE
  8
0
 62
7
 10
6.260000000000009
 20
10.84999999999999
 30
0
 11
6.560000000000008
 21
10.84999999999999
 31
0
  0
LINE
  8
0
 62
7
 10
6.260000000000009
 20
11.04999999999999
 30
0
 11
6.560000000000008
 21
11.04999999999999
 31
0
  0
LINE
  8
0
 62
7
 10
6.260000000000009
 20
8.299999999999992
 30
0
 11
6.560000000000008
 21
8.299999999999992
 31
0
  0
LINE
  8
0
 62
7
 10
6.560000000000008
 20
8.099999999999993
 30
0
 11
6.560000000000008
 21
8.299999999999992
 31
0
  0
LINE
  8
0
 62
7
 10
6.260000000000009
 20
8.099999999999993
 30
0
 11
6.560000000000008
 21
8.099999999999993
 31
0
  0
LINE
  8
0
 62
7
  6
DASHDOT
 10
8.200000000000001
 20
11.19999999999999
 30
0
 11
8.25
 21
11.19999999999999
 31
0
  0
LINE
  8
0
 62
7
  6
DASHDOT
 10
6.260000000000009
 20
11.14999999999999
 30
0
 11
6.260000000000009
 21
11.19999999999999
 31
0
  0
LINE
  8
0
 62
7
  6
DASHDOT
 10
6.260000000000009
 20
8.099999999999993
 30
0
 11
6.260000000000009
 21
8.049999999999992
 31
0
  0
LINE
  8
0
 62
7
  6
DASHDOT
 10
8.200000000000001
 20
7.949999999999992
 30
0
 11
8.25
 21
7.949999999999992
 31
0
  0
LINE
  8
0
 62
7
 10
6.260000000000009
 20
8.399999999999991
 30
0
 11
6.560000000000008
 21
8.399999999999991
 31
0
  0
LINE
  8
0
 62
7
  6
DASHDOT
 10
6.260000000000009
 20
8.449999999999992
 30
0
 11
6.260000000000009
 21
8.399999999999991
 31
0
  0
LINE
  8
0
 62
7
 10
6.260000000000009
 20
11.14999999999999
 30
0
 11
6.560000000000008
 21
11.14999999999999
 31
0
  0
LINE
  8
0
 62
7
  6
DASHDOT
 10
6.260000000000009
 20
11.04999999999999
 30
0
 11
6.260000000000009
 21
11.14999999999999
 31
0
  0
LINE
  8
0
 62
7
  6
DASHDOT
 10
6.260000000000009
 20
8.399999999999991
 30
0
 11
6.260000000000009
 21
8.299999999999992
 31
0
  0
LINE
  8
0
 62
7
  6
DASHDOT
 10
6.260000000000009
 20
8.299999999999992
 30
0
 11
6.260000000000009
 21
8.099999999999993
 31
0
  0
LINE
  8
0
 62
7
  6
DASHDOT
 10
7.960000000000001
 20
7.949999999999992
 30
0
 11
8.200000000000001
 21
7.949999999999992
 31
0
  0
LINE
  8
0
 62
7
  6
DASHDOT
 10
7.910000000000001
 20
7.949999999999992
 30
0
 11
7.960000000000001
 21
7.949999999999992
 31
0
  0
LINE
  8
0
 62
7
  6
DASHDOT
 10
7.910000000000001
 20
11.19999999999999
 30
0
 11
7.960000000000001
 21
11.19999999999999
 31
0
  0
LINE
  8
0
 62
7
  6
DASHDOT
 10
7.960000000000001
 20
11.19999999999999
 30
0
 11
8.200000000000001
 21
11.19999999999999
 31
0
  0
LINE
  8
0
 62
7
  6
DASHDOT
 10
6.260000000000009
 20
10.79999999999999
 30
0
 11
6.260000000000009
 21
10.84999999999999
 31
0
  0
LINE
  8
0
 62
7
  6
DASHDOT
 10
6.260000000000009
 20
10.84999999999999
 30
0
 11
6.260000000000009
 21
11.04999999999999
 31
0
  0
LINE
  8
0
 62
7
  6
DASHED
 10
6.560000000000008
 20
11.04999999999999
 30
0
 11
7.960000000000001
 21
11.04999999999999
 31
0
  0
LINE
  8
0
 62
7
  6
DASHED
 10
6.560000000000008
 20
10.84999999999999
 30
0
 11
7.960000000000001
 21
10.84999999999999
 31
0
  0
LINE
  8
0
 62
7
  6
DASHED
 10
6.560000000000008
 20
8.299999999999992
 30
0
 11
7.960000000000001
 21
8.299999999999992
 31
0
  0
LINE
  8
0
 62
7
  6
DASHED
 10
6.560000000000008
 20
8.099999999999993
 30
0
 11
7.960000000000001
 21
8.099999999999993
 31
0
  0
LINE
  8
0
 62
7
 10
4.585
 20
5.269999999999997
 30
0
 11
4.735
 21
5.269999999999997
 31
0
  0
LINE
  8
0
 62
7
 10
4.585
 20
5.419999999999997
 30
0
 11
4.585
 21
5.269999999999997
 31
0
  0
LINE
  8
0
 62
7
 10
4.41
 20
5.269999999999997
 30
0
 11
4.41
 21
5.419999999999997
 31
0
  0
LINE
  8
0
 62
7
 10
1.275
 20
5.269999999999997
 30
0
 11
4.41
 21
5.269999999999997
 31
0
  0
LINE
  8
0
 62
7
 10
1.275
 20
5.419999999999997
 30
0
 11
1.275
 21
5.269999999999997
 31
0
  0
LINE
  8
0
 62
7
 10
1.1
 20
5.269999999999997
 30
0
 11
1.1
 21
5.419999999999997
 31
0
  0
LINE
  8
0
 62
7
 10
0.9350000000000001
 20
5.269999999999997
 30
0
 11
1.1
 21
5.269999999999997
 31
0
  0
LINE
  8
0
 62
7
 10
0.9350000000000001
 20
5.030000000000001
 30
0
 11
4.735
 21
5.030000000000001
 31
0
  0
LINE
  8
0
 62
7
 10
0.9350000000000001
 20
4.99
 30
0
 11
4.735
 21
4.99
 31
0
  0
LINE
  8
0
 62
7
 10
4.585
 20
4.75
 30
0
 11
4.735
 21
4.75
 31
0
  0
LINE
  8
0
 62
7
 10
4.41
 20
3.35
 30
0
 11
4.41
 21
3.25
 31
0
  0
LINE
  8
0
 62
7
 10
4.41
 20
3.25
 30
0
 11
4.585
 21
3.25
 31
0
  0
LINE
  8
0
 62
7
 10
4.585
 20
3.25
 30
0
 11
4.585
 21
4.75
 31
0
  0
LINE
  8
0
 62
7
 10
1.275
 20
4.75
 30
0
 11
4.41
 21
4.75
 31
0
  0
LINE
  8
0
 62
7
 10
1.275
 20
3.4
 30
0
 11
1.275
 21
4.75
 31
0
  0
LINE
  8
0
 62
7
 10
1.1
 20
4.75
 30
0
 11
1.1
 21
3.35
 31
0
  0
LINE
  8
0
 62
7
 10
0.9350000000000001
 20
4.75
 30
0
 11
1.1
 21
4.75
 31
0
  0
LINE
  8
0
 62
7
 10
1.1
 20
3.35
 30
0
 11
1.275
 21
3.35
 31
0
  0
LINE
  8
0
 62
7
 10
4.41
 20
3.4
 30
0
 11
1.275
 21
3.4
 31
0
  0
LINE
  8
0
 62
7
 10
4.41
 20
4.75
 30
0
 11
4.41
 21
3.4
 31
0
  0
LINE
  8
0
 62
7
 10
1.275
 20
3.35
 30
0
 11
1.275
 21
3.4
 31
0
  0
LINE
  8
0
 62
7
  6
DASHDOT
 10
4.41
 20
3.35
 30
0
 11
1.275
 21
3.35
 31
0
  0
LINE
  8
0
 62
7
 10
4.41
 20
3.4
 30
0
 11
4.41
 21
3.35
 31
0
  0
LINE
  8
0
 62
7
  6
DASHDOT
 10
4.585
 20
5.419999999999997
 30
0
 11
4.635000000000001
 21
5.419999999999997
 31
0
  0
LINE
  8
0
 62
7
  6
DASHDOT
 10
1.275
 20
5.419999999999997
 30
0
 11
1.325
 21
5.419999999999997
 31
0
  0
LINE
  8
0
 62
7
  6
DASHDOT
 10
4.735
 20
5.269999999999997
 30
0
 11
4.735
 21
5.319999999999997
 31
0
  0
LINE
  8
0
 62
7
  6
DASHDOT
 10
0.9350000000000001
 20
5.269999999999997
 30
0
 11
0.9350000000000001
 21
5.319999999999997
 31
0
  0
LINE
  8
0
 62
7
  6
DASHDOT
 10
0.9350000000000001
 20
5.030000000000001
 30
0
 11
0.9350000000000001
 21
5.269999999999997
 31
0
  0
LINE
  8
0
 62
7
  6
DASHDOT
 10
0.9350000000000001
 20
4.7
 30
0
 11
0.9350000000000001
 21
4.75
 31
0
  0
LINE
  8
0
 62
7
  6
DASHDOT
 10
4.41
 20
5.419999999999997
 30
0
 11
4.585
 21
5.419999999999997
 31
0
  0
LINE
  8
0
 62
7
  6
DASHDOT
 10
4.36
 20
5.419999999999997
 30
0
 11
4.41
 21
5.419999999999997
 31
0
  0
LINE
  8
0
 62
7
  6
DASHDOT
 10
4.735
 20
5.030000000000001
 30
0
 11
4.735
 21
5.269999999999997
 31
0
  0
LINE
  8
0
 62
7
  6
DASHDOT
 10
4.735
 20
4.7
 30
0
 11
4.735
 21
4.75
 31
0
  0
LINE
  8
0
 62
7
  6
DASHDOT
 10
0.9350000000000001
 20
4.99
 30
0
 11
0.9350000000000001
 21
5.030000000000001
 31
0
  0
LINE
  8
0
 62
7
  6
DASHDOT
 10
4.735
 20
4.99
 30
0
 11
4.735
 21
5.030000000000001
 31
0
  0
LINE
  8
0
 62
7
  6
DASHDOT
 10
0.9350000000000001
 20
4.75
 30
0
 11
0.9350000000000001
 21
4.99
 31
0
  0
LINE
  8
0
 62
7
  6
DASHDOT
 10
4.735
 20
4.75
 30
0
 11
4.735
 21
4.99
 31
0
  0
LINE
  8
0
 62
7
  6
DASHDOT
 10
1.05
 20
5.419999999999997
 30
0
 11
1.1
 21
5.419999999999997
 31
0
  0
LINE
  8
0
 62
7
  6
DASHDOT
 10
1.1
 20
5.419999999999997
 30
0
 11
1.275
 21
5.419999999999997
 31
0
  0
LINE
  8
0
 62
7
 10
1.9773909412082
 20
4.43519266450917
 30
0
 11
1.9773909412082
 21
4.55519266450917
 31
0
  0
LINE
  8
0
 62
7
 10
2.0529909412082
 20
4.55519266450917
 30
0
 11
1.9989909412082
 21
4.49519266450917
 31
0
  0
LINE
  8
0
 62
7
 10
1.9989909412082
 20
4.49519266450917
 30
0
 11
2.0529909412082
 21
4.43519266450917
 31
0
  0
LINE
  8
0
 62
7
 10
1.9989909412082
 20
4.49519266450917
 30
0
 11
1.9773909412082
 21
4.471192664509171
 31
0
  0
LINE
  8
0
 62
7
 10
2.1609909412082
 20
4.55519266450917
 30
0
 11
2.085390941208201
 21
4.55519266450917
 31
0
  0
LINE
  8
0
 62
7
 10
2.085390941208201
 20
4.55519266450917
 30
0
 11
2.085390941208201
 21
4.49519266450917
 31
0
  0
LINE
  8
0
 62
7
 10
2.085390941208201
 20
4.43519266450917
 30
0
 11
2.1609909412082
 21
4.43519266450917
 31
0
  0
LINE
  8
0
 62
7
 10
2.1501909412082
 20
4.49519266450917
 30
0
 11
2.085390941208201
 21
4.49519266450917
 31
0
  0
LINE
  8
0
 62
7
 10
2.085390941208201
 20
4.49519266450917
 30
0
 11
2.085390941208201
 21
4.43519266450917
 31
0
  0
LINE
  8
0
 62
7
 10
2.1933909412082
 20
4.43519266450917
 30
0
 11
2.1933909412082
 21
4.55519266450917
 31
0
  0
LINE
  8
0
 62
7
 10
2.1933909412082
 20
4.55519266450917
 30
0
 11
2.2689909412082
 21
4.43519266450917
 31
0
  0
LINE
  8
0
 62
7
 10
2.2689909412082
 20
4.43519266450917
 30
0
 11
2.2689909412082
 21
4.55519266450917
 31
0
  0
LINE
  8
0
 62
7
 10
2.3013909412082
 20
4.43519266450917
 30
0
 11
2.3013909412082
 21
4.55519266450917
 31
0
  0
LINE
  8
0
 62
7
 10
2.3013909412082
 20
4.55519266450917
 30
0
 11
2.3769909412082
 21
4.43519266450917
 31
0
  0
LINE
  8
0
 62
7
 10
2.3769909412082
 20
4.43519266450917
 30
0
 11
2.3769909412082
 21
4.55519266450917
 31
0
  0
LINE
  8
0
 62
7
 10
2.4849909412082
 20
4.51919266450917
 30
0
 11
2.4822909412082
 21
4.53119266450917
 31
0
  0
LINE
  8
0
 62
7
 10
2.4822909412082
 20
4.53119266450917
 30
0
 11
2.4768909412082
 21
4.54019266450917
 31
0
  0
LINE
  8
0
 62
7
 10
2.4768909412082
 20
4.54019266450917
 30
0
 11
2.4714909412082
 21
4.54619266450917
 31
0
  0
LINE
  8
0
 62
7
 10
2.4714909412082
 20
4.54619266450917
 30
0
 11
2.4633909412082
 21
4.55219266450917
 31
0
  0
LINE
  8
0
 62
7
 10
2.4633909412082
 20
4.55219266450917
 30
0
 11
2.4552909412082
 21
4.55519266450917
 31
0
  0
LINE
  8
0
 62
7
 10
2.4552909412082
 20
4.55519266450917
 30
0
 11
2.4390909412082
 21
4.55519266450917
 31
0
  0
LINE
  8
0
 62
7
 10
2.4390909412082
 20
4.55519266450917
 30
0
 11
2.430990941208201
 21
4.55219266450917
 31
0
  0
LINE
  8
0
 62
7
 10
2.430990941208201
 20
4.55219266450917
 30
0
 11
2.4228909412082
 21
4.54619266450917
 31
0
  0
LINE
  8
0
 62
7
 10
2.4228909412082
 20
4.54619266450917
 30
0
 11
2.4174909412082
 21
4.54019266450917
 31
0
  0
LINE
  8
0
 62
7
 10
2.4174909412082
 20
4.54019266450917
 30
0
 11
2.4120909412082
 21
4.53119266450917
 31
0
  0
LINE
  8
0
 62
7
 10
2.4120909412082
 20
4.53119266450917
 30
0
 11
2.4093909412082
 21
4.51919266450917
 31
0
  0
LINE
  8
0
 62
7
 10
2.4093909412082
 20
4.51919266450917
 30
0
 11
2.4093909412082
 21
4.471192664509171
 31
0
  0
LINE
  8
0
 62
7
 10
2.4093909412082
 20
4.471192664509171
 30
0
 11
2.4120909412082
 21
4.45919266450917
 31
0
  0
LINE
  8
0
 62
7
 10
2.4120909412082
 20
4.45919266450917
 30
0
 11
2.4174909412082
 21
4.45019266450917
 31
0
  0
LINE
  8
0
 62
7
 10
2.4174909412082
 20
4.45019266450917
 30
0
 11
2.4228909412082
 21
4.44419266450917
 31
0
  0
LINE
  8
0
 62
7
 10
2.4228909412082
 20
4.44419266450917
 30
0
 11
2.430990941208201
 21
4.43819266450917
 31
0
  0
LINE
  8
0
 62
7
 10
2.430990941208201
 20
4.43819266450917
 30
0
 11
2.4390909412082
 21
4.43519266450917
 31
0
  0
LINE
  8
0
 62
7
 10
2.4390909412082
 20
4.43519266450917
 30
0
 11
2.4552909412082
 21
4.43519266450917
 31
0
  0
LINE
  8
0
 62
7
 10
2.4552909412082
 20
4.43519266450917
 30
0
 11
2.4633909412082
 21
4.43819266450917
 31
0
  0
LINE
  8
0
 62
7
 10
2.4633909412082
 20
4.43819266450917
 30
0
 11
2.4714909412082
 21
4.44419266450917
 31
0
  0
LINE
  8
0
 62
7
 10
2.4714909412082
 20
4.44419266450917
 30
0
 11
2.4768909412082
 21
4.45019266450917
 31
0
  0
LINE
  8
0
 62
7
 10
2.4768909412082
 20
4.45019266450917
 30
0
 11
2.4822909412082
 21
4.45919266450917
 31
0
  0
LINE
  8
0
 62
7
 10
2.4822909412082
 20
4.45919266450917
 30
0
 11
2.4849909412082
 21
4.471192664509171
 31
0
  0
LINE
  8
0
 62
7
 10
2.4849909412082
 20
4.471192664509171
 30
0
 11
2.4849909412082
 21
4.49519266450917
 31
0
  0
LINE
  8
0
 62
7
 10
2.4849909412082
 20
4.49519266450917
 30
0
 11
2.4525909412082
 21
4.49519266450917
 31
0
  0
LINE
  8
0
 62
7
 10
2.5632909412082
 20
4.55519266450917
 30
0
 11
2.5470909412082
 21
4.55519266450917
 31
0
  0
LINE
  8
0
 62
7
 10
2.5470909412082
 20
4.55519266450917
 30
0
 11
2.5389909412082
 21
4.55219266450917
 31
0
  0
LINE
  8
0
 62
7
 10
2.5389909412082
 20
4.55219266450917
 30
0
 11
2.5308909412082
 21
4.54619266450917
 31
0
  0
LINE
  8
0
 62
7
 10
2.5308909412082
 20
4.54619266450917
 30
0
 11
2.525490941208201
 21
4.54019266450917
 31
0
  0
LINE
  8
0
 62
7
 10
2.525490941208201
 20
4.54019266450917
 30
0
 11
2.5200909412082
 21
4.53119266450917
 31
0
  0
LINE
  8
0
 62
7
 10
2.5200909412082
 20
4.53119266450917
 30
0
 11
2.5173909412082
 21
4.51919266450917
 31
0
  0
LINE
  8
0
 62
7
 10
2.5173909412082
 20
4.51919266450917
 30
0
 11
2.5173909412082
 21
4.471192664509171
 31
0
  0
LINE
  8
0
 62
7
 10
2.5173909412082
 20
4.471192664509171
 30
0
 11
2.5200909412082
 21
4.45919266450917
 31
0
  0
LINE
  8
0
 62
7
 10
2.5200909412082
 20
4.45919266450917
 30
0
 11
2.525490941208201
 21
4.45019266450917
 31
0
  0
LINE
  8
0
 62
7
 10
2.525490941208201
 20
4.45019266450917
 30
0
 11
2.5308909412082
 21
4.44419266450917
 31
0
  0
LINE
  8
0
 62
7
 10
2.5308909412082
 20
4.44419266450917
 30
0
 11
2.5389909412082
 21
4.43819266450917
 31
0
  0
LINE
  8
0
 62
7
 10
2.5389909412082
 20
4.43819266450917
 30
0
 11
2.5470909412082
 21
4.43519266450917
 31
0
  0
LINE
  8
0
 62
7
 10
2.5470909412082
 20
4.43519266450917
 30
0
 11
2.5632909412082
 21
4.43519266450917
 31
0
  0
LINE
  8
0
 62
7
 10
2.5632909412082
 20
4.43519266450917
 30
0
 11
2.5713909412082
 21
4.43819266450917
 31
0
  0
LINE
  8
0
 62
7
 10
2.5713909412082
 20
4.43819266450917
 30
0
 11
2.579490941208201
 21
4.44419266450917
 31
0
  0
LINE
  8
0
 62
7
 10
2.579490941208201
 20
4.44419266450917
 30
0
 11
2.584890941208201
 21
4.45019266450917
 31
0
  0
LINE
  8
0
 62
7
 10
2.584890941208201
 20
4.45019266450917
 30
0
 11
2.5902909412082
 21
4.45919266450917
 31
0
  0
LINE
  8
0
 62
7
 10
2.5902909412082
 20
4.45919266450917
 30
0
 11
2.5929909412082
 21
4.471192664509171
 31
0
  0
LINE
  8
0
 62
7
 10
2.5929909412082
 20
4.471192664509171
 30
0
 11
2.5929909412082
 21
4.51919266450917
 31
0
  0
LINE
  8
0
 62
7
 10
2.5929909412082
 20
4.51919266450917
 30
0
 11
2.5902909412082
 21
4.53119266450917
 31
0
  0
LINE
  8
0
 62
7
 10
2.5902909412082
 20
4.53119266450917
 30
0
 11
2.584890941208201
 21
4.54019266450917
 31
0
  0
LINE
  8
0
 62
7
 10
2.584890941208201
 20
4.54019266450917
 30
0
 11
2.579490941208201
 21
4.54619266450917
 31
0
  0
LINE
  8
0
 62
7
 10
2.579490941208201
 20
4.54619266450917
 30
0
 11
2.5713909412082
 21
4.55219266450917
 31
0
  0
LINE
  8
0
 62
7
 10
2.5713909412082
 20
4.55219266450917
 30
0
 11
2.5632909412082
 21
4.55519266450917
 31
0
  0
LINE
  8
0
 62
7
 10
2.6145909412082
 20
4.55519266450917
 30
0
 11
2.6523909412082
 21
4.55519266450917
 31
0
  0
LINE
  8
0
 62
7
 10
2.6523909412082
 20
4.55519266450917
 30
0
 11
2.6523909412082
 21
4.43519266450917
 31
0
  0
LINE
  8
0
 62
7
 10
2.6523909412082
 20
4.55519266450917
 30
0
 11
2.690190941208201
 21
4.55519266450917
 31
0
  0
LINE
  8
0
 62
7
 10
2.7225909412082
 20
4.55519266450917
 30
0
 11
2.7603909412082
 21
4.55519266450917
 31
0
  0
LINE
  8
0
 62
7
 10
2.7603909412082
 20
4.55519266450917
 30
0
 11
2.7603909412082
 21
4.43519266450917
 31
0
  0
LINE
  8
0
 62
7
 10
2.7603909412082
 20
4.55519266450917
 30
0
 11
2.7981909412082
 21
4.55519266450917
 31
0
  0
LINE
  8
0
 62
7
 10
2.9169909412082
 20
4.47719266450917
 30
0
 11
2.9709909412082
 21
4.47719266450917
 31
0
  0
LINE
  8
0
 62
7
 10
3.0789909412082
 20
4.55519266450917
 30
0
 11
3.116790941208201
 21
4.55519266450917
 31
0
  0
LINE
  8
0
 62
7
 10
3.116790941208201
 20
4.55519266450917
 30
0
 11
3.116790941208201
 21
4.43519266450917
 31
0
  0
LINE
  8
0
 62
7
 10
3.116790941208201
 20
4.55519266450917
 30
0
 11
3.1545909412082
 21
4.55519266450917
 31
0
  0
LINE
  8
0
 62
7
 10
3.1869909412082
 20
4.43519266450917
 30
0
 11
3.1869909412082
 21
4.55519266450917
 31
0
  0
LINE
  8
0
 62
7
 10
3.1869909412082
 20
4.55519266450917
 30
0
 11
3.2382909412082
 21
4.55519266450917
 31
0
  0
LINE
  8
0
 62
7
 10
3.2382909412082
 20
4.55519266450917
 30
0
 11
3.249090941208201
 21
4.55219266450917
 31
0
  0
LINE
  8
0
 62
7
 10
3.249090941208201
 20
4.55219266450917
 30
0
 11
3.2571909412082
 21
4.54619266450917
 31
0
  0
LINE
  8
0
 62
7
 10
3.2571909412082
 20
4.54619266450917
 30
0
 11
3.2598909412082
 21
4.54019266450917
 31
0
  0
LINE
  8
0
 62
7
 10
3.2598909412082
 20
4.54019266450917
 30
0
 11
3.262590941208201
 21
4.53119266450917
 31
0
  0
LINE
  8
0
 62
7
 10
3.262590941208201
 20
4.53119266450917
 30
0
 11
3.262590941208201
 21
4.51919266450917
 31
0
  0
LINE
  8
0
 62
7
 10
3.262590941208201
 20
4.51919266450917
 30
0
 11
3.2598909412082
 21
4.51019266450917
 31
0
  0
LINE
  8
0
 62
7
 10
3.2598909412082
 20
4.51019266450917
 30
0
 11
3.2571909412082
 21
4.50419266450917
 31
0
  0
LINE
  8
0
 62
7
 10
3.2571909412082
 20
4.50419266450917
 30
0
 11
3.249090941208201
 21
4.49819266450917
 31
0
  0
LINE
  8
0
 62
7
 10
3.249090941208201
 20
4.49819266450917
 30
0
 11
3.2382909412082
 21
4.49519266450917
 31
0
  0
LINE
  8
0
 62
7
 10
3.2382909412082
 20
4.49519266450917
 30
0
 11
3.2301909412082
 21
4.49519266450917
 31
0
  0
LINE
  8
0
 62
7
 10
3.2301909412082
 20
4.49519266450917
 30
0
 11
3.262590941208201
 21
4.43519266450917
 31
0
  0
LINE
  8
0
 62
7
 10
3.2301909412082
 20
4.49519266450917
 30
0
 11
3.1869909412082
 21
4.49519266450917
 31
0
  0
LINE
  8
0
 62
7
 10
3.3597909412082
 20
4.55519266450917
 30
0
 11
3.2841909412082
 21
4.55519266450917
 31
0
  0
LINE
  8
0
 62
7
 10
3.2841909412082
 20
4.55519266450917
 30
0
 11
3.2841909412082
 21
4.49519266450917
 31
0
  0
LINE
  8
0
 62
7
 10
3.2841909412082
 20
4.43519266450917
 30
0
 11
3.3597909412082
 21
4.43519266450917
 31
0
  0
LINE
  8
0
 62
7
 10
3.348990941208202
 20
4.49519266450917
 30
0
 11
3.2841909412082
 21
4.49519266450917
 31
0
  0
LINE
  8
0
 62
7
 10
3.2841909412082
 20
4.49519266450917
 30
0
 11
3.2841909412082
 21
4.43519266450917
 31
0
  0
LINE
  8
0
 62
7
 10
3.392190941208201
 20
4.43519266450917
 30
0
 11
3.392190941208201
 21
4.49519266450917
 31
0
  0
LINE
  8
0
 62
7
 10
3.392190941208201
 20
4.55519266450917
 30
0
 11
3.4434909412082
 21
4.55519266450917
 31
0
  0
LINE
  8
0
 62
7
 10
3.4434909412082
 20
4.55519266450917
 30
0
 11
3.454290941208201
 21
4.55219266450917
 31
0
  0
LINE
  8
0
 62
7
 10
3.454290941208201
 20
4.55219266450917
 30
0
 11
3.462390941208201
 21
4.54619266450917
 31
0
  0
LINE
  8
0
 62
7
 10
3.462390941208201
 20
4.54619266450917
 30
0
 11
3.4650909412082
 21
4.54019266450917
 31
0
  0
LINE
  8
0
 62
7
 10
3.4650909412082
 20
4.54019266450917
 30
0
 11
3.4677909412082
 21
4.53119266450917
 31
0
  0
LINE
  8
0
 62
7
 10
3.4677909412082
 20
4.53119266450917
 30
0
 11
3.4677909412082
 21
4.51919266450917
 31
0
  0
LINE
  8
0
 62
7
 10
3.4677909412082
 20
4.51919266450917
 30
0
 11
3.4650909412082
 21
4.51019266450917
 31
0
  0
LINE
  8
0
 62
7
 10
3.4650909412082
 20
4.51019266450917
 30
0
 11
3.462390941208201
 21
4.50419266450917
 31
0
  0
LINE
  8
0
 62
7
 10
3.462390941208201
 20
4.50419266450917
 30
0
 11
3.454290941208201
 21
4.49819266450917
 31
0
  0
LINE
  8
0
 62
7
 10
3.454290941208201
 20
4.49819266450917
 30
0
 11
3.4434909412082
 21
4.49519266450917
 31
0
  0
LINE
  8
0
 62
7
 10
3.4434909412082
 20
4.49519266450917
 30
0
 11
3.392190941208201
 21
4.49519266450917
 31
0
  0
LINE
  8
0
 62
7
 10
3.392190941208201
 20
4.49519266450917
 30
0
 11
3.392190941208201
 21
4.55519266450917
 31
0
  0
LINE
  8
0
 62
7
 10
3.489390941208201
 20
4.43519266450917
 30
0
 11
3.489390941208201
 21
4.49519266450917
 31
0
  0
LINE
  8
0
 62
7
 10
3.489390941208201
 20
4.55519266450917
 30
0
 11
3.540690941208202
 21
4.55519266450917
 31
0
  0
LINE
  8
0
 62
7
 10
3.540690941208202
 20
4.55519266450917
 30
0
 11
3.551490941208201
 21
4.55219266450917
 31
0
  0
LINE
  8
0
 62
7
 10
3.551490941208201
 20
4.55219266450917
 30
0
 11
3.559590941208201
 21
4.54619266450917
 31
0
  0
LINE
  8
0
 62
7
 10
3.559590941208201
 20
4.54619266450917
 30
0
 11
3.5622909412082
 21
4.54019266450917
 31
0
  0
LINE
  8
0
 62
7
 10
3.5622909412082
 20
4.54019266450917
 30
0
 11
3.564990941208201
 21
4.53119266450917
 31
0
  0
LINE
  8
0
 62
7
 10
3.564990941208201
 20
4.53119266450917
 30
0
 11
3.564990941208201
 21
4.51919266450917
 31
0
  0
LINE
  8
0
 62
7
 10
3.564990941208201
 20
4.51919266450917
 30
0
 11
3.5622909412082
 21
4.51019266450917
 31
0
  0
LINE
  8
0
 62
7
 10
3.5622909412082
 20
4.51019266450917
 30
0
 11
3.559590941208201
 21
4.50419266450917
 31
0
  0
LINE
  8
0
 62
7
 10
3.559590941208201
 20
4.50419266450917
 30
0
 11
3.551490941208201
 21
4.49819266450917
 31
0
  0
LINE
  8
0
 62
7
 10
3.551490941208201
 20
4.49819266450917
 30
0
 11
3.540690941208202
 21
4.49519266450917
 31
0
  0
LINE
  8
0
 62
7
 10
3.540690941208202
 20
4.49519266450917
 30
0
 11
3.489390941208201
 21
4.49519266450917
 31
0
  0
LINE
  8
0
 62
7
 10
3.489390941208201
 20
4.49519266450917
 30
0
 11
3.489390941208201
 21
4.55519266450917
 31
0
  0
LINE
  8
0
 62
7
 10
3.6621909412082
 20
4.55519266450917
 30
0
 11
3.5865909412082
 21
4.55519266450917
 31
0
  0
LINE
  8
0
 62
7
 10
3.5865909412082
 20
4.55519266450917
 30
0
 11
3.5865909412082
 21
4.49519266450917
 31
0
  0
LINE
  8
0
 62
7
 10
3.5865909412082
 20
4.43519266450917
 30
0
 11
3.6621909412082
 21
4.43519266450917
 31
0
  0
LINE
  8
0
 62
7
 10
3.651390941208202
 20
4.49519266450917
 30
0
 11
3.5865909412082
 21
4.49519266450917
 31
0
  0
LINE
  8
0
 62
7
 10
3.5865909412082
 20
4.49519266450917
 30
0
 11
3.5865909412082
 21
4.43519266450917
 31
0
  0
LINE
  8
0
 62
7
 10
0.625
 20
2.889999999999999
 30
0
 11
0.625
 21
3.009999999999999
 31
0
  0
LINE
  8
0
 62
7
 10
0.625
 20
3.009999999999999
 30
0
 11
0.6682000000000001
 21
2.914
 31
0
  0
LINE
  8
0
 62
7
 10
0.6682000000000001
 20
2.914
 30
0
 11
0.7114
 21
3.009999999999999
 31
0
  0
LINE
  8
0
 62
7
 10
0.7114
 20
3.009999999999999
 30
0
 11
0.7114
 21
2.889999999999999
 31
0
  0
LINE
  8
0
 62
7
 10
0.7438
 20
2.992
 30
0
 11
0.7492000000000001
 21
3.001
 31
0
  0
LINE
  8
0
 62
7
 10
0.7492000000000001
 20
3.001
 30
0
 11
0.7573000000000001
 21
3.007
 31
0
  0
LINE
  8
0
 62
7
 10
0.7573000000000001
 20
3.007
 30
0
 11
0.7681
 21
3.009999999999999
 31
0
  0
LINE
  8
0
 62
7
 10
0.7681
 20
3.009999999999999
 30
0
 11
0.7843000000000001
 21
3.009999999999999
 31
0
  0
LINE
  8
0
 62
7
 10
0.7843000000000001
 20
3.009999999999999
 30
0
 11
0.7951
 21
3.007
 31
0
  0
LINE
  8
0
 62
7
 10
0.7951
 20
3.007
 30
0
 11
0.8032
 21
3.001
 31
0
  0
LINE
  8
0
 62
7
 10
0.8032
 20
3.001
 30
0
 11
0.8086000000000001
 21
2.992
 31
0
  0
LINE
  8
0
 62
7
 10
0.8086000000000001
 20
2.992
 30
0
 11
0.8086000000000001
 21
2.979999999999999
 31
0
  0
LINE
  8
0
 62
7
 10
0.8086000000000001
 20
2.979999999999999
 30
0
 11
0.8032
 21
2.968
 31
0
  0
LINE
  8
0
 62
7
 10
0.8032
 20
2.968
 30
0
 11
0.7438
 21
2.889999999999999
 31
0
  0
LINE
  8
0
 62
7
 10
0.7438
 20
2.889999999999999
 30
0
 11
0.8086000000000001
 21
2.889999999999999
 31
0
  0
LINE
  8
0
 62
7
 10
0.8410000000000002
 20
3.009999999999999
 30
0
 11
0.8788
 21
2.889999999999999
 31
0
  0
LINE
  8
0
 62
7
 10
0.8788
 20
2.889999999999999
 30
0
 11
0.9166000000000003
 21
3.009999999999999
 31
0
  0
LINE
  8
0
 62
7
 10
0.9490000000000001
 20
2.992
 30
0
 11
0.9544000000000001
 21
3.001
 31
0
  0
LINE
  8
0
 62
7
 10
0.9544000000000001
 20
3.001
 30
0
 11
0.9625
 21
3.007
 31
0
  0
LINE
  8
0
 62
7
 10
0.9625
 20
3.007
 30
0
 11
0.9733000000000001
 21
3.009999999999999
 31
0
  0
LINE
  8
0
 62
7
 10
0.9733000000000001
 20
3.009999999999999
 30
0
 11
0.9895
 21
3.009999999999999
 31
0
  0
LINE
  8
0
 62
7
 10
0.9895
 20
3.009999999999999
 30
0
 11
0.9976000000000002
 21
3.007
 31
0
  0
LINE
  8
0
 62
7
 10
0.9976000000000002
 20
3.007
 30
0
 11
1.0057
 21
3.001
 31
0
  0
LINE
  8
0
 62
7
 10
1.0057
 20
3.001
 30
0
 11
1.0111
 21
2.992
 31
0
  0
LINE
  8
0
 62
7
 10
1.0111
 20
2.992
 30
0
 11
1.0138
 21
2.979999999999999
 31
0
  0
LINE
  8
0
 62
7
 10
1.0138
 20
2.979999999999999
 30
0
 11
1.0138
 21
2.971
 31
0
  0
LINE
  8
0
 62
7
 10
1.0138
 20
2.971
 30
0
 11
1.0111
 21
2.962
 31
0
  0
LINE
  8
0
 62
7
 10
1.0111
 20
2.962
 30
0
 11
1.0057
 21
2.956
 31
0
  0
LINE
  8
0
 62
7
 10
1.0057
 20
2.956
 30
0
 11
0.9922000000000003
 21
2.949999999999999
 31
0
  0
LINE
  8
0
 62
7
 10
0.9733000000000001
 20
2.949999999999999
 30
0
 11
0.9922000000000003
 21
2.949999999999999
 31
0
  0
LINE
  8
0
 62
7
 10
0.9922000000000003
 20
2.949999999999999
 30
0
 11
1.0057
 21
2.944
 31
0
  0
LINE
  8
0
 62
7
 10
1.0057
 20
2.944
 30
0
 11
1.0111
 21
2.938
 31
0
  0
LINE
  8
0
 62
7
 10
1.0111
 20
2.938
 30
0
 11
1.0138
 21
2.929
 31
0
  0
LINE
  8
0
 62
7
 10
1.0138
 20
2.929
 30
0
 11
1.0138
 21
2.919999999999999
 31
0
  0
LINE
  8
0
 62
7
 10
1.0138
 20
2.919999999999999
 30
0
 11
1.0111
 21
2.908
 31
0
  0
LINE
  8
0
 62
7
 10
1.0111
 20
2.908
 30
0
 11
1.0057
 21
2.899
 31
0
  0
LINE
  8
0
 62
7
 10
1.0057
 20
2.899
 30
0
 11
0.9976000000000002
 21
2.893
 31
0
  0
LINE
  8
0
 62
7
 10
0.9976000000000002
 20
2.893
 30
0
 11
0.9895
 21
2.889999999999999
 31
0
  0
LINE
  8
0
 62
7
 10
0.9895
 20
2.889999999999999
 30
0
 11
0.9733000000000001
 21
2.889999999999999
 31
0
  0
LINE
  8
0
 62
7
 10
0.9733000000000001
 20
2.889999999999999
 30
0
 11
0.9625
 21
2.893
 31
0
  0
LINE
  8
0
 62
7
 10
0.9625
 20
2.893
 30
0
 11
0.9544000000000001
 21
2.899
 31
0
  0
LINE
  8
0
 62
7
 10
0.9544000000000001
 20
2.899
 30
0
 11
0.9490000000000001
 21
2.908
 31
0
  0
LINE
  8
0
 62
7
 10
1.0462
 20
2.974
 30
0
 11
1.0786
 21
3.009999999999999
 31
0
  0
LINE
  8
0
 62
7
 10
1.0786
 20
3.009999999999999
 30
0
 11
1.0786
 21
2.889999999999999
 31
0
  0
LINE
  8
0
 62
7
 10
1.111
 20
2.992
 30
0
 11
1.1164
 21
3.001
 31
0
  0
LINE
  8
0
 62
7
 10
1.1164
 20
3.001
 30
0
 11
1.1245
 21
3.007
 31
0
  0
LINE
  8
0
 62
7
 10
1.1245
 20
3.007
 30
0
 11
1.1353
 21
3.009999999999999
 31
0
  0
LINE
  8
0
 62
7
 10
1.1353
 20
3.009999999999999
 30
0
 11
1.1515
 21
3.009999999999999
 31
0
  0
LINE
  8
0
 62
7
 10
1.1515
 20
3.009999999999999
 30
0
 11
1.1596
 21
3.007
 31
0
  0
LINE
  8
0
 62
7
 10
1.1596
 20
3.007
 30
0
 11
1.1677
 21
3.001
 31
0
  0
LINE
  8
0
 62
7
 10
1.1677
 20
3.001
 30
0
 11
1.1731
 21
2.992
 31
0
  0
LINE
  8
0
 62
7
 10
1.1731
 20
2.992
 30
0
 11
1.1758
 21
2.979999999999999
 31
0
  0
LINE
  8
0
 62
7
 10
1.1758
 20
2.979999999999999
 30
0
 11
1.1758
 21
2.971
 31
0
  0
LINE
  8
0
 62
7
 10
1.1758
 20
2.971
 30
0
 11
1.1731
 21
2.962
 31
0
  0
LINE
  8
0
 62
7
 10
1.1731
 20
2.962
 30
0
 11
1.1677
 21
2.956
 31
0
  0
LINE
  8
0
 62
7
 10
1.1677
 20
2.956
 30
0
 11
1.1542
 21
2.949999999999999
 31
0
  0
LINE
  8
0
 62
7
 10
1.1353
 20
2.949999999999999
 30
0
 11
1.1542
 21
2.949999999999999
 31
0
  0
LINE
  8
0
 62
7
 10
1.1542
 20
2.949999999999999
 30
0
 11
1.1677
 21
2.944
 31
0
  0
LINE
  8
0
 62
7
 10
1.1677
 20
2.944
 30
0
 11
1.1731
 21
2.938
 31
0
  0
LINE
  8
0
 62
7
 10
1.1731
 20
2.938
 30
0
 11
1.1758
 21
2.929
 31
0
  0
LINE
  8
0
 62
7
 10
1.1758
 20
2.929
 30
0
 11
1.1758
 21
2.919999999999999
 31
0
  0
LINE
  8
0
 62
7
 10
1.1758
 20
2.919999999999999
 30
0
 11
1.1731
 21
2.908
 31
0
  0
LINE
  8
0
 62
7
 10
1.1731
 20
2.908
 30
0
 11
1.1677
 21
2.899
 31
0
  0
LINE
  8
0
 62
7
 10
1.1677
 20
2.899
 30
0
 11
1.1596
 21
2.893
 31
0
  0
LINE
  8
0
 62
7
 10
1.1596
 20
2.893
 30
0
 11
1.1515
 21
2.889999999999999
 31
0
  0
LINE
  8
0
 62
7
 10
1.1515
 20
2.889999999999999
 30
0
 11
1.1353
 21
2.889999999999999
 31
0
  0
LINE
  8
0
 62
7
 10
1.1353
 20
2.889999999999999
 30
0
 11
1.1245
 21
2.893
 31
0
  0
LINE
  8
0
 62
7
 10
1.1245
 20
2.893
 30
0
 11
1.1164
 21
2.899
 31
0
  0
LINE
  8
0
 62
7
 10
1.1164
 20
2.899
 30
0
 11
1.111
 21
2.908
 31
0
  0
LINE
  8
0
 62
7
 10
1.273
 20
2.889999999999999
 30
0
 11
1.2082
 21
2.889999999999999
 31
0
  0
LINE
  8
0
 62
7
 10
1.2082
 20
2.889999999999999
 30
0
 11
1.2082
 21
3.009999999999999
 31
0
  0
LINE
  8
0
 62
7
 10
1.3054
 20
2.938
 30
0
 11
1.3081
 21
2.949999999999999
 31
0
  0
LINE
  8
0
 62
7
 10
1.3081
 20
2.949999999999999
 30
0
 11
1.3135
 21
2.959
 31
0
  0
LINE
  8
0
 62
7
 10
1.3135
 20
2.959
 30
0
 11
1.3216
 21
2.964999999999999
 31
0
  0
LINE
  8
0
 62
7
 10
1.3216
 20
2.964999999999999
 30
0
 11
1.3297
 21
2.968
 31
0
  0
LINE
  8
0
 62
7
 10
1.3297
 20
2.968
 30
0
 11
1.3459
 21
2.968
 31
0
  0
LINE
  8
0
 62
7
 10
1.3459
 20
2.968
 30
0
 11
1.354
 21
2.964999999999999
 31
0
  0
LINE
  8
0
 62
7
 10
1.354
 20
2.964999999999999
 30
0
 11
1.3621
 21
2.959
 31
0
  0
LINE
  8
0
 62
7
 10
1.3621
 20
2.959
 30
0
 11
1.3675
 21
2.949999999999999
 31
0
  0
LINE
  8
0
 62
7
 10
1.3675
 20
2.949999999999999
 30
0
 11
1.3702
 21
2.938
 31
0
  0
LINE
  8
0
 62
7
 10
1.3702
 20
2.938
 30
0
 11
1.3702
 21
2.919999999999999
 31
0
  0
LINE
  8
0
 62
7
 10
1.3702
 20
2.919999999999999
 30
0
 11
1.3675
 21
2.908
 31
0
  0
LINE
  8
0
 62
7
 10
1.3675
 20
2.908
 30
0
 11
1.3621
 21
2.899
 31
0
  0
LINE
  8
0
 62
7
 10
1.3621
 20
2.899
 30
0
 11
1.354
 21
2.893
 31
0
  0
LINE
  8
0
 62
7
 10
1.354
 20
2.893
 30
0
 11
1.3459
 21
2.889999999999999
 31
0
  0
LINE
  8
0
 62
7
 10
1.3459
 20
2.889999999999999
 30
0
 11
1.3297
 21
2.889999999999999
 31
0
  0
LINE
  8
0
 62
7
 10
1.3297
 20
2.889999999999999
 30
0
 11
1.3216
 21
2.893
 31
0
  0
LINE
  8
0
 62
7
 10
1.3216
 20
2.893
 30
0
 11
1.3135
 21
2.899
 31
0
  0
LINE
  8
0
 62
7
 10
1.3135
 20
2.899
 30
0
 11
1.3081
 21
2.908
 31
0
  0
LINE
  8
0
 62
7
 10
1.3081
 20
2.908
 30
0
 11
1.3054
 21
2.919999999999999
 31
0
  0
LINE
  8
0
 62
7
 10
1.3054
 20
2.919999999999999
 30
0
 11
1.3054
 21
2.938
 31
0
  0
LINE
  8
0
 62
7
 10
1.3054
 20
2.979999999999999
 30
0
 11
1.3081
 21
2.992
 31
0
  0
LINE
  8
0
 62
7
 10
1.3081
 20
2.992
 30
0
 11
1.3135
 21
3.001
 31
0
  0
LINE
  8
0
 62
7
 10
1.3135
 20
3.001
 30
0
 11
1.3216
 21
3.007
 31
0
  0
LINE
  8
0
 62
7
 10
1.3216
 20
3.007
 30
0
 11
1.3297
 21
3.009999999999999
 31
0
  0
LINE
  8
0
 62
7
 10
1.3297
 20
3.009999999999999
 30
0
 11
1.3459
 21
3.009999999999999
 31
0
  0
LINE
  8
0
 62
7
 10
1.3459
 20
3.009999999999999
 30
0
 11
1.354
 21
3.007
 31
0
  0
LINE
  8
0
 62
7
 10
1.354
 20
3.007
 30
0
 11
1.3621
 21
3.001
 31
0
  0
LINE
  8
0
 62
7
 10
1.3621
 20
3.001
 30
0
 11
1.3675
 21
2.992
 31
0
  0
LINE
  8
0
 62
7
 10
1.3054
 20
2.938
 30
0
 11
1.3054
 21
2.979999999999999
 31
0
  0
LINE
  8
0
 62
7
 10
3.125
 20
2.889999999999999
 30
0
 11
3.125
 21
2.989999999999999
 31
0
  0
LINE
  8
0
 62
7
 10
3.125
 20
2.989999999999999
 30
0
 11
3.188
 21
2.889999999999999
 31
0
  0
LINE
  8
0
 62
7
 10
3.188
 20
2.889999999999999
 30
0
 11
3.188
 21
2.989999999999999
 31
0
  0
LINE
  8
0
 62
7
 10
3.269
 20
2.889999999999999
 30
0
 11
3.215
 21
2.889999999999999
 31
0
  0
LINE
  8
0
 62
7
 10
3.215
 20
2.889999999999999
 30
0
 11
3.215
 21
2.989999999999999
 31
0
  0
LINE
  8
0
 62
7
 10
3.296
 20
2.94
 30
0
 11
3.332
 21
2.94
 31
0
  0
LINE
  8
0
 62
7
 10
3.332
 20
2.94
 30
0
 11
3.3365
 21
2.94
 31
0
  0
LINE
  8
0
 62
7
 10
3.3365
 20
2.94
 30
0
 11
3.3455
 21
2.934999999999999
 31
0
  0
LINE
  8
0
 62
7
 10
3.3455
 20
2.934999999999999
 30
0
 11
3.35
 21
2.929999999999999
 31
0
  0
LINE
  8
0
 62
7
 10
3.35
 20
2.929999999999999
 30
0
 11
3.3545
 21
2.919999999999999
 31
0
  0
LINE
  8
0
 62
7
 10
3.3545
 20
2.919999999999999
 30
0
 11
3.3545
 21
2.909999999999999
 31
0
  0
LINE
  8
0
 62
7
 10
3.3545
 20
2.909999999999999
 30
0
 11
3.35
 21
2.899999999999999
 31
0
  0
LINE
  8
0
 62
7
 10
3.35
 20
2.899999999999999
 30
0
 11
3.3455
 21
2.895
 31
0
  0
LINE
  8
0
 62
7
 10
3.3455
 20
2.895
 30
0
 11
3.3365
 21
2.889999999999999
 31
0
  0
LINE
  8
0
 62
7
 10
3.3365
 20
2.889999999999999
 30
0
 11
3.296
 21
2.889999999999999
 31
0
  0
LINE
  8
0
 62
7
 10
3.296
 20
2.889999999999999
 30
0
 11
3.296
 21
2.94
 31
0
  0
LINE
  8
0
 62
7
 10
3.296
 20
2.989999999999999
 30
0
 11
3.32975
 21
2.989999999999999
 31
0
  0
LINE
  8
0
 62
7
 10
3.32975
 20
2.989999999999999
 30
0
 11
3.341000000000001
 21
2.987499999999999
 31
0
  0
LINE
  8
0
 62
7
 10
3.341000000000001
 20
2.987499999999999
 30
0
 11
3.34775
 21
2.979999999999999
 31
0
  0
LINE
  8
0
 62
7
 10
3.34775
 20
2.979999999999999
 30
0
 11
3.35
 21
2.969999999999999
 31
0
  0
LINE
  8
0
 62
7
 10
3.35
 20
2.969999999999999
 30
0
 11
3.35
 21
2.959999999999999
 31
0
  0
LINE
  8
0
 62
7
 10
3.35
 20
2.959999999999999
 30
0
 11
3.3455
 21
2.949999999999999
 31
0
  0
LINE
  8
0
 62
7
 10
3.3455
 20
2.949999999999999
 30
0
 11
3.338750000000001
 21
2.942499999999999
 31
0
  0
LINE
  8
0
 62
7
 10
3.338750000000001
 20
2.942499999999999
 30
0
 11
3.332
 21
2.94
 31
0
  0
LINE
  8
0
 62
7
 10
3.296
 20
2.94
 30
0
 11
3.296
 21
2.989999999999999
 31
0
  0
LINE
  8
0
 62
7
 10
3.49625
 20
2.942499999999999
 30
0
 11
3.4895
 21
2.952499999999999
 31
0
  0
LINE
  8
0
 62
7
 10
3.4895
 20
2.952499999999999
 30
0
 11
3.48275
 21
2.9575
 31
0
  0
LINE
  8
0
 62
7
 10
3.48275
 20
2.9575
 30
0
 11
3.476
 21
2.959999999999999
 31
0
  0
LINE
  8
0
 62
7
 10
3.476
 20
2.959999999999999
 30
0
 11
3.467000000000001
 21
2.959999999999999
 31
0
  0
LINE
  8
0
 62
7
 10
3.467000000000001
 20
2.959999999999999
 30
0
 11
3.46025
 21
2.9575
 31
0
  0
LINE
  8
0
 62
7
 10
3.46025
 20
2.9575
 30
0
 11
3.4535
 21
2.952499999999999
 31
0
  0
LINE
  8
0
 62
7
 10
3.4535
 20
2.952499999999999
 30
0
 11
3.44675
 21
2.942499999999999
 31
0
  0
LINE
  8
0
 62
7
 10
3.44675
 20
2.942499999999999
 30
0
 11
3.4445
 21
2.934999999999999
 31
0
  0
LINE
  8
0
 62
7
 10
3.4445
 20
2.934999999999999
 30
0
 11
3.4445
 21
2.914999999999999
 31
0
  0
LINE
  8
0
 62
7
 10
3.4445
 20
2.914999999999999
 30
0
 11
3.44675
 21
2.907499999999999
 31
0
  0
LINE
  8
0
 62
7
 10
3.44675
 20
2.907499999999999
 30
0
 11
3.4535
 21
2.897499999999999
 31
0
  0
LINE
  8
0
 62
7
 10
3.4535
 20
2.897499999999999
 30
0
 11
3.46025
 21
2.892499999999999
 31
0
  0
LINE
  8
0
 62
7
 10
3.46025
 20
2.892499999999999
 30
0
 11
3.467000000000001
 21
2.889999999999999
 31
0
  0
LINE
  8
0
 62
7
 10
3.467000000000001
 20
2.889999999999999
 30
0
 11
3.476
 21
2.889999999999999
 31
0
  0
LINE
  8
0
 62
7
 10
3.476
 20
2.889999999999999
 30
0
 11
3.48275
 21
2.892499999999999
 31
0
  0
LINE
  8
0
 62
7
 10
3.48275
 20
2.892499999999999
 30
0
 11
3.4895
 21
2.897499999999999
 31
0
  0
LINE
  8
0
 62
7
 10
3.4895
 20
2.897499999999999
 30
0
 11
3.49625
 21
2.907499999999999
 31
0
  0
LINE
  8
0
 62
7
 10
3.56825
 20
2.934999999999999
 30
0
 11
3.566000000000001
 21
2.942499999999999
 31
0
  0
LINE
  8
0
 62
7
 10
3.566000000000001
 20
2.942499999999999
 30
0
 11
3.55925
 21
2.952499999999999
 31
0
  0
LINE
  8
0
 62
7
 10
3.55925
 20
2.952499999999999
 30
0
 11
3.5525
 21
2.9575
 31
0
  0
LINE
  8
0
 62
7
 10
3.5525
 20
2.9575
 30
0
 11
3.54575
 21
2.959999999999999
 31
0
  0
LINE
  8
0
 62
7
 10
3.54575
 20
2.959999999999999
 30
0
 11
3.53675
 21
2.959999999999999
 31
0
  0
LINE
  8
0
 62
7
 10
3.53675
 20
2.959999999999999
 30
0
 11
3.530000000000001
 21
2.9575
 31
0
  0
LINE
  8
0
 62
7
 10
3.530000000000001
 20
2.9575
 30
0
 11
3.52325
 21
2.952499999999999
 31
0
  0
LINE
  8
0
 62
7
 10
3.52325
 20
2.952499999999999
 30
0
 11
3.5165
 21
2.942499999999999
 31
0
  0
LINE
  8
0
 62
7
 10
3.5165
 20
2.942499999999999
 30
0
 11
3.51425
 21
2.934999999999999
 31
0
  0
LINE
  8
0
 62
7
 10
3.51425
 20
2.934999999999999
 30
0
 11
3.51425
 21
2.914999999999999
 31
0
  0
LINE
  8
0
 62
7
 10
3.51425
 20
2.914999999999999
 30
0
 11
3.5165
 21
2.907499999999999
 31
0
  0
LINE
  8
0
 62
7
 10
3.5165
 20
2.907499999999999
 30
0
 11
3.52325
 21
2.897499999999999
 31
0
  0
LINE
  8
0
 62
7
 10
3.52325
 20
2.897499999999999
 30
0
 11
3.530000000000001
 21
2.892499999999999
 31
0
  0
LINE
  8
0
 62
7
 10
3.530000000000001
 20
2.892499999999999
 30
0
 11
3.53675
 21
2.889999999999999
 31
0
  0
LINE
  8
0
 62
7
 10
3.53675
 20
2.889999999999999
 30
0
 11
3.54575
 21
2.889999999999999
 31
0
  0
LINE
  8
0
 62
7
 10
3.54575
 20
2.889999999999999
 30
0
 11
3.5525
 21
2.892499999999999
 31
0
  0
LINE
  8
0
 62
7
 10
3.5525
 20
2.892499999999999
 30
0
 11
3.55925
 21
2.897499999999999
 31
0
  0
LINE
  8
0
 62
7
 10
3.55925
 20
2.897499999999999
 30
0
 11
3.566000000000001
 21
2.907499999999999
 31
0
  0
LINE
  8
0
 62
7
 10
3.566000000000001
 20
2.907499999999999
 30
0
 11
3.56825
 21
2.914999999999999
 31
0
  0
LINE
  8
0
 62
7
 10
3.56825
 20
2.959999999999999
 30
0
 11
3.56825
 21
2.934999999999999
 31
0
  0
LINE
  8
0
 62
7
 10
3.56825
 20
2.892499999999999
 30
0
 11
3.5705
 21
2.889999999999999
 31
0
  0
LINE
  8
0
 62
7
 10
3.5705
 20
2.889999999999999
 30
0
 11
3.57275
 21
2.889999999999999
 31
0
  0
LINE
  8
0
 62
7
 10
3.56825
 20
2.914999999999999
 30
0
 11
3.56825
 21
2.892499999999999
 31
0
  0
LINE
  8
0
 62
7
 10
3.56825
 20
2.934999999999999
 30
0
 11
3.56825
 21
2.914999999999999
 31
0
  0
LINE
  8
0
 62
7
 10
3.59075
 20
2.889999999999999
 30
0
 11
3.59075
 21
2.892499999999999
 31
0
  0
LINE
  8
0
 62
7
 10
3.59075
 20
2.892499999999999
 30
0
 11
3.593
 21
2.892499999999999
 31
0
  0
LINE
  8
0
 62
7
 10
3.593
 20
2.892499999999999
 30
0
 11
3.593
 21
2.889999999999999
 31
0
  0
LINE
  8
0
 62
7
 10
3.593
 20
2.889999999999999
 30
0
 11
3.59075
 21
2.889999999999999
 31
0
  0
LINE
  8
0
 62
7
 10
3.69425
 20
2.959999999999999
 30
0
 11
3.72125
 21
2.989999999999999
 31
0
  0
LINE
  8
0
 62
7
 10
3.72125
 20
2.989999999999999
 30
0
 11
3.72125
 21
2.889999999999999
 31
0
  0
LINE
  8
0
 62
7
 10
3.748250000000001
 20
2.964999999999999
 30
0
 11
3.750500000000001
 21
2.975
 31
0
  0
LINE
  8
0
 62
7
 10
3.750500000000001
 20
2.975
 30
0
 11
3.755000000000001
 21
2.982499999999999
 31
0
  0
LINE
  8
0
 62
7
 10
3.755000000000001
 20
2.982499999999999
 30
0
 11
3.76175
 21
2.987499999999999
 31
0
  0
LINE
  8
0
 62
7
 10
3.76175
 20
2.987499999999999
 30
0
 11
3.7685
 21
2.989999999999999
 31
0
  0
LINE
  8
0
 62
7
 10
3.7685
 20
2.989999999999999
 30
0
 11
3.782
 21
2.989999999999999
 31
0
  0
LINE
  8
0
 62
7
 10
3.782
 20
2.989999999999999
 30
0
 11
3.78875
 21
2.987499999999999
 31
0
  0
LINE
  8
0
 62
7
 10
3.78875
 20
2.987499999999999
 30
0
 11
3.7955
 21
2.982499999999999
 31
0
  0
LINE
  8
0
 62
7
 10
3.7955
 20
2.982499999999999
 30
0
 11
3.8
 21
2.975
 31
0
  0
LINE
  8
0
 62
7
 10
3.8
 20
2.975
 30
0
 11
3.80225
 21
2.964999999999999
 31
0
  0
LINE
  8
0
 62
7
 10
3.80225
 20
2.964999999999999
 30
0
 11
3.80225
 21
2.914999999999999
 31
0
  0
LINE
  8
0
 62
7
 10
3.80225
 20
2.914999999999999
 30
0
 11
3.8
 21
2.904999999999999
 31
0
  0
LINE
  8
0
 62
7
 10
3.8
 20
2.904999999999999
 30
0
 11
3.7955
 21
2.897499999999999
 31
0
  0
LINE
  8
0
 62
7
 10
3.7955
 20
2.897499999999999
 30
0
 11
3.78875
 21
2.892499999999999
 31
0
  0
LINE
  8
0
 62
7
 10
3.78875
 20
2.892499999999999
 30
0
 11
3.782
 21
2.889999999999999
 31
0
  0
LINE
  8
0
 62
7
 10
3.782
 20
2.889999999999999
 30
0
 11
3.7685
 21
2.889999999999999
 31
0
  0
LINE
  8
0
 62
7
 10
3.7685
 20
2.889999999999999
 30
0
 11
3.76175
 21
2.892499999999999
 31
0
  0
LINE
  8
0
 62
7
 10
3.76175
 20
2.892499999999999
 30
0
 11
3.755000000000001
 21
2.897499999999999
 31
0
  0
LINE
  8
0
 62
7
 10
3.755000000000001
 20
2.897499999999999
 30
0
 11
3.750500000000001
 21
2.904999999999999
 31
0
  0
LINE
  8
0
 62
7
 10
3.750500000000001
 20
2.904999999999999
 30
0
 11
3.748250000000001
 21
2.914999999999999
 31
0
  0
LINE
  8
0
 62
7
 10
3.748250000000001
 20
2.914999999999999
 30
0
 11
3.748250000000001
 21
2.964999999999999
 31
0
  0
LINE
  8
0
 62
7
 10
3.82925
 20
2.964999999999999
 30
0
 11
3.8315
 21
2.975
 31
0
  0
LINE
  8
0
 62
7
 10
3.8315
 20
2.975
 30
0
 11
3.836
 21
2.982499999999999
 31
0
  0
LINE
  8
0
 62
7
 10
3.836
 20
2.982499999999999
 30
0
 11
3.842750000000001
 21
2.987499999999999
 31
0
  0
LINE
  8
0
 62
7
 10
3.842750000000001
 20
2.987499999999999
 30
0
 11
3.8495
 21
2.989999999999999
 31
0
  0
LINE
  8
0
 62
7
 10
3.8495
 20
2.989999999999999
 30
0
 11
3.863
 21
2.989999999999999
 31
0
  0
LINE
  8
0
 62
7
 10
3.863
 20
2.989999999999999
 30
0
 11
3.86975
 21
2.987499999999999
 31
0
  0
LINE
  8
0
 62
7
 10
3.86975
 20
2.987499999999999
 30
0
 11
3.8765
 21
2.982499999999999
 31
0
  0
LINE
  8
0
 62
7
 10
3.8765
 20
2.982499999999999
 30
0
 11
3.881
 21
2.975
 31
0
  0
LINE
  8
0
 62
7
 10
3.881
 20
2.975
 30
0
 11
3.88325
 21
2.964999999999999
 31
0
  0
LINE
  8
0
 62
7
 10
3.88325
 20
2.964999999999999
 30
0
 11
3.88325
 21
2.914999999999999
 31
0
  0
LINE
  8
0
 62
7
 10
3.88325
 20
2.914999999999999
 30
0
 11
3.881
 21
2.904999999999999
 31
0
  0
LINE
  8
0
 62
7
 10
3.881
 20
2.904999999999999
 30
0
 11
3.8765
 21
2.897499999999999
 31
0
  0
LINE
  8
0
 62
7
 10
3.8765
 20
2.897499999999999
 30
0
 11
3.86975
 21
2.892499999999999
 31
0
  0
LINE
  8
0
 62
7
 10
3.86975
 20
2.892499999999999
 30
0
 11
3.863
 21
2.889999999999999
 31
0
  0
LINE
  8
0
 62
7
 10
3.863
 20
2.889999999999999
 30
0
 11
3.8495
 21
2.889999999999999
 31
0
  0
LINE
  8
0
 62
7
 10
3.8495
 20
2.889999999999999
 30
0
 11
3.842750000000001
 21
2.892499999999999
 31
0
  0
LINE
  8
0
 62
7
 10
3.842750000000001
 20
2.892499999999999
 30
0
 11
3.836
 21
2.897499999999999
 31
0
  0
LINE
  8
0
 62
7
 10
3.836
 20
2.897499999999999
 30
0
 11
3.8315
 21
2.904999999999999
 31
0
  0
LINE
  8
0
 62
7
 10
3.8315
 20
2.904999999999999
 30
0
 11
3.82925
 21
2.914999999999999
 31
0
  0
LINE
  8
0
 62
7
 10
3.82925
 20
2.914999999999999
 30
0
 11
3.82925
 21
2.964999999999999
 31
0
  0
LINE
  8
0
 62
7
 10
4.034000000000001
 20
2.942499999999999
 30
0
 11
4.02725
 21
2.952499999999999
 31
0
  0
LINE
  8
0
 62
7
 10
4.02725
 20
2.952499999999999
 30
0
 11
4.0205
 21
2.9575
 31
0
  0
LINE
  8
0
 62
7
 10
4.0205
 20
2.9575
 30
0
 11
4.013750000000001
 21
2.959999999999999
 31
0
  0
LINE
  8
0
 62
7
 10
4.013750000000001
 20
2.959999999999999
 30
0
 11
4.00475
 21
2.959999999999999
 31
0
  0
LINE
  8
0
 62
7
 10
4.00475
 20
2.959999999999999
 30
0
 11
3.998000000000001
 21
2.9575
 31
0
  0
LINE
  8
0
 62
7
 10
3.998000000000001
 20
2.9575
 30
0
 11
3.99125
 21
2.952499999999999
 31
0
  0
LINE
  8
0
 62
7
 10
3.99125
 20
2.952499999999999
 30
0
 11
3.9845
 21
2.942499999999999
 31
0
  0
LINE
  8
0
 62
7
 10
3.9845
 20
2.942499999999999
 30
0
 11
3.98225
 21
2.934999999999999
 31
0
  0
LINE
  8
0
 62
7
 10
3.98225
 20
2.934999999999999
 30
0
 11
3.98225
 21
2.914999999999999
 31
0
  0
LINE
  8
0
 62
7
 10
3.98225
 20
2.914999999999999
 30
0
 11
3.9845
 21
2.907499999999999
 31
0
  0
LINE
  8
0
 62
7
 10
3.9845
 20
2.907499999999999
 30
0
 11
3.99125
 21
2.897499999999999
 31
0
  0
LINE
  8
0
 62
7
 10
3.99125
 20
2.897499999999999
 30
0
 11
3.998000000000001
 21
2.892499999999999
 31
0
  0
LINE
  8
0
 62
7
 10
3.998000000000001
 20
2.892499999999999
 30
0
 11
4.00475
 21
2.889999999999999
 31
0
  0
LINE
  8
0
 62
7
 10
4.00475
 20
2.889999999999999
 30
0
 11
4.013750000000001
 21
2.889999999999999
 31
0
  0
LINE
  8
0
 62
7
 10
4.013750000000001
 20
2.889999999999999
 30
0
 11
4.0205
 21
2.892499999999999
 31
0
  0
LINE
  8
0
 62
7
 10
4.0205
 20
2.892499999999999
 30
0
 11
4.02725
 21
2.897499999999999
 31
0
  0
LINE
  8
0
 62
7
 10
4.02725
 20
2.897499999999999
 30
0
 11
4.034000000000001
 21
2.907499999999999
 31
0
  0
LINE
  8
0
 62
7
 10
4.0925
 20
2.934999999999999
 30
0
 11
4.0925
 21
2.889999999999999
 31
0
  0
LINE
  8
0
 62
7
 10
4.052
 20
2.959999999999999
 30
0
 11
4.052
 21
2.934999999999999
 31
0
  0
LINE
  8
0
 62
7
 10
4.052
 20
2.889999999999999
 30
0
 11
4.052
 21
2.934999999999999
 31
0
  0
LINE
  8
0
 62
7
 10
4.052
 20
2.934999999999999
 30
0
 11
4.054250000000001
 21
2.947499999999999
 31
0
  0
LINE
  8
0
 62
7
 10
4.054250000000001
 20
2.947499999999999
 30
0
 11
4.0565
 21
2.952499999999999
 31
0
  0
LINE
  8
0
 62
7
 10
4.0565
 20
2.952499999999999
 30
0
 11
4.061
 21
2.9575
 31
0
  0
LINE
  8
0
 62
7
 10
4.061
 20
2.9575
 30
0
 11
4.06775
 21
2.959999999999999
 31
0
  0
LINE
  8
0
 62
7
 10
4.06775
 20
2.959999999999999
 30
0
 11
4.07675
 21
2.959999999999999
 31
0
  0
LINE
  8
0
 62
7
 10
4.07675
 20
2.959999999999999
 30
0
 11
4.0835
 21
2.9575
 31
0
  0
LINE
  8
0
 62
7
 10
4.0835
 20
2.9575
 30
0
 11
4.088
 21
2.952499999999999
 31
0
  0
LINE
  8
0
 62
7
 10
4.088
 20
2.952499999999999
 30
0
 11
4.09025
 21
2.947499999999999
 31
0
  0
LINE
  8
0
 62
7
 10
4.09025
 20
2.947499999999999
 30
0
 11
4.0925
 21
2.934999999999999
 31
0
  0
LINE
  8
0
 62
7
 10
4.0925
 20
2.934999999999999
 30
0
 11
4.09475
 21
2.947499999999999
 31
0
  0
LINE
  8
0
 62
7
 10
4.09475
 20
2.947499999999999
 30
0
 11
4.097
 21
2.952499999999999
 31
0
  0
LINE
  8
0
 62
7
 10
4.097
 20
2.952499999999999
 30
0
 11
4.101500000000001
 21
2.9575
 31
0
  0
LINE
  8
0
 62
7
 10
4.101500000000001
 20
2.9575
 30
0
 11
4.108250000000001
 21
2.959999999999999
 31
0
  0
LINE
  8
0
 62
7
 10
4.108250000000001
 20
2.959999999999999
 30
0
 11
4.11725
 21
2.959999999999999
 31
0
  0
LINE
  8
0
 62
7
 10
4.11725
 20
2.959999999999999
 30
0
 11
4.124000000000001
 21
2.9575
 31
0
  0
LINE
  8
0
 62
7
 10
4.128500000000001
 20
2.952499999999999
 30
0
 11
4.124000000000001
 21
2.9575
 31
0
  0
LINE
  8
0
 62
7
 10
4.124000000000001
 20
2.9575
 30
0
 11
4.128500000000001
 21
2.952499999999999
 31
0
  0
LINE
  8
0
 62
7
 10
4.128500000000001
 20
2.952499999999999
 30
0
 11
4.13075
 21
2.947499999999999
 31
0
  0
LINE
  8
0
 62
7
 10
4.13075
 20
2.947499999999999
 30
0
 11
4.133
 21
2.934999999999999
 31
0
  0
LINE
  8
0
 62
7
 10
4.133
 20
2.934999999999999
 30
0
 11
4.133
 21
2.889999999999999
 31
0
  0
ARC
  8
0
 62
7
 10
3.29592712117537
 20
3.635927121175397
 30
0
 40
0.6760000000000018
 50
359.9214712753845
 51
90.07852872657014
  0
ARC
  8
0
 62
7
 10
2.38907287882461
 20
3.635927121175409
 30
0
 40
0.6759999999999941
 50
89.9214712729477
 51
180.0785287265658
  0
CIRCLE
  8
0
 62
7
 10
3.971926486241559
 20
3.25
 30
0
 40
0.06000000000000005
  0
DIMENSION
  8
0
  6
CONTINUOUS
 62
7
  2
*D1
  3
DMST_1
 10
4.41
 20
11.4273401699028
 30
0
 11
2.86910214401315
 21
11.4273401699028
 31
0
 12
0
 22
0
 32
0
 70
0
 13
1.275
 23
11.19999999999999
 33
0
 14
4.41
 24
11.19999999999999
 34
0
 53
0
  0
DIMENSION
  8
0
  6
CONTINUOUS
 62
7
  2
*D2
  3
DMST_2
 10
4.81349667475747
 20
4.75
 30
0
 11
4.81349667475747
 21
4.0480115291262
 31
0
 12
0
 22
0
 32
0
 70
0
 13
4.585
 23
3.25
 33
0
 14
4.585
 24
4.75
 34
0
 50
90
 53
0
  0
DIMENSION
  8
0
  6
CONTINUOUS
 62
7
  2
*D3
  3
DMST_2
 10
4.41
 20
5.58244335760515
 30
0
 11
2.84567570388371
 21
5.58244335760515
 31
0
 12
0
 22
0
 32
0
 70
0
 13
1.275
 23
5.269999999999997
 33
0
 14
4.41
 24
5.269999999999997
 34
0
 53
0
  0
DIMENSION
  8
0
  6
CONTINUOUS
 62
7
  2
*D4
  3
DMST_2
 10
0.784148972492139
 20
4.75
 30
0
 11
0.784148972492139
 21
4.07143796925565
 31
0
 12
0
 22
0
 32
0
 70
0
 13
1.1
 23
3.35
 33
0
 14
1.1
 24
4.75
 34
0
 50
90
 53
0
  0
INSERT
  8
0
  2
*D0
 10
0
 20
0
 30
0
  0
ENDSEC
  0
EOF
