  0
SECTION
  2
HEADER
  9
$ACADVER
  1
AC1009
  9
$INSBASE
 10
0
 20
0
  9
$EXTMIN
 10
0.45
 20
2.94
  9
$EXTMAX
 10
8.22075323823314
 20
11.5219464773179
  9
$LIMMIN
 10
0.45
 20
2.94
  9
$LIMMAX
 10
8.22075323823314
 20
11.5219464773179
  9
$VIEWCTR
 10
10
 20
10
  9
$VIEWSIZE
 40
10
  9
$SNAPMODE
 70
0
  9
$SNAPUNIT
 10
1
 20
1
  9
$SNAPBASE
 10
0
 20
0
  9
$SNAPANG
 50
0
  9
$SNAPSTYLE
 70
0
  9
$SNAPISOPAIR
 70
0
  9
$GRIDMODE
 70
0
  9
$GRIDUNIT
 10
0
 20
0
  9
$ORTHOMODE
 70
0
  9
$REGENMODE
 70
1
  9
$FILLMODE
 70
1
  9
$QTEXTMODE
 70
0
  9
$DRAGMODE
 70
2
  9
$LTSCALE
 40
1
  9
$OSMODE
 70
0
  9
$ATTMODE
 70
1
  9
$TEXTSIZE
 40
3.5
  9
$TRACEWID
 40
0.5
  9
$TEXTSTYLE
  7
STANDARD
  9
$CLAYER
  8
0
  9
$CELTYPE
  6
BYLAYER
  9
$CECOLOR
 62
256
  9
$DIMSCALE
 40
1
  9
$DIMASZ
 40
0.18
  9
$DIMEXO
 40
0.0625
  9
$DIMDLI
 40
0.38
  9
$DIMRND
 40
0
  9
$DIMDLE
 40
0
  9
$DIMEXE
 40
0.18
  9
$DIMTP
 40
0
  9
$DIMTM
 40
0
  9
$DIMTXT
 40
0.18
  9
$DIMCEN
 40
0.09
  9
$DIMTSZ
 40
0
  9
$DIMTOL
 70
0
  9
$DIMLIM
 70
0
  9
$DIMTIH
 70
1
  9
$DIMTOH
 70
1
  9
$DIMSE1
 70
0
  9
$DIMSE2
 70
0
  9
$DIMTAD
 70
0
  9
$DIMZIN
 70
0
  9
$DIMBLK
  1

  9
$DIMASO
 70
1
  9
$DIMSHO
 70
1
  9
$DIMPOST
  1

  9
$DIMAPOST
  1

  9
$DIMALT
 70
0
  9
$DIMALTD
 70
2
  9
$DIMALTF
 40
25.4
  9
$DIMLFAC
 40
1
  9
$DIMTOFL
 70
0
  9
$DIMTVP
 40
0
  9
$DIMTIX
 70
0
  9
$DIMSOXD
 70
0
  9
$DIMSAH
 70
0
  9
$DIMBLK1
  1

  9
$DIMBLK2
  1

  9
$DIMSTYLE
  2
*UNNAMED
  9
$DIMCLRD
 70
0
  9
$DIMCLRE
 70
0
  9
$DIMCLRT
 70
0
  9
$DIMTFAC
 40
1
  9
$DIMGAP
 40
0.09
  9
$LUNITS
 70
2
  9
$LUPREC
 70
4
  9
$AXISMODE
 70
0
  9
$AXISUNIT
 10
0
 20
0
  9
$SKETCHINC
 40
0.1
  9
$FILLETRAD
 40
2
  9
$AUNITS
 70
0
  9
$AUPREC
 70
0
  9
$MENU
  1
ACAD
  9
$ELEVATION
 40
0
  9
$THICKNESS
 40
0
  9
$VIEWDIR
 10
0
 20
0
 30
1
  9
$LIMCHECK
 70
0
  9
$BLIPMODE
 70
1
  9
$CHAMFERA
 40
0
  9
$CHAMFERB
 40
0
  9
$FASTZOOM
 70
1
  9
$SKPOLY
 70
0
  9
$ANGBASE
 50
0
  9
$ANGDIR
 70
0
  9
$PDMODE
 70
0
  9
$PDSIZE
 40
0
  9
$PLINEWID
 40
0
  9
$COORDS
 70
2
  0
ENDSEC
  0
SECTION
  2
TABLES
  0
TABLE
  2
DIMSTYLE
 70
2
  0
DIMSTYLE
  2
DMST_1
 70
0
  3

  4

  5

  6

  7

 40
1
 41
0.1
 42
0
 43
0.7
 44
0.2
 45
0
 46
0
 47
0
 48
0
140
0.1
141
0
142
0.1
143
25.4
144
1
145
0
146
1
147
0.2
 71
0
 72
0
 73
0
 74
0
 75
0
 76
0
 77
0
 78
9
170
0
171
2
172
0
173
0
174
0
175
0
176
7
177
7
178
7
  0
DIMSTYLE
  2
DMST_2
 70
0
  3

  4

  5

  6

  7

 40
1
 41
0.1
 42
0
 43
0.7
 44
0.2
 45
0
 46
0
 47
0
 48
0
140
0.1
141
0
142
0.1
143
25.4
144
1
145
0
146
1
147
0.25
 71
0
 72
0
 73
0
 74
0
 75
0
 76
0
 77
0
 78
9
170
0
171
2
172
0
173
0
174
0
175
0
176
7
177
7
178
7
  0
ENDTAB
  0
TABLE
  2
LTYPE
 70
9
  0
LTYPE
  2
CONTINUOUS
 70
64
  3
Solid line
 72
65
 73
0
 40
0
  0
LTYPE
  2
BORDER
 70
64
  3
__ __ . __ __ .
 72
65
 73
6
 40
0.3952212193501665
 49
0.1129203483857619
 49
-0.05646017419288093
 49
0.1129203483857619
 49
-0.05646017419288093
 49
0
 49
-0.05646017419288093
  0
LTYPE
  2
CENTER
 70
64
  3
____ _ ____ _
 72
65
 73
4
 40
0.4516813935430474
 49
0.2823008709644046
 49
-0.05646017419288093
 49
0.05646017419288093
 49
-0.05646017419288093
  0
LTYPE
  2
DASHDOT
 70
64
  3
__ . __ . __ .
 72
65
 73
4
 40
0.2258406967715237
 49
0.1129203483857619
 49
-0.05646017419288093
 49
0
 49
-0.05646017419288093
  0
LTYPE
  2
DASHED
 70
64
  3
__ __ __ __ __
 72
65
 73
2
 40
0.1693805225786428
 49
0.1129203483857619
 49
-0.05646017419288093
  0
LTYPE
  2
DIVIDE
 70
64
  3
__ . . __ . . 
 72
65
 73
6
 40
0.2823008709644046
 49
0.1129203483857619
 49
-0.05646017419288093
 49
0
 49
-0.05646017419288093
 49
0
 49
-0.05646017419288093
  0
LTYPE
  2
DOT
 70
64
  3
..............
 72
65
 73
4
 40
0.1129203483857619
 49
0
 49
-0.05646017419288093
 49
0
 49
-0.05646017419288093
  0
LTYPE
  2
HIDDEN
 70
64
  3
_ _ _ _ _ _ _
 72
65
 73
2
 40
0.08469026128932139
 49
0.05646017419288093
 49
-0.02823008709644046
  0
LTYPE
  2
PHANTOM
 70
64
  3
_____ _ _ _____ _ _ 
 72
65
 73
6
 40
0.5646017419288093
 49
0.2823008709644046
 49
-0.05646017419288093
 49
0.05646017419288093
 49
-0.05646017419288093
 49
0.05646017419288093
 49
-0.05646017419288093
  0
ENDTAB
  0
TABLE
  2
LAYER
 70
2
  0
LAYER
  2
0
 70
0
 62
7
  6
CONTINUOUS
  0
ENDTAB
  0
TABLE
  2
STYLE
 70
4
  0
STYLE
  2
STANDARD
 70
0
 40
0
 41
1
 50
0
 71
0
 42
3.5
  3
txt
  4

  0
STYLE
  2
SIMPLEX
 70
0
 40
0
 41
1
 50
0
 71
0
 42
3.5
  3
simplex
  4

  0
STYLE
  2
COMPLEX
 70
0
 40
0
 41
1
 50
0
 71
0
 42
3.5
  3
complex
  4

  0
STYLE
  2
ITALIC
 70
0
 40
0
 41
1
 50
0
 71
0
 42
3.5
  3
italic
  4

  0
ENDTAB
  0
TABLE
  2
VIEW
 70
0
  0
ENDTAB
  0
ENDSEC
  0
SECTION
  2
BLOCKS
  0
BLOCK
  8
0
  2
*X0
 70
1
 10
0
 20
0
 30
0
  0
LINE
  8
0
 62
7
 10
7.425000000000002
 20
7.955330085889912
 30
0
 11
7.569669914110088
 21
8.099999999999998
 31
0
  0
LINE
  8
0
 62
7
 10
7.425000000000002
 20
8.061396103067892
 30
0
 11
7.463603896932105
 21
8.099999999999998
 31
0
  0
LINE
  8
0
 62
7
 10
7.525735931288072
 20
7.949999999999999
 30
0
 11
7.600000000000001
 21
8.024264068711929
 31
0
  0
ENDBLK
  8
0
  0
BLOCK
  8
0
  2
*X1
 70
1
 10
0
 20
0
 30
0
  0
LINE
  8
0
 62
7
 10
7.425
 20
10.71304653251744
 30
0
 11
7.561953467482555
 21
10.85
 31
0
  0
LINE
  8
0
 62
7
 10
7.425
 20
10.50091449816148
 30
0
 11
7.600000000000002
 21
10.67591449816148
 31
0
  0
LINE
  8
0
 62
7
 10
7.425
 20
10.28878246380551
 30
0
 11
7.600000000000002
 21
10.46378246380551
 31
0
  0
LINE
  8
0
 62
7
 10
7.425
 20
10.07665042944955
 30
0
 11
7.600000000000002
 21
10.25165042944955
 31
0
  0
LINE
  8
0
 62
7
 10
7.425
 20
9.864518395093585
 30
0
 11
7.600000000000002
 21
10.03951839509359
 31
0
  0
LINE
  8
0
 62
7
 10
7.425
 20
9.652386360737621
 30
0
 11
7.600000000000002
 21
9.827386360737622
 31
0
  0
LINE
  8
0
 62
7
 10
7.425
 20
9.440254326381657
 30
0
 11
7.600000000000002
 21
9.615254326381658
 31
0
  0
LINE
  8
0
 62
7
 10
7.425
 20
9.228122292025693
 30
0
 11
7.600000000000002
 21
9.403122292025694
 31
0
  0
LINE
  8
0
 62
7
 10
7.425
 20
9.01599025766973
 30
0
 11
7.600000000000002
 21
9.19099025766973
 31
0
  0
LINE
  8
0
 62
7
 10
7.425
 20
8.803858223313766
 30
0
 11
7.600000000000002
 21
8.978858223313766
 31
0
  0
LINE
  8
0
 62
7
 10
7.425
 20
8.591726188957802
 30
0
 11
7.600000000000002
 21
8.766726188957803
 31
0
  0
LINE
  8
0
 62
7
 10
7.425
 20
8.379594154601838
 30
0
 11
7.600000000000002
 21
8.554594154601839
 31
0
  0
LINE
  8
0
 62
7
 10
7.557537879754124
 20
8.299999999999997
 30
0
 11
7.600000000000002
 21
8.342462120245875
 31
0
  0
LINE
  8
0
 62
7
 10
7.425000000000001
 20
10.81911254969542
 30
0
 11
7.455887450304573
 21
10.85
 31
0
  0
LINE
  8
0
 62
7
 10
7.425000000000001
 20
10.60698051533946
 30
0
 11
7.600000000000002
 21
10.78198051533946
 31
0
  0
LINE
  8
0
 62
7
 10
7.425000000000001
 20
10.3948484809835
 30
0
 11
7.600000000000002
 21
10.5698484809835
 31
0
  0
LINE
  8
0
 62
7
 10
7.425000000000001
 20
10.18271644662753
 30
0
 11
7.600000000000002
 21
10.35771644662753
 31
0
  0
LINE
  8
0
 62
7
 10
7.425000000000001
 20
9.970584412271569
 30
0
 11
7.600000000000002
 21
10.14558441227157
 31
0
  0
LINE
  8
0
 62
7
 10
7.425000000000001
 20
9.758452377915605
 30
0
 11
7.600000000000002
 21
9.933452377915604
 31
0
  0
LINE
  8
0
 62
7
 10
7.425000000000001
 20
9.546320343559641
 30
0
 11
7.600000000000002
 21
9.72132034355964
 31
0
  0
LINE
  8
0
 62
7
 10
7.425000000000001
 20
9.334188309203677
 30
0
 11
7.600000000000002
 21
9.509188309203676
 31
0
  0
LINE
  8
0
 62
7
 10
7.425000000000001
 20
9.122056274847713
 30
0
 11
7.600000000000002
 21
9.297056274847712
 31
0
  0
LINE
  8
0
 62
7
 10
7.425000000000001
 20
8.909924240491749
 30
0
 11
7.600000000000002
 21
9.084924240491748
 31
0
  0
LINE
  8
0
 62
7
 10
7.425000000000001
 20
8.697792206135786
 30
0
 11
7.600000000000002
 21
8.872792206135784
 31
0
  0
LINE
  8
0
 62
7
 10
7.425000000000001
 20
8.485660171779822
 30
0
 11
7.600000000000002
 21
8.660660171779821
 31
0
  0
LINE
  8
0
 62
7
 10
7.451471862576141
 20
8.299999999999997
 30
0
 11
7.600000000000002
 21
8.448528137423857
 31
0
  0
ENDBLK
  8
0
  0
BLOCK
  8
0
  2
*X2
 70
1
 10
0
 20
0
 30
0
  0
LINE
  8
0
 62
7
 10
7.425000000000002
 20
11.13731060122938
 30
0
 11
7.487689398770626
 21
11.2
 31
0
  0
LINE
  8
0
 62
7
 10
7.549821433126593
 20
11.05
 30
0
 11
7.600000000000002
 21
11.10017856687341
 31
0
  0
LINE
  8
0
 62
7
 10
7.44375541594861
 20
11.05
 30
0
 11
7.593755415948609
 21
11.2
 31
0
  0
ENDBLK
  8
0
  0
BLOCK
  8
0
  2
*X3
 70
1
 10
0
 20
0
 30
0
  0
LINE
  8
0
 62
7
 10
4.025557364414661
 20
7.949999999999999
 30
0
 11
4.165000000000001
 21
8.089442635585339
 31
0
  0
LINE
  8
0
 62
7
 10
3.99
 20
8.02050865276332
 30
0
 11
4.069491347236678
 21
8.099999999999998
 31
0
  0
LINE
  8
0
 62
7
 10
4.131623381592642
 20
7.949999999999998
 30
0
 11
4.165
 21
7.983376618407355
 31
0
  0
ENDBLK
  8
0
  0
BLOCK
  8
0
  2
*X4
 70
1
 10
0
 20
0
 30
0
  0
LINE
  8
0
 62
7
 10
3.990000000000002
 20
10.67215908221287
 30
0
 11
4.165000000000001
 21
10.84715908221287
 31
0
  0
LINE
  8
0
 62
7
 10
3.990000000000002
 20
10.46002704785691
 30
0
 11
4.165000000000001
 21
10.63502704785691
 31
0
  0
LINE
  8
0
 62
7
 10
3.990000000000002
 20
10.24789501350094
 30
0
 11
4.165000000000001
 21
10.42289501350094
 31
0
  0
LINE
  8
0
 62
7
 10
3.990000000000002
 20
10.03576297914498
 30
0
 11
4.165000000000001
 21
10.21076297914498
 31
0
  0
LINE
  8
0
 62
7
 10
3.990000000000002
 20
9.823630944789015
 30
0
 11
4.165000000000001
 21
9.998630944789014
 31
0
  0
LINE
  8
0
 62
7
 10
3.990000000000002
 20
9.611498910433051
 30
0
 11
4.165000000000001
 21
9.78649891043305
 31
0
  0
LINE
  8
0
 62
7
 10
3.990000000000002
 20
9.399366876077087
 30
0
 11
4.165000000000001
 21
9.574366876077086
 31
0
  0
LINE
  8
0
 62
7
 10
3.990000000000002
 20
9.187234841721123
 30
0
 11
4.165000000000001
 21
9.362234841721122
 31
0
  0
LINE
  8
0
 62
7
 10
3.990000000000002
 20
8.975102807365159
 30
0
 11
4.165000000000001
 21
9.150102807365158
 31
0
  0
LINE
  8
0
 62
7
 10
3.990000000000002
 20
8.762970773009195
 30
0
 11
4.165000000000001
 21
8.937970773009194
 31
0
  0
LINE
  8
0
 62
7
 10
3.990000000000002
 20
8.550838738653232
 30
0
 11
4.165000000000001
 21
8.725838738653231
 31
0
  0
LINE
  8
0
 62
7
 10
3.990000000000002
 20
8.338706704297268
 30
0
 11
4.165000000000001
 21
8.513706704297267
 31
0
  0
LINE
  8
0
 62
7
 10
4.163425330058695
 20
8.299999999999997
 30
0
 11
4.165000000000001
 21
8.301574669941303
 31
0
  0
LINE
  8
0
 62
7
 10
3.99
 20
10.77822509939085
 30
0
 11
4.061774900609144
 21
10.85
 31
0
  0
LINE
  8
0
 62
7
 10
3.99
 20
10.56609306503489
 30
0
 11
4.165000000000001
 21
10.74109306503489
 31
0
  0
LINE
  8
0
 62
7
 10
3.99
 20
10.35396103067892
 30
0
 11
4.165000000000001
 21
10.52896103067892
 31
0
  0
LINE
  8
0
 62
7
 10
3.99
 20
10.14182899632296
 30
0
 11
4.165000000000001
 21
10.31682899632296
 31
0
  0
LINE
  8
0
 62
7
 10
3.99
 20
9.929696961966995
 30
0
 11
4.165000000000001
 21
10.104696961967
 31
0
  0
LINE
  8
0
 62
7
 10
3.99
 20
9.717564927611031
 30
0
 11
4.165000000000001
 21
9.892564927611032
 31
0
  0
LINE
  8
0
 62
7
 10
3.99
 20
9.505432893255067
 30
0
 11
4.165000000000001
 21
9.680432893255068
 31
0
  0
LINE
  8
0
 62
7
 10
3.99
 20
9.293300858899103
 30
0
 11
4.165000000000001
 21
9.468300858899104
 31
0
  0
LINE
  8
0
 62
7
 10
3.99
 20
9.081168824543139
 30
0
 11
4.165000000000001
 21
9.25616882454314
 31
0
  0
LINE
  8
0
 62
7
 10
3.99
 20
8.869036790187176
 30
0
 11
4.165000000000001
 21
9.044036790187176
 31
0
  0
LINE
  8
0
 62
7
 10
3.99
 20
8.656904755831212
 30
0
 11
4.165000000000001
 21
8.831904755831212
 31
0
  0
LINE
  8
0
 62
7
 10
3.99
 20
8.444772721475248
 30
0
 11
4.165000000000001
 21
8.619772721475249
 31
0
  0
LINE
  8
0
 62
7
 10
4.057359312880713
 20
8.299999999999997
 30
0
 11
4.165000000000001
 21
8.407640687119285
 31
0
  0
ENDBLK
  8
0
  0
BLOCK
  8
0
  2
*X5
 70
1
 10
0
 20
0
 30
0
  0
LINE
  8
0
 62
7
 10
3.99
 20
11.0964231509248
 30
0
 11
4.093576849075198
 21
11.2
 31
0
  0
LINE
  8
0
 62
7
 10
4.155708883431164
 20
11.05
 30
0
 11
4.165000000000001
 21
11.05929111656884
 31
0
  0
LINE
  8
0
 62
7
 10
4.049642866253182
 20
11.05
 30
0
 11
4.165
 21
11.16535713374682
 31
0
  0
ENDBLK
  8
0
  0
BLOCK
  8
0
  2
*X6
 70
1
 10
0
 20
0
 30
0
  0
LINE
  8
0
 62
7
  6
DASHED
 10
3.84
 20
8.188706704297267
 30
0
 11
3.951293295702738
 21
8.299999999999997
 31
0
  0
LINE
  8
0
 62
7
  6
DASHED
 10
3.963425330058703
 20
8.099999999999998
 30
0
 11
4.163425330058702
 21
8.299999999999997
 31
0
  0
LINE
  8
0
 62
7
  6
DASHED
 10
4.175557364414667
 20
8.099999999999998
 30
0
 11
4.375557364414666
 21
8.299999999999997
 31
0
  0
LINE
  8
0
 62
7
  6
DASHED
 10
4.387689398770631
 20
8.099999999999998
 30
0
 11
4.58768939877063
 21
8.299999999999997
 31
0
  0
LINE
  8
0
 62
7
  6
DASHED
 10
4.599821433126595
 20
8.099999999999998
 30
0
 11
4.799821433126594
 21
8.299999999999997
 31
0
  0
LINE
  8
0
 62
7
  6
DASHED
 10
4.811953467482558
 20
8.099999999999998
 30
0
 11
5.011953467482558
 21
8.299999999999997
 31
0
  0
LINE
  8
0
 62
7
  6
DASHED
 10
5.024085501838522
 20
8.099999999999998
 30
0
 11
5.224085501838521
 21
8.299999999999997
 31
0
  0
LINE
  8
0
 62
7
  6
DASHED
 10
5.236217536194486
 20
8.099999999999998
 30
0
 11
5.436217536194485
 21
8.299999999999997
 31
0
  0
LINE
  8
0
 62
7
  6
DASHED
 10
5.44834957055045
 20
8.099999999999998
 30
0
 11
5.648349570550449
 21
8.299999999999997
 31
0
  0
LINE
  8
0
 62
7
  6
DASHED
 10
5.660481604906414
 20
8.099999999999998
 30
0
 11
5.860481604906413
 21
8.299999999999997
 31
0
  0
LINE
  8
0
 62
7
  6
DASHED
 10
5.872613639262378
 20
8.099999999999998
 30
0
 11
6.072613639262377
 21
8.299999999999997
 31
0
  0
LINE
  8
0
 62
7
  6
DASHED
 10
6.084745673618341
 20
8.099999999999998
 30
0
 11
6.284745673618341
 21
8.299999999999997
 31
0
  0
LINE
  8
0
 62
7
  6
DASHED
 10
6.296877707974305
 20
8.099999999999998
 30
0
 11
6.496877707974305
 21
8.299999999999997
 31
0
  0
LINE
  8
0
 62
7
  6
DASHED
 10
6.509009742330269
 20
8.099999999999998
 30
0
 11
6.709009742330268
 21
8.299999999999997
 31
0
  0
LINE
  8
0
 62
7
  6
DASHED
 10
6.721141776686233
 20
8.099999999999998
 30
0
 11
6.921141776686232
 21
8.299999999999997
 31
0
  0
LINE
  8
0
 62
7
  6
DASHED
 10
6.933273811042197
 20
8.099999999999998
 30
0
 11
7.133273811042196
 21
8.299999999999997
 31
0
  0
LINE
  8
0
 62
7
  6
DASHED
 10
7.145405845398161
 20
8.099999999999998
 30
0
 11
7.34540584539816
 21
8.299999999999997
 31
0
  0
LINE
  8
0
 62
7
  6
DASHED
 10
7.357537879754124
 20
8.099999999999998
 30
0
 11
7.557537879754124
 21
8.299999999999997
 31
0
  0
LINE
  8
0
 62
7
  6
DASHED
 10
7.569669914110088
 20
8.099999999999998
 30
0
 11
7.75
 21
8.28033008588991
 31
0
  0
LINE
  8
0
 62
7
 10
3.84
 20
8.294772721475248
 30
0
 11
3.845227278524756
 21
8.299999999999997
 31
0
  0
LINE
  8
0
 62
7
 10
3.857359312880722
 20
8.1
 30
0
 11
4.05735931288072
 21
8.299999999999997
 31
0
  0
LINE
  8
0
 62
7
 10
4.069491347236687
 20
8.1
 30
0
 11
4.269491347236684
 21
8.299999999999997
 31
0
  0
LINE
  8
0
 62
7
 10
4.281623381592651
 20
8.1
 30
0
 11
4.481623381592648
 21
8.299999999999997
 31
0
  0
LINE
  8
0
 62
7
 10
4.493755415948614
 20
8.1
 30
0
 11
4.693755415948612
 21
8.299999999999997
 31
0
  0
LINE
  8
0
 62
7
 10
4.705887450304578
 20
8.1
 30
0
 11
4.905887450304576
 21
8.299999999999997
 31
0
  0
LINE
  8
0
 62
7
 10
4.918019484660542
 20
8.1
 30
0
 11
5.11801948466054
 21
8.299999999999997
 31
0
  0
LINE
  8
0
 62
7
 10
5.130151519016506
 20
8.1
 30
0
 11
5.330151519016503
 21
8.299999999999997
 31
0
  0
LINE
  8
0
 62
7
 10
5.34228355337247
 20
8.1
 30
0
 11
5.542283553372467
 21
8.299999999999997
 31
0
  0
LINE
  8
0
 62
7
 10
5.554415587728434
 20
8.1
 30
0
 11
5.754415587728431
 21
8.299999999999997
 31
0
  0
LINE
  8
0
 62
7
 10
5.766547622084397
 20
8.1
 30
0
 11
5.966547622084395
 21
8.299999999999997
 31
0
  0
LINE
  8
0
 62
7
 10
5.978679656440361
 20
8.1
 30
0
 11
6.178679656440359
 21
8.299999999999997
 31
0
  0
LINE
  8
0
 62
7
 10
6.190811690796325
 20
8.1
 30
0
 11
6.390811690796323
 21
8.299999999999997
 31
0
  0
LINE
  8
0
 62
7
 10
6.402943725152289
 20
8.1
 30
0
 11
6.602943725152286
 21
8.299999999999997
 31
0
  0
LINE
  8
0
 62
7
 10
6.615075759508253
 20
8.1
 30
0
 11
6.81507575950825
 21
8.299999999999997
 31
0
  0
LINE
  8
0
 62
7
 10
6.827207793864217
 20
8.1
 30
0
 11
7.027207793864214
 21
8.299999999999997
 31
0
  0
LINE
  8
0
 62
7
 10
7.03933982822018
 20
8.1
 30
0
 11
7.239339828220178
 21
8.299999999999997
 31
0
  0
LINE
  8
0
 62
7
 10
7.251471862576144
 20
8.1
 30
0
 11
7.451471862576142
 21
8.299999999999997
 31
0
  0
LINE
  8
0
 62
7
 10
7.463603896932108
 20
8.1
 30
0
 11
7.663603896932106
 21
8.299999999999997
 31
0
  0
LINE
  8
0
 62
7
 10
7.675735931288072
 20
8.1
 30
0
 11
7.75
 21
8.174264068711928
 31
0
  0
ENDBLK
  8
0
  0
BLOCK
  8
0
  2
*X7
 70
1
 10
0
 20
0
 30
0
  0
LINE
  8
0
 62
7
  6
DASHED
 10
3.84
 20
10.9464231509248
 30
0
 11
3.943576849075209
 21
11.05
 31
0
  0
LINE
  8
0
 62
7
  6
DASHED
 10
3.955708883431171
 20
10.85
 30
0
 11
4.155708883431173
 21
11.05
 31
0
  0
LINE
  8
0
 62
7
  6
DASHED
 10
4.167840917787135
 20
10.85
 30
0
 11
4.367840917787137
 21
11.05
 31
0
  0
LINE
  8
0
 62
7
  6
DASHED
 10
4.379972952143099
 20
10.85
 30
0
 11
4.579972952143101
 21
11.05
 31
0
  0
LINE
  8
0
 62
7
  6
DASHED
 10
4.592104986499063
 20
10.85
 30
0
 11
4.792104986499065
 21
11.05
 31
0
  0
LINE
  8
0
 62
7
  6
DASHED
 10
4.804237020855027
 20
10.85
 30
0
 11
5.004237020855029
 21
11.05
 31
0
  0
LINE
  8
0
 62
7
  6
DASHED
 10
5.016369055210991
 20
10.85
 30
0
 11
5.216369055210992
 21
11.05
 31
0
  0
LINE
  8
0
 62
7
  6
DASHED
 10
5.228501089566954
 20
10.85
 30
0
 11
5.428501089566956
 21
11.05
 31
0
  0
LINE
  8
0
 62
7
  6
DASHED
 10
5.440633123922918
 20
10.85
 30
0
 11
5.64063312392292
 21
11.05
 31
0
  0
LINE
  8
0
 62
7
  6
DASHED
 10
5.652765158278882
 20
10.85
 30
0
 11
5.852765158278884
 21
11.05
 31
0
  0
LINE
  8
0
 62
7
  6
DASHED
 10
5.864897192634846
 20
10.85
 30
0
 11
6.064897192634848
 21
11.05
 31
0
  0
LINE
  8
0
 62
7
  6
DASHED
 10
6.07702922699081
 20
10.85
 30
0
 11
6.277029226990812
 21
11.05
 31
0
  0
LINE
  8
0
 62
7
  6
DASHED
 10
6.289161261346774
 20
10.85
 30
0
 11
6.489161261346776
 21
11.05
 31
0
  0
LINE
  8
0
 62
7
  6
DASHED
 10
6.501293295702737
 20
10.85
 30
0
 11
6.701293295702739
 21
11.05
 31
0
  0
LINE
  8
0
 62
7
  6
DASHED
 10
6.713425330058701
 20
10.85
 30
0
 11
6.913425330058703
 21
11.05
 31
0
  0
LINE
  8
0
 62
7
  6
DASHED
 10
6.925557364414665
 20
10.85
 30
0
 11
7.125557364414667
 21
11.05
 31
0
  0
LINE
  8
0
 62
7
  6
DASHED
 10
7.137689398770629
 20
10.85
 30
0
 11
7.337689398770631
 21
11.05
 31
0
  0
LINE
  8
0
 62
7
  6
DASHED
 10
7.349821433126593
 20
10.85
 30
0
 11
7.549821433126595
 21
11.05
 31
0
  0
LINE
  8
0
 62
7
  6
DASHED
 10
7.561953467482557
 20
10.85
 30
0
 11
7.75
 21
11.03804653251744
 31
0
  0
LINE
  8
0
 62
7
 10
3.849642866253188
 20
10.85
 30
0
 11
4.049642866253189
 21
11.05
 31
0
  0
LINE
  8
0
 62
7
 10
4.061774900609152
 20
10.85
 30
0
 11
4.261774900609153
 21
11.05
 31
0
  0
LINE
  8
0
 62
7
 10
4.273906934965116
 20
10.85
 30
0
 11
4.473906934965116
 21
11.05
 31
0
  0
LINE
  8
0
 62
7
 10
4.48603896932108
 20
10.85
 30
0
 11
4.68603896932108
 21
11.05
 31
0
  0
LINE
  8
0
 62
7
 10
4.698171003677044
 20
10.85
 30
0
 11
4.898171003677044
 21
11.05
 31
0
  0
LINE
  8
0
 62
7
 10
4.910303038033008
 20
10.85
 30
0
 11
5.110303038033008
 21
11.05
 31
0
  0
LINE
  8
0
 62
7
 10
5.122435072388972
 20
10.85
 30
0
 11
5.322435072388972
 21
11.05
 31
0
  0
LINE
  8
0
 62
7
 10
5.334567106744935
 20
10.85
 30
0
 11
5.534567106744936
 21
11.05
 31
0
  0
LINE
  8
0
 62
7
 10
5.546699141100899
 20
10.85
 30
0
 11
5.746699141100899
 21
11.05
 31
0
  0
LINE
  8
0
 62
7
 10
5.758831175456863
 20
10.85
 30
0
 11
5.958831175456863
 21
11.05
 31
0
  0
LINE
  8
0
 62
7
 10
5.970963209812827
 20
10.85
 30
0
 11
6.170963209812827
 21
11.05
 31
0
  0
LINE
  8
0
 62
7
 10
6.183095244168791
 20
10.85
 30
0
 11
6.383095244168791
 21
11.05
 31
0
  0
LINE
  8
0
 62
7
 10
6.395227278524755
 20
10.85
 30
0
 11
6.595227278524755
 21
11.05
 31
0
  0
LINE
  8
0
 62
7
 10
6.607359312880718
 20
10.85
 30
0
 11
6.807359312880719
 21
11.05
 31
0
  0
LINE
  8
0
 62
7
 10
6.819491347236682
 20
10.85
 30
0
 11
7.019491347236682
 21
11.05
 31
0
  0
LINE
  8
0
 62
7
 10
7.031623381592646
 20
10.85
 30
0
 11
7.231623381592646
 21
11.05
 31
0
  0
LINE
  8
0
 62
7
 10
7.24375541594861
 20
10.85
 30
0
 11
7.44375541594861
 21
11.05
 31
0
  0
LINE
  8
0
 62
7
 10
7.455887450304574
 20
10.85
 30
0
 11
7.655887450304574
 21
11.05
 31
0
  0
LINE
  8
0
 62
7
 10
7.668019484660538
 20
10.85
 30
0
 11
7.749999999999999
 21
10.93198051533946
 31
0
  0
ENDBLK
  8
0
  0
BLOCK
  8
0
  2
*X8
 70
1
 10
0
 20
0
 30
0
  0
LINE
  8
0
 62
7
 10
0.5
 20
8.03068721963673
 30
0
 11
0.5693127803632674
 21
8.099999999999998
 31
0
  0
LINE
  8
0
 62
7
 10
0.6314448147192331
 20
7.949999999999998
 30
0
 11
0.7399999999999998
 21
8.058555185280767
 31
0
  0
LINE
  8
0
 62
7
 10
0.5253787975412521
 20
7.949999999999999
 30
0
 11
0.6753787975412497
 21
8.099999999999998
 31
0
  0
LINE
  8
0
 62
7
 10
0.7375108318972163
 20
7.949999999999999
 30
0
 11
0.7400000000000002
 21
7.952489168102783
 31
0
  0
ENDBLK
  8
0
  0
BLOCK
  8
0
  2
*X9
 70
1
 10
0
 20
0
 30
0
  0
LINE
  8
0
 62
7
 10
0.5000000000000004
 20
10.78840366626426
 30
0
 11
0.5615963337357339
 21
10.85
 31
0
  0
LINE
  8
0
 62
7
 10
0.5000000000000004
 20
10.5762716319083
 30
0
 11
0.7400000000000002
 21
10.8162716319083
 31
0
  0
LINE
  8
0
 62
7
 10
0.5000000000000004
 20
10.36413959755233
 30
0
 11
0.7400000000000002
 21
10.60413959755233
 31
0
  0
LINE
  8
0
 62
7
 10
0.5000000000000004
 20
10.15200756319637
 30
0
 11
0.7400000000000002
 21
10.39200756319637
 31
0
  0
LINE
  8
0
 62
7
 10
0.5000000000000004
 20
9.939875528840407
 30
0
 11
0.7400000000000002
 21
10.17987552884041
 31
0
  0
LINE
  8
0
 62
7
 10
0.5000000000000004
 20
9.727743494484443
 30
0
 11
0.7400000000000002
 21
9.967743494484441
 31
0
  0
LINE
  8
0
 62
7
 10
0.5000000000000004
 20
9.515611460128479
 30
0
 11
0.7400000000000002
 21
9.755611460128478
 31
0
  0
LINE
  8
0
 62
7
 10
0.5000000000000004
 20
9.303479425772515
 30
0
 11
0.7400000000000002
 21
9.543479425772514
 31
0
  0
LINE
  8
0
 62
7
 10
0.5000000000000004
 20
9.091347391416551
 30
0
 11
0.7400000000000002
 21
9.33134739141655
 31
0
  0
LINE
  8
0
 62
7
 10
0.5000000000000004
 20
8.879215357060588
 30
0
 11
0.7400000000000002
 21
9.119215357060586
 31
0
  0
LINE
  8
0
 62
7
 10
0.5000000000000004
 20
8.667083322704624
 30
0
 11
0.7400000000000002
 21
8.907083322704622
 31
0
  0
LINE
  8
0
 62
7
 10
0.5000000000000004
 20
8.45495128834866
 30
0
 11
0.7400000000000002
 21
8.694951288348658
 31
0
  0
LINE
  8
0
 62
7
 10
0.5571807460073028
 20
8.299999999999997
 30
0
 11
0.7400000000000002
 21
8.482819253992695
 31
0
  0
LINE
  8
0
 62
7
 10
0.5
 20
10.68233764908628
 30
0
 11
0.6676623509137176
 21
10.85
 31
0
  0
LINE
  8
0
 62
7
 10
0.5
 20
10.47020561473031
 30
0
 11
0.7400000000000007
 21
10.71020561473031
 31
0
  0
LINE
  8
0
 62
7
 10
0.5
 20
10.25807358037435
 30
0
 11
0.7400000000000007
 21
10.49807358037435
 31
0
  0
LINE
  8
0
 62
7
 10
0.5
 20
10.04594154601839
 30
0
 11
0.7400000000000007
 21
10.28594154601839
 31
0
  0
LINE
  8
0
 62
7
 10
0.5
 20
9.833809511662423
 30
0
 11
0.7400000000000007
 21
10.07380951166242
 31
0
  0
LINE
  8
0
 62
7
 10
0.5
 20
9.621677477306459
 30
0
 11
0.7400000000000007
 21
9.861677477306458
 31
0
  0
LINE
  8
0
 62
7
 10
0.5
 20
9.409545442950495
 30
0
 11
0.7400000000000007
 21
9.649545442950494
 31
0
  0
LINE
  8
0
 62
7
 10
0.5
 20
9.197413408594532
 30
0
 11
0.7400000000000007
 21
9.43741340859453
 31
0
  0
LINE
  8
0
 62
7
 10
0.5
 20
8.985281374238568
 30
0
 11
0.7400000000000007
 21
9.225281374238566
 31
0
  0
LINE
  8
0
 62
7
 10
0.5
 20
8.773149339882604
 30
0
 11
0.7400000000000007
 21
9.013149339882602
 31
0
  0
LINE
  8
0
 62
7
 10
0.5
 20
8.56101730552664
 30
0
 11
0.7400000000000007
 21
8.801017305526639
 31
0
  0
LINE
  8
0
 62
7
 10
0.5
 20
8.348885271170676
 30
0
 11
0.7400000000000007
 21
8.588885271170675
 31
0
  0
LINE
  8
0
 62
7
 10
0.6632467631852861
 20
8.299999999999997
 30
0
 11
0.7400000000000007
 21
8.376753236814711
 31
0
  0
ENDBLK
  8
0
  0
BLOCK
  8
0
  2
*X10
 70
1
 10
0
 20
0
 30
0
  0
LINE
  8
0
 62
7
 10
0.549464299379772
 20
11.05
 30
0
 11
0.6994642993797706
 21
11.2
 31
0
  0
LINE
  8
0
 62
7
 10
0.5
 20
11.10660171779821
 30
0
 11
0.5933982822017896
 21
11.2
 31
0
  0
LINE
  8
0
 62
7
 10
0.655530316557754
 20
11.05
 30
0
 11
0.7400000000000002
 21
11.13446968344225
 31
0
  0
ENDBLK
  8
0
  0
BLOCK
  8
0
  2
*X11
 70
1
 10
0
 20
0
 30
0
  0
LINE
  8
0
 62
7
  6
DASHED
 10
2.09
 20
8.135762979144982
 30
0
 11
2.254237020855017
 21
8.299999999999997
 31
0
  0
LINE
  8
0
 62
7
  6
DASHED
 10
2.266369055210982
 20
8.099999999999998
 30
0
 11
2.390000000000001
 21
8.223630944789017
 31
0
  0
LINE
  8
0
 62
7
 10
2.09
 20
8.241828996322962
 30
0
 11
2.148171003677036
 21
8.299999999999997
 31
0
  0
LINE
  8
0
 62
7
 10
2.160303038033001
 20
8.099999999999998
 30
0
 11
2.360303038033
 21
8.299999999999997
 31
0
  0
LINE
  8
0
 62
7
 10
2.372435072388965
 20
8.099999999999998
 30
0
 11
2.390000000000001
 21
8.117564927611035
 31
0
  0
ENDBLK
  8
0
  0
BLOCK
  8
0
  2
*X12
 70
1
 10
0
 20
0
 30
0
  0
LINE
  8
0
 62
7
  6
DASHED
 10
2.09
 20
10.89347942577251
 30
0
 11
2.246520574227487
 21
11.05
 31
0
  0
LINE
  8
0
 62
7
  6
DASHED
 10
2.258652608583449
 20
10.85
 30
0
 11
2.39
 21
10.98134739141655
 31
0
  0
LINE
  8
0
 62
7
 10
2.089999999999998
 20
10.9995454429505
 30
0
 11
2.140454557049504
 21
11.05
 31
0
  0
LINE
  8
0
 62
7
 10
2.152586591405468
 20
10.85
 30
0
 11
2.352586591405468
 21
11.05
 31
0
  0
LINE
  8
0
 62
7
 10
2.364718625761432
 20
10.85
 30
0
 11
2.389999999999999
 21
10.87528137423857
 31
0
  0
ENDBLK
  8
0
  0
BLOCK
  8
0
  2
*X13
 70
1
 10
0
 20
0
 30
0
  0
LINE
  8
0
 62
7
  6
DASHED
 10
0.4999999999999991
 20
11.00053570062023
 30
0
 11
0.5494642993797729
 21
11.05
 31
0
  0
LINE
  8
0
 62
7
  6
DASHED
 10
0.5615963337357357
 20
10.85
 30
0
 11
0.7399999999999993
 21
11.02840366626426
 31
0
  0
LINE
  8
0
 62
7
 10
0.5000000000000009
 20
10.89446968344225
 30
0
 11
0.655530316557754
 21
11.05
 31
0
  0
LINE
  8
0
 62
7
 10
0.6676623509137176
 20
10.85
 30
0
 11
0.7400000000000002
 21
10.92233764908628
 31
0
  0
ENDBLK
  8
0
  0
BLOCK
  8
0
  2
*X14
 70
1
 10
0
 20
0
 30
0
  0
LINE
  8
0
 62
7
  6
DASHED
 10
0.5
 20
8.242819253992694
 30
0
 11
0.5571807460073028
 21
8.299999999999997
 31
0
  0
LINE
  8
0
 62
7
  6
DASHED
 10
0.5693127803632687
 20
8.099999999999998
 30
0
 11
0.7399999999999998
 21
8.270687219636729
 31
0
  0
LINE
  8
0
 62
7
 10
0.5
 20
8.136753236814712
 30
0
 11
0.6632467631852856
 21
8.299999999999997
 31
0
  0
LINE
  8
0
 62
7
 10
0.6753787975412497
 20
8.099999999999998
 30
0
 11
0.7400000000000007
 21
8.164621202458747
 31
0
  0
ENDBLK
  8
0
  0
BLOCK
  8
0
  2
*X15
 70
1
 10
0
 20
0
 30
0
  0
LINE
  8
0
 62
7
 10
3.99
 20
5.368858223313768
 30
0
 11
4.041141776686229
 21
5.419999999999996
 31
0
  0
LINE
  8
0
 62
7
 10
3.840000000000001
 20
5.218858223313768
 30
0
 11
3.891141776686229
 21
5.269999999999997
 31
0
  0
LINE
  8
0
 62
7
 10
3.863273811042205
 20
5.030000000000001
 30
0
 11
4.164999999999999
 21
5.331726188957802
 31
0
  0
LINE
  8
0
 62
7
 10
4.075405845398169
 20
5.030000000000001
 30
0
 11
4.315405845398165
 21
5.269999999999998
 31
0
  0
LINE
  8
0
 62
7
 10
4.287537879754133
 20
5.030000000000001
 30
0
 11
4.527537879754129
 21
5.269999999999998
 31
0
  0
LINE
  8
0
 62
7
 10
4.499669914110097
 20
5.030000000000001
 30
0
 11
4.739669914110093
 21
5.269999999999998
 31
0
  0
LINE
  8
0
 62
7
 10
4.711801948466061
 20
5.030000000000001
 30
0
 11
4.951801948466056
 21
5.269999999999998
 31
0
  0
LINE
  8
0
 62
7
 10
4.923933982822025
 20
5.030000000000001
 30
0
 11
5.16393398282202
 21
5.269999999999998
 31
0
  0
LINE
  8
0
 62
7
 10
5.136066017177988
 20
5.030000000000001
 30
0
 11
5.376066017177984
 21
5.269999999999998
 31
0
  0
LINE
  8
0
 62
7
 10
5.348198051533952
 20
5.030000000000001
 30
0
 11
5.588198051533948
 21
5.269999999999998
 31
0
  0
LINE
  8
0
 62
7
 10
5.560330085889916
 20
5.030000000000001
 30
0
 11
5.800330085889912
 21
5.269999999999998
 31
0
  0
LINE
  8
0
 62
7
 10
5.77246212024588
 20
5.030000000000001
 30
0
 11
6.012462120245876
 21
5.269999999999998
 31
0
  0
LINE
  8
0
 62
7
 10
5.984594154601844
 20
5.030000000000001
 30
0
 11
6.22459415460184
 21
5.269999999999998
 31
0
  0
LINE
  8
0
 62
7
 10
6.196726188957808
 20
5.030000000000001
 30
0
 11
6.436726188957803
 21
5.269999999999998
 31
0
  0
LINE
  8
0
 62
7
 10
6.408858223313771
 20
5.030000000000001
 30
0
 11
6.648858223313767
 21
5.269999999999998
 31
0
  0
LINE
  8
0
 62
7
 10
6.620990257669735
 20
5.030000000000001
 30
0
 11
6.860990257669731
 21
5.269999999999998
 31
0
  0
LINE
  8
0
 62
7
 10
6.833122292025699
 20
5.030000000000001
 30
0
 11
7.073122292025695
 21
5.269999999999998
 31
0
  0
LINE
  8
0
 62
7
 10
7.425
 20
5.409745673618339
 30
0
 11
7.435254326381659
 21
5.419999999999998
 31
0
  0
LINE
  8
0
 62
7
 10
7.045254326381663
 20
5.030000000000001
 30
0
 11
7.285254326381659
 21
5.269999999999998
 31
0
  0
LINE
  8
0
 62
7
 10
7.257386360737627
 20
5.030000000000001
 30
0
 11
7.600000000000001
 21
5.372613639262376
 31
0
  0
LINE
  8
0
 62
7
 10
7.469518395093591
 20
5.030000000000001
 30
0
 11
7.709518395093585
 21
5.269999999999996
 31
0
  0
LINE
  8
0
 62
7
 10
7.681650429449554
 20
5.030000000000001
 30
0
 11
7.765000000000001
 21
5.113349570550446
 31
0
  0
LINE
  8
0
 62
7
 10
3.84
 20
5.112792206135786
 30
0
 11
4.147207793864212
 21
5.419999999999998
 31
0
  0
LINE
  8
0
 62
7
 10
3.969339828220187
 20
5.03
 30
0
 11
4.209339828220183
 21
5.269999999999998
 31
0
  0
LINE
  8
0
 62
7
 10
4.181471862576151
 20
5.03
 30
0
 11
4.421471862576147
 21
5.269999999999998
 31
0
  0
LINE
  8
0
 62
7
 10
4.393603896932115
 20
5.03
 30
0
 11
4.633603896932111
 21
5.269999999999998
 31
0
  0
LINE
  8
0
 62
7
 10
4.605735931288079
 20
5.03
 30
0
 11
4.845735931288075
 21
5.269999999999998
 31
0
  0
LINE
  8
0
 62
7
 10
4.817867965644043
 20
5.03
 30
0
 11
5.057867965644038
 21
5.269999999999998
 31
0
  0
LINE
  8
0
 62
7
 10
5.030000000000006
 20
5.03
 30
0
 11
5.270000000000002
 21
5.269999999999998
 31
0
  0
LINE
  8
0
 62
7
 10
5.24213203435597
 20
5.03
 30
0
 11
5.482132034355966
 21
5.269999999999998
 31
0
  0
LINE
  8
0
 62
7
 10
5.454264068711934
 20
5.03
 30
0
 11
5.69426406871193
 21
5.269999999999998
 31
0
  0
LINE
  8
0
 62
7
 10
5.666396103067898
 20
5.03
 30
0
 11
5.906396103067894
 21
5.269999999999998
 31
0
  0
LINE
  8
0
 62
7
 10
5.878528137423862
 20
5.03
 30
0
 11
6.118528137423858
 21
5.269999999999998
 31
0
  0
LINE
  8
0
 62
7
 10
6.090660171779826
 20
5.03
 30
0
 11
6.330660171779821
 21
5.269999999999998
 31
0
  0
LINE
  8
0
 62
7
 10
6.302792206135789
 20
5.03
 30
0
 11
6.542792206135785
 21
5.269999999999998
 31
0
  0
LINE
  8
0
 62
7
 10
6.514924240491753
 20
5.03
 30
0
 11
6.754924240491749
 21
5.269999999999998
 31
0
  0
LINE
  8
0
 62
7
 10
6.727056274847717
 20
5.03
 30
0
 11
6.967056274847713
 21
5.269999999999998
 31
0
  0
LINE
  8
0
 62
7
 10
6.939188309203681
 20
5.03
 30
0
 11
7.179188309203677
 21
5.269999999999998
 31
0
  0
LINE
  8
0
 62
7
 10
7.425000000000001
 20
5.303679656440358
 30
0
 11
7.54132034355964
 21
5.419999999999997
 31
0
  0
LINE
  8
0
 62
7
 10
7.151320343559645
 20
5.03
 30
0
 11
7.391320343559641
 21
5.269999999999998
 31
0
  0
LINE
  8
0
 62
7
 10
7.363452377915609
 20
5.03
 30
0
 11
7.603452377915604
 21
5.269999999999998
 31
0
  0
LINE
  8
0
 62
7
 10
7.575584412271573
 20
5.03
 30
0
 11
7.765000000000001
 21
5.219415587728429
 31
0
  0
ENDBLK
  8
0
  0
BLOCK
  8
0
  2
*X16
 70
1
 10
0
 20
0
 30
0
  0
LINE
  8
0
 62
7
 10
3.839999999999999
 20
4.794594154601839
 30
0
 11
4.035405845398168
 21
4.99
 31
0
  0
LINE
  8
0
 62
7
 10
3.99
 20
4.732462120245874
 30
0
 11
4.247537879754132
 21
4.99
 31
0
  0
LINE
  8
0
 62
7
 10
4.219669914110096
 20
4.75
 30
0
 11
4.459669914110096
 21
4.99
 31
0
  0
LINE
  8
0
 62
7
 10
3.99
 20
4.52033008588991
 30
0
 11
4.165
 21
4.695330085889909
 31
0
  0
LINE
  8
0
 62
7
 10
4.43180194846606
 20
4.75
 30
0
 11
4.67180194846606
 21
4.99
 31
0
  0
LINE
  8
0
 62
7
 10
3.99
 20
4.308198051533946
 30
0
 11
4.165
 21
4.483198051533945
 31
0
  0
LINE
  8
0
 62
7
 10
4.643933982822023
 20
4.75
 30
0
 11
4.883933982822024
 21
4.99
 31
0
  0
LINE
  8
0
 62
7
 10
3.99
 20
4.096066017177982
 30
0
 11
4.165
 21
4.271066017177981
 31
0
  0
LINE
  8
0
 62
7
 10
4.856066017177987
 20
4.75
 30
0
 11
5.096066017177987
 21
4.99
 31
0
  0
LINE
  8
0
 62
7
 10
3.99
 20
3.883933982822018
 30
0
 11
4.165
 21
4.058933982822017
 31
0
  0
LINE
  8
0
 62
7
 10
5.068198051533951
 20
4.75
 30
0
 11
5.308198051533951
 21
4.99
 31
0
  0
LINE
  8
0
 62
7
 10
3.99
 20
3.671801948466054
 30
0
 11
4.165
 21
3.846801948466053
 31
0
  0
LINE
  8
0
 62
7
 10
5.280330085889915
 20
4.75
 30
0
 11
5.520330085889915
 21
4.99
 31
0
  0
LINE
  8
0
 62
7
 10
3.99
 20
3.45966991411009
 30
0
 11
4.165
 21
3.634669914110089
 31
0
  0
LINE
  8
0
 62
7
 10
5.492462120245879
 20
4.75
 30
0
 11
5.732462120245879
 21
4.99
 31
0
  0
LINE
  8
0
 62
7
 10
4.042462120245875
 20
3.3
 30
0
 11
4.164999999999999
 21
3.422537879754124
 31
0
  0
LINE
  8
0
 62
7
 10
5.704594154601843
 20
4.75
 30
0
 11
5.944594154601843
 21
4.99
 31
0
  0
LINE
  8
0
 62
7
 10
5.916726188957806
 20
4.75
 30
0
 11
6.156726188957807
 21
4.99
 31
0
  0
LINE
  8
0
 62
7
 10
6.12885822331377
 20
4.75
 30
0
 11
6.36885822331377
 21
4.99
 31
0
  0
LINE
  8
0
 62
7
 10
6.340990257669734
 20
4.75
 30
0
 11
6.580990257669734
 21
4.99
 31
0
  0
LINE
  8
0
 62
7
 10
6.553122292025698
 20
4.75
 30
0
 11
6.793122292025698
 21
4.99
 31
0
  0
LINE
  8
0
 62
7
 10
6.765254326381662
 20
4.75
 30
0
 11
7.005254326381662
 21
4.99
 31
0
  0
LINE
  8
0
 62
7
 10
6.977386360737626
 20
4.75
 30
0
 11
7.217386360737626
 21
4.99
 31
0
  0
LINE
  8
0
 62
7
 10
7.189518395093589
 20
4.75
 30
0
 11
7.42951839509359
 21
4.99
 31
0
  0
LINE
  8
0
 62
7
 10
7.401650429449553
 20
4.75
 30
0
 11
7.641650429449554
 21
4.99
 31
0
  0
LINE
  8
0
 62
7
 10
7.613782463805517
 20
4.749999999999999
 30
0
 11
7.765
 21
4.901217536194482
 31
0
  0
LINE
  8
0
 62
7
 10
7.425000000000001
 20
4.561217536194482
 30
0
 11
7.600000000000002
 21
4.736217536194483
 31
0
  0
LINE
  8
0
 62
7
 10
7.425000000000001
 20
4.349085501838518
 30
0
 11
7.600000000000002
 21
4.52408550183852
 31
0
  0
LINE
  8
0
 62
7
 10
7.425000000000001
 20
4.136953467482554
 30
0
 11
7.600000000000002
 21
4.311953467482556
 31
0
  0
LINE
  8
0
 62
7
 10
7.425000000000001
 20
3.92482143312659
 30
0
 11
7.600000000000002
 21
4.099821433126592
 31
0
  0
LINE
  8
0
 62
7
 10
7.425000000000001
 20
3.712689398770626
 30
0
 11
7.600000000000002
 21
3.887689398770628
 31
0
  0
LINE
  8
0
 62
7
 10
7.425000000000001
 20
3.500557364414662
 30
0
 11
7.600000000000002
 21
3.675557364414663
 31
0
  0
LINE
  8
0
 62
7
 10
7.536574669941303
 20
3.4
 30
0
 11
7.600000000000002
 21
3.463425330058699
 31
0
  0
LINE
  8
0
 62
7
 10
3.84
 20
4.900660171779821
 30
0
 11
3.929339828220188
 21
4.990000000000001
 31
0
  0
LINE
  8
0
 62
7
 10
3.901471862576142
 20
4.75
 30
0
 11
4.141471862576152
 21
4.990000000000001
 31
0
  0
LINE
  8
0
 62
7
 10
3.99
 20
4.626396103067892
 30
0
 11
4.353603896932116
 21
4.990000000000001
 31
0
  0
LINE
  8
0
 62
7
 10
4.325735931288078
 20
4.75
 30
0
 11
4.56573593128808
 21
4.990000000000001
 31
0
  0
LINE
  8
0
 62
7
 10
3.99
 20
4.414264068711928
 30
0
 11
4.165
 21
4.589264068711928
 31
0
  0
LINE
  8
0
 62
7
 10
4.537867965644041
 20
4.75
 30
0
 11
4.777867965644043
 21
4.990000000000001
 31
0
  0
LINE
  8
0
 62
7
 10
3.99
 20
4.202132034355964
 30
0
 11
4.165
 21
4.377132034355964
 31
0
  0
LINE
  8
0
 62
7
 10
4.750000000000005
 20
4.75
 30
0
 11
4.990000000000007
 21
4.990000000000001
 31
0
  0
LINE
  8
0
 62
7
 10
3.99
 20
3.99
 30
0
 11
4.165
 21
4.165
 31
0
  0
LINE
  8
0
 62
7
 10
4.962132034355969
 20
4.75
 30
0
 11
5.202132034355971
 21
4.990000000000001
 31
0
  0
LINE
  8
0
 62
7
 10
3.99
 20
3.777867965644035
 30
0
 11
4.165
 21
3.952867965644036
 31
0
  0
LINE
  8
0
 62
7
 10
5.174264068711933
 20
4.75
 30
0
 11
5.414264068711935
 21
4.990000000000001
 31
0
  0
LINE
  8
0
 62
7
 10
3.99
 20
3.565735931288071
 30
0
 11
4.165
 21
3.740735931288071
 31
0
  0
LINE
  8
0
 62
7
 10
5.386396103067897
 20
4.75
 30
0
 11
5.626396103067899
 21
4.990000000000001
 31
0
  0
LINE
  8
0
 62
7
 10
3.99
 20
3.353603896932107
 30
0
 11
4.165
 21
3.528603896932107
 31
0
  0
LINE
  8
0
 62
7
 10
5.598528137423861
 20
4.75
 30
0
 11
5.838528137423863
 21
4.990000000000001
 31
0
  0
LINE
  8
0
 62
7
 10
4.148528137423858
 20
3.3
 30
0
 11
4.165
 21
3.316471862576143
 31
0
  0
LINE
  8
0
 62
7
 10
5.810660171779825
 20
4.75
 30
0
 11
6.050660171779827
 21
4.990000000000001
 31
0
  0
LINE
  8
0
 62
7
 10
6.022792206135788
 20
4.75
 30
0
 11
6.26279220613579
 21
4.990000000000001
 31
0
  0
LINE
  8
0
 62
7
 10
6.234924240491752
 20
4.75
 30
0
 11
6.474924240491754
 21
4.990000000000001
 31
0
  0
LINE
  8
0
 62
7
 10
6.447056274847716
 20
4.75
 30
0
 11
6.687056274847718
 21
4.990000000000001
 31
0
  0
LINE
  8
0
 62
7
 10
6.65918830920368
 20
4.75
 30
0
 11
6.899188309203682
 21
4.990000000000001
 31
0
  0
LINE
  8
0
 62
7
 10
6.871320343559644
 20
4.75
 30
0
 11
7.111320343559646
 21
4.990000000000001
 31
0
  0
LINE
  8
0
 62
7
 10
7.083452377915608
 20
4.75
 30
0
 11
7.32345237791561
 21
4.990000000000001
 31
0
  0
LINE
  8
0
 62
7
 10
7.295584412271571
 20
4.75
 30
0
 11
7.535584412271573
 21
4.990000000000001
 31
0
  0
LINE
  8
0
 62
7
 10
7.425000000000001
 20
4.667283553372464
 30
0
 11
7.747716446627537
 21
4.990000000000001
 31
0
  0
LINE
  8
0
 62
7
 10
7.719848480983499
 20
4.749999999999999
 30
0
 11
7.765000000000001
 21
4.795151519016501
 31
0
  0
LINE
  8
0
 62
7
 10
7.425000000000001
 20
4.4551515190165
 30
0
 11
7.600000000000001
 21
4.630151519016501
 31
0
  0
LINE
  8
0
 62
7
 10
7.425000000000001
 20
4.243019484660536
 30
0
 11
7.600000000000001
 21
4.418019484660537
 31
0
  0
LINE
  8
0
 62
7
 10
7.425000000000001
 20
4.030887450304572
 30
0
 11
7.600000000000001
 21
4.205887450304573
 31
0
  0
LINE
  8
0
 62
7
 10
7.425000000000001
 20
3.818755415948608
 30
0
 11
7.600000000000001
 21
3.993755415948609
 31
0
  0
LINE
  8
0
 62
7
 10
7.425000000000001
 20
3.606623381592644
 30
0
 11
7.600000000000001
 21
3.781623381592644
 31
0
  0
LINE
  8
0
 62
7
 10
7.430508652763322
 20
3.4
 30
0
 11
7.600000000000001
 21
3.56949134723668
 31
0
  0
ENDBLK
  8
0
  0
BLOCK
  8
0
  2
*D0
 70
1
 10
0
 20
0
 30
0
  0
LINE
  8
0
 62
7
 10
8.090753238233139
 20
10.25871036308411
 30
0
 11
8.090753238233139
 21
11.05
 31
0
  0
LINE
  8
0
 62
7
 10
8.090753238233139
 20
8.299999999999997
 30
0
 11
8.090753238233139
 21
9.178710363084111
 31
0
  0
LINE
  8
0
 62
7
 10
7.75
 20
11.05
 30
0
 11
8.14075323823314
 21
11.05
 31
0
  0
LINE
  8
0
 62
7
 10
7.75
 20
8.299999999999997
 30
0
 11
8.14075323823314
 21
8.299999999999997
 31
0
  0
LINE
  8
0
 62
7
 10
8.055397899173812
 20
8.335355339059324
 30
0
 11
8.126108577292467
 21
8.26464466094067
 31
0
  0
LINE
  8
0
 62
7
 10
8.126108577292467
 20
11.01464466094067
 30
0
 11
8.055397899173812
 21
11.08535533905933
 31
0
  0
TEXT
  8
0
 62
7
 10
8.06075323823314
 20
9.581210363084113
 30
0
 40
0.1
  1
2,75
 50
90
 41
0.9
  0
TEXT
  8
0
 62
7
 10
8.22075323823314
 20
9.378710363084112
 30
0
 40
0.1
  1
(260-280)
 50
90
 41
0.9
  0
ENDBLK
  8
0
  0
BLOCK
  8
0
  2
*D1
 70
1
 10
0
 20
0
 30
0
  0
LINE
  8
0
 62
7
 10
6.113021627491061
 20
11.4669464773179
 30
0
 11
7.425000000000001
 21
11.4669464773179
 31
0
  0
LINE
  8
0
 62
7
 10
4.165
 20
11.4669464773179
 30
0
 11
5.43802162749106
 21
11.4669464773179
 31
0
  0
LINE
  8
0
 62
7
 10
7.425000000000001
 20
11.2
 30
0
 11
7.425000000000001
 21
11.5169464773179
 31
0
  0
LINE
  8
0
 62
7
 10
4.165
 20
11.2
 30
0
 11
4.165
 21
11.5169464773179
 31
0
  0
LINE
  8
0
 62
7
 10
7.389644660940673
 20
11.43159113825857
 30
0
 11
7.460355339059328
 21
11.50230181637723
 31
0
  0
LINE
  8
0
 62
7
 10
4.200355339059327
 20
11.50230181637723
 30
0
 11
4.129644660940673
 21
11.43159113825857
 31
0
  0
TEXT
  8
0
 62
7
 10
5.63802162749106
 20
11.4219464773179
 30
0
 40
0.1
  1
3,26
 41
0.9
  0
ENDBLK
  8
0
  0
BLOCK
  8
0
  2
*D2
 70
1
 10
0
 20
0
 30
0
  0
LINE
  8
0
 62
7
 10
3.64928851558507
 20
4.40944299182422
 30
0
 11
3.64928851558507
 21
4.75
 31
0
  0
LINE
  8
0
 62
7
 10
3.64928851558507
 20
3.3
 30
0
 11
3.64928851558507
 21
3.66444299182422
 31
0
  0
LINE
  8
0
 62
7
 10
3.99
 20
4.75
 30
0
 11
3.59928851558507
 21
4.75
 31
0
  0
LINE
  8
0
 62
7
 10
3.99
 20
3.3
 30
0
 11
3.59928851558507
 21
3.3
 31
0
  0
LINE
  8
0
 62
7
 10
3.613933176525743
 20
3.335355339059328
 30
0
 11
3.684643854644397
 21
3.264644660940673
 31
0
  0
LINE
  8
0
 62
7
 10
3.684643854644397
 20
4.714644660940673
 30
0
 11
3.613933176525743
 21
4.785355339059327
 31
0
  0
TEXT
  8
0
 62
7
 10
3.69428851558507
 20
3.91444299182422
 30
0
 40
0.1
  1
1,45
 50
90
 41
0.9
  0
ENDBLK
  8
0
  0
BLOCK
  8
0
  2
*D3
 70
1
 10
0
 20
0
 30
0
  0
LINE
  8
0
 62
7
 10
6.186646439845571
 20
5.61980541957646
 30
0
 11
7.425000000000001
 21
5.61980541957646
 31
0
  0
LINE
  8
0
 62
7
 10
4.165
 20
5.61980541957646
 30
0
 11
5.411646439845571
 21
5.61980541957646
 31
0
  0
LINE
  8
0
 62
7
 10
7.425000000000001
 20
5.269999999999997
 30
0
 11
7.425000000000001
 21
5.66980541957646
 31
0
  0
LINE
  8
0
 62
7
 10
4.165
 20
5.269999999999997
 30
0
 11
4.165
 21
5.66980541957646
 31
0
  0
LINE
  8
0
 62
7
 10
4.200355339059327
 20
5.655160758635787
 30
0
 11
4.129644660940673
 21
5.584450080517133
 31
0
  0
LINE
  8
0
 62
7
 10
7.389644660940673
 20
5.584450080517133
 30
0
 11
7.460355339059328
 21
5.655160758635787
 31
0
  0
TEXT
  8
0
 62
7
 10
5.661646439845571
 20
5.57480541957646
 30
0
 40
0.1
  1
3,26
 41
0.9
  0
ENDBLK
  8
0
  0
BLOCK
  8
0
  2
*D4
 70
1
 10
0
 20
0
 30
0
  0
LINE
  8
0
 62
7
 10
7.901754739397051
 20
4.48031742888776
 30
0
 11
7.901754739397051
 21
4.75
 31
0
  0
LINE
  8
0
 62
7
 10
7.901754739397051
 20
3.4
 30
0
 11
7.901754739397051
 21
3.73531742888776
 31
0
  0
LINE
  8
0
 62
7
 10
7.600000000000001
 20
4.75
 30
0
 11
7.95175473939705
 21
4.75
 31
0
  0
LINE
  8
0
 62
7
 10
7.600000000000001
 20
3.4
 30
0
 11
7.95175473939705
 21
3.4
 31
0
  0
LINE
  8
0
 62
7
 10
7.937110078456378
 20
4.714644660940673
 30
0
 11
7.866399400337723
 21
4.785355339059327
 31
0
  0
LINE
  8
0
 62
7
 10
7.866399400337723
 20
3.435355339059327
 30
0
 11
7.937110078456378
 21
3.364644660940673
 31
0
  0
TEXT
  8
0
 62
7
 10
7.946754739397051
 20
3.98531742888776
 30
0
 40
0.1
  1
1,35
 50
90
 41
0.9
  0
ENDBLK
  8
0
  0
ENDSEC
  0
SECTION
  2
ENTITIES
  0
INSERT
  8
0
  2
*X0
 10
0
 20
0
 30
0
  0
INSERT
  8
0
  2
*X1
 10
0
 20
0
 30
0
  0
INSERT
  8
0
  2
*X2
 10
0
 20
0
 30
0
  0
INSERT
  8
0
  2
*X3
 10
0
 20
0
 30
0
  0
INSERT
  8
0
  2
*X4
 10
0
 20
0
 30
0
  0
INSERT
  8
0
  2
*X5
 10
0
 20
0
 30
0
  0
INSERT
  8
0
  2
*X6
 10
0
 20
0
 30
0
  0
INSERT
  8
0
  2
*X7
 10
0
 20
0
 30
0
  0
INSERT
  8
0
  2
*X8
 10
0
 20
0
 30
0
  0
INSERT
  8
0
  2
*X9
 10
0
 20
0
 30
0
  0
INSERT
  8
0
  2
*X10
 10
0
 20
0
 30
0
  0
INSERT
  8
0
  2
*X11
 10
0
 20
0
 30
0
  0
INSERT
  8
0
  2
*X12
 10
0
 20
0
 30
0
  0
INSERT
  8
0
  2
*X13
 10
0
 20
0
 30
0
  0
INSERT
  8
0
  2
*X14
 10
0
 20
0
 30
0
  0
INSERT
  8
0
  2
*X15
 10
0
 20
0
 30
0
  0
INSERT
  8
0
  2
*X16
 10
0
 20
0
 30
0
  0
LINE
  8
0
 62
7
 10
6.31
 20
3.593784184173076
 30
0
 11
6.31
 21
3.463765125739219
 31
0
  0
LINE
  8
0
 62
7
 10
6.25854565665878
 20
3.635
 30
0
 11
6.31
 21
3.593784184173076
 31
0
  0
LINE
  8
0
 62
7
 10
6.059386043833467
 20
3.635
 30
0
 11
6.1684255891144
 21
3.635
 31
0
  0
LINE
  8
0
 62
7
 10
6.059386043833467
 20
3.635
 30
0
 11
6.25854565665878
 21
3.635
 31
0
  0
LINE
  8
0
 62
7
 10
5.326815624769218
 20
3.635
 30
0
 11
5.52910022360119
 21
3.635
 31
0
  0
LINE
  8
0
 62
7
 10
5.280000000000001
 20
3.581556549097907
 30
0
 11
5.326815624769218
 21
3.635
 31
0
  0
LINE
  8
0
 62
7
 10
5.280000000000001
 20
3.421599438437021
 30
0
 11
5.280000000000001
 21
3.513505354320341
 31
0
  0
LINE
  8
0
 62
7
 10
5.280000000000001
 20
3.421599438437021
 30
0
 11
5.280000000000001
 21
3.581556549097907
 31
0
  0
LINE
  8
0
 62
7
 10
4.220000000000001
 20
3.732805354551529
 30
0
 11
4.220000000000001
 21
3.299999999999999
 31
0
  0
LINE
  8
0
 62
7
 10
5.280000000000001
 20
3.299999999999999
 30
0
 11
5.280000000000001
 21
3.421599438437021
 31
0
  0
LINE
  8
0
 62
7
 10
4.220000000000001
 20
3.299999999999999
 30
0
 11
5.280000000000001
 21
3.299999999999999
 31
0
  0
LINE
  8
0
 62
7
 10
4.220000000000001
 20
4.10632294103458
 30
0
 11
4.220000000000001
 21
3.640899438668213
 31
0
  0
LINE
  8
0
 62
7
 10
4.220000000000001
 20
3.640899438668213
 30
0
 11
5.280000000000001
 21
3.421599438437021
 31
0
  0
LINE
  8
0
 62
7
 10
4.220000000000001
 20
4.563476675891381
 30
0
 11
4.220000000000001
 21
4.007512312645861
 31
0
  0
LINE
  8
0
 62
7
 10
5.245876411380999
 20
3.54260198335297
 30
0
 11
5.280000000000001
 21
3.581556549097907
 31
0
  0
LINE
  8
0
 62
7
 10
4.220000000000001
 20
4.007512312645861
 30
0
 11
5.245876411380999
 21
3.54260198335297
 31
0
  0
LINE
  8
0
 62
7
 10
4.220000000000001
 20
4.695
 30
0
 11
4.220000000000001
 21
4.451014813841441
 31
0
  0
LINE
  8
0
 62
7
 10
4.691057795161942
 20
4.695
 30
0
 11
4.220000000000001
 21
4.695
 31
0
  0
LINE
  8
0
 62
7
 10
5.309045591143899
 20
3.635
 30
0
 11
5.326815624769218
 21
3.635
 31
0
  0
LINE
  8
0
 62
7
 10
4.220000000000001
 20
4.451014813841441
 30
0
 11
5.309045591143899
 21
3.635
 31
0
  0
LINE
  8
0
 62
7
 10
5.106525343355127
 20
4.695
 30
0
 11
4.57632781046068
 21
4.695
 31
0
  0
LINE
  8
0
 62
7
 10
5.41437023889992
 20
3.635
 30
0
 11
5.625257646707441
 21
3.635
 31
0
  0
LINE
  8
0
 62
7
 10
4.57632781046068
 20
4.695
 30
0
 11
5.41437023889992
 21
3.635
 31
0
  0
LINE
  8
0
 62
7
 10
5.449572167452698
 20
4.695
 30
0
 11
5.006326475857197
 21
4.695
 31
0
  0
LINE
  8
0
 62
7
 10
5.525058779209507
 20
3.635
 30
0
 11
5.730104120969667
 21
3.635
 31
0
  0
LINE
  8
0
 62
7
 10
5.006326475857197
 20
4.695
 30
0
 11
5.525058779209507
 21
3.635
 31
0
  0
LINE
  8
0
 62
7
 10
5.794264499466758
 20
4.694999999999992
 30
0
 11
5.356473655712398
 21
4.695
 31
0
  0
LINE
  8
0
 62
7
 10
5.637005609229382
 20
3.635
 30
0
 11
5.837013742639128
 21
3.635
 31
0
  0
LINE
  8
0
 62
7
 10
5.356473655712398
 20
4.695
 30
0
 11
5.637005609229382
 21
3.635
 31
0
  0
LINE
  8
0
 62
7
 10
6.1449460470132
 20
4.695
 30
0
 11
5.704191338209461
 21
4.695
 31
0
  0
LINE
  8
0
 62
7
 10
5.746940581381828
 20
3.635
 30
0
 11
5.945942150852127
 21
3.635
 31
0
  0
LINE
  8
0
 62
7
 10
5.704191338209461
 20
4.695
 30
0
 11
5.746940581381828
 21
3.635
 31
0
  0
LINE
  8
0
 62
7
 10
6.5016224909025
 20
4.695
 30
0
 11
6.053373705960178
 21
4.695
 31
0
  0
LINE
  8
0
 62
7
 10
5.85436980979913
 20
3.635
 30
0
 11
6.056891333434478
 21
3.635
 31
0
  0
LINE
  8
0
 62
7
 10
6.053373705960178
 20
4.695
 30
0
 11
5.85436980979913
 21
3.635
 31
0
  0
LINE
  8
0
 62
7
 10
6.893464521065631
 20
4.695
 30
0
 11
6.40402212130106
 21
4.695
 31
0
  0
LINE
  8
0
 62
7
 10
5.959290963833038
 20
3.635
 30
0
 11
6.059386043833467
 21
3.635
 31
0
  0
LINE
  8
0
 62
7
 10
6.40402212130106
 20
4.695
 30
0
 11
5.959290963833038
 21
3.635
 31
0
  0
LINE
  8
0
 62
7
 10
7.370000000000001
 20
4.695
 30
0
 11
6.784424975784707
 21
4.695
 31
0
  0
LINE
  8
0
 62
7
 10
7.370000000000001
 20
4.604641464672639
 30
0
 11
7.370000000000001
 21
4.695
 31
0
  0
LINE
  8
0
 62
7
 10
6.784424975784707
 20
4.695
 30
0
 11
6.059386043833467
 21
3.635
 31
0
  0
LINE
  8
0
 62
7
 10
7.370000000000001
 20
4.695
 30
0
 11
7.33626340704324
 21
4.695
 31
0
  0
LINE
  8
0
 62
7
 10
7.370000000000001
 20
4.11152893861119
 30
0
 11
7.370000000000001
 21
4.695
 31
0
  0
LINE
  8
0
 62
7
 10
6.196372123725428
 20
3.684802071434419
 30
0
 11
6.25854565665878
 21
3.635
 31
0
  0
LINE
  8
0
 62
7
 10
7.33626340704324
 20
4.695
 30
0
 11
6.196372123725428
 21
3.684802071434419
 31
0
  0
LINE
  8
0
 62
7
 10
7.370000000000001
 20
3.709116343675259
 30
0
 11
7.370000000000001
 21
4.21382894990658
 31
0
  0
LINE
  8
0
 62
7
 10
6.31
 20
3.641025314249369
 30
0
 11
6.31
 21
3.593784184173076
 31
0
  0
LINE
  8
0
 62
7
 10
7.370000000000001
 20
4.21382894990658
 30
0
 11
6.31
 21
3.641025314249369
 31
0
  0
LINE
  8
0
 62
7
 10
7.370000000000001
 20
3.429999999999999
 30
0
 11
7.370000000000001
 21
3.801495778746971
 31
0
  0
LINE
  8
0
 62
7
 10
6.31
 20
3.556144560810931
 30
0
 11
6.31
 21
3.429999999999999
 31
0
  0
LINE
  8
0
 62
7
 10
7.370000000000001
 20
3.801495778746971
 30
0
 11
6.31
 21
3.556144560810931
 31
0
  0
LINE
  8
0
 62
7
 10
6.97896760192475
 20
3.63500058044621
 30
0
 11
6.97896760192475
 21
3.449999999999999
 31
0
  0
LINE
  8
0
 62
7
 10
7.084622701186447
 20
3.510999999999999
 30
0
 11
6.97896760192475
 21
3.449999999999999
 31
0
  0
LINE
  8
0
 62
7
 10
6.873312502663047
 20
3.510999999999999
 30
0
 11
7.084622701186447
 21
3.510999999999999
 31
0
  0
LINE
  8
0
 62
7
 10
6.97896760192475
 20
3.449999999999999
 30
0
 11
6.873312502663047
 21
3.510999999999999
 31
0
  0
LINE
  8
0
 62
7
 10
5.279999419554035
 20
4.303967601924749
 30
0
 11
6.310000580463111
 21
4.303967601924749
 31
0
  0
LINE
  8
0
 62
7
 10
4.611032398075241
 20
3.299999999999999
 30
0
 11
4.611032398075241
 21
3.63500058043137
 31
0
  0
LINE
  8
0
 62
7
 10
4.219999909999999
 20
8.583333226666662
 30
0
 11
5.28000015
 21
8.583333226666662
 31
0
  0
LINE
  8
0
 62
7
 10
4.219999909999999
 20
8.518333226666662
 30
0
 11
4.219999909999999
 21
8.583333226666662
 31
0
  0
LINE
  8
0
 62
7
 10
5.28000015
 20
8.583333226666662
 30
0
 11
5.28000015
 21
8.518333226666662
 31
0
  0
LINE
  8
0
 62
7
 10
5.28000015
 20
8.518333226666662
 30
0
 11
4.219999909999999
 21
8.518333226666662
 31
0
  0
LINE
  8
0
 62
7
 10
4.219999969999997
 20
8.766666566666663
 30
0
 11
5.280000000000001
 21
8.766666566666663
 31
0
  0
LINE
  8
0
 62
7
 10
4.219999969999997
 20
8.701666566666665
 30
0
 11
4.219999969999997
 21
8.766666566666663
 31
0
  0
LINE
  8
0
 62
7
 10
5.280000000000001
 20
8.766666566666663
 30
0
 11
5.280000000000001
 21
8.701666566666665
 31
0
  0
LINE
  8
0
 62
7
 10
5.280000000000001
 20
8.701666566666665
 30
0
 11
4.219999969999997
 21
8.701666566666665
 31
0
  0
LINE
  8
0
 62
7
 10
4.220000030000011
 20
8.949999906666664
 30
0
 11
5.37925033
 21
8.949999906666664
 31
0
  0
LINE
  8
0
 62
7
 10
5.37925033
 20
8.884999906666662
 30
0
 11
4.220000030000011
 21
8.884999906666662
 31
0
  0
LINE
  8
0
 62
7
 10
4.220000030000011
 20
8.884999906666662
 30
0
 11
4.220000030000011
 21
8.949999906666664
 31
0
  0
LINE
  8
0
 62
7
 10
5.37925033
 20
8.949999906666664
 30
0
 11
5.37925033
 21
8.884999906666662
 31
0
  0
LINE
  8
0
 62
7
 10
5.529100189999999
 20
9.068333226666663
 30
0
 11
4.220000030000011
 21
9.068333226666663
 31
0
  0
LINE
  8
0
 62
7
 10
4.220000030000011
 20
9.133333226666663
 30
0
 11
5.529100189999999
 21
9.133333226666663
 31
0
  0
LINE
  8
0
 62
7
 10
4.220000030000011
 20
9.068333226666663
 30
0
 11
4.220000030000011
 21
9.133333226666663
 31
0
  0
LINE
  8
0
 62
7
 10
5.529100189999999
 20
9.133333226666663
 30
0
 11
5.529100189999999
 21
9.068333226666663
 31
0
  0
LINE
  8
0
 62
7
 10
5.625257870000009
 20
9.251666586666664
 30
0
 11
4.57632778
 21
9.251666586666664
 31
0
  0
LINE
  8
0
 62
7
 10
4.57632778
 20
9.316666586666663
 30
0
 11
5.625257870000009
 21
9.316666586666663
 31
0
  0
LINE
  8
0
 62
7
 10
4.57632778
 20
9.251666586666664
 30
0
 11
4.57632778
 21
9.316666586666663
 31
0
  0
LINE
  8
0
 62
7
 10
5.625257870000009
 20
9.316666586666663
 30
0
 11
5.625257870000009
 21
9.251666586666664
 31
0
  0
LINE
  8
0
 62
7
 10
5.730104059999999
 20
9.434999946666663
 30
0
 11
5.006326519999996
 21
9.434999946666663
 31
0
  0
LINE
  8
0
 62
7
 10
5.006326519999996
 20
9.499999946666664
 30
0
 11
5.730104059999999
 21
9.499999946666664
 31
0
  0
LINE
  8
0
 62
7
 10
5.006326519999996
 20
9.434999946666663
 30
0
 11
5.006326519999996
 21
9.499999946666664
 31
0
  0
LINE
  8
0
 62
7
 10
5.730104059999999
 20
9.499999946666664
 30
0
 11
5.730104059999999
 21
9.434999946666663
 31
0
  0
LINE
  8
0
 62
7
 10
5.837013700000011
 20
9.618333226666664
 30
0
 11
5.356473769999997
 21
9.618333226666664
 31
0
  0
LINE
  8
0
 62
7
 10
5.356473769999997
 20
9.683333226666662
 30
0
 11
5.837013700000011
 21
9.683333226666662
 31
0
  0
LINE
  8
0
 62
7
 10
5.356473769999997
 20
9.618333226666664
 30
0
 11
5.356473769999997
 21
9.683333226666662
 31
0
  0
LINE
  8
0
 62
7
 10
5.837013700000011
 20
9.683333226666662
 30
0
 11
5.837013700000011
 21
9.618333226666664
 31
0
  0
LINE
  8
0
 62
7
 10
6.144946129999997
 20
9.801666666666662
 30
0
 11
5.70419143000001
 21
9.801666666666662
 31
0
  0
LINE
  8
0
 62
7
 10
5.70419143000001
 20
9.866666666666662
 30
0
 11
6.144946129999997
 21
9.866666666666662
 31
0
  0
LINE
  8
0
 62
7
 10
5.70419143000001
 20
9.801666666666662
 30
0
 11
5.70419143000001
 21
9.866666666666662
 31
0
  0
LINE
  8
0
 62
7
 10
6.144946129999997
 20
9.866666666666662
 30
0
 11
6.144946129999997
 21
9.801666666666662
 31
0
  0
LINE
  8
0
 62
7
 10
6.501622619999998
 20
9.984999946666663
 30
0
 11
5.854369959999997
 21
9.984999946666663
 31
0
  0
LINE
  8
0
 62
7
 10
5.854369959999997
 20
10.04999994666666
 30
0
 11
6.501622619999998
 21
10.04999994666666
 31
0
  0
LINE
  8
0
 62
7
 10
5.854369959999997
 20
9.984999946666663
 30
0
 11
5.854369959999997
 21
10.04999994666666
 31
0
  0
LINE
  8
0
 62
7
 10
6.501622619999998
 20
10.04999994666666
 30
0
 11
6.501622619999998
 21
9.984999946666663
 31
0
  0
LINE
  8
0
 62
7
 10
6.893464659999999
 20
10.16833322666666
 30
0
 11
5.95929092
 21
10.16833322666666
 31
0
  0
LINE
  8
0
 62
7
 10
5.95929092
 20
10.23333322666666
 30
0
 11
6.893464659999999
 21
10.23333322666666
 31
0
  0
LINE
  8
0
 62
7
 10
5.95929092
 20
10.16833322666666
 30
0
 11
5.95929092
 21
10.23333322666666
 31
0
  0
LINE
  8
0
 62
7
 10
6.893464659999999
 20
10.23333322666666
 30
0
 11
6.893464659999999
 21
10.16833322666666
 31
0
  0
LINE
  8
0
 62
7
 10
7.370000000000001
 20
10.35166666666666
 30
0
 11
6.059386289999996
 21
10.35166666666666
 31
0
  0
LINE
  8
0
 62
7
 10
6.059386289999996
 20
10.41666666666666
 30
0
 11
7.370000000000001
 21
10.41666666666666
 31
0
  0
LINE
  8
0
 62
7
 10
6.059386289999996
 20
10.35166666666666
 30
0
 11
6.059386289999996
 21
10.41666666666666
 31
0
  0
LINE
  8
0
 62
7
 10
7.370000000000001
 20
10.41666666666666
 30
0
 11
7.370000000000001
 21
10.35166666666666
 31
0
  0
LINE
  8
0
 62
7
 10
7.370000000000001
 20
10.53499994666666
 30
0
 11
6.196372069999998
 21
10.53499994666666
 31
0
  0
LINE
  8
0
 62
7
 10
6.196372069999998
 20
10.59999994666666
 30
0
 11
7.370000000000001
 21
10.59999994666666
 31
0
  0
LINE
  8
0
 62
7
 10
6.196372069999998
 20
10.53499994666666
 30
0
 11
6.196372069999998
 21
10.59999994666666
 31
0
  0
LINE
  8
0
 62
7
 10
7.370000000000001
 20
10.59999994666666
 30
0
 11
7.370000000000001
 21
10.53499994666666
 31
0
  0
LINE
  8
0
 62
7
 10
6.309999840000001
 20
10.78333322666666
 30
0
 11
7.370000000000001
 21
10.78333322666666
 31
0
  0
LINE
  8
0
 62
7
 10
6.309999840000001
 20
10.71833322666666
 30
0
 11
6.309999840000001
 21
10.78333322666666
 31
0
  0
LINE
  8
0
 62
7
 10
7.370000000000001
 20
10.78333322666666
 30
0
 11
7.370000000000001
 21
10.71833322666666
 31
0
  0
LINE
  8
0
 62
7
 10
7.370000000000001
 20
10.71833322666666
 30
0
 11
6.309999840000001
 21
10.71833322666666
 31
0
  0
LINE
  8
0
 62
7
  6
DASHED
 10
6.31
 20
10.96666666666667
 30
0
 11
7.370000000000001
 21
10.96666666666667
 31
0
  0
LINE
  8
0
 62
7
  6
DASHED
 10
6.31
 20
10.90166666666667
 30
0
 11
6.31
 21
10.96666666666667
 31
0
  0
LINE
  8
0
 62
7
  6
DASHED
 10
7.370000000000001
 20
10.96666666666667
 30
0
 11
7.370000000000001
 21
10.90166666666667
 31
0
  0
LINE
  8
0
 62
7
  6
DASHED
 10
7.370000000000001
 20
10.90166666666667
 30
0
 11
6.31
 21
10.90166666666667
 31
0
  0
LINE
  8
0
 62
7
 10
1.757194709999996
 20
8.583333226666662
 30
0
 11
2.18999987
 21
8.583333226666662
 31
0
  0
LINE
  8
0
 62
7
 10
2.18999987
 20
8.518333226666662
 30
0
 11
1.757194709999996
 21
8.518333226666662
 31
0
  0
LINE
  8
0
 62
7
 10
2.18999987
 20
8.583333226666662
 30
0
 11
2.18999987
 21
8.518333226666662
 31
0
  0
LINE
  8
0
 62
7
 10
1.757194709999996
 20
8.518333226666662
 30
0
 11
1.757194709999996
 21
8.583333226666662
 31
0
  0
LINE
  8
0
 62
7
 10
2.06840040000001
 20
8.701666566666665
 30
0
 11
1.383676909999998
 21
8.701666566666665
 31
0
  0
LINE
  8
0
 62
7
 10
1.383676909999998
 20
8.766666566666663
 30
0
 11
2.06840040000001
 21
8.766666566666663
 31
0
  0
LINE
  8
0
 62
7
 10
2.06840040000001
 20
8.766666566666663
 30
0
 11
2.06840040000001
 21
8.701666566666665
 31
0
  0
LINE
  8
0
 62
7
 10
1.383676909999998
 20
8.701666566666665
 30
0
 11
1.383676909999998
 21
8.766666566666663
 31
0
  0
LINE
  8
0
 62
7
 10
1.947397799999999
 20
8.884999906666662
 30
0
 11
0.9265232799999977
 21
8.884999906666662
 31
0
  0
LINE
  8
0
 62
7
 10
0.9265232799999977
 20
8.949999906666665
 30
0
 11
1.947397799999999
 21
8.949999906666665
 31
0
  0
LINE
  8
0
 62
7
 10
1.947397799999999
 20
8.949999906666665
 30
0
 11
1.947397799999999
 21
8.884999906666662
 31
0
  0
LINE
  8
0
 62
7
 10
0.9265232799999977
 20
8.884999906666662
 30
0
 11
0.9265232799999977
 21
8.949999906666665
 31
0
  0
LINE
  8
0
 62
7
 10
0.7949998400000005
 20
9.133333226666663
 30
0
 11
1.85499973
 21
9.133333226666663
 31
0
  0
LINE
  8
0
 62
7
 10
1.85499973
 20
9.068333226666663
 30
0
 11
0.7949998400000005
 21
9.068333226666663
 31
0
  0
LINE
  8
0
 62
7
 10
1.85499973
 20
9.133333226666663
 30
0
 11
1.85499973
 21
9.068333226666663
 31
0
  0
LINE
  8
0
 62
7
 10
0.7949998400000005
 20
9.068333226666663
 30
0
 11
0.7949998400000005
 21
9.133333226666663
 31
0
  0
LINE
  8
0
 62
7
 10
0.7949996899999969
 20
9.316666586666663
 30
0
 11
1.854999919999998
 21
9.316666586666663
 31
0
  0
LINE
  8
0
 62
7
 10
1.854999919999998
 20
9.316666586666663
 30
0
 11
1.854999919999998
 21
9.251666586666664
 31
0
  0
LINE
  8
0
 62
7
 10
0.7949996899999969
 20
9.251666586666664
 30
0
 11
0.7949996899999969
 21
9.316666586666663
 31
0
  0
LINE
  8
0
 62
7
 10
1.854999919999998
 20
9.251666586666664
 30
0
 11
0.7949996899999969
 21
9.251666586666664
 31
0
  0
LINE
  8
0
 62
7
 10
0.7949996899999969
 20
9.499999946666664
 30
0
 11
1.855
 21
9.499999946666664
 31
0
  0
LINE
  8
0
 62
7
 10
1.855
 20
9.499999946666664
 30
0
 11
1.855
 21
9.434999946666663
 31
0
  0
LINE
  8
0
 62
7
 10
0.7949996899999969
 20
9.434999946666663
 30
0
 11
0.7949996899999969
 21
9.499999946666664
 31
0
  0
LINE
  8
0
 62
7
 10
1.855
 20
9.434999946666663
 30
0
 11
0.7949996899999969
 21
9.434999946666663
 31
0
  0
LINE
  8
0
 62
7
 10
0.7949998400000005
 20
9.683333226666662
 30
0
 11
1.854999919999998
 21
9.683333226666662
 31
0
  0
LINE
  8
0
 62
7
 10
1.854999919999998
 20
9.683333226666662
 30
0
 11
1.854999919999998
 21
9.618333226666664
 31
0
  0
LINE
  8
0
 62
7
 10
0.7949998400000005
 20
9.618333226666664
 30
0
 11
0.7949998400000005
 21
9.683333226666662
 31
0
  0
LINE
  8
0
 62
7
 10
1.854999919999998
 20
9.618333226666664
 30
0
 11
0.7949998400000005
 21
9.618333226666664
 31
0
  0
LINE
  8
0
 62
7
 10
0.795
 20
9.866666666666662
 30
0
 11
1.855
 21
9.866666666666662
 31
0
  0
LINE
  8
0
 62
7
 10
1.855
 20
9.866666666666662
 30
0
 11
1.855
 21
9.801666666666662
 31
0
  0
LINE
  8
0
 62
7
 10
0.795
 20
9.801666666666662
 30
0
 11
0.795
 21
9.866666666666662
 31
0
  0
LINE
  8
0
 62
7
 10
1.855
 20
9.801666666666662
 30
0
 11
0.795
 21
9.801666666666662
 31
0
  0
LINE
  8
0
 62
7
 10
0.7949998400000005
 20
10.04999994666666
 30
0
 11
1.855000039999999
 21
10.04999994666666
 31
0
  0
LINE
  8
0
 62
7
 10
1.855000039999999
 20
10.04999994666666
 30
0
 11
1.855000039999999
 21
9.984999946666663
 31
0
  0
LINE
  8
0
 62
7
 10
0.7949998400000005
 20
9.984999946666663
 30
0
 11
0.7949998400000005
 21
10.04999994666666
 31
0
  0
LINE
  8
0
 62
7
 10
1.855000039999999
 20
9.984999946666663
 30
0
 11
0.7949998400000005
 21
9.984999946666663
 31
0
  0
LINE
  8
0
 62
7
 10
0.7949998400000005
 20
10.23333322666666
 30
0
 11
1.854999840000001
 21
10.23333322666666
 31
0
  0
LINE
  8
0
 62
7
 10
1.854999840000001
 20
10.23333322666666
 30
0
 11
1.854999840000001
 21
10.16833322666666
 31
0
  0
LINE
  8
0
 62
7
 10
0.7949998400000005
 20
10.16833322666666
 30
0
 11
0.7949998400000005
 21
10.23333322666666
 31
0
  0
LINE
  8
0
 62
7
 10
1.854999840000001
 20
10.16833322666666
 30
0
 11
0.7949998400000005
 21
10.16833322666666
 31
0
  0
LINE
  8
0
 62
7
 10
0.7949995399999973
 20
10.41666666666666
 30
0
 11
1.855000069999998
 21
10.41666666666666
 31
0
  0
LINE
  8
0
 62
7
 10
1.855000069999998
 20
10.35166666666667
 30
0
 11
0.7949995399999973
 21
10.35166666666667
 31
0
  0
LINE
  8
0
 62
7
 10
1.855000069999998
 20
10.41666666666666
 30
0
 11
1.855000069999998
 21
10.35166666666667
 31
0
  0
LINE
  8
0
 62
7
 10
0.7949995399999973
 20
10.35166666666667
 30
0
 11
0.7949995399999973
 21
10.41666666666666
 31
0
  0
LINE
  8
0
 62
7
 10
1.92909404
 20
10.53499994666666
 30
0
 11
0.7949995399999973
 21
10.53499994666666
 31
0
  0
LINE
  8
0
 62
7
 10
0.7949995399999973
 20
10.59999994666666
 30
0
 11
1.92909404
 21
10.59999994666666
 31
0
  0
LINE
  8
0
 62
7
 10
1.92909404
 20
10.59999994666666
 30
0
 11
1.92909404
 21
10.53499994666666
 31
0
  0
LINE
  8
0
 62
7
 10
0.7949995399999973
 20
10.53499994666666
 30
0
 11
0.7949995399999973
 21
10.59999994666666
 31
0
  0
LINE
  8
0
 62
7
 10
2.026235269999997
 20
10.71833322666666
 30
0
 11
1.276171109999999
 21
10.71833322666666
 31
0
  0
LINE
  8
0
 62
7
 10
1.276171109999999
 20
10.78333322666666
 30
0
 11
2.026235269999997
 21
10.78333322666666
 31
0
  0
LINE
  8
0
 62
7
 10
2.026235269999997
 20
10.78333322666666
 30
0
 11
2.026235269999997
 21
10.71833322666666
 31
0
  0
LINE
  8
0
 62
7
 10
1.276171109999999
 20
10.71833322666666
 30
0
 11
1.276171109999999
 21
10.78333322666666
 31
0
  0
LINE
  8
0
 62
7
 10
1.688504249999998
 20
10.96666666666667
 30
0
 11
2.059999749999999
 21
10.96666666666667
 31
0
  0
LINE
  8
0
 62
7
 10
2.059999749999999
 20
10.90166666666667
 30
0
 11
1.688504249999998
 21
10.90166666666667
 31
0
  0
LINE
  8
0
 62
7
 10
2.059999749999999
 20
10.96666666666667
 30
0
 11
2.059999749999999
 21
10.90166666666667
 31
0
  0
LINE
  8
0
 62
7
 10
1.688504249999998
 20
10.90166666666667
 30
0
 11
1.688504249999998
 21
10.96666666666667
 31
0
  0
LINE
  8
0
 62
7
 10
7.600000000000001
 20
8.099999999999998
 30
0
 11
7.75
 21
8.099999999999998
 31
0
  0
LINE
  8
0
 62
7
 10
7.600000000000001
 20
8.299999999999997
 30
0
 11
7.75
 21
8.299999999999997
 31
0
  0
LINE
  8
0
 62
7
 10
7.600000000000001
 20
10.85
 30
0
 11
7.75
 21
10.85
 31
0
  0
LINE
  8
0
 62
7
 10
7.600000000000001
 20
11.05
 30
0
 11
7.75
 21
11.05
 31
0
  0
LINE
  8
0
 62
7
 10
7.600000000000001
 20
8.099999999999998
 30
0
 11
7.600000000000001
 21
7.949999999999998
 31
0
  0
LINE
  8
0
 62
7
 10
7.425000000000001
 20
8.099999999999998
 30
0
 11
7.600000000000001
 21
8.099999999999998
 31
0
  0
LINE
  8
0
 62
7
 10
7.600000000000001
 20
8.399999999999997
 30
0
 11
7.600000000000001
 21
8.299999999999997
 31
0
  0
LINE
  8
0
 62
7
 10
7.425000000000001
 20
8.299999999999997
 30
0
 11
7.600000000000001
 21
8.299999999999997
 31
0
  0
LINE
  8
0
 62
7
 10
7.425000000000001
 20
10.85
 30
0
 11
7.600000000000001
 21
10.85
 31
0
  0
LINE
  8
0
 62
7
 10
7.600000000000001
 20
11.15
 30
0
 11
7.600000000000001
 21
11.05
 31
0
  0
LINE
  8
0
 62
7
 10
7.425000000000001
 20
11.05
 30
0
 11
7.600000000000001
 21
11.05
 31
0
  0
LINE
  8
0
 62
7
 10
7.425000000000001
 20
8.099999999999998
 30
0
 11
7.425000000000001
 21
7.949999999999998
 31
0
  0
LINE
  8
0
 62
7
 10
4.165
 20
8.099999999999998
 30
0
 11
7.425000000000001
 21
8.099999999999998
 31
0
  0
LINE
  8
0
 62
7
 10
7.425000000000001
 20
8.399999999999997
 30
0
 11
7.425000000000001
 21
8.299999999999997
 31
0
  0
LINE
  8
0
 62
7
 10
4.165
 20
8.299999999999997
 30
0
 11
7.425000000000001
 21
8.299999999999997
 31
0
  0
LINE
  8
0
 62
7
 10
4.165
 20
10.85
 30
0
 11
7.425000000000001
 21
10.85
 31
0
  0
LINE
  8
0
 62
7
 10
7.425000000000001
 20
11.15
 30
0
 11
7.425000000000001
 21
11.05
 31
0
  0
LINE
  8
0
 62
7
 10
4.165
 20
11.05
 30
0
 11
7.425000000000001
 21
11.05
 31
0
  0
LINE
  8
0
 62
7
 10
4.165
 20
8.099999999999998
 30
0
 11
4.165
 21
7.949999999999998
 31
0
  0
LINE
  8
0
 62
7
 10
3.99
 20
8.099999999999998
 30
0
 11
4.165
 21
8.099999999999998
 31
0
  0
LINE
  8
0
 62
7
 10
4.165
 20
8.399999999999997
 30
0
 11
4.165
 21
8.299999999999997
 31
0
  0
LINE
  8
0
 62
7
 10
3.99
 20
8.299999999999997
 30
0
 11
4.165
 21
8.299999999999997
 31
0
  0
LINE
  8
0
 62
7
 10
3.99
 20
10.85
 30
0
 11
4.165
 21
10.85
 31
0
  0
LINE
  8
0
 62
7
 10
4.165
 20
11.15
 30
0
 11
4.165
 21
11.05
 31
0
  0
LINE
  8
0
 62
7
 10
3.99
 20
11.05
 30
0
 11
4.165
 21
11.05
 31
0
  0
LINE
  8
0
 62
7
 10
3.99
 20
8.099999999999998
 30
0
 11
3.99
 21
7.949999999999998
 31
0
  0
LINE
  8
0
 62
7
 10
3.84
 20
8.099999999999998
 30
0
 11
3.99
 21
8.099999999999998
 31
0
  0
LINE
  8
0
 62
7
 10
3.99
 20
8.399999999999997
 30
0
 11
3.99
 21
8.299999999999997
 31
0
  0
LINE
  8
0
 62
7
 10
3.84
 20
8.299999999999997
 30
0
 11
3.99
 21
8.299999999999997
 31
0
  0
LINE
  8
0
 62
7
 10
3.84
 20
10.85
 30
0
 11
3.99
 21
10.85
 31
0
  0
LINE
  8
0
 62
7
 10
3.99
 20
11.15
 30
0
 11
3.99
 21
11.05
 31
0
  0
LINE
  8
0
 62
7
 10
3.84
 20
11.05
 30
0
 11
3.99
 21
11.05
 31
0
  0
LINE
  8
0
 62
7
  6
DASHDOT
 10
7.75
 20
8.099999999999998
 30
0
 11
7.75
 21
8.049999999999997
 31
0
  0
LINE
  8
0
 62
7
  6
DASHDOT
 10
7.75
 20
10.85
 30
0
 11
7.75
 21
10.8
 31
0
  0
LINE
  8
0
 62
7
  6
DASHDOT
 10
3.84
 20
8.099999999999998
 30
0
 11
3.84
 21
8.049999999999997
 31
0
  0
LINE
  8
0
 62
7
  6
DASHDOT
 10
3.84
 20
10.85
 30
0
 11
3.84
 21
10.8
 31
0
  0
LINE
  8
0
 62
7
  6
DASHDOT
 10
7.600000000000001
 20
11.2
 30
0
 11
7.65
 21
11.2
 31
0
  0
LINE
  8
0
 62
7
  6
DASHDOT
 10
7.600000000000001
 20
7.949999999999998
 30
0
 11
7.65
 21
7.949999999999998
 31
0
  0
LINE
  8
0
 62
7
  6
DASHDOT
 10
4.165
 20
11.2
 30
0
 11
4.215
 21
11.2
 31
0
  0
LINE
  8
0
 62
7
  6
DASHDOT
 10
4.165
 20
7.949999999999998
 30
0
 11
4.215
 21
7.949999999999998
 31
0
  0
LINE
  8
0
 62
7
 10
7.600000000000001
 20
8.399999999999997
 30
0
 11
7.75
 21
8.399999999999997
 31
0
  0
LINE
  8
0
 62
7
 10
7.600000000000001
 20
10.85
 30
0
 11
7.600000000000001
 21
8.399999999999997
 31
0
  0
LINE
  8
0
 62
7
  6
DASHDOT
 10
7.75
 20
8.449999999999998
 30
0
 11
7.75
 21
8.399999999999997
 31
0
  0
LINE
  8
0
 62
7
 10
4.165
 20
8.399999999999997
 30
0
 11
7.425000000000001
 21
8.399999999999997
 31
0
  0
LINE
  8
0
 62
7
 10
7.425000000000001
 20
10.85
 30
0
 11
7.425000000000001
 21
8.399999999999997
 31
0
  0
LINE
  8
0
 62
7
 10
4.165
 20
10.85
 30
0
 11
4.165
 21
8.399999999999997
 31
0
  0
LINE
  8
0
 62
7
 10
3.84
 20
8.399999999999997
 30
0
 11
3.99
 21
8.399999999999997
 31
0
  0
LINE
  8
0
 62
7
 10
3.99
 20
10.85
 30
0
 11
3.99
 21
8.399999999999997
 31
0
  0
LINE
  8
0
 62
7
  6
DASHDOT
 10
3.84
 20
8.449999999999998
 30
0
 11
3.84
 21
8.399999999999997
 31
0
  0
LINE
  8
0
 62
7
 10
7.600000000000001
 20
11.15
 30
0
 11
7.75
 21
11.15
 31
0
  0
LINE
  8
0
 62
7
 10
7.600000000000001
 20
11.2
 30
0
 11
7.600000000000001
 21
11.15
 31
0
  0
LINE
  8
0
 62
7
  6
DASHDOT
 10
7.75
 20
11.2
 30
0
 11
7.75
 21
11.15
 31
0
  0
LINE
  8
0
 62
7
 10
4.165
 20
11.15
 30
0
 11
7.425000000000001
 21
11.15
 31
0
  0
LINE
  8
0
 62
7
 10
7.425000000000001
 20
11.2
 30
0
 11
7.425000000000001
 21
11.15
 31
0
  0
LINE
  8
0
 62
7
 10
4.165
 20
11.2
 30
0
 11
4.165
 21
11.15
 31
0
  0
LINE
  8
0
 62
7
 10
3.84
 20
11.15
 30
0
 11
3.99
 21
11.15
 31
0
  0
LINE
  8
0
 62
7
 10
3.99
 20
11.2
 30
0
 11
3.99
 21
11.15
 31
0
  0
LINE
  8
0
 62
7
  6
DASHDOT
 10
3.84
 20
11.2
 30
0
 11
3.84
 21
11.15
 31
0
  0
LINE
  8
0
 62
7
  6
DASHDOT
 10
3.84
 20
8.299999999999997
 30
0
 11
3.84
 21
8.099999999999998
 31
0
  0
LINE
  8
0
 62
7
  6
DASHDOT
 10
3.84
 20
8.399999999999997
 30
0
 11
3.84
 21
8.299999999999997
 31
0
  0
LINE
  8
0
 62
7
  6
DASHDOT
 10
3.99
 20
7.949999999999998
 30
0
 11
4.165
 21
7.949999999999998
 31
0
  0
LINE
  8
0
 62
7
  6
DASHDOT
 10
3.94
 20
7.949999999999998
 30
0
 11
3.99
 21
7.949999999999998
 31
0
  0
LINE
  8
0
 62
7
  6
DASHDOT
 10
7.75
 20
8.299999999999997
 30
0
 11
7.75
 21
8.099999999999998
 31
0
  0
LINE
  8
0
 62
7
  6
DASHDOT
 10
7.75
 20
8.399999999999997
 30
0
 11
7.75
 21
8.299999999999997
 31
0
  0
LINE
  8
0
 62
7
  6
DASHDOT
 10
7.425000000000001
 20
7.949999999999998
 30
0
 11
7.600000000000001
 21
7.949999999999998
 31
0
  0
LINE
  8
0
 62
7
  6
DASHDOT
 10
7.375
 20
7.949999999999998
 30
0
 11
7.425000000000001
 21
7.949999999999998
 31
0
  0
LINE
  8
0
 62
7
  6
DASHDOT
 10
7.75
 20
11.05
 30
0
 11
7.75
 21
10.85
 31
0
  0
LINE
  8
0
 62
7
  6
DASHDOT
 10
7.75
 20
11.15
 30
0
 11
7.75
 21
11.05
 31
0
  0
LINE
  8
0
 62
7
  6
DASHDOT
 10
7.425000000000001
 20
11.2
 30
0
 11
7.600000000000001
 21
11.2
 31
0
  0
LINE
  8
0
 62
7
  6
DASHDOT
 10
7.375
 20
11.2
 30
0
 11
7.425000000000001
 21
11.2
 31
0
  0
LINE
  8
0
 62
7
  6
DASHDOT
 10
3.84
 20
11.05
 30
0
 11
3.84
 21
10.85
 31
0
  0
LINE
  8
0
 62
7
  6
DASHDOT
 10
3.84
 20
11.15
 30
0
 11
3.84
 21
11.05
 31
0
  0
LINE
  8
0
 62
7
  6
DASHDOT
 10
3.99
 20
11.2
 30
0
 11
4.165
 21
11.2
 31
0
  0
LINE
  8
0
 62
7
  6
DASHDOT
 10
3.94
 20
11.2
 30
0
 11
3.99
 21
11.2
 31
0
  0
LINE
  8
0
 62
7
 10
0.5
 20
7.949999999999998
 30
0
 11
0.5
 21
8.099999999999998
 31
0
  0
LINE
  8
0
 62
7
 10
0.7400000000000001
 20
11.2
 30
0
 11
0.7400000000000001
 21
11.05
 31
0
  0
LINE
  8
0
 62
7
 10
0.5
 20
11.05
 30
0
 11
0.7400000000000001
 21
11.05
 31
0
  0
LINE
  8
0
 62
7
 10
0.5
 20
11.05
 30
0
 11
0.5
 21
11.2
 31
0
  0
LINE
  8
0
 62
7
 10
0.7400000000000001
 20
11.05
 30
0
 11
0.7400000000000001
 21
10.85
 31
0
  0
LINE
  8
0
 62
7
 10
0.5
 20
10.85
 30
0
 11
0.7400000000000001
 21
10.85
 31
0
  0
LINE
  8
0
 62
7
 10
0.5
 20
10.85
 30
0
 11
0.5
 21
11.05
 31
0
  0
LINE
  8
0
 62
7
 10
0.7400000000000001
 20
10.85
 30
0
 11
0.7400000000000001
 21
8.299999999999997
 31
0
  0
LINE
  8
0
 62
7
 10
0.5
 20
8.299999999999997
 30
0
 11
0.7400000000000001
 21
8.299999999999997
 31
0
  0
LINE
  8
0
 62
7
 10
0.5
 20
8.299999999999997
 30
0
 11
0.5
 21
10.85
 31
0
  0
LINE
  8
0
 62
7
 10
0.7400000000000001
 20
8.299999999999997
 30
0
 11
0.7400000000000001
 21
8.099999999999998
 31
0
  0
LINE
  8
0
 62
7
 10
0.5
 20
8.099999999999998
 30
0
 11
0.7400000000000001
 21
8.099999999999998
 31
0
  0
LINE
  8
0
 62
7
 10
0.5
 20
8.099999999999998
 30
0
 11
0.5
 21
8.299999999999997
 31
0
  0
LINE
  8
0
 62
7
 10
0.7400000000000001
 20
8.099999999999998
 30
0
 11
0.7400000000000001
 21
7.949999999999998
 31
0
  0
LINE
  8
0
 62
7
 10
2.09
 20
11.05
 30
0
 11
2.09
 21
10.85
 31
0
  0
LINE
  8
0
 62
7
 10
2.09
 20
10.85
 30
0
 11
2.39
 21
10.85
 31
0
  0
LINE
  8
0
 62
7
 10
2.09
 20
11.05
 30
0
 11
2.39
 21
11.05
 31
0
  0
LINE
  8
0
 62
7
 10
2.09
 20
8.299999999999997
 30
0
 11
2.39
 21
8.299999999999997
 31
0
  0
LINE
  8
0
 62
7
 10
2.09
 20
8.299999999999997
 30
0
 11
2.09
 21
8.099999999999998
 31
0
  0
LINE
  8
0
 62
7
 10
2.09
 20
8.099999999999998
 30
0
 11
2.39
 21
8.099999999999998
 31
0
  0
LINE
  8
0
 62
7
  6
DASHDOT
 10
0.45
 20
11.2
 30
0
 11
0.5
 21
11.2
 31
0
  0
LINE
  8
0
 62
7
  6
DASHDOT
 10
2.39
 20
11.2
 30
0
 11
2.39
 21
11.15
 31
0
  0
LINE
  8
0
 62
7
  6
DASHDOT
 10
2.39
 20
8.049999999999997
 30
0
 11
2.39
 21
8.099999999999998
 31
0
  0
LINE
  8
0
 62
7
  6
DASHDOT
 10
0.45
 20
7.949999999999998
 30
0
 11
0.5
 21
7.949999999999998
 31
0
  0
LINE
  8
0
 62
7
 10
2.09
 20
8.399999999999997
 30
0
 11
2.39
 21
8.399999999999997
 31
0
  0
LINE
  8
0
 62
7
  6
DASHDOT
 10
2.39
 20
8.399999999999997
 30
0
 11
2.39
 21
8.449999999999998
 31
0
  0
LINE
  8
0
 62
7
 10
2.09
 20
11.15
 30
0
 11
2.39
 21
11.15
 31
0
  0
LINE
  8
0
 62
7
  6
DASHDOT
 10
2.39
 20
11.15
 30
0
 11
2.39
 21
11.05
 31
0
  0
LINE
  8
0
 62
7
  6
DASHDOT
 10
2.39
 20
8.299999999999997
 30
0
 11
2.39
 21
8.399999999999997
 31
0
  0
LINE
  8
0
 62
7
  6
DASHDOT
 10
2.39
 20
8.099999999999998
 30
0
 11
2.39
 21
8.299999999999997
 31
0
  0
LINE
  8
0
 62
7
  6
DASHDOT
 10
0.5
 20
7.949999999999998
 30
0
 11
0.7400000000000001
 21
7.949999999999998
 31
0
  0
LINE
  8
0
 62
7
  6
DASHDOT
 10
0.7400000000000001
 20
7.949999999999998
 30
0
 11
0.79
 21
7.949999999999998
 31
0
  0
LINE
  8
0
 62
7
  6
DASHDOT
 10
0.7400000000000001
 20
11.2
 30
0
 11
0.79
 21
11.2
 31
0
  0
LINE
  8
0
 62
7
  6
DASHDOT
 10
0.5
 20
11.2
 30
0
 11
0.7400000000000001
 21
11.2
 31
0
  0
LINE
  8
0
 62
7
  6
DASHDOT
 10
2.39
 20
10.85
 30
0
 11
2.39
 21
10.8
 31
0
  0
LINE
  8
0
 62
7
  6
DASHDOT
 10
2.39
 20
11.05
 30
0
 11
2.39
 21
10.85
 31
0
  0
LINE
  8
0
 62
7
  6
DASHED
 10
0.7400000000000001
 20
11.05
 30
0
 11
2.09
 21
11.05
 31
0
  0
LINE
  8
0
 62
7
  6
DASHED
 10
0.7400000000000001
 20
10.85
 30
0
 11
2.09
 21
10.85
 31
0
  0
LINE
  8
0
 62
7
  6
DASHED
 10
0.7400000000000001
 20
8.299999999999997
 30
0
 11
2.09
 21
8.299999999999997
 31
0
  0
LINE
  8
0
 62
7
  6
DASHED
 10
0.7400000000000001
 20
8.099999999999998
 30
0
 11
2.09
 21
8.099999999999998
 31
0
  0
LINE
  8
0
 62
7
 10
3.84
 20
5.269999999999997
 30
0
 11
3.99
 21
5.269999999999997
 31
0
  0
LINE
  8
0
 62
7
 10
3.99
 20
5.269999999999997
 30
0
 11
3.99
 21
5.419999999999997
 31
0
  0
LINE
  8
0
 62
7
 10
4.165
 20
5.419999999999997
 30
0
 11
4.165
 21
5.269999999999997
 31
0
  0
LINE
  8
0
 62
7
 10
4.165
 20
5.269999999999997
 30
0
 11
7.425000000000001
 21
5.269999999999997
 31
0
  0
LINE
  8
0
 62
7
 10
7.425000000000001
 20
5.269999999999997
 30
0
 11
7.425000000000001
 21
5.419999999999997
 31
0
  0
LINE
  8
0
 62
7
 10
7.600000000000001
 20
5.419999999999997
 30
0
 11
7.600000000000001
 21
5.269999999999997
 31
0
  0
LINE
  8
0
 62
7
 10
7.600000000000001
 20
5.269999999999997
 30
0
 11
7.765000000000001
 21
5.269999999999997
 31
0
  0
LINE
  8
0
 62
7
 10
3.84
 20
5.030000000000001
 30
0
 11
7.765000000000001
 21
5.030000000000001
 31
0
  0
LINE
  8
0
 62
7
 10
3.84
 20
4.99
 30
0
 11
7.765000000000001
 21
4.99
 31
0
  0
LINE
  8
0
 62
7
 10
3.84
 20
4.75
 30
0
 11
3.99
 21
4.75
 31
0
  0
LINE
  8
0
 62
7
 10
4.165
 20
3.3
 30
0
 11
4.165
 21
3.4
 31
0
  0
LINE
  8
0
 62
7
 10
3.99
 20
3.3
 30
0
 11
4.165
 21
3.3
 31
0
  0
LINE
  8
0
 62
7
 10
3.99
 20
4.75
 30
0
 11
3.99
 21
3.3
 31
0
  0
LINE
  8
0
 62
7
 10
4.165
 20
4.75
 30
0
 11
7.425000000000001
 21
4.75
 31
0
  0
LINE
  8
0
 62
7
 10
7.425000000000001
 20
4.75
 30
0
 11
7.425000000000001
 21
3.45
 31
0
  0
LINE
  8
0
 62
7
 10
7.600000000000001
 20
3.4
 30
0
 11
7.600000000000001
 21
4.75
 31
0
  0
LINE
  8
0
 62
7
 10
7.600000000000001
 20
4.75
 30
0
 11
7.765000000000001
 21
4.75
 31
0
  0
LINE
  8
0
 62
7
 10
7.425000000000001
 20
3.4
 30
0
 11
7.600000000000001
 21
3.4
 31
0
  0
LINE
  8
0
 62
7
 10
7.425000000000001
 20
3.45
 30
0
 11
4.165
 21
3.45
 31
0
  0
LINE
  8
0
 62
7
 10
4.165
 20
3.45
 30
0
 11
4.165
 21
4.75
 31
0
  0
LINE
  8
0
 62
7
 10
7.425000000000001
 20
3.45
 30
0
 11
7.425000000000001
 21
3.4
 31
0
  0
LINE
  8
0
 62
7
  6
DASHDOT
 10
7.425000000000001
 20
3.4
 30
0
 11
4.165
 21
3.4
 31
0
  0
LINE
  8
0
 62
7
 10
4.165
 20
3.4
 30
0
 11
4.165
 21
3.45
 31
0
  0
LINE
  8
0
 62
7
  6
DASHDOT
 10
3.94
 20
5.419999999999997
 30
0
 11
3.99
 21
5.419999999999997
 31
0
  0
LINE
  8
0
 62
7
  6
DASHDOT
 10
7.375
 20
5.419999999999997
 30
0
 11
7.425000000000001
 21
5.419999999999997
 31
0
  0
LINE
  8
0
 62
7
  6
DASHDOT
 10
3.84
 20
5.319999999999997
 30
0
 11
3.84
 21
5.269999999999997
 31
0
  0
LINE
  8
0
 62
7
  6
DASHDOT
 10
7.765000000000001
 20
5.319999999999997
 30
0
 11
7.765000000000001
 21
5.269999999999997
 31
0
  0
LINE
  8
0
 62
7
  6
DASHDOT
 10
7.765000000000001
 20
5.269999999999997
 30
0
 11
7.765000000000001
 21
5.030000000000001
 31
0
  0
LINE
  8
0
 62
7
  6
DASHDOT
 10
7.765000000000001
 20
4.75
 30
0
 11
7.765000000000001
 21
4.7
 31
0
  0
LINE
  8
0
 62
7
  6
DASHDOT
 10
3.99
 20
5.419999999999997
 30
0
 11
4.165
 21
5.419999999999997
 31
0
  0
LINE
  8
0
 62
7
  6
DASHDOT
 10
4.165
 20
5.419999999999997
 30
0
 11
4.215
 21
5.419999999999997
 31
0
  0
LINE
  8
0
 62
7
  6
DASHDOT
 10
3.84
 20
5.269999999999997
 30
0
 11
3.84
 21
5.030000000000001
 31
0
  0
LINE
  8
0
 62
7
  6
DASHDOT
 10
3.84
 20
4.75
 30
0
 11
3.84
 21
4.7
 31
0
  0
LINE
  8
0
 62
7
  6
DASHDOT
 10
7.765000000000001
 20
5.030000000000001
 30
0
 11
7.765000000000001
 21
4.99
 31
0
  0
LINE
  8
0
 62
7
  6
DASHDOT
 10
3.84
 20
5.030000000000001
 30
0
 11
3.84
 21
4.99
 31
0
  0
LINE
  8
0
 62
7
  6
DASHDOT
 10
7.765000000000001
 20
4.99
 30
0
 11
7.765000000000001
 21
4.75
 31
0
  0
LINE
  8
0
 62
7
  6
DASHDOT
 10
3.84
 20
4.99
 30
0
 11
3.84
 21
4.75
 31
0
  0
LINE
  8
0
 62
7
  6
DASHDOT
 10
7.600000000000001
 20
5.419999999999997
 30
0
 11
7.65
 21
5.419999999999997
 31
0
  0
LINE
  8
0
 62
7
  6
DASHDOT
 10
7.425000000000001
 20
5.419999999999997
 30
0
 11
7.600000000000001
 21
5.419999999999997
 31
0
  0
LINE
  8
0
 62
7
 10
4.9919361785329
 20
4.429683279395901
 30
0
 11
4.9919361785329
 21
4.5496832793959
 31
0
  0
LINE
  8
0
 62
7
 10
5.067536178532902
 20
4.5496832793959
 30
0
 11
5.013536178532901
 21
4.489683279395901
 31
0
  0
LINE
  8
0
 62
7
 10
5.013536178532901
 20
4.489683279395901
 30
0
 11
5.067536178532902
 21
4.429683279395901
 31
0
  0
LINE
  8
0
 62
7
 10
5.013536178532901
 20
4.489683279395901
 30
0
 11
4.9919361785329
 21
4.465683279395901
 31
0
  0
LINE
  8
0
 62
7
 10
5.175536178532901
 20
4.5496832793959
 30
0
 11
5.099936178532902
 21
4.5496832793959
 31
0
  0
LINE
  8
0
 62
7
 10
5.099936178532902
 20
4.5496832793959
 30
0
 11
5.099936178532902
 21
4.489683279395901
 31
0
  0
LINE
  8
0
 62
7
 10
5.099936178532902
 20
4.429683279395901
 30
0
 11
5.175536178532901
 21
4.429683279395901
 31
0
  0
LINE
  8
0
 62
7
 10
5.164736178532902
 20
4.489683279395901
 30
0
 11
5.099936178532902
 21
4.489683279395901
 31
0
  0
LINE
  8
0
 62
7
 10
5.099936178532902
 20
4.489683279395901
 30
0
 11
5.099936178532902
 21
4.429683279395901
 31
0
  0
LINE
  8
0
 62
7
 10
5.207936178532901
 20
4.429683279395901
 30
0
 11
5.207936178532901
 21
4.5496832793959
 31
0
  0
LINE
  8
0
 62
7
 10
5.207936178532901
 20
4.5496832793959
 30
0
 11
5.283536178532901
 21
4.429683279395901
 31
0
  0
LINE
  8
0
 62
7
 10
5.283536178532901
 20
4.429683279395901
 30
0
 11
5.283536178532901
 21
4.5496832793959
 31
0
  0
LINE
  8
0
 62
7
 10
5.315936178532901
 20
4.429683279395901
 30
0
 11
5.315936178532901
 21
4.5496832793959
 31
0
  0
LINE
  8
0
 62
7
 10
5.315936178532901
 20
4.5496832793959
 30
0
 11
5.391536178532901
 21
4.429683279395901
 31
0
  0
LINE
  8
0
 62
7
 10
5.391536178532901
 20
4.429683279395901
 30
0
 11
5.391536178532901
 21
4.5496832793959
 31
0
  0
LINE
  8
0
 62
7
 10
5.499536178532901
 20
4.513683279395901
 30
0
 11
5.496836178532901
 21
4.525683279395902
 31
0
  0
LINE
  8
0
 62
7
 10
5.496836178532901
 20
4.525683279395902
 30
0
 11
5.491436178532901
 21
4.5346832793959
 31
0
  0
LINE
  8
0
 62
7
 10
5.491436178532901
 20
4.5346832793959
 30
0
 11
5.486036178532901
 21
4.540683279395902
 31
0
  0
LINE
  8
0
 62
7
 10
5.486036178532901
 20
4.540683279395902
 30
0
 11
5.4779361785329
 21
4.5466832793959
 31
0
  0
LINE
  8
0
 62
7
 10
5.4779361785329
 20
4.5466832793959
 30
0
 11
5.4698361785329
 21
4.5496832793959
 31
0
  0
LINE
  8
0
 62
7
 10
5.4698361785329
 20
4.5496832793959
 30
0
 11
5.453636178532901
 21
4.5496832793959
 31
0
  0
LINE
  8
0
 62
7
 10
5.453636178532901
 20
4.5496832793959
 30
0
 11
5.445536178532902
 21
4.5466832793959
 31
0
  0
LINE
  8
0
 62
7
 10
5.445536178532902
 20
4.5466832793959
 30
0
 11
5.4374361785329
 21
4.540683279395902
 31
0
  0
LINE
  8
0
 62
7
 10
5.4374361785329
 20
4.540683279395902
 30
0
 11
5.432036178532901
 21
4.5346832793959
 31
0
  0
LINE
  8
0
 62
7
 10
5.432036178532901
 20
4.5346832793959
 30
0
 11
5.426636178532901
 21
4.525683279395902
 31
0
  0
LINE
  8
0
 62
7
 10
5.426636178532901
 20
4.525683279395902
 30
0
 11
5.423936178532901
 21
4.513683279395901
 31
0
  0
LINE
  8
0
 62
7
 10
5.423936178532901
 20
4.513683279395901
 30
0
 11
5.423936178532901
 21
4.465683279395901
 31
0
  0
LINE
  8
0
 62
7
 10
5.423936178532901
 20
4.465683279395901
 30
0
 11
5.426636178532901
 21
4.4536832793959
 31
0
  0
LINE
  8
0
 62
7
 10
5.426636178532901
 20
4.4536832793959
 30
0
 11
5.432036178532901
 21
4.444683279395901
 31
0
  0
LINE
  8
0
 62
7
 10
5.432036178532901
 20
4.444683279395901
 30
0
 11
5.4374361785329
 21
4.4386832793959
 31
0
  0
LINE
  8
0
 62
7
 10
5.4374361785329
 20
4.4386832793959
 30
0
 11
5.445536178532902
 21
4.432683279395902
 31
0
  0
LINE
  8
0
 62
7
 10
5.445536178532902
 20
4.432683279395902
 30
0
 11
5.453636178532901
 21
4.429683279395901
 31
0
  0
LINE
  8
0
 62
7
 10
5.453636178532901
 20
4.429683279395901
 30
0
 11
5.4698361785329
 21
4.429683279395901
 31
0
  0
LINE
  8
0
 62
7
 10
5.4698361785329
 20
4.429683279395901
 30
0
 11
5.4779361785329
 21
4.432683279395902
 31
0
  0
LINE
  8
0
 62
7
 10
5.4779361785329
 20
4.432683279395902
 30
0
 11
5.486036178532901
 21
4.4386832793959
 31
0
  0
LINE
  8
0
 62
7
 10
5.486036178532901
 20
4.4386832793959
 30
0
 11
5.491436178532901
 21
4.444683279395901
 31
0
  0
LINE
  8
0
 62
7
 10
5.491436178532901
 20
4.444683279395901
 30
0
 11
5.496836178532901
 21
4.4536832793959
 31
0
  0
LINE
  8
0
 62
7
 10
5.496836178532901
 20
4.4536832793959
 30
0
 11
5.499536178532901
 21
4.465683279395901
 31
0
  0
LINE
  8
0
 62
7
 10
5.499536178532901
 20
4.465683279395901
 30
0
 11
5.499536178532901
 21
4.489683279395901
 31
0
  0
LINE
  8
0
 62
7
 10
5.499536178532901
 20
4.489683279395901
 30
0
 11
5.4671361785329
 21
4.489683279395901
 31
0
  0
LINE
  8
0
 62
7
 10
5.5778361785329
 20
4.5496832793959
 30
0
 11
5.5616361785329
 21
4.5496832793959
 31
0
  0
LINE
  8
0
 62
7
 10
5.5616361785329
 20
4.5496832793959
 30
0
 11
5.553536178532902
 21
4.5466832793959
 31
0
  0
LINE
  8
0
 62
7
 10
5.553536178532902
 20
4.5466832793959
 30
0
 11
5.545436178532901
 21
4.540683279395902
 31
0
  0
LINE
  8
0
 62
7
 10
5.545436178532901
 20
4.540683279395902
 30
0
 11
5.540036178532901
 21
4.5346832793959
 31
0
  0
LINE
  8
0
 62
7
 10
5.540036178532901
 20
4.5346832793959
 30
0
 11
5.5346361785329
 21
4.525683279395902
 31
0
  0
LINE
  8
0
 62
7
 10
5.5346361785329
 20
4.525683279395902
 30
0
 11
5.5319361785329
 21
4.513683279395901
 31
0
  0
LINE
  8
0
 62
7
 10
5.5319361785329
 20
4.513683279395901
 30
0
 11
5.5319361785329
 21
4.465683279395901
 31
0
  0
LINE
  8
0
 62
7
 10
5.5319361785329
 20
4.465683279395901
 30
0
 11
5.5346361785329
 21
4.4536832793959
 31
0
  0
LINE
  8
0
 62
7
 10
5.5346361785329
 20
4.4536832793959
 30
0
 11
5.540036178532901
 21
4.444683279395901
 31
0
  0
LINE
  8
0
 62
7
 10
5.540036178532901
 20
4.444683279395901
 30
0
 11
5.545436178532901
 21
4.4386832793959
 31
0
  0
LINE
  8
0
 62
7
 10
5.545436178532901
 20
4.4386832793959
 30
0
 11
5.553536178532902
 21
4.432683279395902
 31
0
  0
LINE
  8
0
 62
7
 10
5.553536178532902
 20
4.432683279395902
 30
0
 11
5.5616361785329
 21
4.429683279395901
 31
0
  0
LINE
  8
0
 62
7
 10
5.5616361785329
 20
4.429683279395901
 30
0
 11
5.5778361785329
 21
4.429683279395901
 31
0
  0
LINE
  8
0
 62
7
 10
5.5778361785329
 20
4.429683279395901
 30
0
 11
5.585936178532902
 21
4.432683279395902
 31
0
  0
LINE
  8
0
 62
7
 10
5.585936178532902
 20
4.432683279395902
 30
0
 11
5.5940361785329
 21
4.4386832793959
 31
0
  0
LINE
  8
0
 62
7
 10
5.5940361785329
 20
4.4386832793959
 30
0
 11
5.599436178532901
 21
4.444683279395901
 31
0
  0
LINE
  8
0
 62
7
 10
5.599436178532901
 20
4.444683279395901
 30
0
 11
5.6048361785329
 21
4.4536832793959
 31
0
  0
LINE
  8
0
 62
7
 10
5.6048361785329
 20
4.4536832793959
 30
0
 11
5.607536178532901
 21
4.465683279395901
 31
0
  0
LINE
  8
0
 62
7
 10
5.607536178532901
 20
4.465683279395901
 30
0
 11
5.607536178532901
 21
4.513683279395901
 31
0
  0
LINE
  8
0
 62
7
 10
5.607536178532901
 20
4.513683279395901
 30
0
 11
5.6048361785329
 21
4.525683279395902
 31
0
  0
LINE
  8
0
 62
7
 10
5.6048361785329
 20
4.525683279395902
 30
0
 11
5.599436178532901
 21
4.5346832793959
 31
0
  0
LINE
  8
0
 62
7
 10
5.599436178532901
 20
4.5346832793959
 30
0
 11
5.5940361785329
 21
4.540683279395902
 31
0
  0
LINE
  8
0
 62
7
 10
5.5940361785329
 20
4.540683279395902
 30
0
 11
5.585936178532902
 21
4.5466832793959
 31
0
  0
LINE
  8
0
 62
7
 10
5.585936178532902
 20
4.5466832793959
 30
0
 11
5.5778361785329
 21
4.5496832793959
 31
0
  0
LINE
  8
0
 62
7
 10
5.6291361785329
 20
4.5496832793959
 30
0
 11
5.6669361785329
 21
4.5496832793959
 31
0
  0
LINE
  8
0
 62
7
 10
5.6669361785329
 20
4.5496832793959
 30
0
 11
5.6669361785329
 21
4.429683279395901
 31
0
  0
LINE
  8
0
 62
7
 10
5.6669361785329
 20
4.5496832793959
 30
0
 11
5.704736178532902
 21
4.5496832793959
 31
0
  0
LINE
  8
0
 62
7
 10
5.7371361785329
 20
4.5496832793959
 30
0
 11
5.774936178532901
 21
4.5496832793959
 31
0
  0
LINE
  8
0
 62
7
 10
5.774936178532901
 20
4.5496832793959
 30
0
 11
5.774936178532901
 21
4.429683279395901
 31
0
  0
LINE
  8
0
 62
7
 10
5.774936178532901
 20
4.5496832793959
 30
0
 11
5.812736178532901
 21
4.5496832793959
 31
0
  0
LINE
  8
0
 62
7
 10
5.931536178532901
 20
4.4716832793959
 30
0
 11
5.985536178532901
 21
4.4716832793959
 31
0
  0
LINE
  8
0
 62
7
 10
6.093536178532901
 20
4.5496832793959
 30
0
 11
6.131336178532901
 21
4.5496832793959
 31
0
  0
LINE
  8
0
 62
7
 10
6.131336178532901
 20
4.5496832793959
 30
0
 11
6.131336178532901
 21
4.429683279395901
 31
0
  0
LINE
  8
0
 62
7
 10
6.131336178532901
 20
4.5496832793959
 30
0
 11
6.1691361785329
 21
4.5496832793959
 31
0
  0
LINE
  8
0
 62
7
 10
6.201536178532901
 20
4.429683279395901
 30
0
 11
6.201536178532901
 21
4.5496832793959
 31
0
  0
LINE
  8
0
 62
7
 10
6.201536178532901
 20
4.5496832793959
 30
0
 11
6.2528361785329
 21
4.5496832793959
 31
0
  0
LINE
  8
0
 62
7
 10
6.2528361785329
 20
4.5496832793959
 30
0
 11
6.263636178532901
 21
4.5466832793959
 31
0
  0
LINE
  8
0
 62
7
 10
6.263636178532901
 20
4.5466832793959
 30
0
 11
6.271736178532901
 21
4.540683279395902
 31
0
  0
LINE
  8
0
 62
7
 10
6.271736178532901
 20
4.540683279395902
 30
0
 11
6.274436178532901
 21
4.5346832793959
 31
0
  0
LINE
  8
0
 62
7
 10
6.274436178532901
 20
4.5346832793959
 30
0
 11
6.277136178532902
 21
4.525683279395902
 31
0
  0
LINE
  8
0
 62
7
 10
6.277136178532902
 20
4.525683279395902
 30
0
 11
6.277136178532902
 21
4.513683279395901
 31
0
  0
LINE
  8
0
 62
7
 10
6.277136178532902
 20
4.513683279395901
 30
0
 11
6.274436178532901
 21
4.504683279395901
 31
0
  0
LINE
  8
0
 62
7
 10
6.274436178532901
 20
4.504683279395901
 30
0
 11
6.271736178532901
 21
4.498683279395901
 31
0
  0
LINE
  8
0
 62
7
 10
6.271736178532901
 20
4.498683279395901
 30
0
 11
6.263636178532901
 21
4.492683279395902
 31
0
  0
LINE
  8
0
 62
7
 10
6.263636178532901
 20
4.492683279395902
 30
0
 11
6.2528361785329
 21
4.489683279395901
 31
0
  0
LINE
  8
0
 62
7
 10
6.2528361785329
 20
4.489683279395901
 30
0
 11
6.2447361785329
 21
4.489683279395901
 31
0
  0
LINE
  8
0
 62
7
 10
6.2447361785329
 20
4.489683279395901
 30
0
 11
6.277136178532902
 21
4.429683279395901
 31
0
  0
LINE
  8
0
 62
7
 10
6.2447361785329
 20
4.489683279395901
 30
0
 11
6.201536178532901
 21
4.489683279395901
 31
0
  0
LINE
  8
0
 62
7
 10
6.3743361785329
 20
4.5496832793959
 30
0
 11
6.298736178532899
 21
4.5496832793959
 31
0
  0
LINE
  8
0
 62
7
 10
6.298736178532899
 20
4.5496832793959
 30
0
 11
6.298736178532899
 21
4.489683279395901
 31
0
  0
LINE
  8
0
 62
7
 10
6.298736178532899
 20
4.429683279395901
 30
0
 11
6.3743361785329
 21
4.429683279395901
 31
0
  0
LINE
  8
0
 62
7
 10
6.3635361785329
 20
4.489683279395901
 30
0
 11
6.298736178532899
 21
4.489683279395901
 31
0
  0
LINE
  8
0
 62
7
 10
6.298736178532899
 20
4.489683279395901
 30
0
 11
6.298736178532899
 21
4.429683279395901
 31
0
  0
LINE
  8
0
 62
7
 10
6.4067361785329
 20
4.429683279395901
 30
0
 11
6.4067361785329
 21
4.489683279395901
 31
0
  0
LINE
  8
0
 62
7
 10
6.4067361785329
 20
4.5496832793959
 30
0
 11
6.4580361785329
 21
4.5496832793959
 31
0
  0
LINE
  8
0
 62
7
 10
6.4580361785329
 20
4.5496832793959
 30
0
 11
6.468836178532901
 21
4.5466832793959
 31
0
  0
LINE
  8
0
 62
7
 10
6.468836178532901
 20
4.5466832793959
 30
0
 11
6.4769361785329
 21
4.540683279395902
 31
0
  0
LINE
  8
0
 62
7
 10
6.4769361785329
 20
4.540683279395902
 30
0
 11
6.4796361785329
 21
4.5346832793959
 31
0
  0
LINE
  8
0
 62
7
 10
6.4796361785329
 20
4.5346832793959
 30
0
 11
6.482336178532901
 21
4.525683279395902
 31
0
  0
LINE
  8
0
 62
7
 10
6.482336178532901
 20
4.525683279395902
 30
0
 11
6.482336178532901
 21
4.513683279395901
 31
0
  0
LINE
  8
0
 62
7
 10
6.482336178532901
 20
4.513683279395901
 30
0
 11
6.4796361785329
 21
4.504683279395901
 31
0
  0
LINE
  8
0
 62
7
 10
6.4796361785329
 20
4.504683279395901
 30
0
 11
6.4769361785329
 21
4.498683279395901
 31
0
  0
LINE
  8
0
 62
7
 10
6.4769361785329
 20
4.498683279395901
 30
0
 11
6.468836178532901
 21
4.492683279395902
 31
0
  0
LINE
  8
0
 62
7
 10
6.468836178532901
 20
4.492683279395902
 30
0
 11
6.4580361785329
 21
4.489683279395901
 31
0
  0
LINE
  8
0
 62
7
 10
6.4580361785329
 20
4.489683279395901
 30
0
 11
6.4067361785329
 21
4.489683279395901
 31
0
  0
LINE
  8
0
 62
7
 10
6.4067361785329
 20
4.489683279395901
 30
0
 11
6.4067361785329
 21
4.5496832793959
 31
0
  0
LINE
  8
0
 62
7
 10
6.503936178532901
 20
4.429683279395901
 30
0
 11
6.503936178532901
 21
4.489683279395901
 31
0
  0
LINE
  8
0
 62
7
 10
6.503936178532901
 20
4.5496832793959
 30
0
 11
6.5552361785329
 21
4.5496832793959
 31
0
  0
LINE
  8
0
 62
7
 10
6.5552361785329
 20
4.5496832793959
 30
0
 11
6.566036178532901
 21
4.5466832793959
 31
0
  0
LINE
  8
0
 62
7
 10
6.566036178532901
 20
4.5466832793959
 30
0
 11
6.574136178532901
 21
4.540683279395902
 31
0
  0
LINE
  8
0
 62
7
 10
6.574136178532901
 20
4.540683279395902
 30
0
 11
6.576836178532901
 21
4.5346832793959
 31
0
  0
LINE
  8
0
 62
7
 10
6.576836178532901
 20
4.5346832793959
 30
0
 11
6.579536178532901
 21
4.525683279395902
 31
0
  0
LINE
  8
0
 62
7
 10
6.579536178532901
 20
4.525683279395902
 30
0
 11
6.579536178532901
 21
4.513683279395901
 31
0
  0
LINE
  8
0
 62
7
 10
6.579536178532901
 20
4.513683279395901
 30
0
 11
6.576836178532901
 21
4.504683279395901
 31
0
  0
LINE
  8
0
 62
7
 10
6.576836178532901
 20
4.504683279395901
 30
0
 11
6.574136178532901
 21
4.498683279395901
 31
0
  0
LINE
  8
0
 62
7
 10
6.574136178532901
 20
4.498683279395901
 30
0
 11
6.566036178532901
 21
4.492683279395902
 31
0
  0
LINE
  8
0
 62
7
 10
6.566036178532901
 20
4.492683279395902
 30
0
 11
6.5552361785329
 21
4.489683279395901
 31
0
  0
LINE
  8
0
 62
7
 10
6.5552361785329
 20
4.489683279395901
 30
0
 11
6.503936178532901
 21
4.489683279395901
 31
0
  0
LINE
  8
0
 62
7
 10
6.503936178532901
 20
4.489683279395901
 30
0
 11
6.503936178532901
 21
4.5496832793959
 31
0
  0
LINE
  8
0
 62
7
 10
6.676736178532902
 20
4.5496832793959
 30
0
 11
6.601136178532902
 21
4.5496832793959
 31
0
  0
LINE
  8
0
 62
7
 10
6.601136178532902
 20
4.5496832793959
 30
0
 11
6.601136178532902
 21
4.489683279395901
 31
0
  0
LINE
  8
0
 62
7
 10
6.601136178532902
 20
4.429683279395901
 30
0
 11
6.676736178532902
 21
4.429683279395901
 31
0
  0
LINE
  8
0
 62
7
 10
6.665936178532902
 20
4.489683279395901
 30
0
 11
6.601136178532902
 21
4.489683279395901
 31
0
  0
LINE
  8
0
 62
7
 10
6.601136178532902
 20
4.489683279395901
 30
0
 11
6.601136178532902
 21
4.429683279395901
 31
0
  0
LINE
  8
0
 62
7
 10
4.375
 20
2.94
 30
0
 11
4.375
 21
3.059999999999999
 31
0
  0
LINE
  8
0
 62
7
 10
4.375
 20
3.059999999999999
 30
0
 11
4.418200000000001
 21
2.964
 31
0
  0
LINE
  8
0
 62
7
 10
4.418200000000001
 20
2.964
 30
0
 11
4.4614
 21
3.059999999999999
 31
0
  0
LINE
  8
0
 62
7
 10
4.4614
 20
3.059999999999999
 30
0
 11
4.4614
 21
2.94
 31
0
  0
LINE
  8
0
 62
7
 10
4.493800000000001
 20
3.042
 30
0
 11
4.4992
 21
3.051
 31
0
  0
LINE
  8
0
 62
7
 10
4.4992
 20
3.051
 30
0
 11
4.5073
 21
3.057
 31
0
  0
LINE
  8
0
 62
7
 10
4.5073
 20
3.057
 30
0
 11
4.518100000000001
 21
3.059999999999999
 31
0
  0
LINE
  8
0
 62
7
 10
4.518100000000001
 20
3.059999999999999
 30
0
 11
4.534300000000001
 21
3.059999999999999
 31
0
  0
LINE
  8
0
 62
7
 10
4.534300000000001
 20
3.059999999999999
 30
0
 11
4.545100000000001
 21
3.057
 31
0
  0
LINE
  8
0
 62
7
 10
4.545100000000001
 20
3.057
 30
0
 11
4.553199999999999
 21
3.051
 31
0
  0
LINE
  8
0
 62
7
 10
4.553199999999999
 20
3.051
 30
0
 11
4.558600000000001
 21
3.042
 31
0
  0
LINE
  8
0
 62
7
 10
4.558600000000001
 20
3.042
 30
0
 11
4.558600000000001
 21
3.029999999999999
 31
0
  0
LINE
  8
0
 62
7
 10
4.558600000000001
 20
3.029999999999999
 30
0
 11
4.553199999999999
 21
3.018
 31
0
  0
LINE
  8
0
 62
7
 10
4.553199999999999
 20
3.018
 30
0
 11
4.493800000000001
 21
2.94
 31
0
  0
LINE
  8
0
 62
7
 10
4.493800000000001
 20
2.94
 30
0
 11
4.558600000000001
 21
2.94
 31
0
  0
LINE
  8
0
 62
7
 10
4.591
 20
3.059999999999999
 30
0
 11
4.628800000000001
 21
2.94
 31
0
  0
LINE
  8
0
 62
7
 10
4.628800000000001
 20
2.94
 30
0
 11
4.666600000000001
 21
3.059999999999999
 31
0
  0
LINE
  8
0
 62
7
 10
4.699000000000001
 20
3.042
 30
0
 11
4.7044
 21
3.051
 31
0
  0
LINE
  8
0
 62
7
 10
4.7044
 20
3.051
 30
0
 11
4.7125
 21
3.057
 31
0
  0
LINE
  8
0
 62
7
 10
4.7125
 20
3.057
 30
0
 11
4.723300000000001
 21
3.059999999999999
 31
0
  0
LINE
  8
0
 62
7
 10
4.723300000000001
 20
3.059999999999999
 30
0
 11
4.7395
 21
3.059999999999999
 31
0
  0
LINE
  8
0
 62
7
 10
4.7395
 20
3.059999999999999
 30
0
 11
4.747600000000001
 21
3.057
 31
0
  0
LINE
  8
0
 62
7
 10
4.747600000000001
 20
3.057
 30
0
 11
4.7557
 21
3.051
 31
0
  0
LINE
  8
0
 62
7
 10
4.7557
 20
3.051
 30
0
 11
4.761100000000002
 21
3.042
 31
0
  0
LINE
  8
0
 62
7
 10
4.761100000000002
 20
3.042
 30
0
 11
4.763800000000002
 21
3.029999999999999
 31
0
  0
LINE
  8
0
 62
7
 10
4.763800000000002
 20
3.029999999999999
 30
0
 11
4.763800000000002
 21
3.021
 31
0
  0
LINE
  8
0
 62
7
 10
4.763800000000002
 20
3.021
 30
0
 11
4.761100000000002
 21
3.012
 31
0
  0
LINE
  8
0
 62
7
 10
4.761100000000002
 20
3.012
 30
0
 11
4.7557
 21
3.006
 31
0
  0
LINE
  8
0
 62
7
 10
4.7557
 20
3.006
 30
0
 11
4.742200000000001
 21
3
 31
0
  0
LINE
  8
0
 62
7
 10
4.723300000000001
 20
3
 30
0
 11
4.742200000000001
 21
3
 31
0
  0
LINE
  8
0
 62
7
 10
4.742200000000001
 20
3
 30
0
 11
4.7557
 21
2.994
 31
0
  0
LINE
  8
0
 62
7
 10
4.7557
 20
2.994
 30
0
 11
4.761100000000002
 21
2.988
 31
0
  0
LINE
  8
0
 62
7
 10
4.761100000000002
 20
2.988
 30
0
 11
4.763800000000002
 21
2.979
 31
0
  0
LINE
  8
0
 62
7
 10
4.763800000000002
 20
2.979
 30
0
 11
4.763800000000002
 21
2.969999999999999
 31
0
  0
LINE
  8
0
 62
7
 10
4.763800000000002
 20
2.969999999999999
 30
0
 11
4.761100000000002
 21
2.958
 31
0
  0
LINE
  8
0
 62
7
 10
4.761100000000002
 20
2.958
 30
0
 11
4.7557
 21
2.949
 31
0
  0
LINE
  8
0
 62
7
 10
4.7557
 20
2.949
 30
0
 11
4.747600000000001
 21
2.943
 31
0
  0
LINE
  8
0
 62
7
 10
4.747600000000001
 20
2.943
 30
0
 11
4.7395
 21
2.94
 31
0
  0
LINE
  8
0
 62
7
 10
4.7395
 20
2.94
 30
0
 11
4.723300000000001
 21
2.94
 31
0
  0
LINE
  8
0
 62
7
 10
4.723300000000001
 20
2.94
 30
0
 11
4.7125
 21
2.943
 31
0
  0
LINE
  8
0
 62
7
 10
4.7125
 20
2.943
 30
0
 11
4.7044
 21
2.949
 31
0
  0
LINE
  8
0
 62
7
 10
4.7044
 20
2.949
 30
0
 11
4.699000000000001
 21
2.958
 31
0
  0
LINE
  8
0
 62
7
 10
4.7962
 20
3.042
 30
0
 11
4.801600000000001
 21
3.051
 31
0
  0
LINE
  8
0
 62
7
 10
4.801600000000001
 20
3.051
 30
0
 11
4.809700000000001
 21
3.057
 31
0
  0
LINE
  8
0
 62
7
 10
4.809700000000001
 20
3.057
 30
0
 11
4.8205
 21
3.059999999999999
 31
0
  0
LINE
  8
0
 62
7
 10
4.8205
 20
3.059999999999999
 30
0
 11
4.8367
 21
3.059999999999999
 31
0
  0
LINE
  8
0
 62
7
 10
4.8367
 20
3.059999999999999
 30
0
 11
4.8475
 21
3.057
 31
0
  0
LINE
  8
0
 62
7
 10
4.8475
 20
3.057
 30
0
 11
4.855599999999999
 21
3.051
 31
0
  0
LINE
  8
0
 62
7
 10
4.855599999999999
 20
3.051
 30
0
 11
4.861000000000001
 21
3.042
 31
0
  0
LINE
  8
0
 62
7
 10
4.861000000000001
 20
3.042
 30
0
 11
4.861000000000001
 21
3.029999999999999
 31
0
  0
LINE
  8
0
 62
7
 10
4.861000000000001
 20
3.029999999999999
 30
0
 11
4.855599999999999
 21
3.018
 31
0
  0
LINE
  8
0
 62
7
 10
4.855599999999999
 20
3.018
 30
0
 11
4.7962
 21
2.94
 31
0
  0
LINE
  8
0
 62
7
 10
4.7962
 20
2.94
 30
0
 11
4.861000000000001
 21
2.94
 31
0
  0
LINE
  8
0
 62
7
 10
4.8934
 20
2.988
 30
0
 11
4.896100000000001
 21
3
 31
0
  0
LINE
  8
0
 62
7
 10
4.896100000000001
 20
3
 30
0
 11
4.9015
 21
3.009
 31
0
  0
LINE
  8
0
 62
7
 10
4.9015
 20
3.009
 30
0
 11
4.9096
 21
3.014999999999999
 31
0
  0
LINE
  8
0
 62
7
 10
4.9096
 20
3.014999999999999
 30
0
 11
4.9177
 21
3.018
 31
0
  0
LINE
  8
0
 62
7
 10
4.9177
 20
3.018
 30
0
 11
4.9339
 21
3.018
 31
0
  0
LINE
  8
0
 62
7
 10
4.9339
 20
3.018
 30
0
 11
4.942
 21
3.014999999999999
 31
0
  0
LINE
  8
0
 62
7
 10
4.942
 20
3.014999999999999
 30
0
 11
4.950100000000001
 21
3.009
 31
0
  0
LINE
  8
0
 62
7
 10
4.950100000000001
 20
3.009
 30
0
 11
4.955500000000001
 21
3
 31
0
  0
LINE
  8
0
 62
7
 10
4.955500000000001
 20
3
 30
0
 11
4.958200000000001
 21
2.988
 31
0
  0
LINE
  8
0
 62
7
 10
4.958200000000001
 20
2.988
 30
0
 11
4.958200000000001
 21
2.969999999999999
 31
0
  0
LINE
  8
0
 62
7
 10
4.958200000000001
 20
2.969999999999999
 30
0
 11
4.955500000000001
 21
2.958
 31
0
  0
LINE
  8
0
 62
7
 10
4.955500000000001
 20
2.958
 30
0
 11
4.950100000000001
 21
2.949
 31
0
  0
LINE
  8
0
 62
7
 10
4.950100000000001
 20
2.949
 30
0
 11
4.942
 21
2.943
 31
0
  0
LINE
  8
0
 62
7
 10
4.942
 20
2.943
 30
0
 11
4.9339
 21
2.94
 31
0
  0
LINE
  8
0
 62
7
 10
4.9339
 20
2.94
 30
0
 11
4.9177
 21
2.94
 31
0
  0
LINE
  8
0
 62
7
 10
4.9177
 20
2.94
 30
0
 11
4.9096
 21
2.943
 31
0
  0
LINE
  8
0
 62
7
 10
4.9096
 20
2.943
 30
0
 11
4.9015
 21
2.949
 31
0
  0
LINE
  8
0
 62
7
 10
4.9015
 20
2.949
 30
0
 11
4.896100000000001
 21
2.958
 31
0
  0
LINE
  8
0
 62
7
 10
4.896100000000001
 20
2.958
 30
0
 11
4.8934
 21
2.969999999999999
 31
0
  0
LINE
  8
0
 62
7
 10
4.8934
 20
2.969999999999999
 30
0
 11
4.8934
 21
2.988
 31
0
  0
LINE
  8
0
 62
7
 10
4.8934
 20
3.029999999999999
 30
0
 11
4.896100000000001
 21
3.042
 31
0
  0
LINE
  8
0
 62
7
 10
4.896100000000001
 20
3.042
 30
0
 11
4.9015
 21
3.051
 31
0
  0
LINE
  8
0
 62
7
 10
4.9015
 20
3.051
 30
0
 11
4.9096
 21
3.057
 31
0
  0
LINE
  8
0
 62
7
 10
4.9096
 20
3.057
 30
0
 11
4.9177
 21
3.059999999999999
 31
0
  0
LINE
  8
0
 62
7
 10
4.9177
 20
3.059999999999999
 30
0
 11
4.9339
 21
3.059999999999999
 31
0
  0
LINE
  8
0
 62
7
 10
4.9339
 20
3.059999999999999
 30
0
 11
4.942
 21
3.057
 31
0
  0
LINE
  8
0
 62
7
 10
4.942
 20
3.057
 30
0
 11
4.950100000000001
 21
3.051
 31
0
  0
LINE
  8
0
 62
7
 10
4.950100000000001
 20
3.051
 30
0
 11
4.955500000000001
 21
3.042
 31
0
  0
LINE
  8
0
 62
7
 10
4.8934
 20
2.988
 30
0
 11
4.8934
 21
3.029999999999999
 31
0
  0
LINE
  8
0
 62
7
 10
4.990600000000001
 20
2.94
 30
0
 11
4.990600000000001
 21
3.059999999999999
 31
0
  0
LINE
  8
0
 62
7
 10
4.990600000000001
 20
3.059999999999999
 30
0
 11
5.041900000000002
 21
3.059999999999999
 31
0
  0
LINE
  8
0
 62
7
 10
5.041900000000002
 20
3.059999999999999
 30
0
 11
5.052700000000002
 21
3.057
 31
0
  0
LINE
  8
0
 62
7
 10
5.052700000000002
 20
3.057
 30
0
 11
5.0608
 21
3.051
 31
0
  0
LINE
  8
0
 62
7
 10
5.0608
 20
3.051
 30
0
 11
5.0635
 21
3.044999999999999
 31
0
  0
LINE
  8
0
 62
7
 10
5.0635
 20
3.044999999999999
 30
0
 11
5.066200000000001
 21
3.036
 31
0
  0
LINE
  8
0
 62
7
 10
5.066200000000001
 20
3.036
 30
0
 11
5.066200000000001
 21
3.024
 31
0
  0
LINE
  8
0
 62
7
 10
5.066200000000001
 20
3.024
 30
0
 11
5.0635
 21
3.014999999999999
 31
0
  0
LINE
  8
0
 62
7
 10
5.0635
 20
3.014999999999999
 30
0
 11
5.0608
 21
3.009
 31
0
  0
LINE
  8
0
 62
7
 10
5.0608
 20
3.009
 30
0
 11
5.052700000000002
 21
3.003
 31
0
  0
LINE
  8
0
 62
7
 10
5.052700000000002
 20
3.003
 30
0
 11
5.041900000000002
 21
3
 31
0
  0
LINE
  8
0
 62
7
 10
5.041900000000002
 20
3
 30
0
 11
5.033800000000002
 21
3
 31
0
  0
LINE
  8
0
 62
7
 10
5.033800000000002
 20
3
 30
0
 11
5.066200000000001
 21
2.94
 31
0
  0
LINE
  8
0
 62
7
 10
5.033800000000002
 20
3
 30
0
 11
4.990600000000001
 21
3
 31
0
  0
LINE
  8
0
 62
7
 10
5.0878
 20
2.988
 30
0
 11
5.0905
 21
3
 31
0
  0
LINE
  8
0
 62
7
 10
5.0905
 20
3
 30
0
 11
5.0959
 21
3.009
 31
0
  0
LINE
  8
0
 62
7
 10
5.0959
 20
3.009
 30
0
 11
5.104
 21
3.014999999999999
 31
0
  0
LINE
  8
0
 62
7
 10
5.104
 20
3.014999999999999
 30
0
 11
5.1121
 21
3.018
 31
0
  0
LINE
  8
0
 62
7
 10
5.1121
 20
3.018
 30
0
 11
5.1283
 21
3.018
 31
0
  0
LINE
  8
0
 62
7
 10
5.1283
 20
3.018
 30
0
 11
5.136400000000002
 21
3.014999999999999
 31
0
  0
LINE
  8
0
 62
7
 10
5.136400000000002
 20
3.014999999999999
 30
0
 11
5.144500000000001
 21
3.009
 31
0
  0
LINE
  8
0
 62
7
 10
5.144500000000001
 20
3.009
 30
0
 11
5.149900000000002
 21
3
 31
0
  0
LINE
  8
0
 62
7
 10
5.149900000000002
 20
3
 30
0
 11
5.152600000000001
 21
2.988
 31
0
  0
LINE
  8
0
 62
7
 10
5.152600000000001
 20
2.988
 30
0
 11
5.152600000000001
 21
2.969999999999999
 31
0
  0
LINE
  8
0
 62
7
 10
5.152600000000001
 20
2.969999999999999
 30
0
 11
5.149900000000002
 21
2.958
 31
0
  0
LINE
  8
0
 62
7
 10
5.149900000000002
 20
2.958
 30
0
 11
5.144500000000001
 21
2.949
 31
0
  0
LINE
  8
0
 62
7
 10
5.144500000000001
 20
2.949
 30
0
 11
5.136400000000002
 21
2.943
 31
0
  0
LINE
  8
0
 62
7
 10
5.136400000000002
 20
2.943
 30
0
 11
5.1283
 21
2.94
 31
0
  0
LINE
  8
0
 62
7
 10
5.1283
 20
2.94
 30
0
 11
5.1121
 21
2.94
 31
0
  0
LINE
  8
0
 62
7
 10
5.1121
 20
2.94
 30
0
 11
5.104
 21
2.943
 31
0
  0
LINE
  8
0
 62
7
 10
5.104
 20
2.943
 30
0
 11
5.0959
 21
2.949
 31
0
  0
LINE
  8
0
 62
7
 10
5.0959
 20
2.949
 30
0
 11
5.0905
 21
2.958
 31
0
  0
LINE
  8
0
 62
7
 10
5.0905
 20
2.958
 30
0
 11
5.0878
 21
2.969999999999999
 31
0
  0
LINE
  8
0
 62
7
 10
5.0878
 20
2.969999999999999
 30
0
 11
5.0878
 21
2.988
 31
0
  0
LINE
  8
0
 62
7
 10
5.0878
 20
3.029999999999999
 30
0
 11
5.0905
 21
3.042
 31
0
  0
LINE
  8
0
 62
7
 10
5.0905
 20
3.042
 30
0
 11
5.0959
 21
3.051
 31
0
  0
LINE
  8
0
 62
7
 10
5.0959
 20
3.051
 30
0
 11
5.104
 21
3.057
 31
0
  0
LINE
  8
0
 62
7
 10
5.104
 20
3.057
 30
0
 11
5.1121
 21
3.059999999999999
 31
0
  0
LINE
  8
0
 62
7
 10
5.1121
 20
3.059999999999999
 30
0
 11
5.1283
 21
3.059999999999999
 31
0
  0
LINE
  8
0
 62
7
 10
5.1283
 20
3.059999999999999
 30
0
 11
5.136400000000002
 21
3.057
 31
0
  0
LINE
  8
0
 62
7
 10
5.136400000000002
 20
3.057
 30
0
 11
5.144500000000001
 21
3.051
 31
0
  0
LINE
  8
0
 62
7
 10
5.144500000000001
 20
3.051
 30
0
 11
5.149900000000002
 21
3.042
 31
0
  0
LINE
  8
0
 62
7
 10
5.0878
 20
2.988
 30
0
 11
5.0878
 21
3.029999999999999
 31
0
  0
LINE
  8
0
 62
7
 10
6.875
 20
2.94
 30
0
 11
6.875
 21
3.039999999999999
 31
0
  0
LINE
  8
0
 62
7
 10
6.875
 20
3.039999999999999
 30
0
 11
6.938000000000001
 21
2.94
 31
0
  0
LINE
  8
0
 62
7
 10
6.938000000000001
 20
2.94
 30
0
 11
6.938000000000001
 21
3.039999999999999
 31
0
  0
LINE
  8
0
 62
7
 10
7.019000000000002
 20
2.94
 30
0
 11
6.965000000000001
 21
2.94
 31
0
  0
LINE
  8
0
 62
7
 10
6.965000000000001
 20
2.94
 30
0
 11
6.965000000000001
 21
3.039999999999999
 31
0
  0
LINE
  8
0
 62
7
 10
7.046000000000001
 20
2.989999999999999
 30
0
 11
7.082000000000001
 21
2.989999999999999
 31
0
  0
LINE
  8
0
 62
7
 10
7.082000000000001
 20
2.989999999999999
 30
0
 11
7.086500000000001
 21
2.989999999999999
 31
0
  0
LINE
  8
0
 62
7
 10
7.086500000000001
 20
2.989999999999999
 30
0
 11
7.095500000000001
 21
2.984999999999999
 31
0
  0
LINE
  8
0
 62
7
 10
7.095500000000001
 20
2.984999999999999
 30
0
 11
7.100000000000001
 21
2.979999999999999
 31
0
  0
LINE
  8
0
 62
7
 10
7.100000000000001
 20
2.979999999999999
 30
0
 11
7.104500000000001
 21
2.969999999999999
 31
0
  0
LINE
  8
0
 62
7
 10
7.104500000000001
 20
2.969999999999999
 30
0
 11
7.104500000000001
 21
2.959999999999999
 31
0
  0
LINE
  8
0
 62
7
 10
7.104500000000001
 20
2.959999999999999
 30
0
 11
7.100000000000001
 21
2.949999999999999
 31
0
  0
LINE
  8
0
 62
7
 10
7.100000000000001
 20
2.949999999999999
 30
0
 11
7.095500000000001
 21
2.944999999999999
 31
0
  0
LINE
  8
0
 62
7
 10
7.095500000000001
 20
2.944999999999999
 30
0
 11
7.086500000000001
 21
2.94
 31
0
  0
LINE
  8
0
 62
7
 10
7.086500000000001
 20
2.94
 30
0
 11
7.046000000000001
 21
2.94
 31
0
  0
LINE
  8
0
 62
7
 10
7.046000000000001
 20
2.94
 30
0
 11
7.046000000000001
 21
2.989999999999999
 31
0
  0
LINE
  8
0
 62
7
 10
7.046000000000001
 20
3.039999999999999
 30
0
 11
7.079750000000001
 21
3.039999999999999
 31
0
  0
LINE
  8
0
 62
7
 10
7.079750000000001
 20
3.039999999999999
 30
0
 11
7.091
 21
3.0375
 31
0
  0
LINE
  8
0
 62
7
 10
7.091
 20
3.0375
 30
0
 11
7.097750000000001
 21
3.029999999999999
 31
0
  0
LINE
  8
0
 62
7
 10
7.097750000000001
 20
3.029999999999999
 30
0
 11
7.100000000000001
 21
3.02
 31
0
  0
LINE
  8
0
 62
7
 10
7.100000000000001
 20
3.02
 30
0
 11
7.100000000000001
 21
3.009999999999999
 31
0
  0
LINE
  8
0
 62
7
 10
7.100000000000001
 20
3.009999999999999
 30
0
 11
7.095500000000001
 21
3
 31
0
  0
LINE
  8
0
 62
7
 10
7.095500000000001
 20
3
 30
0
 11
7.088750000000001
 21
2.992499999999999
 31
0
  0
LINE
  8
0
 62
7
 10
7.088750000000001
 20
2.992499999999999
 30
0
 11
7.082000000000001
 21
2.989999999999999
 31
0
  0
LINE
  8
0
 62
7
 10
7.046000000000001
 20
2.989999999999999
 30
0
 11
7.046000000000001
 21
3.039999999999999
 31
0
  0
LINE
  8
0
 62
7
 10
7.246250000000001
 20
2.992499999999999
 30
0
 11
7.2395
 21
3.0025
 31
0
  0
LINE
  8
0
 62
7
 10
7.2395
 20
3.0025
 30
0
 11
7.232750000000002
 21
3.007499999999999
 31
0
  0
LINE
  8
0
 62
7
 10
7.232750000000002
 20
3.007499999999999
 30
0
 11
7.226000000000001
 21
3.009999999999999
 31
0
  0
LINE
  8
0
 62
7
 10
7.226000000000001
 20
3.009999999999999
 30
0
 11
7.217000000000001
 21
3.009999999999999
 31
0
  0
LINE
  8
0
 62
7
 10
7.217000000000001
 20
3.009999999999999
 30
0
 11
7.210250000000001
 21
3.007499999999999
 31
0
  0
LINE
  8
0
 62
7
 10
7.210250000000001
 20
3.007499999999999
 30
0
 11
7.2035
 21
3.0025
 31
0
  0
LINE
  8
0
 62
7
 10
7.2035
 20
3.0025
 30
0
 11
7.196750000000002
 21
2.992499999999999
 31
0
  0
LINE
  8
0
 62
7
 10
7.196750000000002
 20
2.992499999999999
 30
0
 11
7.194500000000001
 21
2.984999999999999
 31
0
  0
LINE
  8
0
 62
7
 10
7.194500000000001
 20
2.984999999999999
 30
0
 11
7.194500000000001
 21
2.964999999999999
 31
0
  0
LINE
  8
0
 62
7
 10
7.194500000000001
 20
2.964999999999999
 30
0
 11
7.196750000000002
 21
2.9575
 31
0
  0
LINE
  8
0
 62
7
 10
7.196750000000002
 20
2.9575
 30
0
 11
7.2035
 21
2.947499999999999
 31
0
  0
LINE
  8
0
 62
7
 10
7.2035
 20
2.947499999999999
 30
0
 11
7.210250000000001
 21
2.942499999999999
 31
0
  0
LINE
  8
0
 62
7
 10
7.210250000000001
 20
2.942499999999999
 30
0
 11
7.217000000000001
 21
2.94
 31
0
  0
LINE
  8
0
 62
7
 10
7.217000000000001
 20
2.94
 30
0
 11
7.226000000000001
 21
2.94
 31
0
  0
LINE
  8
0
 62
7
 10
7.226000000000001
 20
2.94
 30
0
 11
7.232750000000002
 21
2.942499999999999
 31
0
  0
LINE
  8
0
 62
7
 10
7.232750000000002
 20
2.942499999999999
 30
0
 11
7.2395
 21
2.947499999999999
 31
0
  0
LINE
  8
0
 62
7
 10
7.2395
 20
2.947499999999999
 30
0
 11
7.246250000000001
 21
2.9575
 31
0
  0
LINE
  8
0
 62
7
 10
7.318250000000001
 20
2.984999999999999
 30
0
 11
7.316
 21
2.992499999999999
 31
0
  0
LINE
  8
0
 62
7
 10
7.316
 20
2.992499999999999
 30
0
 11
7.309250000000002
 21
3.0025
 31
0
  0
LINE
  8
0
 62
7
 10
7.309250000000002
 20
3.0025
 30
0
 11
7.302500000000001
 21
3.007499999999999
 31
0
  0
LINE
  8
0
 62
7
 10
7.302500000000001
 20
3.007499999999999
 30
0
 11
7.29575
 21
3.009999999999999
 31
0
  0
LINE
  8
0
 62
7
 10
7.29575
 20
3.009999999999999
 30
0
 11
7.286750000000001
 21
3.009999999999999
 31
0
  0
LINE
  8
0
 62
7
 10
7.286750000000001
 20
3.009999999999999
 30
0
 11
7.28
 21
3.007499999999999
 31
0
  0
LINE
  8
0
 62
7
 10
7.28
 20
3.007499999999999
 30
0
 11
7.273250000000001
 21
3.0025
 31
0
  0
LINE
  8
0
 62
7
 10
7.273250000000001
 20
3.0025
 30
0
 11
7.266500000000001
 21
2.992499999999999
 31
0
  0
LINE
  8
0
 62
7
 10
7.266500000000001
 20
2.992499999999999
 30
0
 11
7.264250000000001
 21
2.984999999999999
 31
0
  0
LINE
  8
0
 62
7
 10
7.264250000000001
 20
2.984999999999999
 30
0
 11
7.264250000000001
 21
2.964999999999999
 31
0
  0
LINE
  8
0
 62
7
 10
7.264250000000001
 20
2.964999999999999
 30
0
 11
7.266500000000001
 21
2.9575
 31
0
  0
LINE
  8
0
 62
7
 10
7.266500000000001
 20
2.9575
 30
0
 11
7.273250000000001
 21
2.947499999999999
 31
0
  0
LINE
  8
0
 62
7
 10
7.273250000000001
 20
2.947499999999999
 30
0
 11
7.28
 21
2.942499999999999
 31
0
  0
LINE
  8
0
 62
7
 10
7.28
 20
2.942499999999999
 30
0
 11
7.286750000000001
 21
2.94
 31
0
  0
LINE
  8
0
 62
7
 10
7.286750000000001
 20
2.94
 30
0
 11
7.29575
 21
2.94
 31
0
  0
LINE
  8
0
 62
7
 10
7.29575
 20
2.94
 30
0
 11
7.302500000000001
 21
2.942499999999999
 31
0
  0
LINE
  8
0
 62
7
 10
7.302500000000001
 20
2.942499999999999
 30
0
 11
7.309250000000002
 21
2.947499999999999
 31
0
  0
LINE
  8
0
 62
7
 10
7.309250000000002
 20
2.947499999999999
 30
0
 11
7.316
 21
2.9575
 31
0
  0
LINE
  8
0
 62
7
 10
7.316
 20
2.9575
 30
0
 11
7.318250000000001
 21
2.964999999999999
 31
0
  0
LINE
  8
0
 62
7
 10
7.318250000000001
 20
3.009999999999999
 30
0
 11
7.318250000000001
 21
2.984999999999999
 31
0
  0
LINE
  8
0
 62
7
 10
7.318250000000001
 20
2.942499999999999
 30
0
 11
7.320500000000002
 21
2.94
 31
0
  0
LINE
  8
0
 62
7
 10
7.320500000000002
 20
2.94
 30
0
 11
7.322750000000001
 21
2.94
 31
0
  0
LINE
  8
0
 62
7
 10
7.318250000000001
 20
2.964999999999999
 30
0
 11
7.318250000000001
 21
2.942499999999999
 31
0
  0
LINE
  8
0
 62
7
 10
7.318250000000001
 20
2.984999999999999
 30
0
 11
7.318250000000001
 21
2.964999999999999
 31
0
  0
LINE
  8
0
 62
7
 10
7.34075
 20
2.94
 30
0
 11
7.34075
 21
2.942499999999999
 31
0
  0
LINE
  8
0
 62
7
 10
7.34075
 20
2.942499999999999
 30
0
 11
7.343000000000001
 21
2.942499999999999
 31
0
  0
LINE
  8
0
 62
7
 10
7.343000000000001
 20
2.942499999999999
 30
0
 11
7.343000000000001
 21
2.94
 31
0
  0
LINE
  8
0
 62
7
 10
7.343000000000001
 20
2.94
 30
0
 11
7.34075
 21
2.94
 31
0
  0
LINE
  8
0
 62
7
 10
7.444250000000001
 20
3.009999999999999
 30
0
 11
7.471250000000001
 21
3.039999999999999
 31
0
  0
LINE
  8
0
 62
7
 10
7.471250000000001
 20
3.039999999999999
 30
0
 11
7.471250000000001
 21
2.94
 31
0
  0
LINE
  8
0
 62
7
 10
7.498250000000001
 20
3.014999999999999
 30
0
 11
7.500500000000001
 21
3.024999999999999
 31
0
  0
LINE
  8
0
 62
7
 10
7.500500000000001
 20
3.024999999999999
 30
0
 11
7.505
 21
3.032499999999999
 31
0
  0
LINE
  8
0
 62
7
 10
7.505
 20
3.032499999999999
 30
0
 11
7.511750000000001
 21
3.0375
 31
0
  0
LINE
  8
0
 62
7
 10
7.511750000000001
 20
3.0375
 30
0
 11
7.5185
 21
3.039999999999999
 31
0
  0
LINE
  8
0
 62
7
 10
7.5185
 20
3.039999999999999
 30
0
 11
7.532000000000001
 21
3.039999999999999
 31
0
  0
LINE
  8
0
 62
7
 10
7.532000000000001
 20
3.039999999999999
 30
0
 11
7.53875
 21
3.0375
 31
0
  0
LINE
  8
0
 62
7
 10
7.53875
 20
3.0375
 30
0
 11
7.545500000000001
 21
3.032499999999999
 31
0
  0
LINE
  8
0
 62
7
 10
7.545500000000001
 20
3.032499999999999
 30
0
 11
7.550000000000001
 21
3.024999999999999
 31
0
  0
LINE
  8
0
 62
7
 10
7.550000000000001
 20
3.024999999999999
 30
0
 11
7.552250000000001
 21
3.014999999999999
 31
0
  0
LINE
  8
0
 62
7
 10
7.552250000000001
 20
3.014999999999999
 30
0
 11
7.552250000000001
 21
2.964999999999999
 31
0
  0
LINE
  8
0
 62
7
 10
7.552250000000001
 20
2.964999999999999
 30
0
 11
7.550000000000001
 21
2.954999999999999
 31
0
  0
LINE
  8
0
 62
7
 10
7.550000000000001
 20
2.954999999999999
 30
0
 11
7.545500000000001
 21
2.947499999999999
 31
0
  0
LINE
  8
0
 62
7
 10
7.545500000000001
 20
2.947499999999999
 30
0
 11
7.53875
 21
2.942499999999999
 31
0
  0
LINE
  8
0
 62
7
 10
7.53875
 20
2.942499999999999
 30
0
 11
7.532000000000001
 21
2.94
 31
0
  0
LINE
  8
0
 62
7
 10
7.532000000000001
 20
2.94
 30
0
 11
7.5185
 21
2.94
 31
0
  0
LINE
  8
0
 62
7
 10
7.5185
 20
2.94
 30
0
 11
7.511750000000001
 21
2.942499999999999
 31
0
  0
LINE
  8
0
 62
7
 10
7.511750000000001
 20
2.942499999999999
 30
0
 11
7.505
 21
2.947499999999999
 31
0
  0
LINE
  8
0
 62
7
 10
7.505
 20
2.947499999999999
 30
0
 11
7.500500000000001
 21
2.954999999999999
 31
0
  0
LINE
  8
0
 62
7
 10
7.500500000000001
 20
2.954999999999999
 30
0
 11
7.498250000000001
 21
2.964999999999999
 31
0
  0
LINE
  8
0
 62
7
 10
7.498250000000001
 20
2.964999999999999
 30
0
 11
7.498250000000001
 21
3.014999999999999
 31
0
  0
LINE
  8
0
 62
7
 10
7.579250000000001
 20
3.014999999999999
 30
0
 11
7.581500000000002
 21
3.024999999999999
 31
0
  0
LINE
  8
0
 62
7
 10
7.581500000000002
 20
3.024999999999999
 30
0
 11
7.586
 21
3.032499999999999
 31
0
  0
LINE
  8
0
 62
7
 10
7.586
 20
3.032499999999999
 30
0
 11
7.592750000000001
 21
3.0375
 31
0
  0
LINE
  8
0
 62
7
 10
7.592750000000001
 20
3.0375
 30
0
 11
7.599500000000001
 21
3.039999999999999
 31
0
  0
LINE
  8
0
 62
7
 10
7.599500000000001
 20
3.039999999999999
 30
0
 11
7.613000000000001
 21
3.039999999999999
 31
0
  0
LINE
  8
0
 62
7
 10
7.613000000000001
 20
3.039999999999999
 30
0
 11
7.619750000000001
 21
3.0375
 31
0
  0
LINE
  8
0
 62
7
 10
7.619750000000001
 20
3.0375
 30
0
 11
7.626500000000002
 21
3.032499999999999
 31
0
  0
LINE
  8
0
 62
7
 10
7.626500000000002
 20
3.032499999999999
 30
0
 11
7.631
 21
3.024999999999999
 31
0
  0
LINE
  8
0
 62
7
 10
7.631
 20
3.024999999999999
 30
0
 11
7.63325
 21
3.014999999999999
 31
0
  0
LINE
  8
0
 62
7
 10
7.63325
 20
3.014999999999999
 30
0
 11
7.63325
 21
2.964999999999999
 31
0
  0
LINE
  8
0
 62
7
 10
7.63325
 20
2.964999999999999
 30
0
 11
7.631
 21
2.954999999999999
 31
0
  0
LINE
  8
0
 62
7
 10
7.631
 20
2.954999999999999
 30
0
 11
7.626500000000002
 21
2.947499999999999
 31
0
  0
LINE
  8
0
 62
7
 10
7.626500000000002
 20
2.947499999999999
 30
0
 11
7.619750000000001
 21
2.942499999999999
 31
0
  0
LINE
  8
0
 62
7
 10
7.619750000000001
 20
2.942499999999999
 30
0
 11
7.613000000000001
 21
2.94
 31
0
  0
LINE
  8
0
 62
7
 10
7.613000000000001
 20
2.94
 30
0
 11
7.599500000000001
 21
2.94
 31
0
  0
LINE
  8
0
 62
7
 10
7.599500000000001
 20
2.94
 30
0
 11
7.592750000000001
 21
2.942499999999999
 31
0
  0
LINE
  8
0
 62
7
 10
7.592750000000001
 20
2.942499999999999
 30
0
 11
7.586
 21
2.947499999999999
 31
0
  0
LINE
  8
0
 62
7
 10
7.586
 20
2.947499999999999
 30
0
 11
7.581500000000002
 21
2.954999999999999
 31
0
  0
LINE
  8
0
 62
7
 10
7.581500000000002
 20
2.954999999999999
 30
0
 11
7.579250000000001
 21
2.964999999999999
 31
0
  0
LINE
  8
0
 62
7
 10
7.579250000000001
 20
2.964999999999999
 30
0
 11
7.579250000000001
 21
3.014999999999999
 31
0
  0
LINE
  8
0
 62
7
 10
7.784000000000002
 20
2.992499999999999
 30
0
 11
7.777250000000001
 21
3.0025
 31
0
  0
LINE
  8
0
 62
7
 10
7.777250000000001
 20
3.0025
 30
0
 11
7.770500000000002
 21
3.007499999999999
 31
0
  0
LINE
  8
0
 62
7
 10
7.770500000000002
 20
3.007499999999999
 30
0
 11
7.763750000000001
 21
3.009999999999999
 31
0
  0
LINE
  8
0
 62
7
 10
7.763750000000001
 20
3.009999999999999
 30
0
 11
7.75475
 21
3.009999999999999
 31
0
  0
LINE
  8
0
 62
7
 10
7.75475
 20
3.009999999999999
 30
0
 11
7.748000000000001
 21
3.007499999999999
 31
0
  0
LINE
  8
0
 62
7
 10
7.748000000000001
 20
3.007499999999999
 30
0
 11
7.741250000000001
 21
3.0025
 31
0
  0
LINE
  8
0
 62
7
 10
7.741250000000001
 20
3.0025
 30
0
 11
7.734500000000001
 21
2.992499999999999
 31
0
  0
LINE
  8
0
 62
7
 10
7.734500000000001
 20
2.992499999999999
 30
0
 11
7.732250000000001
 21
2.984999999999999
 31
0
  0
LINE
  8
0
 62
7
 10
7.732250000000001
 20
2.984999999999999
 30
0
 11
7.732250000000001
 21
2.964999999999999
 31
0
  0
LINE
  8
0
 62
7
 10
7.732250000000001
 20
2.964999999999999
 30
0
 11
7.734500000000001
 21
2.9575
 31
0
  0
LINE
  8
0
 62
7
 10
7.734500000000001
 20
2.9575
 30
0
 11
7.741250000000001
 21
2.947499999999999
 31
0
  0
LINE
  8
0
 62
7
 10
7.741250000000001
 20
2.947499999999999
 30
0
 11
7.748000000000001
 21
2.942499999999999
 31
0
  0
LINE
  8
0
 62
7
 10
7.748000000000001
 20
2.942499999999999
 30
0
 11
7.75475
 21
2.94
 31
0
  0
LINE
  8
0
 62
7
 10
7.75475
 20
2.94
 30
0
 11
7.763750000000001
 21
2.94
 31
0
  0
LINE
  8
0
 62
7
 10
7.763750000000001
 20
2.94
 30
0
 11
7.770500000000002
 21
2.942499999999999
 31
0
  0
LINE
  8
0
 62
7
 10
7.770500000000002
 20
2.942499999999999
 30
0
 11
7.777250000000001
 21
2.947499999999999
 31
0
  0
LINE
  8
0
 62
7
 10
7.777250000000001
 20
2.947499999999999
 30
0
 11
7.784000000000002
 21
2.9575
 31
0
  0
LINE
  8
0
 62
7
 10
7.8425
 20
2.984999999999999
 30
0
 11
7.8425
 21
2.94
 31
0
  0
LINE
  8
0
 62
7
 10
7.802
 20
3.009999999999999
 30
0
 11
7.802
 21
2.984999999999999
 31
0
  0
LINE
  8
0
 62
7
 10
7.802
 20
2.94
 30
0
 11
7.802
 21
2.984999999999999
 31
0
  0
LINE
  8
0
 62
7
 10
7.802
 20
2.984999999999999
 30
0
 11
7.804250000000001
 21
2.997499999999999
 31
0
  0
LINE
  8
0
 62
7
 10
7.804250000000001
 20
2.997499999999999
 30
0
 11
7.806500000000002
 21
3.0025
 31
0
  0
LINE
  8
0
 62
7
 10
7.806500000000002
 20
3.0025
 30
0
 11
7.811
 21
3.007499999999999
 31
0
  0
LINE
  8
0
 62
7
 10
7.811
 20
3.007499999999999
 30
0
 11
7.817750000000001
 21
3.009999999999999
 31
0
  0
LINE
  8
0
 62
7
 10
7.817750000000001
 20
3.009999999999999
 30
0
 11
7.826750000000001
 21
3.009999999999999
 31
0
  0
LINE
  8
0
 62
7
 10
7.826750000000001
 20
3.009999999999999
 30
0
 11
7.833500000000001
 21
3.007499999999999
 31
0
  0
LINE
  8
0
 62
7
 10
7.833500000000001
 20
3.007499999999999
 30
0
 11
7.838000000000001
 21
3.0025
 31
0
  0
LINE
  8
0
 62
7
 10
7.838000000000001
 20
3.0025
 30
0
 11
7.840250000000002
 21
2.997499999999999
 31
0
  0
LINE
  8
0
 62
7
 10
7.840250000000002
 20
2.997499999999999
 30
0
 11
7.8425
 21
2.984999999999999
 31
0
  0
LINE
  8
0
 62
7
 10
7.8425
 20
2.984999999999999
 30
0
 11
7.844750000000001
 21
2.997499999999999
 31
0
  0
LINE
  8
0
 62
7
 10
7.844750000000001
 20
2.997499999999999
 30
0
 11
7.847
 21
3.0025
 31
0
  0
LINE
  8
0
 62
7
 10
7.847
 20
3.0025
 30
0
 11
7.851500000000001
 21
3.007499999999999
 31
0
  0
LINE
  8
0
 62
7
 10
7.851500000000001
 20
3.007499999999999
 30
0
 11
7.85825
 21
3.009999999999999
 31
0
  0
LINE
  8
0
 62
7
 10
7.85825
 20
3.009999999999999
 30
0
 11
7.86725
 21
3.009999999999999
 31
0
  0
LINE
  8
0
 62
7
 10
7.86725
 20
3.009999999999999
 30
0
 11
7.874000000000001
 21
3.007499999999999
 31
0
  0
LINE
  8
0
 62
7
 10
7.8785
 20
3.0025
 30
0
 11
7.874000000000001
 21
3.007499999999999
 31
0
  0
LINE
  8
0
 62
7
 10
7.874000000000001
 20
3.007499999999999
 30
0
 11
7.8785
 21
3.0025
 31
0
  0
LINE
  8
0
 62
7
 10
7.8785
 20
3.0025
 30
0
 11
7.880750000000001
 21
2.997499999999999
 31
0
  0
LINE
  8
0
 62
7
 10
7.880750000000001
 20
2.997499999999999
 30
0
 11
7.883000000000002
 21
2.984999999999999
 31
0
  0
LINE
  8
0
 62
7
 10
7.883000000000002
 20
2.984999999999999
 30
0
 11
7.883000000000002
 21
2.94
 31
0
  0
ARC
  8
0
 62
7
 10
6.310968302888241
 20
3.63596830288821
 30
0
 40
0.6679999999999944
 50
359.9169963606873
 51
90.08300363786567
  0
ARC
  8
0
 62
7
 10
5.279031697111741
 20
3.63596830288824
 30
0
 40
0.6679999999999948
 50
89.91699636066205
 51
180.0830036405881
  0
CIRCLE
  8
0
 62
7
 10
4.611032398075241
 20
3.299999999999999
 30
0
 40
0.05999999999999872
  0
DIMENSION
  8
0
  6
CONTINUOUS
 62
7
  2
*D1
  3
DMST_1
 10
4.165
 20
11.4669464773179
 30
0
 11
5.77552162749106
 21
11.4669464773179
 31
0
 12
0
 22
0
 32
0
 70
0
 13
7.425000000000001
 23
11.2
 33
0
 14
4.165
 24
11.2
 34
0
 53
0
  0
DIMENSION
  8
0
  6
CONTINUOUS
 62
7
  2
*D2
  3
DMST_2
 10
3.64928851558507
 20
4.75
 30
0
 11
3.64928851558507
 21
4.03694299182422
 31
0
 12
0
 22
0
 32
0
 70
0
 13
3.99
 23
3.3
 33
0
 14
3.99
 24
4.75
 34
0
 50
90
 53
0
  0
DIMENSION
  8
0
  6
CONTINUOUS
 62
7
  2
*D3
  3
DMST_2
 10
7.425000000000001
 20
5.61980541957646
 30
0
 11
5.799146439845571
 21
5.61980541957646
 31
0
 12
0
 22
0
 32
0
 70
0
 13
4.165
 23
5.269999999999997
 33
0
 14
7.425000000000001
 24
5.269999999999997
 34
0
 53
0
  0
DIMENSION
  8
0
  6
CONTINUOUS
 62
7
  2
*D4
  3
DMST_2
 10
7.901754739397051
 20
4.75
 30
0
 11
7.901754739397051
 21
4.10781742888776
 31
0
 12
0
 22
0
 32
0
 70
0
 13
7.600000000000001
 23
3.4
 33
0
 14
7.600000000000001
 24
4.75
 34
0
 50
90
 53
0
  0
INSERT
  8
0
  2
*D0
 10
0
 20
0
 30
0
  0
ENDSEC
  0
EOF
