  0
SECTION
  2
HEADER
  9
$ACADVER
  1
AC1009
  9
$INSBASE
 10
0
 20
0
  9
$EXTMIN
 10
0.625
 20
2.889999999999999
  9
$EXTMAX
 10
8.250000000000005
 20
11.5178816073355
  9
$LIMMIN
 10
0.625
 20
2.889999999999999
  9
$LIMMAX
 10
8.250000000000005
 20
11.5178816073355
  9
$VIEWCTR
 10
10
 20
10
  9
$VIEWSIZE
 40
10
  9
$SNAPMODE
 70
0
  9
$SNAPUNIT
 10
1
 20
1
  9
$SNAPBASE
 10
0
 20
0
  9
$SNAPANG
 50
0
  9
$SNAPSTYLE
 70
0
  9
$SNAPISOPAIR
 70
0
  9
$GRIDMODE
 70
0
  9
$GRIDUNIT
 10
0
 20
0
  9
$ORTHOMODE
 70
0
  9
$REGENMODE
 70
1
  9
$FILLMODE
 70
1
  9
$QTEXTMODE
 70
0
  9
$DRAGMODE
 70
2
  9
$LTSCALE
 40
1
  9
$OSMODE
 70
0
  9
$ATTMODE
 70
1
  9
$TEXTSIZE
 40
3.5
  9
$TRACEWID
 40
0.5
  9
$TEXTSTYLE
  7
STANDARD
  9
$CLAYER
  8
0
  9
$CELTYPE
  6
BYLAYER
  9
$CECOLOR
 62
256
  9
$DIMSCALE
 40
1
  9
$DIMASZ
 40
0.18
  9
$DIMEXO
 40
0.0625
  9
$DIMDLI
 40
0.38
  9
$DIMRND
 40
0
  9
$DIMDLE
 40
0
  9
$DIMEXE
 40
0.18
  9
$DIMTP
 40
0
  9
$DIMTM
 40
0
  9
$DIMTXT
 40
0.18
  9
$DIMCEN
 40
0.09
  9
$DIMTSZ
 40
0
  9
$DIMTOL
 70
0
  9
$DIMLIM
 70
0
  9
$DIMTIH
 70
1
  9
$DIMTOH
 70
1
  9
$DIMSE1
 70
0
  9
$DIMSE2
 70
0
  9
$DIMTAD
 70
0
  9
$DIMZIN
 70
0
  9
$DIMBLK
  1

  9
$DIMASO
 70
1
  9
$DIMSHO
 70
1
  9
$DIMPOST
  1

  9
$DIMAPOST
  1

  9
$DIMALT
 70
0
  9
$DIMALTD
 70
2
  9
$DIMALTF
 40
25.4
  9
$DIMLFAC
 40
1
  9
$DIMTOFL
 70
0
  9
$DIMTVP
 40
0
  9
$DIMTIX
 70
0
  9
$DIMSOXD
 70
0
  9
$DIMSAH
 70
0
  9
$DIMBLK1
  1

  9
$DIMBLK2
  1

  9
$DIMSTYLE
  2
*UNNAMED
  9
$DIMCLRD
 70
0
  9
$DIMCLRE
 70
0
  9
$DIMCLRT
 70
0
  9
$DIMTFAC
 40
1
  9
$DIMGAP
 40
0.09
  9
$LUNITS
 70
2
  9
$LUPREC
 70
4
  9
$AXISMODE
 70
0
  9
$AXISUNIT
 10
0
 20
0
  9
$SKETCHINC
 40
0.1
  9
$FILLETRAD
 40
2
  9
$AUNITS
 70
0
  9
$AUPREC
 70
0
  9
$MENU
  1
ACAD
  9
$ELEVATION
 40
0
  9
$THICKNESS
 40
0
  9
$VIEWDIR
 10
0
 20
0
 30
1
  9
$LIMCHECK
 70
0
  9
$BLIPMODE
 70
1
  9
$CHAMFERA
 40
0
  9
$CHAMFERB
 40
0
  9
$FASTZOOM
 70
1
  9
$SKPOLY
 70
0
  9
$ANGBASE
 50
0
  9
$ANGDIR
 70
0
  9
$PDMODE
 70
0
  9
$PDSIZE
 40
0
  9
$PLINEWID
 40
0
  9
$COORDS
 70
2
  0
ENDSEC
  0
SECTION
  2
TABLES
  0
TABLE
  2
DIMSTYLE
 70
2
  0
DIMSTYLE
  2
DMST_1
 70
0
  3

  4

  5

  6

  7

 40
1
 41
0.1
 42
0
 43
0.7
 44
0.2
 45
0
 46
0
 47
0
 48
0
140
0.1
141
0
142
0.1
143
25.4
144
1
145
0
146
1
147
0.2
 71
0
 72
0
 73
0
 74
0
 75
0
 76
0
 77
0
 78
9
170
0
171
2
172
0
173
0
174
0
175
0
176
7
177
7
178
7
  0
DIMSTYLE
  2
DMST_2
 70
0
  3

  4

  5

  6

  7

 40
1
 41
0.1
 42
0
 43
0.7
 44
0.2
 45
0
 46
0
 47
0
 48
0
140
0.1
141
0
142
0.1
143
25.4
144
1
145
0
146
1
147
0.25
 71
0
 72
0
 73
0
 74
0
 75
0
 76
0
 77
0
 78
9
170
0
171
2
172
0
173
0
174
0
175
0
176
7
177
7
178
7
  0
ENDTAB
  0
TABLE
  2
LTYPE
 70
9
  0
LTYPE
  2
CONTINUOUS
 70
64
  3
Solid line
 72
65
 73
0
 40
0
  0
LTYPE
  2
BORDER
 70
64
  3
__ __ . __ __ .
 72
65
 73
6
 40
0.3973366529693981
 49
0.1135247579912566
 49
-0.0567623789956283
 49
0.1135247579912566
 49
-0.0567623789956283
 49
0
 49
-0.0567623789956283
  0
LTYPE
  2
CENTER
 70
64
  3
____ _ ____ _
 72
65
 73
4
 40
0.4540990319650264
 49
0.2838118949781415
 49
-0.0567623789956283
 49
0.0567623789956283
 49
-0.0567623789956283
  0
LTYPE
  2
DASHDOT
 70
64
  3
__ . __ . __ .
 72
65
 73
4
 40
0.2270495159825132
 49
0.1135247579912566
 49
-0.0567623789956283
 49
0
 49
-0.0567623789956283
  0
LTYPE
  2
DASHED
 70
64
  3
__ __ __ __ __
 72
65
 73
2
 40
0.1702871369868849
 49
0.1135247579912566
 49
-0.0567623789956283
  0
LTYPE
  2
DIVIDE
 70
64
  3
__ . . __ . . 
 72
65
 73
6
 40
0.2838118949781415
 49
0.1135247579912566
 49
-0.0567623789956283
 49
0
 49
-0.0567623789956283
 49
0
 49
-0.0567623789956283
  0
LTYPE
  2
DOT
 70
64
  3
..............
 72
65
 73
4
 40
0.1135247579912566
 49
0
 49
-0.0567623789956283
 49
0
 49
-0.0567623789956283
  0
LTYPE
  2
HIDDEN
 70
64
  3
_ _ _ _ _ _ _
 72
65
 73
2
 40
0.08514356849344244
 49
0.0567623789956283
 49
-0.02838118949781415
  0
LTYPE
  2
PHANTOM
 70
64
  3
_____ _ _ _____ _ _ 
 72
65
 73
6
 40
0.5676237899562829
 49
0.2838118949781415
 49
-0.0567623789956283
 49
0.0567623789956283
 49
-0.0567623789956283
 49
0.0567623789956283
 49
-0.0567623789956283
  0
ENDTAB
  0
TABLE
  2
LAYER
 70
2
  0
LAYER
  2
0
 70
0
 62
7
  6
CONTINUOUS
  0
ENDTAB
  0
TABLE
  2
STYLE
 70
4
  0
STYLE
  2
STANDARD
 70
0
 40
0
 41
1
 50
0
 71
0
 42
3.5
  3
txt
  4

  0
STYLE
  2
SIMPLEX
 70
0
 40
0
 41
1
 50
0
 71
0
 42
3.5
  3
simplex
  4

  0
STYLE
  2
COMPLEX
 70
0
 40
0
 41
1
 50
0
 71
0
 42
3.5
  3
complex
  4

  0
STYLE
  2
ITALIC
 70
0
 40
0
 41
1
 50
0
 71
0
 42
3.5
  3
italic
  4

  0
ENDTAB
  0
TABLE
  2
VIEW
 70
0
  0
ENDTAB
  0
ENDSEC
  0
SECTION
  2
BLOCKS
  0
BLOCK
  8
0
  2
*X0
 70
1
 10
0
 20
0
 30
0
  0
LINE
  8
0
 62
7
 10
1.100000000000001
 20
7.99429111656884
 30
0
 11
1.20570888343116
 21
8.099999999999998
 31
0
  0
LINE
  8
0
 62
7
 10
1.267840917787124
 20
7.949999999999998
 30
0
 11
1.275000000000002
 21
7.957159082212875
 31
0
  0
LINE
  8
0
 62
7
 10
1.161774900609143
 20
7.949999999999999
 30
0
 11
1.275000000000002
 21
8.063225099390857
 31
0
  0
ENDBLK
  8
0
  0
BLOCK
  8
0
  2
*X1
 70
1
 10
0
 20
0
 30
0
  0
LINE
  8
0
 62
7
 10
1.100000000000002
 20
10.75200756319637
 30
0
 11
1.197992436803626
 21
10.85
 31
0
  0
LINE
  8
0
 62
7
 10
1.100000000000002
 20
10.5398755288404
 30
0
 11
1.275000000000001
 21
10.7148755288404
 31
0
  0
LINE
  8
0
 62
7
 10
1.100000000000002
 20
10.32774349448444
 30
0
 11
1.275000000000001
 21
10.50274349448444
 31
0
  0
LINE
  8
0
 62
7
 10
1.100000000000002
 20
10.11561146012848
 30
0
 11
1.275000000000001
 21
10.29061146012848
 31
0
  0
LINE
  8
0
 62
7
 10
1.100000000000002
 20
9.903479425772513
 30
0
 11
1.275000000000001
 21
10.07847942577251
 31
0
  0
LINE
  8
0
 62
7
 10
1.100000000000002
 20
9.691347391416549
 30
0
 11
1.275000000000001
 21
9.866347391416548
 31
0
  0
LINE
  8
0
 62
7
 10
1.100000000000002
 20
9.479215357060585
 30
0
 11
1.275000000000001
 21
9.654215357060584
 31
0
  0
LINE
  8
0
 62
7
 10
1.100000000000002
 20
9.267083322704622
 30
0
 11
1.275000000000001
 21
9.442083322704621
 31
0
  0
LINE
  8
0
 62
7
 10
1.100000000000002
 20
9.054951288348658
 30
0
 11
1.275000000000001
 21
9.229951288348657
 31
0
  0
LINE
  8
0
 62
7
 10
1.100000000000002
 20
8.842819253992694
 30
0
 11
1.275000000000001
 21
9.017819253992693
 31
0
  0
LINE
  8
0
 62
7
 10
1.100000000000002
 20
8.63068721963673
 30
0
 11
1.275000000000001
 21
8.805687219636729
 31
0
  0
LINE
  8
0
 62
7
 10
1.100000000000002
 20
8.418555185280766
 30
0
 11
1.275000000000001
 21
8.593555185280765
 31
0
  0
LINE
  8
0
 62
7
 10
1.193576849075197
 20
8.299999999999997
 30
0
 11
1.275000000000001
 21
8.381423150924801
 31
0
  0
LINE
  8
0
 62
7
 10
1.100000000000001
 20
10.64594154601839
 30
0
 11
1.275000000000001
 21
10.82094154601839
 31
0
  0
LINE
  8
0
 62
7
 10
1.100000000000001
 20
10.43380951166242
 30
0
 11
1.275000000000001
 21
10.60880951166242
 31
0
  0
LINE
  8
0
 62
7
 10
1.100000000000001
 20
10.22167747730646
 30
0
 11
1.275000000000001
 21
10.39667747730646
 31
0
  0
LINE
  8
0
 62
7
 10
1.100000000000001
 20
10.0095454429505
 30
0
 11
1.275000000000001
 21
10.18454544295049
 31
0
  0
LINE
  8
0
 62
7
 10
1.100000000000001
 20
9.797413408594531
 30
0
 11
1.275000000000001
 21
9.97241340859453
 31
0
  0
LINE
  8
0
 62
7
 10
1.100000000000001
 20
9.585281374238567
 30
0
 11
1.275000000000001
 21
9.760281374238566
 31
0
  0
LINE
  8
0
 62
7
 10
1.100000000000001
 20
9.373149339882604
 30
0
 11
1.275000000000001
 21
9.548149339882603
 31
0
  0
LINE
  8
0
 62
7
 10
1.100000000000001
 20
9.16101730552664
 30
0
 11
1.275000000000001
 21
9.336017305526639
 31
0
  0
LINE
  8
0
 62
7
 10
1.100000000000001
 20
8.948885271170676
 30
0
 11
1.275000000000001
 21
9.123885271170675
 31
0
  0
LINE
  8
0
 62
7
 10
1.100000000000001
 20
8.736753236814712
 30
0
 11
1.275000000000001
 21
8.911753236814711
 31
0
  0
LINE
  8
0
 62
7
 10
1.100000000000001
 20
8.524621202458748
 30
0
 11
1.275000000000001
 21
8.699621202458747
 31
0
  0
LINE
  8
0
 62
7
 10
1.100000000000001
 20
8.312489168102784
 30
0
 11
1.275000000000001
 21
8.487489168102783
 31
0
  0
ENDBLK
  8
0
  0
BLOCK
  8
0
  2
*X2
 70
1
 10
0
 20
0
 30
0
  0
LINE
  8
0
 62
7
 10
1.100000000000001
 20
11.1762716319083
 30
0
 11
1.1237283680917
 21
11.2
 31
0
  0
LINE
  8
0
 62
7
 10
1.185860402447664
 20
11.05
 30
0
 11
1.275000000000001
 21
11.13913959755234
 31
0
  0
LINE
  8
0
 62
7
 10
1.100000000000002
 20
11.07020561473032
 30
0
 11
1.229794385269681
 21
11.2
 31
0
  0
ENDBLK
  8
0
  0
BLOCK
  8
0
  2
*X3
 70
1
 10
0
 20
0
 30
0
  0
LINE
  8
0
 62
7
 10
4.661953467482553
 20
7.949999999999998
 30
0
 11
4.811953467482553
 21
8.099999999999998
 31
0
  0
LINE
  8
0
 62
7
 10
4.660000000000002
 20
8.054112549695429
 30
0
 11
4.705887450304569
 21
8.099999999999996
 31
0
  0
LINE
  8
0
 62
7
 10
4.768019484660536
 20
7.949999999999999
 30
0
 11
4.835000000000004
 21
8.016980515339466
 31
0
  0
ENDBLK
  8
0
  0
BLOCK
  8
0
  2
*X4
 70
1
 10
0
 20
0
 30
0
  0
LINE
  8
0
 62
7
 10
4.660000000000003
 20
10.70576297914498
 30
0
 11
4.80423702085502
 21
10.85
 31
0
  0
LINE
  8
0
 62
7
 10
4.660000000000003
 20
10.49363094478901
 30
0
 11
4.835000000000003
 21
10.66863094478902
 31
0
  0
LINE
  8
0
 62
7
 10
4.660000000000003
 20
10.28149891043305
 30
0
 11
4.835000000000003
 21
10.45649891043305
 31
0
  0
LINE
  8
0
 62
7
 10
4.660000000000003
 20
10.06936687607709
 30
0
 11
4.835000000000003
 21
10.24436687607709
 31
0
  0
LINE
  8
0
 62
7
 10
4.660000000000003
 20
9.857234841721123
 30
0
 11
4.835000000000003
 21
10.03223484172112
 31
0
  0
LINE
  8
0
 62
7
 10
4.660000000000003
 20
9.645102807365159
 30
0
 11
4.835000000000003
 21
9.82010280736516
 31
0
  0
LINE
  8
0
 62
7
 10
4.660000000000003
 20
9.432970773009195
 30
0
 11
4.835000000000003
 21
9.607970773009196
 31
0
  0
LINE
  8
0
 62
7
 10
4.660000000000003
 20
9.220838738653232
 30
0
 11
4.835000000000003
 21
9.395838738653232
 31
0
  0
LINE
  8
0
 62
7
 10
4.660000000000003
 20
9.008706704297268
 30
0
 11
4.835000000000003
 21
9.183706704297268
 31
0
  0
LINE
  8
0
 62
7
 10
4.660000000000003
 20
8.796574669941304
 30
0
 11
4.835000000000003
 21
8.971574669941305
 31
0
  0
LINE
  8
0
 62
7
 10
4.660000000000003
 20
8.58444263558534
 30
0
 11
4.835000000000003
 21
8.759442635585341
 31
0
  0
LINE
  8
0
 62
7
 10
4.660000000000003
 20
8.372310601229376
 30
0
 11
4.835000000000003
 21
8.547310601229377
 31
0
  0
LINE
  8
0
 62
7
 10
4.799821433126587
 20
8.299999999999997
 30
0
 11
4.835000000000003
 21
8.335178566873413
 31
0
  0
LINE
  8
0
 62
7
 10
4.660000000000002
 20
10.81182899632296
 30
0
 11
4.698171003677038
 21
10.85
 31
0
  0
LINE
  8
0
 62
7
 10
4.660000000000002
 20
10.599696961967
 30
0
 11
4.835000000000004
 21
10.774696961967
 31
0
  0
LINE
  8
0
 62
7
 10
4.660000000000002
 20
10.38756492761103
 30
0
 11
4.835000000000004
 21
10.56256492761103
 31
0
  0
LINE
  8
0
 62
7
 10
4.660000000000002
 20
10.17543289325507
 30
0
 11
4.835000000000004
 21
10.35043289325507
 31
0
  0
LINE
  8
0
 62
7
 10
4.660000000000002
 20
9.963300858899105
 30
0
 11
4.835000000000004
 21
10.13830085889911
 31
0
  0
LINE
  8
0
 62
7
 10
4.660000000000002
 20
9.751168824543141
 30
0
 11
4.835000000000004
 21
9.926168824543142
 31
0
  0
LINE
  8
0
 62
7
 10
4.660000000000002
 20
9.539036790187177
 30
0
 11
4.835000000000004
 21
9.714036790187178
 31
0
  0
LINE
  8
0
 62
7
 10
4.660000000000002
 20
9.326904755831213
 30
0
 11
4.835000000000004
 21
9.501904755831214
 31
0
  0
LINE
  8
0
 62
7
 10
4.660000000000002
 20
9.11477272147525
 30
0
 11
4.835000000000004
 21
9.28977272147525
 31
0
  0
LINE
  8
0
 62
7
 10
4.660000000000002
 20
8.902640687119286
 30
0
 11
4.835000000000004
 21
9.077640687119287
 31
0
  0
LINE
  8
0
 62
7
 10
4.660000000000002
 20
8.690508652763322
 30
0
 11
4.835000000000004
 21
8.865508652763323
 31
0
  0
LINE
  8
0
 62
7
 10
4.660000000000002
 20
8.478376618407358
 30
0
 11
4.835000000000004
 21
8.653376618407359
 31
0
  0
LINE
  8
0
 62
7
 10
4.693755415948607
 20
8.299999999999997
 30
0
 11
4.835000000000004
 21
8.441244584051395
 31
0
  0
ENDBLK
  8
0
  0
BLOCK
  8
0
  2
*X5
 70
1
 10
0
 20
0
 30
0
  0
LINE
  8
0
 62
7
 10
4.660000000000002
 20
11.13002704785691
 30
0
 11
4.729972952143091
 21
11.2
 31
0
  0
LINE
  8
0
 62
7
 10
4.792104986499057
 20
11.05
 30
0
 11
4.835000000000003
 21
11.09289501350095
 31
0
  0
LINE
  8
0
 62
7
 10
4.686038969321075
 20
11.05
 30
0
 11
4.835000000000003
 21
11.19896103067893
 31
0
  0
ENDBLK
  8
0
  0
BLOCK
  8
0
  2
*X6
 70
1
 10
0
 20
0
 30
0
  0
LINE
  8
0
 62
7
  6
DASHED
 10
0.9500000000000011
 20
8.268555185280768
 30
0
 11
0.9814448147192318
 21
8.299999999999997
 31
0
  0
LINE
  8
0
 62
7
  6
DASHED
 10
0.9935768490751955
 20
8.099999999999996
 30
0
 11
1.193576849075196
 21
8.299999999999997
 31
0
  0
LINE
  8
0
 62
7
  6
DASHED
 10
1.20570888343116
 20
8.099999999999996
 30
0
 11
1.40570888343116
 21
8.299999999999997
 31
0
  0
LINE
  8
0
 62
7
  6
DASHED
 10
1.417840917787124
 20
8.099999999999996
 30
0
 11
1.617840917787125
 21
8.299999999999997
 31
0
  0
LINE
  8
0
 62
7
  6
DASHED
 10
1.629972952143088
 20
8.099999999999996
 30
0
 11
1.829972952143089
 21
8.299999999999997
 31
0
  0
LINE
  8
0
 62
7
  6
DASHED
 10
1.842104986499053
 20
8.099999999999996
 30
0
 11
2.042104986499053
 21
8.299999999999997
 31
0
  0
LINE
  8
0
 62
7
  6
DASHED
 10
2.054237020855017
 20
8.099999999999996
 30
0
 11
2.254237020855018
 21
8.299999999999997
 31
0
  0
LINE
  8
0
 62
7
  6
DASHED
 10
2.266369055210981
 20
8.099999999999996
 30
0
 11
2.466369055210982
 21
8.299999999999997
 31
0
  0
LINE
  8
0
 62
7
  6
DASHED
 10
2.478501089566945
 20
8.099999999999996
 30
0
 11
2.678501089566946
 21
8.299999999999997
 31
0
  0
LINE
  8
0
 62
7
  6
DASHED
 10
2.69063312392291
 20
8.099999999999996
 30
0
 11
2.89063312392291
 21
8.299999999999997
 31
0
  0
LINE
  8
0
 62
7
  6
DASHED
 10
2.902765158278874
 20
8.099999999999996
 30
0
 11
3.102765158278875
 21
8.299999999999997
 31
0
  0
LINE
  8
0
 62
7
  6
DASHED
 10
3.114897192634838
 20
8.099999999999996
 30
0
 11
3.314897192634839
 21
8.299999999999997
 31
0
  0
LINE
  8
0
 62
7
  6
DASHED
 10
3.327029226990803
 20
8.099999999999996
 30
0
 11
3.527029226990803
 21
8.299999999999997
 31
0
  0
LINE
  8
0
 62
7
  6
DASHED
 10
3.539161261346767
 20
8.099999999999996
 30
0
 11
3.739161261346768
 21
8.299999999999997
 31
0
  0
LINE
  8
0
 62
7
  6
DASHED
 10
3.751293295702731
 20
8.099999999999996
 30
0
 11
3.951293295702732
 21
8.299999999999997
 31
0
  0
LINE
  8
0
 62
7
  6
DASHED
 10
3.963425330058695
 20
8.099999999999996
 30
0
 11
4.163425330058696
 21
8.299999999999997
 31
0
  0
LINE
  8
0
 62
7
  6
DASHED
 10
4.17555736441466
 20
8.099999999999996
 30
0
 11
4.37555736441466
 21
8.299999999999997
 31
0
  0
LINE
  8
0
 62
7
  6
DASHED
 10
4.387689398770624
 20
8.099999999999996
 30
0
 11
4.587689398770624
 21
8.299999999999997
 31
0
  0
LINE
  8
0
 62
7
  6
DASHED
 10
4.599821433126587
 20
8.099999999999996
 30
0
 11
4.799821433126588
 21
8.299999999999997
 31
0
  0
LINE
  8
0
 62
7
  6
DASHED
 10
4.811953467482551
 20
8.099999999999996
 30
0
 11
4.985000000000003
 21
8.273046532517448
 31
0
  0
LINE
  8
0
 62
7
 10
0.9500000000000015
 20
8.162489168102784
 30
0
 11
1.087510831897215
 21
8.299999999999997
 31
0
  0
LINE
  8
0
 62
7
 10
1.09964286625318
 20
8.099999999999998
 30
0
 11
1.299642866253179
 21
8.299999999999997
 31
0
  0
LINE
  8
0
 62
7
 10
1.311774900609144
 20
8.099999999999998
 30
0
 11
1.511774900609144
 21
8.299999999999997
 31
0
  0
LINE
  8
0
 62
7
 10
1.523906934965108
 20
8.099999999999998
 30
0
 11
1.723906934965108
 21
8.299999999999997
 31
0
  0
LINE
  8
0
 62
7
 10
1.736038969321072
 20
8.099999999999998
 30
0
 11
1.936038969321072
 21
8.299999999999997
 31
0
  0
LINE
  8
0
 62
7
 10
1.948171003677037
 20
8.099999999999998
 30
0
 11
2.148171003677037
 21
8.299999999999997
 31
0
  0
LINE
  8
0
 62
7
 10
2.160303038033001
 20
8.099999999999998
 30
0
 11
2.360303038033001
 21
8.299999999999997
 31
0
  0
LINE
  8
0
 62
7
 10
2.372435072388965
 20
8.099999999999998
 30
0
 11
2.572435072388965
 21
8.299999999999997
 31
0
  0
LINE
  8
0
 62
7
 10
2.58456710674493
 20
8.099999999999998
 30
0
 11
2.784567106744929
 21
8.299999999999997
 31
0
  0
LINE
  8
0
 62
7
 10
2.796699141100894
 20
8.099999999999998
 30
0
 11
2.996699141100894
 21
8.299999999999997
 31
0
  0
LINE
  8
0
 62
7
 10
3.008831175456858
 20
8.099999999999998
 30
0
 11
3.208831175456858
 21
8.299999999999997
 31
0
  0
LINE
  8
0
 62
7
 10
3.220963209812822
 20
8.099999999999998
 30
0
 11
3.420963209812822
 21
8.299999999999997
 31
0
  0
LINE
  8
0
 62
7
 10
3.433095244168787
 20
8.099999999999998
 30
0
 11
3.633095244168786
 21
8.299999999999997
 31
0
  0
LINE
  8
0
 62
7
 10
3.645227278524751
 20
8.099999999999998
 30
0
 11
3.845227278524751
 21
8.299999999999997
 31
0
  0
LINE
  8
0
 62
7
 10
3.857359312880715
 20
8.099999999999998
 30
0
 11
4.057359312880715
 21
8.299999999999997
 31
0
  0
LINE
  8
0
 62
7
 10
4.06949134723668
 20
8.099999999999998
 30
0
 11
4.269491347236679
 21
8.299999999999997
 31
0
  0
LINE
  8
0
 62
7
 10
4.281623381592643
 20
8.099999999999998
 30
0
 11
4.481623381592643
 21
8.299999999999997
 31
0
  0
LINE
  8
0
 62
7
 10
4.493755415948607
 20
8.099999999999998
 30
0
 11
4.693755415948607
 21
8.299999999999997
 31
0
  0
LINE
  8
0
 62
7
 10
4.705887450304571
 20
8.099999999999998
 30
0
 11
4.90588745030457
 21
8.299999999999997
 31
0
  0
LINE
  8
0
 62
7
 10
4.918019484660535
 20
8.099999999999998
 30
0
 11
4.985000000000003
 21
8.166980515339466
 31
0
  0
ENDBLK
  8
0
  0
BLOCK
  8
0
  2
*X7
 70
1
 10
0
 20
0
 30
0
  0
LINE
  8
0
 62
7
  6
DASHED
 10
0.9500000000000011
 20
11.0262716319083
 30
0
 11
0.973728368091701
 21
11.05
 31
0
  0
LINE
  8
0
 62
7
  6
DASHED
 10
0.9858604024476638
 20
10.85
 30
0
 11
1.185860402447665
 21
11.05
 31
0
  0
LINE
  8
0
 62
7
  6
DASHED
 10
1.197992436803628
 20
10.85
 30
0
 11
1.39799243680363
 21
11.05
 31
0
  0
LINE
  8
0
 62
7
  6
DASHED
 10
1.410124471159592
 20
10.85
 30
0
 11
1.610124471159594
 21
11.05
 31
0
  0
LINE
  8
0
 62
7
  6
DASHED
 10
1.622256505515557
 20
10.85
 30
0
 11
1.822256505515558
 21
11.05
 31
0
  0
LINE
  8
0
 62
7
  6
DASHED
 10
1.834388539871521
 20
10.85
 30
0
 11
2.034388539871522
 21
11.05
 31
0
  0
LINE
  8
0
 62
7
  6
DASHED
 10
2.046520574227485
 20
10.85
 30
0
 11
2.246520574227487
 21
11.05
 31
0
  0
LINE
  8
0
 62
7
  6
DASHED
 10
2.25865260858345
 20
10.85
 30
0
 11
2.458652608583451
 21
11.05
 31
0
  0
LINE
  8
0
 62
7
  6
DASHED
 10
2.470784642939414
 20
10.85
 30
0
 11
2.670784642939415
 21
11.05
 31
0
  0
LINE
  8
0
 62
7
  6
DASHED
 10
2.682916677295378
 20
10.85
 30
0
 11
2.88291667729538
 21
11.05
 31
0
  0
LINE
  8
0
 62
7
  6
DASHED
 10
2.895048711651342
 20
10.85
 30
0
 11
3.095048711651344
 21
11.05
 31
0
  0
LINE
  8
0
 62
7
  6
DASHED
 10
3.107180746007307
 20
10.85
 30
0
 11
3.307180746007308
 21
11.05
 31
0
  0
LINE
  8
0
 62
7
  6
DASHED
 10
3.319312780363271
 20
10.85
 30
0
 11
3.519312780363272
 21
11.05
 31
0
  0
LINE
  8
0
 62
7
  6
DASHED
 10
3.531444814719235
 20
10.85
 30
0
 11
3.731444814719237
 21
11.05
 31
0
  0
LINE
  8
0
 62
7
  6
DASHED
 10
3.743576849075199
 20
10.85
 30
0
 11
3.943576849075201
 21
11.05
 31
0
  0
LINE
  8
0
 62
7
  6
DASHED
 10
3.955708883431164
 20
10.85
 30
0
 11
4.155708883431165
 21
11.05
 31
0
  0
LINE
  8
0
 62
7
  6
DASHED
 10
4.167840917787128
 20
10.85
 30
0
 11
4.367840917787129
 21
11.05
 31
0
  0
LINE
  8
0
 62
7
  6
DASHED
 10
4.379972952143092
 20
10.85
 30
0
 11
4.579972952143093
 21
11.05
 31
0
  0
LINE
  8
0
 62
7
  6
DASHED
 10
4.592104986499056
 20
10.85
 30
0
 11
4.792104986499057
 21
11.05
 31
0
  0
LINE
  8
0
 62
7
  6
DASHED
 10
4.80423702085502
 20
10.85
 30
0
 11
4.985000000000004
 21
11.03076297914498
 31
0
  0
LINE
  8
0
 62
7
 10
0.9500000000000002
 20
10.92020561473032
 30
0
 11
1.079794385269682
 21
11.05
 31
0
  0
LINE
  8
0
 62
7
 10
1.091926419625647
 20
10.85
 30
0
 11
1.291926419625646
 21
11.05
 31
0
  0
LINE
  8
0
 62
7
 10
1.304058453981611
 20
10.85
 30
0
 11
1.50405845398161
 21
11.05
 31
0
  0
LINE
  8
0
 62
7
 10
1.516190488337576
 20
10.85
 30
0
 11
1.716190488337574
 21
11.05
 31
0
  0
LINE
  8
0
 62
7
 10
1.72832252269354
 20
10.85
 30
0
 11
1.928322522693539
 21
11.05
 31
0
  0
LINE
  8
0
 62
7
 10
1.940454557049504
 20
10.85
 30
0
 11
2.140454557049503
 21
11.05
 31
0
  0
LINE
  8
0
 62
7
 10
2.152586591405468
 20
10.85
 30
0
 11
2.352586591405467
 21
11.05
 31
0
  0
LINE
  8
0
 62
7
 10
2.364718625761433
 20
10.85
 30
0
 11
2.564718625761432
 21
11.05
 31
0
  0
LINE
  8
0
 62
7
 10
2.576850660117397
 20
10.85
 30
0
 11
2.776850660117396
 21
11.05
 31
0
  0
LINE
  8
0
 62
7
 10
2.788982694473361
 20
10.85
 30
0
 11
2.98898269447336
 21
11.05
 31
0
  0
LINE
  8
0
 62
7
 10
3.001114728829326
 20
10.85
 30
0
 11
3.201114728829324
 21
11.05
 31
0
  0
LINE
  8
0
 62
7
 10
3.21324676318529
 20
10.85
 30
0
 11
3.413246763185289
 21
11.05
 31
0
  0
LINE
  8
0
 62
7
 10
3.425378797541254
 20
10.85
 30
0
 11
3.625378797541253
 21
11.05
 31
0
  0
LINE
  8
0
 62
7
 10
3.637510831897218
 20
10.85
 30
0
 11
3.837510831897217
 21
11.05
 31
0
  0
LINE
  8
0
 62
7
 10
3.849642866253183
 20
10.85
 30
0
 11
4.049642866253182
 21
11.05
 31
0
  0
LINE
  8
0
 62
7
 10
4.061774900609147
 20
10.85
 30
0
 11
4.261774900609145
 21
11.05
 31
0
  0
LINE
  8
0
 62
7
 10
4.273906934965111
 20
10.85
 30
0
 11
4.473906934965109
 21
11.05
 31
0
  0
LINE
  8
0
 62
7
 10
4.486038969321075
 20
10.85
 30
0
 11
4.686038969321073
 21
11.05
 31
0
  0
LINE
  8
0
 62
7
 10
4.698171003677039
 20
10.85
 30
0
 11
4.898171003677037
 21
11.05
 31
0
  0
LINE
  8
0
 62
7
 10
4.910303038033002
 20
10.85
 30
0
 11
4.985000000000002
 21
10.924696961967
 31
0
  0
ENDBLK
  8
0
  0
BLOCK
  8
0
  2
*X8
 70
1
 10
0
 20
0
 30
0
  0
LINE
  8
0
 62
7
 10
7.960000000000005
 20
8.066066017177986
 30
0
 11
7.993933982822015
 21
8.099999999999998
 31
0
  0
LINE
  8
0
 62
7
 10
8.056066017177983
 20
7.949999999999998
 30
0
 11
8.200000000000006
 21
8.093933982822021
 31
0
  0
LINE
  8
0
 62
7
 10
7.960000000000004
 20
7.960000000000004
 30
0
 11
8.099999999999998
 21
8.099999999999998
 31
0
  0
LINE
  8
0
 62
7
 10
8.162132034355965
 20
7.949999999999999
 30
0
 11
8.200000000000005
 21
7.987867965644041
 31
0
  0
ENDBLK
  8
0
  0
BLOCK
  8
0
  2
*X9
 70
1
 10
0
 20
0
 30
0
  0
LINE
  8
0
 62
7
 10
7.960000000000006
 20
10.82378246380552
 30
0
 11
7.986217536194484
 21
10.85
 31
0
  0
LINE
  8
0
 62
7
 10
7.960000000000006
 20
10.61165042944955
 30
0
 11
8.198349570550448
 21
10.85
 31
0
  0
LINE
  8
0
 62
7
 10
7.960000000000006
 20
10.39951839509359
 30
0
 11
8.200000000000005
 21
10.63951839509359
 31
0
  0
LINE
  8
0
 62
7
 10
7.960000000000006
 20
10.18738636073763
 30
0
 11
8.200000000000005
 21
10.42738636073762
 31
0
  0
LINE
  8
0
 62
7
 10
7.960000000000006
 20
9.975254326381663
 30
0
 11
8.200000000000005
 21
10.21525432638166
 31
0
  0
LINE
  8
0
 62
7
 10
7.960000000000006
 20
9.763122292025699
 30
0
 11
8.200000000000005
 21
10.0031222920257
 31
0
  0
LINE
  8
0
 62
7
 10
7.960000000000006
 20
9.550990257669735
 30
0
 11
8.200000000000005
 21
9.790990257669733
 31
0
  0
LINE
  8
0
 62
7
 10
7.960000000000006
 20
9.338858223313771
 30
0
 11
8.200000000000005
 21
9.57885822331377
 31
0
  0
LINE
  8
0
 62
7
 10
7.960000000000006
 20
9.126726188957807
 30
0
 11
8.200000000000005
 21
9.366726188957806
 31
0
  0
LINE
  8
0
 62
7
 10
7.960000000000006
 20
8.914594154601843
 30
0
 11
8.200000000000005
 21
9.154594154601842
 31
0
  0
LINE
  8
0
 62
7
 10
7.960000000000006
 20
8.70246212024588
 30
0
 11
8.200000000000005
 21
8.942462120245878
 31
0
  0
LINE
  8
0
 62
7
 10
7.960000000000006
 20
8.490330085889916
 30
0
 11
8.200000000000005
 21
8.730330085889914
 31
0
  0
LINE
  8
0
 62
7
 10
7.98180194846605
 20
8.299999999999997
 30
0
 11
8.200000000000005
 21
8.51819805153395
 31
0
  0
LINE
  8
0
 62
7
 10
8.193933982822013
 20
8.299999999999997
 30
0
 11
8.200000000000005
 21
8.306066017177987
 31
0
  0
LINE
  8
0
 62
7
 10
7.960000000000004
 20
10.71771644662753
 30
0
 11
8.092283553372464
 21
10.85
 31
0
  0
LINE
  8
0
 62
7
 10
7.960000000000004
 20
10.50558441227157
 30
0
 11
8.200000000000006
 21
10.74558441227157
 31
0
  0
LINE
  8
0
 62
7
 10
7.960000000000004
 20
10.2934523779156
 30
0
 11
8.200000000000006
 21
10.53345237791561
 31
0
  0
LINE
  8
0
 62
7
 10
7.960000000000004
 20
10.08132034355964
 30
0
 11
8.200000000000006
 21
10.32132034355964
 31
0
  0
LINE
  8
0
 62
7
 10
7.960000000000004
 20
9.869188309203677
 30
0
 11
8.200000000000006
 21
10.10918830920368
 31
0
  0
LINE
  8
0
 62
7
 10
7.960000000000004
 20
9.657056274847713
 30
0
 11
8.200000000000006
 21
9.897056274847715
 31
0
  0
LINE
  8
0
 62
7
 10
7.960000000000004
 20
9.44492424049175
 30
0
 11
8.200000000000006
 21
9.684924240491751
 31
0
  0
LINE
  8
0
 62
7
 10
7.960000000000004
 20
9.232792206135786
 30
0
 11
8.200000000000006
 21
9.472792206135788
 31
0
  0
LINE
  8
0
 62
7
 10
7.960000000000004
 20
9.020660171779822
 30
0
 11
8.200000000000006
 21
9.260660171779824
 31
0
  0
LINE
  8
0
 62
7
 10
7.960000000000004
 20
8.808528137423858
 30
0
 11
8.200000000000006
 21
9.04852813742386
 31
0
  0
LINE
  8
0
 62
7
 10
7.960000000000004
 20
8.596396103067894
 30
0
 11
8.200000000000006
 21
8.836396103067896
 31
0
  0
LINE
  8
0
 62
7
 10
7.960000000000004
 20
8.38426406871193
 30
0
 11
8.200000000000006
 21
8.624264068711932
 31
0
  0
LINE
  8
0
 62
7
 10
8.087867965644033
 20
8.299999999999995
 30
0
 11
8.200000000000006
 21
8.412132034355968
 31
0
  0
ENDBLK
  8
0
  0
BLOCK
  8
0
  2
*X10
 70
1
 10
0
 20
0
 30
0
  0
LINE
  8
0
 62
7
 10
7.97408550183852
 20
11.05
 30
0
 11
8.12408550183852
 21
11.2
 31
0
  0
LINE
  8
0
 62
7
 10
8.186217536194484
 20
11.05
 30
0
 11
8.200000000000005
 21
11.06378246380552
 31
0
  0
LINE
  8
0
 62
7
 10
7.960000000000005
 20
11.14198051533947
 30
0
 11
8.018019484660535
 21
11.2
 31
0
  0
LINE
  8
0
 62
7
 10
8.0801515190165
 20
11.05
 30
0
 11
8.200000000000003
 21
11.1698484809835
 31
0
  0
ENDBLK
  8
0
  0
BLOCK
  8
0
  2
*X11
 70
1
 10
0
 20
0
 30
0
  0
LINE
  8
0
 62
7
  6
DASHED
 10
6.260000000000002
 20
8.275254326381662
 30
0
 11
6.284745673618338
 21
8.299999999999997
 31
0
  0
LINE
  8
0
 62
7
  6
DASHED
 10
6.296877707974303
 20
8.099999999999996
 30
0
 11
6.496877707974302
 21
8.299999999999997
 31
0
  0
LINE
  8
0
 62
7
  6
DASHED
 10
6.509009742330266
 20
8.099999999999996
 30
0
 11
6.560000000000003
 21
8.150990257669735
 31
0
  0
LINE
  8
0
 62
7
 10
6.260000000000002
 20
8.16918830920368
 30
0
 11
6.39081169079632
 21
8.299999999999997
 31
0
  0
LINE
  8
0
 62
7
 10
6.402943725152284
 20
8.099999999999996
 30
0
 11
6.560000000000003
 21
8.257056274847717
 31
0
  0
ENDBLK
  8
0
  0
BLOCK
  8
0
  2
*X12
 70
1
 10
0
 20
0
 30
0
  0
LINE
  8
0
 62
7
  6
DASHED
 10
6.260000000000002
 20
11.0329707730092
 30
0
 11
6.277029226990805
 21
11.05
 31
0
  0
LINE
  8
0
 62
7
  6
DASHED
 10
6.289161261346768
 20
10.85
 30
0
 11
6.489161261346769
 21
11.05
 31
0
  0
LINE
  8
0
 62
7
  6
DASHED
 10
6.501293295702732
 20
10.85
 30
0
 11
6.560000000000002
 21
10.90870670429727
 31
0
  0
LINE
  8
0
 62
7
 10
6.260000000000001
 20
10.92690475583121
 30
0
 11
6.38309524416879
 21
11.05
 31
0
  0
LINE
  8
0
 62
7
 10
6.395227278524754
 20
10.85
 30
0
 11
6.560000000000002
 21
11.01477272147525
 31
0
  0
ENDBLK
  8
0
  0
BLOCK
  8
0
  2
*X13
 70
1
 10
0
 20
0
 30
0
  0
LINE
  8
0
 62
7
  6
DASHED
 10
7.960000000000003
 20
11.03591449816148
 30
0
 11
7.97408550183852
 21
11.05
 31
0
  0
LINE
  8
0
 62
7
  6
DASHED
 10
7.986217536194484
 20
10.85
 30
0
 11
8.186217536194484
 21
11.05
 31
0
  0
LINE
  8
0
 62
7
  6
DASHED
 10
8.198349570550448
 20
10.85
 30
0
 11
8.200000000000005
 21
10.85165042944956
 31
0
  0
LINE
  8
0
 62
7
 10
7.960000000000005
 20
10.9298484809835
 30
0
 11
8.0801515190165
 21
11.05
 31
0
  0
LINE
  8
0
 62
7
 10
8.092283553372464
 20
10.85
 30
0
 11
8.200000000000005
 21
10.95771644662754
 31
0
  0
ENDBLK
  8
0
  0
BLOCK
  8
0
  2
*X14
 70
1
 10
0
 20
0
 30
0
  0
LINE
  8
0
 62
7
  6
DASHED
 10
7.960000000000005
 20
8.278198051533952
 30
0
 11
7.98180194846605
 21
8.299999999999997
 31
0
  0
LINE
  8
0
 62
7
  6
DASHED
 10
7.993933982822015
 20
8.099999999999998
 30
0
 11
8.193933982822013
 21
8.299999999999997
 31
0
  0
LINE
  8
0
 62
7
 10
7.960000000000004
 20
8.172132034355968
 30
0
 11
8.087867965644033
 21
8.299999999999995
 31
0
  0
LINE
  8
0
 62
7
 10
8.099999999999998
 20
8.099999999999998
 30
0
 11
8.200000000000005
 21
8.200000000000003
 31
0
  0
ENDBLK
  8
0
  0
BLOCK
  8
0
  2
*X15
 70
1
 10
0
 20
0
 30
0
  0
LINE
  8
0
 62
7
 10
0.9350000000000005
 20
5.071574669941303
 30
0
 11
1.275000000000001
 21
5.411574669941304
 31
0
  0
LINE
  8
0
 62
7
 10
1.105557364414663
 20
5.029999999999999
 30
0
 11
1.345557364414659
 21
5.269999999999997
 31
0
  0
LINE
  8
0
 62
7
 10
1.317689398770627
 20
5.029999999999999
 30
0
 11
1.557689398770624
 21
5.269999999999997
 31
0
  0
LINE
  8
0
 62
7
 10
1.529821433126592
 20
5.029999999999999
 30
0
 11
1.769821433126588
 21
5.269999999999997
 31
0
  0
LINE
  8
0
 62
7
 10
1.741953467482556
 20
5.029999999999999
 30
0
 11
1.981953467482552
 21
5.269999999999997
 31
0
  0
LINE
  8
0
 62
7
 10
1.95408550183852
 20
5.029999999999999
 30
0
 11
2.194085501838516
 21
5.269999999999997
 31
0
  0
LINE
  8
0
 62
7
 10
2.166217536194484
 20
5.029999999999999
 30
0
 11
2.406217536194481
 21
5.269999999999997
 31
0
  0
LINE
  8
0
 62
7
 10
2.378349570550449
 20
5.029999999999999
 30
0
 11
2.618349570550445
 21
5.269999999999997
 31
0
  0
LINE
  8
0
 62
7
 10
2.590481604906413
 20
5.029999999999999
 30
0
 11
2.830481604906409
 21
5.269999999999997
 31
0
  0
LINE
  8
0
 62
7
 10
2.802613639262377
 20
5.029999999999999
 30
0
 11
3.042613639262373
 21
5.269999999999997
 31
0
  0
LINE
  8
0
 62
7
 10
3.014745673618342
 20
5.029999999999999
 30
0
 11
3.254745673618338
 21
5.269999999999997
 31
0
  0
LINE
  8
0
 62
7
 10
3.226877707974306
 20
5.029999999999999
 30
0
 11
3.466877707974302
 21
5.269999999999997
 31
0
  0
LINE
  8
0
 62
7
 10
3.43900974233027
 20
5.029999999999999
 30
0
 11
3.679009742330266
 21
5.269999999999997
 31
0
  0
LINE
  8
0
 62
7
 10
3.651141776686234
 20
5.029999999999999
 30
0
 11
3.891141776686231
 21
5.269999999999997
 31
0
  0
LINE
  8
0
 62
7
 10
3.863273811042199
 20
5.029999999999999
 30
0
 11
4.103273811042195
 21
5.269999999999997
 31
0
  0
LINE
  8
0
 62
7
 10
4.075405845398163
 20
5.029999999999999
 30
0
 11
4.315405845398159
 21
5.269999999999997
 31
0
  0
LINE
  8
0
 62
7
 10
4.660000000000002
 20
5.402462120245876
 30
0
 11
4.677537879754123
 21
5.419999999999997
 31
0
  0
LINE
  8
0
 62
7
 10
4.287537879754127
 20
5.029999999999999
 30
0
 11
4.527537879754123
 21
5.269999999999997
 31
0
  0
LINE
  8
0
 62
7
 10
4.499669914110091
 20
5.029999999999999
 30
0
 11
4.835000000000003
 21
5.365330085889913
 31
0
  0
LINE
  8
0
 62
7
 10
4.711801948466054
 20
5.029999999999999
 30
0
 11
4.951801948466052
 21
5.269999999999997
 31
0
  0
LINE
  8
0
 62
7
 10
4.923933982822018
 20
5.029999999999999
 30
0
 11
4.985000000000003
 21
5.091066017177984
 31
0
  0
LINE
  8
0
 62
7
 10
1.100000000000001
 20
5.342640687119285
 30
0
 11
1.177359312880713
 21
5.419999999999998
 31
0
  0
LINE
  8
0
 62
7
 10
0.9350000000000009
 20
5.177640687119286
 30
0
 11
1.027359312880713
 21
5.269999999999998
 31
0
  0
LINE
  8
0
 62
7
 10
0.9994913472366806
 20
5.029999999999999
 30
0
 11
1.275000000000001
 21
5.30550865276332
 31
0
  0
LINE
  8
0
 62
7
 10
1.211623381592645
 20
5.029999999999999
 30
0
 11
1.451623381592641
 21
5.269999999999997
 31
0
  0
LINE
  8
0
 62
7
 10
1.423755415948609
 20
5.029999999999999
 30
0
 11
1.663755415948605
 21
5.269999999999997
 31
0
  0
LINE
  8
0
 62
7
 10
1.635887450304573
 20
5.029999999999999
 30
0
 11
1.87588745030457
 21
5.269999999999997
 31
0
  0
LINE
  8
0
 62
7
 10
1.848019484660538
 20
5.029999999999999
 30
0
 11
2.088019484660534
 21
5.269999999999997
 31
0
  0
LINE
  8
0
 62
7
 10
2.060151519016502
 20
5.029999999999999
 30
0
 11
2.300151519016498
 21
5.269999999999997
 31
0
  0
LINE
  8
0
 62
7
 10
2.272283553372466
 20
5.029999999999999
 30
0
 11
2.512283553372463
 21
5.269999999999997
 31
0
  0
LINE
  8
0
 62
7
 10
2.484415587728431
 20
5.029999999999999
 30
0
 11
2.724415587728427
 21
5.269999999999997
 31
0
  0
LINE
  8
0
 62
7
 10
2.696547622084395
 20
5.029999999999999
 30
0
 11
2.936547622084391
 21
5.269999999999997
 31
0
  0
LINE
  8
0
 62
7
 10
2.908679656440359
 20
5.029999999999999
 30
0
 11
3.148679656440355
 21
5.269999999999997
 31
0
  0
LINE
  8
0
 62
7
 10
3.120811690796323
 20
5.029999999999999
 30
0
 11
3.36081169079632
 21
5.269999999999997
 31
0
  0
LINE
  8
0
 62
7
 10
3.332943725152288
 20
5.029999999999999
 30
0
 11
3.572943725152284
 21
5.269999999999997
 31
0
  0
LINE
  8
0
 62
7
 10
3.545075759508252
 20
5.029999999999999
 30
0
 11
3.785075759508248
 21
5.269999999999997
 31
0
  0
LINE
  8
0
 62
7
 10
3.757207793864216
 20
5.029999999999999
 30
0
 11
3.997207793864213
 21
5.269999999999997
 31
0
  0
LINE
  8
0
 62
7
 10
3.969339828220181
 20
5.029999999999999
 30
0
 11
4.209339828220177
 21
5.269999999999997
 31
0
  0
LINE
  8
0
 62
7
 10
4.181471862576145
 20
5.029999999999999
 30
0
 11
4.421471862576141
 21
5.269999999999997
 31
0
  0
LINE
  8
0
 62
7
 10
4.660000000000002
 20
5.296396103067894
 30
0
 11
4.783603896932105
 21
5.419999999999997
 31
0
  0
LINE
  8
0
 62
7
 10
4.393603896932109
 20
5.029999999999999
 30
0
 11
4.633603896932105
 21
5.269999999999997
 31
0
  0
LINE
  8
0
 62
7
 10
4.605735931288073
 20
5.029999999999999
 30
0
 11
4.845735931288069
 21
5.269999999999997
 31
0
  0
LINE
  8
0
 62
7
 10
4.817867965644036
 20
5.029999999999999
 30
0
 11
4.985000000000003
 21
5.197132034355966
 31
0
  0
ENDBLK
  8
0
  0
BLOCK
  8
0
  2
*X16
 70
1
 10
0
 20
0
 30
0
  0
LINE
  8
0
 62
7
 10
0.9350000000000005
 20
4.859442635585339
 30
0
 11
1.065557364414663
 21
4.989999999999999
 31
0
  0
LINE
  8
0
 62
7
 10
1.037689398770625
 20
4.75
 30
0
 11
1.277689398770627
 21
4.989999999999999
 31
0
  0
LINE
  8
0
 62
7
 10
1.100000000000001
 20
4.60017856687341
 30
0
 11
1.489821433126592
 21
4.989999999999999
 31
0
  0
LINE
  8
0
 62
7
 10
1.461953467482554
 20
4.749999999999999
 30
0
 11
1.701953467482556
 21
4.989999999999999
 31
0
  0
LINE
  8
0
 62
7
 10
1.100000000000001
 20
4.388046532517446
 30
0
 11
1.275000000000001
 21
4.563046532517445
 31
0
  0
LINE
  8
0
 62
7
 10
1.674085501838519
 20
4.749999999999999
 30
0
 11
1.91408550183852
 21
4.989999999999999
 31
0
  0
LINE
  8
0
 62
7
 10
1.100000000000001
 20
4.175914498161482
 30
0
 11
1.275000000000001
 21
4.350914498161481
 31
0
  0
LINE
  8
0
 62
7
 10
1.886217536194483
 20
4.749999999999999
 30
0
 11
2.126217536194484
 21
4.989999999999999
 31
0
  0
LINE
  8
0
 62
7
 10
1.100000000000001
 20
3.963782463805518
 30
0
 11
1.275000000000001
 21
4.138782463805518
 31
0
  0
LINE
  8
0
 62
7
 10
2.098349570550447
 20
4.749999999999999
 30
0
 11
2.338349570550449
 21
4.989999999999999
 31
0
  0
LINE
  8
0
 62
7
 10
1.100000000000001
 20
3.751650429449554
 30
0
 11
1.275000000000001
 21
3.926650429449554
 31
0
  0
LINE
  8
0
 62
7
 10
2.310481604906411
 20
4.749999999999999
 30
0
 11
2.550481604906413
 21
4.989999999999999
 31
0
  0
LINE
  8
0
 62
7
 10
1.100000000000001
 20
3.53951839509359
 30
0
 11
1.275000000000001
 21
3.714518395093589
 31
0
  0
LINE
  8
0
 62
7
 10
2.522613639262376
 20
4.749999999999999
 30
0
 11
2.762613639262377
 21
4.989999999999999
 31
0
  0
LINE
  8
0
 62
7
 10
1.122613639262376
 20
3.35
 30
0
 11
1.275000000000001
 21
3.502386360737625
 31
0
  0
LINE
  8
0
 62
7
 10
2.73474567361834
 20
4.749999999999999
 30
0
 11
2.974745673618342
 21
4.989999999999999
 31
0
  0
LINE
  8
0
 62
7
 10
2.946877707974304
 20
4.749999999999999
 30
0
 11
3.186877707974306
 21
4.989999999999999
 31
0
  0
LINE
  8
0
 62
7
 10
3.159009742330269
 20
4.749999999999999
 30
0
 11
3.39900974233027
 21
4.989999999999999
 31
0
  0
LINE
  8
0
 62
7
 10
3.371141776686233
 20
4.749999999999999
 30
0
 11
3.611141776686234
 21
4.989999999999999
 31
0
  0
LINE
  8
0
 62
7
 10
3.583273811042197
 20
4.749999999999999
 30
0
 11
3.823273811042199
 21
4.989999999999999
 31
0
  0
LINE
  8
0
 62
7
 10
3.795405845398161
 20
4.749999999999999
 30
0
 11
4.035405845398163
 21
4.989999999999999
 31
0
  0
LINE
  8
0
 62
7
 10
4.007537879754126
 20
4.749999999999999
 30
0
 11
4.247537879754127
 21
4.989999999999999
 31
0
  0
LINE
  8
0
 62
7
 10
4.21966991411009
 20
4.749999999999999
 30
0
 11
4.459669914110091
 21
4.989999999999999
 31
0
  0
LINE
  8
0
 62
7
 10
4.431801948466053
 20
4.749999999999999
 30
0
 11
4.671801948466054
 21
4.989999999999999
 31
0
  0
LINE
  8
0
 62
7
 10
4.643933982822017
 20
4.749999999999999
 30
0
 11
4.883933982822018
 21
4.989999999999999
 31
0
  0
LINE
  8
0
 62
7
 10
4.856066017177982
 20
4.749999999999999
 30
0
 11
4.985000000000003
 21
4.87893398282202
 31
0
  0
LINE
  8
0
 62
7
 10
4.660000000000003
 20
4.553933982822019
 30
0
 11
4.835000000000003
 21
4.728933982822019
 31
0
  0
LINE
  8
0
 62
7
 10
4.660000000000003
 20
4.341801948466055
 30
0
 11
4.835000000000003
 21
4.516801948466055
 31
0
  0
LINE
  8
0
 62
7
 10
4.660000000000003
 20
4.129669914110091
 30
0
 11
4.835000000000003
 21
4.304669914110091
 31
0
  0
LINE
  8
0
 62
7
 10
4.660000000000003
 20
3.917537879754128
 30
0
 11
4.835000000000003
 21
4.092537879754127
 31
0
  0
LINE
  8
0
 62
7
 10
4.660000000000003
 20
3.705405845398163
 30
0
 11
4.835000000000003
 21
3.880405845398163
 31
0
  0
LINE
  8
0
 62
7
 10
4.660000000000003
 20
3.493273811042199
 30
0
 11
4.835000000000003
 21
3.668273811042199
 31
0
  0
LINE
  8
0
 62
7
 10
4.660000000000002
 20
3.281141776686233
 30
0
 11
4.835000000000003
 21
3.456141776686235
 31
0
  0
LINE
  8
0
 62
7
 10
0.9350000000000005
 20
4.965508652763321
 30
0
 11
0.9594913472366806
 21
4.989999999999999
 31
0
  0
LINE
  8
0
 62
7
 10
0.9350000000000005
 20
4.753376618407357
 30
0
 11
1.171623381592645
 21
4.989999999999999
 31
0
  0
LINE
  8
0
 62
7
 10
1.100000000000001
 20
4.706244584051392
 30
0
 11
1.383755415948609
 21
4.989999999999999
 31
0
  0
LINE
  8
0
 62
7
 10
1.355887450304573
 20
4.749999999999999
 30
0
 11
1.595887450304573
 21
4.989999999999999
 31
0
  0
LINE
  8
0
 62
7
 10
1.100000000000001
 20
4.494112549695428
 30
0
 11
1.275000000000001
 21
4.669112549695428
 31
0
  0
LINE
  8
0
 62
7
 10
1.568019484660537
 20
4.749999999999999
 30
0
 11
1.808019484660538
 21
4.989999999999999
 31
0
  0
LINE
  8
0
 62
7
 10
1.100000000000001
 20
4.281980515339464
 30
0
 11
1.275000000000001
 21
4.456980515339464
 31
0
  0
LINE
  8
0
 62
7
 10
1.780151519016501
 20
4.749999999999999
 30
0
 11
2.020151519016502
 21
4.989999999999999
 31
0
  0
LINE
  8
0
 62
7
 10
1.100000000000001
 20
4.0698484809835
 30
0
 11
1.275000000000001
 21
4.2448484809835
 31
0
  0
LINE
  8
0
 62
7
 10
1.992283553372466
 20
4.749999999999999
 30
0
 11
2.232283553372466
 21
4.989999999999999
 31
0
  0
LINE
  8
0
 62
7
 10
1.100000000000001
 20
3.857716446627536
 30
0
 11
1.275000000000001
 21
4.032716446627536
 31
0
  0
LINE
  8
0
 62
7
 10
2.20441558772843
 20
4.749999999999999
 30
0
 11
2.444415587728431
 21
4.989999999999999
 31
0
  0
LINE
  8
0
 62
7
 10
1.100000000000001
 20
3.645584412271572
 30
0
 11
1.275000000000001
 21
3.820584412271572
 31
0
  0
LINE
  8
0
 62
7
 10
2.416547622084394
 20
4.749999999999999
 30
0
 11
2.656547622084395
 21
4.989999999999999
 31
0
  0
LINE
  8
0
 62
7
 10
1.100000000000001
 20
3.433452377915608
 30
0
 11
1.275000000000001
 21
3.608452377915608
 31
0
  0
LINE
  8
0
 62
7
 10
2.628679656440359
 20
4.749999999999999
 30
0
 11
2.868679656440359
 21
4.989999999999999
 31
0
  0
LINE
  8
0
 62
7
 10
1.228679656440357
 20
3.35
 30
0
 11
1.275000000000001
 21
3.396320343559644
 31
0
  0
LINE
  8
0
 62
7
 10
2.840811690796323
 20
4.749999999999999
 30
0
 11
3.080811690796323
 21
4.989999999999999
 31
0
  0
LINE
  8
0
 62
7
 10
3.052943725152287
 20
4.749999999999999
 30
0
 11
3.292943725152288
 21
4.989999999999999
 31
0
  0
LINE
  8
0
 62
7
 10
3.265075759508251
 20
4.749999999999999
 30
0
 11
3.505075759508252
 21
4.989999999999999
 31
0
  0
LINE
  8
0
 62
7
 10
3.477207793864216
 20
4.749999999999999
 30
0
 11
3.717207793864216
 21
4.989999999999999
 31
0
  0
LINE
  8
0
 62
7
 10
3.68933982822018
 20
4.749999999999999
 30
0
 11
3.929339828220181
 21
4.989999999999999
 31
0
  0
LINE
  8
0
 62
7
 10
3.901471862576144
 20
4.749999999999999
 30
0
 11
4.141471862576145
 21
4.989999999999999
 31
0
  0
LINE
  8
0
 62
7
 10
4.113603896932108
 20
4.749999999999999
 30
0
 11
4.353603896932109
 21
4.989999999999999
 31
0
  0
LINE
  8
0
 62
7
 10
4.325735931288072
 20
4.749999999999999
 30
0
 11
4.565735931288073
 21
4.989999999999999
 31
0
  0
LINE
  8
0
 62
7
 10
4.537867965644036
 20
4.749999999999999
 30
0
 11
4.777867965644036
 21
4.989999999999999
 31
0
  0
LINE
  8
0
 62
7
 10
4.660000000000002
 20
4.66
 30
0
 11
4.985000000000003
 21
4.985000000000002
 31
0
  0
LINE
  8
0
 62
7
 10
4.962132034355964
 20
4.749999999999999
 30
0
 11
4.985000000000003
 21
4.772867965644038
 31
0
  0
LINE
  8
0
 62
7
 10
4.660000000000002
 20
4.447867965644036
 30
0
 11
4.835000000000003
 21
4.622867965644037
 31
0
  0
LINE
  8
0
 62
7
 10
4.660000000000002
 20
4.235735931288072
 30
0
 11
4.835000000000003
 21
4.410735931288073
 31
0
  0
LINE
  8
0
 62
7
 10
4.660000000000002
 20
4.023603896932109
 30
0
 11
4.835000000000003
 21
4.198603896932109
 31
0
  0
LINE
  8
0
 62
7
 10
4.660000000000002
 20
3.811471862576144
 30
0
 11
4.835000000000003
 21
3.986471862576145
 31
0
  0
LINE
  8
0
 62
7
 10
4.660000000000002
 20
3.59933982822018
 30
0
 11
4.835000000000003
 21
3.774339828220181
 31
0
  0
LINE
  8
0
 62
7
 10
4.660000000000002
 20
3.387207793864217
 30
0
 11
4.835000000000003
 21
3.562207793864217
 31
0
  0
LINE
  8
0
 62
7
 10
4.73492424049175
 20
3.25
 30
0
 11
4.835000000000003
 21
3.350075759508253
 31
0
  0
ENDBLK
  8
0
  0
BLOCK
  8
0
  2
*D0
 70
1
 10
0
 20
0
 30
0
  0
LINE
  8
0
 62
7
 10
0.770747457843622
 20
10.18739509169364
 30
0
 11
0.770747457843622
 21
11.05
 31
0
  0
LINE
  8
0
 62
7
 10
0.770747457843622
 20
8.299999999999997
 30
0
 11
0.770747457843622
 21
9.10739509169364
 31
0
  0
LINE
  8
0
 62
7
 10
0.9500000000000011
 20
11.05
 30
0
 11
0.7207474578436219
 21
11.05
 31
0
  0
LINE
  8
0
 62
7
 10
0.9500000000000011
 20
8.299999999999997
 30
0
 11
0.7207474578436219
 21
8.299999999999997
 31
0
  0
LINE
  8
0
 62
7
 10
0.7353921187842946
 20
8.335355339059324
 30
0
 11
0.8061027969029494
 21
8.26464466094067
 31
0
  0
LINE
  8
0
 62
7
 10
0.8061027969029494
 20
11.01464466094067
 30
0
 11
0.7353921187842946
 21
11.08535533905933
 31
0
  0
TEXT
  8
0
 62
7
 10
0.7407474578436219
 20
9.509895091693641
 30
0
 40
0.1
  1
2,75
 50
90
 41
0.9
  0
TEXT
  8
0
 62
7
 10
0.900747457843622
 20
9.307395091693641
 30
0
 40
0.1
  1
(260-280)
 50
90
 41
0.9
  0
ENDBLK
  8
0
  0
BLOCK
  8
0
  2
*D1
 70
1
 10
0
 20
0
 30
0
  0
LINE
  8
0
 62
7
 10
3.318404955146749
 20
11.4628816073355
 30
0
 11
4.660000000000002
 21
11.4628816073355
 31
0
  0
LINE
  8
0
 62
7
 10
1.275000000000001
 20
11.4628816073355
 30
0
 11
2.64340495514675
 21
11.4628816073355
 31
0
  0
LINE
  8
0
 62
7
 10
4.660000000000002
 20
11.2
 30
0
 11
4.660000000000002
 21
11.5128816073355
 31
0
  0
LINE
  8
0
 62
7
 10
1.275000000000001
 20
11.2
 30
0
 11
1.275000000000001
 21
11.5128816073355
 31
0
  0
LINE
  8
0
 62
7
 10
1.310355339059328
 20
11.49823694639483
 30
0
 11
1.239644660940674
 21
11.42752626827617
 31
0
  0
LINE
  8
0
 62
7
 10
4.624644660940675
 20
11.42752626827617
 30
0
 11
4.695355339059329
 21
11.49823694639483
 31
0
  0
TEXT
  8
0
 62
7
 10
2.84340495514675
 20
11.4178816073355
 30
0
 40
0.1
  1
3,39
 41
0.9
  0
ENDBLK
  8
0
  0
BLOCK
  8
0
  2
*D2
 70
1
 10
0
 20
0
 30
0
  0
LINE
  8
0
 62
7
 10
5.08252793249303
 20
4.370567152103559
 30
0
 11
5.08252793249303
 21
4.749999999999999
 31
0
  0
LINE
  8
0
 62
7
 10
5.08252793249303
 20
3.25
 30
0
 11
5.08252793249303
 21
3.71556715210356
 31
0
  0
LINE
  8
0
 62
7
 10
4.835000000000003
 20
4.749999999999999
 30
0
 11
5.13252793249303
 21
4.749999999999999
 31
0
  0
LINE
  8
0
 62
7
 10
4.835000000000003
 20
3.25
 30
0
 11
5.13252793249303
 21
3.25
 31
0
  0
LINE
  8
0
 62
7
 10
5.047172593433703
 20
3.285355339059327
 30
0
 11
5.117883271552357
 21
3.214644660940673
 31
0
  0
LINE
  8
0
 62
7
 10
5.117883271552357
 20
4.714644660940672
 30
0
 11
5.047172593433703
 21
4.785355339059326
 31
0
  0
TEXT
  8
0
 62
7
 10
5.12752793249303
 20
3.96556715210356
 30
0
 40
0.1
  1
1,5
 50
90
 41
0.9
  0
ENDBLK
  8
0
  0
BLOCK
  8
0
  2
*D3
 70
1
 10
0
 20
0
 30
0
  0
LINE
  8
0
 62
7
 10
3.30920430789756
 20
5.59215075512406
 30
0
 11
4.660000000000002
 21
5.59215075512406
 31
0
  0
LINE
  8
0
 62
7
 10
1.275000000000001
 20
5.59215075512406
 30
0
 11
2.53420430789756
 21
5.59215075512406
 31
0
  0
LINE
  8
0
 62
7
 10
4.660000000000002
 20
5.269999999999997
 30
0
 11
4.660000000000002
 21
5.64215075512406
 31
0
  0
LINE
  8
0
 62
7
 10
1.275000000000001
 20
5.269999999999997
 30
0
 11
1.275000000000001
 21
5.64215075512406
 31
0
  0
LINE
  8
0
 62
7
 10
4.624644660940675
 20
5.556795416064733
 30
0
 11
4.695355339059329
 21
5.627506094183388
 31
0
  0
LINE
  8
0
 62
7
 10
1.310355339059328
 20
5.627506094183388
 30
0
 11
1.239644660940674
 21
5.556795416064733
 31
0
  0
TEXT
  8
0
 62
7
 10
2.78420430789756
 20
5.54715075512406
 30
0
 40
0.1
  1
3,39
 41
0.9
  0
ENDBLK
  8
0
  0
BLOCK
  8
0
  2
*D4
 70
1
 10
0
 20
0
 30
0
  0
LINE
  8
0
 62
7
 10
0.751013908760558
 20
4.44950134843581
 30
0
 11
0.751013908760558
 21
4.75
 31
0
  0
LINE
  8
0
 62
7
 10
0.751013908760558
 20
3.35
 30
0
 11
0.751013908760558
 21
3.79450134843581
 31
0
  0
LINE
  8
0
 62
7
 10
1.100000000000001
 20
4.75
 30
0
 11
0.7010139087605579
 21
4.75
 31
0
  0
LINE
  8
0
 62
7
 10
1.100000000000001
 20
3.35
 30
0
 11
0.7010139087605579
 21
3.35
 31
0
  0
LINE
  8
0
 62
7
 10
0.7863692478198854
 20
4.714644660940673
 30
0
 11
0.7156585697012305
 21
4.785355339059327
 31
0
  0
LINE
  8
0
 62
7
 10
0.7156585697012305
 20
3.385355339059327
 30
0
 11
0.7863692478198854
 21
3.314644660940673
 31
0
  0
TEXT
  8
0
 62
7
 10
0.796013908760558
 20
4.04450134843581
 30
0
 40
0.1
  1
1,4
 50
90
 41
0.9
  0
ENDBLK
  8
0
  0
ENDSEC
  0
SECTION
  2
ENTITIES
  0
INSERT
  8
0
  2
*X0
 10
0
 20
0
 30
0
  0
INSERT
  8
0
  2
*X1
 10
0
 20
0
 30
0
  0
INSERT
  8
0
  2
*X2
 10
0
 20
0
 30
0
  0
INSERT
  8
0
  2
*X3
 10
0
 20
0
 30
0
  0
INSERT
  8
0
  2
*X4
 10
0
 20
0
 30
0
  0
INSERT
  8
0
  2
*X5
 10
0
 20
0
 30
0
  0
INSERT
  8
0
  2
*X6
 10
0
 20
0
 30
0
  0
INSERT
  8
0
  2
*X7
 10
0
 20
0
 30
0
  0
INSERT
  8
0
  2
*X8
 10
0
 20
0
 30
0
  0
INSERT
  8
0
  2
*X9
 10
0
 20
0
 30
0
  0
INSERT
  8
0
  2
*X10
 10
0
 20
0
 30
0
  0
INSERT
  8
0
  2
*X11
 10
0
 20
0
 30
0
  0
INSERT
  8
0
  2
*X12
 10
0
 20
0
 30
0
  0
INSERT
  8
0
  2
*X13
 10
0
 20
0
 30
0
  0
INSERT
  8
0
  2
*X14
 10
0
 20
0
 30
0
  0
INSERT
  8
0
  2
*X15
 10
0
 20
0
 30
0
  0
INSERT
  8
0
  2
*X16
 10
0
 20
0
 30
0
  0
LINE
  8
0
 62
7
 10
2.390000000000001
 20
3.42292776206218
 30
0
 11
2.390000000000001
 21
3.587697996240795
 31
0
  0
LINE
  8
0
 62
7
 10
2.390000000000001
 20
3.587697996240795
 30
0
 11
2.426790447368272
 21
3.635
 31
0
  0
LINE
  8
0
 62
7
 10
2.507091845092371
 20
3.635
 30
0
 11
2.611909288565871
 21
3.635
 31
0
  0
LINE
  8
0
 62
7
 10
2.426790447368272
 20
3.635
 30
0
 11
2.611909288565871
 21
3.635
 31
0
  0
LINE
  8
0
 62
7
 10
3.30951769562363
 20
3.635
 30
0
 11
3.5061721397892
 21
3.635
 31
0
  0
LINE
  8
0
 62
7
 10
3.5061721397892
 20
3.635
 30
0
 11
3.545000000000003
 21
3.594484419072728
 31
0
  0
LINE
  8
0
 62
7
 10
3.545000000000003
 20
3.539173816537519
 30
0
 11
3.545000000000003
 21
3.448702041820621
 31
0
  0
LINE
  8
0
 62
7
 10
3.545000000000003
 20
3.594484419072728
 30
0
 11
3.545000000000003
 21
3.448702041820621
 31
0
  0
LINE
  8
0
 62
7
 10
4.605000000000002
 20
3.25
 30
0
 11
4.605000000000002
 21
3.64785023858933
 31
0
  0
LINE
  8
0
 62
7
 10
3.545000000000003
 20
3.448702041820621
 30
0
 11
3.545000000000003
 21
3.25
 31
0
  0
LINE
  8
0
 62
7
 10
3.545000000000003
 20
3.25
 30
0
 11
4.605000000000002
 21
3.25
 31
0
  0
LINE
  8
0
 62
7
 10
4.605000000000002
 20
3.557378463872429
 30
0
 11
4.605000000000002
 21
4.047570626350649
 31
0
  0
LINE
  8
0
 62
7
 10
3.545000000000003
 20
3.448702041820621
 30
0
 11
4.605000000000002
 21
3.557378463872429
 31
0
  0
LINE
  8
0
 62
7
 10
4.605000000000002
 20
3.95126858269284
 30
0
 11
4.605000000000002
 21
4.55721529371188
 31
0
  0
LINE
  8
0
 62
7
 10
3.545000000000003
 20
3.594484419072728
 30
0
 11
3.577846968903162
 21
3.560209699333179
 31
0
  0
LINE
  8
0
 62
7
 10
3.577846968903162
 20
3.560209699333179
 30
0
 11
4.605000000000002
 21
3.95126858269284
 31
0
  0
LINE
  8
0
 62
7
 10
4.605000000000002
 20
4.44483088253436
 30
0
 11
4.605000000000002
 21
4.694999999999999
 31
0
  0
LINE
  8
0
 62
7
 10
4.605000000000002
 20
4.694999999999999
 30
0
 11
4.090503046030341
 21
4.694999999999999
 31
0
  0
LINE
  8
0
 62
7
 10
3.5061721397892
 20
3.635
 30
0
 11
3.5221321055872
 21
3.635
 31
0
  0
LINE
  8
0
 62
7
 10
3.5221321055872
 20
3.635
 30
0
 11
4.605000000000002
 21
4.44483088253436
 31
0
  0
LINE
  8
0
 62
7
 10
4.20229314532948
 20
4.694999999999999
 30
0
 11
3.65727673196168
 21
4.694999999999999
 31
0
  0
LINE
  8
0
 62
7
 10
3.21696936195548
 20
3.635
 30
0
 11
3.42130779492277
 21
3.635
 31
0
  0
LINE
  8
0
 62
7
 10
3.42130779492277
 20
3.635
 30
0
 11
4.20229314532948
 21
4.694999999999999
 31
0
  0
LINE
  8
0
 62
7
 10
3.754732400967541
 20
4.694999999999999
 30
0
 11
3.285268365852573
 21
4.694999999999999
 31
0
  0
LINE
  8
0
 62
7
 10
3.11615156692014
 20
3.635
 30
0
 11
3.31442503096134
 21
3.635
 31
0
  0
LINE
  8
0
 62
7
 10
3.31442503096134
 20
3.635
 30
0
 11
3.754732400967541
 21
4.694999999999999
 31
0
  0
LINE
  8
0
 62
7
 10
3.376406613146503
 20
4.694999999999999
 30
0
 11
2.97472015394265
 21
4.694999999999999
 31
0
  0
LINE
  8
0
 62
7
 10
2.92392453316103
 20
3.63499999999999
 30
0
 11
3.20728981421407
 21
3.635
 31
0
  0
LINE
  8
0
 62
7
 10
3.20728981421407
 20
3.635
 30
0
 11
3.376406613146503
 21
4.694999999999999
 31
0
  0
LINE
  8
0
 62
7
 10
3.06482343108619
 20
4.694999999999999
 30
0
 11
2.66256591690577
 21
4.694999999999999
 31
0
  0
LINE
  8
0
 62
7
 10
2.731205883876751
 20
3.635
 30
0
 11
3.014027810304569
 21
3.63500000000001
 31
0
  0
LINE
  8
0
 62
7
 10
3.014027810304569
 20
3.63500000000001
 30
0
 11
3.06482343108619
 21
4.694999999999999
 31
0
  0
LINE
  8
0
 62
7
 10
2.752754412134492
 20
4.694999999999999
 30
0
 11
2.279890194513401
 21
4.694999999999999
 31
0
  0
LINE
  8
0
 62
7
 10
2.619989636876682
 20
3.635
 30
0
 11
2.82139437910547
 21
3.635
 31
0
  0
LINE
  8
0
 62
7
 10
2.82139437910547
 20
3.635
 30
0
 11
2.752754412134492
 21
4.694999999999999
 31
0
  0
LINE
  8
0
 62
7
 10
2.374409211723211
 20
4.694999999999999
 30
0
 11
1.874295568090051
 21
4.694999999999999
 31
0
  0
LINE
  8
0
 62
7
 10
2.611909288565871
 20
3.635
 30
0
 11
2.714508654086492
 21
3.635
 31
0
  0
LINE
  8
0
 62
7
 10
2.714508654086492
 20
3.635
 30
0
 11
2.374409211723211
 21
4.694999999999999
 31
0
  0
LINE
  8
0
 62
7
 10
1.979113011563551
 20
4.694999999999999
 30
0
 11
1.330000000000001
 21
4.694999999999999
 31
0
  0
LINE
  8
0
 62
7
 10
1.330000000000001
 20
4.694999999999999
 30
0
 11
1.330000000000001
 21
4.646649208377841
 31
0
  0
LINE
  8
0
 62
7
 10
2.611909288565871
 20
3.635
 30
0
 11
1.979113011563551
 21
4.694999999999999
 31
0
  0
LINE
  8
0
 62
7
 10
1.409831265198171
 20
4.694999999999999
 30
0
 11
1.330000000000001
 21
4.694999999999999
 31
0
  0
LINE
  8
0
 62
7
 10
1.330000000000001
 20
4.694999999999999
 30
0
 11
1.330000000000001
 21
4.094486197164031
 31
0
  0
LINE
  8
0
 62
7
 10
2.426790447368272
 20
3.635
 30
0
 11
2.470175999473801
 21
3.690781424135679
 31
0
  0
LINE
  8
0
 62
7
 10
2.470175999473801
 20
3.690781424135679
 30
0
 11
1.409831265198171
 21
4.694999999999999
 31
0
  0
LINE
  8
0
 62
7
 10
1.330000000000001
 20
4.196696577994962
 30
0
 11
1.330000000000001
 21
3.680055412016891
 31
0
  0
LINE
  8
0
 62
7
 10
2.390000000000001
 20
3.587697996240795
 30
0
 11
2.390000000000001
 21
3.626116794178151
 31
0
  0
LINE
  8
0
 62
7
 10
2.390000000000001
 20
3.626116794178151
 30
0
 11
1.330000000000001
 21
4.196696577994962
 31
0
  0
LINE
  8
0
 62
7
 10
1.330000000000001
 20
3.77266544629749
 30
0
 11
1.330000000000001
 21
3.379999999999999
 31
0
  0
LINE
  8
0
 62
7
 10
2.390000000000001
 20
3.379999999999999
 30
0
 11
2.390000000000001
 21
3.515537796342779
 31
0
  0
LINE
  8
0
 62
7
 10
2.390000000000001
 20
3.515537796342779
 30
0
 11
1.330000000000001
 21
3.77266544629749
 31
0
  0
LINE
  8
0
 62
7
 10
1.792116536012131
 20
3.399999999999999
 30
0
 11
1.792116536012131
 21
3.635000120265179
 31
0
  0
LINE
  8
0
 62
7
 10
1.792116536012131
 20
3.399999999999999
 30
0
 11
1.686461436750429
 21
3.461
 31
0
  0
LINE
  8
0
 62
7
 10
1.686461436750429
 20
3.461
 30
0
 11
1.897771635273832
 21
3.461
 31
0
  0
LINE
  8
0
 62
7
 10
1.897771635273832
 20
3.461
 30
0
 11
1.792116536012131
 21
3.399999999999999
 31
0
  0
LINE
  8
0
 62
7
 10
2.38999987976622
 20
4.232883463987871
 30
0
 11
3.54500012026502
 21
4.232883463987871
 31
0
  0
LINE
  8
0
 62
7
 10
4.14288346398787
 20
3.635000120287299
 30
0
 11
4.14288346398787
 21
3.25
 31
0
  0
LINE
  8
0
 62
7
 10
3.544999690000003
 20
8.583333226666666
 30
0
 11
4.605001120000003
 21
8.583333226666666
 31
0
  0
LINE
  8
0
 62
7
 10
4.605001120000003
 20
8.583333226666666
 30
0
 11
4.605001120000003
 21
8.518333226666664
 31
0
  0
LINE
  8
0
 62
7
 10
3.544999690000003
 20
8.518333226666664
 30
0
 11
3.544999690000003
 21
8.583333226666666
 31
0
  0
LINE
  8
0
 62
7
 10
4.605001120000003
 20
8.518333226666664
 30
0
 11
3.544999690000003
 21
8.518333226666664
 31
0
  0
LINE
  8
0
 62
7
 10
3.544999840000004
 20
8.766666566666663
 30
0
 11
4.605000070000004
 21
8.766666566666663
 31
0
  0
LINE
  8
0
 62
7
 10
4.605000070000004
 20
8.766666566666663
 30
0
 11
4.605000070000004
 21
8.701666566666665
 31
0
  0
LINE
  8
0
 62
7
 10
3.544999840000004
 20
8.701666566666665
 30
0
 11
3.544999840000004
 21
8.766666566666663
 31
0
  0
LINE
  8
0
 62
7
 10
4.605000070000004
 20
8.701666566666665
 30
0
 11
3.544999840000004
 21
8.701666566666665
 31
0
  0
LINE
  8
0
 62
7
 10
3.450097040000003
 20
8.949999906666664
 30
0
 11
4.605000090000003
 21
8.949999906666664
 31
0
  0
LINE
  8
0
 62
7
 10
4.605000090000003
 20
8.884999906666662
 30
0
 11
3.450097040000003
 21
8.884999906666662
 31
0
  0
LINE
  8
0
 62
7
 10
4.605000090000003
 20
8.949999906666664
 30
0
 11
4.605000090000003
 21
8.884999906666662
 31
0
  0
LINE
  8
0
 62
7
 10
3.450097040000003
 20
8.884999906666662
 30
0
 11
3.450097040000003
 21
8.949999906666664
 31
0
  0
LINE
  8
0
 62
7
 10
4.605000000000002
 20
9.068333226666665
 30
0
 11
3.309517670000004
 21
9.068333226666665
 31
0
  0
LINE
  8
0
 62
7
 10
3.309517670000004
 20
9.133333226666664
 30
0
 11
4.605000000000002
 21
9.133333226666664
 31
0
  0
LINE
  8
0
 62
7
 10
4.605000000000002
 20
9.133333226666664
 30
0
 11
4.605000000000002
 21
9.068333226666665
 31
0
  0
LINE
  8
0
 62
7
 10
3.309517670000004
 20
9.068333226666665
 30
0
 11
3.309517670000004
 21
9.133333226666664
 31
0
  0
LINE
  8
0
 62
7
 10
4.202293090000005
 20
9.251666586666667
 30
0
 11
3.216969140000003
 21
9.251666586666667
 31
0
  0
LINE
  8
0
 62
7
 10
3.216969140000003
 20
9.316666586666667
 30
0
 11
4.202293090000005
 21
9.316666586666667
 31
0
  0
LINE
  8
0
 62
7
 10
4.202293090000005
 20
9.316666586666667
 30
0
 11
4.202293090000005
 21
9.251666586666667
 31
0
  0
LINE
  8
0
 62
7
 10
3.216969140000003
 20
9.251666586666667
 30
0
 11
3.216969140000003
 21
9.316666586666667
 31
0
  0
LINE
  8
0
 62
7
 10
3.754732360000004
 20
9.434999946666663
 30
0
 11
3.116151420000004
 21
9.434999946666663
 31
0
  0
LINE
  8
0
 62
7
 10
3.116151420000004
 20
9.499999946666664
 30
0
 11
3.754732360000004
 21
9.499999946666664
 31
0
  0
LINE
  8
0
 62
7
 10
3.754732360000004
 20
9.499999946666664
 30
0
 11
3.754732360000004
 21
9.434999946666663
 31
0
  0
LINE
  8
0
 62
7
 10
3.116151420000004
 20
9.434999946666663
 30
0
 11
3.116151420000004
 21
9.499999946666664
 31
0
  0
LINE
  8
0
 62
7
 10
3.376406550000002
 20
9.618333226666664
 30
0
 11
2.923924560000003
 21
9.618333226666664
 31
0
  0
LINE
  8
0
 62
7
 10
2.923924560000003
 20
9.683333226666665
 30
0
 11
3.376406550000002
 21
9.683333226666665
 31
0
  0
LINE
  8
0
 62
7
 10
3.376406550000002
 20
9.683333226666665
 30
0
 11
3.376406550000002
 21
9.618333226666664
 31
0
  0
LINE
  8
0
 62
7
 10
2.923924560000003
 20
9.618333226666664
 30
0
 11
2.923924560000003
 21
9.683333226666665
 31
0
  0
LINE
  8
0
 62
7
 10
3.064823300000002
 20
9.801666666666666
 30
0
 11
2.662566070000004
 21
9.801666666666666
 31
0
  0
LINE
  8
0
 62
7
 10
2.662566070000004
 20
9.866666666666665
 30
0
 11
3.064823300000002
 21
9.866666666666665
 31
0
  0
LINE
  8
0
 62
7
 10
3.064823300000002
 20
9.866666666666665
 30
0
 11
3.064823300000002
 21
9.801666666666666
 31
0
  0
LINE
  8
0
 62
7
 10
2.662566070000004
 20
9.801666666666666
 30
0
 11
2.662566070000004
 21
9.866666666666665
 31
0
  0
LINE
  8
0
 62
7
 10
2.821394500000002
 20
9.984999946666663
 30
0
 11
2.279890130000002
 21
9.984999946666663
 31
0
  0
LINE
  8
0
 62
7
 10
2.279890130000002
 20
10.04999994666666
 30
0
 11
2.821394500000002
 21
10.04999994666666
 31
0
  0
LINE
  8
0
 62
7
 10
2.821394500000002
 20
10.04999994666666
 30
0
 11
2.821394500000002
 21
9.984999946666663
 31
0
  0
LINE
  8
0
 62
7
 10
2.279890130000002
 20
9.984999946666663
 30
0
 11
2.279890130000002
 21
10.04999994666666
 31
0
  0
LINE
  8
0
 62
7
 10
2.714508820000003
 20
10.16833322666666
 30
0
 11
1.874295650000002
 21
10.16833322666666
 31
0
  0
LINE
  8
0
 62
7
 10
1.874295650000002
 20
10.23333322666666
 30
0
 11
2.714508820000003
 21
10.23333322666666
 31
0
  0
LINE
  8
0
 62
7
 10
2.714508820000003
 20
10.23333322666666
 30
0
 11
2.714508820000003
 21
10.16833322666666
 31
0
  0
LINE
  8
0
 62
7
 10
1.874295650000002
 20
10.16833322666666
 30
0
 11
1.874295650000002
 21
10.23333322666666
 31
0
  0
LINE
  8
0
 62
7
 10
2.611909330000003
 20
10.35166666666667
 30
0
 11
1.330000000000002
 21
10.35166666666667
 31
0
  0
LINE
  8
0
 62
7
 10
1.330000000000002
 20
10.41666666666667
 30
0
 11
2.611909330000003
 21
10.41666666666667
 31
0
  0
LINE
  8
0
 62
7
 10
2.611909330000003
 20
10.41666666666667
 30
0
 11
2.611909330000003
 21
10.35166666666667
 31
0
  0
LINE
  8
0
 62
7
 10
1.330000000000002
 20
10.35166666666667
 30
0
 11
1.330000000000002
 21
10.41666666666667
 31
0
  0
LINE
  8
0
 62
7
 10
2.470175930000003
 20
10.53499994666666
 30
0
 11
1.330000000000002
 21
10.53499994666666
 31
0
  0
LINE
  8
0
 62
7
 10
1.330000000000002
 20
10.59999994666666
 30
0
 11
2.470175930000003
 21
10.59999994666666
 31
0
  0
LINE
  8
0
 62
7
 10
2.470175930000003
 20
10.59999994666666
 30
0
 11
2.470175930000003
 21
10.53499994666666
 31
0
  0
LINE
  8
0
 62
7
 10
1.330000000000002
 20
10.53499994666666
 30
0
 11
1.330000000000002
 21
10.59999994666666
 31
0
  0
LINE
  8
0
 62
7
 10
1.330000000000002
 20
10.78333322666666
 30
0
 11
2.390000000000002
 21
10.78333322666666
 31
0
  0
LINE
  8
0
 62
7
 10
2.390000000000002
 20
10.78333322666666
 30
0
 11
2.390000000000002
 21
10.71833322666666
 31
0
  0
LINE
  8
0
 62
7
 10
1.330000000000002
 20
10.71833322666666
 30
0
 11
1.330000000000002
 21
10.78333322666666
 31
0
  0
LINE
  8
0
 62
7
 10
2.390000000000002
 20
10.71833322666666
 30
0
 11
1.330000000000002
 21
10.71833322666666
 31
0
  0
LINE
  8
0
 62
7
  6
DASHED
 10
1.330000000000002
 20
10.96666666666667
 30
0
 11
2.390000000000002
 21
10.96666666666667
 31
0
  0
LINE
  8
0
 62
7
  6
DASHED
 10
2.390000000000002
 20
10.96666666666667
 30
0
 11
2.390000000000002
 21
10.90166666666667
 31
0
  0
LINE
  8
0
 62
7
  6
DASHED
 10
1.330000000000002
 20
10.90166666666667
 30
0
 11
1.330000000000002
 21
10.96666666666667
 31
0
  0
LINE
  8
0
 62
7
  6
DASHED
 10
2.390000000000002
 20
10.90166666666667
 30
0
 11
1.330000000000002
 21
10.90166666666667
 31
0
  0
LINE
  8
0
 62
7
 10
6.460000000000003
 20
8.583333226666666
 30
0
 11
6.857850420000002
 21
8.583333226666666
 31
0
  0
LINE
  8
0
 62
7
 10
6.857850420000002
 20
8.518333226666664
 30
0
 11
6.460000000000003
 21
8.518333226666664
 31
0
  0
LINE
  8
0
 62
7
 10
6.460000000000003
 20
8.518333226666664
 30
0
 11
6.460000000000003
 21
8.583333226666666
 31
0
  0
LINE
  8
0
 62
7
 10
6.857850420000002
 20
8.583333226666666
 30
0
 11
6.857850420000002
 21
8.518333226666664
 31
0
  0
LINE
  8
0
 62
7
 10
7.257570500000002
 20
8.701666566666667
 30
0
 11
6.658702010000003
 21
8.701666566666667
 31
0
  0
LINE
  8
0
 62
7
 10
6.658702010000003
 20
8.766666566666668
 30
0
 11
7.257570500000002
 21
8.766666566666668
 31
0
  0
LINE
  8
0
 62
7
 10
6.658702010000003
 20
8.701666566666667
 30
0
 11
6.658702010000003
 21
8.766666566666668
 31
0
  0
LINE
  8
0
 62
7
 10
7.257570500000002
 20
8.766666566666668
 30
0
 11
7.257570500000002
 21
8.701666566666667
 31
0
  0
LINE
  8
0
 62
7
 10
7.767215270000001
 20
8.884999906666669
 30
0
 11
6.77020958
 21
8.884999906666669
 31
0
  0
LINE
  8
0
 62
7
 10
6.77020958
 20
8.949999906666667
 30
0
 11
7.767215270000001
 21
8.949999906666667
 31
0
  0
LINE
  8
0
 62
7
 10
6.77020958
 20
8.884999906666669
 30
0
 11
6.77020958
 21
8.949999906666667
 31
0
  0
LINE
  8
0
 62
7
 10
7.767215270000001
 20
8.949999906666667
 30
0
 11
7.767215270000001
 21
8.884999906666669
 31
0
  0
LINE
  8
0
 62
7
 10
6.844999890000001
 20
9.133333226666664
 30
0
 11
7.905000000000005
 21
9.133333226666664
 31
0
  0
LINE
  8
0
 62
7
 10
7.905000000000005
 20
9.068333226666665
 30
0
 11
6.844999890000001
 21
9.068333226666665
 31
0
  0
LINE
  8
0
 62
7
 10
6.844999890000001
 20
9.068333226666665
 30
0
 11
6.844999890000001
 21
9.133333226666664
 31
0
  0
LINE
  8
0
 62
7
 10
7.905000000000005
 20
9.133333226666664
 30
0
 11
7.905000000000005
 21
9.068333226666665
 31
0
  0
LINE
  8
0
 62
7
 10
6.844999890000001
 20
9.316666586666667
 30
0
 11
7.905000149999999
 21
9.316666586666667
 31
0
  0
LINE
  8
0
 62
7
 10
6.844999890000001
 20
9.251666586666667
 30
0
 11
6.844999890000001
 21
9.316666586666667
 31
0
  0
LINE
  8
0
 62
7
 10
7.905000149999999
 20
9.316666586666667
 30
0
 11
7.905000149999999
 21
9.251666586666667
 31
0
  0
LINE
  8
0
 62
7
 10
7.905000149999999
 20
9.251666586666667
 30
0
 11
6.844999890000001
 21
9.251666586666667
 31
0
  0
LINE
  8
0
 62
7
 10
6.844999920000001
 20
9.499999946666668
 30
0
 11
7.905000149999999
 21
9.499999946666668
 31
0
  0
LINE
  8
0
 62
7
 10
6.844999920000001
 20
9.434999946666668
 30
0
 11
6.844999920000001
 21
9.499999946666668
 31
0
  0
LINE
  8
0
 62
7
 10
7.905000149999999
 20
9.499999946666668
 30
0
 11
7.905000149999999
 21
9.434999946666668
 31
0
  0
LINE
  8
0
 62
7
 10
7.905000149999999
 20
9.434999946666668
 30
0
 11
6.844999920000001
 21
9.434999946666668
 31
0
  0
LINE
  8
0
 62
7
 10
6.844999770000001
 20
9.683333226666665
 30
0
 11
7.905000149999999
 21
9.683333226666665
 31
0
  0
LINE
  8
0
 62
7
 10
6.844999770000001
 20
9.618333226666666
 30
0
 11
6.844999770000001
 21
9.683333226666665
 31
0
  0
LINE
  8
0
 62
7
 10
7.905000149999999
 20
9.683333226666665
 30
0
 11
7.905000149999999
 21
9.618333226666666
 31
0
  0
LINE
  8
0
 62
7
 10
7.905000149999999
 20
9.618333226666666
 30
0
 11
6.844999770000001
 21
9.618333226666666
 31
0
  0
LINE
  8
0
 62
7
 10
6.844999699999999
 20
9.866666666666667
 30
0
 11
7.905000000000005
 21
9.866666666666667
 31
0
  0
LINE
  8
0
 62
7
 10
6.844999699999999
 20
9.801666666666668
 30
0
 11
6.844999699999999
 21
9.866666666666667
 31
0
  0
LINE
  8
0
 62
7
 10
7.905000000000005
 20
9.866666666666667
 30
0
 11
7.905000000000005
 21
9.801666666666668
 31
0
  0
LINE
  8
0
 62
7
 10
7.905000000000005
 20
9.801666666666668
 30
0
 11
6.844999699999999
 21
9.801666666666668
 31
0
  0
LINE
  8
0
 62
7
 10
6.844999770000001
 20
10.04999994666667
 30
0
 11
7.905000000000005
 21
10.04999994666667
 31
0
  0
LINE
  8
0
 62
7
 10
6.844999770000001
 20
9.984999946666669
 30
0
 11
6.844999770000001
 21
10.04999994666667
 31
0
  0
LINE
  8
0
 62
7
 10
7.905000000000005
 20
10.04999994666667
 30
0
 11
7.905000000000005
 21
9.984999946666669
 31
0
  0
LINE
  8
0
 62
7
 10
7.905000000000005
 20
9.984999946666669
 30
0
 11
6.844999770000001
 21
9.984999946666669
 31
0
  0
LINE
  8
0
 62
7
 10
6.84499931
 20
10.23333322666666
 30
0
 11
7.905000000000005
 21
10.23333322666666
 31
0
  0
LINE
  8
0
 62
7
 10
6.84499931
 20
10.16833322666667
 30
0
 11
6.84499931
 21
10.23333322666666
 31
0
  0
LINE
  8
0
 62
7
 10
7.905000000000005
 20
10.23333322666666
 30
0
 11
7.905000000000005
 21
10.16833322666667
 31
0
  0
LINE
  8
0
 62
7
 10
7.905000000000005
 20
10.16833322666667
 30
0
 11
6.84499931
 21
10.16833322666667
 31
0
  0
LINE
  8
0
 62
7
 10
6.844999810000001
 20
10.41666666666667
 30
0
 11
7.905000149999999
 21
10.41666666666667
 31
0
  0
LINE
  8
0
 62
7
 10
7.905000149999999
 20
10.35166666666667
 30
0
 11
6.844999810000001
 21
10.35166666666667
 31
0
  0
LINE
  8
0
 62
7
 10
6.844999810000001
 20
10.35166666666667
 30
0
 11
6.844999810000001
 21
10.41666666666667
 31
0
  0
LINE
  8
0
 62
7
 10
7.905000149999999
 20
10.41666666666667
 30
0
 11
7.905000149999999
 21
10.35166666666667
 31
0
  0
LINE
  8
0
 62
7
 10
7.905000149999999
 20
10.53499994666667
 30
0
 11
6.752731710000003
 21
10.53499994666667
 31
0
  0
LINE
  8
0
 62
7
 10
6.752731710000003
 20
10.59999994666667
 30
0
 11
7.905000149999999
 21
10.59999994666667
 31
0
  0
LINE
  8
0
 62
7
 10
6.752731710000003
 20
10.53499994666667
 30
0
 11
6.752731710000003
 21
10.59999994666667
 31
0
  0
LINE
  8
0
 62
7
 10
7.905000149999999
 20
10.59999994666667
 30
0
 11
7.905000149999999
 21
10.53499994666667
 31
0
  0
LINE
  8
0
 62
7
 10
7.406696240000001
 20
10.71833322666666
 30
0
 11
6.632927090000003
 21
10.71833322666666
 31
0
  0
LINE
  8
0
 62
7
 10
6.632927090000003
 20
10.78333322666666
 30
0
 11
7.406696240000001
 21
10.78333322666666
 31
0
  0
LINE
  8
0
 62
7
 10
6.632927090000003
 20
10.71833322666666
 30
0
 11
6.632927090000003
 21
10.78333322666666
 31
0
  0
LINE
  8
0
 62
7
 10
7.406696240000001
 20
10.78333322666666
 30
0
 11
7.406696240000001
 21
10.71833322666666
 31
0
  0
LINE
  8
0
 62
7
 10
6.589999520000001
 20
10.96666666666667
 30
0
 11
6.982665560000001
 21
10.96666666666667
 31
0
  0
LINE
  8
0
 62
7
 10
6.982665560000001
 20
10.90166666666667
 30
0
 11
6.589999520000001
 21
10.90166666666667
 31
0
  0
LINE
  8
0
 62
7
 10
6.589999520000001
 20
10.90166666666667
 30
0
 11
6.589999520000001
 21
10.96666666666667
 31
0
  0
LINE
  8
0
 62
7
 10
6.982665560000001
 20
10.96666666666667
 30
0
 11
6.982665560000001
 21
10.90166666666667
 31
0
  0
LINE
  8
0
 62
7
 10
0.9500000000000011
 20
8.099999999999998
 30
0
 11
1.100000000000001
 21
8.099999999999998
 31
0
  0
LINE
  8
0
 62
7
 10
0.9500000000000011
 20
8.299999999999997
 30
0
 11
1.100000000000001
 21
8.299999999999997
 31
0
  0
LINE
  8
0
 62
7
 10
0.9500000000000011
 20
10.85
 30
0
 11
1.100000000000001
 21
10.85
 31
0
  0
LINE
  8
0
 62
7
 10
0.9500000000000011
 20
11.05
 30
0
 11
1.100000000000001
 21
11.05
 31
0
  0
LINE
  8
0
 62
7
 10
1.100000000000001
 20
7.949999999999998
 30
0
 11
1.100000000000001
 21
8.099999999999998
 31
0
  0
LINE
  8
0
 62
7
 10
1.100000000000001
 20
8.099999999999998
 30
0
 11
1.275000000000001
 21
8.099999999999998
 31
0
  0
LINE
  8
0
 62
7
 10
1.100000000000001
 20
8.299999999999997
 30
0
 11
1.100000000000001
 21
8.399999999999997
 31
0
  0
LINE
  8
0
 62
7
 10
1.100000000000001
 20
8.299999999999997
 30
0
 11
1.275000000000001
 21
8.299999999999997
 31
0
  0
LINE
  8
0
 62
7
 10
1.100000000000001
 20
10.85
 30
0
 11
1.275000000000001
 21
10.85
 31
0
  0
LINE
  8
0
 62
7
 10
1.100000000000001
 20
11.05
 30
0
 11
1.100000000000001
 21
11.15
 31
0
  0
LINE
  8
0
 62
7
 10
1.100000000000001
 20
11.05
 30
0
 11
1.275000000000001
 21
11.05
 31
0
  0
LINE
  8
0
 62
7
 10
1.275000000000001
 20
7.949999999999998
 30
0
 11
1.275000000000001
 21
8.099999999999998
 31
0
  0
LINE
  8
0
 62
7
 10
1.275000000000001
 20
8.099999999999998
 30
0
 11
4.660000000000002
 21
8.099999999999998
 31
0
  0
LINE
  8
0
 62
7
 10
1.275000000000001
 20
8.299999999999997
 30
0
 11
1.275000000000001
 21
8.399999999999997
 31
0
  0
LINE
  8
0
 62
7
 10
1.275000000000001
 20
8.299999999999997
 30
0
 11
4.660000000000002
 21
8.299999999999997
 31
0
  0
LINE
  8
0
 62
7
 10
1.275000000000001
 20
10.85
 30
0
 11
4.660000000000002
 21
10.85
 31
0
  0
LINE
  8
0
 62
7
 10
1.275000000000001
 20
11.05
 30
0
 11
1.275000000000001
 21
11.15
 31
0
  0
LINE
  8
0
 62
7
 10
1.275000000000001
 20
11.05
 30
0
 11
4.660000000000002
 21
11.05
 31
0
  0
LINE
  8
0
 62
7
 10
4.660000000000002
 20
7.949999999999998
 30
0
 11
4.660000000000002
 21
8.099999999999998
 31
0
  0
LINE
  8
0
 62
7
 10
4.660000000000002
 20
8.099999999999998
 30
0
 11
4.835000000000003
 21
8.099999999999998
 31
0
  0
LINE
  8
0
 62
7
 10
4.660000000000002
 20
8.299999999999997
 30
0
 11
4.660000000000002
 21
8.399999999999997
 31
0
  0
LINE
  8
0
 62
7
 10
4.660000000000002
 20
8.299999999999997
 30
0
 11
4.835000000000003
 21
8.299999999999997
 31
0
  0
LINE
  8
0
 62
7
 10
4.660000000000002
 20
10.85
 30
0
 11
4.835000000000003
 21
10.85
 31
0
  0
LINE
  8
0
 62
7
 10
4.660000000000002
 20
11.05
 30
0
 11
4.660000000000002
 21
11.15
 31
0
  0
LINE
  8
0
 62
7
 10
4.660000000000002
 20
11.05
 30
0
 11
4.835000000000003
 21
11.05
 31
0
  0
LINE
  8
0
 62
7
 10
4.835000000000003
 20
7.949999999999998
 30
0
 11
4.835000000000003
 21
8.099999999999998
 31
0
  0
LINE
  8
0
 62
7
 10
4.835000000000003
 20
8.099999999999998
 30
0
 11
4.985000000000003
 21
8.099999999999998
 31
0
  0
LINE
  8
0
 62
7
 10
4.835000000000003
 20
8.299999999999997
 30
0
 11
4.835000000000003
 21
8.399999999999997
 31
0
  0
LINE
  8
0
 62
7
 10
4.835000000000003
 20
8.299999999999997
 30
0
 11
4.985000000000003
 21
8.299999999999997
 31
0
  0
LINE
  8
0
 62
7
 10
4.835000000000003
 20
10.85
 30
0
 11
4.985000000000003
 21
10.85
 31
0
  0
LINE
  8
0
 62
7
 10
4.835000000000003
 20
11.05
 30
0
 11
4.835000000000003
 21
11.15
 31
0
  0
LINE
  8
0
 62
7
 10
4.835000000000003
 20
11.05
 30
0
 11
4.985000000000003
 21
11.05
 31
0
  0
LINE
  8
0
 62
7
  6
DASHDOT
 10
0.9500000000000011
 20
8.049999999999997
 30
0
 11
0.9500000000000011
 21
8.099999999999998
 31
0
  0
LINE
  8
0
 62
7
  6
DASHDOT
 10
0.9500000000000011
 20
10.8
 30
0
 11
0.9500000000000011
 21
10.85
 31
0
  0
LINE
  8
0
 62
7
  6
DASHDOT
 10
4.985000000000003
 20
8.049999999999997
 30
0
 11
4.985000000000003
 21
8.099999999999998
 31
0
  0
LINE
  8
0
 62
7
  6
DASHDOT
 10
4.985000000000003
 20
10.8
 30
0
 11
4.985000000000003
 21
10.85
 31
0
  0
LINE
  8
0
 62
7
  6
DASHDOT
 10
1.050000000000001
 20
11.2
 30
0
 11
1.100000000000001
 21
11.2
 31
0
  0
LINE
  8
0
 62
7
  6
DASHDOT
 10
1.050000000000001
 20
7.949999999999998
 30
0
 11
1.100000000000001
 21
7.949999999999998
 31
0
  0
LINE
  8
0
 62
7
  6
DASHDOT
 10
4.610000000000002
 20
11.2
 30
0
 11
4.660000000000002
 21
11.2
 31
0
  0
LINE
  8
0
 62
7
  6
DASHDOT
 10
4.610000000000002
 20
7.949999999999998
 30
0
 11
4.660000000000002
 21
7.949999999999998
 31
0
  0
LINE
  8
0
 62
7
 10
0.9500000000000011
 20
8.399999999999997
 30
0
 11
1.100000000000001
 21
8.399999999999997
 31
0
  0
LINE
  8
0
 62
7
 10
1.100000000000001
 20
8.399999999999997
 30
0
 11
1.100000000000001
 21
10.85
 31
0
  0
LINE
  8
0
 62
7
  6
DASHDOT
 10
0.9500000000000011
 20
8.399999999999997
 30
0
 11
0.9500000000000011
 21
8.449999999999998
 31
0
  0
LINE
  8
0
 62
7
 10
1.275000000000001
 20
8.399999999999997
 30
0
 11
4.660000000000002
 21
8.399999999999997
 31
0
  0
LINE
  8
0
 62
7
 10
1.275000000000001
 20
8.399999999999997
 30
0
 11
1.275000000000001
 21
10.85
 31
0
  0
LINE
  8
0
 62
7
 10
4.660000000000002
 20
8.399999999999997
 30
0
 11
4.660000000000002
 21
10.85
 31
0
  0
LINE
  8
0
 62
7
 10
4.835000000000003
 20
8.399999999999997
 30
0
 11
4.985000000000003
 21
8.399999999999997
 31
0
  0
LINE
  8
0
 62
7
 10
4.835000000000003
 20
8.399999999999997
 30
0
 11
4.835000000000003
 21
10.85
 31
0
  0
LINE
  8
0
 62
7
  6
DASHDOT
 10
4.985000000000003
 20
8.399999999999997
 30
0
 11
4.985000000000003
 21
8.449999999999998
 31
0
  0
LINE
  8
0
 62
7
 10
0.9500000000000011
 20
11.15
 30
0
 11
1.100000000000001
 21
11.15
 31
0
  0
LINE
  8
0
 62
7
 10
1.100000000000001
 20
11.15
 30
0
 11
1.100000000000001
 21
11.2
 31
0
  0
LINE
  8
0
 62
7
  6
DASHDOT
 10
0.9500000000000011
 20
11.15
 30
0
 11
0.9500000000000011
 21
11.2
 31
0
  0
LINE
  8
0
 62
7
 10
1.275000000000001
 20
11.15
 30
0
 11
4.660000000000002
 21
11.15
 31
0
  0
LINE
  8
0
 62
7
 10
1.275000000000001
 20
11.15
 30
0
 11
1.275000000000001
 21
11.2
 31
0
  0
LINE
  8
0
 62
7
 10
4.660000000000002
 20
11.15
 30
0
 11
4.660000000000002
 21
11.2
 31
0
  0
LINE
  8
0
 62
7
 10
4.835000000000003
 20
11.15
 30
0
 11
4.985000000000003
 21
11.15
 31
0
  0
LINE
  8
0
 62
7
 10
4.835000000000003
 20
11.15
 30
0
 11
4.835000000000003
 21
11.2
 31
0
  0
LINE
  8
0
 62
7
  6
DASHDOT
 10
4.985000000000003
 20
11.15
 30
0
 11
4.985000000000003
 21
11.2
 31
0
  0
LINE
  8
0
 62
7
  6
DASHDOT
 10
4.985000000000003
 20
8.099999999999998
 30
0
 11
4.985000000000003
 21
8.299999999999997
 31
0
  0
LINE
  8
0
 62
7
  6
DASHDOT
 10
4.985000000000003
 20
8.299999999999997
 30
0
 11
4.985000000000003
 21
8.399999999999997
 31
0
  0
LINE
  8
0
 62
7
  6
DASHDOT
 10
4.660000000000002
 20
7.949999999999998
 30
0
 11
4.835000000000003
 21
7.949999999999998
 31
0
  0
LINE
  8
0
 62
7
  6
DASHDOT
 10
4.835000000000003
 20
7.949999999999998
 30
0
 11
4.885000000000002
 21
7.949999999999998
 31
0
  0
LINE
  8
0
 62
7
  6
DASHDOT
 10
0.9500000000000011
 20
8.099999999999998
 30
0
 11
0.9500000000000011
 21
8.299999999999997
 31
0
  0
LINE
  8
0
 62
7
  6
DASHDOT
 10
0.9500000000000011
 20
8.299999999999997
 30
0
 11
0.9500000000000011
 21
8.399999999999997
 31
0
  0
LINE
  8
0
 62
7
  6
DASHDOT
 10
1.100000000000001
 20
7.949999999999998
 30
0
 11
1.275000000000001
 21
7.949999999999998
 31
0
  0
LINE
  8
0
 62
7
  6
DASHDOT
 10
1.275000000000001
 20
7.949999999999998
 30
0
 11
1.325000000000001
 21
7.949999999999998
 31
0
  0
LINE
  8
0
 62
7
  6
DASHDOT
 10
0.9500000000000011
 20
10.85
 30
0
 11
0.9500000000000011
 21
11.05
 31
0
  0
LINE
  8
0
 62
7
  6
DASHDOT
 10
0.9500000000000011
 20
11.05
 30
0
 11
0.9500000000000011
 21
11.15
 31
0
  0
LINE
  8
0
 62
7
  6
DASHDOT
 10
1.100000000000001
 20
11.2
 30
0
 11
1.275000000000001
 21
11.2
 31
0
  0
LINE
  8
0
 62
7
  6
DASHDOT
 10
1.275000000000001
 20
11.2
 30
0
 11
1.325000000000001
 21
11.2
 31
0
  0
LINE
  8
0
 62
7
  6
DASHDOT
 10
4.985000000000003
 20
10.85
 30
0
 11
4.985000000000003
 21
11.05
 31
0
  0
LINE
  8
0
 62
7
  6
DASHDOT
 10
4.985000000000003
 20
11.05
 30
0
 11
4.985000000000003
 21
11.15
 31
0
  0
LINE
  8
0
 62
7
  6
DASHDOT
 10
4.660000000000002
 20
11.2
 30
0
 11
4.835000000000003
 21
11.2
 31
0
  0
LINE
  8
0
 62
7
  6
DASHDOT
 10
4.835000000000003
 20
11.2
 30
0
 11
4.885000000000002
 21
11.2
 31
0
  0
LINE
  8
0
 62
7
 10
8.200000000000005
 20
8.099999999999998
 30
0
 11
8.200000000000005
 21
7.949999999999998
 31
0
  0
LINE
  8
0
 62
7
 10
7.960000000000004
 20
11.05
 30
0
 11
7.960000000000004
 21
11.2
 31
0
  0
LINE
  8
0
 62
7
 10
7.960000000000004
 20
11.05
 30
0
 11
8.200000000000005
 21
11.05
 31
0
  0
LINE
  8
0
 62
7
 10
8.200000000000005
 20
11.2
 30
0
 11
8.200000000000005
 21
11.05
 31
0
  0
LINE
  8
0
 62
7
 10
7.960000000000004
 20
10.85
 30
0
 11
7.960000000000004
 21
11.05
 31
0
  0
LINE
  8
0
 62
7
 10
7.960000000000004
 20
10.85
 30
0
 11
8.200000000000005
 21
10.85
 31
0
  0
LINE
  8
0
 62
7
 10
8.200000000000005
 20
11.05
 30
0
 11
8.200000000000005
 21
10.85
 31
0
  0
LINE
  8
0
 62
7
 10
7.960000000000004
 20
8.299999999999997
 30
0
 11
7.960000000000004
 21
10.85
 31
0
  0
LINE
  8
0
 62
7
 10
7.960000000000004
 20
8.299999999999997
 30
0
 11
8.200000000000005
 21
8.299999999999997
 31
0
  0
LINE
  8
0
 62
7
 10
8.200000000000005
 20
10.85
 30
0
 11
8.200000000000005
 21
8.299999999999997
 31
0
  0
LINE
  8
0
 62
7
 10
7.960000000000004
 20
8.099999999999998
 30
0
 11
7.960000000000004
 21
8.299999999999997
 31
0
  0
LINE
  8
0
 62
7
 10
7.960000000000004
 20
8.099999999999998
 30
0
 11
8.200000000000005
 21
8.099999999999998
 31
0
  0
LINE
  8
0
 62
7
 10
8.200000000000005
 20
8.299999999999997
 30
0
 11
8.200000000000005
 21
8.099999999999998
 31
0
  0
LINE
  8
0
 62
7
 10
7.960000000000004
 20
7.949999999999998
 30
0
 11
7.960000000000004
 21
8.099999999999998
 31
0
  0
LINE
  8
0
 62
7
 10
6.560000000000002
 20
10.85
 30
0
 11
6.560000000000002
 21
11.05
 31
0
  0
LINE
  8
0
 62
7
 10
6.260000000000002
 20
10.85
 30
0
 11
6.560000000000002
 21
10.85
 31
0
  0
LINE
  8
0
 62
7
 10
6.260000000000002
 20
11.05
 30
0
 11
6.560000000000002
 21
11.05
 31
0
  0
LINE
  8
0
 62
7
 10
6.260000000000002
 20
8.299999999999997
 30
0
 11
6.560000000000002
 21
8.299999999999997
 31
0
  0
LINE
  8
0
 62
7
 10
6.560000000000002
 20
8.099999999999998
 30
0
 11
6.560000000000002
 21
8.299999999999997
 31
0
  0
LINE
  8
0
 62
7
 10
6.260000000000002
 20
8.099999999999998
 30
0
 11
6.560000000000002
 21
8.099999999999998
 31
0
  0
LINE
  8
0
 62
7
  6
DASHDOT
 10
8.200000000000005
 20
11.2
 30
0
 11
8.250000000000005
 21
11.2
 31
0
  0
LINE
  8
0
 62
7
  6
DASHDOT
 10
6.260000000000002
 20
11.15
 30
0
 11
6.260000000000002
 21
11.2
 31
0
  0
LINE
  8
0
 62
7
  6
DASHDOT
 10
6.260000000000002
 20
8.099999999999998
 30
0
 11
6.260000000000002
 21
8.049999999999997
 31
0
  0
LINE
  8
0
 62
7
  6
DASHDOT
 10
8.200000000000005
 20
7.949999999999998
 30
0
 11
8.250000000000005
 21
7.949999999999998
 31
0
  0
LINE
  8
0
 62
7
 10
6.260000000000002
 20
8.399999999999997
 30
0
 11
6.560000000000002
 21
8.399999999999997
 31
0
  0
LINE
  8
0
 62
7
  6
DASHDOT
 10
6.260000000000002
 20
8.449999999999998
 30
0
 11
6.260000000000002
 21
8.399999999999997
 31
0
  0
LINE
  8
0
 62
7
 10
6.260000000000002
 20
11.15
 30
0
 11
6.560000000000002
 21
11.15
 31
0
  0
LINE
  8
0
 62
7
  6
DASHDOT
 10
6.260000000000002
 20
11.05
 30
0
 11
6.260000000000002
 21
11.15
 31
0
  0
LINE
  8
0
 62
7
  6
DASHDOT
 10
6.260000000000002
 20
8.399999999999997
 30
0
 11
6.260000000000002
 21
8.299999999999997
 31
0
  0
LINE
  8
0
 62
7
  6
DASHDOT
 10
6.260000000000002
 20
8.299999999999997
 30
0
 11
6.260000000000002
 21
8.099999999999998
 31
0
  0
LINE
  8
0
 62
7
  6
DASHDOT
 10
7.960000000000004
 20
7.949999999999998
 30
0
 11
8.200000000000005
 21
7.949999999999998
 31
0
  0
LINE
  8
0
 62
7
  6
DASHDOT
 10
7.910000000000004
 20
7.949999999999998
 30
0
 11
7.960000000000004
 21
7.949999999999998
 31
0
  0
LINE
  8
0
 62
7
  6
DASHDOT
 10
7.910000000000004
 20
11.2
 30
0
 11
7.960000000000004
 21
11.2
 31
0
  0
LINE
  8
0
 62
7
  6
DASHDOT
 10
7.960000000000004
 20
11.2
 30
0
 11
8.200000000000005
 21
11.2
 31
0
  0
LINE
  8
0
 62
7
  6
DASHDOT
 10
6.260000000000002
 20
10.8
 30
0
 11
6.260000000000002
 21
10.85
 31
0
  0
LINE
  8
0
 62
7
  6
DASHDOT
 10
6.260000000000002
 20
10.85
 30
0
 11
6.260000000000002
 21
11.05
 31
0
  0
LINE
  8
0
 62
7
  6
DASHED
 10
6.560000000000002
 20
11.05
 30
0
 11
7.960000000000004
 21
11.05
 31
0
  0
LINE
  8
0
 62
7
  6
DASHED
 10
6.560000000000002
 20
10.85
 30
0
 11
7.960000000000004
 21
10.85
 31
0
  0
LINE
  8
0
 62
7
  6
DASHED
 10
6.560000000000002
 20
8.299999999999997
 30
0
 11
7.960000000000004
 21
8.299999999999997
 31
0
  0
LINE
  8
0
 62
7
  6
DASHED
 10
6.560000000000002
 20
8.099999999999998
 30
0
 11
7.960000000000004
 21
8.099999999999998
 31
0
  0
LINE
  8
0
 62
7
 10
4.835000000000003
 20
5.269999999999997
 30
0
 11
4.985000000000003
 21
5.269999999999997
 31
0
  0
LINE
  8
0
 62
7
 10
4.835000000000003
 20
5.419999999999997
 30
0
 11
4.835000000000003
 21
5.269999999999997
 31
0
  0
LINE
  8
0
 62
7
 10
4.660000000000002
 20
5.269999999999997
 30
0
 11
4.660000000000002
 21
5.419999999999997
 31
0
  0
LINE
  8
0
 62
7
 10
1.275000000000001
 20
5.269999999999997
 30
0
 11
4.660000000000002
 21
5.269999999999997
 31
0
  0
LINE
  8
0
 62
7
 10
1.275000000000001
 20
5.419999999999997
 30
0
 11
1.275000000000001
 21
5.269999999999997
 31
0
  0
LINE
  8
0
 62
7
 10
1.100000000000001
 20
5.269999999999997
 30
0
 11
1.100000000000001
 21
5.419999999999997
 31
0
  0
LINE
  8
0
 62
7
 10
0.9350000000000011
 20
5.269999999999997
 30
0
 11
1.100000000000001
 21
5.269999999999997
 31
0
  0
LINE
  8
0
 62
7
 10
0.9350000000000011
 20
5.029999999999999
 30
0
 11
4.985000000000003
 21
5.029999999999999
 31
0
  0
LINE
  8
0
 62
7
 10
0.9350000000000011
 20
4.989999999999999
 30
0
 11
4.985000000000003
 21
4.989999999999999
 31
0
  0
LINE
  8
0
 62
7
 10
4.835000000000003
 20
4.749999999999999
 30
0
 11
4.985000000000003
 21
4.749999999999999
 31
0
  0
LINE
  8
0
 62
7
 10
4.660000000000002
 20
3.35
 30
0
 11
4.660000000000002
 21
3.25
 31
0
  0
LINE
  8
0
 62
7
 10
4.660000000000002
 20
3.25
 30
0
 11
4.835000000000003
 21
3.25
 31
0
  0
LINE
  8
0
 62
7
 10
4.835000000000003
 20
3.25
 30
0
 11
4.835000000000003
 21
4.749999999999999
 31
0
  0
LINE
  8
0
 62
7
 10
1.275000000000001
 20
4.749999999999999
 30
0
 11
4.660000000000002
 21
4.749999999999999
 31
0
  0
LINE
  8
0
 62
7
 10
1.275000000000001
 20
3.4
 30
0
 11
1.275000000000001
 21
4.749999999999999
 31
0
  0
LINE
  8
0
 62
7
 10
1.100000000000001
 20
4.749999999999999
 30
0
 11
1.100000000000001
 21
3.35
 31
0
  0
LINE
  8
0
 62
7
 10
0.9350000000000011
 20
4.749999999999999
 30
0
 11
1.100000000000001
 21
4.749999999999999
 31
0
  0
LINE
  8
0
 62
7
 10
1.100000000000001
 20
3.35
 30
0
 11
1.275000000000001
 21
3.35
 31
0
  0
LINE
  8
0
 62
7
 10
4.660000000000002
 20
3.4
 30
0
 11
1.275000000000001
 21
3.4
 31
0
  0
LINE
  8
0
 62
7
 10
4.660000000000002
 20
4.749999999999999
 30
0
 11
4.660000000000002
 21
3.4
 31
0
  0
LINE
  8
0
 62
7
 10
1.275000000000001
 20
3.35
 30
0
 11
1.275000000000001
 21
3.4
 31
0
  0
LINE
  8
0
 62
7
  6
DASHDOT
 10
4.660000000000002
 20
3.35
 30
0
 11
1.275000000000001
 21
3.35
 31
0
  0
LINE
  8
0
 62
7
 10
4.660000000000002
 20
3.4
 30
0
 11
4.660000000000002
 21
3.35
 31
0
  0
LINE
  8
0
 62
7
  6
DASHDOT
 10
4.835000000000003
 20
5.419999999999997
 30
0
 11
4.885000000000002
 21
5.419999999999997
 31
0
  0
LINE
  8
0
 62
7
  6
DASHDOT
 10
1.275000000000001
 20
5.419999999999997
 30
0
 11
1.325000000000001
 21
5.419999999999997
 31
0
  0
LINE
  8
0
 62
7
  6
DASHDOT
 10
4.985000000000003
 20
5.269999999999997
 30
0
 11
4.985000000000003
 21
5.319999999999997
 31
0
  0
LINE
  8
0
 62
7
  6
DASHDOT
 10
0.9350000000000011
 20
5.269999999999997
 30
0
 11
0.9350000000000011
 21
5.319999999999997
 31
0
  0
LINE
  8
0
 62
7
  6
DASHDOT
 10
0.9350000000000011
 20
5.029999999999999
 30
0
 11
0.9350000000000011
 21
5.269999999999997
 31
0
  0
LINE
  8
0
 62
7
  6
DASHDOT
 10
0.9350000000000011
 20
4.699999999999999
 30
0
 11
0.9350000000000011
 21
4.749999999999999
 31
0
  0
LINE
  8
0
 62
7
  6
DASHDOT
 10
4.660000000000002
 20
5.419999999999997
 30
0
 11
4.835000000000003
 21
5.419999999999997
 31
0
  0
LINE
  8
0
 62
7
  6
DASHDOT
 10
4.610000000000002
 20
5.419999999999997
 30
0
 11
4.660000000000002
 21
5.419999999999997
 31
0
  0
LINE
  8
0
 62
7
  6
DASHDOT
 10
4.985000000000003
 20
5.029999999999999
 30
0
 11
4.985000000000003
 21
5.269999999999997
 31
0
  0
LINE
  8
0
 62
7
  6
DASHDOT
 10
4.985000000000003
 20
4.699999999999999
 30
0
 11
4.985000000000003
 21
4.749999999999999
 31
0
  0
LINE
  8
0
 62
7
  6
DASHDOT
 10
0.9350000000000011
 20
4.989999999999999
 30
0
 11
0.9350000000000011
 21
5.029999999999999
 31
0
  0
LINE
  8
0
 62
7
  6
DASHDOT
 10
4.985000000000003
 20
4.989999999999999
 30
0
 11
4.985000000000003
 21
5.029999999999999
 31
0
  0
LINE
  8
0
 62
7
  6
DASHDOT
 10
0.9350000000000011
 20
4.749999999999999
 30
0
 11
0.9350000000000011
 21
4.989999999999999
 31
0
  0
LINE
  8
0
 62
7
  6
DASHDOT
 10
4.985000000000003
 20
4.749999999999999
 30
0
 11
4.985000000000003
 21
4.989999999999999
 31
0
  0
LINE
  8
0
 62
7
  6
DASHDOT
 10
1.050000000000001
 20
5.419999999999997
 30
0
 11
1.100000000000001
 21
5.419999999999997
 31
0
  0
LINE
  8
0
 62
7
  6
DASHDOT
 10
1.100000000000001
 20
5.419999999999997
 30
0
 11
1.275000000000001
 21
5.419999999999997
 31
0
  0
LINE
  8
0
 62
7
 10
2.09430589266451
 20
4.41570683926646
 30
0
 11
2.09430589266451
 21
4.535706839266459
 31
0
  0
LINE
  8
0
 62
7
 10
2.169905892664509
 20
4.535706839266459
 30
0
 11
2.115905892664509
 21
4.475706839266461
 31
0
  0
LINE
  8
0
 62
7
 10
2.115905892664509
 20
4.475706839266461
 30
0
 11
2.169905892664509
 21
4.41570683926646
 31
0
  0
LINE
  8
0
 62
7
 10
2.115905892664509
 20
4.475706839266461
 30
0
 11
2.09430589266451
 21
4.45170683926646
 31
0
  0
LINE
  8
0
 62
7
 10
2.27790589266451
 20
4.535706839266459
 30
0
 11
2.202305892664509
 21
4.535706839266459
 31
0
  0
LINE
  8
0
 62
7
 10
2.202305892664509
 20
4.535706839266459
 30
0
 11
2.202305892664509
 21
4.475706839266461
 31
0
  0
LINE
  8
0
 62
7
 10
2.202305892664509
 20
4.41570683926646
 30
0
 11
2.27790589266451
 21
4.41570683926646
 31
0
  0
LINE
  8
0
 62
7
 10
2.26710589266451
 20
4.475706839266461
 30
0
 11
2.202305892664509
 21
4.475706839266461
 31
0
  0
LINE
  8
0
 62
7
 10
2.202305892664509
 20
4.475706839266461
 30
0
 11
2.202305892664509
 21
4.41570683926646
 31
0
  0
LINE
  8
0
 62
7
 10
2.31030589266451
 20
4.41570683926646
 30
0
 11
2.31030589266451
 21
4.535706839266459
 31
0
  0
LINE
  8
0
 62
7
 10
2.31030589266451
 20
4.535706839266459
 30
0
 11
2.385905892664509
 21
4.41570683926646
 31
0
  0
LINE
  8
0
 62
7
 10
2.385905892664509
 20
4.41570683926646
 30
0
 11
2.385905892664509
 21
4.535706839266459
 31
0
  0
LINE
  8
0
 62
7
 10
2.418305892664509
 20
4.41570683926646
 30
0
 11
2.418305892664509
 21
4.535706839266459
 31
0
  0
LINE
  8
0
 62
7
 10
2.418305892664509
 20
4.535706839266459
 30
0
 11
2.493905892664509
 21
4.41570683926646
 31
0
  0
LINE
  8
0
 62
7
 10
2.493905892664509
 20
4.41570683926646
 30
0
 11
2.493905892664509
 21
4.535706839266459
 31
0
  0
LINE
  8
0
 62
7
 10
2.60190589266451
 20
4.499706839266461
 30
0
 11
2.59920589266451
 21
4.511706839266461
 31
0
  0
LINE
  8
0
 62
7
 10
2.59920589266451
 20
4.511706839266461
 30
0
 11
2.59380589266451
 21
4.52070683926646
 31
0
  0
LINE
  8
0
 62
7
 10
2.59380589266451
 20
4.52070683926646
 30
0
 11
2.588405892664509
 21
4.526706839266461
 31
0
  0
LINE
  8
0
 62
7
 10
2.588405892664509
 20
4.526706839266461
 30
0
 11
2.580305892664509
 21
4.53270683926646
 31
0
  0
LINE
  8
0
 62
7
 10
2.580305892664509
 20
4.53270683926646
 30
0
 11
2.57220589266451
 21
4.535706839266459
 31
0
  0
LINE
  8
0
 62
7
 10
2.57220589266451
 20
4.535706839266459
 30
0
 11
2.556005892664509
 21
4.535706839266459
 31
0
  0
LINE
  8
0
 62
7
 10
2.556005892664509
 20
4.535706839266459
 30
0
 11
2.54790589266451
 21
4.53270683926646
 31
0
  0
LINE
  8
0
 62
7
 10
2.54790589266451
 20
4.53270683926646
 30
0
 11
2.539805892664509
 21
4.526706839266461
 31
0
  0
LINE
  8
0
 62
7
 10
2.539805892664509
 20
4.526706839266461
 30
0
 11
2.534405892664511
 21
4.52070683926646
 31
0
  0
LINE
  8
0
 62
7
 10
2.534405892664511
 20
4.52070683926646
 30
0
 11
2.529005892664509
 21
4.511706839266461
 31
0
  0
LINE
  8
0
 62
7
 10
2.529005892664509
 20
4.511706839266461
 30
0
 11
2.52630589266451
 21
4.499706839266461
 31
0
  0
LINE
  8
0
 62
7
 10
2.52630589266451
 20
4.499706839266461
 30
0
 11
2.52630589266451
 21
4.45170683926646
 31
0
  0
LINE
  8
0
 62
7
 10
2.52630589266451
 20
4.45170683926646
 30
0
 11
2.529005892664509
 21
4.439706839266461
 31
0
  0
LINE
  8
0
 62
7
 10
2.529005892664509
 20
4.439706839266461
 30
0
 11
2.534405892664511
 21
4.43070683926646
 31
0
  0
LINE
  8
0
 62
7
 10
2.534405892664511
 20
4.43070683926646
 30
0
 11
2.539805892664509
 21
4.424706839266461
 31
0
  0
LINE
  8
0
 62
7
 10
2.539805892664509
 20
4.424706839266461
 30
0
 11
2.54790589266451
 21
4.41870683926646
 31
0
  0
LINE
  8
0
 62
7
 10
2.54790589266451
 20
4.41870683926646
 30
0
 11
2.556005892664509
 21
4.41570683926646
 31
0
  0
LINE
  8
0
 62
7
 10
2.556005892664509
 20
4.41570683926646
 30
0
 11
2.57220589266451
 21
4.41570683926646
 31
0
  0
LINE
  8
0
 62
7
 10
2.57220589266451
 20
4.41570683926646
 30
0
 11
2.580305892664509
 21
4.41870683926646
 31
0
  0
LINE
  8
0
 62
7
 10
2.580305892664509
 20
4.41870683926646
 30
0
 11
2.588405892664509
 21
4.424706839266461
 31
0
  0
LINE
  8
0
 62
7
 10
2.588405892664509
 20
4.424706839266461
 30
0
 11
2.59380589266451
 21
4.43070683926646
 31
0
  0
LINE
  8
0
 62
7
 10
2.59380589266451
 20
4.43070683926646
 30
0
 11
2.59920589266451
 21
4.439706839266461
 31
0
  0
LINE
  8
0
 62
7
 10
2.59920589266451
 20
4.439706839266461
 30
0
 11
2.60190589266451
 21
4.45170683926646
 31
0
  0
LINE
  8
0
 62
7
 10
2.60190589266451
 20
4.45170683926646
 30
0
 11
2.60190589266451
 21
4.475706839266461
 31
0
  0
LINE
  8
0
 62
7
 10
2.60190589266451
 20
4.475706839266461
 30
0
 11
2.569505892664509
 21
4.475706839266461
 31
0
  0
LINE
  8
0
 62
7
 10
2.680205892664509
 20
4.535706839266459
 30
0
 11
2.664005892664509
 21
4.535706839266459
 31
0
  0
LINE
  8
0
 62
7
 10
2.664005892664509
 20
4.535706839266459
 30
0
 11
2.655905892664509
 21
4.53270683926646
 31
0
  0
LINE
  8
0
 62
7
 10
2.655905892664509
 20
4.53270683926646
 30
0
 11
2.647805892664509
 21
4.526706839266461
 31
0
  0
LINE
  8
0
 62
7
 10
2.647805892664509
 20
4.526706839266461
 30
0
 11
2.64240589266451
 21
4.52070683926646
 31
0
  0
LINE
  8
0
 62
7
 10
2.64240589266451
 20
4.52070683926646
 30
0
 11
2.637005892664509
 21
4.511706839266461
 31
0
  0
LINE
  8
0
 62
7
 10
2.637005892664509
 20
4.511706839266461
 30
0
 11
2.634305892664511
 21
4.499706839266461
 31
0
  0
LINE
  8
0
 62
7
 10
2.634305892664511
 20
4.499706839266461
 30
0
 11
2.634305892664511
 21
4.45170683926646
 31
0
  0
LINE
  8
0
 62
7
 10
2.634305892664511
 20
4.45170683926646
 30
0
 11
2.637005892664509
 21
4.439706839266461
 31
0
  0
LINE
  8
0
 62
7
 10
2.637005892664509
 20
4.439706839266461
 30
0
 11
2.64240589266451
 21
4.43070683926646
 31
0
  0
LINE
  8
0
 62
7
 10
2.64240589266451
 20
4.43070683926646
 30
0
 11
2.647805892664509
 21
4.424706839266461
 31
0
  0
LINE
  8
0
 62
7
 10
2.647805892664509
 20
4.424706839266461
 30
0
 11
2.655905892664509
 21
4.41870683926646
 31
0
  0
LINE
  8
0
 62
7
 10
2.655905892664509
 20
4.41870683926646
 30
0
 11
2.664005892664509
 21
4.41570683926646
 31
0
  0
LINE
  8
0
 62
7
 10
2.664005892664509
 20
4.41570683926646
 30
0
 11
2.680205892664509
 21
4.41570683926646
 31
0
  0
LINE
  8
0
 62
7
 10
2.680205892664509
 20
4.41570683926646
 30
0
 11
2.688305892664509
 21
4.41870683926646
 31
0
  0
LINE
  8
0
 62
7
 10
2.688305892664509
 20
4.41870683926646
 30
0
 11
2.696405892664509
 21
4.424706839266461
 31
0
  0
LINE
  8
0
 62
7
 10
2.696405892664509
 20
4.424706839266461
 30
0
 11
2.701805892664511
 21
4.43070683926646
 31
0
  0
LINE
  8
0
 62
7
 10
2.701805892664511
 20
4.43070683926646
 30
0
 11
2.70720589266451
 21
4.439706839266461
 31
0
  0
LINE
  8
0
 62
7
 10
2.70720589266451
 20
4.439706839266461
 30
0
 11
2.70990589266451
 21
4.45170683926646
 31
0
  0
LINE
  8
0
 62
7
 10
2.70990589266451
 20
4.45170683926646
 30
0
 11
2.70990589266451
 21
4.499706839266461
 31
0
  0
LINE
  8
0
 62
7
 10
2.70990589266451
 20
4.499706839266461
 30
0
 11
2.70720589266451
 21
4.511706839266461
 31
0
  0
LINE
  8
0
 62
7
 10
2.70720589266451
 20
4.511706839266461
 30
0
 11
2.701805892664511
 21
4.52070683926646
 31
0
  0
LINE
  8
0
 62
7
 10
2.701805892664511
 20
4.52070683926646
 30
0
 11
2.696405892664509
 21
4.526706839266461
 31
0
  0
LINE
  8
0
 62
7
 10
2.696405892664509
 20
4.526706839266461
 30
0
 11
2.688305892664509
 21
4.53270683926646
 31
0
  0
LINE
  8
0
 62
7
 10
2.688305892664509
 20
4.53270683926646
 30
0
 11
2.680205892664509
 21
4.535706839266459
 31
0
  0
LINE
  8
0
 62
7
 10
2.73150589266451
 20
4.535706839266459
 30
0
 11
2.76930589266451
 21
4.535706839266459
 31
0
  0
LINE
  8
0
 62
7
 10
2.76930589266451
 20
4.535706839266459
 30
0
 11
2.76930589266451
 21
4.41570683926646
 31
0
  0
LINE
  8
0
 62
7
 10
2.76930589266451
 20
4.535706839266459
 30
0
 11
2.80710589266451
 21
4.535706839266459
 31
0
  0
LINE
  8
0
 62
7
 10
2.83950589266451
 20
4.535706839266459
 30
0
 11
2.87730589266451
 21
4.535706839266459
 31
0
  0
LINE
  8
0
 62
7
 10
2.87730589266451
 20
4.535706839266459
 30
0
 11
2.87730589266451
 21
4.41570683926646
 31
0
  0
LINE
  8
0
 62
7
 10
2.87730589266451
 20
4.535706839266459
 30
0
 11
2.915105892664509
 21
4.535706839266459
 31
0
  0
LINE
  8
0
 62
7
 10
3.033905892664509
 20
4.45770683926646
 30
0
 11
3.08790589266451
 21
4.45770683926646
 31
0
  0
LINE
  8
0
 62
7
 10
3.195905892664509
 20
4.535706839266459
 30
0
 11
3.233705892664511
 21
4.535706839266459
 31
0
  0
LINE
  8
0
 62
7
 10
3.233705892664511
 20
4.535706839266459
 30
0
 11
3.233705892664511
 21
4.41570683926646
 31
0
  0
LINE
  8
0
 62
7
 10
3.233705892664511
 20
4.535706839266459
 30
0
 11
3.271505892664509
 21
4.535706839266459
 31
0
  0
LINE
  8
0
 62
7
 10
3.303905892664509
 20
4.41570683926646
 30
0
 11
3.303905892664509
 21
4.535706839266459
 31
0
  0
LINE
  8
0
 62
7
 10
3.303905892664509
 20
4.535706839266459
 30
0
 11
3.355205892664511
 21
4.535706839266459
 31
0
  0
LINE
  8
0
 62
7
 10
3.355205892664511
 20
4.535706839266459
 30
0
 11
3.366005892664509
 21
4.53270683926646
 31
0
  0
LINE
  8
0
 62
7
 10
3.366005892664509
 20
4.53270683926646
 30
0
 11
3.37410589266451
 21
4.526706839266461
 31
0
  0
LINE
  8
0
 62
7
 10
3.37410589266451
 20
4.526706839266461
 30
0
 11
3.37680589266451
 21
4.52070683926646
 31
0
  0
LINE
  8
0
 62
7
 10
3.37680589266451
 20
4.52070683926646
 30
0
 11
3.379505892664509
 21
4.511706839266461
 31
0
  0
LINE
  8
0
 62
7
 10
3.379505892664509
 20
4.511706839266461
 30
0
 11
3.379505892664509
 21
4.499706839266461
 31
0
  0
LINE
  8
0
 62
7
 10
3.379505892664509
 20
4.499706839266461
 30
0
 11
3.37680589266451
 21
4.49070683926646
 31
0
  0
LINE
  8
0
 62
7
 10
3.37680589266451
 20
4.49070683926646
 30
0
 11
3.37410589266451
 21
4.484706839266461
 31
0
  0
LINE
  8
0
 62
7
 10
3.37410589266451
 20
4.484706839266461
 30
0
 11
3.366005892664509
 21
4.47870683926646
 31
0
  0
LINE
  8
0
 62
7
 10
3.366005892664509
 20
4.47870683926646
 30
0
 11
3.355205892664511
 21
4.475706839266461
 31
0
  0
LINE
  8
0
 62
7
 10
3.355205892664511
 20
4.475706839266461
 30
0
 11
3.347105892664509
 21
4.475706839266461
 31
0
  0
LINE
  8
0
 62
7
 10
3.347105892664509
 20
4.475706839266461
 30
0
 11
3.379505892664509
 21
4.41570683926646
 31
0
  0
LINE
  8
0
 62
7
 10
3.347105892664509
 20
4.475706839266461
 30
0
 11
3.303905892664509
 21
4.475706839266461
 31
0
  0
LINE
  8
0
 62
7
 10
3.47670589266451
 20
4.535706839266459
 30
0
 11
3.40110589266451
 21
4.535706839266459
 31
0
  0
LINE
  8
0
 62
7
 10
3.40110589266451
 20
4.535706839266459
 30
0
 11
3.40110589266451
 21
4.475706839266461
 31
0
  0
LINE
  8
0
 62
7
 10
3.40110589266451
 20
4.41570683926646
 30
0
 11
3.47670589266451
 21
4.41570683926646
 31
0
  0
LINE
  8
0
 62
7
 10
3.465905892664511
 20
4.475706839266461
 30
0
 11
3.40110589266451
 21
4.475706839266461
 31
0
  0
LINE
  8
0
 62
7
 10
3.40110589266451
 20
4.475706839266461
 30
0
 11
3.40110589266451
 21
4.41570683926646
 31
0
  0
LINE
  8
0
 62
7
 10
3.509105892664511
 20
4.41570683926646
 30
0
 11
3.509105892664511
 21
4.475706839266461
 31
0
  0
LINE
  8
0
 62
7
 10
3.509105892664511
 20
4.535706839266459
 30
0
 11
3.560405892664511
 21
4.535706839266459
 31
0
  0
LINE
  8
0
 62
7
 10
3.560405892664511
 20
4.535706839266459
 30
0
 11
3.571205892664511
 21
4.53270683926646
 31
0
  0
LINE
  8
0
 62
7
 10
3.571205892664511
 20
4.53270683926646
 30
0
 11
3.57930589266451
 21
4.526706839266461
 31
0
  0
LINE
  8
0
 62
7
 10
3.57930589266451
 20
4.526706839266461
 30
0
 11
3.58200589266451
 21
4.52070683926646
 31
0
  0
LINE
  8
0
 62
7
 10
3.58200589266451
 20
4.52070683926646
 30
0
 11
3.58470589266451
 21
4.511706839266461
 31
0
  0
LINE
  8
0
 62
7
 10
3.58470589266451
 20
4.511706839266461
 30
0
 11
3.58470589266451
 21
4.499706839266461
 31
0
  0
LINE
  8
0
 62
7
 10
3.58470589266451
 20
4.499706839266461
 30
0
 11
3.58200589266451
 21
4.49070683926646
 31
0
  0
LINE
  8
0
 62
7
 10
3.58200589266451
 20
4.49070683926646
 30
0
 11
3.57930589266451
 21
4.484706839266461
 31
0
  0
LINE
  8
0
 62
7
 10
3.57930589266451
 20
4.484706839266461
 30
0
 11
3.571205892664511
 21
4.47870683926646
 31
0
  0
LINE
  8
0
 62
7
 10
3.571205892664511
 20
4.47870683926646
 30
0
 11
3.560405892664511
 21
4.475706839266461
 31
0
  0
LINE
  8
0
 62
7
 10
3.560405892664511
 20
4.475706839266461
 30
0
 11
3.509105892664511
 21
4.475706839266461
 31
0
  0
LINE
  8
0
 62
7
 10
3.509105892664511
 20
4.475706839266461
 30
0
 11
3.509105892664511
 21
4.535706839266459
 31
0
  0
LINE
  8
0
 62
7
 10
3.60630589266451
 20
4.41570683926646
 30
0
 11
3.60630589266451
 21
4.475706839266461
 31
0
  0
LINE
  8
0
 62
7
 10
3.60630589266451
 20
4.535706839266459
 30
0
 11
3.657605892664511
 21
4.535706839266459
 31
0
  0
LINE
  8
0
 62
7
 10
3.657605892664511
 20
4.535706839266459
 30
0
 11
3.66840589266451
 21
4.53270683926646
 31
0
  0
LINE
  8
0
 62
7
 10
3.66840589266451
 20
4.53270683926646
 30
0
 11
3.67650589266451
 21
4.526706839266461
 31
0
  0
LINE
  8
0
 62
7
 10
3.67650589266451
 20
4.526706839266461
 30
0
 11
3.67920589266451
 21
4.52070683926646
 31
0
  0
LINE
  8
0
 62
7
 10
3.67920589266451
 20
4.52070683926646
 30
0
 11
3.681905892664511
 21
4.511706839266461
 31
0
  0
LINE
  8
0
 62
7
 10
3.681905892664511
 20
4.511706839266461
 30
0
 11
3.681905892664511
 21
4.499706839266461
 31
0
  0
LINE
  8
0
 62
7
 10
3.681905892664511
 20
4.499706839266461
 30
0
 11
3.67920589266451
 21
4.49070683926646
 31
0
  0
LINE
  8
0
 62
7
 10
3.67920589266451
 20
4.49070683926646
 30
0
 11
3.67650589266451
 21
4.484706839266461
 31
0
  0
LINE
  8
0
 62
7
 10
3.67650589266451
 20
4.484706839266461
 30
0
 11
3.66840589266451
 21
4.47870683926646
 31
0
  0
LINE
  8
0
 62
7
 10
3.66840589266451
 20
4.47870683926646
 30
0
 11
3.657605892664511
 21
4.475706839266461
 31
0
  0
LINE
  8
0
 62
7
 10
3.657605892664511
 20
4.475706839266461
 30
0
 11
3.60630589266451
 21
4.475706839266461
 31
0
  0
LINE
  8
0
 62
7
 10
3.60630589266451
 20
4.475706839266461
 30
0
 11
3.60630589266451
 21
4.535706839266459
 31
0
  0
LINE
  8
0
 62
7
 10
3.77910589266451
 20
4.535706839266459
 30
0
 11
3.70350589266451
 21
4.535706839266459
 31
0
  0
LINE
  8
0
 62
7
 10
3.70350589266451
 20
4.535706839266459
 30
0
 11
3.70350589266451
 21
4.475706839266461
 31
0
  0
LINE
  8
0
 62
7
 10
3.70350589266451
 20
4.41570683926646
 30
0
 11
3.77910589266451
 21
4.41570683926646
 31
0
  0
LINE
  8
0
 62
7
 10
3.768305892664511
 20
4.475706839266461
 30
0
 11
3.70350589266451
 21
4.475706839266461
 31
0
  0
LINE
  8
0
 62
7
 10
3.70350589266451
 20
4.475706839266461
 30
0
 11
3.70350589266451
 21
4.41570683926646
 31
0
  0
LINE
  8
0
 62
7
 10
0.625
 20
2.889999999999999
 30
0
 11
0.625
 21
3.009999999999999
 31
0
  0
LINE
  8
0
 62
7
 10
0.625
 20
3.009999999999999
 30
0
 11
0.6682000000000001
 21
2.914
 31
0
  0
LINE
  8
0
 62
7
 10
0.6682000000000001
 20
2.914
 30
0
 11
0.7114
 21
3.009999999999999
 31
0
  0
LINE
  8
0
 62
7
 10
0.7114
 20
3.009999999999999
 30
0
 11
0.7114
 21
2.889999999999999
 31
0
  0
LINE
  8
0
 62
7
 10
0.7438
 20
2.992
 30
0
 11
0.7492000000000001
 21
3.001
 31
0
  0
LINE
  8
0
 62
7
 10
0.7492000000000001
 20
3.001
 30
0
 11
0.7573000000000001
 21
3.007
 31
0
  0
LINE
  8
0
 62
7
 10
0.7573000000000001
 20
3.007
 30
0
 11
0.7681
 21
3.009999999999999
 31
0
  0
LINE
  8
0
 62
7
 10
0.7681
 20
3.009999999999999
 30
0
 11
0.7843000000000001
 21
3.009999999999999
 31
0
  0
LINE
  8
0
 62
7
 10
0.7843000000000001
 20
3.009999999999999
 30
0
 11
0.7951
 21
3.007
 31
0
  0
LINE
  8
0
 62
7
 10
0.7951
 20
3.007
 30
0
 11
0.8032
 21
3.001
 31
0
  0
LINE
  8
0
 62
7
 10
0.8032
 20
3.001
 30
0
 11
0.8086000000000001
 21
2.992
 31
0
  0
LINE
  8
0
 62
7
 10
0.8086000000000001
 20
2.992
 30
0
 11
0.8086000000000001
 21
2.979999999999999
 31
0
  0
LINE
  8
0
 62
7
 10
0.8086000000000001
 20
2.979999999999999
 30
0
 11
0.8032
 21
2.968
 31
0
  0
LINE
  8
0
 62
7
 10
0.8032
 20
2.968
 30
0
 11
0.7438
 21
2.889999999999999
 31
0
  0
LINE
  8
0
 62
7
 10
0.7438
 20
2.889999999999999
 30
0
 11
0.8086000000000001
 21
2.889999999999999
 31
0
  0
LINE
  8
0
 62
7
 10
0.8410000000000002
 20
3.009999999999999
 30
0
 11
0.8788
 21
2.889999999999999
 31
0
  0
LINE
  8
0
 62
7
 10
0.8788
 20
2.889999999999999
 30
0
 11
0.9166000000000003
 21
3.009999999999999
 31
0
  0
LINE
  8
0
 62
7
 10
0.9490000000000001
 20
2.992
 30
0
 11
0.9544000000000001
 21
3.001
 31
0
  0
LINE
  8
0
 62
7
 10
0.9544000000000001
 20
3.001
 30
0
 11
0.9625
 21
3.007
 31
0
  0
LINE
  8
0
 62
7
 10
0.9625
 20
3.007
 30
0
 11
0.9733000000000001
 21
3.009999999999999
 31
0
  0
LINE
  8
0
 62
7
 10
0.9733000000000001
 20
3.009999999999999
 30
0
 11
0.9895
 21
3.009999999999999
 31
0
  0
LINE
  8
0
 62
7
 10
0.9895
 20
3.009999999999999
 30
0
 11
0.9976000000000002
 21
3.007
 31
0
  0
LINE
  8
0
 62
7
 10
0.9976000000000002
 20
3.007
 30
0
 11
1.0057
 21
3.001
 31
0
  0
LINE
  8
0
 62
7
 10
1.0057
 20
3.001
 30
0
 11
1.0111
 21
2.992
 31
0
  0
LINE
  8
0
 62
7
 10
1.0111
 20
2.992
 30
0
 11
1.0138
 21
2.979999999999999
 31
0
  0
LINE
  8
0
 62
7
 10
1.0138
 20
2.979999999999999
 30
0
 11
1.0138
 21
2.971
 31
0
  0
LINE
  8
0
 62
7
 10
1.0138
 20
2.971
 30
0
 11
1.0111
 21
2.962
 31
0
  0
LINE
  8
0
 62
7
 10
1.0111
 20
2.962
 30
0
 11
1.0057
 21
2.956
 31
0
  0
LINE
  8
0
 62
7
 10
1.0057
 20
2.956
 30
0
 11
0.9922000000000003
 21
2.949999999999999
 31
0
  0
LINE
  8
0
 62
7
 10
0.9733000000000001
 20
2.949999999999999
 30
0
 11
0.9922000000000003
 21
2.949999999999999
 31
0
  0
LINE
  8
0
 62
7
 10
0.9922000000000003
 20
2.949999999999999
 30
0
 11
1.0057
 21
2.944
 31
0
  0
LINE
  8
0
 62
7
 10
1.0057
 20
2.944
 30
0
 11
1.0111
 21
2.938
 31
0
  0
LINE
  8
0
 62
7
 10
1.0111
 20
2.938
 30
0
 11
1.0138
 21
2.929
 31
0
  0
LINE
  8
0
 62
7
 10
1.0138
 20
2.929
 30
0
 11
1.0138
 21
2.919999999999999
 31
0
  0
LINE
  8
0
 62
7
 10
1.0138
 20
2.919999999999999
 30
0
 11
1.0111
 21
2.908
 31
0
  0
LINE
  8
0
 62
7
 10
1.0111
 20
2.908
 30
0
 11
1.0057
 21
2.899
 31
0
  0
LINE
  8
0
 62
7
 10
1.0057
 20
2.899
 30
0
 11
0.9976000000000002
 21
2.893
 31
0
  0
LINE
  8
0
 62
7
 10
0.9976000000000002
 20
2.893
 30
0
 11
0.9895
 21
2.889999999999999
 31
0
  0
LINE
  8
0
 62
7
 10
0.9895
 20
2.889999999999999
 30
0
 11
0.9733000000000001
 21
2.889999999999999
 31
0
  0
LINE
  8
0
 62
7
 10
0.9733000000000001
 20
2.889999999999999
 30
0
 11
0.9625
 21
2.893
 31
0
  0
LINE
  8
0
 62
7
 10
0.9625
 20
2.893
 30
0
 11
0.9544000000000001
 21
2.899
 31
0
  0
LINE
  8
0
 62
7
 10
0.9544000000000001
 20
2.899
 30
0
 11
0.9490000000000001
 21
2.908
 31
0
  0
LINE
  8
0
 62
7
 10
1.0462
 20
2.992
 30
0
 11
1.0516
 21
3.001
 31
0
  0
LINE
  8
0
 62
7
 10
1.0516
 20
3.001
 30
0
 11
1.0597
 21
3.007
 31
0
  0
LINE
  8
0
 62
7
 10
1.0597
 20
3.007
 30
0
 11
1.0705
 21
3.009999999999999
 31
0
  0
LINE
  8
0
 62
7
 10
1.0705
 20
3.009999999999999
 30
0
 11
1.0867
 21
3.009999999999999
 31
0
  0
LINE
  8
0
 62
7
 10
1.0867
 20
3.009999999999999
 30
0
 11
1.0948
 21
3.007
 31
0
  0
LINE
  8
0
 62
7
 10
1.0948
 20
3.007
 30
0
 11
1.1029
 21
3.001
 31
0
  0
LINE
  8
0
 62
7
 10
1.1029
 20
3.001
 30
0
 11
1.1083
 21
2.992
 31
0
  0
LINE
  8
0
 62
7
 10
1.1083
 20
2.992
 30
0
 11
1.111
 21
2.979999999999999
 31
0
  0
LINE
  8
0
 62
7
 10
1.111
 20
2.979999999999999
 30
0
 11
1.111
 21
2.971
 31
0
  0
LINE
  8
0
 62
7
 10
1.111
 20
2.971
 30
0
 11
1.1083
 21
2.962
 31
0
  0
LINE
  8
0
 62
7
 10
1.1083
 20
2.962
 30
0
 11
1.1029
 21
2.956
 31
0
  0
LINE
  8
0
 62
7
 10
1.1029
 20
2.956
 30
0
 11
1.0894
 21
2.949999999999999
 31
0
  0
LINE
  8
0
 62
7
 10
1.0705
 20
2.949999999999999
 30
0
 11
1.0894
 21
2.949999999999999
 31
0
  0
LINE
  8
0
 62
7
 10
1.0894
 20
2.949999999999999
 30
0
 11
1.1029
 21
2.944
 31
0
  0
LINE
  8
0
 62
7
 10
1.1029
 20
2.944
 30
0
 11
1.1083
 21
2.938
 31
0
  0
LINE
  8
0
 62
7
 10
1.1083
 20
2.938
 30
0
 11
1.111
 21
2.929
 31
0
  0
LINE
  8
0
 62
7
 10
1.111
 20
2.929
 30
0
 11
1.111
 21
2.919999999999999
 31
0
  0
LINE
  8
0
 62
7
 10
1.111
 20
2.919999999999999
 30
0
 11
1.1083
 21
2.908
 31
0
  0
LINE
  8
0
 62
7
 10
1.1083
 20
2.908
 30
0
 11
1.1029
 21
2.899
 31
0
  0
LINE
  8
0
 62
7
 10
1.1029
 20
2.899
 30
0
 11
1.0948
 21
2.893
 31
0
  0
LINE
  8
0
 62
7
 10
1.0948
 20
2.893
 30
0
 11
1.0867
 21
2.889999999999999
 31
0
  0
LINE
  8
0
 62
7
 10
1.0867
 20
2.889999999999999
 30
0
 11
1.0705
 21
2.889999999999999
 31
0
  0
LINE
  8
0
 62
7
 10
1.0705
 20
2.889999999999999
 30
0
 11
1.0597
 21
2.893
 31
0
  0
LINE
  8
0
 62
7
 10
1.0597
 20
2.893
 30
0
 11
1.0516
 21
2.899
 31
0
  0
LINE
  8
0
 62
7
 10
1.0516
 20
2.899
 30
0
 11
1.0462
 21
2.908
 31
0
  0
LINE
  8
0
 62
7
 10
1.1704
 20
3.009999999999999
 30
0
 11
1.1812
 21
3.009999999999999
 31
0
  0
LINE
  8
0
 62
7
 10
1.1812
 20
3.009999999999999
 30
0
 11
1.1893
 21
3.007
 31
0
  0
LINE
  8
0
 62
7
 10
1.1893
 20
3.007
 30
0
 11
1.1947
 21
3.001
 31
0
  0
LINE
  8
0
 62
7
 10
1.1947
 20
3.001
 30
0
 11
1.2001
 21
2.992
 31
0
  0
LINE
  8
0
 62
7
 10
1.2001
 20
2.992
 30
0
 11
1.2001
 21
2.979999999999999
 31
0
  0
LINE
  8
0
 62
7
 10
1.2001
 20
2.979999999999999
 30
0
 11
1.1974
 21
2.974
 31
0
  0
LINE
  8
0
 62
7
 10
1.1974
 20
2.974
 30
0
 11
1.1893
 21
2.964999999999999
 31
0
  0
LINE
  8
0
 62
7
 10
1.1893
 20
2.964999999999999
 30
0
 11
1.1812
 21
2.962
 31
0
  0
LINE
  8
0
 62
7
 10
1.1812
 20
2.962
 30
0
 11
1.1704
 21
2.962
 31
0
  0
LINE
  8
0
 62
7
 10
1.1704
 20
2.962
 30
0
 11
1.1623
 21
2.964999999999999
 31
0
  0
LINE
  8
0
 62
7
 10
1.1623
 20
2.964999999999999
 30
0
 11
1.1542
 21
2.974
 31
0
  0
LINE
  8
0
 62
7
 10
1.1542
 20
2.974
 30
0
 11
1.1515
 21
2.979999999999999
 31
0
  0
LINE
  8
0
 62
7
 10
1.1515
 20
2.979999999999999
 30
0
 11
1.1515
 21
2.992
 31
0
  0
LINE
  8
0
 62
7
 10
1.1515
 20
2.992
 30
0
 11
1.1569
 21
3.001
 31
0
  0
LINE
  8
0
 62
7
 10
1.1569
 20
3.001
 30
0
 11
1.1623
 21
3.007
 31
0
  0
LINE
  8
0
 62
7
 10
1.1623
 20
3.007
 30
0
 11
1.1704
 21
3.009999999999999
 31
0
  0
LINE
  8
0
 62
7
 10
1.1704
 20
2.962
 30
0
 11
1.1569
 21
2.956
 31
0
  0
LINE
  8
0
 62
7
 10
1.1569
 20
2.956
 30
0
 11
1.1488
 21
2.947
 31
0
  0
LINE
  8
0
 62
7
 10
1.1488
 20
2.947
 30
0
 11
1.1434
 21
2.934999999999999
 31
0
  0
LINE
  8
0
 62
7
 10
1.1434
 20
2.934999999999999
 30
0
 11
1.1434
 21
2.917
 31
0
  0
LINE
  8
0
 62
7
 10
1.1434
 20
2.917
 30
0
 11
1.1488
 21
2.904999999999999
 31
0
  0
LINE
  8
0
 62
7
 10
1.1488
 20
2.904999999999999
 30
0
 11
1.1569
 21
2.896
 31
0
  0
LINE
  8
0
 62
7
 10
1.1569
 20
2.896
 30
0
 11
1.1677
 21
2.889999999999999
 31
0
  0
LINE
  8
0
 62
7
 10
1.1677
 20
2.889999999999999
 30
0
 11
1.1839
 21
2.889999999999999
 31
0
  0
LINE
  8
0
 62
7
 10
1.1839
 20
2.889999999999999
 30
0
 11
1.1947
 21
2.896
 31
0
  0
LINE
  8
0
 62
7
 10
1.1947
 20
2.896
 30
0
 11
1.2028
 21
2.904999999999999
 31
0
  0
LINE
  8
0
 62
7
 10
1.2028
 20
2.904999999999999
 30
0
 11
1.2082
 21
2.917
 31
0
  0
LINE
  8
0
 62
7
 10
1.2082
 20
2.917
 30
0
 11
1.2082
 21
2.934999999999999
 31
0
  0
LINE
  8
0
 62
7
 10
1.2082
 20
2.934999999999999
 30
0
 11
1.2028
 21
2.947
 31
0
  0
LINE
  8
0
 62
7
 10
1.2028
 20
2.947
 30
0
 11
1.1947
 21
2.956
 31
0
  0
LINE
  8
0
 62
7
 10
1.1947
 20
2.956
 30
0
 11
1.1812
 21
2.962
 31
0
  0
LINE
  8
0
 62
7
 10
1.3162
 20
2.889999999999999
 30
0
 11
1.2514
 21
2.889999999999999
 31
0
  0
LINE
  8
0
 62
7
 10
1.2514
 20
2.889999999999999
 30
0
 11
1.2514
 21
3.009999999999999
 31
0
  0
LINE
  8
0
 62
7
 10
1.3486
 20
2.938
 30
0
 11
1.3513
 21
2.949999999999999
 31
0
  0
LINE
  8
0
 62
7
 10
1.3513
 20
2.949999999999999
 30
0
 11
1.3567
 21
2.959
 31
0
  0
LINE
  8
0
 62
7
 10
1.3567
 20
2.959
 30
0
 11
1.3648
 21
2.964999999999999
 31
0
  0
LINE
  8
0
 62
7
 10
1.3648
 20
2.964999999999999
 30
0
 11
1.3729
 21
2.968
 31
0
  0
LINE
  8
0
 62
7
 10
1.3729
 20
2.968
 30
0
 11
1.3891
 21
2.968
 31
0
  0
LINE
  8
0
 62
7
 10
1.3891
 20
2.968
 30
0
 11
1.3972
 21
2.964999999999999
 31
0
  0
LINE
  8
0
 62
7
 10
1.3972
 20
2.964999999999999
 30
0
 11
1.4053
 21
2.959
 31
0
  0
LINE
  8
0
 62
7
 10
1.4053
 20
2.959
 30
0
 11
1.4107
 21
2.949999999999999
 31
0
  0
LINE
  8
0
 62
7
 10
1.4107
 20
2.949999999999999
 30
0
 11
1.4134
 21
2.938
 31
0
  0
LINE
  8
0
 62
7
 10
1.4134
 20
2.938
 30
0
 11
1.4134
 21
2.919999999999999
 31
0
  0
LINE
  8
0
 62
7
 10
1.4134
 20
2.919999999999999
 30
0
 11
1.4107
 21
2.908
 31
0
  0
LINE
  8
0
 62
7
 10
1.4107
 20
2.908
 30
0
 11
1.4053
 21
2.899
 31
0
  0
LINE
  8
0
 62
7
 10
1.4053
 20
2.899
 30
0
 11
1.3972
 21
2.893
 31
0
  0
LINE
  8
0
 62
7
 10
1.3972
 20
2.893
 30
0
 11
1.3891
 21
2.889999999999999
 31
0
  0
LINE
  8
0
 62
7
 10
1.3891
 20
2.889999999999999
 30
0
 11
1.3729
 21
2.889999999999999
 31
0
  0
LINE
  8
0
 62
7
 10
1.3729
 20
2.889999999999999
 30
0
 11
1.3648
 21
2.893
 31
0
  0
LINE
  8
0
 62
7
 10
1.3648
 20
2.893
 30
0
 11
1.3567
 21
2.899
 31
0
  0
LINE
  8
0
 62
7
 10
1.3567
 20
2.899
 30
0
 11
1.3513
 21
2.908
 31
0
  0
LINE
  8
0
 62
7
 10
1.3513
 20
2.908
 30
0
 11
1.3486
 21
2.919999999999999
 31
0
  0
LINE
  8
0
 62
7
 10
1.3486
 20
2.919999999999999
 30
0
 11
1.3486
 21
2.938
 31
0
  0
LINE
  8
0
 62
7
 10
1.3486
 20
2.979999999999999
 30
0
 11
1.3513
 21
2.992
 31
0
  0
LINE
  8
0
 62
7
 10
1.3513
 20
2.992
 30
0
 11
1.3567
 21
3.001
 31
0
  0
LINE
  8
0
 62
7
 10
1.3567
 20
3.001
 30
0
 11
1.3648
 21
3.007
 31
0
  0
LINE
  8
0
 62
7
 10
1.3648
 20
3.007
 30
0
 11
1.3729
 21
3.009999999999999
 31
0
  0
LINE
  8
0
 62
7
 10
1.3729
 20
3.009999999999999
 30
0
 11
1.3891
 21
3.009999999999999
 31
0
  0
LINE
  8
0
 62
7
 10
1.3891
 20
3.009999999999999
 30
0
 11
1.3972
 21
3.007
 31
0
  0
LINE
  8
0
 62
7
 10
1.3972
 20
3.007
 30
0
 11
1.4053
 21
3.001
 31
0
  0
LINE
  8
0
 62
7
 10
1.4053
 20
3.001
 30
0
 11
1.4107
 21
2.992
 31
0
  0
LINE
  8
0
 62
7
 10
1.3486
 20
2.938
 30
0
 11
1.3486
 21
2.979999999999999
 31
0
  0
LINE
  8
0
 62
7
 10
3.125
 20
2.889999999999999
 30
0
 11
3.125
 21
2.989999999999999
 31
0
  0
LINE
  8
0
 62
7
 10
3.125
 20
2.989999999999999
 30
0
 11
3.188
 21
2.889999999999999
 31
0
  0
LINE
  8
0
 62
7
 10
3.188
 20
2.889999999999999
 30
0
 11
3.188
 21
2.989999999999999
 31
0
  0
LINE
  8
0
 62
7
 10
3.269
 20
2.889999999999999
 30
0
 11
3.215
 21
2.889999999999999
 31
0
  0
LINE
  8
0
 62
7
 10
3.215
 20
2.889999999999999
 30
0
 11
3.215
 21
2.989999999999999
 31
0
  0
LINE
  8
0
 62
7
 10
3.296
 20
2.94
 30
0
 11
3.332
 21
2.94
 31
0
  0
LINE
  8
0
 62
7
 10
3.332
 20
2.94
 30
0
 11
3.3365
 21
2.94
 31
0
  0
LINE
  8
0
 62
7
 10
3.3365
 20
2.94
 30
0
 11
3.3455
 21
2.934999999999999
 31
0
  0
LINE
  8
0
 62
7
 10
3.3455
 20
2.934999999999999
 30
0
 11
3.35
 21
2.929999999999999
 31
0
  0
LINE
  8
0
 62
7
 10
3.35
 20
2.929999999999999
 30
0
 11
3.3545
 21
2.919999999999999
 31
0
  0
LINE
  8
0
 62
7
 10
3.3545
 20
2.919999999999999
 30
0
 11
3.3545
 21
2.909999999999999
 31
0
  0
LINE
  8
0
 62
7
 10
3.3545
 20
2.909999999999999
 30
0
 11
3.35
 21
2.899999999999999
 31
0
  0
LINE
  8
0
 62
7
 10
3.35
 20
2.899999999999999
 30
0
 11
3.3455
 21
2.895
 31
0
  0
LINE
  8
0
 62
7
 10
3.3455
 20
2.895
 30
0
 11
3.3365
 21
2.889999999999999
 31
0
  0
LINE
  8
0
 62
7
 10
3.3365
 20
2.889999999999999
 30
0
 11
3.296
 21
2.889999999999999
 31
0
  0
LINE
  8
0
 62
7
 10
3.296
 20
2.889999999999999
 30
0
 11
3.296
 21
2.94
 31
0
  0
LINE
  8
0
 62
7
 10
3.296
 20
2.989999999999999
 30
0
 11
3.32975
 21
2.989999999999999
 31
0
  0
LINE
  8
0
 62
7
 10
3.32975
 20
2.989999999999999
 30
0
 11
3.341000000000001
 21
2.987499999999999
 31
0
  0
LINE
  8
0
 62
7
 10
3.341000000000001
 20
2.987499999999999
 30
0
 11
3.34775
 21
2.979999999999999
 31
0
  0
LINE
  8
0
 62
7
 10
3.34775
 20
2.979999999999999
 30
0
 11
3.35
 21
2.969999999999999
 31
0
  0
LINE
  8
0
 62
7
 10
3.35
 20
2.969999999999999
 30
0
 11
3.35
 21
2.959999999999999
 31
0
  0
LINE
  8
0
 62
7
 10
3.35
 20
2.959999999999999
 30
0
 11
3.3455
 21
2.949999999999999
 31
0
  0
LINE
  8
0
 62
7
 10
3.3455
 20
2.949999999999999
 30
0
 11
3.338750000000001
 21
2.942499999999999
 31
0
  0
LINE
  8
0
 62
7
 10
3.338750000000001
 20
2.942499999999999
 30
0
 11
3.332
 21
2.94
 31
0
  0
LINE
  8
0
 62
7
 10
3.296
 20
2.94
 30
0
 11
3.296
 21
2.989999999999999
 31
0
  0
LINE
  8
0
 62
7
 10
3.49625
 20
2.942499999999999
 30
0
 11
3.4895
 21
2.952499999999999
 31
0
  0
LINE
  8
0
 62
7
 10
3.4895
 20
2.952499999999999
 30
0
 11
3.48275
 21
2.9575
 31
0
  0
LINE
  8
0
 62
7
 10
3.48275
 20
2.9575
 30
0
 11
3.476
 21
2.959999999999999
 31
0
  0
LINE
  8
0
 62
7
 10
3.476
 20
2.959999999999999
 30
0
 11
3.467000000000001
 21
2.959999999999999
 31
0
  0
LINE
  8
0
 62
7
 10
3.467000000000001
 20
2.959999999999999
 30
0
 11
3.46025
 21
2.9575
 31
0
  0
LINE
  8
0
 62
7
 10
3.46025
 20
2.9575
 30
0
 11
3.4535
 21
2.952499999999999
 31
0
  0
LINE
  8
0
 62
7
 10
3.4535
 20
2.952499999999999
 30
0
 11
3.44675
 21
2.942499999999999
 31
0
  0
LINE
  8
0
 62
7
 10
3.44675
 20
2.942499999999999
 30
0
 11
3.4445
 21
2.934999999999999
 31
0
  0
LINE
  8
0
 62
7
 10
3.4445
 20
2.934999999999999
 30
0
 11
3.4445
 21
2.914999999999999
 31
0
  0
LINE
  8
0
 62
7
 10
3.4445
 20
2.914999999999999
 30
0
 11
3.44675
 21
2.907499999999999
 31
0
  0
LINE
  8
0
 62
7
 10
3.44675
 20
2.907499999999999
 30
0
 11
3.4535
 21
2.897499999999999
 31
0
  0
LINE
  8
0
 62
7
 10
3.4535
 20
2.897499999999999
 30
0
 11
3.46025
 21
2.892499999999999
 31
0
  0
LINE
  8
0
 62
7
 10
3.46025
 20
2.892499999999999
 30
0
 11
3.467000000000001
 21
2.889999999999999
 31
0
  0
LINE
  8
0
 62
7
 10
3.467000000000001
 20
2.889999999999999
 30
0
 11
3.476
 21
2.889999999999999
 31
0
  0
LINE
  8
0
 62
7
 10
3.476
 20
2.889999999999999
 30
0
 11
3.48275
 21
2.892499999999999
 31
0
  0
LINE
  8
0
 62
7
 10
3.48275
 20
2.892499999999999
 30
0
 11
3.4895
 21
2.897499999999999
 31
0
  0
LINE
  8
0
 62
7
 10
3.4895
 20
2.897499999999999
 30
0
 11
3.49625
 21
2.907499999999999
 31
0
  0
LINE
  8
0
 62
7
 10
3.56825
 20
2.934999999999999
 30
0
 11
3.566000000000001
 21
2.942499999999999
 31
0
  0
LINE
  8
0
 62
7
 10
3.566000000000001
 20
2.942499999999999
 30
0
 11
3.55925
 21
2.952499999999999
 31
0
  0
LINE
  8
0
 62
7
 10
3.55925
 20
2.952499999999999
 30
0
 11
3.5525
 21
2.9575
 31
0
  0
LINE
  8
0
 62
7
 10
3.5525
 20
2.9575
 30
0
 11
3.54575
 21
2.959999999999999
 31
0
  0
LINE
  8
0
 62
7
 10
3.54575
 20
2.959999999999999
 30
0
 11
3.53675
 21
2.959999999999999
 31
0
  0
LINE
  8
0
 62
7
 10
3.53675
 20
2.959999999999999
 30
0
 11
3.530000000000001
 21
2.9575
 31
0
  0
LINE
  8
0
 62
7
 10
3.530000000000001
 20
2.9575
 30
0
 11
3.52325
 21
2.952499999999999
 31
0
  0
LINE
  8
0
 62
7
 10
3.52325
 20
2.952499999999999
 30
0
 11
3.5165
 21
2.942499999999999
 31
0
  0
LINE
  8
0
 62
7
 10
3.5165
 20
2.942499999999999
 30
0
 11
3.51425
 21
2.934999999999999
 31
0
  0
LINE
  8
0
 62
7
 10
3.51425
 20
2.934999999999999
 30
0
 11
3.51425
 21
2.914999999999999
 31
0
  0
LINE
  8
0
 62
7
 10
3.51425
 20
2.914999999999999
 30
0
 11
3.5165
 21
2.907499999999999
 31
0
  0
LINE
  8
0
 62
7
 10
3.5165
 20
2.907499999999999
 30
0
 11
3.52325
 21
2.897499999999999
 31
0
  0
LINE
  8
0
 62
7
 10
3.52325
 20
2.897499999999999
 30
0
 11
3.530000000000001
 21
2.892499999999999
 31
0
  0
LINE
  8
0
 62
7
 10
3.530000000000001
 20
2.892499999999999
 30
0
 11
3.53675
 21
2.889999999999999
 31
0
  0
LINE
  8
0
 62
7
 10
3.53675
 20
2.889999999999999
 30
0
 11
3.54575
 21
2.889999999999999
 31
0
  0
LINE
  8
0
 62
7
 10
3.54575
 20
2.889999999999999
 30
0
 11
3.5525
 21
2.892499999999999
 31
0
  0
LINE
  8
0
 62
7
 10
3.5525
 20
2.892499999999999
 30
0
 11
3.55925
 21
2.897499999999999
 31
0
  0
LINE
  8
0
 62
7
 10
3.55925
 20
2.897499999999999
 30
0
 11
3.566000000000001
 21
2.907499999999999
 31
0
  0
LINE
  8
0
 62
7
 10
3.566000000000001
 20
2.907499999999999
 30
0
 11
3.56825
 21
2.914999999999999
 31
0
  0
LINE
  8
0
 62
7
 10
3.56825
 20
2.959999999999999
 30
0
 11
3.56825
 21
2.934999999999999
 31
0
  0
LINE
  8
0
 62
7
 10
3.56825
 20
2.892499999999999
 30
0
 11
3.5705
 21
2.889999999999999
 31
0
  0
LINE
  8
0
 62
7
 10
3.5705
 20
2.889999999999999
 30
0
 11
3.57275
 21
2.889999999999999
 31
0
  0
LINE
  8
0
 62
7
 10
3.56825
 20
2.914999999999999
 30
0
 11
3.56825
 21
2.892499999999999
 31
0
  0
LINE
  8
0
 62
7
 10
3.56825
 20
2.934999999999999
 30
0
 11
3.56825
 21
2.914999999999999
 31
0
  0
LINE
  8
0
 62
7
 10
3.59075
 20
2.889999999999999
 30
0
 11
3.59075
 21
2.892499999999999
 31
0
  0
LINE
  8
0
 62
7
 10
3.59075
 20
2.892499999999999
 30
0
 11
3.593
 21
2.892499999999999
 31
0
  0
LINE
  8
0
 62
7
 10
3.593
 20
2.892499999999999
 30
0
 11
3.593
 21
2.889999999999999
 31
0
  0
LINE
  8
0
 62
7
 10
3.593
 20
2.889999999999999
 30
0
 11
3.59075
 21
2.889999999999999
 31
0
  0
LINE
  8
0
 62
7
 10
3.69425
 20
2.959999999999999
 30
0
 11
3.72125
 21
2.989999999999999
 31
0
  0
LINE
  8
0
 62
7
 10
3.72125
 20
2.989999999999999
 30
0
 11
3.72125
 21
2.889999999999999
 31
0
  0
LINE
  8
0
 62
7
 10
3.748250000000001
 20
2.964999999999999
 30
0
 11
3.750500000000001
 21
2.975
 31
0
  0
LINE
  8
0
 62
7
 10
3.750500000000001
 20
2.975
 30
0
 11
3.755000000000001
 21
2.982499999999999
 31
0
  0
LINE
  8
0
 62
7
 10
3.755000000000001
 20
2.982499999999999
 30
0
 11
3.76175
 21
2.987499999999999
 31
0
  0
LINE
  8
0
 62
7
 10
3.76175
 20
2.987499999999999
 30
0
 11
3.7685
 21
2.989999999999999
 31
0
  0
LINE
  8
0
 62
7
 10
3.7685
 20
2.989999999999999
 30
0
 11
3.782
 21
2.989999999999999
 31
0
  0
LINE
  8
0
 62
7
 10
3.782
 20
2.989999999999999
 30
0
 11
3.78875
 21
2.987499999999999
 31
0
  0
LINE
  8
0
 62
7
 10
3.78875
 20
2.987499999999999
 30
0
 11
3.7955
 21
2.982499999999999
 31
0
  0
LINE
  8
0
 62
7
 10
3.7955
 20
2.982499999999999
 30
0
 11
3.8
 21
2.975
 31
0
  0
LINE
  8
0
 62
7
 10
3.8
 20
2.975
 30
0
 11
3.80225
 21
2.964999999999999
 31
0
  0
LINE
  8
0
 62
7
 10
3.80225
 20
2.964999999999999
 30
0
 11
3.80225
 21
2.914999999999999
 31
0
  0
LINE
  8
0
 62
7
 10
3.80225
 20
2.914999999999999
 30
0
 11
3.8
 21
2.904999999999999
 31
0
  0
LINE
  8
0
 62
7
 10
3.8
 20
2.904999999999999
 30
0
 11
3.7955
 21
2.897499999999999
 31
0
  0
LINE
  8
0
 62
7
 10
3.7955
 20
2.897499999999999
 30
0
 11
3.78875
 21
2.892499999999999
 31
0
  0
LINE
  8
0
 62
7
 10
3.78875
 20
2.892499999999999
 30
0
 11
3.782
 21
2.889999999999999
 31
0
  0
LINE
  8
0
 62
7
 10
3.782
 20
2.889999999999999
 30
0
 11
3.7685
 21
2.889999999999999
 31
0
  0
LINE
  8
0
 62
7
 10
3.7685
 20
2.889999999999999
 30
0
 11
3.76175
 21
2.892499999999999
 31
0
  0
LINE
  8
0
 62
7
 10
3.76175
 20
2.892499999999999
 30
0
 11
3.755000000000001
 21
2.897499999999999
 31
0
  0
LINE
  8
0
 62
7
 10
3.755000000000001
 20
2.897499999999999
 30
0
 11
3.750500000000001
 21
2.904999999999999
 31
0
  0
LINE
  8
0
 62
7
 10
3.750500000000001
 20
2.904999999999999
 30
0
 11
3.748250000000001
 21
2.914999999999999
 31
0
  0
LINE
  8
0
 62
7
 10
3.748250000000001
 20
2.914999999999999
 30
0
 11
3.748250000000001
 21
2.964999999999999
 31
0
  0
LINE
  8
0
 62
7
 10
3.82925
 20
2.964999999999999
 30
0
 11
3.8315
 21
2.975
 31
0
  0
LINE
  8
0
 62
7
 10
3.8315
 20
2.975
 30
0
 11
3.836
 21
2.982499999999999
 31
0
  0
LINE
  8
0
 62
7
 10
3.836
 20
2.982499999999999
 30
0
 11
3.842750000000001
 21
2.987499999999999
 31
0
  0
LINE
  8
0
 62
7
 10
3.842750000000001
 20
2.987499999999999
 30
0
 11
3.8495
 21
2.989999999999999
 31
0
  0
LINE
  8
0
 62
7
 10
3.8495
 20
2.989999999999999
 30
0
 11
3.863
 21
2.989999999999999
 31
0
  0
LINE
  8
0
 62
7
 10
3.863
 20
2.989999999999999
 30
0
 11
3.86975
 21
2.987499999999999
 31
0
  0
LINE
  8
0
 62
7
 10
3.86975
 20
2.987499999999999
 30
0
 11
3.8765
 21
2.982499999999999
 31
0
  0
LINE
  8
0
 62
7
 10
3.8765
 20
2.982499999999999
 30
0
 11
3.881
 21
2.975
 31
0
  0
LINE
  8
0
 62
7
 10
3.881
 20
2.975
 30
0
 11
3.88325
 21
2.964999999999999
 31
0
  0
LINE
  8
0
 62
7
 10
3.88325
 20
2.964999999999999
 30
0
 11
3.88325
 21
2.914999999999999
 31
0
  0
LINE
  8
0
 62
7
 10
3.88325
 20
2.914999999999999
 30
0
 11
3.881
 21
2.904999999999999
 31
0
  0
LINE
  8
0
 62
7
 10
3.881
 20
2.904999999999999
 30
0
 11
3.8765
 21
2.897499999999999
 31
0
  0
LINE
  8
0
 62
7
 10
3.8765
 20
2.897499999999999
 30
0
 11
3.86975
 21
2.892499999999999
 31
0
  0
LINE
  8
0
 62
7
 10
3.86975
 20
2.892499999999999
 30
0
 11
3.863
 21
2.889999999999999
 31
0
  0
LINE
  8
0
 62
7
 10
3.863
 20
2.889999999999999
 30
0
 11
3.8495
 21
2.889999999999999
 31
0
  0
LINE
  8
0
 62
7
 10
3.8495
 20
2.889999999999999
 30
0
 11
3.842750000000001
 21
2.892499999999999
 31
0
  0
LINE
  8
0
 62
7
 10
3.842750000000001
 20
2.892499999999999
 30
0
 11
3.836
 21
2.897499999999999
 31
0
  0
LINE
  8
0
 62
7
 10
3.836
 20
2.897499999999999
 30
0
 11
3.8315
 21
2.904999999999999
 31
0
  0
LINE
  8
0
 62
7
 10
3.8315
 20
2.904999999999999
 30
0
 11
3.82925
 21
2.914999999999999
 31
0
  0
LINE
  8
0
 62
7
 10
3.82925
 20
2.914999999999999
 30
0
 11
3.82925
 21
2.964999999999999
 31
0
  0
LINE
  8
0
 62
7
 10
4.034000000000001
 20
2.942499999999999
 30
0
 11
4.02725
 21
2.952499999999999
 31
0
  0
LINE
  8
0
 62
7
 10
4.02725
 20
2.952499999999999
 30
0
 11
4.0205
 21
2.9575
 31
0
  0
LINE
  8
0
 62
7
 10
4.0205
 20
2.9575
 30
0
 11
4.013750000000001
 21
2.959999999999999
 31
0
  0
LINE
  8
0
 62
7
 10
4.013750000000001
 20
2.959999999999999
 30
0
 11
4.00475
 21
2.959999999999999
 31
0
  0
LINE
  8
0
 62
7
 10
4.00475
 20
2.959999999999999
 30
0
 11
3.998000000000001
 21
2.9575
 31
0
  0
LINE
  8
0
 62
7
 10
3.998000000000001
 20
2.9575
 30
0
 11
3.99125
 21
2.952499999999999
 31
0
  0
LINE
  8
0
 62
7
 10
3.99125
 20
2.952499999999999
 30
0
 11
3.9845
 21
2.942499999999999
 31
0
  0
LINE
  8
0
 62
7
 10
3.9845
 20
2.942499999999999
 30
0
 11
3.98225
 21
2.934999999999999
 31
0
  0
LINE
  8
0
 62
7
 10
3.98225
 20
2.934999999999999
 30
0
 11
3.98225
 21
2.914999999999999
 31
0
  0
LINE
  8
0
 62
7
 10
3.98225
 20
2.914999999999999
 30
0
 11
3.9845
 21
2.907499999999999
 31
0
  0
LINE
  8
0
 62
7
 10
3.9845
 20
2.907499999999999
 30
0
 11
3.99125
 21
2.897499999999999
 31
0
  0
LINE
  8
0
 62
7
 10
3.99125
 20
2.897499999999999
 30
0
 11
3.998000000000001
 21
2.892499999999999
 31
0
  0
LINE
  8
0
 62
7
 10
3.998000000000001
 20
2.892499999999999
 30
0
 11
4.00475
 21
2.889999999999999
 31
0
  0
LINE
  8
0
 62
7
 10
4.00475
 20
2.889999999999999
 30
0
 11
4.013750000000001
 21
2.889999999999999
 31
0
  0
LINE
  8
0
 62
7
 10
4.013750000000001
 20
2.889999999999999
 30
0
 11
4.0205
 21
2.892499999999999
 31
0
  0
LINE
  8
0
 62
7
 10
4.0205
 20
2.892499999999999
 30
0
 11
4.02725
 21
2.897499999999999
 31
0
  0
LINE
  8
0
 62
7
 10
4.02725
 20
2.897499999999999
 30
0
 11
4.034000000000001
 21
2.907499999999999
 31
0
  0
LINE
  8
0
 62
7
 10
4.0925
 20
2.934999999999999
 30
0
 11
4.0925
 21
2.889999999999999
 31
0
  0
LINE
  8
0
 62
7
 10
4.052
 20
2.959999999999999
 30
0
 11
4.052
 21
2.934999999999999
 31
0
  0
LINE
  8
0
 62
7
 10
4.052
 20
2.889999999999999
 30
0
 11
4.052
 21
2.934999999999999
 31
0
  0
LINE
  8
0
 62
7
 10
4.052
 20
2.934999999999999
 30
0
 11
4.054250000000001
 21
2.947499999999999
 31
0
  0
LINE
  8
0
 62
7
 10
4.054250000000001
 20
2.947499999999999
 30
0
 11
4.0565
 21
2.952499999999999
 31
0
  0
LINE
  8
0
 62
7
 10
4.0565
 20
2.952499999999999
 30
0
 11
4.061
 21
2.9575
 31
0
  0
LINE
  8
0
 62
7
 10
4.061
 20
2.9575
 30
0
 11
4.06775
 21
2.959999999999999
 31
0
  0
LINE
  8
0
 62
7
 10
4.06775
 20
2.959999999999999
 30
0
 11
4.07675
 21
2.959999999999999
 31
0
  0
LINE
  8
0
 62
7
 10
4.07675
 20
2.959999999999999
 30
0
 11
4.0835
 21
2.9575
 31
0
  0
LINE
  8
0
 62
7
 10
4.0835
 20
2.9575
 30
0
 11
4.088
 21
2.952499999999999
 31
0
  0
LINE
  8
0
 62
7
 10
4.088
 20
2.952499999999999
 30
0
 11
4.09025
 21
2.947499999999999
 31
0
  0
LINE
  8
0
 62
7
 10
4.09025
 20
2.947499999999999
 30
0
 11
4.0925
 21
2.934999999999999
 31
0
  0
LINE
  8
0
 62
7
 10
4.0925
 20
2.934999999999999
 30
0
 11
4.09475
 21
2.947499999999999
 31
0
  0
LINE
  8
0
 62
7
 10
4.09475
 20
2.947499999999999
 30
0
 11
4.097
 21
2.952499999999999
 31
0
  0
LINE
  8
0
 62
7
 10
4.097
 20
2.952499999999999
 30
0
 11
4.101500000000001
 21
2.9575
 31
0
  0
LINE
  8
0
 62
7
 10
4.101500000000001
 20
2.9575
 30
0
 11
4.108250000000001
 21
2.959999999999999
 31
0
  0
LINE
  8
0
 62
7
 10
4.108250000000001
 20
2.959999999999999
 30
0
 11
4.11725
 21
2.959999999999999
 31
0
  0
LINE
  8
0
 62
7
 10
4.11725
 20
2.959999999999999
 30
0
 11
4.124000000000001
 21
2.9575
 31
0
  0
LINE
  8
0
 62
7
 10
4.128500000000001
 20
2.952499999999999
 30
0
 11
4.124000000000001
 21
2.9575
 31
0
  0
LINE
  8
0
 62
7
 10
4.124000000000001
 20
2.9575
 30
0
 11
4.128500000000001
 21
2.952499999999999
 31
0
  0
LINE
  8
0
 62
7
 10
4.128500000000001
 20
2.952499999999999
 30
0
 11
4.13075
 21
2.947499999999999
 31
0
  0
LINE
  8
0
 62
7
 10
4.13075
 20
2.947499999999999
 30
0
 11
4.133
 21
2.934999999999999
 31
0
  0
LINE
  8
0
 62
7
 10
4.133
 20
2.934999999999999
 30
0
 11
4.133
 21
2.889999999999999
 31
0
  0
ARC
  8
0
 62
7
 10
2.389115881528661
 20
3.635884118471379
 30
0
 40
0.5970000000000037
 50
89.91516015641895
 51
180.0848398405714
  0
ARC
  8
0
 62
7
 10
3.545884118471299
 20
3.635884118471341
 30
0
 40
0.5970000000000028
 50
359.9151601615551
 51
90.08483984057902
  0
CIRCLE
  8
0
 62
7
 10
4.14288346398787
 20
3.25
 30
0
 40
0.05999999999999961
  0
DIMENSION
  8
0
  6
CONTINUOUS
 62
7
  2
*D1
  3
DMST_1
 10
4.660000000000002
 20
11.4628816073355
 30
0
 11
2.98090495514675
 21
11.4628816073355
 31
0
 12
0
 22
0
 32
0
 70
0
 13
1.275000000000001
 23
11.2
 33
0
 14
4.660000000000002
 24
11.2
 34
0
 53
0
  0
DIMENSION
  8
0
  6
CONTINUOUS
 62
7
  2
*D2
  3
DMST_2
 10
5.08252793249303
 20
4.749999999999999
 30
0
 11
5.08252793249303
 21
4.04306715210356
 31
0
 12
0
 22
0
 32
0
 70
0
 13
4.835000000000003
 23
3.25
 33
0
 14
4.835000000000003
 24
4.749999999999999
 34
0
 50
90
 53
0
  0
DIMENSION
  8
0
  6
CONTINUOUS
 62
7
  2
*D3
  3
DMST_2
 10
1.275000000000001
 20
5.59215075512406
 30
0
 11
2.92170430789756
 21
5.59215075512406
 31
0
 12
0
 22
0
 32
0
 70
0
 13
4.660000000000002
 23
5.269999999999997
 33
0
 14
1.275000000000001
 24
5.269999999999997
 34
0
 53
0
  0
DIMENSION
  8
0
  6
CONTINUOUS
 62
7
  2
*D4
  3
DMST_2
 10
0.751013908760558
 20
4.75
 30
0
 11
0.751013908760558
 21
4.12200134843581
 31
0
 12
0
 22
0
 32
0
 70
0
 13
1.100000000000001
 23
3.35
 33
0
 14
1.100000000000001
 24
4.749999999999999
 34
0
 50
90
 53
0
  0
INSERT
  8
0
  2
*D0
 10
0
 20
0
 30
0
  0
ENDSEC
  0
EOF
