  0
SECTION
  2
HEADER
  9
$ACADVER
  1
AC1009
  9
$INSBASE
 10
0
 20
0
  9
$EXTMIN
 10
0.45
 20
2.889999999999999
  9
$EXTMAX
 10
8.121460872792829
 20
11.5170756945154
  9
$LIMMIN
 10
0.45
 20
2.889999999999999
  9
$LIMMAX
 10
8.121460872792829
 20
11.5170756945154
  9
$VIEWCTR
 10
10
 20
10
  9
$VIEWSIZE
 40
10
  9
$SNAPMODE
 70
0
  9
$SNAPUNIT
 10
1
 20
1
  9
$SNAPBASE
 10
0
 20
0
  9
$SNAPANG
 50
0
  9
$SNAPSTYLE
 70
0
  9
$SNAPISOPAIR
 70
0
  9
$GRIDMODE
 70
0
  9
$GRIDUNIT
 10
0
 20
0
  9
$ORTHOMODE
 70
0
  9
$REGENMODE
 70
1
  9
$FILLMODE
 70
1
  9
$QTEXTMODE
 70
0
  9
$DRAGMODE
 70
2
  9
$LTSCALE
 40
1
  9
$OSMODE
 70
0
  9
$ATTMODE
 70
1
  9
$TEXTSIZE
 40
3.5
  9
$TRACEWID
 40
0.5
  9
$TEXTSTYLE
  7
STANDARD
  9
$CLAYER
  8
0
  9
$CELTYPE
  6
BYLAYER
  9
$CECOLOR
 62
256
  9
$DIMSCALE
 40
1
  9
$DIMASZ
 40
0.18
  9
$DIMEXO
 40
0.0625
  9
$DIMDLI
 40
0.38
  9
$DIMRND
 40
0
  9
$DIMDLE
 40
0
  9
$DIMEXE
 40
0.18
  9
$DIMTP
 40
0
  9
$DIMTM
 40
0
  9
$DIMTXT
 40
0.18
  9
$DIMCEN
 40
0.09
  9
$DIMTSZ
 40
0
  9
$DIMTOL
 70
0
  9
$DIMLIM
 70
0
  9
$DIMTIH
 70
1
  9
$DIMTOH
 70
1
  9
$DIMSE1
 70
0
  9
$DIMSE2
 70
0
  9
$DIMTAD
 70
0
  9
$DIMZIN
 70
0
  9
$DIMBLK
  1

  9
$DIMASO
 70
1
  9
$DIMSHO
 70
1
  9
$DIMPOST
  1

  9
$DIMAPOST
  1

  9
$DIMALT
 70
0
  9
$DIMALTD
 70
2
  9
$DIMALTF
 40
25.4
  9
$DIMLFAC
 40
1
  9
$DIMTOFL
 70
0
  9
$DIMTVP
 40
0
  9
$DIMTIX
 70
0
  9
$DIMSOXD
 70
0
  9
$DIMSAH
 70
0
  9
$DIMBLK1
  1

  9
$DIMBLK2
  1

  9
$DIMSTYLE
  2
*UNNAMED
  9
$DIMCLRD
 70
0
  9
$DIMCLRE
 70
0
  9
$DIMCLRT
 70
0
  9
$DIMTFAC
 40
1
  9
$DIMGAP
 40
0.09
  9
$LUNITS
 70
2
  9
$LUPREC
 70
4
  9
$AXISMODE
 70
0
  9
$AXISUNIT
 10
0
 20
0
  9
$SKETCHINC
 40
0.1
  9
$FILLETRAD
 40
2
  9
$AUNITS
 70
0
  9
$AUPREC
 70
0
  9
$MENU
  1
ACAD
  9
$ELEVATION
 40
0
  9
$THICKNESS
 40
0
  9
$VIEWDIR
 10
0
 20
0
 30
1
  9
$LIMCHECK
 70
0
  9
$BLIPMODE
 70
1
  9
$CHAMFERA
 40
0
  9
$CHAMFERB
 40
0
  9
$FASTZOOM
 70
1
  9
$SKPOLY
 70
0
  9
$ANGBASE
 50
0
  9
$ANGDIR
 70
0
  9
$PDMODE
 70
0
  9
$PDSIZE
 40
0
  9
$PLINEWID
 40
0
  9
$COORDS
 70
2
  0
ENDSEC
  0
SECTION
  2
TABLES
  0
TABLE
  2
DIMSTYLE
 70
2
  0
DIMSTYLE
  2
DMST_1
 70
0
  3

  4

  5

  6

  7

 40
1
 41
0.1
 42
0
 43
0.7
 44
0.2
 45
0
 46
0
 47
0
 48
0
140
0.1
141
0
142
0.1
143
25.4
144
1
145
0
146
1
147
0.2
 71
0
 72
0
 73
0
 74
0
 75
0
 76
0
 77
0
 78
9
170
0
171
2
172
0
173
0
174
0
175
0
176
7
177
7
178
7
  0
DIMSTYLE
  2
DMST_2
 70
0
  3

  4

  5

  6

  7

 40
1
 41
0.1
 42
0
 43
0.7
 44
0.2
 45
0
 46
0
 47
0
 48
0
140
0.1
141
0
142
0.1
143
25.4
144
1
145
0
146
1
147
0.25
 71
0
 72
0
 73
0
 74
0
 75
0
 76
0
 77
0
 78
9
170
0
171
2
172
0
173
0
174
0
175
0
176
7
177
7
178
7
  0
ENDTAB
  0
TABLE
  2
LTYPE
 70
9
  0
LTYPE
  2
CONTINUOUS
 70
64
  3
Solid line
 72
65
 73
0
 40
0
  0
LTYPE
  2
BORDER
 70
64
  3
__ __ . __ __ .
 72
65
 73
6
 40
0.3972995385632093
 49
0.1135141538752027
 49
-0.05675707693760133
 49
0.1135141538752027
 49
-0.05675707693760133
 49
0
 49
-0.05675707693760133
  0
LTYPE
  2
CENTER
 70
64
  3
____ _ ____ _
 72
65
 73
4
 40
0.4540566155008106
 49
0.2837853846880066
 49
-0.05675707693760133
 49
0.05675707693760133
 49
-0.05675707693760133
  0
LTYPE
  2
DASHDOT
 70
64
  3
__ . __ . __ .
 72
65
 73
4
 40
0.2270283077504053
 49
0.1135141538752027
 49
-0.05675707693760133
 49
0
 49
-0.05675707693760133
  0
LTYPE
  2
DASHED
 70
64
  3
__ __ __ __ __
 72
65
 73
2
 40
0.170271230812804
 49
0.1135141538752027
 49
-0.05675707693760133
  0
LTYPE
  2
DIVIDE
 70
64
  3
__ . . __ . . 
 72
65
 73
6
 40
0.2837853846880066
 49
0.1135141538752027
 49
-0.05675707693760133
 49
0
 49
-0.05675707693760133
 49
0
 49
-0.05675707693760133
  0
LTYPE
  2
DOT
 70
64
  3
..............
 72
65
 73
4
 40
0.1135141538752027
 49
0
 49
-0.05675707693760133
 49
0
 49
-0.05675707693760133
  0
LTYPE
  2
HIDDEN
 70
64
  3
_ _ _ _ _ _ _
 72
65
 73
2
 40
0.08513561540640199
 49
0.05675707693760133
 49
-0.02837853846880066
  0
LTYPE
  2
PHANTOM
 70
64
  3
_____ _ _ _____ _ _ 
 72
65
 73
6
 40
0.5675707693760133
 49
0.2837853846880066
 49
-0.05675707693760133
 49
0.05675707693760133
 49
-0.05675707693760133
 49
0.05675707693760133
 49
-0.05675707693760133
  0
ENDTAB
  0
TABLE
  2
LAYER
 70
2
  0
LAYER
  2
0
 70
0
 62
7
  6
CONTINUOUS
  0
ENDTAB
  0
TABLE
  2
STYLE
 70
4
  0
STYLE
  2
STANDARD
 70
0
 40
0
 41
1
 50
0
 71
0
 42
3.5
  3
txt
  4

  0
STYLE
  2
SIMPLEX
 70
0
 40
0
 41
1
 50
0
 71
0
 42
3.5
  3
simplex
  4

  0
STYLE
  2
COMPLEX
 70
0
 40
0
 41
1
 50
0
 71
0
 42
3.5
  3
complex
  4

  0
STYLE
  2
ITALIC
 70
0
 40
0
 41
1
 50
0
 71
0
 42
3.5
  3
italic
  4

  0
ENDTAB
  0
TABLE
  2
VIEW
 70
0
  0
ENDTAB
  0
ENDSEC
  0
SECTION
  2
BLOCKS
  0
BLOCK
  8
0
  2
*X0
 70
1
 10
0
 20
0
 30
0
  0
LINE
  8
0
 62
7
 10
7.425000000000002
 20
7.955330085889912
 30
0
 11
7.569669914110088
 21
8.099999999999998
 31
0
  0
LINE
  8
0
 62
7
 10
7.425000000000002
 20
8.061396103067892
 30
0
 11
7.463603896932105
 21
8.099999999999998
 31
0
  0
LINE
  8
0
 62
7
 10
7.525735931288072
 20
7.949999999999999
 30
0
 11
7.600000000000001
 21
8.024264068711929
 31
0
  0
ENDBLK
  8
0
  0
BLOCK
  8
0
  2
*X1
 70
1
 10
0
 20
0
 30
0
  0
LINE
  8
0
 62
7
 10
7.425
 20
10.71304653251744
 30
0
 11
7.561953467482555
 21
10.85
 31
0
  0
LINE
  8
0
 62
7
 10
7.425
 20
10.50091449816148
 30
0
 11
7.600000000000002
 21
10.67591449816148
 31
0
  0
LINE
  8
0
 62
7
 10
7.425
 20
10.28878246380551
 30
0
 11
7.600000000000002
 21
10.46378246380551
 31
0
  0
LINE
  8
0
 62
7
 10
7.425
 20
10.07665042944955
 30
0
 11
7.600000000000002
 21
10.25165042944955
 31
0
  0
LINE
  8
0
 62
7
 10
7.425
 20
9.864518395093585
 30
0
 11
7.600000000000002
 21
10.03951839509359
 31
0
  0
LINE
  8
0
 62
7
 10
7.425
 20
9.652386360737621
 30
0
 11
7.600000000000002
 21
9.827386360737622
 31
0
  0
LINE
  8
0
 62
7
 10
7.425
 20
9.440254326381657
 30
0
 11
7.600000000000002
 21
9.615254326381658
 31
0
  0
LINE
  8
0
 62
7
 10
7.425
 20
9.228122292025693
 30
0
 11
7.600000000000002
 21
9.403122292025694
 31
0
  0
LINE
  8
0
 62
7
 10
7.425
 20
9.01599025766973
 30
0
 11
7.600000000000002
 21
9.19099025766973
 31
0
  0
LINE
  8
0
 62
7
 10
7.425
 20
8.803858223313766
 30
0
 11
7.600000000000002
 21
8.978858223313766
 31
0
  0
LINE
  8
0
 62
7
 10
7.425
 20
8.591726188957802
 30
0
 11
7.600000000000002
 21
8.766726188957803
 31
0
  0
LINE
  8
0
 62
7
 10
7.425
 20
8.379594154601838
 30
0
 11
7.600000000000002
 21
8.554594154601839
 31
0
  0
LINE
  8
0
 62
7
 10
7.557537879754124
 20
8.299999999999997
 30
0
 11
7.600000000000002
 21
8.342462120245875
 31
0
  0
LINE
  8
0
 62
7
 10
7.425000000000001
 20
10.81911254969542
 30
0
 11
7.455887450304573
 21
10.85
 31
0
  0
LINE
  8
0
 62
7
 10
7.425000000000001
 20
10.60698051533946
 30
0
 11
7.600000000000002
 21
10.78198051533946
 31
0
  0
LINE
  8
0
 62
7
 10
7.425000000000001
 20
10.3948484809835
 30
0
 11
7.600000000000002
 21
10.5698484809835
 31
0
  0
LINE
  8
0
 62
7
 10
7.425000000000001
 20
10.18271644662753
 30
0
 11
7.600000000000002
 21
10.35771644662753
 31
0
  0
LINE
  8
0
 62
7
 10
7.425000000000001
 20
9.970584412271569
 30
0
 11
7.600000000000002
 21
10.14558441227157
 31
0
  0
LINE
  8
0
 62
7
 10
7.425000000000001
 20
9.758452377915605
 30
0
 11
7.600000000000002
 21
9.933452377915604
 31
0
  0
LINE
  8
0
 62
7
 10
7.425000000000001
 20
9.546320343559641
 30
0
 11
7.600000000000002
 21
9.72132034355964
 31
0
  0
LINE
  8
0
 62
7
 10
7.425000000000001
 20
9.334188309203677
 30
0
 11
7.600000000000002
 21
9.509188309203676
 31
0
  0
LINE
  8
0
 62
7
 10
7.425000000000001
 20
9.122056274847713
 30
0
 11
7.600000000000002
 21
9.297056274847712
 31
0
  0
LINE
  8
0
 62
7
 10
7.425000000000001
 20
8.909924240491749
 30
0
 11
7.600000000000002
 21
9.084924240491748
 31
0
  0
LINE
  8
0
 62
7
 10
7.425000000000001
 20
8.697792206135786
 30
0
 11
7.600000000000002
 21
8.872792206135784
 31
0
  0
LINE
  8
0
 62
7
 10
7.425000000000001
 20
8.485660171779822
 30
0
 11
7.600000000000002
 21
8.660660171779821
 31
0
  0
LINE
  8
0
 62
7
 10
7.451471862576141
 20
8.299999999999997
 30
0
 11
7.600000000000002
 21
8.448528137423857
 31
0
  0
ENDBLK
  8
0
  0
BLOCK
  8
0
  2
*X2
 70
1
 10
0
 20
0
 30
0
  0
LINE
  8
0
 62
7
 10
7.425000000000002
 20
11.13731060122938
 30
0
 11
7.487689398770626
 21
11.2
 31
0
  0
LINE
  8
0
 62
7
 10
7.549821433126593
 20
11.05
 30
0
 11
7.600000000000002
 21
11.10017856687341
 31
0
  0
LINE
  8
0
 62
7
 10
7.44375541594861
 20
11.05
 30
0
 11
7.593755415948609
 21
11.2
 31
0
  0
ENDBLK
  8
0
  0
BLOCK
  8
0
  2
*X3
 70
1
 10
0
 20
0
 30
0
  0
LINE
  8
0
 62
7
 10
3.864999999999999
 20
8.0015746699413
 30
0
 11
3.963425330058696
 21
8.099999999999998
 31
0
  0
LINE
  8
0
 62
7
 10
4.025557364414661
 20
7.949999999999999
 30
0
 11
4.039999999999999
 21
7.964442635585337
 31
0
  0
LINE
  8
0
 62
7
 10
3.919491347236678
 20
7.949999999999998
 30
0
 11
4.039999999999999
 21
8.070508652763319
 31
0
  0
ENDBLK
  8
0
  0
BLOCK
  8
0
  2
*X4
 70
1
 10
0
 20
0
 30
0
  0
LINE
  8
0
 62
7
 10
3.864999999999999
 20
10.75929111656883
 30
0
 11
3.955708883431161
 21
10.85
 31
0
  0
LINE
  8
0
 62
7
 10
3.864999999999999
 20
10.54715908221287
 30
0
 11
4.039999999999999
 21
10.72215908221287
 31
0
  0
LINE
  8
0
 62
7
 10
3.864999999999999
 20
10.3350270478569
 30
0
 11
4.039999999999999
 21
10.5100270478569
 31
0
  0
LINE
  8
0
 62
7
 10
3.864999999999999
 20
10.12289501350094
 30
0
 11
4.039999999999999
 21
10.29789501350094
 31
0
  0
LINE
  8
0
 62
7
 10
3.864999999999999
 20
9.910762979144977
 30
0
 11
4.039999999999999
 21
10.08576297914498
 31
0
  0
LINE
  8
0
 62
7
 10
3.864999999999999
 20
9.698630944789013
 30
0
 11
4.039999999999999
 21
9.873630944789012
 31
0
  0
LINE
  8
0
 62
7
 10
3.864999999999999
 20
9.486498910433049
 30
0
 11
4.039999999999999
 21
9.661498910433048
 31
0
  0
LINE
  8
0
 62
7
 10
3.864999999999999
 20
9.274366876077085
 30
0
 11
4.039999999999999
 21
9.449366876077084
 31
0
  0
LINE
  8
0
 62
7
 10
3.864999999999999
 20
9.062234841721121
 30
0
 11
4.039999999999999
 21
9.23723484172112
 31
0
  0
LINE
  8
0
 62
7
 10
3.864999999999999
 20
8.850102807365158
 30
0
 11
4.039999999999999
 21
9.025102807365156
 31
0
  0
LINE
  8
0
 62
7
 10
3.864999999999999
 20
8.637970773009194
 30
0
 11
4.039999999999999
 21
8.812970773009193
 31
0
  0
LINE
  8
0
 62
7
 10
3.864999999999999
 20
8.42583873865323
 30
0
 11
4.039999999999999
 21
8.600838738653229
 31
0
  0
LINE
  8
0
 62
7
 10
3.95129329570273
 20
8.299999999999995
 30
0
 11
4.039999999999999
 21
8.388706704297265
 31
0
  0
LINE
  8
0
 62
7
 10
3.864999999999999
 20
10.65322509939085
 30
0
 11
4.039999999999999
 21
10.82822509939085
 31
0
  0
LINE
  8
0
 62
7
 10
3.864999999999999
 20
10.44109306503488
 30
0
 11
4.039999999999999
 21
10.61609306503489
 31
0
  0
LINE
  8
0
 62
7
 10
3.864999999999999
 20
10.22896103067892
 30
0
 11
4.039999999999999
 21
10.40396103067892
 31
0
  0
LINE
  8
0
 62
7
 10
3.864999999999999
 20
10.01682899632296
 30
0
 11
4.039999999999999
 21
10.19182899632296
 31
0
  0
LINE
  8
0
 62
7
 10
3.864999999999999
 20
9.804696961966993
 30
0
 11
4.039999999999999
 21
9.979696961966994
 31
0
  0
LINE
  8
0
 62
7
 10
3.864999999999999
 20
9.592564927611029
 30
0
 11
4.039999999999999
 21
9.76756492761103
 31
0
  0
LINE
  8
0
 62
7
 10
3.864999999999999
 20
9.380432893255065
 30
0
 11
4.039999999999999
 21
9.555432893255066
 31
0
  0
LINE
  8
0
 62
7
 10
3.864999999999999
 20
9.168300858899102
 30
0
 11
4.039999999999999
 21
9.343300858899102
 31
0
  0
LINE
  8
0
 62
7
 10
3.864999999999999
 20
8.956168824543138
 30
0
 11
4.039999999999999
 21
9.131168824543138
 31
0
  0
LINE
  8
0
 62
7
 10
3.864999999999999
 20
8.744036790187174
 30
0
 11
4.039999999999999
 21
8.919036790187175
 31
0
  0
LINE
  8
0
 62
7
 10
3.864999999999999
 20
8.53190475583121
 30
0
 11
4.039999999999999
 21
8.706904755831211
 31
0
  0
LINE
  8
0
 62
7
 10
3.864999999999999
 20
8.319772721475246
 30
0
 11
4.039999999999999
 21
8.494772721475247
 31
0
  0
ENDBLK
  8
0
  0
BLOCK
  8
0
  2
*X5
 70
1
 10
0
 20
0
 30
0
  0
LINE
  8
0
 62
7
 10
3.864999999999999
 20
11.18355518528076
 30
0
 11
3.881444814719234
 21
11.2
 31
0
  0
LINE
  8
0
 62
7
 10
3.943576849075201
 20
11.05
 30
0
 11
4.039999999999999
 21
11.1464231509248
 31
0
  0
LINE
  8
0
 62
7
 10
3.864999999999998
 20
11.07748916810278
 30
0
 11
3.987510831897216
 21
11.2
 31
0
  0
ENDBLK
  8
0
  0
BLOCK
  8
0
  2
*X6
 70
1
 10
0
 20
0
 30
0
  0
LINE
  8
0
 62
7
  6
DASHED
 10
3.714999999999998
 20
8.275838738653229
 30
0
 11
3.739161261346773
 21
8.299999999999995
 31
0
  0
LINE
  8
0
 62
7
  6
DASHED
 10
3.751293295702738
 20
8.099999999999998
 30
0
 11
3.951293295702737
 21
8.299999999999995
 31
0
  0
LINE
  8
0
 62
7
  6
DASHED
 10
3.963425330058703
 20
8.099999999999998
 30
0
 11
4.163425330058701
 21
8.299999999999995
 31
0
  0
LINE
  8
0
 62
7
  6
DASHED
 10
4.175557364414667
 20
8.099999999999998
 30
0
 11
4.375557364414665
 21
8.299999999999995
 31
0
  0
LINE
  8
0
 62
7
  6
DASHED
 10
4.387689398770631
 20
8.099999999999998
 30
0
 11
4.587689398770629
 21
8.299999999999995
 31
0
  0
LINE
  8
0
 62
7
  6
DASHED
 10
4.599821433126595
 20
8.099999999999998
 30
0
 11
4.799821433126593
 21
8.299999999999995
 31
0
  0
LINE
  8
0
 62
7
  6
DASHED
 10
4.811953467482558
 20
8.099999999999998
 30
0
 11
5.011953467482557
 21
8.299999999999995
 31
0
  0
LINE
  8
0
 62
7
  6
DASHED
 10
5.024085501838522
 20
8.099999999999998
 30
0
 11
5.224085501838521
 21
8.299999999999995
 31
0
  0
LINE
  8
0
 62
7
  6
DASHED
 10
5.236217536194486
 20
8.099999999999998
 30
0
 11
5.436217536194484
 21
8.299999999999995
 31
0
  0
LINE
  8
0
 62
7
  6
DASHED
 10
5.44834957055045
 20
8.099999999999998
 30
0
 11
5.648349570550448
 21
8.299999999999995
 31
0
  0
LINE
  8
0
 62
7
  6
DASHED
 10
5.660481604906414
 20
8.099999999999998
 30
0
 11
5.860481604906412
 21
8.299999999999995
 31
0
  0
LINE
  8
0
 62
7
  6
DASHED
 10
5.872613639262378
 20
8.099999999999998
 30
0
 11
6.072613639262376
 21
8.299999999999995
 31
0
  0
LINE
  8
0
 62
7
  6
DASHED
 10
6.084745673618341
 20
8.099999999999998
 30
0
 11
6.28474567361834
 21
8.299999999999995
 31
0
  0
LINE
  8
0
 62
7
  6
DASHED
 10
6.296877707974305
 20
8.099999999999998
 30
0
 11
6.496877707974304
 21
8.299999999999995
 31
0
  0
LINE
  8
0
 62
7
  6
DASHED
 10
6.509009742330269
 20
8.099999999999998
 30
0
 11
6.709009742330267
 21
8.299999999999995
 31
0
  0
LINE
  8
0
 62
7
  6
DASHED
 10
6.721141776686233
 20
8.099999999999998
 30
0
 11
6.921141776686231
 21
8.299999999999995
 31
0
  0
LINE
  8
0
 62
7
  6
DASHED
 10
6.933273811042197
 20
8.099999999999998
 30
0
 11
7.133273811042195
 21
8.299999999999995
 31
0
  0
LINE
  8
0
 62
7
  6
DASHED
 10
7.145405845398161
 20
8.099999999999998
 30
0
 11
7.345405845398159
 21
8.299999999999995
 31
0
  0
LINE
  8
0
 62
7
  6
DASHED
 10
7.357537879754124
 20
8.099999999999998
 30
0
 11
7.557537879754123
 21
8.299999999999995
 31
0
  0
LINE
  8
0
 62
7
  6
DASHED
 10
7.569669914110088
 20
8.099999999999998
 30
0
 11
7.75
 21
8.28033008588991
 31
0
  0
LINE
  8
0
 62
7
 10
3.714999999999998
 20
8.169772721475246
 30
0
 11
3.845227278524756
 21
8.299999999999997
 31
0
  0
LINE
  8
0
 62
7
 10
3.857359312880722
 20
8.099999999999998
 30
0
 11
4.05735931288072
 21
8.299999999999997
 31
0
  0
LINE
  8
0
 62
7
 10
4.069491347236686
 20
8.099999999999998
 30
0
 11
4.269491347236684
 21
8.299999999999997
 31
0
  0
LINE
  8
0
 62
7
 10
4.28162338159265
 20
8.099999999999998
 30
0
 11
4.481623381592648
 21
8.299999999999997
 31
0
  0
LINE
  8
0
 62
7
 10
4.493755415948613
 20
8.099999999999998
 30
0
 11
4.693755415948612
 21
8.299999999999997
 31
0
  0
LINE
  8
0
 62
7
 10
4.705887450304577
 20
8.099999999999998
 30
0
 11
4.905887450304576
 21
8.299999999999997
 31
0
  0
LINE
  8
0
 62
7
 10
4.918019484660541
 20
8.099999999999998
 30
0
 11
5.11801948466054
 21
8.299999999999997
 31
0
  0
LINE
  8
0
 62
7
 10
5.130151519016505
 20
8.099999999999998
 30
0
 11
5.330151519016503
 21
8.299999999999997
 31
0
  0
LINE
  8
0
 62
7
 10
5.342283553372469
 20
8.099999999999998
 30
0
 11
5.542283553372467
 21
8.299999999999997
 31
0
  0
LINE
  8
0
 62
7
 10
5.554415587728433
 20
8.099999999999998
 30
0
 11
5.754415587728431
 21
8.299999999999997
 31
0
  0
LINE
  8
0
 62
7
 10
5.766547622084397
 20
8.099999999999998
 30
0
 11
5.966547622084395
 21
8.299999999999997
 31
0
  0
LINE
  8
0
 62
7
 10
5.97867965644036
 20
8.099999999999998
 30
0
 11
6.178679656440359
 21
8.299999999999997
 31
0
  0
LINE
  8
0
 62
7
 10
6.190811690796324
 20
8.099999999999998
 30
0
 11
6.390811690796323
 21
8.299999999999997
 31
0
  0
LINE
  8
0
 62
7
 10
6.402943725152288
 20
8.099999999999998
 30
0
 11
6.602943725152286
 21
8.299999999999997
 31
0
  0
LINE
  8
0
 62
7
 10
6.615075759508252
 20
8.099999999999998
 30
0
 11
6.81507575950825
 21
8.299999999999997
 31
0
  0
LINE
  8
0
 62
7
 10
6.827207793864216
 20
8.099999999999998
 30
0
 11
7.027207793864214
 21
8.299999999999997
 31
0
  0
LINE
  8
0
 62
7
 10
7.03933982822018
 20
8.099999999999998
 30
0
 11
7.239339828220178
 21
8.299999999999997
 31
0
  0
LINE
  8
0
 62
7
 10
7.251471862576143
 20
8.099999999999998
 30
0
 11
7.451471862576142
 21
8.299999999999997
 31
0
  0
LINE
  8
0
 62
7
 10
7.463603896932107
 20
8.099999999999998
 30
0
 11
7.663603896932106
 21
8.299999999999997
 31
0
  0
LINE
  8
0
 62
7
 10
7.675735931288071
 20
8.099999999999998
 30
0
 11
7.75
 21
8.174264068711928
 31
0
  0
ENDBLK
  8
0
  0
BLOCK
  8
0
  2
*X7
 70
1
 10
0
 20
0
 30
0
  0
LINE
  8
0
 62
7
  6
DASHED
 10
3.714999999999996
 20
11.03355518528076
 30
0
 11
3.731444814719243
 21
11.05
 31
0
  0
LINE
  8
0
 62
7
  6
DASHED
 10
3.743576849075205
 20
10.85
 30
0
 11
3.943576849075207
 21
11.05
 31
0
  0
LINE
  8
0
 62
7
  6
DASHED
 10
3.955708883431169
 20
10.85
 30
0
 11
4.155708883431172
 21
11.05
 31
0
  0
LINE
  8
0
 62
7
  6
DASHED
 10
4.167840917787133
 20
10.85
 30
0
 11
4.367840917787135
 21
11.05
 31
0
  0
LINE
  8
0
 62
7
  6
DASHED
 10
4.379972952143097
 20
10.85
 30
0
 11
4.579972952143099
 21
11.05
 31
0
  0
LINE
  8
0
 62
7
  6
DASHED
 10
4.592104986499061
 20
10.85
 30
0
 11
4.792104986499063
 21
11.05
 31
0
  0
LINE
  8
0
 62
7
  6
DASHED
 10
4.804237020855025
 20
10.85
 30
0
 11
5.004237020855027
 21
11.05
 31
0
  0
LINE
  8
0
 62
7
  6
DASHED
 10
5.016369055210989
 20
10.85
 30
0
 11
5.216369055210991
 21
11.05
 31
0
  0
LINE
  8
0
 62
7
  6
DASHED
 10
5.228501089566953
 20
10.85
 30
0
 11
5.428501089566955
 21
11.05
 31
0
  0
LINE
  8
0
 62
7
  6
DASHED
 10
5.440633123922916
 20
10.85
 30
0
 11
5.640633123922918
 21
11.05
 31
0
  0
LINE
  8
0
 62
7
  6
DASHED
 10
5.65276515827888
 20
10.85
 30
0
 11
5.852765158278882
 21
11.05
 31
0
  0
LINE
  8
0
 62
7
  6
DASHED
 10
5.864897192634844
 20
10.85
 30
0
 11
6.064897192634846
 21
11.05
 31
0
  0
LINE
  8
0
 62
7
  6
DASHED
 10
6.077029226990808
 20
10.85
 30
0
 11
6.27702922699081
 21
11.05
 31
0
  0
LINE
  8
0
 62
7
  6
DASHED
 10
6.289161261346772
 20
10.85
 30
0
 11
6.489161261346774
 21
11.05
 31
0
  0
LINE
  8
0
 62
7
  6
DASHED
 10
6.501293295702736
 20
10.85
 30
0
 11
6.701293295702738
 21
11.05
 31
0
  0
LINE
  8
0
 62
7
  6
DASHED
 10
6.713425330058699
 20
10.85
 30
0
 11
6.913425330058701
 21
11.05
 31
0
  0
LINE
  8
0
 62
7
  6
DASHED
 10
6.925557364414663
 20
10.85
 30
0
 11
7.125557364414665
 21
11.05
 31
0
  0
LINE
  8
0
 62
7
  6
DASHED
 10
7.137689398770627
 20
10.85
 30
0
 11
7.337689398770629
 21
11.05
 31
0
  0
LINE
  8
0
 62
7
  6
DASHED
 10
7.349821433126591
 20
10.85
 30
0
 11
7.549821433126593
 21
11.05
 31
0
  0
LINE
  8
0
 62
7
  6
DASHED
 10
7.561953467482555
 20
10.85
 30
0
 11
7.75
 21
11.03804653251744
 31
0
  0
LINE
  8
0
 62
7
 10
3.714999999999998
 20
10.92748916810278
 30
0
 11
3.837510831897224
 21
11.05
 31
0
  0
LINE
  8
0
 62
7
 10
3.849642866253186
 20
10.85
 30
0
 11
4.049642866253189
 21
11.05
 31
0
  0
LINE
  8
0
 62
7
 10
4.061774900609151
 20
10.85
 30
0
 11
4.261774900609153
 21
11.05
 31
0
  0
LINE
  8
0
 62
7
 10
4.273906934965114
 20
10.85
 30
0
 11
4.473906934965116
 21
11.05
 31
0
  0
LINE
  8
0
 62
7
 10
4.486038969321078
 20
10.85
 30
0
 11
4.68603896932108
 21
11.05
 31
0
  0
LINE
  8
0
 62
7
 10
4.698171003677042
 20
10.85
 30
0
 11
4.898171003677044
 21
11.05
 31
0
  0
LINE
  8
0
 62
7
 10
4.910303038033006
 20
10.85
 30
0
 11
5.110303038033008
 21
11.05
 31
0
  0
LINE
  8
0
 62
7
 10
5.12243507238897
 20
10.85
 30
0
 11
5.322435072388972
 21
11.05
 31
0
  0
LINE
  8
0
 62
7
 10
5.334567106744934
 20
10.85
 30
0
 11
5.534567106744936
 21
11.05
 31
0
  0
LINE
  8
0
 62
7
 10
5.546699141100897
 20
10.85
 30
0
 11
5.746699141100899
 21
11.05
 31
0
  0
LINE
  8
0
 62
7
 10
5.758831175456861
 20
10.85
 30
0
 11
5.958831175456863
 21
11.05
 31
0
  0
LINE
  8
0
 62
7
 10
5.970963209812825
 20
10.85
 30
0
 11
6.170963209812827
 21
11.05
 31
0
  0
LINE
  8
0
 62
7
 10
6.183095244168789
 20
10.85
 30
0
 11
6.383095244168791
 21
11.05
 31
0
  0
LINE
  8
0
 62
7
 10
6.395227278524753
 20
10.85
 30
0
 11
6.595227278524755
 21
11.05
 31
0
  0
LINE
  8
0
 62
7
 10
6.607359312880717
 20
10.85
 30
0
 11
6.807359312880719
 21
11.05
 31
0
  0
LINE
  8
0
 62
7
 10
6.81949134723668
 20
10.85
 30
0
 11
7.019491347236682
 21
11.05
 31
0
  0
LINE
  8
0
 62
7
 10
7.031623381592644
 20
10.85
 30
0
 11
7.231623381592646
 21
11.05
 31
0
  0
LINE
  8
0
 62
7
 10
7.243755415948608
 20
10.85
 30
0
 11
7.44375541594861
 21
11.05
 31
0
  0
LINE
  8
0
 62
7
 10
7.455887450304572
 20
10.85
 30
0
 11
7.655887450304574
 21
11.05
 31
0
  0
LINE
  8
0
 62
7
 10
7.668019484660536
 20
10.85
 30
0
 11
7.749999999999999
 21
10.93198051533946
 31
0
  0
ENDBLK
  8
0
  0
BLOCK
  8
0
  2
*X8
 70
1
 10
0
 20
0
 30
0
  0
LINE
  8
0
 62
7
 10
0.5
 20
8.03068721963673
 30
0
 11
0.5693127803632674
 21
8.099999999999998
 31
0
  0
LINE
  8
0
 62
7
 10
0.6314448147192331
 20
7.949999999999998
 30
0
 11
0.7399999999999998
 21
8.058555185280767
 31
0
  0
LINE
  8
0
 62
7
 10
0.5253787975412521
 20
7.949999999999999
 30
0
 11
0.6753787975412497
 21
8.099999999999998
 31
0
  0
LINE
  8
0
 62
7
 10
0.7375108318972163
 20
7.949999999999999
 30
0
 11
0.7400000000000002
 21
7.952489168102783
 31
0
  0
ENDBLK
  8
0
  0
BLOCK
  8
0
  2
*X9
 70
1
 10
0
 20
0
 30
0
  0
LINE
  8
0
 62
7
 10
0.5000000000000004
 20
10.78840366626426
 30
0
 11
0.5615963337357339
 21
10.85
 31
0
  0
LINE
  8
0
 62
7
 10
0.5000000000000004
 20
10.5762716319083
 30
0
 11
0.7400000000000002
 21
10.8162716319083
 31
0
  0
LINE
  8
0
 62
7
 10
0.5000000000000004
 20
10.36413959755233
 30
0
 11
0.7400000000000002
 21
10.60413959755233
 31
0
  0
LINE
  8
0
 62
7
 10
0.5000000000000004
 20
10.15200756319637
 30
0
 11
0.7400000000000002
 21
10.39200756319637
 31
0
  0
LINE
  8
0
 62
7
 10
0.5000000000000004
 20
9.939875528840407
 30
0
 11
0.7400000000000002
 21
10.17987552884041
 31
0
  0
LINE
  8
0
 62
7
 10
0.5000000000000004
 20
9.727743494484443
 30
0
 11
0.7400000000000002
 21
9.967743494484441
 31
0
  0
LINE
  8
0
 62
7
 10
0.5000000000000004
 20
9.515611460128479
 30
0
 11
0.7400000000000002
 21
9.755611460128478
 31
0
  0
LINE
  8
0
 62
7
 10
0.5000000000000004
 20
9.303479425772515
 30
0
 11
0.7400000000000002
 21
9.543479425772514
 31
0
  0
LINE
  8
0
 62
7
 10
0.5000000000000004
 20
9.091347391416551
 30
0
 11
0.7400000000000002
 21
9.33134739141655
 31
0
  0
LINE
  8
0
 62
7
 10
0.5000000000000004
 20
8.879215357060588
 30
0
 11
0.7400000000000002
 21
9.119215357060586
 31
0
  0
LINE
  8
0
 62
7
 10
0.5000000000000004
 20
8.667083322704624
 30
0
 11
0.7400000000000002
 21
8.907083322704622
 31
0
  0
LINE
  8
0
 62
7
 10
0.5000000000000004
 20
8.45495128834866
 30
0
 11
0.7400000000000002
 21
8.694951288348658
 31
0
  0
LINE
  8
0
 62
7
 10
0.5571807460073028
 20
8.299999999999997
 30
0
 11
0.7400000000000002
 21
8.482819253992695
 31
0
  0
LINE
  8
0
 62
7
 10
0.5
 20
10.68233764908628
 30
0
 11
0.6676623509137176
 21
10.85
 31
0
  0
LINE
  8
0
 62
7
 10
0.5
 20
10.47020561473031
 30
0
 11
0.7400000000000007
 21
10.71020561473031
 31
0
  0
LINE
  8
0
 62
7
 10
0.5
 20
10.25807358037435
 30
0
 11
0.7400000000000007
 21
10.49807358037435
 31
0
  0
LINE
  8
0
 62
7
 10
0.5
 20
10.04594154601839
 30
0
 11
0.7400000000000007
 21
10.28594154601839
 31
0
  0
LINE
  8
0
 62
7
 10
0.5
 20
9.833809511662423
 30
0
 11
0.7400000000000007
 21
10.07380951166242
 31
0
  0
LINE
  8
0
 62
7
 10
0.5
 20
9.621677477306459
 30
0
 11
0.7400000000000007
 21
9.861677477306458
 31
0
  0
LINE
  8
0
 62
7
 10
0.5
 20
9.409545442950495
 30
0
 11
0.7400000000000007
 21
9.649545442950494
 31
0
  0
LINE
  8
0
 62
7
 10
0.5
 20
9.197413408594532
 30
0
 11
0.7400000000000007
 21
9.43741340859453
 31
0
  0
LINE
  8
0
 62
7
 10
0.5
 20
8.985281374238568
 30
0
 11
0.7400000000000007
 21
9.225281374238566
 31
0
  0
LINE
  8
0
 62
7
 10
0.5
 20
8.773149339882604
 30
0
 11
0.7400000000000007
 21
9.013149339882602
 31
0
  0
LINE
  8
0
 62
7
 10
0.5
 20
8.56101730552664
 30
0
 11
0.7400000000000007
 21
8.801017305526639
 31
0
  0
LINE
  8
0
 62
7
 10
0.5
 20
8.348885271170676
 30
0
 11
0.7400000000000007
 21
8.588885271170675
 31
0
  0
LINE
  8
0
 62
7
 10
0.6632467631852861
 20
8.299999999999997
 30
0
 11
0.7400000000000007
 21
8.376753236814711
 31
0
  0
ENDBLK
  8
0
  0
BLOCK
  8
0
  2
*X10
 70
1
 10
0
 20
0
 30
0
  0
LINE
  8
0
 62
7
 10
0.549464299379772
 20
11.05
 30
0
 11
0.6994642993797706
 21
11.2
 31
0
  0
LINE
  8
0
 62
7
 10
0.5
 20
11.10660171779821
 30
0
 11
0.5933982822017896
 21
11.2
 31
0
  0
LINE
  8
0
 62
7
 10
0.655530316557754
 20
11.05
 30
0
 11
0.7400000000000002
 21
11.13446968344225
 31
0
  0
ENDBLK
  8
0
  0
BLOCK
  8
0
  2
*X11
 70
1
 10
0
 20
0
 30
0
  0
LINE
  8
0
 62
7
  6
DASHED
 10
2.14
 20
8.185762979144981
 30
0
 11
2.254237020855017
 21
8.299999999999997
 31
0
  0
LINE
  8
0
 62
7
  6
DASHED
 10
2.266369055210983
 20
8.099999999999998
 30
0
 11
2.439999999999995
 21
8.27363094478901
 31
0
  0
LINE
  8
0
 62
7
 10
2.140000000000001
 20
8.291828996322963
 30
0
 11
2.148171003677036
 21
8.299999999999997
 31
0
  0
LINE
  8
0
 62
7
 10
2.160303038033001
 20
8.099999999999998
 30
0
 11
2.360303038033
 21
8.299999999999997
 31
0
  0
LINE
  8
0
 62
7
 10
2.372435072388966
 20
8.099999999999998
 30
0
 11
2.439999999999995
 21
8.167564927611028
 31
0
  0
ENDBLK
  8
0
  0
BLOCK
  8
0
  2
*X12
 70
1
 10
0
 20
0
 30
0
  0
LINE
  8
0
 62
7
  6
DASHED
 10
2.14
 20
10.94347942577251
 30
0
 11
2.246520574227487
 21
11.05
 31
0
  0
LINE
  8
0
 62
7
  6
DASHED
 10
2.25865260858345
 20
10.85
 30
0
 11
2.439999999999995
 21
11.03134739141655
 31
0
  0
LINE
  8
0
 62
7
 10
2.14
 20
11.0495454429505
 30
0
 11
2.140454557049504
 21
11.05
 31
0
  0
LINE
  8
0
 62
7
 10
2.152586591405468
 20
10.85
 30
0
 11
2.352586591405468
 21
11.05
 31
0
  0
LINE
  8
0
 62
7
 10
2.364718625761432
 20
10.85
 30
0
 11
2.439999999999995
 21
10.92528137423856
 31
0
  0
ENDBLK
  8
0
  0
BLOCK
  8
0
  2
*X13
 70
1
 10
0
 20
0
 30
0
  0
LINE
  8
0
 62
7
  6
DASHED
 10
0.4999999999999991
 20
11.00053570062023
 30
0
 11
0.5494642993797729
 21
11.05
 31
0
  0
LINE
  8
0
 62
7
  6
DASHED
 10
0.5615963337357357
 20
10.85
 30
0
 11
0.7399999999999993
 21
11.02840366626426
 31
0
  0
LINE
  8
0
 62
7
 10
0.5000000000000009
 20
10.89446968344225
 30
0
 11
0.655530316557754
 21
11.05
 31
0
  0
LINE
  8
0
 62
7
 10
0.6676623509137176
 20
10.85
 30
0
 11
0.7400000000000002
 21
10.92233764908628
 31
0
  0
ENDBLK
  8
0
  0
BLOCK
  8
0
  2
*X14
 70
1
 10
0
 20
0
 30
0
  0
LINE
  8
0
 62
7
  6
DASHED
 10
0.5
 20
8.242819253992694
 30
0
 11
0.5571807460073028
 21
8.299999999999997
 31
0
  0
LINE
  8
0
 62
7
  6
DASHED
 10
0.5693127803632687
 20
8.099999999999998
 30
0
 11
0.7399999999999998
 21
8.270687219636729
 31
0
  0
LINE
  8
0
 62
7
 10
0.5
 20
8.136753236814712
 30
0
 11
0.6632467631852856
 21
8.299999999999997
 31
0
  0
LINE
  8
0
 62
7
 10
0.6753787975412497
 20
8.099999999999998
 30
0
 11
0.7400000000000007
 21
8.164621202458747
 31
0
  0
ENDBLK
  8
0
  0
BLOCK
  8
0
  2
*X15
 70
1
 10
0
 20
0
 30
0
  0
LINE
  8
0
 62
7
 10
3.714999999999997
 20
5.093858223313766
 30
0
 11
4.039999999999999
 21
5.418858223313767
 31
0
  0
LINE
  8
0
 62
7
 10
3.863273811042203
 20
5.029999999999998
 30
0
 11
4.1032738110422
 21
5.269999999999997
 31
0
  0
LINE
  8
0
 62
7
 10
4.075405845398167
 20
5.029999999999998
 30
0
 11
4.315405845398164
 21
5.269999999999997
 31
0
  0
LINE
  8
0
 62
7
 10
4.287537879754131
 20
5.029999999999998
 30
0
 11
4.527537879754128
 21
5.269999999999997
 31
0
  0
LINE
  8
0
 62
7
 10
4.499669914110095
 20
5.029999999999998
 30
0
 11
4.739669914110092
 21
5.269999999999997
 31
0
  0
LINE
  8
0
 62
7
 10
4.711801948466059
 20
5.029999999999998
 30
0
 11
4.951801948466056
 21
5.269999999999997
 31
0
  0
LINE
  8
0
 62
7
 10
4.923933982822023
 20
5.029999999999998
 30
0
 11
5.163933982822019
 21
5.269999999999997
 31
0
  0
LINE
  8
0
 62
7
 10
5.136066017177987
 20
5.029999999999998
 30
0
 11
5.376066017177983
 21
5.269999999999997
 31
0
  0
LINE
  8
0
 62
7
 10
5.34819805153395
 20
5.029999999999998
 30
0
 11
5.588198051533947
 21
5.269999999999997
 31
0
  0
LINE
  8
0
 62
7
 10
5.560330085889914
 20
5.029999999999998
 30
0
 11
5.800330085889911
 21
5.269999999999997
 31
0
  0
LINE
  8
0
 62
7
 10
5.772462120245878
 20
5.029999999999998
 30
0
 11
6.012462120245875
 21
5.269999999999997
 31
0
  0
LINE
  8
0
 62
7
 10
5.984594154601842
 20
5.029999999999998
 30
0
 11
6.224594154601839
 21
5.269999999999997
 31
0
  0
LINE
  8
0
 62
7
 10
6.196726188957806
 20
5.029999999999998
 30
0
 11
6.436726188957802
 21
5.269999999999997
 31
0
  0
LINE
  8
0
 62
7
 10
6.40885822331377
 20
5.029999999999998
 30
0
 11
6.648858223313766
 21
5.269999999999997
 31
0
  0
LINE
  8
0
 62
7
 10
6.620990257669733
 20
5.029999999999998
 30
0
 11
6.86099025766973
 21
5.269999999999997
 31
0
  0
LINE
  8
0
 62
7
 10
6.833122292025697
 20
5.029999999999998
 30
0
 11
7.073122292025694
 21
5.269999999999997
 31
0
  0
LINE
  8
0
 62
7
 10
7.425
 20
5.409745673618339
 30
0
 11
7.435254326381659
 21
5.419999999999998
 31
0
  0
LINE
  8
0
 62
7
 10
7.045254326381661
 20
5.029999999999998
 30
0
 11
7.285254326381658
 21
5.269999999999997
 31
0
  0
LINE
  8
0
 62
7
 10
7.257386360737625
 20
5.029999999999998
 30
0
 11
7.600000000000001
 21
5.372613639262376
 31
0
  0
LINE
  8
0
 62
7
 10
7.469518395093589
 20
5.029999999999998
 30
0
 11
7.709518395093585
 21
5.269999999999996
 31
0
  0
LINE
  8
0
 62
7
 10
7.681650429449553
 20
5.029999999999998
 30
0
 11
7.765000000000001
 21
5.113349570550446
 31
0
  0
LINE
  8
0
 62
7
 10
3.864999999999998
 20
5.349924240491747
 30
0
 11
3.935075759508248
 21
5.419999999999997
 31
0
  0
LINE
  8
0
 62
7
 10
3.714999999999998
 20
5.199924240491749
 30
0
 11
3.785075759508247
 21
5.269999999999997
 31
0
  0
LINE
  8
0
 62
7
 10
3.757207793864221
 20
5.029999999999999
 30
0
 11
4.039999999999999
 21
5.312792206135784
 31
0
  0
LINE
  8
0
 62
7
 10
3.969339828220185
 20
5.029999999999999
 30
0
 11
4.209339828220183
 21
5.269999999999998
 31
0
  0
LINE
  8
0
 62
7
 10
4.181471862576149
 20
5.029999999999999
 30
0
 11
4.421471862576147
 21
5.269999999999998
 31
0
  0
LINE
  8
0
 62
7
 10
4.393603896932113
 20
5.029999999999999
 30
0
 11
4.633603896932111
 21
5.269999999999998
 31
0
  0
LINE
  8
0
 62
7
 10
4.605735931288077
 20
5.029999999999999
 30
0
 11
4.845735931288075
 21
5.269999999999998
 31
0
  0
LINE
  8
0
 62
7
 10
4.817867965644041
 20
5.029999999999999
 30
0
 11
5.057867965644038
 21
5.269999999999998
 31
0
  0
LINE
  8
0
 62
7
 10
5.030000000000005
 20
5.029999999999999
 30
0
 11
5.270000000000002
 21
5.269999999999998
 31
0
  0
LINE
  8
0
 62
7
 10
5.242132034355969
 20
5.029999999999999
 30
0
 11
5.482132034355966
 21
5.269999999999998
 31
0
  0
LINE
  8
0
 62
7
 10
5.454264068711932
 20
5.029999999999999
 30
0
 11
5.69426406871193
 21
5.269999999999998
 31
0
  0
LINE
  8
0
 62
7
 10
5.666396103067896
 20
5.029999999999999
 30
0
 11
5.906396103067894
 21
5.269999999999998
 31
0
  0
LINE
  8
0
 62
7
 10
5.87852813742386
 20
5.029999999999999
 30
0
 11
6.118528137423858
 21
5.269999999999998
 31
0
  0
LINE
  8
0
 62
7
 10
6.090660171779824
 20
5.029999999999999
 30
0
 11
6.330660171779821
 21
5.269999999999998
 31
0
  0
LINE
  8
0
 62
7
 10
6.302792206135788
 20
5.029999999999999
 30
0
 11
6.542792206135785
 21
5.269999999999998
 31
0
  0
LINE
  8
0
 62
7
 10
6.514924240491752
 20
5.029999999999999
 30
0
 11
6.754924240491749
 21
5.269999999999998
 31
0
  0
LINE
  8
0
 62
7
 10
6.727056274847715
 20
5.029999999999999
 30
0
 11
6.967056274847713
 21
5.269999999999998
 31
0
  0
LINE
  8
0
 62
7
 10
6.939188309203679
 20
5.029999999999999
 30
0
 11
7.179188309203677
 21
5.269999999999998
 31
0
  0
LINE
  8
0
 62
7
 10
7.425000000000001
 20
5.303679656440358
 30
0
 11
7.54132034355964
 21
5.419999999999997
 31
0
  0
LINE
  8
0
 62
7
 10
7.151320343559643
 20
5.029999999999999
 30
0
 11
7.391320343559641
 21
5.269999999999998
 31
0
  0
LINE
  8
0
 62
7
 10
7.363452377915607
 20
5.029999999999999
 30
0
 11
7.603452377915604
 21
5.269999999999998
 31
0
  0
LINE
  8
0
 62
7
 10
7.575584412271571
 20
5.029999999999999
 30
0
 11
7.765000000000001
 21
5.219415587728429
 31
0
  0
ENDBLK
  8
0
  0
BLOCK
  8
0
  2
*X16
 70
1
 10
0
 20
0
 30
0
  0
LINE
  8
0
 62
7
 10
3.714999999999997
 20
4.881726188957799
 30
0
 11
3.823273811042204
 21
4.99
 31
0
  0
LINE
  8
0
 62
7
 10
3.79540584539816
 20
4.749999999999998
 30
0
 11
4.035405845398168
 21
4.99
 31
0
  0
LINE
  8
0
 62
7
 10
3.864999999999998
 20
4.607462120245872
 30
0
 11
4.247537879754132
 21
4.99
 31
0
  0
LINE
  8
0
 62
7
 10
4.219669914110096
 20
4.749999999999999
 30
0
 11
4.459669914110096
 21
4.99
 31
0
  0
LINE
  8
0
 62
7
 10
3.864999999999998
 20
4.395330085889908
 30
0
 11
4.039999999999999
 21
4.57033008588991
 31
0
  0
LINE
  8
0
 62
7
 10
4.43180194846606
 20
4.749999999999999
 30
0
 11
4.67180194846606
 21
4.99
 31
0
  0
LINE
  8
0
 62
7
 10
3.864999999999998
 20
4.183198051533944
 30
0
 11
4.039999999999999
 21
4.358198051533946
 31
0
  0
LINE
  8
0
 62
7
 10
4.643933982822023
 20
4.749999999999999
 30
0
 11
4.883933982822024
 21
4.99
 31
0
  0
LINE
  8
0
 62
7
 10
3.864999999999998
 20
3.97106601717798
 30
0
 11
4.039999999999999
 21
4.146066017177982
 31
0
  0
LINE
  8
0
 62
7
 10
4.856066017177987
 20
4.749999999999999
 30
0
 11
5.096066017177987
 21
4.99
 31
0
  0
LINE
  8
0
 62
7
 10
3.864999999999998
 20
3.758933982822016
 30
0
 11
4.039999999999999
 21
3.933933982822018
 31
0
  0
LINE
  8
0
 62
7
 10
5.068198051533951
 20
4.749999999999999
 30
0
 11
5.308198051533951
 21
4.99
 31
0
  0
LINE
  8
0
 62
7
 10
3.864999999999998
 20
3.546801948466052
 30
0
 11
4.039999999999999
 21
3.721801948466053
 31
0
  0
LINE
  8
0
 62
7
 10
5.280330085889915
 20
4.749999999999999
 30
0
 11
5.520330085889915
 21
4.99
 31
0
  0
LINE
  8
0
 62
7
 10
3.864999999999998
 20
3.334669914110088
 30
0
 11
4.039999999999999
 21
3.509669914110089
 31
0
  0
LINE
  8
0
 62
7
 10
5.492462120245879
 20
4.749999999999999
 30
0
 11
5.732462120245879
 21
4.99
 31
0
  0
LINE
  8
0
 62
7
 10
3.992462120245875
 20
3.25
 30
0
 11
4.039999999999998
 21
3.297537879754123
 31
0
  0
LINE
  8
0
 62
7
 10
5.704594154601843
 20
4.749999999999999
 30
0
 11
5.944594154601843
 21
4.99
 31
0
  0
LINE
  8
0
 62
7
 10
5.916726188957806
 20
4.749999999999999
 30
0
 11
6.156726188957807
 21
4.99
 31
0
  0
LINE
  8
0
 62
7
 10
6.12885822331377
 20
4.749999999999999
 30
0
 11
6.36885822331377
 21
4.99
 31
0
  0
LINE
  8
0
 62
7
 10
6.340990257669734
 20
4.749999999999999
 30
0
 11
6.580990257669734
 21
4.99
 31
0
  0
LINE
  8
0
 62
7
 10
6.553122292025698
 20
4.749999999999999
 30
0
 11
6.793122292025698
 21
4.99
 31
0
  0
LINE
  8
0
 62
7
 10
6.765254326381662
 20
4.749999999999999
 30
0
 11
7.005254326381662
 21
4.99
 31
0
  0
LINE
  8
0
 62
7
 10
6.977386360737626
 20
4.749999999999999
 30
0
 11
7.217386360737626
 21
4.99
 31
0
  0
LINE
  8
0
 62
7
 10
7.189518395093589
 20
4.749999999999999
 30
0
 11
7.42951839509359
 21
4.99
 31
0
  0
LINE
  8
0
 62
7
 10
7.401650429449553
 20
4.749999999999999
 30
0
 11
7.641650429449554
 21
4.99
 31
0
  0
LINE
  8
0
 62
7
 10
7.613782463805517
 20
4.749999999999999
 30
0
 11
7.765
 21
4.901217536194482
 31
0
  0
LINE
  8
0
 62
7
 10
7.425000000000002
 20
4.561217536194483
 30
0
 11
7.600000000000002
 21
4.736217536194483
 31
0
  0
LINE
  8
0
 62
7
 10
7.425000000000002
 20
4.349085501838519
 30
0
 11
7.600000000000002
 21
4.52408550183852
 31
0
  0
LINE
  8
0
 62
7
 10
7.425000000000002
 20
4.136953467482555
 30
0
 11
7.600000000000002
 21
4.311953467482556
 31
0
  0
LINE
  8
0
 62
7
 10
7.425000000000002
 20
3.924821433126591
 30
0
 11
7.600000000000002
 21
4.099821433126592
 31
0
  0
LINE
  8
0
 62
7
 10
7.425000000000002
 20
3.712689398770627
 30
0
 11
7.600000000000002
 21
3.887689398770628
 31
0
  0
LINE
  8
0
 62
7
 10
7.425000000000002
 20
3.500557364414663
 30
0
 11
7.600000000000002
 21
3.675557364414663
 31
0
  0
LINE
  8
0
 62
7
 10
7.486574669941303
 20
3.35
 30
0
 11
7.600000000000002
 21
3.463425330058699
 31
0
  0
LINE
  8
0
 62
7
 10
3.714999999999998
 20
4.987792206135783
 30
0
 11
3.717207793864222
 21
4.989999999999999
 31
0
  0
LINE
  8
0
 62
7
 10
3.714999999999998
 20
4.775660171779819
 30
0
 11
3.929339828220186
 21
4.989999999999999
 31
0
  0
LINE
  8
0
 62
7
 10
3.864999999999998
 20
4.713528137423854
 30
0
 11
4.14147186257615
 21
4.989999999999999
 31
0
  0
LINE
  8
0
 62
7
 10
4.113603896932114
 20
4.75
 30
0
 11
4.353603896932114
 21
4.989999999999999
 31
0
  0
LINE
  8
0
 62
7
 10
3.864999999999998
 20
4.50139610306789
 30
0
 11
4.039999999999999
 21
4.676396103067891
 31
0
  0
LINE
  8
0
 62
7
 10
4.325735931288078
 20
4.75
 30
0
 11
4.565735931288078
 21
4.989999999999999
 31
0
  0
LINE
  8
0
 62
7
 10
3.864999999999998
 20
4.289264068711926
 30
0
 11
4.039999999999999
 21
4.464264068711927
 31
0
  0
LINE
  8
0
 62
7
 10
4.537867965644041
 20
4.75
 30
0
 11
4.777867965644042
 21
4.989999999999999
 31
0
  0
LINE
  8
0
 62
7
 10
3.864999999999998
 20
4.077132034355962
 30
0
 11
4.039999999999999
 21
4.252132034355963
 31
0
  0
LINE
  8
0
 62
7
 10
4.750000000000005
 20
4.75
 30
0
 11
4.990000000000006
 21
4.989999999999999
 31
0
  0
LINE
  8
0
 62
7
 10
3.864999999999998
 20
3.864999999999998
 30
0
 11
4.039999999999999
 21
4.039999999999999
 31
0
  0
LINE
  8
0
 62
7
 10
4.962132034355969
 20
4.75
 30
0
 11
5.202132034355969
 21
4.989999999999999
 31
0
  0
LINE
  8
0
 62
7
 10
3.864999999999998
 20
3.652867965644034
 30
0
 11
4.039999999999999
 21
3.827867965644035
 31
0
  0
LINE
  8
0
 62
7
 10
5.174264068711933
 20
4.75
 30
0
 11
5.414264068711933
 21
4.989999999999999
 31
0
  0
LINE
  8
0
 62
7
 10
3.864999999999998
 20
3.440735931288069
 30
0
 11
4.039999999999999
 21
3.615735931288071
 31
0
  0
LINE
  8
0
 62
7
 10
5.386396103067897
 20
4.75
 30
0
 11
5.626396103067897
 21
4.989999999999999
 31
0
  0
LINE
  8
0
 62
7
 10
3.886396103067893
 20
3.25
 30
0
 11
4.039999999999999
 21
3.403603896932106
 31
0
  0
LINE
  8
0
 62
7
 10
5.598528137423861
 20
4.75
 30
0
 11
5.838528137423861
 21
4.989999999999999
 31
0
  0
LINE
  8
0
 62
7
 10
5.810660171779825
 20
4.75
 30
0
 11
6.050660171779825
 21
4.989999999999999
 31
0
  0
LINE
  8
0
 62
7
 10
6.022792206135788
 20
4.75
 30
0
 11
6.262792206135789
 21
4.989999999999999
 31
0
  0
LINE
  8
0
 62
7
 10
6.234924240491752
 20
4.75
 30
0
 11
6.474924240491752
 21
4.989999999999999
 31
0
  0
LINE
  8
0
 62
7
 10
6.447056274847716
 20
4.75
 30
0
 11
6.687056274847716
 21
4.989999999999999
 31
0
  0
LINE
  8
0
 62
7
 10
6.65918830920368
 20
4.75
 30
0
 11
6.89918830920368
 21
4.989999999999999
 31
0
  0
LINE
  8
0
 62
7
 10
6.871320343559644
 20
4.75
 30
0
 11
7.111320343559644
 21
4.989999999999999
 31
0
  0
LINE
  8
0
 62
7
 10
7.083452377915608
 20
4.75
 30
0
 11
7.323452377915608
 21
4.989999999999999
 31
0
  0
LINE
  8
0
 62
7
 10
7.295584412271571
 20
4.75
 30
0
 11
7.535584412271572
 21
4.989999999999999
 31
0
  0
LINE
  8
0
 62
7
 10
7.425000000000001
 20
4.667283553372464
 30
0
 11
7.747716446627535
 21
4.989999999999999
 31
0
  0
LINE
  8
0
 62
7
 10
7.719848480983499
 20
4.749999999999999
 30
0
 11
7.765000000000001
 21
4.795151519016501
 31
0
  0
LINE
  8
0
 62
7
 10
7.425000000000001
 20
4.4551515190165
 30
0
 11
7.600000000000001
 21
4.630151519016501
 31
0
  0
LINE
  8
0
 62
7
 10
7.425000000000001
 20
4.243019484660536
 30
0
 11
7.600000000000001
 21
4.418019484660537
 31
0
  0
LINE
  8
0
 62
7
 10
7.425000000000001
 20
4.030887450304572
 30
0
 11
7.600000000000001
 21
4.205887450304573
 31
0
  0
LINE
  8
0
 62
7
 10
7.425000000000001
 20
3.818755415948608
 30
0
 11
7.600000000000001
 21
3.993755415948609
 31
0
  0
LINE
  8
0
 62
7
 10
7.425000000000001
 20
3.606623381592644
 30
0
 11
7.600000000000001
 21
3.781623381592645
 31
0
  0
LINE
  8
0
 62
7
 10
7.425000000000001
 20
3.394491347236679
 30
0
 11
7.600000000000001
 21
3.56949134723668
 31
0
  0
LINE
  8
0
 62
7
 10
7.592640687119285
 20
3.35
 30
0
 11
7.600000000000001
 21
3.357359312880716
 31
0
  0
ENDBLK
  8
0
  0
BLOCK
  8
0
  2
*D0
 70
1
 10
0
 20
0
 30
0
  0
LINE
  8
0
 62
7
 10
7.99146087279283
 20
10.27724518892295
 30
0
 11
7.99146087279283
 21
11.05
 31
0
  0
LINE
  8
0
 62
7
 10
7.99146087279283
 20
8.299999999999997
 30
0
 11
7.99146087279283
 21
9.197245188922949
 31
0
  0
LINE
  8
0
 62
7
 10
7.75
 20
11.05
 30
0
 11
8.041460872792831
 21
11.05
 31
0
  0
LINE
  8
0
 62
7
 10
7.75
 20
8.299999999999997
 30
0
 11
8.041460872792831
 21
8.299999999999997
 31
0
  0
LINE
  8
0
 62
7
 10
7.956105533733503
 20
8.335355339059324
 30
0
 11
8.026816211852157
 21
8.26464466094067
 31
0
  0
LINE
  8
0
 62
7
 10
8.026816211852157
 20
11.01464466094067
 30
0
 11
7.956105533733503
 21
11.08535533905933
 31
0
  0
TEXT
  8
0
 62
7
 10
7.96146087279283
 20
9.599745188922951
 30
0
 40
0.1
  1
2,75
 50
90
 41
0.9
  0
TEXT
  8
0
 62
7
 10
8.121460872792831
 20
9.39724518892295
 30
0
 40
0.1
  1
(260-280)
 50
90
 41
0.9
  0
ENDBLK
  8
0
  0
BLOCK
  8
0
  2
*D1
 70
1
 10
0
 20
0
 30
0
  0
LINE
  8
0
 62
7
 10
6.01240019374894
 20
11.4620756945154
 30
0
 11
7.425
 21
11.4620756945154
 31
0
  0
LINE
  8
0
 62
7
 10
4.039999999999999
 20
11.4620756945154
 30
0
 11
5.337400193748939
 21
11.4620756945154
 31
0
  0
LINE
  8
0
 62
7
 10
7.425
 20
11.2
 30
0
 11
7.425
 21
11.5120756945154
 31
0
  0
LINE
  8
0
 62
7
 10
4.039999999999999
 20
11.2
 30
0
 11
4.039999999999999
 21
11.5120756945154
 31
0
  0
LINE
  8
0
 62
7
 10
7.389644660940673
 20
11.42672035545607
 30
0
 11
7.460355339059327
 21
11.49743103357473
 31
0
  0
LINE
  8
0
 62
7
 10
4.075355339059326
 20
11.49743103357473
 30
0
 11
4.004644660940672
 21
11.42672035545607
 31
0
  0
TEXT
  8
0
 62
7
 10
5.537400193748939
 20
11.4170756945154
 30
0
 40
0.1
  1
3,39
 41
0.9
  0
ENDBLK
  8
0
  0
BLOCK
  8
0
  2
*D2
 70
1
 10
0
 20
0
 30
0
  0
LINE
  8
0
 62
7
 10
3.584959581133261
 20
4.32370350607506
 30
0
 11
3.584959581133261
 21
4.749999999999999
 31
0
  0
LINE
  8
0
 62
7
 10
3.584959581133261
 20
3.25
 30
0
 11
3.584959581133261
 21
3.66870350607506
 31
0
  0
LINE
  8
0
 62
7
 10
3.864999999999998
 20
4.749999999999999
 30
0
 11
3.534959581133261
 21
4.749999999999999
 31
0
  0
LINE
  8
0
 62
7
 10
3.864999999999998
 20
3.25
 30
0
 11
3.534959581133261
 21
3.25
 31
0
  0
LINE
  8
0
 62
7
 10
3.549604242073934
 20
3.285355339059327
 30
0
 11
3.620314920192588
 21
3.214644660940673
 31
0
  0
LINE
  8
0
 62
7
 10
3.620314920192588
 20
4.714644660940672
 30
0
 11
3.549604242073934
 21
4.785355339059326
 31
0
  0
TEXT
  8
0
 62
7
 10
3.629959581133261
 20
3.91870350607506
 30
0
 40
0.1
  1
1,5
 50
90
 41
0.9
  0
ENDBLK
  8
0
  0
BLOCK
  8
0
  2
*D3
 70
1
 10
0
 20
0
 30
0
  0
LINE
  8
0
 62
7
 10
6.06240019374894
 20
5.5825439710725
 30
0
 11
7.425
 21
5.5825439710725
 31
0
  0
LINE
  8
0
 62
7
 10
4.039999999999999
 20
5.5825439710725
 30
0
 11
5.287400193748939
 21
5.5825439710725
 31
0
  0
LINE
  8
0
 62
7
 10
7.425
 20
5.269999999999997
 30
0
 11
7.425
 21
5.6325439710725
 31
0
  0
LINE
  8
0
 62
7
 10
4.039999999999999
 20
5.269999999999997
 30
0
 11
4.039999999999999
 21
5.6325439710725
 31
0
  0
LINE
  8
0
 62
7
 10
4.075355339059326
 20
5.617899310131827
 30
0
 11
4.004644660940672
 21
5.547188632013173
 31
0
  0
LINE
  8
0
 62
7
 10
7.389644660940673
 20
5.547188632013173
 30
0
 11
7.460355339059327
 21
5.617899310131827
 31
0
  0
TEXT
  8
0
 62
7
 10
5.537400193748939
 20
5.5375439710725
 30
0
 40
0.1
  1
3,39
 41
0.9
  0
ENDBLK
  8
0
  0
BLOCK
  8
0
  2
*D4
 70
1
 10
0
 20
0
 30
0
  0
LINE
  8
0
 62
7
 10
7.89074084326918
 20
4.39924352821779
 30
0
 11
7.89074084326918
 21
4.749999999999999
 31
0
  0
LINE
  8
0
 62
7
 10
7.89074084326918
 20
3.35
 30
0
 11
7.89074084326918
 21
3.74424352821779
 31
0
  0
LINE
  8
0
 62
7
 10
7.600000000000001
 20
4.749999999999999
 30
0
 11
7.94074084326918
 21
4.749999999999999
 31
0
  0
LINE
  8
0
 62
7
 10
7.600000000000001
 20
3.35
 30
0
 11
7.94074084326918
 21
3.35
 31
0
  0
LINE
  8
0
 62
7
 10
7.926096182328507
 20
4.714644660940672
 30
0
 11
7.855385504209853
 21
4.785355339059326
 31
0
  0
LINE
  8
0
 62
7
 10
7.855385504209853
 20
3.385355339059327
 30
0
 11
7.926096182328507
 21
3.314644660940672
 31
0
  0
TEXT
  8
0
 62
7
 10
7.93574084326918
 20
3.99424352821779
 30
0
 40
0.1
  1
1,4
 50
90
 41
0.9
  0
ENDBLK
  8
0
  0
ENDSEC
  0
SECTION
  2
ENTITIES
  0
INSERT
  8
0
  2
*X0
 10
0
 20
0
 30
0
  0
INSERT
  8
0
  2
*X1
 10
0
 20
0
 30
0
  0
INSERT
  8
0
  2
*X2
 10
0
 20
0
 30
0
  0
INSERT
  8
0
  2
*X3
 10
0
 20
0
 30
0
  0
INSERT
  8
0
  2
*X4
 10
0
 20
0
 30
0
  0
INSERT
  8
0
  2
*X5
 10
0
 20
0
 30
0
  0
INSERT
  8
0
  2
*X6
 10
0
 20
0
 30
0
  0
INSERT
  8
0
  2
*X7
 10
0
 20
0
 30
0
  0
INSERT
  8
0
  2
*X8
 10
0
 20
0
 30
0
  0
INSERT
  8
0
  2
*X9
 10
0
 20
0
 30
0
  0
INSERT
  8
0
  2
*X10
 10
0
 20
0
 30
0
  0
INSERT
  8
0
  2
*X11
 10
0
 20
0
 30
0
  0
INSERT
  8
0
  2
*X12
 10
0
 20
0
 30
0
  0
INSERT
  8
0
  2
*X13
 10
0
 20
0
 30
0
  0
INSERT
  8
0
  2
*X14
 10
0
 20
0
 30
0
  0
INSERT
  8
0
  2
*X15
 10
0
 20
0
 30
0
  0
INSERT
  8
0
  2
*X16
 10
0
 20
0
 30
0
  0
LINE
  8
0
 62
7
 10
6.31
 20
3.587697996240795
 30
0
 11
6.31
 21
3.42292776206218
 31
0
  0
LINE
  8
0
 62
7
 10
6.273209552631728
 20
3.635
 30
0
 11
6.31
 21
3.587697996240795
 31
0
  0
LINE
  8
0
 62
7
 10
6.088090711434129
 20
3.635
 30
0
 11
6.192908154907628
 21
3.635
 31
0
  0
LINE
  8
0
 62
7
 10
6.088090711434129
 20
3.635
 30
0
 11
6.273209552631728
 21
3.635
 31
0
  0
LINE
  8
0
 62
7
 10
5.193827860210799
 20
3.635
 30
0
 11
5.390482304376369
 21
3.635
 31
0
  0
LINE
  8
0
 62
7
 10
5.154999999999999
 20
3.594484419072728
 30
0
 11
5.193827860210799
 21
3.635
 31
0
  0
LINE
  8
0
 62
7
 10
5.154999999999999
 20
3.448702041820621
 30
0
 11
5.154999999999999
 21
3.539173816537519
 31
0
  0
LINE
  8
0
 62
7
 10
5.154999999999999
 20
3.448702041820621
 30
0
 11
5.154999999999999
 21
3.594484419072728
 31
0
  0
LINE
  8
0
 62
7
 10
4.094999999999999
 20
3.64785023858933
 30
0
 11
4.094999999999999
 21
3.25
 31
0
  0
LINE
  8
0
 62
7
 10
5.154999999999999
 20
3.25
 30
0
 11
5.154999999999999
 21
3.448702041820621
 31
0
  0
LINE
  8
0
 62
7
 10
4.094999999999999
 20
3.25
 30
0
 11
5.154999999999999
 21
3.25
 31
0
  0
LINE
  8
0
 62
7
 10
4.094999999999999
 20
4.047570626350649
 30
0
 11
4.094999999999999
 21
3.557378463872429
 31
0
  0
LINE
  8
0
 62
7
 10
4.094999999999999
 20
3.557378463872429
 30
0
 11
5.154999999999999
 21
3.448702041820621
 31
0
  0
LINE
  8
0
 62
7
 10
4.094999999999999
 20
4.55721529371188
 30
0
 11
4.094999999999999
 21
3.95126858269284
 31
0
  0
LINE
  8
0
 62
7
 10
5.122153031096837
 20
3.560209699333179
 30
0
 11
5.154999999999999
 21
3.594484419072728
 31
0
  0
LINE
  8
0
 62
7
 10
4.094999999999999
 20
3.95126858269284
 30
0
 11
5.122153031096837
 21
3.560209699333179
 31
0
  0
LINE
  8
0
 62
7
 10
4.094999999999999
 20
4.694999999999999
 30
0
 11
4.094999999999999
 21
4.44483088253436
 31
0
  0
LINE
  8
0
 62
7
 10
4.60949695396966
 20
4.694999999999999
 30
0
 11
4.094999999999999
 21
4.694999999999999
 31
0
  0
LINE
  8
0
 62
7
 10
5.177867894412801
 20
3.635
 30
0
 11
5.193827860210799
 21
3.635
 31
0
  0
LINE
  8
0
 62
7
 10
4.094999999999999
 20
4.44483088253436
 30
0
 11
5.177867894412801
 21
3.635
 31
0
  0
LINE
  8
0
 62
7
 10
5.042723268038318
 20
4.694999999999999
 30
0
 11
4.49770685467052
 21
4.694999999999999
 31
0
  0
LINE
  8
0
 62
7
 10
5.278692205077231
 20
3.635
 30
0
 11
5.48303063804452
 21
3.635
 31
0
  0
LINE
  8
0
 62
7
 10
4.49770685467052
 20
4.694999999999999
 30
0
 11
5.278692205077231
 21
3.635
 31
0
  0
LINE
  8
0
 62
7
 10
5.414731634147429
 20
4.694999999999999
 30
0
 11
4.945267599032459
 21
4.694999999999999
 31
0
  0
LINE
  8
0
 62
7
 10
5.385574969038657
 20
3.635
 30
0
 11
5.583848433079858
 21
3.635
 31
0
  0
LINE
  8
0
 62
7
 10
4.945267599032459
 20
4.694999999999999
 30
0
 11
5.385574969038657
 21
3.635
 31
0
  0
LINE
  8
0
 62
7
 10
5.725279846057348
 20
4.694999999999999
 30
0
 11
5.323593386853499
 21
4.694999999999999
 31
0
  0
LINE
  8
0
 62
7
 10
5.492710185785928
 20
3.635
 30
0
 11
5.77607546683897
 21
3.63499999999999
 31
0
  0
LINE
  8
0
 62
7
 10
5.323593386853499
 20
4.694999999999999
 30
0
 11
5.492710185785928
 21
3.635
 31
0
  0
LINE
  8
0
 62
7
 10
6.037434083094227
 20
4.694999999999999
 30
0
 11
5.635176568913808
 21
4.694999999999999
 31
0
  0
LINE
  8
0
 62
7
 10
5.685972189695431
 20
3.63500000000001
 30
0
 11
5.968794116123249
 21
3.635
 31
0
  0
LINE
  8
0
 62
7
 10
5.635176568913808
 20
4.694999999999999
 30
0
 11
5.685972189695431
 21
3.63500000000001
 31
0
  0
LINE
  8
0
 62
7
 10
6.4201098054866
 20
4.694999999999999
 30
0
 11
5.947245587865509
 21
4.694999999999999
 31
0
  0
LINE
  8
0
 62
7
 10
5.878605620894531
 20
3.635
 30
0
 11
6.080010363123319
 21
3.635
 31
0
  0
LINE
  8
0
 62
7
 10
5.947245587865509
 20
4.694999999999999
 30
0
 11
5.878605620894531
 21
3.635
 31
0
  0
LINE
  8
0
 62
7
 10
6.825704431909952
 20
4.694999999999999
 30
0
 11
6.325590788276791
 21
4.694999999999999
 31
0
  0
LINE
  8
0
 62
7
 10
5.98549134591351
 20
3.635
 30
0
 11
6.088090711434129
 21
3.635
 31
0
  0
LINE
  8
0
 62
7
 10
6.325590788276791
 20
4.694999999999999
 30
0
 11
5.98549134591351
 21
3.635
 31
0
  0
LINE
  8
0
 62
7
 10
7.370000000000001
 20
4.694999999999999
 30
0
 11
6.720886988436451
 21
4.694999999999999
 31
0
  0
LINE
  8
0
 62
7
 10
7.370000000000001
 20
4.646649208377841
 30
0
 11
7.370000000000001
 21
4.694999999999999
 31
0
  0
LINE
  8
0
 62
7
 10
6.720886988436451
 20
4.694999999999999
 30
0
 11
6.088090711434129
 21
3.635
 31
0
  0
LINE
  8
0
 62
7
 10
7.370000000000001
 20
4.694999999999999
 30
0
 11
7.290168734801829
 21
4.694999999999999
 31
0
  0
LINE
  8
0
 62
7
 10
7.370000000000001
 20
4.094486197164031
 30
0
 11
7.370000000000001
 21
4.694999999999999
 31
0
  0
LINE
  8
0
 62
7
 10
6.2298240005262
 20
3.690781424135679
 30
0
 11
6.273209552631728
 21
3.635
 31
0
  0
LINE
  8
0
 62
7
 10
7.290168734801829
 20
4.694999999999999
 30
0
 11
6.2298240005262
 21
3.690781424135679
 31
0
  0
LINE
  8
0
 62
7
 10
7.370000000000001
 20
3.680055412016891
 30
0
 11
7.370000000000001
 21
4.196696577994962
 31
0
  0
LINE
  8
0
 62
7
 10
6.31
 20
3.626116794178151
 30
0
 11
6.31
 21
3.587697996240795
 31
0
  0
LINE
  8
0
 62
7
 10
7.370000000000001
 20
4.196696577994962
 30
0
 11
6.31
 21
3.626116794178151
 31
0
  0
LINE
  8
0
 62
7
 10
7.370000000000001
 20
3.379999999999999
 30
0
 11
7.370000000000001
 21
3.77266544629749
 31
0
  0
LINE
  8
0
 62
7
 10
6.31
 20
3.515537796342779
 30
0
 11
6.31
 21
3.379999999999999
 31
0
  0
LINE
  8
0
 62
7
 10
7.370000000000001
 20
3.77266544629749
 30
0
 11
6.31
 21
3.515537796342779
 31
0
  0
LINE
  8
0
 62
7
 10
6.907883463987869
 20
3.635000120265179
 30
0
 11
6.907883463987869
 21
3.399999999999999
 31
0
  0
LINE
  8
0
 62
7
 10
7.013538563249568
 20
3.461
 30
0
 11
6.907883463987869
 21
3.399999999999999
 31
0
  0
LINE
  8
0
 62
7
 10
6.802228364726171
 20
3.461
 30
0
 11
7.013538563249568
 21
3.461
 31
0
  0
LINE
  8
0
 62
7
 10
6.907883463987869
 20
3.399999999999999
 30
0
 11
6.802228364726171
 21
3.461
 31
0
  0
LINE
  8
0
 62
7
 10
5.15499987973498
 20
4.232883463987871
 30
0
 11
6.310000120233781
 21
4.232883463987871
 31
0
  0
LINE
  8
0
 62
7
 10
4.557116536012128
 20
3.25
 30
0
 11
4.557116536012128
 21
3.635000120287299
 31
0
  0
LINE
  8
0
 62
7
 10
4.094998879999999
 20
8.583333226666666
 30
0
 11
5.15500031
 21
8.583333226666666
 31
0
  0
LINE
  8
0
 62
7
 10
4.094998879999999
 20
8.518333226666664
 30
0
 11
4.094998879999999
 21
8.583333226666666
 31
0
  0
LINE
  8
0
 62
7
 10
5.15500031
 20
8.583333226666666
 30
0
 11
5.15500031
 21
8.518333226666664
 31
0
  0
LINE
  8
0
 62
7
 10
5.15500031
 20
8.518333226666664
 30
0
 11
4.094998879999999
 21
8.518333226666664
 31
0
  0
LINE
  8
0
 62
7
 10
4.094999929999999
 20
8.766666566666663
 30
0
 11
5.155000159999999
 21
8.766666566666663
 31
0
  0
LINE
  8
0
 62
7
 10
4.094999929999999
 20
8.701666566666665
 30
0
 11
4.094999929999999
 21
8.766666566666663
 31
0
  0
LINE
  8
0
 62
7
 10
5.155000159999999
 20
8.766666566666663
 30
0
 11
5.155000159999999
 21
8.701666566666665
 31
0
  0
LINE
  8
0
 62
7
 10
5.155000159999999
 20
8.701666566666665
 30
0
 11
4.094999929999999
 21
8.701666566666665
 31
0
  0
LINE
  8
0
 62
7
 10
4.094999910000001
 20
8.949999906666664
 30
0
 11
5.249902959999999
 21
8.949999906666664
 31
0
  0
LINE
  8
0
 62
7
 10
5.249902959999999
 20
8.884999906666662
 30
0
 11
4.094999910000001
 21
8.884999906666662
 31
0
  0
LINE
  8
0
 62
7
 10
4.094999910000001
 20
8.884999906666662
 30
0
 11
4.094999910000001
 21
8.949999906666664
 31
0
  0
LINE
  8
0
 62
7
 10
5.249902959999999
 20
8.949999906666664
 30
0
 11
5.249902959999999
 21
8.884999906666662
 31
0
  0
LINE
  8
0
 62
7
 10
5.390482329999999
 20
9.068333226666665
 30
0
 11
4.094999999999999
 21
9.068333226666665
 31
0
  0
LINE
  8
0
 62
7
 10
4.094999999999999
 20
9.133333226666664
 30
0
 11
5.390482329999999
 21
9.133333226666664
 31
0
  0
LINE
  8
0
 62
7
 10
4.094999999999999
 20
9.068333226666665
 30
0
 11
4.094999999999999
 21
9.133333226666664
 31
0
  0
LINE
  8
0
 62
7
 10
5.390482329999999
 20
9.133333226666664
 30
0
 11
5.390482329999999
 21
9.068333226666665
 31
0
  0
LINE
  8
0
 62
7
 10
5.483030859999999
 20
9.251666586666667
 30
0
 11
4.497706909999998
 21
9.251666586666667
 31
0
  0
LINE
  8
0
 62
7
 10
4.497706909999998
 20
9.316666586666667
 30
0
 11
5.483030859999999
 21
9.316666586666667
 31
0
  0
LINE
  8
0
 62
7
 10
4.497706909999998
 20
9.251666586666667
 30
0
 11
4.497706909999998
 21
9.316666586666667
 31
0
  0
LINE
  8
0
 62
7
 10
5.483030859999999
 20
9.316666586666667
 30
0
 11
5.483030859999999
 21
9.251666586666667
 31
0
  0
LINE
  8
0
 62
7
 10
5.583848579999989
 20
9.434999946666663
 30
0
 11
4.945267639999997
 21
9.434999946666663
 31
0
  0
LINE
  8
0
 62
7
 10
4.945267639999997
 20
9.499999946666664
 30
0
 11
5.583848579999989
 21
9.499999946666664
 31
0
  0
LINE
  8
0
 62
7
 10
4.945267639999997
 20
9.434999946666663
 30
0
 11
4.945267639999997
 21
9.499999946666664
 31
0
  0
LINE
  8
0
 62
7
 10
5.583848579999989
 20
9.499999946666664
 30
0
 11
5.583848579999989
 21
9.434999946666663
 31
0
  0
LINE
  8
0
 62
7
 10
5.77607544
 20
9.618333226666664
 30
0
 11
5.32359345
 21
9.618333226666664
 31
0
  0
LINE
  8
0
 62
7
 10
5.32359345
 20
9.683333226666665
 30
0
 11
5.77607544
 21
9.683333226666665
 31
0
  0
LINE
  8
0
 62
7
 10
5.32359345
 20
9.618333226666664
 30
0
 11
5.32359345
 21
9.683333226666665
 31
0
  0
LINE
  8
0
 62
7
 10
5.77607544
 20
9.683333226666665
 30
0
 11
5.77607544
 21
9.618333226666664
 31
0
  0
LINE
  8
0
 62
7
 10
6.037433929999999
 20
9.801666666666666
 30
0
 11
5.635176700000001
 21
9.801666666666666
 31
0
  0
LINE
  8
0
 62
7
 10
5.635176700000001
 20
9.866666666666665
 30
0
 11
6.037433929999999
 21
9.866666666666665
 31
0
  0
LINE
  8
0
 62
7
 10
5.635176700000001
 20
9.801666666666666
 30
0
 11
5.635176700000001
 21
9.866666666666665
 31
0
  0
LINE
  8
0
 62
7
 10
6.037433929999999
 20
9.866666666666665
 30
0
 11
6.037433929999999
 21
9.801666666666666
 31
0
  0
LINE
  8
0
 62
7
 10
6.420109869999997
 20
9.984999946666663
 30
0
 11
5.878605499999998
 21
9.984999946666663
 31
0
  0
LINE
  8
0
 62
7
 10
5.878605499999998
 20
10.04999994666666
 30
0
 11
6.420109869999997
 21
10.04999994666666
 31
0
  0
LINE
  8
0
 62
7
 10
5.878605499999998
 20
9.984999946666663
 30
0
 11
5.878605499999998
 21
10.04999994666666
 31
0
  0
LINE
  8
0
 62
7
 10
6.420109869999997
 20
10.04999994666666
 30
0
 11
6.420109869999997
 21
9.984999946666663
 31
0
  0
LINE
  8
0
 62
7
 10
6.82570435
 20
10.16833322666666
 30
0
 11
5.985491179999999
 21
10.16833322666666
 31
0
  0
LINE
  8
0
 62
7
 10
5.985491179999999
 20
10.23333322666666
 30
0
 11
6.82570435
 21
10.23333322666666
 31
0
  0
LINE
  8
0
 62
7
 10
5.985491179999999
 20
10.16833322666666
 30
0
 11
5.985491179999999
 21
10.23333322666666
 31
0
  0
LINE
  8
0
 62
7
 10
6.82570435
 20
10.23333322666666
 30
0
 11
6.82570435
 21
10.16833322666666
 31
0
  0
LINE
  8
0
 62
7
 10
7.370000000000001
 20
10.35166666666667
 30
0
 11
6.088090669999997
 21
10.35166666666667
 31
0
  0
LINE
  8
0
 62
7
 10
6.088090669999997
 20
10.41666666666667
 30
0
 11
7.370000000000001
 21
10.41666666666667
 31
0
  0
LINE
  8
0
 62
7
 10
6.088090669999997
 20
10.35166666666667
 30
0
 11
6.088090669999997
 21
10.41666666666667
 31
0
  0
LINE
  8
0
 62
7
 10
7.370000000000001
 20
10.41666666666667
 30
0
 11
7.370000000000001
 21
10.35166666666667
 31
0
  0
LINE
  8
0
 62
7
 10
7.370000000000001
 20
10.53499994666666
 30
0
 11
6.229824069999999
 21
10.53499994666666
 31
0
  0
LINE
  8
0
 62
7
 10
6.229824069999999
 20
10.59999994666666
 30
0
 11
7.370000000000001
 21
10.59999994666666
 31
0
  0
LINE
  8
0
 62
7
 10
6.229824069999999
 20
10.53499994666666
 30
0
 11
6.229824069999999
 21
10.59999994666666
 31
0
  0
LINE
  8
0
 62
7
 10
7.370000000000001
 20
10.59999994666666
 30
0
 11
7.370000000000001
 21
10.53499994666666
 31
0
  0
LINE
  8
0
 62
7
 10
6.31
 20
10.78333322666666
 30
0
 11
7.370000000000001
 21
10.78333322666666
 31
0
  0
LINE
  8
0
 62
7
 10
6.31
 20
10.71833322666666
 30
0
 11
6.31
 21
10.78333322666666
 31
0
  0
LINE
  8
0
 62
7
 10
7.370000000000001
 20
10.78333322666666
 30
0
 11
7.370000000000001
 21
10.71833322666666
 31
0
  0
LINE
  8
0
 62
7
 10
7.370000000000001
 20
10.71833322666666
 30
0
 11
6.31
 21
10.71833322666666
 31
0
  0
LINE
  8
0
 62
7
  6
DASHED
 10
6.31
 20
10.96666666666667
 30
0
 11
7.370000000000001
 21
10.96666666666667
 31
0
  0
LINE
  8
0
 62
7
  6
DASHED
 10
6.31
 20
10.90166666666667
 30
0
 11
6.31
 21
10.96666666666667
 31
0
  0
LINE
  8
0
 62
7
  6
DASHED
 10
7.370000000000001
 20
10.96666666666667
 30
0
 11
7.370000000000001
 21
10.90166666666667
 31
0
  0
LINE
  8
0
 62
7
  6
DASHED
 10
7.370000000000001
 20
10.90166666666667
 30
0
 11
6.31
 21
10.90166666666667
 31
0
  0
LINE
  8
0
 62
7
 10
1.842149579999998
 20
8.583333226666666
 30
0
 11
2.239999999999997
 21
8.583333226666666
 31
0
  0
LINE
  8
0
 62
7
 10
2.239999999999997
 20
8.518333226666664
 30
0
 11
1.842149579999998
 21
8.518333226666664
 31
0
  0
LINE
  8
0
 62
7
 10
2.239999999999997
 20
8.583333226666666
 30
0
 11
2.239999999999997
 21
8.518333226666664
 31
0
  0
LINE
  8
0
 62
7
 10
1.842149579999998
 20
8.518333226666664
 30
0
 11
1.842149579999998
 21
8.583333226666666
 31
0
  0
LINE
  8
0
 62
7
 10
2.041297989999999
 20
8.701666566666667
 30
0
 11
1.442429499999998
 21
8.701666566666667
 31
0
  0
LINE
  8
0
 62
7
 10
1.442429499999998
 20
8.766666566666668
 30
0
 11
2.041297989999999
 21
8.766666566666668
 31
0
  0
LINE
  8
0
 62
7
 10
2.041297989999999
 20
8.766666566666668
 30
0
 11
2.041297989999999
 21
8.701666566666667
 31
0
  0
LINE
  8
0
 62
7
 10
1.442429499999998
 20
8.701666566666667
 30
0
 11
1.442429499999998
 21
8.766666566666668
 31
0
  0
LINE
  8
0
 62
7
 10
1.929790419999999
 20
8.884999906666669
 30
0
 11
0.9327847299999986
 21
8.884999906666669
 31
0
  0
LINE
  8
0
 62
7
 10
0.9327847299999986
 20
8.949999906666667
 30
0
 11
1.929790419999999
 21
8.949999906666667
 31
0
  0
LINE
  8
0
 62
7
 10
1.929790419999999
 20
8.949999906666667
 30
0
 11
1.929790419999999
 21
8.884999906666669
 31
0
  0
LINE
  8
0
 62
7
 10
0.9327847299999986
 20
8.884999906666669
 30
0
 11
0.9327847299999986
 21
8.949999906666667
 31
0
  0
LINE
  8
0
 62
7
 10
0.7949999999999992
 20
9.133333226666664
 30
0
 11
1.855000109999998
 21
9.133333226666664
 31
0
  0
LINE
  8
0
 62
7
 10
1.855000109999998
 20
9.068333226666665
 30
0
 11
0.7949999999999992
 21
9.068333226666665
 31
0
  0
LINE
  8
0
 62
7
 10
1.855000109999998
 20
9.133333226666664
 30
0
 11
1.855000109999998
 21
9.068333226666665
 31
0
  0
LINE
  8
0
 62
7
 10
0.7949999999999992
 20
9.068333226666665
 30
0
 11
0.7949999999999992
 21
9.133333226666664
 31
0
  0
LINE
  8
0
 62
7
 10
0.7949998499999993
 20
9.316666586666667
 30
0
 11
1.855000109999998
 21
9.316666586666667
 31
0
  0
LINE
  8
0
 62
7
 10
1.855000109999998
 20
9.316666586666667
 30
0
 11
1.855000109999998
 21
9.251666586666667
 31
0
  0
LINE
  8
0
 62
7
 10
0.7949998499999993
 20
9.251666586666667
 30
0
 11
0.7949998499999993
 21
9.316666586666667
 31
0
  0
LINE
  8
0
 62
7
 10
1.855000109999998
 20
9.251666586666667
 30
0
 11
0.7949998499999993
 21
9.251666586666667
 31
0
  0
LINE
  8
0
 62
7
 10
0.7949998499999993
 20
9.499999946666668
 30
0
 11
1.855000079999999
 21
9.499999946666668
 31
0
  0
LINE
  8
0
 62
7
 10
1.855000079999999
 20
9.499999946666668
 30
0
 11
1.855000079999999
 21
9.434999946666668
 31
0
  0
LINE
  8
0
 62
7
 10
0.7949998499999993
 20
9.434999946666668
 30
0
 11
0.7949998499999993
 21
9.499999946666668
 31
0
  0
LINE
  8
0
 62
7
 10
1.855000079999999
 20
9.434999946666668
 30
0
 11
0.7949998499999993
 21
9.434999946666668
 31
0
  0
LINE
  8
0
 62
7
 10
0.7949998499999993
 20
9.683333226666665
 30
0
 11
1.855000229999998
 21
9.683333226666665
 31
0
  0
LINE
  8
0
 62
7
 10
1.855000229999998
 20
9.683333226666665
 30
0
 11
1.855000229999998
 21
9.618333226666666
 31
0
  0
LINE
  8
0
 62
7
 10
0.7949998499999993
 20
9.618333226666666
 30
0
 11
0.7949998499999993
 21
9.683333226666665
 31
0
  0
LINE
  8
0
 62
7
 10
1.855000229999998
 20
9.618333226666666
 30
0
 11
0.7949998499999993
 21
9.618333226666666
 31
0
  0
LINE
  8
0
 62
7
 10
0.7949999999999992
 20
9.866666666666667
 30
0
 11
1.855000299999998
 21
9.866666666666667
 31
0
  0
LINE
  8
0
 62
7
 10
1.855000299999998
 20
9.866666666666667
 30
0
 11
1.855000299999998
 21
9.801666666666668
 31
0
  0
LINE
  8
0
 62
7
 10
0.7949999999999992
 20
9.801666666666668
 30
0
 11
0.7949999999999992
 21
9.866666666666667
 31
0
  0
LINE
  8
0
 62
7
 10
1.855000299999998
 20
9.801666666666668
 30
0
 11
0.7949999999999992
 21
9.801666666666668
 31
0
  0
LINE
  8
0
 62
7
 10
0.7949999999999992
 20
10.04999994666667
 30
0
 11
1.855000229999998
 21
10.04999994666667
 31
0
  0
LINE
  8
0
 62
7
 10
1.855000229999998
 20
10.04999994666667
 30
0
 11
1.855000229999998
 21
9.984999946666669
 31
0
  0
LINE
  8
0
 62
7
 10
0.7949999999999992
 20
9.984999946666669
 30
0
 11
0.7949999999999992
 21
10.04999994666667
 31
0
  0
LINE
  8
0
 62
7
 10
1.855000229999998
 20
9.984999946666669
 30
0
 11
0.7949999999999992
 21
9.984999946666669
 31
0
  0
LINE
  8
0
 62
7
 10
0.7949999999999992
 20
10.23333322666666
 30
0
 11
1.855000689999998
 21
10.23333322666666
 31
0
  0
LINE
  8
0
 62
7
 10
1.855000689999998
 20
10.23333322666666
 30
0
 11
1.855000689999998
 21
10.16833322666667
 31
0
  0
LINE
  8
0
 62
7
 10
0.7949999999999992
 20
10.16833322666667
 30
0
 11
0.7949999999999992
 21
10.23333322666666
 31
0
  0
LINE
  8
0
 62
7
 10
1.855000689999998
 20
10.16833322666667
 30
0
 11
0.7949999999999992
 21
10.16833322666667
 31
0
  0
LINE
  8
0
 62
7
 10
0.7949998499999993
 20
10.41666666666667
 30
0
 11
1.855000189999998
 21
10.41666666666667
 31
0
  0
LINE
  8
0
 62
7
 10
1.855000189999998
 20
10.35166666666667
 30
0
 11
0.7949998499999993
 21
10.35166666666667
 31
0
  0
LINE
  8
0
 62
7
 10
1.855000189999998
 20
10.41666666666667
 30
0
 11
1.855000189999998
 21
10.35166666666667
 31
0
  0
LINE
  8
0
 62
7
 10
0.7949998499999993
 20
10.35166666666667
 30
0
 11
0.7949998499999993
 21
10.41666666666667
 31
0
  0
LINE
  8
0
 62
7
 10
1.947268289999998
 20
10.53499994666667
 30
0
 11
0.7949998499999993
 21
10.53499994666667
 31
0
  0
LINE
  8
0
 62
7
 10
0.7949998499999993
 20
10.59999994666667
 30
0
 11
1.947268289999998
 21
10.59999994666667
 31
0
  0
LINE
  8
0
 62
7
 10
1.947268289999998
 20
10.59999994666667
 30
0
 11
1.947268289999998
 21
10.53499994666667
 31
0
  0
LINE
  8
0
 62
7
 10
0.7949998499999993
 20
10.53499994666667
 30
0
 11
0.7949998499999993
 21
10.59999994666667
 31
0
  0
LINE
  8
0
 62
7
 10
2.067072909999998
 20
10.71833322666666
 30
0
 11
1.293303759999999
 21
10.71833322666666
 31
0
  0
LINE
  8
0
 62
7
 10
1.293303759999999
 20
10.78333322666666
 30
0
 11
2.067072909999998
 21
10.78333322666666
 31
0
  0
LINE
  8
0
 62
7
 10
2.067072909999998
 20
10.78333322666666
 30
0
 11
2.067072909999998
 21
10.71833322666666
 31
0
  0
LINE
  8
0
 62
7
 10
1.293303759999999
 20
10.71833322666666
 30
0
 11
1.293303759999999
 21
10.78333322666666
 31
0
  0
LINE
  8
0
 62
7
 10
1.717334439999998
 20
10.96666666666667
 30
0
 11
2.11000048
 21
10.96666666666667
 31
0
  0
LINE
  8
0
 62
7
 10
2.11000048
 20
10.90166666666667
 30
0
 11
1.717334439999998
 21
10.90166666666667
 31
0
  0
LINE
  8
0
 62
7
 10
2.11000048
 20
10.96666666666667
 30
0
 11
2.11000048
 21
10.90166666666667
 31
0
  0
LINE
  8
0
 62
7
 10
1.717334439999998
 20
10.90166666666667
 30
0
 11
1.717334439999998
 21
10.96666666666667
 31
0
  0
LINE
  8
0
 62
7
 10
7.600000000000001
 20
8.099999999999998
 30
0
 11
7.75
 21
8.099999999999998
 31
0
  0
LINE
  8
0
 62
7
 10
7.600000000000001
 20
8.299999999999997
 30
0
 11
7.75
 21
8.299999999999997
 31
0
  0
LINE
  8
0
 62
7
 10
7.600000000000001
 20
10.85
 30
0
 11
7.75
 21
10.85
 31
0
  0
LINE
  8
0
 62
7
 10
7.600000000000001
 20
11.05
 30
0
 11
7.75
 21
11.05
 31
0
  0
LINE
  8
0
 62
7
 10
7.600000000000001
 20
8.099999999999998
 30
0
 11
7.600000000000001
 21
7.949999999999998
 31
0
  0
LINE
  8
0
 62
7
 10
7.425000000000001
 20
8.099999999999998
 30
0
 11
7.600000000000001
 21
8.099999999999998
 31
0
  0
LINE
  8
0
 62
7
 10
7.600000000000001
 20
8.399999999999997
 30
0
 11
7.600000000000001
 21
8.299999999999997
 31
0
  0
LINE
  8
0
 62
7
 10
7.425000000000001
 20
8.299999999999997
 30
0
 11
7.600000000000001
 21
8.299999999999997
 31
0
  0
LINE
  8
0
 62
7
 10
7.425000000000001
 20
10.85
 30
0
 11
7.600000000000001
 21
10.85
 31
0
  0
LINE
  8
0
 62
7
 10
7.600000000000001
 20
11.15
 30
0
 11
7.600000000000001
 21
11.05
 31
0
  0
LINE
  8
0
 62
7
 10
7.425000000000001
 20
11.05
 30
0
 11
7.600000000000001
 21
11.05
 31
0
  0
LINE
  8
0
 62
7
 10
7.425000000000001
 20
8.099999999999998
 30
0
 11
7.425000000000001
 21
7.949999999999998
 31
0
  0
LINE
  8
0
 62
7
 10
4.039999999999999
 20
8.099999999999998
 30
0
 11
7.425000000000001
 21
8.099999999999998
 31
0
  0
LINE
  8
0
 62
7
 10
7.425000000000001
 20
8.399999999999997
 30
0
 11
7.425000000000001
 21
8.299999999999997
 31
0
  0
LINE
  8
0
 62
7
 10
4.039999999999999
 20
8.299999999999997
 30
0
 11
7.425000000000001
 21
8.299999999999997
 31
0
  0
LINE
  8
0
 62
7
 10
4.039999999999999
 20
10.85
 30
0
 11
7.425000000000001
 21
10.85
 31
0
  0
LINE
  8
0
 62
7
 10
7.425000000000001
 20
11.15
 30
0
 11
7.425000000000001
 21
11.05
 31
0
  0
LINE
  8
0
 62
7
 10
4.039999999999999
 20
11.05
 30
0
 11
7.425000000000001
 21
11.05
 31
0
  0
LINE
  8
0
 62
7
 10
4.039999999999999
 20
8.099999999999998
 30
0
 11
4.039999999999999
 21
7.949999999999998
 31
0
  0
LINE
  8
0
 62
7
 10
3.864999999999998
 20
8.099999999999998
 30
0
 11
4.039999999999999
 21
8.099999999999998
 31
0
  0
LINE
  8
0
 62
7
 10
4.039999999999999
 20
8.399999999999997
 30
0
 11
4.039999999999999
 21
8.299999999999997
 31
0
  0
LINE
  8
0
 62
7
 10
3.864999999999998
 20
8.299999999999997
 30
0
 11
4.039999999999999
 21
8.299999999999997
 31
0
  0
LINE
  8
0
 62
7
 10
3.864999999999998
 20
10.85
 30
0
 11
4.039999999999999
 21
10.85
 31
0
  0
LINE
  8
0
 62
7
 10
4.039999999999999
 20
11.15
 30
0
 11
4.039999999999999
 21
11.05
 31
0
  0
LINE
  8
0
 62
7
 10
3.864999999999998
 20
11.05
 30
0
 11
4.039999999999999
 21
11.05
 31
0
  0
LINE
  8
0
 62
7
 10
3.864999999999998
 20
8.099999999999998
 30
0
 11
3.864999999999998
 21
7.949999999999998
 31
0
  0
LINE
  8
0
 62
7
 10
3.714999999999998
 20
8.099999999999998
 30
0
 11
3.864999999999998
 21
8.099999999999998
 31
0
  0
LINE
  8
0
 62
7
 10
3.864999999999998
 20
8.399999999999997
 30
0
 11
3.864999999999998
 21
8.299999999999997
 31
0
  0
LINE
  8
0
 62
7
 10
3.714999999999998
 20
8.299999999999997
 30
0
 11
3.864999999999998
 21
8.299999999999997
 31
0
  0
LINE
  8
0
 62
7
 10
3.714999999999998
 20
10.85
 30
0
 11
3.864999999999998
 21
10.85
 31
0
  0
LINE
  8
0
 62
7
 10
3.864999999999998
 20
11.15
 30
0
 11
3.864999999999998
 21
11.05
 31
0
  0
LINE
  8
0
 62
7
 10
3.714999999999998
 20
11.05
 30
0
 11
3.864999999999998
 21
11.05
 31
0
  0
LINE
  8
0
 62
7
  6
DASHDOT
 10
7.75
 20
8.099999999999998
 30
0
 11
7.75
 21
8.049999999999997
 31
0
  0
LINE
  8
0
 62
7
  6
DASHDOT
 10
7.75
 20
10.85
 30
0
 11
7.75
 21
10.8
 31
0
  0
LINE
  8
0
 62
7
  6
DASHDOT
 10
3.714999999999998
 20
8.099999999999998
 30
0
 11
3.714999999999998
 21
8.049999999999997
 31
0
  0
LINE
  8
0
 62
7
  6
DASHDOT
 10
3.714999999999998
 20
10.85
 30
0
 11
3.714999999999998
 21
10.8
 31
0
  0
LINE
  8
0
 62
7
  6
DASHDOT
 10
7.600000000000001
 20
11.2
 30
0
 11
7.65
 21
11.2
 31
0
  0
LINE
  8
0
 62
7
  6
DASHDOT
 10
7.600000000000001
 20
7.949999999999998
 30
0
 11
7.65
 21
7.949999999999998
 31
0
  0
LINE
  8
0
 62
7
  6
DASHDOT
 10
4.039999999999999
 20
11.2
 30
0
 11
4.089999999999999
 21
11.2
 31
0
  0
LINE
  8
0
 62
7
  6
DASHDOT
 10
4.039999999999999
 20
7.949999999999998
 30
0
 11
4.089999999999999
 21
7.949999999999998
 31
0
  0
LINE
  8
0
 62
7
 10
7.600000000000001
 20
8.399999999999997
 30
0
 11
7.75
 21
8.399999999999997
 31
0
  0
LINE
  8
0
 62
7
 10
7.600000000000001
 20
10.85
 30
0
 11
7.600000000000001
 21
8.399999999999997
 31
0
  0
LINE
  8
0
 62
7
  6
DASHDOT
 10
7.75
 20
8.449999999999998
 30
0
 11
7.75
 21
8.399999999999997
 31
0
  0
LINE
  8
0
 62
7
 10
4.039999999999999
 20
8.399999999999997
 30
0
 11
7.425000000000001
 21
8.399999999999997
 31
0
  0
LINE
  8
0
 62
7
 10
7.425000000000001
 20
10.85
 30
0
 11
7.425000000000001
 21
8.399999999999997
 31
0
  0
LINE
  8
0
 62
7
 10
4.039999999999999
 20
10.85
 30
0
 11
4.039999999999999
 21
8.399999999999997
 31
0
  0
LINE
  8
0
 62
7
 10
3.714999999999998
 20
8.399999999999997
 30
0
 11
3.864999999999998
 21
8.399999999999997
 31
0
  0
LINE
  8
0
 62
7
 10
3.864999999999998
 20
10.85
 30
0
 11
3.864999999999998
 21
8.399999999999997
 31
0
  0
LINE
  8
0
 62
7
  6
DASHDOT
 10
3.714999999999998
 20
8.449999999999998
 30
0
 11
3.714999999999998
 21
8.399999999999997
 31
0
  0
LINE
  8
0
 62
7
 10
7.600000000000001
 20
11.15
 30
0
 11
7.75
 21
11.15
 31
0
  0
LINE
  8
0
 62
7
 10
7.600000000000001
 20
11.2
 30
0
 11
7.600000000000001
 21
11.15
 31
0
  0
LINE
  8
0
 62
7
  6
DASHDOT
 10
7.75
 20
11.2
 30
0
 11
7.75
 21
11.15
 31
0
  0
LINE
  8
0
 62
7
 10
4.039999999999999
 20
11.15
 30
0
 11
7.425000000000001
 21
11.15
 31
0
  0
LINE
  8
0
 62
7
 10
7.425000000000001
 20
11.2
 30
0
 11
7.425000000000001
 21
11.15
 31
0
  0
LINE
  8
0
 62
7
 10
4.039999999999999
 20
11.2
 30
0
 11
4.039999999999999
 21
11.15
 31
0
  0
LINE
  8
0
 62
7
 10
3.714999999999998
 20
11.15
 30
0
 11
3.864999999999998
 21
11.15
 31
0
  0
LINE
  8
0
 62
7
 10
3.864999999999998
 20
11.2
 30
0
 11
3.864999999999998
 21
11.15
 31
0
  0
LINE
  8
0
 62
7
  6
DASHDOT
 10
3.714999999999998
 20
11.2
 30
0
 11
3.714999999999998
 21
11.15
 31
0
  0
LINE
  8
0
 62
7
  6
DASHDOT
 10
3.714999999999998
 20
8.299999999999997
 30
0
 11
3.714999999999998
 21
8.099999999999998
 31
0
  0
LINE
  8
0
 62
7
  6
DASHDOT
 10
3.714999999999998
 20
8.399999999999997
 30
0
 11
3.714999999999998
 21
8.299999999999997
 31
0
  0
LINE
  8
0
 62
7
  6
DASHDOT
 10
3.864999999999998
 20
7.949999999999998
 30
0
 11
4.039999999999999
 21
7.949999999999998
 31
0
  0
LINE
  8
0
 62
7
  6
DASHDOT
 10
3.814999999999998
 20
7.949999999999998
 30
0
 11
3.864999999999998
 21
7.949999999999998
 31
0
  0
LINE
  8
0
 62
7
  6
DASHDOT
 10
7.75
 20
8.299999999999997
 30
0
 11
7.75
 21
8.099999999999998
 31
0
  0
LINE
  8
0
 62
7
  6
DASHDOT
 10
7.75
 20
8.399999999999997
 30
0
 11
7.75
 21
8.299999999999997
 31
0
  0
LINE
  8
0
 62
7
  6
DASHDOT
 10
7.425000000000001
 20
7.949999999999998
 30
0
 11
7.600000000000001
 21
7.949999999999998
 31
0
  0
LINE
  8
0
 62
7
  6
DASHDOT
 10
7.375
 20
7.949999999999998
 30
0
 11
7.425000000000001
 21
7.949999999999998
 31
0
  0
LINE
  8
0
 62
7
  6
DASHDOT
 10
7.75
 20
11.05
 30
0
 11
7.75
 21
10.85
 31
0
  0
LINE
  8
0
 62
7
  6
DASHDOT
 10
7.75
 20
11.15
 30
0
 11
7.75
 21
11.05
 31
0
  0
LINE
  8
0
 62
7
  6
DASHDOT
 10
7.425000000000001
 20
11.2
 30
0
 11
7.600000000000001
 21
11.2
 31
0
  0
LINE
  8
0
 62
7
  6
DASHDOT
 10
7.375
 20
11.2
 30
0
 11
7.425000000000001
 21
11.2
 31
0
  0
LINE
  8
0
 62
7
  6
DASHDOT
 10
3.714999999999998
 20
11.05
 30
0
 11
3.714999999999998
 21
10.85
 31
0
  0
LINE
  8
0
 62
7
  6
DASHDOT
 10
3.714999999999998
 20
11.15
 30
0
 11
3.714999999999998
 21
11.05
 31
0
  0
LINE
  8
0
 62
7
  6
DASHDOT
 10
3.864999999999998
 20
11.2
 30
0
 11
4.039999999999999
 21
11.2
 31
0
  0
LINE
  8
0
 62
7
  6
DASHDOT
 10
3.814999999999998
 20
11.2
 30
0
 11
3.864999999999998
 21
11.2
 31
0
  0
LINE
  8
0
 62
7
 10
0.5
 20
7.949999999999998
 30
0
 11
0.5
 21
8.099999999999998
 31
0
  0
LINE
  8
0
 62
7
 10
0.7400000000000001
 20
11.2
 30
0
 11
0.7400000000000001
 21
11.05
 31
0
  0
LINE
  8
0
 62
7
 10
0.5
 20
11.05
 30
0
 11
0.7400000000000001
 21
11.05
 31
0
  0
LINE
  8
0
 62
7
 10
0.5
 20
11.05
 30
0
 11
0.5
 21
11.2
 31
0
  0
LINE
  8
0
 62
7
 10
0.7400000000000001
 20
11.05
 30
0
 11
0.7400000000000001
 21
10.85
 31
0
  0
LINE
  8
0
 62
7
 10
0.5
 20
10.85
 30
0
 11
0.7400000000000001
 21
10.85
 31
0
  0
LINE
  8
0
 62
7
 10
0.5
 20
10.85
 30
0
 11
0.5
 21
11.05
 31
0
  0
LINE
  8
0
 62
7
 10
0.7400000000000001
 20
10.85
 30
0
 11
0.7400000000000001
 21
8.299999999999997
 31
0
  0
LINE
  8
0
 62
7
 10
0.5
 20
8.299999999999997
 30
0
 11
0.7400000000000001
 21
8.299999999999997
 31
0
  0
LINE
  8
0
 62
7
 10
0.5
 20
8.299999999999997
 30
0
 11
0.5
 21
10.85
 31
0
  0
LINE
  8
0
 62
7
 10
0.7400000000000001
 20
8.299999999999997
 30
0
 11
0.7400000000000001
 21
8.099999999999998
 31
0
  0
LINE
  8
0
 62
7
 10
0.5
 20
8.099999999999998
 30
0
 11
0.7400000000000001
 21
8.099999999999998
 31
0
  0
LINE
  8
0
 62
7
 10
0.5
 20
8.099999999999998
 30
0
 11
0.5
 21
8.299999999999997
 31
0
  0
LINE
  8
0
 62
7
 10
0.7400000000000001
 20
8.099999999999998
 30
0
 11
0.7400000000000001
 21
7.949999999999998
 31
0
  0
LINE
  8
0
 62
7
 10
2.14
 20
11.05
 30
0
 11
2.14
 21
10.85
 31
0
  0
LINE
  8
0
 62
7
 10
2.14
 20
10.85
 30
0
 11
2.439999999999995
 21
10.85
 31
0
  0
LINE
  8
0
 62
7
 10
2.14
 20
11.05
 30
0
 11
2.439999999999995
 21
11.05
 31
0
  0
LINE
  8
0
 62
7
 10
2.14
 20
8.299999999999997
 30
0
 11
2.439999999999995
 21
8.299999999999997
 31
0
  0
LINE
  8
0
 62
7
 10
2.14
 20
8.299999999999997
 30
0
 11
2.14
 21
8.099999999999998
 31
0
  0
LINE
  8
0
 62
7
 10
2.14
 20
8.099999999999998
 30
0
 11
2.439999999999995
 21
8.099999999999998
 31
0
  0
LINE
  8
0
 62
7
  6
DASHDOT
 10
0.45
 20
11.2
 30
0
 11
0.5
 21
11.2
 31
0
  0
LINE
  8
0
 62
7
  6
DASHDOT
 10
2.439999999999995
 20
11.2
 30
0
 11
2.439999999999995
 21
11.15
 31
0
  0
LINE
  8
0
 62
7
  6
DASHDOT
 10
2.439999999999995
 20
8.049999999999997
 30
0
 11
2.439999999999995
 21
8.099999999999998
 31
0
  0
LINE
  8
0
 62
7
  6
DASHDOT
 10
0.45
 20
7.949999999999998
 30
0
 11
0.5
 21
7.949999999999998
 31
0
  0
LINE
  8
0
 62
7
 10
2.14
 20
8.399999999999997
 30
0
 11
2.439999999999995
 21
8.399999999999997
 31
0
  0
LINE
  8
0
 62
7
  6
DASHDOT
 10
2.439999999999995
 20
8.399999999999997
 30
0
 11
2.439999999999995
 21
8.449999999999998
 31
0
  0
LINE
  8
0
 62
7
 10
2.14
 20
11.15
 30
0
 11
2.439999999999995
 21
11.15
 31
0
  0
LINE
  8
0
 62
7
  6
DASHDOT
 10
2.439999999999995
 20
11.15
 30
0
 11
2.439999999999995
 21
11.05
 31
0
  0
LINE
  8
0
 62
7
  6
DASHDOT
 10
2.439999999999995
 20
8.299999999999997
 30
0
 11
2.439999999999995
 21
8.399999999999997
 31
0
  0
LINE
  8
0
 62
7
  6
DASHDOT
 10
2.439999999999995
 20
8.099999999999998
 30
0
 11
2.439999999999995
 21
8.299999999999997
 31
0
  0
LINE
  8
0
 62
7
  6
DASHDOT
 10
0.5
 20
7.949999999999998
 30
0
 11
0.7400000000000001
 21
7.949999999999998
 31
0
  0
LINE
  8
0
 62
7
  6
DASHDOT
 10
0.7400000000000001
 20
7.949999999999998
 30
0
 11
0.79
 21
7.949999999999998
 31
0
  0
LINE
  8
0
 62
7
  6
DASHDOT
 10
0.7400000000000001
 20
11.2
 30
0
 11
0.79
 21
11.2
 31
0
  0
LINE
  8
0
 62
7
  6
DASHDOT
 10
0.5
 20
11.2
 30
0
 11
0.7400000000000001
 21
11.2
 31
0
  0
LINE
  8
0
 62
7
  6
DASHDOT
 10
2.439999999999995
 20
10.85
 30
0
 11
2.439999999999995
 21
10.8
 31
0
  0
LINE
  8
0
 62
7
  6
DASHDOT
 10
2.439999999999995
 20
11.05
 30
0
 11
2.439999999999995
 21
10.85
 31
0
  0
LINE
  8
0
 62
7
  6
DASHED
 10
0.7400000000000001
 20
11.05
 30
0
 11
2.14
 21
11.05
 31
0
  0
LINE
  8
0
 62
7
  6
DASHED
 10
0.7400000000000001
 20
10.85
 30
0
 11
2.14
 21
10.85
 31
0
  0
LINE
  8
0
 62
7
  6
DASHED
 10
0.7400000000000001
 20
8.299999999999997
 30
0
 11
2.14
 21
8.299999999999997
 31
0
  0
LINE
  8
0
 62
7
  6
DASHED
 10
0.7400000000000001
 20
8.099999999999998
 30
0
 11
2.14
 21
8.099999999999998
 31
0
  0
LINE
  8
0
 62
7
 10
3.714999999999998
 20
5.269999999999997
 30
0
 11
3.864999999999998
 21
5.269999999999997
 31
0
  0
LINE
  8
0
 62
7
 10
3.864999999999998
 20
5.269999999999997
 30
0
 11
3.864999999999998
 21
5.419999999999997
 31
0
  0
LINE
  8
0
 62
7
 10
4.039999999999999
 20
5.419999999999997
 30
0
 11
4.039999999999999
 21
5.269999999999997
 31
0
  0
LINE
  8
0
 62
7
 10
4.039999999999999
 20
5.269999999999997
 30
0
 11
7.425000000000001
 21
5.269999999999997
 31
0
  0
LINE
  8
0
 62
7
 10
7.425000000000001
 20
5.269999999999997
 30
0
 11
7.425000000000001
 21
5.419999999999997
 31
0
  0
LINE
  8
0
 62
7
 10
7.600000000000001
 20
5.419999999999997
 30
0
 11
7.600000000000001
 21
5.269999999999997
 31
0
  0
LINE
  8
0
 62
7
 10
7.600000000000001
 20
5.269999999999997
 30
0
 11
7.765000000000001
 21
5.269999999999997
 31
0
  0
LINE
  8
0
 62
7
 10
3.714999999999998
 20
5.029999999999999
 30
0
 11
7.765000000000001
 21
5.029999999999999
 31
0
  0
LINE
  8
0
 62
7
 10
3.714999999999998
 20
4.989999999999999
 30
0
 11
7.765000000000001
 21
4.989999999999999
 31
0
  0
LINE
  8
0
 62
7
 10
3.714999999999998
 20
4.749999999999999
 30
0
 11
3.864999999999998
 21
4.749999999999999
 31
0
  0
LINE
  8
0
 62
7
 10
4.039999999999999
 20
3.25
 30
0
 11
4.039999999999999
 21
3.35
 31
0
  0
LINE
  8
0
 62
7
 10
3.864999999999998
 20
3.25
 30
0
 11
4.039999999999999
 21
3.25
 31
0
  0
LINE
  8
0
 62
7
 10
3.864999999999998
 20
4.749999999999999
 30
0
 11
3.864999999999998
 21
3.25
 31
0
  0
LINE
  8
0
 62
7
 10
4.039999999999999
 20
4.749999999999999
 30
0
 11
7.425000000000001
 21
4.749999999999999
 31
0
  0
LINE
  8
0
 62
7
 10
7.425000000000001
 20
4.749999999999999
 30
0
 11
7.425000000000001
 21
3.4
 31
0
  0
LINE
  8
0
 62
7
 10
7.600000000000001
 20
3.35
 30
0
 11
7.600000000000001
 21
4.749999999999999
 31
0
  0
LINE
  8
0
 62
7
 10
7.600000000000001
 20
4.749999999999999
 30
0
 11
7.765000000000001
 21
4.749999999999999
 31
0
  0
LINE
  8
0
 62
7
 10
7.425000000000001
 20
3.35
 30
0
 11
7.600000000000001
 21
3.35
 31
0
  0
LINE
  8
0
 62
7
 10
7.425000000000001
 20
3.4
 30
0
 11
4.039999999999999
 21
3.4
 31
0
  0
LINE
  8
0
 62
7
 10
4.039999999999999
 20
3.4
 30
0
 11
4.039999999999999
 21
4.749999999999999
 31
0
  0
LINE
  8
0
 62
7
 10
7.425000000000001
 20
3.4
 30
0
 11
7.425000000000001
 21
3.35
 31
0
  0
LINE
  8
0
 62
7
  6
DASHDOT
 10
7.425000000000001
 20
3.35
 30
0
 11
4.039999999999999
 21
3.35
 31
0
  0
LINE
  8
0
 62
7
 10
4.039999999999999
 20
3.35
 30
0
 11
4.039999999999999
 21
3.4
 31
0
  0
LINE
  8
0
 62
7
  6
DASHDOT
 10
3.814999999999998
 20
5.419999999999997
 30
0
 11
3.864999999999998
 21
5.419999999999997
 31
0
  0
LINE
  8
0
 62
7
  6
DASHDOT
 10
7.375
 20
5.419999999999997
 30
0
 11
7.425000000000001
 21
5.419999999999997
 31
0
  0
LINE
  8
0
 62
7
  6
DASHDOT
 10
3.714999999999998
 20
5.319999999999997
 30
0
 11
3.714999999999998
 21
5.269999999999997
 31
0
  0
LINE
  8
0
 62
7
  6
DASHDOT
 10
7.765000000000001
 20
5.319999999999997
 30
0
 11
7.765000000000001
 21
5.269999999999997
 31
0
  0
LINE
  8
0
 62
7
  6
DASHDOT
 10
7.765000000000001
 20
5.269999999999997
 30
0
 11
7.765000000000001
 21
5.029999999999999
 31
0
  0
LINE
  8
0
 62
7
  6
DASHDOT
 10
7.765000000000001
 20
4.749999999999999
 30
0
 11
7.765000000000001
 21
4.699999999999999
 31
0
  0
LINE
  8
0
 62
7
  6
DASHDOT
 10
3.864999999999998
 20
5.419999999999997
 30
0
 11
4.039999999999999
 21
5.419999999999997
 31
0
  0
LINE
  8
0
 62
7
  6
DASHDOT
 10
4.039999999999999
 20
5.419999999999997
 30
0
 11
4.089999999999999
 21
5.419999999999997
 31
0
  0
LINE
  8
0
 62
7
  6
DASHDOT
 10
3.714999999999998
 20
5.269999999999997
 30
0
 11
3.714999999999998
 21
5.029999999999999
 31
0
  0
LINE
  8
0
 62
7
  6
DASHDOT
 10
3.714999999999998
 20
4.749999999999999
 30
0
 11
3.714999999999998
 21
4.699999999999999
 31
0
  0
LINE
  8
0
 62
7
  6
DASHDOT
 10
7.765000000000001
 20
5.029999999999999
 30
0
 11
7.765000000000001
 21
4.989999999999999
 31
0
  0
LINE
  8
0
 62
7
  6
DASHDOT
 10
3.714999999999998
 20
5.029999999999999
 30
0
 11
3.714999999999998
 21
4.989999999999999
 31
0
  0
LINE
  8
0
 62
7
  6
DASHDOT
 10
7.765000000000001
 20
4.989999999999999
 30
0
 11
7.765000000000001
 21
4.749999999999999
 31
0
  0
LINE
  8
0
 62
7
  6
DASHDOT
 10
3.714999999999998
 20
4.989999999999999
 30
0
 11
3.714999999999998
 21
4.749999999999999
 31
0
  0
LINE
  8
0
 62
7
  6
DASHDOT
 10
7.600000000000001
 20
5.419999999999997
 30
0
 11
7.65
 21
5.419999999999997
 31
0
  0
LINE
  8
0
 62
7
  6
DASHDOT
 10
7.425000000000001
 20
5.419999999999997
 30
0
 11
7.600000000000001
 21
5.419999999999997
 31
0
  0
LINE
  8
0
 62
7
 10
4.93162290992449
 20
4.414604962243802
 30
0
 11
4.93162290992449
 21
4.534604962243802
 31
0
  0
LINE
  8
0
 62
7
 10
5.007222909924491
 20
4.534604962243802
 30
0
 11
4.953222909924492
 21
4.474604962243801
 31
0
  0
LINE
  8
0
 62
7
 10
4.953222909924492
 20
4.474604962243801
 30
0
 11
5.007222909924491
 21
4.414604962243802
 31
0
  0
LINE
  8
0
 62
7
 10
4.953222909924492
 20
4.474604962243801
 30
0
 11
4.93162290992449
 21
4.4506049622438
 31
0
  0
LINE
  8
0
 62
7
 10
5.115222909924491
 20
4.534604962243802
 30
0
 11
5.039622909924491
 21
4.534604962243802
 31
0
  0
LINE
  8
0
 62
7
 10
5.039622909924491
 20
4.534604962243802
 30
0
 11
5.039622909924491
 21
4.474604962243801
 31
0
  0
LINE
  8
0
 62
7
 10
5.039622909924491
 20
4.414604962243802
 30
0
 11
5.115222909924491
 21
4.414604962243802
 31
0
  0
LINE
  8
0
 62
7
 10
5.10442290992449
 20
4.474604962243801
 30
0
 11
5.039622909924491
 21
4.474604962243801
 31
0
  0
LINE
  8
0
 62
7
 10
5.039622909924491
 20
4.474604962243801
 30
0
 11
5.039622909924491
 21
4.414604962243802
 31
0
  0
LINE
  8
0
 62
7
 10
5.147622909924491
 20
4.414604962243802
 30
0
 11
5.147622909924491
 21
4.534604962243802
 31
0
  0
LINE
  8
0
 62
7
 10
5.147622909924491
 20
4.534604962243802
 30
0
 11
5.223222909924491
 21
4.414604962243802
 31
0
  0
LINE
  8
0
 62
7
 10
5.223222909924491
 20
4.414604962243802
 30
0
 11
5.223222909924491
 21
4.534604962243802
 31
0
  0
LINE
  8
0
 62
7
 10
5.25562290992449
 20
4.414604962243802
 30
0
 11
5.25562290992449
 21
4.534604962243802
 31
0
  0
LINE
  8
0
 62
7
 10
5.25562290992449
 20
4.534604962243802
 30
0
 11
5.331222909924492
 21
4.414604962243802
 31
0
  0
LINE
  8
0
 62
7
 10
5.331222909924492
 20
4.414604962243802
 30
0
 11
5.331222909924492
 21
4.534604962243802
 31
0
  0
LINE
  8
0
 62
7
 10
5.439222909924492
 20
4.4986049622438
 30
0
 11
5.43652290992449
 21
4.510604962243801
 31
0
  0
LINE
  8
0
 62
7
 10
5.43652290992449
 20
4.510604962243801
 30
0
 11
5.431122909924491
 21
4.519604962243801
 31
0
  0
LINE
  8
0
 62
7
 10
5.431122909924491
 20
4.519604962243801
 30
0
 11
5.425722909924492
 21
4.525604962243801
 31
0
  0
LINE
  8
0
 62
7
 10
5.425722909924492
 20
4.525604962243801
 30
0
 11
5.41762290992449
 21
4.5316049622438
 31
0
  0
LINE
  8
0
 62
7
 10
5.41762290992449
 20
4.5316049622438
 30
0
 11
5.40952290992449
 21
4.534604962243802
 31
0
  0
LINE
  8
0
 62
7
 10
5.40952290992449
 20
4.534604962243802
 30
0
 11
5.39332290992449
 21
4.534604962243802
 31
0
  0
LINE
  8
0
 62
7
 10
5.39332290992449
 20
4.534604962243802
 30
0
 11
5.385222909924491
 21
4.5316049622438
 31
0
  0
LINE
  8
0
 62
7
 10
5.385222909924491
 20
4.5316049622438
 30
0
 11
5.377122909924491
 21
4.525604962243801
 31
0
  0
LINE
  8
0
 62
7
 10
5.377122909924491
 20
4.525604962243801
 30
0
 11
5.371722909924492
 21
4.519604962243801
 31
0
  0
LINE
  8
0
 62
7
 10
5.371722909924492
 20
4.519604962243801
 30
0
 11
5.366322909924492
 21
4.510604962243801
 31
0
  0
LINE
  8
0
 62
7
 10
5.366322909924492
 20
4.510604962243801
 30
0
 11
5.363622909924491
 21
4.4986049622438
 31
0
  0
LINE
  8
0
 62
7
 10
5.363622909924491
 20
4.4986049622438
 30
0
 11
5.363622909924491
 21
4.4506049622438
 31
0
  0
LINE
  8
0
 62
7
 10
5.363622909924491
 20
4.4506049622438
 30
0
 11
5.366322909924492
 21
4.4386049622438
 31
0
  0
LINE
  8
0
 62
7
 10
5.366322909924492
 20
4.4386049622438
 30
0
 11
5.371722909924492
 21
4.429604962243801
 31
0
  0
LINE
  8
0
 62
7
 10
5.371722909924492
 20
4.429604962243801
 30
0
 11
5.377122909924491
 21
4.4236049622438
 31
0
  0
LINE
  8
0
 62
7
 10
5.377122909924491
 20
4.4236049622438
 30
0
 11
5.385222909924491
 21
4.417604962243802
 31
0
  0
LINE
  8
0
 62
7
 10
5.385222909924491
 20
4.417604962243802
 30
0
 11
5.39332290992449
 21
4.414604962243802
 31
0
  0
LINE
  8
0
 62
7
 10
5.39332290992449
 20
4.414604962243802
 30
0
 11
5.40952290992449
 21
4.414604962243802
 31
0
  0
LINE
  8
0
 62
7
 10
5.40952290992449
 20
4.414604962243802
 30
0
 11
5.41762290992449
 21
4.417604962243802
 31
0
  0
LINE
  8
0
 62
7
 10
5.41762290992449
 20
4.417604962243802
 30
0
 11
5.425722909924492
 21
4.4236049622438
 31
0
  0
LINE
  8
0
 62
7
 10
5.425722909924492
 20
4.4236049622438
 30
0
 11
5.431122909924491
 21
4.429604962243801
 31
0
  0
LINE
  8
0
 62
7
 10
5.431122909924491
 20
4.429604962243801
 30
0
 11
5.43652290992449
 21
4.4386049622438
 31
0
  0
LINE
  8
0
 62
7
 10
5.43652290992449
 20
4.4386049622438
 30
0
 11
5.439222909924492
 21
4.4506049622438
 31
0
  0
LINE
  8
0
 62
7
 10
5.439222909924492
 20
4.4506049622438
 30
0
 11
5.439222909924492
 21
4.474604962243801
 31
0
  0
LINE
  8
0
 62
7
 10
5.439222909924492
 20
4.474604962243801
 30
0
 11
5.40682290992449
 21
4.474604962243801
 31
0
  0
LINE
  8
0
 62
7
 10
5.517522909924491
 20
4.534604962243802
 30
0
 11
5.501322909924491
 21
4.534604962243802
 31
0
  0
LINE
  8
0
 62
7
 10
5.501322909924491
 20
4.534604962243802
 30
0
 11
5.493222909924491
 21
4.5316049622438
 31
0
  0
LINE
  8
0
 62
7
 10
5.493222909924491
 20
4.5316049622438
 30
0
 11
5.485122909924491
 21
4.525604962243801
 31
0
  0
LINE
  8
0
 62
7
 10
5.485122909924491
 20
4.525604962243801
 30
0
 11
5.479722909924491
 21
4.519604962243801
 31
0
  0
LINE
  8
0
 62
7
 10
5.479722909924491
 20
4.519604962243801
 30
0
 11
5.47432290992449
 21
4.510604962243801
 31
0
  0
LINE
  8
0
 62
7
 10
5.47432290992449
 20
4.510604962243801
 30
0
 11
5.471622909924491
 21
4.4986049622438
 31
0
  0
LINE
  8
0
 62
7
 10
5.471622909924491
 20
4.4986049622438
 30
0
 11
5.471622909924491
 21
4.4506049622438
 31
0
  0
LINE
  8
0
 62
7
 10
5.471622909924491
 20
4.4506049622438
 30
0
 11
5.47432290992449
 21
4.4386049622438
 31
0
  0
LINE
  8
0
 62
7
 10
5.47432290992449
 20
4.4386049622438
 30
0
 11
5.479722909924491
 21
4.429604962243801
 31
0
  0
LINE
  8
0
 62
7
 10
5.479722909924491
 20
4.429604962243801
 30
0
 11
5.485122909924491
 21
4.4236049622438
 31
0
  0
LINE
  8
0
 62
7
 10
5.485122909924491
 20
4.4236049622438
 30
0
 11
5.493222909924491
 21
4.417604962243802
 31
0
  0
LINE
  8
0
 62
7
 10
5.493222909924491
 20
4.417604962243802
 30
0
 11
5.501322909924491
 21
4.414604962243802
 31
0
  0
LINE
  8
0
 62
7
 10
5.501322909924491
 20
4.414604962243802
 30
0
 11
5.517522909924491
 21
4.414604962243802
 31
0
  0
LINE
  8
0
 62
7
 10
5.517522909924491
 20
4.414604962243802
 30
0
 11
5.525622909924491
 21
4.417604962243802
 31
0
  0
LINE
  8
0
 62
7
 10
5.525622909924491
 20
4.417604962243802
 30
0
 11
5.533722909924491
 21
4.4236049622438
 31
0
  0
LINE
  8
0
 62
7
 10
5.533722909924491
 20
4.4236049622438
 30
0
 11
5.53912290992449
 21
4.429604962243801
 31
0
  0
LINE
  8
0
 62
7
 10
5.53912290992449
 20
4.429604962243801
 30
0
 11
5.54452290992449
 21
4.4386049622438
 31
0
  0
LINE
  8
0
 62
7
 10
5.54452290992449
 20
4.4386049622438
 30
0
 11
5.547222909924491
 21
4.4506049622438
 31
0
  0
LINE
  8
0
 62
7
 10
5.547222909924491
 20
4.4506049622438
 30
0
 11
5.547222909924491
 21
4.4986049622438
 31
0
  0
LINE
  8
0
 62
7
 10
5.547222909924491
 20
4.4986049622438
 30
0
 11
5.54452290992449
 21
4.510604962243801
 31
0
  0
LINE
  8
0
 62
7
 10
5.54452290992449
 20
4.510604962243801
 30
0
 11
5.53912290992449
 21
4.519604962243801
 31
0
  0
LINE
  8
0
 62
7
 10
5.53912290992449
 20
4.519604962243801
 30
0
 11
5.533722909924491
 21
4.525604962243801
 31
0
  0
LINE
  8
0
 62
7
 10
5.533722909924491
 20
4.525604962243801
 30
0
 11
5.525622909924491
 21
4.5316049622438
 31
0
  0
LINE
  8
0
 62
7
 10
5.525622909924491
 20
4.5316049622438
 30
0
 11
5.517522909924491
 21
4.534604962243802
 31
0
  0
LINE
  8
0
 62
7
 10
5.568822909924491
 20
4.534604962243802
 30
0
 11
5.60662290992449
 21
4.534604962243802
 31
0
  0
LINE
  8
0
 62
7
 10
5.60662290992449
 20
4.534604962243802
 30
0
 11
5.60662290992449
 21
4.414604962243802
 31
0
  0
LINE
  8
0
 62
7
 10
5.60662290992449
 20
4.534604962243802
 30
0
 11
5.644422909924492
 21
4.534604962243802
 31
0
  0
LINE
  8
0
 62
7
 10
5.67682290992449
 20
4.534604962243802
 30
0
 11
5.714622909924492
 21
4.534604962243802
 31
0
  0
LINE
  8
0
 62
7
 10
5.714622909924492
 20
4.534604962243802
 30
0
 11
5.714622909924492
 21
4.414604962243802
 31
0
  0
LINE
  8
0
 62
7
 10
5.714622909924492
 20
4.534604962243802
 30
0
 11
5.752422909924491
 21
4.534604962243802
 31
0
  0
LINE
  8
0
 62
7
 10
5.87122290992449
 20
4.4566049622438
 30
0
 11
5.925222909924491
 21
4.4566049622438
 31
0
  0
LINE
  8
0
 62
7
 10
6.03322290992449
 20
4.534604962243802
 30
0
 11
6.071022909924491
 21
4.534604962243802
 31
0
  0
LINE
  8
0
 62
7
 10
6.071022909924491
 20
4.534604962243802
 30
0
 11
6.071022909924491
 21
4.414604962243802
 31
0
  0
LINE
  8
0
 62
7
 10
6.071022909924491
 20
4.534604962243802
 30
0
 11
6.108822909924491
 21
4.534604962243802
 31
0
  0
LINE
  8
0
 62
7
 10
6.14122290992449
 20
4.414604962243802
 30
0
 11
6.14122290992449
 21
4.534604962243802
 31
0
  0
LINE
  8
0
 62
7
 10
6.14122290992449
 20
4.534604962243802
 30
0
 11
6.192522909924492
 21
4.534604962243802
 31
0
  0
LINE
  8
0
 62
7
 10
6.192522909924492
 20
4.534604962243802
 30
0
 11
6.203322909924491
 21
4.5316049622438
 31
0
  0
LINE
  8
0
 62
7
 10
6.203322909924491
 20
4.5316049622438
 30
0
 11
6.21142290992449
 21
4.525604962243801
 31
0
  0
LINE
  8
0
 62
7
 10
6.21142290992449
 20
4.525604962243801
 30
0
 11
6.214122909924491
 21
4.519604962243801
 31
0
  0
LINE
  8
0
 62
7
 10
6.214122909924491
 20
4.519604962243801
 30
0
 11
6.216822909924491
 21
4.510604962243801
 31
0
  0
LINE
  8
0
 62
7
 10
6.216822909924491
 20
4.510604962243801
 30
0
 11
6.216822909924491
 21
4.4986049622438
 31
0
  0
LINE
  8
0
 62
7
 10
6.216822909924491
 20
4.4986049622438
 30
0
 11
6.214122909924491
 21
4.489604962243802
 31
0
  0
LINE
  8
0
 62
7
 10
6.214122909924491
 20
4.489604962243802
 30
0
 11
6.21142290992449
 21
4.483604962243801
 31
0
  0
LINE
  8
0
 62
7
 10
6.21142290992449
 20
4.483604962243801
 30
0
 11
6.203322909924491
 21
4.477604962243801
 31
0
  0
LINE
  8
0
 62
7
 10
6.203322909924491
 20
4.477604962243801
 30
0
 11
6.192522909924492
 21
4.474604962243801
 31
0
  0
LINE
  8
0
 62
7
 10
6.192522909924492
 20
4.474604962243801
 30
0
 11
6.18442290992449
 21
4.474604962243801
 31
0
  0
LINE
  8
0
 62
7
 10
6.18442290992449
 20
4.474604962243801
 30
0
 11
6.216822909924491
 21
4.414604962243802
 31
0
  0
LINE
  8
0
 62
7
 10
6.18442290992449
 20
4.474604962243801
 30
0
 11
6.14122290992449
 21
4.474604962243801
 31
0
  0
LINE
  8
0
 62
7
 10
6.31402290992449
 20
4.534604962243802
 30
0
 11
6.23842290992449
 21
4.534604962243802
 31
0
  0
LINE
  8
0
 62
7
 10
6.23842290992449
 20
4.534604962243802
 30
0
 11
6.23842290992449
 21
4.474604962243801
 31
0
  0
LINE
  8
0
 62
7
 10
6.23842290992449
 20
4.414604962243802
 30
0
 11
6.31402290992449
 21
4.414604962243802
 31
0
  0
LINE
  8
0
 62
7
 10
6.303222909924489
 20
4.474604962243801
 30
0
 11
6.23842290992449
 21
4.474604962243801
 31
0
  0
LINE
  8
0
 62
7
 10
6.23842290992449
 20
4.474604962243801
 30
0
 11
6.23842290992449
 21
4.414604962243802
 31
0
  0
LINE
  8
0
 62
7
 10
6.346422909924491
 20
4.414604962243802
 30
0
 11
6.346422909924491
 21
4.474604962243801
 31
0
  0
LINE
  8
0
 62
7
 10
6.346422909924491
 20
4.534604962243802
 30
0
 11
6.397722909924491
 21
4.534604962243802
 31
0
  0
LINE
  8
0
 62
7
 10
6.397722909924491
 20
4.534604962243802
 30
0
 11
6.408522909924492
 21
4.5316049622438
 31
0
  0
LINE
  8
0
 62
7
 10
6.408522909924492
 20
4.5316049622438
 30
0
 11
6.416622909924491
 21
4.525604962243801
 31
0
  0
LINE
  8
0
 62
7
 10
6.416622909924491
 20
4.525604962243801
 30
0
 11
6.419322909924491
 21
4.519604962243801
 31
0
  0
LINE
  8
0
 62
7
 10
6.419322909924491
 20
4.519604962243801
 30
0
 11
6.422022909924491
 21
4.510604962243801
 31
0
  0
LINE
  8
0
 62
7
 10
6.422022909924491
 20
4.510604962243801
 30
0
 11
6.422022909924491
 21
4.4986049622438
 31
0
  0
LINE
  8
0
 62
7
 10
6.422022909924491
 20
4.4986049622438
 30
0
 11
6.419322909924491
 21
4.489604962243802
 31
0
  0
LINE
  8
0
 62
7
 10
6.419322909924491
 20
4.489604962243802
 30
0
 11
6.416622909924491
 21
4.483604962243801
 31
0
  0
LINE
  8
0
 62
7
 10
6.416622909924491
 20
4.483604962243801
 30
0
 11
6.408522909924492
 21
4.477604962243801
 31
0
  0
LINE
  8
0
 62
7
 10
6.408522909924492
 20
4.477604962243801
 30
0
 11
6.397722909924491
 21
4.474604962243801
 31
0
  0
LINE
  8
0
 62
7
 10
6.397722909924491
 20
4.474604962243801
 30
0
 11
6.346422909924491
 21
4.474604962243801
 31
0
  0
LINE
  8
0
 62
7
 10
6.346422909924491
 20
4.474604962243801
 30
0
 11
6.346422909924491
 21
4.534604962243802
 31
0
  0
LINE
  8
0
 62
7
 10
6.44362290992449
 20
4.414604962243802
 30
0
 11
6.44362290992449
 21
4.474604962243801
 31
0
  0
LINE
  8
0
 62
7
 10
6.44362290992449
 20
4.534604962243802
 30
0
 11
6.49492290992449
 21
4.534604962243802
 31
0
  0
LINE
  8
0
 62
7
 10
6.49492290992449
 20
4.534604962243802
 30
0
 11
6.505722909924491
 21
4.5316049622438
 31
0
  0
LINE
  8
0
 62
7
 10
6.505722909924491
 20
4.5316049622438
 30
0
 11
6.513822909924492
 21
4.525604962243801
 31
0
  0
LINE
  8
0
 62
7
 10
6.513822909924492
 20
4.525604962243801
 30
0
 11
6.51652290992449
 21
4.519604962243801
 31
0
  0
LINE
  8
0
 62
7
 10
6.51652290992449
 20
4.519604962243801
 30
0
 11
6.519222909924491
 21
4.510604962243801
 31
0
  0
LINE
  8
0
 62
7
 10
6.519222909924491
 20
4.510604962243801
 30
0
 11
6.519222909924491
 21
4.4986049622438
 31
0
  0
LINE
  8
0
 62
7
 10
6.519222909924491
 20
4.4986049622438
 30
0
 11
6.51652290992449
 21
4.489604962243802
 31
0
  0
LINE
  8
0
 62
7
 10
6.51652290992449
 20
4.489604962243802
 30
0
 11
6.513822909924492
 21
4.483604962243801
 31
0
  0
LINE
  8
0
 62
7
 10
6.513822909924492
 20
4.483604962243801
 30
0
 11
6.505722909924491
 21
4.477604962243801
 31
0
  0
LINE
  8
0
 62
7
 10
6.505722909924491
 20
4.477604962243801
 30
0
 11
6.49492290992449
 21
4.474604962243801
 31
0
  0
LINE
  8
0
 62
7
 10
6.49492290992449
 20
4.474604962243801
 30
0
 11
6.44362290992449
 21
4.474604962243801
 31
0
  0
LINE
  8
0
 62
7
 10
6.44362290992449
 20
4.474604962243801
 30
0
 11
6.44362290992449
 21
4.534604962243802
 31
0
  0
LINE
  8
0
 62
7
 10
6.616422909924491
 20
4.534604962243802
 30
0
 11
6.540822909924491
 21
4.534604962243802
 31
0
  0
LINE
  8
0
 62
7
 10
6.540822909924491
 20
4.534604962243802
 30
0
 11
6.540822909924491
 21
4.474604962243801
 31
0
  0
LINE
  8
0
 62
7
 10
6.540822909924491
 20
4.414604962243802
 30
0
 11
6.616422909924491
 21
4.414604962243802
 31
0
  0
LINE
  8
0
 62
7
 10
6.605622909924492
 20
4.474604962243801
 30
0
 11
6.540822909924491
 21
4.474604962243801
 31
0
  0
LINE
  8
0
 62
7
 10
6.540822909924491
 20
4.474604962243801
 30
0
 11
6.540822909924491
 21
4.414604962243802
 31
0
  0
LINE
  8
0
 62
7
 10
4.375
 20
2.889999999999999
 30
0
 11
4.375
 21
3.009999999999999
 31
0
  0
LINE
  8
0
 62
7
 10
4.375
 20
3.009999999999999
 30
0
 11
4.418200000000001
 21
2.914
 31
0
  0
LINE
  8
0
 62
7
 10
4.418200000000001
 20
2.914
 30
0
 11
4.4614
 21
3.009999999999999
 31
0
  0
LINE
  8
0
 62
7
 10
4.4614
 20
3.009999999999999
 30
0
 11
4.4614
 21
2.889999999999999
 31
0
  0
LINE
  8
0
 62
7
 10
4.493800000000001
 20
2.992
 30
0
 11
4.4992
 21
3.001
 31
0
  0
LINE
  8
0
 62
7
 10
4.4992
 20
3.001
 30
0
 11
4.5073
 21
3.007
 31
0
  0
LINE
  8
0
 62
7
 10
4.5073
 20
3.007
 30
0
 11
4.518100000000001
 21
3.009999999999999
 31
0
  0
LINE
  8
0
 62
7
 10
4.518100000000001
 20
3.009999999999999
 30
0
 11
4.534300000000001
 21
3.009999999999999
 31
0
  0
LINE
  8
0
 62
7
 10
4.534300000000001
 20
3.009999999999999
 30
0
 11
4.545100000000001
 21
3.007
 31
0
  0
LINE
  8
0
 62
7
 10
4.545100000000001
 20
3.007
 30
0
 11
4.553199999999999
 21
3.001
 31
0
  0
LINE
  8
0
 62
7
 10
4.553199999999999
 20
3.001
 30
0
 11
4.558600000000001
 21
2.992
 31
0
  0
LINE
  8
0
 62
7
 10
4.558600000000001
 20
2.992
 30
0
 11
4.558600000000001
 21
2.979999999999999
 31
0
  0
LINE
  8
0
 62
7
 10
4.558600000000001
 20
2.979999999999999
 30
0
 11
4.553199999999999
 21
2.968
 31
0
  0
LINE
  8
0
 62
7
 10
4.553199999999999
 20
2.968
 30
0
 11
4.493800000000001
 21
2.889999999999999
 31
0
  0
LINE
  8
0
 62
7
 10
4.493800000000001
 20
2.889999999999999
 30
0
 11
4.558600000000001
 21
2.889999999999999
 31
0
  0
LINE
  8
0
 62
7
 10
4.591
 20
3.009999999999999
 30
0
 11
4.628800000000001
 21
2.889999999999999
 31
0
  0
LINE
  8
0
 62
7
 10
4.628800000000001
 20
2.889999999999999
 30
0
 11
4.666600000000001
 21
3.009999999999999
 31
0
  0
LINE
  8
0
 62
7
 10
4.699000000000001
 20
2.992
 30
0
 11
4.7044
 21
3.001
 31
0
  0
LINE
  8
0
 62
7
 10
4.7044
 20
3.001
 30
0
 11
4.7125
 21
3.007
 31
0
  0
LINE
  8
0
 62
7
 10
4.7125
 20
3.007
 30
0
 11
4.723300000000001
 21
3.009999999999999
 31
0
  0
LINE
  8
0
 62
7
 10
4.723300000000001
 20
3.009999999999999
 30
0
 11
4.7395
 21
3.009999999999999
 31
0
  0
LINE
  8
0
 62
7
 10
4.7395
 20
3.009999999999999
 30
0
 11
4.747600000000001
 21
3.007
 31
0
  0
LINE
  8
0
 62
7
 10
4.747600000000001
 20
3.007
 30
0
 11
4.7557
 21
3.001
 31
0
  0
LINE
  8
0
 62
7
 10
4.7557
 20
3.001
 30
0
 11
4.761100000000002
 21
2.992
 31
0
  0
LINE
  8
0
 62
7
 10
4.761100000000002
 20
2.992
 30
0
 11
4.763800000000002
 21
2.979999999999999
 31
0
  0
LINE
  8
0
 62
7
 10
4.763800000000002
 20
2.979999999999999
 30
0
 11
4.763800000000002
 21
2.971
 31
0
  0
LINE
  8
0
 62
7
 10
4.763800000000002
 20
2.971
 30
0
 11
4.761100000000002
 21
2.962
 31
0
  0
LINE
  8
0
 62
7
 10
4.761100000000002
 20
2.962
 30
0
 11
4.7557
 21
2.956
 31
0
  0
LINE
  8
0
 62
7
 10
4.7557
 20
2.956
 30
0
 11
4.742200000000001
 21
2.949999999999999
 31
0
  0
LINE
  8
0
 62
7
 10
4.723300000000001
 20
2.949999999999999
 30
0
 11
4.742200000000001
 21
2.949999999999999
 31
0
  0
LINE
  8
0
 62
7
 10
4.742200000000001
 20
2.949999999999999
 30
0
 11
4.7557
 21
2.944
 31
0
  0
LINE
  8
0
 62
7
 10
4.7557
 20
2.944
 30
0
 11
4.761100000000002
 21
2.938
 31
0
  0
LINE
  8
0
 62
7
 10
4.761100000000002
 20
2.938
 30
0
 11
4.763800000000002
 21
2.929
 31
0
  0
LINE
  8
0
 62
7
 10
4.763800000000002
 20
2.929
 30
0
 11
4.763800000000002
 21
2.919999999999999
 31
0
  0
LINE
  8
0
 62
7
 10
4.763800000000002
 20
2.919999999999999
 30
0
 11
4.761100000000002
 21
2.908
 31
0
  0
LINE
  8
0
 62
7
 10
4.761100000000002
 20
2.908
 30
0
 11
4.7557
 21
2.899
 31
0
  0
LINE
  8
0
 62
7
 10
4.7557
 20
2.899
 30
0
 11
4.747600000000001
 21
2.893
 31
0
  0
LINE
  8
0
 62
7
 10
4.747600000000001
 20
2.893
 30
0
 11
4.7395
 21
2.889999999999999
 31
0
  0
LINE
  8
0
 62
7
 10
4.7395
 20
2.889999999999999
 30
0
 11
4.723300000000001
 21
2.889999999999999
 31
0
  0
LINE
  8
0
 62
7
 10
4.723300000000001
 20
2.889999999999999
 30
0
 11
4.7125
 21
2.893
 31
0
  0
LINE
  8
0
 62
7
 10
4.7125
 20
2.893
 30
0
 11
4.7044
 21
2.899
 31
0
  0
LINE
  8
0
 62
7
 10
4.7044
 20
2.899
 30
0
 11
4.699000000000001
 21
2.908
 31
0
  0
LINE
  8
0
 62
7
 10
4.7962
 20
2.992
 30
0
 11
4.801600000000001
 21
3.001
 31
0
  0
LINE
  8
0
 62
7
 10
4.801600000000001
 20
3.001
 30
0
 11
4.809700000000001
 21
3.007
 31
0
  0
LINE
  8
0
 62
7
 10
4.809700000000001
 20
3.007
 30
0
 11
4.8205
 21
3.009999999999999
 31
0
  0
LINE
  8
0
 62
7
 10
4.8205
 20
3.009999999999999
 30
0
 11
4.8367
 21
3.009999999999999
 31
0
  0
LINE
  8
0
 62
7
 10
4.8367
 20
3.009999999999999
 30
0
 11
4.8448
 21
3.007
 31
0
  0
LINE
  8
0
 62
7
 10
4.8448
 20
3.007
 30
0
 11
4.852900000000001
 21
3.001
 31
0
  0
LINE
  8
0
 62
7
 10
4.852900000000001
 20
3.001
 30
0
 11
4.858300000000001
 21
2.992
 31
0
  0
LINE
  8
0
 62
7
 10
4.858300000000001
 20
2.992
 30
0
 11
4.861000000000001
 21
2.979999999999999
 31
0
  0
LINE
  8
0
 62
7
 10
4.861000000000001
 20
2.979999999999999
 30
0
 11
4.861000000000001
 21
2.971
 31
0
  0
LINE
  8
0
 62
7
 10
4.861000000000001
 20
2.971
 30
0
 11
4.858300000000001
 21
2.962
 31
0
  0
LINE
  8
0
 62
7
 10
4.858300000000001
 20
2.962
 30
0
 11
4.852900000000001
 21
2.956
 31
0
  0
LINE
  8
0
 62
7
 10
4.852900000000001
 20
2.956
 30
0
 11
4.8394
 21
2.949999999999999
 31
0
  0
LINE
  8
0
 62
7
 10
4.8205
 20
2.949999999999999
 30
0
 11
4.8394
 21
2.949999999999999
 31
0
  0
LINE
  8
0
 62
7
 10
4.8394
 20
2.949999999999999
 30
0
 11
4.852900000000001
 21
2.944
 31
0
  0
LINE
  8
0
 62
7
 10
4.852900000000001
 20
2.944
 30
0
 11
4.858300000000001
 21
2.938
 31
0
  0
LINE
  8
0
 62
7
 10
4.858300000000001
 20
2.938
 30
0
 11
4.861000000000001
 21
2.929
 31
0
  0
LINE
  8
0
 62
7
 10
4.861000000000001
 20
2.929
 30
0
 11
4.861000000000001
 21
2.919999999999999
 31
0
  0
LINE
  8
0
 62
7
 10
4.861000000000001
 20
2.919999999999999
 30
0
 11
4.858300000000001
 21
2.908
 31
0
  0
LINE
  8
0
 62
7
 10
4.858300000000001
 20
2.908
 30
0
 11
4.852900000000001
 21
2.899
 31
0
  0
LINE
  8
0
 62
7
 10
4.852900000000001
 20
2.899
 30
0
 11
4.8448
 21
2.893
 31
0
  0
LINE
  8
0
 62
7
 10
4.8448
 20
2.893
 30
0
 11
4.8367
 21
2.889999999999999
 31
0
  0
LINE
  8
0
 62
7
 10
4.8367
 20
2.889999999999999
 30
0
 11
4.8205
 21
2.889999999999999
 31
0
  0
LINE
  8
0
 62
7
 10
4.8205
 20
2.889999999999999
 30
0
 11
4.809700000000001
 21
2.893
 31
0
  0
LINE
  8
0
 62
7
 10
4.809700000000001
 20
2.893
 30
0
 11
4.801600000000001
 21
2.899
 31
0
  0
LINE
  8
0
 62
7
 10
4.801600000000001
 20
2.899
 30
0
 11
4.7962
 21
2.908
 31
0
  0
LINE
  8
0
 62
7
 10
4.920400000000001
 20
3.009999999999999
 30
0
 11
4.9312
 21
3.009999999999999
 31
0
  0
LINE
  8
0
 62
7
 10
4.9312
 20
3.009999999999999
 30
0
 11
4.939299999999999
 21
3.007
 31
0
  0
LINE
  8
0
 62
7
 10
4.939299999999999
 20
3.007
 30
0
 11
4.944700000000001
 21
3.001
 31
0
  0
LINE
  8
0
 62
7
 10
4.944700000000001
 20
3.001
 30
0
 11
4.950100000000001
 21
2.992
 31
0
  0
LINE
  8
0
 62
7
 10
4.950100000000001
 20
2.992
 30
0
 11
4.950100000000001
 21
2.979999999999999
 31
0
  0
LINE
  8
0
 62
7
 10
4.950100000000001
 20
2.979999999999999
 30
0
 11
4.9474
 21
2.974
 31
0
  0
LINE
  8
0
 62
7
 10
4.9474
 20
2.974
 30
0
 11
4.939299999999999
 21
2.964999999999999
 31
0
  0
LINE
  8
0
 62
7
 10
4.939299999999999
 20
2.964999999999999
 30
0
 11
4.9312
 21
2.962
 31
0
  0
LINE
  8
0
 62
7
 10
4.9312
 20
2.962
 30
0
 11
4.920400000000001
 21
2.962
 31
0
  0
LINE
  8
0
 62
7
 10
4.920400000000001
 20
2.962
 30
0
 11
4.912300000000001
 21
2.964999999999999
 31
0
  0
LINE
  8
0
 62
7
 10
4.912300000000001
 20
2.964999999999999
 30
0
 11
4.9042
 21
2.974
 31
0
  0
LINE
  8
0
 62
7
 10
4.9042
 20
2.974
 30
0
 11
4.9015
 21
2.979999999999999
 31
0
  0
LINE
  8
0
 62
7
 10
4.9015
 20
2.979999999999999
 30
0
 11
4.9015
 21
2.992
 31
0
  0
LINE
  8
0
 62
7
 10
4.9015
 20
2.992
 30
0
 11
4.9069
 21
3.001
 31
0
  0
LINE
  8
0
 62
7
 10
4.9069
 20
3.001
 30
0
 11
4.912300000000001
 21
3.007
 31
0
  0
LINE
  8
0
 62
7
 10
4.912300000000001
 20
3.007
 30
0
 11
4.920400000000001
 21
3.009999999999999
 31
0
  0
LINE
  8
0
 62
7
 10
4.920400000000001
 20
2.962
 30
0
 11
4.9069
 21
2.956
 31
0
  0
LINE
  8
0
 62
7
 10
4.9069
 20
2.956
 30
0
 11
4.8988
 21
2.947
 31
0
  0
LINE
  8
0
 62
7
 10
4.8988
 20
2.947
 30
0
 11
4.8934
 21
2.934999999999999
 31
0
  0
LINE
  8
0
 62
7
 10
4.8934
 20
2.934999999999999
 30
0
 11
4.8934
 21
2.917
 31
0
  0
LINE
  8
0
 62
7
 10
4.8934
 20
2.917
 30
0
 11
4.8988
 21
2.904999999999999
 31
0
  0
LINE
  8
0
 62
7
 10
4.8988
 20
2.904999999999999
 30
0
 11
4.9069
 21
2.896
 31
0
  0
LINE
  8
0
 62
7
 10
4.9069
 20
2.896
 30
0
 11
4.9177
 21
2.889999999999999
 31
0
  0
LINE
  8
0
 62
7
 10
4.9177
 20
2.889999999999999
 30
0
 11
4.9339
 21
2.889999999999999
 31
0
  0
LINE
  8
0
 62
7
 10
4.9339
 20
2.889999999999999
 30
0
 11
4.944700000000001
 21
2.896
 31
0
  0
LINE
  8
0
 62
7
 10
4.944700000000001
 20
2.896
 30
0
 11
4.9528
 21
2.904999999999999
 31
0
  0
LINE
  8
0
 62
7
 10
4.9528
 20
2.904999999999999
 30
0
 11
4.958200000000001
 21
2.917
 31
0
  0
LINE
  8
0
 62
7
 10
4.958200000000001
 20
2.917
 30
0
 11
4.958200000000001
 21
2.934999999999999
 31
0
  0
LINE
  8
0
 62
7
 10
4.958200000000001
 20
2.934999999999999
 30
0
 11
4.9528
 21
2.947
 31
0
  0
LINE
  8
0
 62
7
 10
4.9528
 20
2.947
 30
0
 11
4.944700000000001
 21
2.956
 31
0
  0
LINE
  8
0
 62
7
 10
4.944700000000001
 20
2.956
 30
0
 11
4.9312
 21
2.962
 31
0
  0
LINE
  8
0
 62
7
 10
5.0014
 20
2.889999999999999
 30
0
 11
5.0014
 21
3.009999999999999
 31
0
  0
LINE
  8
0
 62
7
 10
5.0014
 20
3.009999999999999
 30
0
 11
5.052700000000001
 21
3.009999999999999
 31
0
  0
LINE
  8
0
 62
7
 10
5.052700000000001
 20
3.009999999999999
 30
0
 11
5.0635
 21
3.007
 31
0
  0
LINE
  8
0
 62
7
 10
5.0635
 20
3.007
 30
0
 11
5.071600000000001
 21
3.001
 31
0
  0
LINE
  8
0
 62
7
 10
5.071600000000001
 20
3.001
 30
0
 11
5.0743
 21
2.994999999999999
 31
0
  0
LINE
  8
0
 62
7
 10
5.0743
 20
2.994999999999999
 30
0
 11
5.077000000000001
 21
2.986
 31
0
  0
LINE
  8
0
 62
7
 10
5.077000000000001
 20
2.986
 30
0
 11
5.077000000000001
 21
2.974
 31
0
  0
LINE
  8
0
 62
7
 10
5.077000000000001
 20
2.974
 30
0
 11
5.0743
 21
2.964999999999999
 31
0
  0
LINE
  8
0
 62
7
 10
5.0743
 20
2.964999999999999
 30
0
 11
5.071600000000001
 21
2.959
 31
0
  0
LINE
  8
0
 62
7
 10
5.071600000000001
 20
2.959
 30
0
 11
5.0635
 21
2.953
 31
0
  0
LINE
  8
0
 62
7
 10
5.0635
 20
2.953
 30
0
 11
5.052700000000001
 21
2.949999999999999
 31
0
  0
LINE
  8
0
 62
7
 10
5.052700000000001
 20
2.949999999999999
 30
0
 11
5.0446
 21
2.949999999999999
 31
0
  0
LINE
  8
0
 62
7
 10
5.0446
 20
2.949999999999999
 30
0
 11
5.077000000000001
 21
2.889999999999999
 31
0
  0
LINE
  8
0
 62
7
 10
5.0446
 20
2.949999999999999
 30
0
 11
5.0014
 21
2.949999999999999
 31
0
  0
LINE
  8
0
 62
7
 10
5.098600000000001
 20
2.938
 30
0
 11
5.101300000000002
 21
2.949999999999999
 31
0
  0
LINE
  8
0
 62
7
 10
5.101300000000002
 20
2.949999999999999
 30
0
 11
5.106700000000001
 21
2.959
 31
0
  0
LINE
  8
0
 62
7
 10
5.106700000000001
 20
2.959
 30
0
 11
5.114800000000001
 21
2.964999999999999
 31
0
  0
LINE
  8
0
 62
7
 10
5.114800000000001
 20
2.964999999999999
 30
0
 11
5.122900000000001
 21
2.968
 31
0
  0
LINE
  8
0
 62
7
 10
5.122900000000001
 20
2.968
 30
0
 11
5.139100000000001
 21
2.968
 31
0
  0
LINE
  8
0
 62
7
 10
5.139100000000001
 20
2.968
 30
0
 11
5.147200000000002
 21
2.964999999999999
 31
0
  0
LINE
  8
0
 62
7
 10
5.147200000000002
 20
2.964999999999999
 30
0
 11
5.155300000000001
 21
2.959
 31
0
  0
LINE
  8
0
 62
7
 10
5.155300000000001
 20
2.959
 30
0
 11
5.160700000000001
 21
2.949999999999999
 31
0
  0
LINE
  8
0
 62
7
 10
5.160700000000001
 20
2.949999999999999
 30
0
 11
5.163400000000001
 21
2.938
 31
0
  0
LINE
  8
0
 62
7
 10
5.163400000000001
 20
2.938
 30
0
 11
5.163400000000001
 21
2.919999999999999
 31
0
  0
LINE
  8
0
 62
7
 10
5.163400000000001
 20
2.919999999999999
 30
0
 11
5.160700000000001
 21
2.908
 31
0
  0
LINE
  8
0
 62
7
 10
5.160700000000001
 20
2.908
 30
0
 11
5.155300000000001
 21
2.899
 31
0
  0
LINE
  8
0
 62
7
 10
5.155300000000001
 20
2.899
 30
0
 11
5.147200000000002
 21
2.893
 31
0
  0
LINE
  8
0
 62
7
 10
5.147200000000002
 20
2.893
 30
0
 11
5.139100000000001
 21
2.889999999999999
 31
0
  0
LINE
  8
0
 62
7
 10
5.139100000000001
 20
2.889999999999999
 30
0
 11
5.122900000000001
 21
2.889999999999999
 31
0
  0
LINE
  8
0
 62
7
 10
5.122900000000001
 20
2.889999999999999
 30
0
 11
5.114800000000001
 21
2.893
 31
0
  0
LINE
  8
0
 62
7
 10
5.114800000000001
 20
2.893
 30
0
 11
5.106700000000001
 21
2.899
 31
0
  0
LINE
  8
0
 62
7
 10
5.106700000000001
 20
2.899
 30
0
 11
5.101300000000002
 21
2.908
 31
0
  0
LINE
  8
0
 62
7
 10
5.101300000000002
 20
2.908
 30
0
 11
5.098600000000001
 21
2.919999999999999
 31
0
  0
LINE
  8
0
 62
7
 10
5.098600000000001
 20
2.919999999999999
 30
0
 11
5.098600000000001
 21
2.938
 31
0
  0
LINE
  8
0
 62
7
 10
5.098600000000001
 20
2.979999999999999
 30
0
 11
5.101300000000002
 21
2.992
 31
0
  0
LINE
  8
0
 62
7
 10
5.101300000000002
 20
2.992
 30
0
 11
5.106700000000001
 21
3.001
 31
0
  0
LINE
  8
0
 62
7
 10
5.106700000000001
 20
3.001
 30
0
 11
5.114800000000001
 21
3.007
 31
0
  0
LINE
  8
0
 62
7
 10
5.114800000000001
 20
3.007
 30
0
 11
5.122900000000001
 21
3.009999999999999
 31
0
  0
LINE
  8
0
 62
7
 10
5.122900000000001
 20
3.009999999999999
 30
0
 11
5.139100000000001
 21
3.009999999999999
 31
0
  0
LINE
  8
0
 62
7
 10
5.139100000000001
 20
3.009999999999999
 30
0
 11
5.147200000000002
 21
3.007
 31
0
  0
LINE
  8
0
 62
7
 10
5.147200000000002
 20
3.007
 30
0
 11
5.155300000000001
 21
3.001
 31
0
  0
LINE
  8
0
 62
7
 10
5.155300000000001
 20
3.001
 30
0
 11
5.160700000000001
 21
2.992
 31
0
  0
LINE
  8
0
 62
7
 10
5.098600000000001
 20
2.938
 30
0
 11
5.098600000000001
 21
2.979999999999999
 31
0
  0
LINE
  8
0
 62
7
 10
6.875
 20
2.889999999999999
 30
0
 11
6.875
 21
2.989999999999999
 31
0
  0
LINE
  8
0
 62
7
 10
6.875
 20
2.989999999999999
 30
0
 11
6.938000000000001
 21
2.889999999999999
 31
0
  0
LINE
  8
0
 62
7
 10
6.938000000000001
 20
2.889999999999999
 30
0
 11
6.938000000000001
 21
2.989999999999999
 31
0
  0
LINE
  8
0
 62
7
 10
7.019000000000002
 20
2.889999999999999
 30
0
 11
6.965000000000001
 21
2.889999999999999
 31
0
  0
LINE
  8
0
 62
7
 10
6.965000000000001
 20
2.889999999999999
 30
0
 11
6.965000000000001
 21
2.989999999999999
 31
0
  0
LINE
  8
0
 62
7
 10
7.046000000000001
 20
2.94
 30
0
 11
7.082000000000001
 21
2.94
 31
0
  0
LINE
  8
0
 62
7
 10
7.082000000000001
 20
2.94
 30
0
 11
7.086500000000001
 21
2.94
 31
0
  0
LINE
  8
0
 62
7
 10
7.086500000000001
 20
2.94
 30
0
 11
7.095500000000001
 21
2.934999999999999
 31
0
  0
LINE
  8
0
 62
7
 10
7.095500000000001
 20
2.934999999999999
 30
0
 11
7.100000000000001
 21
2.929999999999999
 31
0
  0
LINE
  8
0
 62
7
 10
7.100000000000001
 20
2.929999999999999
 30
0
 11
7.104500000000001
 21
2.919999999999999
 31
0
  0
LINE
  8
0
 62
7
 10
7.104500000000001
 20
2.919999999999999
 30
0
 11
7.104500000000001
 21
2.909999999999999
 31
0
  0
LINE
  8
0
 62
7
 10
7.104500000000001
 20
2.909999999999999
 30
0
 11
7.100000000000001
 21
2.899999999999999
 31
0
  0
LINE
  8
0
 62
7
 10
7.100000000000001
 20
2.899999999999999
 30
0
 11
7.095500000000001
 21
2.895
 31
0
  0
LINE
  8
0
 62
7
 10
7.095500000000001
 20
2.895
 30
0
 11
7.086500000000001
 21
2.889999999999999
 31
0
  0
LINE
  8
0
 62
7
 10
7.086500000000001
 20
2.889999999999999
 30
0
 11
7.046000000000001
 21
2.889999999999999
 31
0
  0
LINE
  8
0
 62
7
 10
7.046000000000001
 20
2.889999999999999
 30
0
 11
7.046000000000001
 21
2.94
 31
0
  0
LINE
  8
0
 62
7
 10
7.046000000000001
 20
2.989999999999999
 30
0
 11
7.079750000000001
 21
2.989999999999999
 31
0
  0
LINE
  8
0
 62
7
 10
7.079750000000001
 20
2.989999999999999
 30
0
 11
7.091
 21
2.987499999999999
 31
0
  0
LINE
  8
0
 62
7
 10
7.091
 20
2.987499999999999
 30
0
 11
7.097750000000001
 21
2.979999999999999
 31
0
  0
LINE
  8
0
 62
7
 10
7.097750000000001
 20
2.979999999999999
 30
0
 11
7.100000000000001
 21
2.969999999999999
 31
0
  0
LINE
  8
0
 62
7
 10
7.100000000000001
 20
2.969999999999999
 30
0
 11
7.100000000000001
 21
2.959999999999999
 31
0
  0
LINE
  8
0
 62
7
 10
7.100000000000001
 20
2.959999999999999
 30
0
 11
7.095500000000001
 21
2.949999999999999
 31
0
  0
LINE
  8
0
 62
7
 10
7.095500000000001
 20
2.949999999999999
 30
0
 11
7.088750000000001
 21
2.942499999999999
 31
0
  0
LINE
  8
0
 62
7
 10
7.088750000000001
 20
2.942499999999999
 30
0
 11
7.082000000000001
 21
2.94
 31
0
  0
LINE
  8
0
 62
7
 10
7.046000000000001
 20
2.94
 30
0
 11
7.046000000000001
 21
2.989999999999999
 31
0
  0
LINE
  8
0
 62
7
 10
7.246250000000001
 20
2.942499999999999
 30
0
 11
7.2395
 21
2.952499999999999
 31
0
  0
LINE
  8
0
 62
7
 10
7.2395
 20
2.952499999999999
 30
0
 11
7.232750000000002
 21
2.9575
 31
0
  0
LINE
  8
0
 62
7
 10
7.232750000000002
 20
2.9575
 30
0
 11
7.226000000000001
 21
2.959999999999999
 31
0
  0
LINE
  8
0
 62
7
 10
7.226000000000001
 20
2.959999999999999
 30
0
 11
7.217000000000001
 21
2.959999999999999
 31
0
  0
LINE
  8
0
 62
7
 10
7.217000000000001
 20
2.959999999999999
 30
0
 11
7.210250000000001
 21
2.9575
 31
0
  0
LINE
  8
0
 62
7
 10
7.210250000000001
 20
2.9575
 30
0
 11
7.2035
 21
2.952499999999999
 31
0
  0
LINE
  8
0
 62
7
 10
7.2035
 20
2.952499999999999
 30
0
 11
7.196750000000002
 21
2.942499999999999
 31
0
  0
LINE
  8
0
 62
7
 10
7.196750000000002
 20
2.942499999999999
 30
0
 11
7.194500000000001
 21
2.934999999999999
 31
0
  0
LINE
  8
0
 62
7
 10
7.194500000000001
 20
2.934999999999999
 30
0
 11
7.194500000000001
 21
2.914999999999999
 31
0
  0
LINE
  8
0
 62
7
 10
7.194500000000001
 20
2.914999999999999
 30
0
 11
7.196750000000002
 21
2.907499999999999
 31
0
  0
LINE
  8
0
 62
7
 10
7.196750000000002
 20
2.907499999999999
 30
0
 11
7.2035
 21
2.897499999999999
 31
0
  0
LINE
  8
0
 62
7
 10
7.2035
 20
2.897499999999999
 30
0
 11
7.210250000000001
 21
2.892499999999999
 31
0
  0
LINE
  8
0
 62
7
 10
7.210250000000001
 20
2.892499999999999
 30
0
 11
7.217000000000001
 21
2.889999999999999
 31
0
  0
LINE
  8
0
 62
7
 10
7.217000000000001
 20
2.889999999999999
 30
0
 11
7.226000000000001
 21
2.889999999999999
 31
0
  0
LINE
  8
0
 62
7
 10
7.226000000000001
 20
2.889999999999999
 30
0
 11
7.232750000000002
 21
2.892499999999999
 31
0
  0
LINE
  8
0
 62
7
 10
7.232750000000002
 20
2.892499999999999
 30
0
 11
7.2395
 21
2.897499999999999
 31
0
  0
LINE
  8
0
 62
7
 10
7.2395
 20
2.897499999999999
 30
0
 11
7.246250000000001
 21
2.907499999999999
 31
0
  0
LINE
  8
0
 62
7
 10
7.318250000000001
 20
2.934999999999999
 30
0
 11
7.316
 21
2.942499999999999
 31
0
  0
LINE
  8
0
 62
7
 10
7.316
 20
2.942499999999999
 30
0
 11
7.309250000000002
 21
2.952499999999999
 31
0
  0
LINE
  8
0
 62
7
 10
7.309250000000002
 20
2.952499999999999
 30
0
 11
7.302500000000001
 21
2.9575
 31
0
  0
LINE
  8
0
 62
7
 10
7.302500000000001
 20
2.9575
 30
0
 11
7.29575
 21
2.959999999999999
 31
0
  0
LINE
  8
0
 62
7
 10
7.29575
 20
2.959999999999999
 30
0
 11
7.286750000000001
 21
2.959999999999999
 31
0
  0
LINE
  8
0
 62
7
 10
7.286750000000001
 20
2.959999999999999
 30
0
 11
7.28
 21
2.9575
 31
0
  0
LINE
  8
0
 62
7
 10
7.28
 20
2.9575
 30
0
 11
7.273250000000001
 21
2.952499999999999
 31
0
  0
LINE
  8
0
 62
7
 10
7.273250000000001
 20
2.952499999999999
 30
0
 11
7.266500000000001
 21
2.942499999999999
 31
0
  0
LINE
  8
0
 62
7
 10
7.266500000000001
 20
2.942499999999999
 30
0
 11
7.264250000000001
 21
2.934999999999999
 31
0
  0
LINE
  8
0
 62
7
 10
7.264250000000001
 20
2.934999999999999
 30
0
 11
7.264250000000001
 21
2.914999999999999
 31
0
  0
LINE
  8
0
 62
7
 10
7.264250000000001
 20
2.914999999999999
 30
0
 11
7.266500000000001
 21
2.907499999999999
 31
0
  0
LINE
  8
0
 62
7
 10
7.266500000000001
 20
2.907499999999999
 30
0
 11
7.273250000000001
 21
2.897499999999999
 31
0
  0
LINE
  8
0
 62
7
 10
7.273250000000001
 20
2.897499999999999
 30
0
 11
7.28
 21
2.892499999999999
 31
0
  0
LINE
  8
0
 62
7
 10
7.28
 20
2.892499999999999
 30
0
 11
7.286750000000001
 21
2.889999999999999
 31
0
  0
LINE
  8
0
 62
7
 10
7.286750000000001
 20
2.889999999999999
 30
0
 11
7.29575
 21
2.889999999999999
 31
0
  0
LINE
  8
0
 62
7
 10
7.29575
 20
2.889999999999999
 30
0
 11
7.302500000000001
 21
2.892499999999999
 31
0
  0
LINE
  8
0
 62
7
 10
7.302500000000001
 20
2.892499999999999
 30
0
 11
7.309250000000002
 21
2.897499999999999
 31
0
  0
LINE
  8
0
 62
7
 10
7.309250000000002
 20
2.897499999999999
 30
0
 11
7.316
 21
2.907499999999999
 31
0
  0
LINE
  8
0
 62
7
 10
7.316
 20
2.907499999999999
 30
0
 11
7.318250000000001
 21
2.914999999999999
 31
0
  0
LINE
  8
0
 62
7
 10
7.318250000000001
 20
2.959999999999999
 30
0
 11
7.318250000000001
 21
2.934999999999999
 31
0
  0
LINE
  8
0
 62
7
 10
7.318250000000001
 20
2.892499999999999
 30
0
 11
7.320500000000002
 21
2.889999999999999
 31
0
  0
LINE
  8
0
 62
7
 10
7.320500000000002
 20
2.889999999999999
 30
0
 11
7.322750000000001
 21
2.889999999999999
 31
0
  0
LINE
  8
0
 62
7
 10
7.318250000000001
 20
2.914999999999999
 30
0
 11
7.318250000000001
 21
2.892499999999999
 31
0
  0
LINE
  8
0
 62
7
 10
7.318250000000001
 20
2.934999999999999
 30
0
 11
7.318250000000001
 21
2.914999999999999
 31
0
  0
LINE
  8
0
 62
7
 10
7.34075
 20
2.889999999999999
 30
0
 11
7.34075
 21
2.892499999999999
 31
0
  0
LINE
  8
0
 62
7
 10
7.34075
 20
2.892499999999999
 30
0
 11
7.343000000000001
 21
2.892499999999999
 31
0
  0
LINE
  8
0
 62
7
 10
7.343000000000001
 20
2.892499999999999
 30
0
 11
7.343000000000001
 21
2.889999999999999
 31
0
  0
LINE
  8
0
 62
7
 10
7.343000000000001
 20
2.889999999999999
 30
0
 11
7.34075
 21
2.889999999999999
 31
0
  0
LINE
  8
0
 62
7
 10
7.444250000000001
 20
2.959999999999999
 30
0
 11
7.471250000000001
 21
2.989999999999999
 31
0
  0
LINE
  8
0
 62
7
 10
7.471250000000001
 20
2.989999999999999
 30
0
 11
7.471250000000001
 21
2.889999999999999
 31
0
  0
LINE
  8
0
 62
7
 10
7.498250000000001
 20
2.964999999999999
 30
0
 11
7.500500000000001
 21
2.975
 31
0
  0
LINE
  8
0
 62
7
 10
7.500500000000001
 20
2.975
 30
0
 11
7.505
 21
2.982499999999999
 31
0
  0
LINE
  8
0
 62
7
 10
7.505
 20
2.982499999999999
 30
0
 11
7.511750000000001
 21
2.987499999999999
 31
0
  0
LINE
  8
0
 62
7
 10
7.511750000000001
 20
2.987499999999999
 30
0
 11
7.5185
 21
2.989999999999999
 31
0
  0
LINE
  8
0
 62
7
 10
7.5185
 20
2.989999999999999
 30
0
 11
7.532000000000001
 21
2.989999999999999
 31
0
  0
LINE
  8
0
 62
7
 10
7.532000000000001
 20
2.989999999999999
 30
0
 11
7.53875
 21
2.987499999999999
 31
0
  0
LINE
  8
0
 62
7
 10
7.53875
 20
2.987499999999999
 30
0
 11
7.545500000000001
 21
2.982499999999999
 31
0
  0
LINE
  8
0
 62
7
 10
7.545500000000001
 20
2.982499999999999
 30
0
 11
7.550000000000001
 21
2.975
 31
0
  0
LINE
  8
0
 62
7
 10
7.550000000000001
 20
2.975
 30
0
 11
7.552250000000001
 21
2.964999999999999
 31
0
  0
LINE
  8
0
 62
7
 10
7.552250000000001
 20
2.964999999999999
 30
0
 11
7.552250000000001
 21
2.914999999999999
 31
0
  0
LINE
  8
0
 62
7
 10
7.552250000000001
 20
2.914999999999999
 30
0
 11
7.550000000000001
 21
2.904999999999999
 31
0
  0
LINE
  8
0
 62
7
 10
7.550000000000001
 20
2.904999999999999
 30
0
 11
7.545500000000001
 21
2.897499999999999
 31
0
  0
LINE
  8
0
 62
7
 10
7.545500000000001
 20
2.897499999999999
 30
0
 11
7.53875
 21
2.892499999999999
 31
0
  0
LINE
  8
0
 62
7
 10
7.53875
 20
2.892499999999999
 30
0
 11
7.532000000000001
 21
2.889999999999999
 31
0
  0
LINE
  8
0
 62
7
 10
7.532000000000001
 20
2.889999999999999
 30
0
 11
7.5185
 21
2.889999999999999
 31
0
  0
LINE
  8
0
 62
7
 10
7.5185
 20
2.889999999999999
 30
0
 11
7.511750000000001
 21
2.892499999999999
 31
0
  0
LINE
  8
0
 62
7
 10
7.511750000000001
 20
2.892499999999999
 30
0
 11
7.505
 21
2.897499999999999
 31
0
  0
LINE
  8
0
 62
7
 10
7.505
 20
2.897499999999999
 30
0
 11
7.500500000000001
 21
2.904999999999999
 31
0
  0
LINE
  8
0
 62
7
 10
7.500500000000001
 20
2.904999999999999
 30
0
 11
7.498250000000001
 21
2.914999999999999
 31
0
  0
LINE
  8
0
 62
7
 10
7.498250000000001
 20
2.914999999999999
 30
0
 11
7.498250000000001
 21
2.964999999999999
 31
0
  0
LINE
  8
0
 62
7
 10
7.579250000000001
 20
2.964999999999999
 30
0
 11
7.581500000000002
 21
2.975
 31
0
  0
LINE
  8
0
 62
7
 10
7.581500000000002
 20
2.975
 30
0
 11
7.586
 21
2.982499999999999
 31
0
  0
LINE
  8
0
 62
7
 10
7.586
 20
2.982499999999999
 30
0
 11
7.592750000000001
 21
2.987499999999999
 31
0
  0
LINE
  8
0
 62
7
 10
7.592750000000001
 20
2.987499999999999
 30
0
 11
7.599500000000001
 21
2.989999999999999
 31
0
  0
LINE
  8
0
 62
7
 10
7.599500000000001
 20
2.989999999999999
 30
0
 11
7.613000000000001
 21
2.989999999999999
 31
0
  0
LINE
  8
0
 62
7
 10
7.613000000000001
 20
2.989999999999999
 30
0
 11
7.619750000000001
 21
2.987499999999999
 31
0
  0
LINE
  8
0
 62
7
 10
7.619750000000001
 20
2.987499999999999
 30
0
 11
7.626500000000002
 21
2.982499999999999
 31
0
  0
LINE
  8
0
 62
7
 10
7.626500000000002
 20
2.982499999999999
 30
0
 11
7.631
 21
2.975
 31
0
  0
LINE
  8
0
 62
7
 10
7.631
 20
2.975
 30
0
 11
7.63325
 21
2.964999999999999
 31
0
  0
LINE
  8
0
 62
7
 10
7.63325
 20
2.964999999999999
 30
0
 11
7.63325
 21
2.914999999999999
 31
0
  0
LINE
  8
0
 62
7
 10
7.63325
 20
2.914999999999999
 30
0
 11
7.631
 21
2.904999999999999
 31
0
  0
LINE
  8
0
 62
7
 10
7.631
 20
2.904999999999999
 30
0
 11
7.626500000000002
 21
2.897499999999999
 31
0
  0
LINE
  8
0
 62
7
 10
7.626500000000002
 20
2.897499999999999
 30
0
 11
7.619750000000001
 21
2.892499999999999
 31
0
  0
LINE
  8
0
 62
7
 10
7.619750000000001
 20
2.892499999999999
 30
0
 11
7.613000000000001
 21
2.889999999999999
 31
0
  0
LINE
  8
0
 62
7
 10
7.613000000000001
 20
2.889999999999999
 30
0
 11
7.599500000000001
 21
2.889999999999999
 31
0
  0
LINE
  8
0
 62
7
 10
7.599500000000001
 20
2.889999999999999
 30
0
 11
7.592750000000001
 21
2.892499999999999
 31
0
  0
LINE
  8
0
 62
7
 10
7.592750000000001
 20
2.892499999999999
 30
0
 11
7.586
 21
2.897499999999999
 31
0
  0
LINE
  8
0
 62
7
 10
7.586
 20
2.897499999999999
 30
0
 11
7.581500000000002
 21
2.904999999999999
 31
0
  0
LINE
  8
0
 62
7
 10
7.581500000000002
 20
2.904999999999999
 30
0
 11
7.579250000000001
 21
2.914999999999999
 31
0
  0
LINE
  8
0
 62
7
 10
7.579250000000001
 20
2.914999999999999
 30
0
 11
7.579250000000001
 21
2.964999999999999
 31
0
  0
LINE
  8
0
 62
7
 10
7.784000000000002
 20
2.942499999999999
 30
0
 11
7.777250000000001
 21
2.952499999999999
 31
0
  0
LINE
  8
0
 62
7
 10
7.777250000000001
 20
2.952499999999999
 30
0
 11
7.770500000000002
 21
2.9575
 31
0
  0
LINE
  8
0
 62
7
 10
7.770500000000002
 20
2.9575
 30
0
 11
7.763750000000001
 21
2.959999999999999
 31
0
  0
LINE
  8
0
 62
7
 10
7.763750000000001
 20
2.959999999999999
 30
0
 11
7.75475
 21
2.959999999999999
 31
0
  0
LINE
  8
0
 62
7
 10
7.75475
 20
2.959999999999999
 30
0
 11
7.748000000000001
 21
2.9575
 31
0
  0
LINE
  8
0
 62
7
 10
7.748000000000001
 20
2.9575
 30
0
 11
7.741250000000001
 21
2.952499999999999
 31
0
  0
LINE
  8
0
 62
7
 10
7.741250000000001
 20
2.952499999999999
 30
0
 11
7.734500000000001
 21
2.942499999999999
 31
0
  0
LINE
  8
0
 62
7
 10
7.734500000000001
 20
2.942499999999999
 30
0
 11
7.732250000000001
 21
2.934999999999999
 31
0
  0
LINE
  8
0
 62
7
 10
7.732250000000001
 20
2.934999999999999
 30
0
 11
7.732250000000001
 21
2.914999999999999
 31
0
  0
LINE
  8
0
 62
7
 10
7.732250000000001
 20
2.914999999999999
 30
0
 11
7.734500000000001
 21
2.907499999999999
 31
0
  0
LINE
  8
0
 62
7
 10
7.734500000000001
 20
2.907499999999999
 30
0
 11
7.741250000000001
 21
2.897499999999999
 31
0
  0
LINE
  8
0
 62
7
 10
7.741250000000001
 20
2.897499999999999
 30
0
 11
7.748000000000001
 21
2.892499999999999
 31
0
  0
LINE
  8
0
 62
7
 10
7.748000000000001
 20
2.892499999999999
 30
0
 11
7.75475
 21
2.889999999999999
 31
0
  0
LINE
  8
0
 62
7
 10
7.75475
 20
2.889999999999999
 30
0
 11
7.763750000000001
 21
2.889999999999999
 31
0
  0
LINE
  8
0
 62
7
 10
7.763750000000001
 20
2.889999999999999
 30
0
 11
7.770500000000002
 21
2.892499999999999
 31
0
  0
LINE
  8
0
 62
7
 10
7.770500000000002
 20
2.892499999999999
 30
0
 11
7.777250000000001
 21
2.897499999999999
 31
0
  0
LINE
  8
0
 62
7
 10
7.777250000000001
 20
2.897499999999999
 30
0
 11
7.784000000000002
 21
2.907499999999999
 31
0
  0
LINE
  8
0
 62
7
 10
7.8425
 20
2.934999999999999
 30
0
 11
7.8425
 21
2.889999999999999
 31
0
  0
LINE
  8
0
 62
7
 10
7.802
 20
2.959999999999999
 30
0
 11
7.802
 21
2.934999999999999
 31
0
  0
LINE
  8
0
 62
7
 10
7.802
 20
2.889999999999999
 30
0
 11
7.802
 21
2.934999999999999
 31
0
  0
LINE
  8
0
 62
7
 10
7.802
 20
2.934999999999999
 30
0
 11
7.804250000000001
 21
2.947499999999999
 31
0
  0
LINE
  8
0
 62
7
 10
7.804250000000001
 20
2.947499999999999
 30
0
 11
7.806500000000002
 21
2.952499999999999
 31
0
  0
LINE
  8
0
 62
7
 10
7.806500000000002
 20
2.952499999999999
 30
0
 11
7.811
 21
2.9575
 31
0
  0
LINE
  8
0
 62
7
 10
7.811
 20
2.9575
 30
0
 11
7.817750000000001
 21
2.959999999999999
 31
0
  0
LINE
  8
0
 62
7
 10
7.817750000000001
 20
2.959999999999999
 30
0
 11
7.826750000000001
 21
2.959999999999999
 31
0
  0
LINE
  8
0
 62
7
 10
7.826750000000001
 20
2.959999999999999
 30
0
 11
7.833500000000001
 21
2.9575
 31
0
  0
LINE
  8
0
 62
7
 10
7.833500000000001
 20
2.9575
 30
0
 11
7.838000000000001
 21
2.952499999999999
 31
0
  0
LINE
  8
0
 62
7
 10
7.838000000000001
 20
2.952499999999999
 30
0
 11
7.840250000000002
 21
2.947499999999999
 31
0
  0
LINE
  8
0
 62
7
 10
7.840250000000002
 20
2.947499999999999
 30
0
 11
7.8425
 21
2.934999999999999
 31
0
  0
LINE
  8
0
 62
7
 10
7.8425
 20
2.934999999999999
 30
0
 11
7.844750000000001
 21
2.947499999999999
 31
0
  0
LINE
  8
0
 62
7
 10
7.844750000000001
 20
2.947499999999999
 30
0
 11
7.847
 21
2.952499999999999
 31
0
  0
LINE
  8
0
 62
7
 10
7.847
 20
2.952499999999999
 30
0
 11
7.851500000000001
 21
2.9575
 31
0
  0
LINE
  8
0
 62
7
 10
7.851500000000001
 20
2.9575
 30
0
 11
7.85825
 21
2.959999999999999
 31
0
  0
LINE
  8
0
 62
7
 10
7.85825
 20
2.959999999999999
 30
0
 11
7.86725
 21
2.959999999999999
 31
0
  0
LINE
  8
0
 62
7
 10
7.86725
 20
2.959999999999999
 30
0
 11
7.874000000000001
 21
2.9575
 31
0
  0
LINE
  8
0
 62
7
 10
7.8785
 20
2.952499999999999
 30
0
 11
7.874000000000001
 21
2.9575
 31
0
  0
LINE
  8
0
 62
7
 10
7.874000000000001
 20
2.9575
 30
0
 11
7.8785
 21
2.952499999999999
 31
0
  0
LINE
  8
0
 62
7
 10
7.8785
 20
2.952499999999999
 30
0
 11
7.880750000000001
 21
2.947499999999999
 31
0
  0
LINE
  8
0
 62
7
 10
7.880750000000001
 20
2.947499999999999
 30
0
 11
7.883000000000002
 21
2.934999999999999
 31
0
  0
LINE
  8
0
 62
7
 10
7.883000000000002
 20
2.934999999999999
 30
0
 11
7.883000000000002
 21
2.889999999999999
 31
0
  0
ARC
  8
0
 62
7
 10
6.310884118471341
 20
3.635884118471379
 30
0
 40
0.5969999999999924
 50
359.9151601594285
 51
90.08483984358116
  0
ARC
  8
0
 62
7
 10
5.1541158815287
 20
3.635884118471341
 30
0
 40
0.5969999999999952
 50
89.91516015942086
 51
180.0848398384449
  0
CIRCLE
  8
0
 62
7
 10
4.557116536012128
 20
3.25
 30
0
 40
0.0600000000000005
  0
DIMENSION
  8
0
  6
CONTINUOUS
 62
7
  2
*D1
  3
DMST_1
 10
4.04
 20
11.4620756945154
 30
0
 11
5.67490019374894
 21
11.4620756945154
 31
0
 12
0
 22
0
 32
0
 70
0
 13
7.425000000000001
 23
11.2
 33
0
 14
4.039999999999999
 24
11.2
 34
0
 53
0
  0
DIMENSION
  8
0
  6
CONTINUOUS
 62
7
  2
*D2
  3
DMST_2
 10
3.584959581133261
 20
3.25
 30
0
 11
3.584959581133261
 21
3.99620350607506
 31
0
 12
0
 22
0
 32
0
 70
0
 13
3.864999999999998
 23
4.749999999999999
 33
0
 14
3.864999999999998
 24
3.25
 34
0
 50
90
 53
0
  0
DIMENSION
  8
0
  6
CONTINUOUS
 62
7
  2
*D3
  3
DMST_2
 10
4.039999999999999
 20
5.5825439710725
 30
0
 11
5.67490019374894
 21
5.5825439710725
 31
0
 12
0
 22
0
 32
0
 70
0
 13
7.425000000000001
 23
5.269999999999997
 33
0
 14
4.039999999999999
 24
5.269999999999997
 34
0
 53
0
  0
DIMENSION
  8
0
  6
CONTINUOUS
 62
7
  2
*D4
  3
DMST_2
 10
7.89074084326918
 20
4.749999999999999
 30
0
 11
7.89074084326918
 21
4.07174352821779
 31
0
 12
0
 22
0
 32
0
 70
0
 13
7.600000000000001
 23
3.35
 33
0
 14
7.600000000000001
 24
4.749999999999999
 34
0
 50
90
 53
0
  0
INSERT
  8
0
  2
*D0
 10
0
 20
0
 30
0
  0
ENDSEC
  0
EOF
