  0
SECTION
  2
HEADER
  9
$ACADVER
  1
AC1009
  9
$INSBASE
 10
0
 20
0
  9
$EXTMIN
 10
0.4241889854085341
 20
-0.1975000000000009
  9
$EXTMAX
 10
8.056249999999999
 20
8.39095553852267
  9
$LIMMIN
 10
0.4241889854085341
 20
-0.1975000000000009
  9
$LIMMAX
 10
8.056249999999999
 20
8.39095553852267
  9
$VIEWCTR
 10
10
 20
10
  9
$VIEWSIZE
 40
10
  9
$SNAPMODE
 70
0
  9
$SNAPUNIT
 10
1
 20
1
  9
$SNAPBASE
 10
0
 20
0
  9
$SNAPANG
 50
0
  9
$SNAPSTYLE
 70
0
  9
$SNAPISOPAIR
 70
0
  9
$GRIDMODE
 70
0
  9
$GRIDUNIT
 10
0
 20
0
  9
$ORTHOMODE
 70
0
  9
$REGENMODE
 70
1
  9
$FILLMODE
 70
1
  9
$QTEXTMODE
 70
0
  9
$DRAGMODE
 70
2
  9
$LTSCALE
 40
1
  9
$OSMODE
 70
0
  9
$ATTMODE
 70
1
  9
$TEXTSIZE
 40
3.5
  9
$TRACEWID
 40
0.5
  9
$TEXTSTYLE
  7
STANDARD
  9
$CLAYER
  8
0
  9
$CELTYPE
  6
BYLAYER
  9
$CECOLOR
 62
256
  9
$DIMSCALE
 40
1
  9
$DIMASZ
 40
0.18
  9
$DIMEXO
 40
0.0625
  9
$DIMDLI
 40
0.38
  9
$DIMRND
 40
0
  9
$DIMDLE
 40
0
  9
$DIMEXE
 40
0.18
  9
$DIMTP
 40
0
  9
$DIMTM
 40
0
  9
$DIMTXT
 40
0.18
  9
$DIMCEN
 40
0.09
  9
$DIMTSZ
 40
0
  9
$DIMTOL
 70
0
  9
$DIMLIM
 70
0
  9
$DIMTIH
 70
1
  9
$DIMTOH
 70
1
  9
$DIMSE1
 70
0
  9
$DIMSE2
 70
0
  9
$DIMTAD
 70
0
  9
$DIMZIN
 70
0
  9
$DIMBLK
  1

  9
$DIMASO
 70
1
  9
$DIMSHO
 70
1
  9
$DIMPOST
  1

  9
$DIMAPOST
  1

  9
$DIMALT
 70
0
  9
$DIMALTD
 70
2
  9
$DIMALTF
 40
25.4
  9
$DIMLFAC
 40
1
  9
$DIMTOFL
 70
0
  9
$DIMTVP
 40
0
  9
$DIMTIX
 70
0
  9
$DIMSOXD
 70
0
  9
$DIMSAH
 70
0
  9
$DIMBLK1
  1

  9
$DIMBLK2
  1

  9
$DIMSTYLE
  2
*UNNAMED
  9
$DIMCLRD
 70
0
  9
$DIMCLRE
 70
0
  9
$DIMCLRT
 70
0
  9
$DIMTFAC
 40
1
  9
$DIMGAP
 40
0.09
  9
$LUNITS
 70
2
  9
$LUPREC
 70
4
  9
$AXISMODE
 70
0
  9
$AXISUNIT
 10
0
 20
0
  9
$SKETCHINC
 40
0.1
  9
$FILLETRAD
 40
2
  9
$AUNITS
 70
0
  9
$AUPREC
 70
0
  9
$MENU
  1
ACAD
  9
$ELEVATION
 40
0
  9
$THICKNESS
 40
0
  9
$VIEWDIR
 10
0
 20
0
 30
1
  9
$LIMCHECK
 70
0
  9
$BLIPMODE
 70
1
  9
$CHAMFERA
 40
0
  9
$CHAMFERB
 40
0
  9
$FASTZOOM
 70
1
  9
$SKPOLY
 70
0
  9
$ANGBASE
 50
0
  9
$ANGDIR
 70
0
  9
$PDMODE
 70
0
  9
$PDSIZE
 40
0
  9
$PLINEWID
 40
0
  9
$COORDS
 70
2
  0
ENDSEC
  0
SECTION
  2
TABLES
  0
TABLE
  2
DIMSTYLE
 70
2
  0
DIMSTYLE
  2
DMST_1
 70
0
  3

  4

  5

  6

  7

 40
1
 41
0.1
 42
0
 43
0.7
 44
0.2
 45
0
 46
0
 47
0
 48
0
140
0.1
141
0
142
0.1
143
25.4
144
1
145
0
146
1
147
0.2
 71
0
 72
0
 73
0
 74
0
 75
0
 76
0
 77
0
 78
9
170
0
171
2
172
0
173
0
174
0
175
0
176
7
177
7
178
7
  0
DIMSTYLE
  2
DMST_2
 70
0
  3

  4

  5

  6

  7

 40
1
 41
0.1
 42
0
 43
0.7
 44
0.2
 45
0
 46
0
 47
0
 48
0
140
0.1
141
0
142
0.1
143
25.4
144
1
145
0
146
1
147
0.25
 71
0
 72
0
 73
0
 74
0
 75
0
 76
0
 77
0
 78
9
170
0
171
2
172
0
173
0
174
0
175
0
176
7
177
7
178
7
  0
ENDTAB
  0
TABLE
  2
LTYPE
 70
9
  0
LTYPE
  2
CONTINUOUS
 70
64
  3
Solid line
 72
65
 73
0
 40
0
  0
LTYPE
  2
BORDER
 70
64
  3
__ __ . __ __ .
 72
65
 73
6
 40
0.3955209787477546
 49
0.1130059939279299
 49
-0.05650299696396494
 49
0.1130059939279299
 49
-0.05650299696396494
 49
0
 49
-0.05650299696396494
  0
LTYPE
  2
CENTER
 70
64
  3
____ _ ____ _
 72
65
 73
4
 40
0.4520239757117195
 49
0.2825149848198247
 49
-0.05650299696396494
 49
0.05650299696396494
 49
-0.05650299696396494
  0
LTYPE
  2
DASHDOT
 70
64
  3
__ . __ . __ .
 72
65
 73
4
 40
0.2260119878558598
 49
0.1130059939279299
 49
-0.05650299696396494
 49
0
 49
-0.05650299696396494
  0
LTYPE
  2
DASHED
 70
64
  3
__ __ __ __ __
 72
65
 73
2
 40
0.1695089908918948
 49
0.1130059939279299
 49
-0.05650299696396494
  0
LTYPE
  2
DIVIDE
 70
64
  3
__ . . __ . . 
 72
65
 73
6
 40
0.2825149848198247
 49
0.1130059939279299
 49
-0.05650299696396494
 49
0
 49
-0.05650299696396494
 49
0
 49
-0.05650299696396494
  0
LTYPE
  2
DOT
 70
64
  3
..............
 72
65
 73
4
 40
0.1130059939279299
 49
0
 49
-0.05650299696396494
 49
0
 49
-0.05650299696396494
  0
LTYPE
  2
HIDDEN
 70
64
  3
_ _ _ _ _ _ _
 72
65
 73
2
 40
0.08475449544594742
 49
0.05650299696396494
 49
-0.02825149848198247
  0
LTYPE
  2
PHANTOM
 70
64
  3
_____ _ _ _____ _ _ 
 72
65
 73
6
 40
0.5650299696396495
 49
0.2825149848198247
 49
-0.05650299696396494
 49
0.05650299696396494
 49
-0.05650299696396494
 49
0.05650299696396494
 49
-0.05650299696396494
  0
ENDTAB
  0
TABLE
  2
LAYER
 70
2
  0
LAYER
  2
0
 70
0
 62
7
  6
CONTINUOUS
  0
ENDTAB
  0
TABLE
  2
STYLE
 70
4
  0
STYLE
  2
STANDARD
 70
0
 40
0
 41
1
 50
0
 71
0
 42
3.5
  3
txt
  4

  0
STYLE
  2
SIMPLEX
 70
0
 40
0
 41
1
 50
0
 71
0
 42
3.5
  3
simplex
  4

  0
STYLE
  2
COMPLEX
 70
0
 40
0
 41
1
 50
0
 71
0
 42
3.5
  3
complex
  4

  0
STYLE
  2
ITALIC
 70
0
 40
0
 41
1
 50
0
 71
0
 42
3.5
  3
italic
  4

  0
ENDTAB
  0
TABLE
  2
VIEW
 70
0
  0
ENDTAB
  0
ENDSEC
  0
SECTION
  2
BLOCKS
  0
BLOCK
  8
0
  2
*X0
 70
1
 10
0
 20
0
 30
0
  0
LINE
  8
0
 62
7
 10
0.9380573644146606
 20
4.862499999999999
 30
0
 11
1.08125
 21
5.005692635585339
 31
0
  0
LINE
  8
0
 62
7
 10
0.9062499999999996
 20
4.93675865276332
 30
0
 11
0.9819913472366797
 21
5.012499999999999
 31
0
  0
LINE
  8
0
 62
7
 10
1.044123381592643
 20
4.862499999999999
 30
0
 11
1.081249999999999
 21
4.899626618407355
 31
0
  0
ENDBLK
  8
0
  0
BLOCK
  8
0
  2
*X1
 70
1
 10
0
 20
0
 30
0
  0
LINE
  8
0
 62
7
 10
0.90625
 20
7.588409082212868
 30
0
 11
1.080340917787126
 21
7.762499999999999
 31
0
  0
LINE
  8
0
 62
7
 10
0.90625
 20
7.376277047856904
 30
0
 11
1.081249999999999
 21
7.551277047856903
 31
0
  0
LINE
  8
0
 62
7
 10
0.90625
 20
7.16414501350094
 30
0
 11
1.081249999999999
 21
7.339145013500939
 31
0
  0
LINE
  8
0
 62
7
 10
0.90625
 20
6.952012979144977
 30
0
 11
1.081249999999999
 21
7.127012979144975
 31
0
  0
LINE
  8
0
 62
7
 10
0.90625
 20
6.739880944789013
 30
0
 11
1.081249999999999
 21
6.914880944789012
 31
0
  0
LINE
  8
0
 62
7
 10
0.90625
 20
6.527748910433049
 30
0
 11
1.081249999999999
 21
6.702748910433048
 31
0
  0
LINE
  8
0
 62
7
 10
0.90625
 20
6.315616876077085
 30
0
 11
1.081249999999999
 21
6.490616876077084
 31
0
  0
LINE
  8
0
 62
7
 10
0.90625
 20
6.103484841721121
 30
0
 11
1.081249999999999
 21
6.27848484172112
 31
0
  0
LINE
  8
0
 62
7
 10
0.90625
 20
5.891352807365157
 30
0
 11
1.081249999999999
 21
6.066352807365156
 31
0
  0
LINE
  8
0
 62
7
 10
0.90625
 20
5.679220773009193
 30
0
 11
1.081249999999999
 21
5.854220773009192
 31
0
  0
LINE
  8
0
 62
7
 10
0.90625
 20
5.46708873865323
 30
0
 11
1.081249999999999
 21
5.642088738653229
 31
0
  0
LINE
  8
0
 62
7
 10
0.90625
 20
5.254956704297266
 30
0
 11
1.081249999999999
 21
5.429956704297265
 31
0
  0
LINE
  8
0
 62
7
 10
1.075925330058697
 20
5.212499999999999
 30
0
 11
1.081249999999999
 21
5.217824669941301
 31
0
  0
LINE
  8
0
 62
7
 10
0.90625
 20
7.694475099390851
 30
0
 11
0.974274900609144
 21
7.762499999999999
 31
0
  0
LINE
  8
0
 62
7
 10
0.90625
 20
7.482343065034887
 30
0
 11
1.08125
 21
7.657343065034886
 31
0
  0
LINE
  8
0
 62
7
 10
0.90625
 20
7.270211030678923
 30
0
 11
1.08125
 21
7.445211030678922
 31
0
  0
LINE
  8
0
 62
7
 10
0.90625
 20
7.058078996322959
 30
0
 11
1.08125
 21
7.233078996322958
 31
0
  0
LINE
  8
0
 62
7
 10
0.90625
 20
6.845946961966995
 30
0
 11
1.08125
 21
7.020946961966994
 31
0
  0
LINE
  8
0
 62
7
 10
0.90625
 20
6.633814927611032
 30
0
 11
1.08125
 21
6.808814927611031
 31
0
  0
LINE
  8
0
 62
7
 10
0.90625
 20
6.421682893255068
 30
0
 11
1.08125
 21
6.596682893255067
 31
0
  0
LINE
  8
0
 62
7
 10
0.90625
 20
6.209550858899104
 30
0
 11
1.08125
 21
6.384550858899103
 31
0
  0
LINE
  8
0
 62
7
 10
0.90625
 20
5.99741882454314
 30
0
 11
1.08125
 21
6.172418824543139
 31
0
  0
LINE
  8
0
 62
7
 10
0.90625
 20
5.785286790187176
 30
0
 11
1.08125
 21
5.960286790187175
 31
0
  0
LINE
  8
0
 62
7
 10
0.90625
 20
5.573154755831212
 30
0
 11
1.08125
 21
5.748154755831211
 31
0
  0
LINE
  8
0
 62
7
 10
0.90625
 20
5.361022721475249
 30
0
 11
1.08125
 21
5.536022721475248
 31
0
  0
LINE
  8
0
 62
7
 10
0.9698593128807147
 20
5.212499999999999
 30
0
 11
1.08125
 21
5.323890687119284
 31
0
  0
ENDBLK
  8
0
  0
BLOCK
  8
0
  2
*X2
 70
1
 10
0
 20
0
 30
0
  0
LINE
  8
0
 62
7
 10
0.9062499999999996
 20
8.012673150924801
 30
0
 11
1.006076849075197
 21
8.112499999999999
 31
0
  0
LINE
  8
0
 62
7
 10
1.068208883431162
 20
7.962499999999999
 30
0
 11
1.08125
 21
7.975541116568836
 31
0
  0
LINE
  8
0
 62
7
 10
0.9621428662531795
 20
7.962499999999999
 30
0
 11
1.081249999999999
 21
8.081607133746818
 31
0
  0
ENDBLK
  8
0
  0
BLOCK
  8
0
  2
*X3
 70
1
 10
0
 20
0
 30
0
  0
LINE
  8
0
 62
7
 10
4.591249999999998
 20
4.909448051533943
 30
0
 11
4.694301948466054
 21
5.012499999999999
 31
0
  0
LINE
  8
0
 62
7
 10
4.756433982822018
 20
4.862499999999999
 30
0
 11
4.766249999999999
 21
4.87231601717798
 31
0
  0
LINE
  8
0
 62
7
 10
4.650367965644036
 20
4.862499999999999
 30
0
 11
4.766249999999999
 21
4.978382034355962
 31
0
  0
ENDBLK
  8
0
  0
BLOCK
  8
0
  2
*X4
 70
1
 10
0
 20
0
 30
0
  0
LINE
  8
0
 62
7
 10
4.591249999999998
 20
7.667164498161474
 30
0
 11
4.68658550183852
 21
7.762500000000001
 31
0
  0
LINE
  8
0
 62
7
 10
4.591249999999998
 20
7.455032463805511
 30
0
 11
4.766249999999999
 21
7.630032463805512
 31
0
  0
LINE
  8
0
 62
7
 10
4.591249999999998
 20
7.242900429449547
 30
0
 11
4.766249999999999
 21
7.417900429449548
 31
0
  0
LINE
  8
0
 62
7
 10
4.591249999999998
 20
7.030768395093583
 30
0
 11
4.766249999999999
 21
7.205768395093584
 31
0
  0
LINE
  8
0
 62
7
 10
4.591249999999998
 20
6.818636360737619
 30
0
 11
4.766249999999999
 21
6.993636360737621
 31
0
  0
LINE
  8
0
 62
7
 10
4.591249999999998
 20
6.606504326381655
 30
0
 11
4.766249999999999
 21
6.781504326381657
 31
0
  0
LINE
  8
0
 62
7
 10
4.591249999999998
 20
6.394372292025691
 30
0
 11
4.766249999999999
 21
6.569372292025693
 31
0
  0
LINE
  8
0
 62
7
 10
4.591249999999998
 20
6.182240257669728
 30
0
 11
4.766249999999999
 21
6.357240257669729
 31
0
  0
LINE
  8
0
 62
7
 10
4.591249999999998
 20
5.970108223313764
 30
0
 11
4.766249999999999
 21
6.145108223313765
 31
0
  0
LINE
  8
0
 62
7
 10
4.591249999999998
 20
5.7579761889578
 30
0
 11
4.766249999999999
 21
5.932976188957801
 31
0
  0
LINE
  8
0
 62
7
 10
4.591249999999998
 20
5.545844154601836
 30
0
 11
4.766249999999999
 21
5.720844154601838
 31
0
  0
LINE
  8
0
 62
7
 10
4.591249999999998
 20
5.333712120245872
 30
0
 11
4.766249999999999
 21
5.508712120245874
 31
0
  0
LINE
  8
0
 62
7
 10
4.682169914110089
 20
5.212499999999999
 30
0
 11
4.766249999999999
 21
5.29658008588991
 31
0
  0
LINE
  8
0
 62
7
 10
4.591249999999998
 20
7.561098480983492
 30
0
 11
4.766249999999999
 21
7.736098480983494
 31
0
  0
LINE
  8
0
 62
7
 10
4.591249999999998
 20
7.348966446627529
 30
0
 11
4.766249999999999
 21
7.52396644662753
 31
0
  0
LINE
  8
0
 62
7
 10
4.591249999999998
 20
7.136834412271565
 30
0
 11
4.766249999999999
 21
7.311834412271566
 31
0
  0
LINE
  8
0
 62
7
 10
4.591249999999998
 20
6.924702377915601
 30
0
 11
4.766249999999999
 21
7.099702377915603
 31
0
  0
LINE
  8
0
 62
7
 10
4.591249999999998
 20
6.712570343559637
 30
0
 11
4.766249999999999
 21
6.887570343559639
 31
0
  0
LINE
  8
0
 62
7
 10
4.591249999999998
 20
6.500438309203673
 30
0
 11
4.766249999999999
 21
6.675438309203675
 31
0
  0
LINE
  8
0
 62
7
 10
4.591249999999998
 20
6.288306274847709
 30
0
 11
4.766249999999999
 21
6.463306274847711
 31
0
  0
LINE
  8
0
 62
7
 10
4.591249999999998
 20
6.076174240491746
 30
0
 11
4.766249999999999
 21
6.251174240491747
 31
0
  0
LINE
  8
0
 62
7
 10
4.591249999999998
 20
5.864042206135782
 30
0
 11
4.766249999999999
 21
6.039042206135783
 31
0
  0
LINE
  8
0
 62
7
 10
4.591249999999998
 20
5.651910171779818
 30
0
 11
4.766249999999999
 21
5.82691017177982
 31
0
  0
LINE
  8
0
 62
7
 10
4.591249999999998
 20
5.439778137423854
 30
0
 11
4.766249999999999
 21
5.614778137423856
 31
0
  0
LINE
  8
0
 62
7
 10
4.591249999999998
 20
5.22764610306789
 30
0
 11
4.766249999999999
 21
5.402646103067892
 31
0
  0
ENDBLK
  8
0
  0
BLOCK
  8
0
  2
*X5
 70
1
 10
0
 20
0
 30
0
  0
LINE
  8
0
 62
7
 10
4.591249999999997
 20
8.091428566873407
 30
0
 11
4.612321433126588
 21
8.112499999999997
 31
0
  0
LINE
  8
0
 62
7
 10
4.674453467482554
 20
7.962499999999999
 30
0
 11
4.766249999999998
 21
8.054296532517442
 31
0
  0
LINE
  8
0
 62
7
 10
4.591249999999997
 20
7.985362549695424
 30
0
 11
4.718387450304572
 21
8.112499999999999
 31
0
  0
ENDBLK
  8
0
  0
BLOCK
  8
0
  2
*X6
 70
1
 10
0
 20
0
 30
0
  0
LINE
  8
0
 62
7
  6
DASHED
 10
0.7562500000000001
 20
5.104956704297267
 30
0
 11
0.8637932957027341
 21
5.212499999999999
 31
0
  0
LINE
  8
0
 62
7
  6
DASHED
 10
0.8759253300586995
 20
5.0125
 30
0
 11
1.075925330058698
 21
5.212499999999999
 31
0
  0
LINE
  8
0
 62
7
  6
DASHED
 10
1.088057364414664
 20
5.0125
 30
0
 11
1.288057364414663
 21
5.212499999999999
 31
0
  0
LINE
  8
0
 62
7
  6
DASHED
 10
1.300189398770628
 20
5.0125
 30
0
 11
1.500189398770627
 21
5.212499999999999
 31
0
  0
LINE
  8
0
 62
7
  6
DASHED
 10
1.512321433126592
 20
5.0125
 30
0
 11
1.712321433126591
 21
5.212499999999999
 31
0
  0
LINE
  8
0
 62
7
  6
DASHED
 10
1.724453467482557
 20
5.0125
 30
0
 11
1.924453467482556
 21
5.212499999999999
 31
0
  0
LINE
  8
0
 62
7
  6
DASHED
 10
1.936585501838521
 20
5.0125
 30
0
 11
2.13658550183852
 21
5.212499999999999
 31
0
  0
LINE
  8
0
 62
7
  6
DASHED
 10
2.148717536194485
 20
5.0125
 30
0
 11
2.348717536194484
 21
5.212499999999999
 31
0
  0
LINE
  8
0
 62
7
  6
DASHED
 10
2.36084957055045
 20
5.0125
 30
0
 11
2.560849570550448
 21
5.212499999999999
 31
0
  0
LINE
  8
0
 62
7
  6
DASHED
 10
2.572981604906414
 20
5.0125
 30
0
 11
2.772981604906413
 21
5.212499999999999
 31
0
  0
LINE
  8
0
 62
7
  6
DASHED
 10
2.785113639262378
 20
5.0125
 30
0
 11
2.985113639262377
 21
5.212499999999999
 31
0
  0
LINE
  8
0
 62
7
  6
DASHED
 10
2.997245673618342
 20
5.0125
 30
0
 11
3.197245673618341
 21
5.212499999999999
 31
0
  0
LINE
  8
0
 62
7
  6
DASHED
 10
3.209377707974307
 20
5.0125
 30
0
 11
3.409377707974306
 21
5.212499999999999
 31
0
  0
LINE
  8
0
 62
7
  6
DASHED
 10
3.421509742330271
 20
5.0125
 30
0
 11
3.62150974233027
 21
5.212499999999999
 31
0
  0
LINE
  8
0
 62
7
  6
DASHED
 10
3.633641776686235
 20
5.0125
 30
0
 11
3.833641776686234
 21
5.212499999999999
 31
0
  0
LINE
  8
0
 62
7
  6
DASHED
 10
3.8457738110422
 20
5.0125
 30
0
 11
4.045773811042198
 21
5.212499999999999
 31
0
  0
LINE
  8
0
 62
7
  6
DASHED
 10
4.057905845398164
 20
5.0125
 30
0
 11
4.257905845398162
 21
5.212499999999999
 31
0
  0
LINE
  8
0
 62
7
  6
DASHED
 10
4.270037879754128
 20
5.0125
 30
0
 11
4.470037879754126
 21
5.212499999999999
 31
0
  0
LINE
  8
0
 62
7
  6
DASHED
 10
4.482169914110091
 20
5.0125
 30
0
 11
4.68216991411009
 21
5.212499999999999
 31
0
  0
LINE
  8
0
 62
7
  6
DASHED
 10
4.694301948466055
 20
5.0125
 30
0
 11
4.894301948466054
 21
5.212499999999999
 31
0
  0
LINE
  8
0
 62
7
  6
DASHED
 10
4.906433982822019
 20
5.0125
 30
0
 11
4.916249999999998
 21
5.022316017177979
 31
0
  0
LINE
  8
0
 62
7
 10
0.7562500000000001
 20
5.211022721475249
 30
0
 11
0.7577272785247517
 21
5.212499999999999
 31
0
  0
LINE
  8
0
 62
7
 10
0.7698593128807172
 20
5.0125
 30
0
 11
0.969859312880716
 21
5.212499999999999
 31
0
  0
LINE
  8
0
 62
7
 10
0.9819913472366815
 20
5.0125
 30
0
 11
1.18199134723668
 21
5.212499999999999
 31
0
  0
LINE
  8
0
 62
7
 10
1.194123381592646
 20
5.0125
 30
0
 11
1.394123381592645
 21
5.212499999999999
 31
0
  0
LINE
  8
0
 62
7
 10
1.40625541594861
 20
5.0125
 30
0
 11
1.606255415948609
 21
5.212499999999999
 31
0
  0
LINE
  8
0
 62
7
 10
1.618387450304574
 20
5.0125
 30
0
 11
1.818387450304573
 21
5.212499999999999
 31
0
  0
LINE
  8
0
 62
7
 10
1.830519484660539
 20
5.0125
 30
0
 11
2.030519484660537
 21
5.212499999999999
 31
0
  0
LINE
  8
0
 62
7
 10
2.042651519016503
 20
5.0125
 30
0
 11
2.242651519016502
 21
5.212499999999999
 31
0
  0
LINE
  8
0
 62
7
 10
2.254783553372467
 20
5.0125
 30
0
 11
2.454783553372466
 21
5.212499999999999
 31
0
  0
LINE
  8
0
 62
7
 10
2.466915587728431
 20
5.0125
 30
0
 11
2.66691558772843
 21
5.212499999999999
 31
0
  0
LINE
  8
0
 62
7
 10
2.679047622084396
 20
5.0125
 30
0
 11
2.879047622084395
 21
5.212499999999999
 31
0
  0
LINE
  8
0
 62
7
 10
2.89117965644036
 20
5.0125
 30
0
 11
3.091179656440359
 21
5.212499999999999
 31
0
  0
LINE
  8
0
 62
7
 10
3.103311690796324
 20
5.0125
 30
0
 11
3.303311690796323
 21
5.212499999999999
 31
0
  0
LINE
  8
0
 62
7
 10
3.315443725152289
 20
5.0125
 30
0
 11
3.515443725152287
 21
5.212499999999999
 31
0
  0
LINE
  8
0
 62
7
 10
3.527575759508253
 20
5.0125
 30
0
 11
3.727575759508252
 21
5.212499999999999
 31
0
  0
LINE
  8
0
 62
7
 10
3.739707793864217
 20
5.0125
 30
0
 11
3.939707793864216
 21
5.212499999999999
 31
0
  0
LINE
  8
0
 62
7
 10
3.951839828220181
 20
5.0125
 30
0
 11
4.15183982822018
 21
5.212499999999999
 31
0
  0
LINE
  8
0
 62
7
 10
4.163971862576146
 20
5.0125
 30
0
 11
4.363971862576144
 21
5.212499999999999
 31
0
  0
LINE
  8
0
 62
7
 10
4.37610389693211
 20
5.0125
 30
0
 11
4.576103896932108
 21
5.212499999999999
 31
0
  0
LINE
  8
0
 62
7
 10
4.588235931288073
 20
5.0125
 30
0
 11
4.788235931288072
 21
5.212499999999999
 31
0
  0
LINE
  8
0
 62
7
 10
4.800367965644037
 20
5.0125
 30
0
 11
4.916249999999999
 21
5.128382034355962
 31
0
  0
ENDBLK
  8
0
  0
BLOCK
  8
0
  2
*X7
 70
1
 10
0
 20
0
 30
0
  0
LINE
  8
0
 62
7
  6
DASHED
 10
0.7562500000000005
 20
7.862673150924802
 30
0
 11
0.8560768490751989
 21
7.962499999999999
 31
0
  0
LINE
  8
0
 62
7
  6
DASHED
 10
0.8682088834311634
 20
7.762499999999999
 30
0
 11
1.068208883431163
 21
7.962499999999999
 31
0
  0
LINE
  8
0
 62
7
  6
DASHED
 10
1.080340917787128
 20
7.762499999999999
 30
0
 11
1.280340917787127
 21
7.962499999999999
 31
0
  0
LINE
  8
0
 62
7
  6
DASHED
 10
1.292472952143092
 20
7.762499999999999
 30
0
 11
1.492472952143092
 21
7.962499999999999
 31
0
  0
LINE
  8
0
 62
7
  6
DASHED
 10
1.504604986499056
 20
7.762499999999999
 30
0
 11
1.704604986499056
 21
7.962499999999999
 31
0
  0
LINE
  8
0
 62
7
  6
DASHED
 10
1.716737020855021
 20
7.762499999999999
 30
0
 11
1.91673702085502
 21
7.962499999999999
 31
0
  0
LINE
  8
0
 62
7
  6
DASHED
 10
1.928869055210985
 20
7.762499999999999
 30
0
 11
2.128869055210985
 21
7.962499999999999
 31
0
  0
LINE
  8
0
 62
7
  6
DASHED
 10
2.141001089566949
 20
7.762499999999999
 30
0
 11
2.341001089566949
 21
7.962499999999999
 31
0
  0
LINE
  8
0
 62
7
  6
DASHED
 10
2.353133123922913
 20
7.762499999999999
 30
0
 11
2.553133123922913
 21
7.962499999999999
 31
0
  0
LINE
  8
0
 62
7
  6
DASHED
 10
2.565265158278878
 20
7.762499999999999
 30
0
 11
2.765265158278877
 21
7.962499999999999
 31
0
  0
LINE
  8
0
 62
7
  6
DASHED
 10
2.777397192634842
 20
7.762499999999999
 30
0
 11
2.977397192634842
 21
7.962499999999999
 31
0
  0
LINE
  8
0
 62
7
  6
DASHED
 10
2.989529226990806
 20
7.762499999999999
 30
0
 11
3.189529226990806
 21
7.962499999999999
 31
0
  0
LINE
  8
0
 62
7
  6
DASHED
 10
3.201661261346771
 20
7.762499999999999
 30
0
 11
3.40166126134677
 21
7.962499999999999
 31
0
  0
LINE
  8
0
 62
7
  6
DASHED
 10
3.413793295702735
 20
7.762499999999999
 30
0
 11
3.613793295702735
 21
7.962499999999999
 31
0
  0
LINE
  8
0
 62
7
  6
DASHED
 10
3.625925330058699
 20
7.762499999999999
 30
0
 11
3.825925330058699
 21
7.962499999999999
 31
0
  0
LINE
  8
0
 62
7
  6
DASHED
 10
3.838057364414663
 20
7.762499999999999
 30
0
 11
4.038057364414663
 21
7.962499999999999
 31
0
  0
LINE
  8
0
 62
7
  6
DASHED
 10
4.050189398770628
 20
7.762499999999999
 30
0
 11
4.250189398770627
 21
7.962499999999999
 31
0
  0
LINE
  8
0
 62
7
  6
DASHED
 10
4.262321433126592
 20
7.762499999999999
 30
0
 11
4.462321433126591
 21
7.962499999999999
 31
0
  0
LINE
  8
0
 62
7
  6
DASHED
 10
4.474453467482555
 20
7.762499999999999
 30
0
 11
4.674453467482555
 21
7.962499999999999
 31
0
  0
LINE
  8
0
 62
7
  6
DASHED
 10
4.686585501838519
 20
7.762499999999999
 30
0
 11
4.886585501838518
 21
7.962499999999999
 31
0
  0
LINE
  8
0
 62
7
  6
DASHED
 10
4.898717536194483
 20
7.762499999999999
 30
0
 11
4.916249999999999
 21
7.780032463805515
 31
0
  0
LINE
  8
0
 62
7
 10
0.7621428662531819
 20
7.7625
 30
0
 11
0.9621428662531799
 21
7.962499999999999
 31
0
  0
LINE
  8
0
 62
7
 10
0.9742749006091462
 20
7.7625
 30
0
 11
1.174274900609144
 21
7.962499999999999
 31
0
  0
LINE
  8
0
 62
7
 10
1.186406934965111
 20
7.7625
 30
0
 11
1.386406934965108
 21
7.962499999999999
 31
0
  0
LINE
  8
0
 62
7
 10
1.398538969321075
 20
7.7625
 30
0
 11
1.598538969321073
 21
7.962499999999999
 31
0
  0
LINE
  8
0
 62
7
 10
1.610671003677039
 20
7.7625
 30
0
 11
1.810671003677037
 21
7.962499999999999
 31
0
  0
LINE
  8
0
 62
7
 10
1.822803038033003
 20
7.7625
 30
0
 11
2.022803038033001
 21
7.962499999999999
 31
0
  0
LINE
  8
0
 62
7
 10
2.034935072388968
 20
7.7625
 30
0
 11
2.234935072388966
 21
7.962499999999999
 31
0
  0
LINE
  8
0
 62
7
 10
2.247067106744932
 20
7.7625
 30
0
 11
2.44706710674493
 21
7.962499999999999
 31
0
  0
LINE
  8
0
 62
7
 10
2.459199141100896
 20
7.7625
 30
0
 11
2.659199141100894
 21
7.962499999999999
 31
0
  0
LINE
  8
0
 62
7
 10
2.67133117545686
 20
7.7625
 30
0
 11
2.871331175456858
 21
7.962499999999999
 31
0
  0
LINE
  8
0
 62
7
 10
2.883463209812825
 20
7.7625
 30
0
 11
3.083463209812823
 21
7.962499999999999
 31
0
  0
LINE
  8
0
 62
7
 10
3.095595244168789
 20
7.7625
 30
0
 11
3.295595244168787
 21
7.962499999999999
 31
0
  0
LINE
  8
0
 62
7
 10
3.307727278524753
 20
7.7625
 30
0
 11
3.507727278524751
 21
7.962499999999999
 31
0
  0
LINE
  8
0
 62
7
 10
3.519859312880718
 20
7.7625
 30
0
 11
3.719859312880716
 21
7.962499999999999
 31
0
  0
LINE
  8
0
 62
7
 10
3.731991347236682
 20
7.7625
 30
0
 11
3.93199134723668
 21
7.962499999999999
 31
0
  0
LINE
  8
0
 62
7
 10
3.944123381592646
 20
7.7625
 30
0
 11
4.144123381592644
 21
7.962499999999999
 31
0
  0
LINE
  8
0
 62
7
 10
4.15625541594861
 20
7.7625
 30
0
 11
4.356255415948608
 21
7.962499999999999
 31
0
  0
LINE
  8
0
 62
7
 10
4.368387450304574
 20
7.7625
 30
0
 11
4.568387450304572
 21
7.962499999999999
 31
0
  0
LINE
  8
0
 62
7
 10
4.580519484660538
 20
7.7625
 30
0
 11
4.780519484660536
 21
7.962499999999999
 31
0
  0
LINE
  8
0
 62
7
 10
4.792651519016502
 20
7.7625
 30
0
 11
4.916249999999998
 21
7.886098480983496
 31
0
  0
ENDBLK
  8
0
  0
BLOCK
  8
0
  2
*X8
 70
1
 10
0
 20
0
 30
0
  0
LINE
  8
0
 62
7
 10
7.766249999999999
 20
4.902467536194481
 30
0
 11
7.876282463805517
 21
5.012499999999999
 31
0
  0
LINE
  8
0
 62
7
 10
7.938414498161481
 20
4.862499999999999
 30
0
 11
8.006249999999998
 21
4.930335501838517
 31
0
  0
LINE
  8
0
 62
7
 10
7.766249999999999
 20
5.008533553372463
 30
0
 11
7.770216446627535
 21
5.012499999999999
 31
0
  0
LINE
  8
0
 62
7
 10
7.832348480983498
 20
4.862499999999998
 30
0
 11
7.982348480983499
 21
5.012499999999999
 31
0
  0
ENDBLK
  8
0
  0
BLOCK
  8
0
  2
*X9
 70
1
 10
0
 20
0
 30
0
  0
LINE
  8
0
 62
7
 10
7.76625
 20
7.660183982822012
 30
0
 11
7.868566017177982
 21
7.762499999999999
 31
0
  0
LINE
  8
0
 62
7
 10
7.76625
 20
7.448051948466048
 30
0
 11
8.006249999999998
 21
7.688051948466047
 31
0
  0
LINE
  8
0
 62
7
 10
7.76625
 20
7.235919914110085
 30
0
 11
8.006249999999998
 21
7.475919914110083
 31
0
  0
LINE
  8
0
 62
7
 10
7.76625
 20
7.023787879754121
 30
0
 11
8.006249999999998
 21
7.263787879754119
 31
0
  0
LINE
  8
0
 62
7
 10
7.76625
 20
6.811655845398157
 30
0
 11
8.006249999999998
 21
7.051655845398155
 31
0
  0
LINE
  8
0
 62
7
 10
7.76625
 20
6.599523811042193
 30
0
 11
8.006249999999998
 21
6.839523811042191
 31
0
  0
LINE
  8
0
 62
7
 10
7.76625
 20
6.387391776686229
 30
0
 11
8.006249999999998
 21
6.627391776686228
 31
0
  0
LINE
  8
0
 62
7
 10
7.76625
 20
6.175259742330265
 30
0
 11
8.006249999999998
 21
6.415259742330264
 31
0
  0
LINE
  8
0
 62
7
 10
7.76625
 20
5.963127707974301
 30
0
 11
8.006249999999998
 21
6.2031277079743
 31
0
  0
LINE
  8
0
 62
7
 10
7.76625
 20
5.750995673618338
 30
0
 11
8.006249999999998
 21
5.990995673618336
 31
0
  0
LINE
  8
0
 62
7
 10
7.76625
 20
5.538863639262374
 30
0
 11
8.006249999999998
 21
5.778863639262372
 31
0
  0
LINE
  8
0
 62
7
 10
7.76625
 20
5.32673160490641
 30
0
 11
8.006249999999998
 21
5.566731604906408
 31
0
  0
LINE
  8
0
 62
7
 10
7.864150429449552
 20
5.212499999999999
 30
0
 11
8.006249999999998
 21
5.354599570550445
 31
0
  0
LINE
  8
0
 62
7
 10
7.766249999999999
 20
7.554117965644029
 30
0
 11
7.974632034355964
 21
7.762499999999999
 31
0
  0
LINE
  8
0
 62
7
 10
7.766249999999999
 20
7.341985931288066
 30
0
 11
8.00625
 21
7.581985931288065
 31
0
  0
LINE
  8
0
 62
7
 10
7.766249999999999
 20
7.129853896932102
 30
0
 11
8.00625
 21
7.369853896932101
 31
0
  0
LINE
  8
0
 62
7
 10
7.766249999999999
 20
6.917721862576138
 30
0
 11
8.00625
 21
7.157721862576137
 31
0
  0
LINE
  8
0
 62
7
 10
7.766249999999999
 20
6.705589828220174
 30
0
 11
8.00625
 21
6.945589828220173
 31
0
  0
LINE
  8
0
 62
7
 10
7.766249999999999
 20
6.49345779386421
 30
0
 11
8.00625
 21
6.73345779386421
 31
0
  0
LINE
  8
0
 62
7
 10
7.766249999999999
 20
6.281325759508246
 30
0
 11
8.00625
 21
6.521325759508246
 31
0
  0
LINE
  8
0
 62
7
 10
7.766249999999999
 20
6.069193725152283
 30
0
 11
8.00625
 21
6.309193725152282
 31
0
  0
LINE
  8
0
 62
7
 10
7.766249999999999
 20
5.857061690796319
 30
0
 11
8.00625
 21
6.097061690796318
 31
0
  0
LINE
  8
0
 62
7
 10
7.766249999999999
 20
5.644929656440355
 30
0
 11
8.00625
 21
5.884929656440354
 31
0
  0
LINE
  8
0
 62
7
 10
7.766249999999999
 20
5.432797622084391
 30
0
 11
8.00625
 21
5.67279762208439
 31
0
  0
LINE
  8
0
 62
7
 10
7.766249999999999
 20
5.220665587728427
 30
0
 11
8.00625
 21
5.460665587728426
 31
0
  0
LINE
  8
0
 62
7
 10
7.970216446627535
 20
5.212499999999998
 30
0
 11
8.00625
 21
5.248533553372463
 31
0
  0
ENDBLK
  8
0
  0
BLOCK
  8
0
  2
*X10
 70
1
 10
0
 20
0
 30
0
  0
LINE
  8
0
 62
7
 10
7.766249999999999
 20
8.084448051533943
 30
0
 11
7.794301948466054
 21
8.112499999999999
 31
0
  0
LINE
  8
0
 62
7
 10
7.856433982822018
 20
7.962499999999999
 30
0
 11
8.00625
 21
8.112316017177983
 31
0
  0
LINE
  8
0
 62
7
 10
7.766249999999999
 20
7.978382034355961
 30
0
 11
7.900367965644035
 21
8.112499999999999
 31
0
  0
LINE
  8
0
 62
7
 10
7.962499999999999
 20
7.962499999999998
 30
0
 11
8.00625
 21
8.00625
 31
0
  0
ENDBLK
  8
0
  0
BLOCK
  8
0
  2
*X11
 70
1
 10
0
 20
0
 30
0
  0
LINE
  8
0
 62
7
  6
DASHED
 10
6.06625
 20
5.11165584539816
 30
0
 11
6.167094154601838
 21
5.212499999999998
 31
0
  0
LINE
  8
0
 62
7
  6
DASHED
 10
6.179226188957803
 20
5.012499999999999
 30
0
 11
6.366249999999999
 21
5.199523811042195
 31
0
  0
LINE
  8
0
 62
7
 10
6.073160171779821
 20
5.012499999999999
 30
0
 11
6.27316017177982
 21
5.212499999999999
 31
0
  0
LINE
  8
0
 62
7
 10
6.285292206135785
 20
5.012499999999999
 30
0
 11
6.36625
 21
5.093457793864214
 31
0
  0
ENDBLK
  8
0
  0
BLOCK
  8
0
  2
*X12
 70
1
 10
0
 20
0
 30
0
  0
LINE
  8
0
 62
7
  6
DASHED
 10
6.06625
 20
7.869372292025695
 30
0
 11
6.159377707974302
 21
7.962499999999998
 31
0
  0
LINE
  8
0
 62
7
  6
DASHED
 10
6.171509742330269
 20
7.7625
 30
0
 11
6.36625
 21
7.957240257669731
 31
0
  0
LINE
  8
0
 62
7
 10
6.06625
 20
7.763306274847714
 30
0
 11
6.265443725152285
 21
7.962499999999999
 31
0
  0
LINE
  8
0
 62
7
 10
6.277575759508249
 20
7.762499999999998
 30
0
 11
6.366249999999999
 21
7.851174240491749
 31
0
  0
ENDBLK
  8
0
  0
BLOCK
  8
0
  2
*X13
 70
1
 10
0
 20
0
 30
0
  0
LINE
  8
0
 62
7
  6
DASHED
 10
7.76625
 20
7.87231601717798
 30
0
 11
7.856433982822018
 21
7.962499999999999
 31
0
  0
LINE
  8
0
 62
7
  6
DASHED
 10
7.868566017177982
 20
7.762499999999999
 30
0
 11
8.006250000000001
 21
7.900183982822018
 31
0
  0
LINE
  8
0
 62
7
 10
7.76625
 20
7.766249999999999
 30
0
 11
7.962499999999999
 21
7.962499999999998
 31
0
  0
LINE
  8
0
 62
7
 10
7.974632034355964
 20
7.762499999999999
 30
0
 11
8.006250000000001
 21
7.794117965644036
 31
0
  0
ENDBLK
  8
0
  0
BLOCK
  8
0
  2
*X14
 70
1
 10
0
 20
0
 30
0
  0
LINE
  8
0
 62
7
  6
DASHED
 10
7.766249999999999
 20
5.114599570550444
 30
0
 11
7.864150429449552
 21
5.212499999999999
 31
0
  0
LINE
  8
0
 62
7
  6
DASHED
 10
7.876282463805517
 20
5.012499999999999
 30
0
 11
8.00625
 21
5.142467536194482
 31
0
  0
LINE
  8
0
 62
7
 10
7.770216446627535
 20
5.012499999999999
 30
0
 11
7.970216446627535
 21
5.212499999999998
 31
0
  0
LINE
  8
0
 62
7
 10
7.982348480983499
 20
5.012499999999999
 30
0
 11
8.00625
 21
5.0364015190165
 31
0
  0
ENDBLK
  8
0
  0
BLOCK
  8
0
  2
*X15
 70
1
 10
0
 20
0
 30
0
  0
LINE
  8
0
 62
7
 10
0.90625
 20
2.285108223313768
 30
0
 11
0.9536417766862293
 21
2.332499999999997
 31
0
  0
LINE
  8
0
 62
7
 10
0.74125
 20
2.120108223313768
 30
0
 11
0.8036417766862294
 21
2.182499999999997
 31
0
  0
LINE
  8
0
 62
7
 10
0.775773811042197
 20
1.9425
 30
0
 11
1.08125
 21
2.247976188957804
 31
0
  0
LINE
  8
0
 62
7
 10
0.9879058453981613
 20
1.9425
 30
0
 11
1.227905845398158
 21
2.182499999999997
 31
0
  0
LINE
  8
0
 62
7
 10
1.200037879754126
 20
1.9425
 30
0
 11
1.440037879754122
 21
2.182499999999997
 31
0
  0
LINE
  8
0
 62
7
 10
1.41216991411009
 20
1.9425
 30
0
 11
1.652169914110086
 21
2.182499999999997
 31
0
  0
LINE
  8
0
 62
7
 10
1.624301948466054
 20
1.9425
 30
0
 11
1.86430194846605
 21
2.182499999999997
 31
0
  0
LINE
  8
0
 62
7
 10
1.836433982822018
 20
1.9425
 30
0
 11
2.076433982822015
 21
2.182499999999997
 31
0
  0
LINE
  8
0
 62
7
 10
2.048566017177983
 20
1.9425
 30
0
 11
2.288566017177979
 21
2.182499999999997
 31
0
  0
LINE
  8
0
 62
7
 10
2.260698051533947
 20
1.9425
 30
0
 11
2.500698051533943
 21
2.182499999999997
 31
0
  0
LINE
  8
0
 62
7
 10
2.472830085889911
 20
1.9425
 30
0
 11
2.712830085889907
 21
2.182499999999997
 31
0
  0
LINE
  8
0
 62
7
 10
2.684962120245876
 20
1.9425
 30
0
 11
2.924962120245872
 21
2.182499999999997
 31
0
  0
LINE
  8
0
 62
7
 10
2.89709415460184
 20
1.9425
 30
0
 11
3.137094154601836
 21
2.182499999999997
 31
0
  0
LINE
  8
0
 62
7
 10
3.109226188957804
 20
1.9425
 30
0
 11
3.3492261889578
 21
2.182499999999997
 31
0
  0
LINE
  8
0
 62
7
 10
3.321358223313768
 20
1.9425
 30
0
 11
3.561358223313765
 21
2.182499999999997
 31
0
  0
LINE
  8
0
 62
7
 10
3.533490257669733
 20
1.9425
 30
0
 11
3.773490257669729
 21
2.182499999999997
 31
0
  0
LINE
  8
0
 62
7
 10
3.745622292025697
 20
1.9425
 30
0
 11
3.985622292025693
 21
2.182499999999997
 31
0
  0
LINE
  8
0
 62
7
 10
3.957754326381661
 20
1.9425
 30
0
 11
4.197754326381657
 21
2.182499999999997
 31
0
  0
LINE
  8
0
 62
7
 10
4.169886360737626
 20
1.9425
 30
0
 11
4.409886360737621
 21
2.182499999999997
 31
0
  0
LINE
  8
0
 62
7
 10
4.382018395093589
 20
1.9425
 30
0
 11
4.766249999999999
 21
2.32673160490641
 31
0
  0
LINE
  8
0
 62
7
 10
4.594150429449553
 20
1.9425
 30
0
 11
4.834150429449549
 21
2.182499999999997
 31
0
  0
LINE
  8
0
 62
7
 10
4.806282463805517
 20
1.9425
 30
0
 11
4.916249999999998
 21
2.052467536194481
 31
0
  0
LINE
  8
0
 62
7
 10
0.7412500000000002
 20
2.014042206135786
 30
0
 11
1.059707793864212
 21
2.332499999999997
 31
0
  0
LINE
  8
0
 62
7
 10
0.8818398282201803
 20
1.9425
 30
0
 11
1.121839828220176
 21
2.182499999999997
 31
0
  0
LINE
  8
0
 62
7
 10
1.093971862576145
 20
1.9425
 30
0
 11
1.333971862576141
 21
2.182499999999997
 31
0
  0
LINE
  8
0
 62
7
 10
1.306103896932109
 20
1.9425
 30
0
 11
1.546103896932105
 21
2.182499999999997
 31
0
  0
LINE
  8
0
 62
7
 10
1.518235931288073
 20
1.9425
 30
0
 11
1.758235931288069
 21
2.182499999999997
 31
0
  0
LINE
  8
0
 62
7
 10
1.730367965644037
 20
1.9425
 30
0
 11
1.970367965644034
 21
2.182499999999997
 31
0
  0
LINE
  8
0
 62
7
 10
1.942500000000002
 20
1.9425
 30
0
 11
2.182499999999998
 21
2.182499999999997
 31
0
  0
LINE
  8
0
 62
7
 10
2.154632034355966
 20
1.9425
 30
0
 11
2.394632034355962
 21
2.182499999999997
 31
0
  0
LINE
  8
0
 62
7
 10
2.36676406871193
 20
1.9425
 30
0
 11
2.606764068711926
 21
2.182499999999997
 31
0
  0
LINE
  8
0
 62
7
 10
2.578896103067895
 20
1.9425
 30
0
 11
2.818896103067891
 21
2.182499999999997
 31
0
  0
LINE
  8
0
 62
7
 10
2.791028137423859
 20
1.9425
 30
0
 11
3.031028137423855
 21
2.182499999999997
 31
0
  0
LINE
  8
0
 62
7
 10
3.003160171779823
 20
1.9425
 30
0
 11
3.243160171779819
 21
2.182499999999997
 31
0
  0
LINE
  8
0
 62
7
 10
3.215292206135787
 20
1.9425
 30
0
 11
3.455292206135784
 21
2.182499999999997
 31
0
  0
LINE
  8
0
 62
7
 10
3.427424240491752
 20
1.9425
 30
0
 11
3.667424240491748
 21
2.182499999999997
 31
0
  0
LINE
  8
0
 62
7
 10
3.639556274847716
 20
1.9425
 30
0
 11
3.879556274847712
 21
2.182499999999997
 31
0
  0
LINE
  8
0
 62
7
 10
3.85168830920368
 20
1.9425
 30
0
 11
4.091688309203676
 21
2.182499999999997
 31
0
  0
LINE
  8
0
 62
7
 10
4.063820343559644
 20
1.9425
 30
0
 11
4.30382034355964
 21
2.182499999999997
 31
0
  0
LINE
  8
0
 62
7
 10
4.591249999999998
 20
2.257797622084391
 30
0
 11
4.665952377915604
 21
2.332499999999997
 31
0
  0
LINE
  8
0
 62
7
 10
4.275952377915608
 20
1.9425
 30
0
 11
4.515952377915604
 21
2.182499999999997
 31
0
  0
LINE
  8
0
 62
7
 10
4.488084412271572
 20
1.9425
 30
0
 11
4.766249999999999
 21
2.220665587728428
 31
0
  0
LINE
  8
0
 62
7
 10
4.700216446627536
 20
1.9425
 30
0
 11
4.916249999999998
 21
2.158533553372462
 31
0
  0
LINE
  8
0
 62
7
 10
4.9123484809835
 20
1.9425
 30
0
 11
4.916249999999998
 21
1.946401519016498
 31
0
  0
ENDBLK
  8
0
  0
BLOCK
  8
0
  2
*X16
 70
1
 10
0
 20
0
 30
0
  0
LINE
  8
0
 62
7
 10
0.74125
 20
1.695844154601839
 30
0
 11
0.9479058453981621
 21
1.9025
 31
0
  0
LINE
  8
0
 62
7
 10
0.9062500000000001
 20
1.648712120245876
 30
0
 11
1.160037879754126
 21
1.9025
 31
0
  0
LINE
  8
0
 62
7
 10
1.13216991411009
 20
1.6625
 30
0
 11
1.372169914110091
 21
1.9025
 31
0
  0
LINE
  8
0
 62
7
 10
0.9062500000000001
 20
1.436580085889911
 30
0
 11
1.08125
 21
1.611580085889911
 31
0
  0
LINE
  8
0
 62
7
 10
1.344301948466054
 20
1.6625
 30
0
 11
1.584301948466055
 21
1.9025
 31
0
  0
LINE
  8
0
 62
7
 10
0.9062500000000001
 20
1.224448051533947
 30
0
 11
1.08125
 21
1.399448051533947
 31
0
  0
LINE
  8
0
 62
7
 10
1.556433982822019
 20
1.6625
 30
0
 11
1.796433982822019
 21
1.9025
 31
0
  0
LINE
  8
0
 62
7
 10
0.9062500000000001
 20
1.012316017177983
 30
0
 11
1.08125
 21
1.187316017177983
 31
0
  0
LINE
  8
0
 62
7
 10
1.768566017177983
 20
1.6625
 30
0
 11
2.008566017177984
 21
1.9025
 31
0
  0
LINE
  8
0
 62
7
 10
0.9062500000000001
 20
0.8001839828220185
 30
0
 11
1.08125
 21
0.9751839828220183
 31
0
  0
LINE
  8
0
 62
7
 10
1.980698051533947
 20
1.6625
 30
0
 11
2.220698051533948
 21
1.9025
 31
0
  0
LINE
  8
0
 62
7
 10
0.9062500000000001
 20
0.5880519484660542
 30
0
 11
1.08125
 21
0.7630519484660541
 31
0
  0
LINE
  8
0
 62
7
 10
2.192830085889911
 20
1.6625
 30
0
 11
2.432830085889912
 21
1.9025
 31
0
  0
LINE
  8
0
 62
7
 10
0.9062500000000001
 20
0.37591991411009
 30
0
 11
1.08125
 21
0.5509199141100898
 31
0
  0
LINE
  8
0
 62
7
 10
2.404962120245876
 20
1.6625
 30
0
 11
2.644962120245876
 21
1.9025
 31
0
  0
LINE
  8
0
 62
7
 10
1.004962120245874
 20
0.2624999999999991
 30
0
 11
1.08125
 21
0.3387878797541256
 31
0
  0
LINE
  8
0
 62
7
 10
2.61709415460184
 20
1.6625
 30
0
 11
2.857094154601841
 21
1.9025
 31
0
  0
LINE
  8
0
 62
7
 10
2.829226188957804
 20
1.6625
 30
0
 11
3.069226188957805
 21
1.9025
 31
0
  0
LINE
  8
0
 62
7
 10
3.041358223313769
 20
1.6625
 30
0
 11
3.281358223313769
 21
1.9025
 31
0
  0
LINE
  8
0
 62
7
 10
3.253490257669733
 20
1.6625
 30
0
 11
3.493490257669734
 21
1.9025
 31
0
  0
LINE
  8
0
 62
7
 10
3.465622292025697
 20
1.6625
 30
0
 11
3.705622292025698
 21
1.9025
 31
0
  0
LINE
  8
0
 62
7
 10
3.677754326381661
 20
1.6625
 30
0
 11
3.917754326381662
 21
1.9025
 31
0
  0
LINE
  8
0
 62
7
 10
3.889886360737626
 20
1.6625
 30
0
 11
4.129886360737626
 21
1.9025
 31
0
  0
LINE
  8
0
 62
7
 10
4.10201839509359
 20
1.6625
 30
0
 11
4.34201839509359
 21
1.9025
 31
0
  0
LINE
  8
0
 62
7
 10
4.314150429449554
 20
1.6625
 30
0
 11
4.554150429449554
 21
1.9025
 31
0
  0
LINE
  8
0
 62
7
 10
4.526282463805518
 20
1.6625
 30
0
 11
4.766282463805518
 21
1.9025
 31
0
  0
LINE
  8
0
 62
7
 10
4.591249999999998
 20
1.515335501838516
 30
0
 11
4.916249999999998
 21
1.840335501838517
 31
0
  0
LINE
  8
0
 62
7
 10
4.591249999999998
 20
1.303203467482552
 30
0
 11
4.766249999999999
 21
1.478203467482553
 31
0
  0
LINE
  8
0
 62
7
 10
4.591249999999998
 20
1.091071433126587
 30
0
 11
4.766249999999999
 21
1.266071433126589
 31
0
  0
LINE
  8
0
 62
7
 10
4.591249999999998
 20
0.8789393987706231
 30
0
 11
4.766249999999999
 21
1.053939398770624
 31
0
  0
LINE
  8
0
 62
7
 10
4.591249999999998
 20
0.6668073644146588
 30
0
 11
4.766249999999999
 21
0.8418073644146602
 31
0
  0
LINE
  8
0
 62
7
 10
4.591249999999998
 20
0.4546753300586945
 30
0
 11
4.766249999999999
 21
0.629675330058696
 31
0
  0
LINE
  8
0
 62
7
 10
4.591249999999998
 20
0.2425432957027307
 30
0
 11
4.766249999999999
 21
0.4175432957027318
 31
0
  0
LINE
  8
0
 62
7
 10
4.723338738653231
 20
0.1624999999999992
 30
0
 11
4.766249999999999
 21
0.2054112613467676
 31
0
  0
LINE
  8
0
 62
7
 10
0.74125
 20
1.801910171779822
 30
0
 11
0.8418398282201811
 21
1.902500000000001
 31
0
  0
LINE
  8
0
 62
7
 10
0.8139718625761436
 20
1.662500000000001
 30
0
 11
1.053971862576145
 21
1.902500000000001
 31
0
  0
LINE
  8
0
 62
7
 10
0.90625
 20
1.542646103067893
 30
0
 11
1.26610389693211
 21
1.902500000000001
 31
0
  0
LINE
  8
0
 62
7
 10
1.238235931288071
 20
1.6625
 30
0
 11
1.478235931288074
 21
1.902500000000001
 31
0
  0
LINE
  8
0
 62
7
 10
0.90625
 20
1.330514068711929
 30
0
 11
1.08125
 21
1.505514068711929
 31
0
  0
LINE
  8
0
 62
7
 10
1.450367965644035
 20
1.6625
 30
0
 11
1.690367965644038
 21
1.902500000000001
 31
0
  0
LINE
  8
0
 62
7
 10
0.90625
 20
1.118382034355965
 30
0
 11
1.08125
 21
1.293382034355965
 31
0
  0
LINE
  8
0
 62
7
 10
1.6625
 20
1.6625
 30
0
 11
1.902500000000003
 21
1.902500000000001
 31
0
  0
LINE
  8
0
 62
7
 10
0.90625
 20
0.9062500000000002
 30
0
 11
1.08125
 21
1.08125
 31
0
  0
LINE
  8
0
 62
7
 10
1.874632034355964
 20
1.6625
 30
0
 11
2.114632034355967
 21
1.902500000000001
 31
0
  0
LINE
  8
0
 62
7
 10
0.90625
 20
0.6941179656440359
 30
0
 11
1.08125
 21
0.869117965644036
 31
0
  0
LINE
  8
0
 62
7
 10
2.086764068711928
 20
1.6625
 30
0
 11
2.326764068711931
 21
1.902500000000001
 31
0
  0
LINE
  8
0
 62
7
 10
0.90625
 20
0.4819859312880717
 30
0
 11
1.08125
 21
0.6569859312880717
 31
0
  0
LINE
  8
0
 62
7
 10
2.298896103067892
 20
1.6625
 30
0
 11
2.538896103067895
 21
1.902500000000001
 31
0
  0
LINE
  8
0
 62
7
 10
0.90625
 20
0.2698538969321075
 30
0
 11
1.08125
 21
0.4448538969321074
 31
0
  0
LINE
  8
0
 62
7
 10
2.511028137423857
 20
1.6625
 30
0
 11
2.75102813742386
 21
1.902500000000001
 31
0
  0
LINE
  8
0
 62
7
 10
2.723160171779821
 20
1.6625
 30
0
 11
2.963160171779824
 21
1.902500000000001
 31
0
  0
LINE
  8
0
 62
7
 10
2.935292206135785
 20
1.6625
 30
0
 11
3.175292206135788
 21
1.902500000000001
 31
0
  0
LINE
  8
0
 62
7
 10
3.14742424049175
 20
1.6625
 30
0
 11
3.387424240491753
 21
1.902500000000001
 31
0
  0
LINE
  8
0
 62
7
 10
3.359556274847714
 20
1.6625
 30
0
 11
3.599556274847717
 21
1.902500000000001
 31
0
  0
LINE
  8
0
 62
7
 10
3.571688309203678
 20
1.6625
 30
0
 11
3.811688309203681
 21
1.902500000000001
 31
0
  0
LINE
  8
0
 62
7
 10
3.783820343559642
 20
1.6625
 30
0
 11
4.023820343559645
 21
1.902500000000001
 31
0
  0
LINE
  8
0
 62
7
 10
3.995952377915607
 20
1.6625
 30
0
 11
4.235952377915609
 21
1.902500000000001
 31
0
  0
LINE
  8
0
 62
7
 10
4.208084412271571
 20
1.6625
 30
0
 11
4.448084412271573
 21
1.902500000000001
 31
0
  0
LINE
  8
0
 62
7
 10
4.420216446627535
 20
1.6625
 30
0
 11
4.660216446627537
 21
1.902500000000001
 31
0
  0
LINE
  8
0
 62
7
 10
4.591249999999998
 20
1.621401519016498
 30
0
 11
4.872348480983501
 21
1.902500000000001
 31
0
  0
LINE
  8
0
 62
7
 10
4.844480515339464
 20
1.6625
 30
0
 11
4.916249999999999
 21
1.734269484660534
 31
0
  0
LINE
  8
0
 62
7
 10
4.591249999999998
 20
1.409269484660534
 30
0
 11
4.766249999999999
 21
1.584269484660536
 31
0
  0
LINE
  8
0
 62
7
 10
4.591249999999998
 20
1.197137450304569
 30
0
 11
4.766249999999999
 21
1.372137450304571
 31
0
  0
LINE
  8
0
 62
7
 10
4.591249999999998
 20
0.985005415948605
 30
0
 11
4.766249999999999
 21
1.160005415948607
 31
0
  0
LINE
  8
0
 62
7
 10
4.591249999999998
 20
0.7728733815926407
 30
0
 11
4.766249999999999
 21
0.9478733815926428
 31
0
  0
LINE
  8
0
 62
7
 10
4.591249999999998
 20
0.5607413472366765
 30
0
 11
4.766249999999999
 21
0.7357413472366785
 31
0
  0
LINE
  8
0
 62
7
 10
4.591249999999998
 20
0.3486093128807122
 30
0
 11
4.766249999999999
 21
0.5236093128807142
 31
0
  0
LINE
  8
0
 62
7
 10
4.617272721475249
 20
0.1624999999999992
 30
0
 11
4.766249999999999
 21
0.3114772785247499
 31
0
  0
ENDBLK
  8
0
  0
BLOCK
  8
0
  2
*D0
 70
1
 10
0
 20
0
 30
0
  0
LINE
  8
0
 62
7
 10
0.5541889854085341
 20
7.069700704025419
 30
0
 11
0.5541889854085341
 21
7.962499999999999
 31
0
  0
LINE
  8
0
 62
7
 10
0.5541889854085341
 20
5.212499999999999
 30
0
 11
0.5541889854085341
 21
5.98970070402542
 31
0
  0
LINE
  8
0
 62
7
 10
0.7562500000000001
 20
7.962499999999999
 30
0
 11
0.5041889854085341
 21
7.962499999999999
 31
0
  0
LINE
  8
0
 62
7
 10
0.7562500000000001
 20
5.212499999999999
 30
0
 11
0.5041889854085341
 21
5.212499999999999
 31
0
  0
LINE
  8
0
 62
7
 10
0.5188336463492067
 20
5.247855339059327
 30
0
 11
0.5895443244678615
 21
5.177144660940672
 31
0
  0
LINE
  8
0
 62
7
 10
0.5895443244678615
 20
7.927144660940672
 30
0
 11
0.5188336463492067
 21
7.997855339059327
 31
0
  0
TEXT
  8
0
 62
7
 10
0.5241889854085341
 20
6.39220070402542
 30
0
 40
0.1
  1
2,75
 50
90
 41
0.9
  0
TEXT
  8
0
 62
7
 10
0.6841889854085341
 20
6.18970070402542
 30
0
 40
0.1
  1
(260-280)
 50
90
 41
0.9
  0
ENDBLK
  8
0
  0
BLOCK
  8
0
  2
*D1
 70
1
 10
0
 20
0
 30
0
  0
LINE
  8
0
 62
7
 10
3.14086758076423
 20
8.33595553852267
 30
0
 11
4.591249999999998
 21
8.33595553852267
 31
0
  0
LINE
  8
0
 62
7
 10
1.08125
 20
8.33595553852267
 30
0
 11
2.49586758076423
 21
8.33595553852267
 31
0
  0
LINE
  8
0
 62
7
 10
4.591249999999998
 20
8.112499999999999
 30
0
 11
4.591249999999998
 21
8.385955538522671
 31
0
  0
LINE
  8
0
 62
7
 10
1.08125
 20
8.112499999999999
 30
0
 11
1.08125
 21
8.385955538522671
 31
0
  0
LINE
  8
0
 62
7
 10
1.116605339059327
 20
8.371310877581998
 30
0
 11
1.045894660940673
 21
8.300600199463343
 31
0
  0
LINE
  8
0
 62
7
 10
4.555894660940671
 20
8.300600199463343
 30
0
 11
4.626605339059325
 21
8.371310877581998
 31
0
  0
TEXT
  8
0
 62
7
 10
2.69586758076423
 20
8.29095553852267
 30
0
 40
0.1
  1
3,51
 41
0.9
  0
ENDBLK
  8
0
  0
BLOCK
  8
0
  2
*D2
 70
1
 10
0
 20
0
 30
0
  0
LINE
  8
0
 62
7
 10
5.10798638505651
 20
1.311235155850789
 30
0
 11
5.10798638505651
 21
1.6625
 31
0
  0
LINE
  8
0
 62
7
 10
5.10798638505651
 20
0.1624999999999991
 30
0
 11
5.10798638505651
 21
0.656235155850789
 31
0
  0
LINE
  8
0
 62
7
 10
4.766249999999998
 20
1.6625
 30
0
 11
5.15798638505651
 21
1.6625
 31
0
  0
LINE
  8
0
 62
7
 10
4.766249999999998
 20
0.1624999999999991
 30
0
 11
5.15798638505651
 21
0.1624999999999991
 31
0
  0
LINE
  8
0
 62
7
 10
5.072631045997182
 20
0.1978553390593265
 30
0
 11
5.143341724115837
 21
0.1271446609406717
 31
0
  0
LINE
  8
0
 62
7
 10
5.143341724115837
 20
1.627144660940673
 30
0
 11
5.072631045997182
 21
1.697855339059327
 31
0
  0
TEXT
  8
0
 62
7
 10
5.15298638505651
 20
0.9062351558507891
 30
0
 40
0.1
  1
1,5
 50
90
 41
0.9
  0
ENDBLK
  8
0
  0
BLOCK
  8
0
  2
*D3
 70
1
 10
0
 20
0
 30
0
  0
LINE
  8
0
 62
7
 10
3.20358768523252
 20
2.52286779651393
 30
0
 11
4.591249999999999
 21
2.52286779651393
 31
0
  0
LINE
  8
0
 62
7
 10
1.08125
 20
2.52286779651393
 30
0
 11
2.45858768523252
 21
2.52286779651393
 31
0
  0
LINE
  8
0
 62
7
 10
4.591249999999999
 20
2.182499999999997
 30
0
 11
4.591249999999999
 21
2.57286779651393
 31
0
  0
LINE
  8
0
 62
7
 10
1.08125
 20
2.182499999999997
 30
0
 11
1.08125
 21
2.57286779651393
 31
0
  0
LINE
  8
0
 62
7
 10
4.555894660940671
 20
2.487512457454603
 30
0
 11
4.626605339059326
 21
2.558223135573257
 31
0
  0
LINE
  8
0
 62
7
 10
1.116605339059328
 20
2.558223135573257
 30
0
 11
1.045894660940673
 21
2.487512457454603
 31
0
  0
TEXT
  8
0
 62
7
 10
2.70858768523252
 20
2.47786779651393
 30
0
 40
0.1
  1
3,51
 41
0.9
  0
ENDBLK
  8
0
  0
BLOCK
  8
0
  2
*D4
 70
1
 10
0
 20
0
 30
0
  0
LINE
  8
0
 62
7
 10
0.643229716686567
 20
1.36211557372395
 30
0
 11
0.643229716686567
 21
1.662500000000001
 31
0
  0
LINE
  8
0
 62
7
 10
0.643229716686567
 20
0.2624999999999991
 30
0
 11
0.643229716686567
 21
0.7071155737239498
 31
0
  0
LINE
  8
0
 62
7
 10
0.90625
 20
1.662500000000001
 30
0
 11
0.593229716686567
 21
1.662500000000001
 31
0
  0
LINE
  8
0
 62
7
 10
0.90625
 20
0.2624999999999991
 30
0
 11
0.593229716686567
 21
0.2624999999999991
 31
0
  0
LINE
  8
0
 62
7
 10
0.6785850557458944
 20
1.627144660940674
 30
0
 11
0.6078743776272396
 21
1.697855339059329
 31
0
  0
LINE
  8
0
 62
7
 10
0.6078743776272396
 20
0.2978553390593264
 30
0
 11
0.6785850557458944
 21
0.2271446609406717
 31
0
  0
TEXT
  8
0
 62
7
 10
0.6882297166865671
 20
0.95711557372395
 30
0
 40
0.1
  1
1,4
 50
90
 41
0.9
  0
ENDBLK
  8
0
  0
ENDSEC
  0
SECTION
  2
ENTITIES
  0
INSERT
  8
0
  2
*X0
 10
0
 20
0
 30
0
  0
INSERT
  8
0
  2
*X1
 10
0
 20
0
 30
0
  0
INSERT
  8
0
  2
*X2
 10
0
 20
0
 30
0
  0
INSERT
  8
0
  2
*X3
 10
0
 20
0
 30
0
  0
INSERT
  8
0
  2
*X4
 10
0
 20
0
 30
0
  0
INSERT
  8
0
  2
*X5
 10
0
 20
0
 30
0
  0
INSERT
  8
0
  2
*X6
 10
0
 20
0
 30
0
  0
INSERT
  8
0
  2
*X7
 10
0
 20
0
 30
0
  0
INSERT
  8
0
  2
*X8
 10
0
 20
0
 30
0
  0
INSERT
  8
0
  2
*X9
 10
0
 20
0
 30
0
  0
INSERT
  8
0
  2
*X10
 10
0
 20
0
 30
0
  0
INSERT
  8
0
  2
*X11
 10
0
 20
0
 30
0
  0
INSERT
  8
0
  2
*X12
 10
0
 20
0
 30
0
  0
INSERT
  8
0
  2
*X13
 10
0
 20
0
 30
0
  0
INSERT
  8
0
  2
*X14
 10
0
 20
0
 30
0
  0
INSERT
  8
0
  2
*X15
 10
0
 20
0
 30
0
  0
INSERT
  8
0
  2
*X16
 10
0
 20
0
 30
0
  0
LINE
  8
0
 62
7
 10
2.196249999999998
 20
0.3341139246495786
 30
0
 11
2.196249999999998
 21
0.4990307032413548
 31
0
  0
LINE
  8
0
 62
7
 10
2.196249999999998
 20
0.4990307032413548
 30
0
 11
2.25969985079652
 21
0.5474999999999991
 31
0
  0
LINE
  8
0
 62
7
 10
2.25969985079652
 20
0.5474999999999991
 30
0
 11
2.459644013383799
 21
0.5474999999999991
 31
0
  0
LINE
  8
0
 62
7
 10
2.355020644712282
 20
0.5474999999999991
 30
0
 11
2.459644013383799
 21
0.5474999999999991
 31
0
  0
LINE
  8
0
 62
7
 10
3.235936725170328
 20
0.5474999999999991
 30
0
 11
3.43695584379341
 21
0.5474999999999991
 31
0
  0
LINE
  8
0
 62
7
 10
3.43695584379341
 20
0.5474999999999991
 30
0
 11
3.476249999999999
 21
0.5074356478365663
 31
0
  0
LINE
  8
0
 62
7
 10
3.476249999999999
 20
0.4634117934396582
 30
0
 11
3.476249999999999
 21
0.3730597316241192
 31
0
  0
LINE
  8
0
 62
7
 10
3.476249999999999
 20
0.5074356478365663
 30
0
 11
3.476249999999999
 21
0.3730597316241192
 31
0
  0
LINE
  8
0
 62
7
 10
4.536249999999998
 20
0.1624999999999991
 30
0
 11
4.536249999999998
 21
0.5572615982589587
 31
0
  0
LINE
  8
0
 62
7
 10
3.476249999999999
 20
0.3730597316241192
 30
0
 11
3.476249999999999
 21
0.1624999999999991
 31
0
  0
LINE
  8
0
 62
7
 10
3.476249999999999
 20
0.1624999999999991
 30
0
 11
4.536249999999998
 21
0.1624999999999991
 31
0
  0
LINE
  8
0
 62
7
 10
4.536249999999998
 20
0.4669095364434289
 30
0
 11
4.536249999999998
 21
0.9928609871340388
 31
0
  0
LINE
  8
0
 62
7
 10
3.476249999999999
 20
0.3730597316241192
 30
0
 11
4.536249999999998
 21
0.4669095364434289
 31
0
  0
LINE
  8
0
 62
7
 10
4.536249999999998
 20
0.8955129235124497
 30
0
 11
4.536249999999998
 21
1.555882261986159
 31
0
  0
LINE
  8
0
 62
7
 10
3.476249999999999
 20
0.5074356478365663
 30
0
 11
3.510412360294263
 21
0.4726036787679987
 31
0
  0
LINE
  8
0
 62
7
 10
3.510412360294263
 20
0.4726036787679987
 30
0
 11
4.536249999999998
 21
0.8955129235124497
 31
0
  0
LINE
  8
0
 62
7
 10
4.536249999999998
 20
1.439173672794749
 30
0
 11
4.536249999999998
 21
1.607499999999999
 31
0
  0
LINE
  8
0
 62
7
 10
4.536249999999998
 20
1.607499999999999
 30
0
 11
3.940332287532137
 21
1.607499999999999
 31
0
  0
LINE
  8
0
 62
7
 10
3.43695584379341
 20
0.5474999999999991
 30
0
 11
3.456200356440999
 21
0.5474999999999991
 31
0
  0
LINE
  8
0
 62
7
 10
3.456200356440999
 20
0.5474999999999991
 30
0
 11
4.536249999999998
 21
1.439173672794749
 31
0
  0
LINE
  8
0
 62
7
 10
4.04839198228446
 20
1.607499999999999
 30
0
 11
3.518866968594148
 21
1.607499999999999
 31
0
  0
LINE
  8
0
 62
7
 10
3.130317079458999
 20
0.5474999999999991
 30
0
 11
3.343996419922651
 21
0.5474999999999991
 31
0
  0
LINE
  8
0
 62
7
 10
3.343996419922651
 20
0.5474999999999991
 30
0
 11
4.04839198228446
 21
1.607499999999999
 31
0
  0
LINE
  8
0
 62
7
 10
3.614722827588071
 20
1.607499999999999
 30
0
 11
3.135822823379089
 21
1.607499999999999
 31
0
  0
LINE
  8
0
 62
7
 10
3.01851361517115
 20
0.5474999999999991
 30
0
 11
3.226172938452919
 21
0.5474999999999991
 31
0
  0
LINE
  8
0
 62
7
 10
3.226172938452919
 20
0.5474999999999991
 30
0
 11
3.614722827588071
 21
1.607499999999999
 31
0
  0
LINE
  8
0
 62
7
 10
3.226372289962879
 20
1.607499999999999
 30
0
 11
2.835926914270059
 21
1.607499999999999
 31
0
  0
LINE
  8
0
 62
7
 10
2.804003895711581
 20
0.5474999999999991
 30
0
 11
3.109063081754937
 21
0.5474999999999991
 31
0
  0
LINE
  8
0
 62
7
 10
3.109063081754937
 20
0.5474999999999991
 30
0
 11
3.226372289962879
 21
1.607499999999999
 31
0
  0
LINE
  8
0
 62
7
 10
2.92596771897518
 20
1.607499999999999
 30
0
 11
2.535148794572249
 21
1.607499999999999
 31
0
  0
LINE
  8
0
 62
7
 10
2.589240135840819
 20
0.5474999999999991
 30
0
 11
2.894044700416698
 21
0.5474999999999991
 31
0
  0
LINE
  8
0
 62
7
 10
2.894044700416698
 20
0.5474999999999991
 30
0
 11
2.92596771897518
 21
1.607499999999999
 31
0
  0
LINE
  8
0
 62
7
 10
2.6252658991392
 20
1.607499999999989
 30
0
 11
2.13763531053033
 21
1.607499999999999
 31
0
  0
LINE
  8
0
 62
7
 10
2.473271915625121
 20
0.5474999999999991
 30
0
 11
2.679357240407771
 21
0.5474999999999991
 31
0
  0
LINE
  8
0
 62
7
 10
2.679357240407771
 20
0.5474999999999991
 30
0
 11
2.6252658991392
 21
1.607499999999989
 31
0
  0
LINE
  8
0
 62
7
 10
2.232039253879381
 20
1.607499999999999
 30
0
 11
1.726695321822239
 21
1.607499999999999
 31
0
  0
LINE
  8
0
 62
7
 10
2.459644013383799
 20
0.5474999999999991
 30
0
 11
2.567675858974168
 21
0.5474999999999991
 31
0
  0
LINE
  8
0
 62
7
 10
2.567675858974168
 20
0.5474999999999991
 30
0
 11
2.232039253879381
 21
1.607499999999999
 31
0
  0
LINE
  8
0
 62
7
 10
1.83131869049376
 20
1.607499999999999
 30
0
 11
1.138555474108749
 21
1.607499999999999
 31
0
  0
LINE
  8
0
 62
7
 10
2.459644013383799
 20
0.5474999999999991
 30
0
 11
1.83131869049376
 21
1.607499999999999
 31
0
  0
LINE
  8
0
 62
7
 10
1.268369455366948
 20
1.607499999999999
 30
0
 11
1.13625
 21
1.607499999999999
 31
0
  0
LINE
  8
0
 62
7
 10
1.13625
 20
1.607499999999999
 30
0
 11
1.13625
 21
1.044080811962369
 31
0
  0
LINE
  8
0
 62
7
 10
2.25969985079652
 20
0.5474999999999991
 30
0
 11
2.321284498411709
 21
0.5945444693496573
 31
0
  0
LINE
  8
0
 62
7
 10
2.321284498411709
 20
0.5945444693496573
 30
0
 11
1.268369455366948
 21
1.607499999999999
 31
0
  0
LINE
  8
0
 62
7
 10
1.13625
 20
1.147562854979009
 30
0
 11
1.13625
 21
0.6095743816430295
 31
0
  0
LINE
  8
0
 62
7
 10
2.196249999999998
 20
0.4990307032413548
 30
0
 11
2.196249999999998
 21
0.5460269675052077
 31
0
  0
LINE
  8
0
 62
7
 10
2.196249999999998
 20
0.5460269675052077
 30
0
 11
1.13625
 21
1.147562854979009
 31
0
  0
LINE
  8
0
 62
7
 10
1.13625
 20
0.702563658736629
 30
0
 11
1.13625
 21
0.2924999999999991
 31
0
  0
LINE
  8
0
 62
7
 10
2.196249999999998
 20
0.2924999999999991
 30
0
 11
2.196249999999998
 21
0.4271032017431791
 31
0
  0
LINE
  8
0
 62
7
 10
2.196249999999998
 20
0.4271032017431791
 30
0
 11
1.13625
 21
0.702563658736629
 31
0
  0
LINE
  8
0
 62
7
 10
1.63783984049746
 20
0.3124999999999991
 30
0
 11
1.63783984049746
 21
0.547499999989368
 31
0
  0
LINE
  8
0
 62
7
 10
1.63783984049746
 20
0.3124999999999991
 30
0
 11
1.532184741235758
 21
0.3734999999999982
 31
0
  0
LINE
  8
0
 62
7
 10
1.532184741235758
 20
0.3734999999999982
 30
0
 11
1.743494939759161
 21
0.3734999999999982
 31
0
  0
LINE
  8
0
 62
7
 10
1.743494939759161
 20
0.3734999999999982
 30
0
 11
1.63783984049746
 21
0.3124999999999991
 31
0
  0
LINE
  8
0
 62
7
 10
2.196250000006991
 20
1.10591015950254
 30
0
 11
3.476249999989369
 21
1.10591015950254
 31
0
  0
LINE
  8
0
 62
7
 10
4.034660159502542
 20
0.5475000000099081
 30
0
 11
4.034660159502542
 21
0.1624999999999991
 31
0
  0
LINE
  8
0
 62
7
 10
3.476250150000002
 20
5.495833226666666
 30
0
 11
4.536250279999999
 21
5.495833226666666
 31
0
  0
LINE
  8
0
 62
7
 10
4.536250279999999
 20
5.495833226666666
 30
0
 11
4.536250279999999
 21
5.430833226666667
 31
0
  0
LINE
  8
0
 62
7
 10
3.476250150000002
 20
5.430833226666667
 30
0
 11
3.476250150000002
 21
5.495833226666666
 31
0
  0
LINE
  8
0
 62
7
 10
4.536250279999999
 20
5.430833226666667
 30
0
 11
3.476250150000002
 21
5.430833226666667
 31
0
  0
LINE
  8
0
 62
7
 10
3.476249999999999
 20
5.679166566666667
 30
0
 11
4.5362505
 21
5.679166566666667
 31
0
  0
LINE
  8
0
 62
7
 10
4.5362505
 20
5.679166566666667
 30
0
 11
4.5362505
 21
5.614166566666667
 31
0
  0
LINE
  8
0
 62
7
 10
3.476249999999999
 20
5.614166566666667
 30
0
 11
3.476249999999999
 21
5.679166566666667
 31
0
  0
LINE
  8
0
 62
7
 10
4.5362505
 20
5.614166566666667
 30
0
 11
3.476249999999999
 21
5.614166566666667
 31
0
  0
LINE
  8
0
 62
7
 10
3.38231605
 20
5.862499906666667
 30
0
 11
4.536250339999998
 21
5.862499906666667
 31
0
  0
LINE
  8
0
 62
7
 10
4.536250339999998
 20
5.797499906666666
 30
0
 11
3.38231605
 21
5.797499906666666
 31
0
  0
LINE
  8
0
 62
7
 10
4.536250339999998
 20
5.862499906666667
 30
0
 11
4.536250339999998
 21
5.797499906666666
 31
0
  0
LINE
  8
0
 62
7
 10
3.38231605
 20
5.797499906666666
 30
0
 11
3.38231605
 21
5.862499906666667
 31
0
  0
LINE
  8
0
 62
7
 10
4.536250330000001
 20
5.980833226666666
 30
0
 11
3.235937039999999
 21
5.980833226666666
 31
0
  0
LINE
  8
0
 62
7
 10
3.235937039999999
 20
6.045833226666666
 30
0
 11
4.536250330000001
 21
6.045833226666666
 31
0
  0
LINE
  8
0
 62
7
 10
4.536250330000001
 20
6.045833226666666
 30
0
 11
4.536250330000001
 21
5.980833226666666
 31
0
  0
LINE
  8
0
 62
7
 10
3.235937039999999
 20
5.980833226666666
 30
0
 11
3.235937039999999
 21
6.045833226666666
 31
0
  0
LINE
  8
0
 62
7
 10
4.048392409999999
 20
6.164166586666667
 30
0
 11
3.130317229999999
 21
6.164166586666667
 31
0
  0
LINE
  8
0
 62
7
 10
3.130317229999999
 20
6.229166586666667
 30
0
 11
4.048392409999999
 21
6.229166586666667
 31
0
  0
LINE
  8
0
 62
7
 10
4.048392409999999
 20
6.229166586666667
 30
0
 11
4.048392409999999
 21
6.164166586666667
 31
0
  0
LINE
  8
0
 62
7
 10
3.130317229999999
 20
6.164166586666667
 30
0
 11
3.130317229999999
 21
6.229166586666667
 31
0
  0
LINE
  8
0
 62
7
 10
3.614723280000002
 20
6.347499946666667
 30
0
 11
3.018513939999999
 21
6.347499946666667
 31
0
  0
LINE
  8
0
 62
7
 10
3.018513939999999
 20
6.412499946666667
 30
0
 11
3.614723280000002
 21
6.412499946666667
 31
0
  0
LINE
  8
0
 62
7
 10
3.614723280000002
 20
6.412499946666667
 30
0
 11
3.614723280000002
 21
6.347499946666667
 31
0
  0
LINE
  8
0
 62
7
 10
3.018513939999999
 20
6.347499946666667
 30
0
 11
3.018513939999999
 21
6.412499946666667
 31
0
  0
LINE
  8
0
 62
7
 10
3.226372519999999
 20
6.530833226666665
 30
0
 11
2.804004359999997
 21
6.530833226666665
 31
0
  0
LINE
  8
0
 62
7
 10
2.804004359999997
 20
6.595833226666667
 30
0
 11
3.226372519999999
 21
6.595833226666667
 31
0
  0
LINE
  8
0
 62
7
 10
3.226372519999999
 20
6.595833226666667
 30
0
 11
3.226372519999999
 21
6.530833226666665
 31
0
  0
LINE
  8
0
 62
7
 10
2.804004359999997
 20
6.530833226666665
 30
0
 11
2.804004359999997
 21
6.595833226666667
 31
0
  0
LINE
  8
0
 62
7
 10
2.92596801
 20
6.714166666666667
 30
0
 11
2.535149230000001
 21
6.714166666666667
 31
0
  0
LINE
  8
0
 62
7
 10
2.535149230000001
 20
6.779166666666666
 30
0
 11
2.92596801
 21
6.779166666666666
 31
0
  0
LINE
  8
0
 62
7
 10
2.92596801
 20
6.779166666666666
 30
0
 11
2.92596801
 21
6.714166666666667
 31
0
  0
LINE
  8
0
 62
7
 10
2.535149230000001
 20
6.714166666666667
 30
0
 11
2.535149230000001
 21
6.779166666666666
 31
0
  0
LINE
  8
0
 62
7
 10
2.679357450000003
 20
6.897499946666668
 30
0
 11
2.137635800000002
 21
6.897499946666668
 31
0
  0
LINE
  8
0
 62
7
 10
2.137635800000002
 20
6.962499946666667
 30
0
 11
2.625266419999998
 21
6.962499946666667
 31
0
  0
LINE
  8
0
 62
7
 10
2.625266419999998
 20
6.962499946666667
 30
0
 11
2.679357450000003
 21
6.962499946666667
 31
0
  0
LINE
  8
0
 62
7
 10
2.679357450000003
 20
6.962499946666667
 30
0
 11
2.679357450000003
 21
6.897499946666668
 31
0
  0
LINE
  8
0
 62
7
 10
2.137635800000002
 20
6.897499946666668
 30
0
 11
2.137635800000002
 21
6.962499946666667
 31
0
  0
LINE
  8
0
 62
7
 10
2.567676239999999
 20
7.080833226666666
 30
0
 11
1.726695549999999
 21
7.080833226666666
 31
0
  0
LINE
  8
0
 62
7
 10
1.726695549999999
 20
7.145833226666666
 30
0
 11
2.567676239999999
 21
7.145833226666666
 31
0
  0
LINE
  8
0
 62
7
 10
2.567676239999999
 20
7.145833226666666
 30
0
 11
2.567676239999999
 21
7.080833226666666
 31
0
  0
LINE
  8
0
 62
7
 10
1.726695549999999
 20
7.080833226666666
 30
0
 11
1.726695549999999
 21
7.145833226666666
 31
0
  0
LINE
  8
0
 62
7
 10
2.459644619999998
 20
7.264166666666667
 30
0
 11
1.138555909999999
 21
7.264166666666667
 31
0
  0
LINE
  8
0
 62
7
 10
1.138555909999999
 20
7.329166666666666
 30
0
 11
2.459644619999998
 21
7.329166666666666
 31
0
  0
LINE
  8
0
 62
7
 10
2.459644619999998
 20
7.329166666666666
 30
0
 11
2.459644619999998
 21
7.264166666666667
 31
0
  0
LINE
  8
0
 62
7
 10
1.138555909999999
 20
7.264166666666667
 30
0
 11
1.138555909999999
 21
7.329166666666666
 31
0
  0
LINE
  8
0
 62
7
 10
2.32128494
 20
7.447499946666667
 30
0
 11
1.13625
 21
7.447499946666667
 31
0
  0
LINE
  8
0
 62
7
 10
1.13625
 20
7.512499946666667
 30
0
 11
2.32128494
 21
7.512499946666667
 31
0
  0
LINE
  8
0
 62
7
 10
2.32128494
 20
7.512499946666667
 30
0
 11
2.32128494
 21
7.447499946666667
 31
0
  0
LINE
  8
0
 62
7
 10
1.13625
 20
7.447499946666667
 30
0
 11
1.13625
 21
7.512499946666667
 31
0
  0
LINE
  8
0
 62
7
 10
1.136250299999998
 20
7.695833226666666
 30
0
 11
2.196250449999999
 21
7.695833226666666
 31
0
  0
LINE
  8
0
 62
7
 10
2.196250449999999
 20
7.695833226666666
 30
0
 11
2.196250449999999
 21
7.630833226666666
 31
0
  0
LINE
  8
0
 62
7
 10
1.136250299999998
 20
7.630833226666666
 30
0
 11
1.136250299999998
 21
7.695833226666666
 31
0
  0
LINE
  8
0
 62
7
 10
2.196250449999999
 20
7.630833226666666
 30
0
 11
1.136250299999998
 21
7.630833226666666
 31
0
  0
LINE
  8
0
 62
7
  6
DASHED
 10
1.13625
 20
7.879166666666666
 30
0
 11
2.196250610000001
 21
7.879166666666666
 31
0
  0
LINE
  8
0
 62
7
  6
DASHED
 10
2.196250610000001
 20
7.879166666666666
 30
0
 11
2.196250610000001
 21
7.814166666666667
 31
0
  0
LINE
  8
0
 62
7
  6
DASHED
 10
1.13625
 20
7.814166666666667
 30
0
 11
1.13625
 21
7.879166666666666
 31
0
  0
LINE
  8
0
 62
7
  6
DASHED
 10
2.196250610000001
 20
7.814166666666667
 30
0
 11
1.13625
 21
7.814166666666667
 31
0
  0
LINE
  8
0
 62
7
 10
6.266250019999998
 20
5.495833226666666
 30
0
 11
6.66101157999999
 21
5.495833226666666
 31
0
  0
LINE
  8
0
 62
7
 10
6.66101157999999
 20
5.430833226666667
 30
0
 11
6.266250019999998
 21
5.430833226666667
 31
0
  0
LINE
  8
0
 62
7
 10
6.266250019999998
 20
5.430833226666667
 30
0
 11
6.266250019999998
 21
5.495833226666666
 31
0
  0
LINE
  8
0
 62
7
 10
6.66101157999999
 20
5.495833226666666
 30
0
 11
6.66101157999999
 21
5.430833226666667
 31
0
  0
LINE
  8
0
 62
7
 10
7.096611019999988
 20
5.614166566666666
 30
0
 11
6.476809729999999
 21
5.614166566666666
 31
0
  0
LINE
  8
0
 62
7
 10
6.476809729999999
 20
5.679166566666666
 30
0
 11
7.096611019999988
 21
5.679166566666666
 31
0
  0
LINE
  8
0
 62
7
 10
6.476809729999999
 20
5.614166566666666
 30
0
 11
6.476809729999999
 21
5.679166566666666
 31
0
  0
LINE
  8
0
 62
7
 10
7.096611019999988
 20
5.679166566666666
 30
0
 11
7.096611019999988
 21
5.614166566666666
 31
0
  0
LINE
  8
0
 62
7
 10
7.659632409999991
 20
5.797499906666666
 30
0
 11
6.57635360999999
 21
5.797499906666666
 31
0
  0
LINE
  8
0
 62
7
 10
6.57635360999999
 20
5.862499906666667
 30
0
 11
7.659632409999991
 21
5.862499906666667
 31
0
  0
LINE
  8
0
 62
7
 10
6.57635360999999
 20
5.797499906666666
 30
0
 11
6.57635360999999
 21
5.862499906666667
 31
0
  0
LINE
  8
0
 62
7
 10
7.659632409999991
 20
5.862499906666667
 30
0
 11
7.659632409999991
 21
5.797499906666666
 31
0
  0
LINE
  8
0
 62
7
 10
6.65124996
 20
6.045833226666666
 30
0
 11
7.711250149999993
 21
6.045833226666666
 31
0
  0
LINE
  8
0
 62
7
 10
7.711250149999993
 20
5.980833226666666
 30
0
 11
6.65124996
 21
5.980833226666666
 31
0
  0
LINE
  8
0
 62
7
 10
6.65124996
 20
5.980833226666666
 30
0
 11
6.65124996
 21
6.045833226666666
 31
0
  0
LINE
  8
0
 62
7
 10
7.711250149999993
 20
6.045833226666666
 30
0
 11
7.711250149999993
 21
5.980833226666666
 31
0
  0
LINE
  8
0
 62
7
 10
6.651249999999999
 20
6.229166586666667
 30
0
 11
7.711250149999993
 21
6.229166586666667
 31
0
  0
LINE
  8
0
 62
7
 10
6.651249999999999
 20
6.164166586666667
 30
0
 11
6.651249999999999
 21
6.229166586666667
 31
0
  0
LINE
  8
0
 62
7
 10
7.711250149999993
 20
6.229166586666667
 30
0
 11
7.711250149999993
 21
6.164166586666667
 31
0
  0
LINE
  8
0
 62
7
 10
7.711250149999993
 20
6.164166586666667
 30
0
 11
6.651249999999999
 21
6.164166586666667
 31
0
  0
LINE
  8
0
 62
7
 10
6.651249809999999
 20
6.412499946666667
 30
0
 11
7.711250299999993
 21
6.412499946666667
 31
0
  0
LINE
  8
0
 62
7
 10
6.651249809999999
 20
6.347499946666666
 30
0
 11
6.651249809999999
 21
6.412499946666667
 31
0
  0
LINE
  8
0
 62
7
 10
7.711250299999993
 20
6.412499946666667
 30
0
 11
7.711250299999993
 21
6.347499946666666
 31
0
  0
LINE
  8
0
 62
7
 10
7.711250299999993
 20
6.347499946666666
 30
0
 11
6.651249809999999
 21
6.347499946666666
 31
0
  0
LINE
  8
0
 62
7
 10
6.65124966
 20
6.595833226666667
 30
0
 11
7.711249999999987
 21
6.595833226666667
 31
0
  0
LINE
  8
0
 62
7
 10
6.65124966
 20
6.530833226666665
 30
0
 11
6.65124966
 21
6.595833226666667
 31
0
  0
LINE
  8
0
 62
7
 10
7.711249999999987
 20
6.595833226666667
 30
0
 11
7.711249999999987
 21
6.530833226666665
 31
0
  0
LINE
  8
0
 62
7
 10
7.711249999999987
 20
6.530833226666665
 30
0
 11
6.65124966
 21
6.530833226666665
 31
0
  0
LINE
  8
0
 62
7
 10
6.651249539999992
 20
6.779166666666666
 30
0
 11
7.711250299999993
 21
6.779166666666666
 31
0
  0
LINE
  8
0
 62
7
 10
6.651249539999992
 20
6.714166666666666
 30
0
 11
6.651249539999992
 21
6.779166666666666
 31
0
  0
LINE
  8
0
 62
7
 10
7.711250299999993
 20
6.779166666666666
 30
0
 11
7.711250299999993
 21
6.714166666666666
 31
0
  0
LINE
  8
0
 62
7
 10
7.711250299999993
 20
6.714166666666666
 30
0
 11
6.651249539999992
 21
6.714166666666666
 31
0
  0
LINE
  8
0
 62
7
 10
6.651249999999999
 20
6.962499946666667
 30
0
 11
7.711250459999992
 21
6.962499946666667
 31
0
  0
LINE
  8
0
 62
7
 10
6.651249999999999
 20
6.897499946666667
 30
0
 11
6.651249999999999
 21
6.962499946666667
 31
0
  0
LINE
  8
0
 62
7
 10
7.711250459999992
 20
6.962499946666667
 30
0
 11
7.711250459999992
 21
6.897499946666667
 31
0
  0
LINE
  8
0
 62
7
 10
7.711250459999992
 20
6.897499946666667
 30
0
 11
6.651249999999999
 21
6.897499946666667
 31
0
  0
LINE
  8
0
 62
7
 10
6.651249879999987
 20
7.145833226666666
 30
0
 11
7.711249999999987
 21
7.145833226666666
 31
0
  0
LINE
  8
0
 62
7
 10
6.651249879999987
 20
7.080833226666666
 30
0
 11
6.651249879999987
 21
7.145833226666666
 31
0
  0
LINE
  8
0
 62
7
 10
7.711249999999987
 20
7.145833226666666
 30
0
 11
7.711249999999987
 21
7.080833226666666
 31
0
  0
LINE
  8
0
 62
7
 10
7.711249999999987
 20
7.080833226666666
 30
0
 11
6.651249879999987
 21
7.080833226666666
 31
0
  0
LINE
  8
0
 62
7
 10
6.651250039999991
 20
7.329166666666666
 30
0
 11
7.711250149999993
 21
7.329166666666666
 31
0
  0
LINE
  8
0
 62
7
 10
6.651250039999991
 20
7.264166666666667
 30
0
 11
6.651250039999991
 21
7.329166666666666
 31
0
  0
LINE
  8
0
 62
7
 10
7.711250149999993
 20
7.329166666666666
 30
0
 11
7.711250149999993
 21
7.264166666666667
 31
0
  0
LINE
  8
0
 62
7
 10
7.711250149999993
 20
7.264166666666667
 30
0
 11
6.651250039999991
 21
7.264166666666667
 31
0
  0
LINE
  8
0
 62
7
 10
7.711249999999987
 20
7.447499946666667
 30
0
 11
6.57037079
 21
7.447499946666667
 31
0
  0
LINE
  8
0
 62
7
 10
6.57037079
 20
7.512499946666667
 30
0
 11
7.711249999999987
 21
7.512499946666667
 31
0
  0
LINE
  8
0
 62
7
 10
6.57037079
 20
7.447499946666667
 30
0
 11
6.57037079
 21
7.512499946666667
 31
0
  0
LINE
  8
0
 62
7
 10
7.711249999999987
 20
7.512499946666667
 30
0
 11
7.711249999999987
 21
7.447499946666667
 31
0
  0
LINE
  8
0
 62
7
 10
7.251312940000003
 20
7.630833226666666
 30
0
 11
6.437863390000001
 21
7.630833226666666
 31
0
  0
LINE
  8
0
 62
7
 10
6.437863390000001
 20
7.695833226666666
 30
0
 11
7.251312940000003
 21
7.695833226666666
 31
0
  0
LINE
  8
0
 62
7
 10
6.437863390000001
 20
7.630833226666666
 30
0
 11
6.437863390000001
 21
7.695833226666666
 31
0
  0
LINE
  8
0
 62
7
 10
7.251312940000003
 20
7.695833226666666
 30
0
 11
7.251312940000003
 21
7.630833226666666
 31
0
  0
LINE
  8
0
 62
7
 10
6.396249009999992
 20
7.879166666666666
 30
0
 11
6.806313859999991
 21
7.879166666666666
 31
0
  0
LINE
  8
0
 62
7
 10
6.806313859999991
 20
7.814166666666667
 30
0
 11
6.396249009999992
 21
7.814166666666667
 31
0
  0
LINE
  8
0
 62
7
 10
6.396249009999992
 20
7.814166666666667
 30
0
 11
6.396249009999992
 21
7.879166666666666
 31
0
  0
LINE
  8
0
 62
7
 10
6.806313859999991
 20
7.879166666666666
 30
0
 11
6.806313859999991
 21
7.814166666666667
 31
0
  0
LINE
  8
0
 62
7
 10
0.7562500000000001
 20
5.012499999999999
 30
0
 11
0.90625
 21
5.012499999999999
 31
0
  0
LINE
  8
0
 62
7
 10
0.7562500000000001
 20
5.212499999999999
 30
0
 11
0.90625
 21
5.212499999999999
 31
0
  0
LINE
  8
0
 62
7
 10
0.7562500000000001
 20
7.762499999999999
 30
0
 11
0.90625
 21
7.762499999999999
 31
0
  0
LINE
  8
0
 62
7
 10
0.7562500000000001
 20
7.962499999999999
 30
0
 11
0.90625
 21
7.962499999999999
 31
0
  0
LINE
  8
0
 62
7
 10
0.90625
 20
4.862499999999999
 30
0
 11
0.90625
 21
5.012499999999999
 31
0
  0
LINE
  8
0
 62
7
 10
0.90625
 20
5.012499999999999
 30
0
 11
1.08125
 21
5.012499999999999
 31
0
  0
LINE
  8
0
 62
7
 10
0.90625
 20
5.212499999999999
 30
0
 11
0.90625
 21
5.3125
 31
0
  0
LINE
  8
0
 62
7
 10
0.90625
 20
5.212499999999999
 30
0
 11
1.08125
 21
5.212499999999999
 31
0
  0
LINE
  8
0
 62
7
 10
0.90625
 20
7.762499999999999
 30
0
 11
1.08125
 21
7.762499999999999
 31
0
  0
LINE
  8
0
 62
7
 10
0.90625
 20
7.962499999999999
 30
0
 11
0.90625
 21
8.062499999999998
 31
0
  0
LINE
  8
0
 62
7
 10
0.90625
 20
7.962499999999999
 30
0
 11
1.08125
 21
7.962499999999999
 31
0
  0
LINE
  8
0
 62
7
 10
1.08125
 20
4.862499999999999
 30
0
 11
1.08125
 21
5.012499999999999
 31
0
  0
LINE
  8
0
 62
7
 10
1.08125
 20
5.012499999999999
 30
0
 11
4.591249999999998
 21
5.012499999999999
 31
0
  0
LINE
  8
0
 62
7
 10
1.08125
 20
5.212499999999999
 30
0
 11
1.08125
 21
5.3125
 31
0
  0
LINE
  8
0
 62
7
 10
1.08125
 20
5.212499999999999
 30
0
 11
4.591249999999998
 21
5.212499999999999
 31
0
  0
LINE
  8
0
 62
7
 10
1.08125
 20
7.762499999999999
 30
0
 11
4.591249999999998
 21
7.762499999999999
 31
0
  0
LINE
  8
0
 62
7
 10
1.08125
 20
7.962499999999999
 30
0
 11
1.08125
 21
8.062499999999998
 31
0
  0
LINE
  8
0
 62
7
 10
1.08125
 20
7.962499999999999
 30
0
 11
4.591249999999998
 21
7.962499999999999
 31
0
  0
LINE
  8
0
 62
7
 10
4.591249999999998
 20
4.862499999999999
 30
0
 11
4.591249999999998
 21
5.012499999999999
 31
0
  0
LINE
  8
0
 62
7
 10
4.591249999999998
 20
5.012499999999999
 30
0
 11
4.766249999999999
 21
5.012499999999999
 31
0
  0
LINE
  8
0
 62
7
 10
4.591249999999998
 20
5.212499999999999
 30
0
 11
4.591249999999998
 21
5.3125
 31
0
  0
LINE
  8
0
 62
7
 10
4.591249999999998
 20
5.212499999999999
 30
0
 11
4.766249999999999
 21
5.212499999999999
 31
0
  0
LINE
  8
0
 62
7
 10
4.591249999999998
 20
7.762499999999999
 30
0
 11
4.766249999999999
 21
7.762499999999999
 31
0
  0
LINE
  8
0
 62
7
 10
4.591249999999998
 20
7.962499999999999
 30
0
 11
4.591249999999998
 21
8.062499999999998
 31
0
  0
LINE
  8
0
 62
7
 10
4.591249999999998
 20
7.962499999999999
 30
0
 11
4.766249999999999
 21
7.962499999999999
 31
0
  0
LINE
  8
0
 62
7
 10
4.766249999999999
 20
4.862499999999999
 30
0
 11
4.766249999999999
 21
5.012499999999999
 31
0
  0
LINE
  8
0
 62
7
 10
4.766249999999999
 20
5.012499999999999
 30
0
 11
4.916249999999998
 21
5.012499999999999
 31
0
  0
LINE
  8
0
 62
7
 10
4.766249999999999
 20
5.212499999999999
 30
0
 11
4.766249999999999
 21
5.3125
 31
0
  0
LINE
  8
0
 62
7
 10
4.766249999999999
 20
5.212499999999999
 30
0
 11
4.916249999999998
 21
5.212499999999999
 31
0
  0
LINE
  8
0
 62
7
 10
4.766249999999999
 20
7.762499999999999
 30
0
 11
4.916249999999998
 21
7.762499999999999
 31
0
  0
LINE
  8
0
 62
7
 10
4.766249999999999
 20
7.962499999999999
 30
0
 11
4.766249999999999
 21
8.062499999999998
 31
0
  0
LINE
  8
0
 62
7
 10
4.766249999999999
 20
7.962499999999999
 30
0
 11
4.916249999999998
 21
7.962499999999999
 31
0
  0
LINE
  8
0
 62
7
  6
DASHDOT
 10
0.7562500000000001
 20
4.962499999999999
 30
0
 11
0.7562500000000001
 21
5.012499999999999
 31
0
  0
LINE
  8
0
 62
7
  6
DASHDOT
 10
0.7562500000000001
 20
7.712499999999999
 30
0
 11
0.7562500000000001
 21
7.762499999999999
 31
0
  0
LINE
  8
0
 62
7
  6
DASHDOT
 10
4.916249999999998
 20
4.962499999999999
 30
0
 11
4.916249999999998
 21
5.012499999999999
 31
0
  0
LINE
  8
0
 62
7
  6
DASHDOT
 10
4.916249999999998
 20
7.712499999999999
 30
0
 11
4.916249999999998
 21
7.762499999999999
 31
0
  0
LINE
  8
0
 62
7
  6
DASHDOT
 10
0.8562500000000001
 20
8.112499999999999
 30
0
 11
0.90625
 21
8.112499999999999
 31
0
  0
LINE
  8
0
 62
7
  6
DASHDOT
 10
0.8562500000000001
 20
4.862499999999999
 30
0
 11
0.90625
 21
4.862499999999999
 31
0
  0
LINE
  8
0
 62
7
  6
DASHDOT
 10
4.541249999999998
 20
8.112499999999999
 30
0
 11
4.591249999999998
 21
8.112499999999999
 31
0
  0
LINE
  8
0
 62
7
  6
DASHDOT
 10
4.541249999999998
 20
4.862499999999999
 30
0
 11
4.591249999999998
 21
4.862499999999999
 31
0
  0
LINE
  8
0
 62
7
 10
0.7562500000000001
 20
5.3125
 30
0
 11
0.90625
 21
5.3125
 31
0
  0
LINE
  8
0
 62
7
 10
0.90625
 20
5.3125
 30
0
 11
0.90625
 21
7.762499999999999
 31
0
  0
LINE
  8
0
 62
7
  6
DASHDOT
 10
0.7562500000000001
 20
5.3125
 30
0
 11
0.7562500000000001
 21
5.3625
 31
0
  0
LINE
  8
0
 62
7
 10
1.08125
 20
5.3125
 30
0
 11
4.591249999999998
 21
5.3125
 31
0
  0
LINE
  8
0
 62
7
 10
1.08125
 20
5.3125
 30
0
 11
1.08125
 21
7.762499999999999
 31
0
  0
LINE
  8
0
 62
7
 10
4.591249999999998
 20
5.3125
 30
0
 11
4.591249999999998
 21
7.762499999999999
 31
0
  0
LINE
  8
0
 62
7
 10
4.766249999999999
 20
5.3125
 30
0
 11
4.916249999999998
 21
5.3125
 31
0
  0
LINE
  8
0
 62
7
 10
4.766249999999999
 20
5.3125
 30
0
 11
4.766249999999999
 21
7.762499999999999
 31
0
  0
LINE
  8
0
 62
7
  6
DASHDOT
 10
4.916249999999998
 20
5.3125
 30
0
 11
4.916249999999998
 21
5.3625
 31
0
  0
LINE
  8
0
 62
7
 10
0.7562500000000001
 20
8.062499999999998
 30
0
 11
0.90625
 21
8.062499999999998
 31
0
  0
LINE
  8
0
 62
7
 10
0.90625
 20
8.062499999999998
 30
0
 11
0.90625
 21
8.112499999999999
 31
0
  0
LINE
  8
0
 62
7
  6
DASHDOT
 10
0.7562500000000001
 20
8.062499999999998
 30
0
 11
0.7562500000000001
 21
8.112499999999999
 31
0
  0
LINE
  8
0
 62
7
 10
1.08125
 20
8.062499999999998
 30
0
 11
4.591249999999998
 21
8.062499999999998
 31
0
  0
LINE
  8
0
 62
7
 10
1.08125
 20
8.062499999999998
 30
0
 11
1.08125
 21
8.112499999999999
 31
0
  0
LINE
  8
0
 62
7
 10
4.591249999999998
 20
8.062499999999998
 30
0
 11
4.591249999999998
 21
8.112499999999999
 31
0
  0
LINE
  8
0
 62
7
 10
4.766249999999999
 20
8.062499999999998
 30
0
 11
4.916249999999998
 21
8.062499999999998
 31
0
  0
LINE
  8
0
 62
7
 10
4.766249999999999
 20
8.062499999999998
 30
0
 11
4.766249999999999
 21
8.112499999999999
 31
0
  0
LINE
  8
0
 62
7
  6
DASHDOT
 10
4.916249999999998
 20
8.062499999999998
 30
0
 11
4.916249999999998
 21
8.112499999999999
 31
0
  0
LINE
  8
0
 62
7
  6
DASHDOT
 10
4.916249999999998
 20
5.012499999999999
 30
0
 11
4.916249999999998
 21
5.212499999999999
 31
0
  0
LINE
  8
0
 62
7
  6
DASHDOT
 10
4.916249999999998
 20
5.212499999999999
 30
0
 11
4.916249999999998
 21
5.3125
 31
0
  0
LINE
  8
0
 62
7
  6
DASHDOT
 10
4.591249999999998
 20
4.862499999999999
 30
0
 11
4.766249999999999
 21
4.862499999999999
 31
0
  0
LINE
  8
0
 62
7
  6
DASHDOT
 10
4.766249999999999
 20
4.862499999999999
 30
0
 11
4.816249999999998
 21
4.862499999999999
 31
0
  0
LINE
  8
0
 62
7
  6
DASHDOT
 10
0.7562500000000001
 20
5.012499999999999
 30
0
 11
0.7562500000000001
 21
5.212499999999999
 31
0
  0
LINE
  8
0
 62
7
  6
DASHDOT
 10
0.7562500000000001
 20
5.212499999999999
 30
0
 11
0.7562500000000001
 21
5.3125
 31
0
  0
LINE
  8
0
 62
7
  6
DASHDOT
 10
0.90625
 20
4.862499999999999
 30
0
 11
1.08125
 21
4.862499999999999
 31
0
  0
LINE
  8
0
 62
7
  6
DASHDOT
 10
1.08125
 20
4.862499999999999
 30
0
 11
1.13125
 21
4.862499999999999
 31
0
  0
LINE
  8
0
 62
7
  6
DASHDOT
 10
0.7562500000000001
 20
7.762499999999999
 30
0
 11
0.7562500000000001
 21
7.962499999999999
 31
0
  0
LINE
  8
0
 62
7
  6
DASHDOT
 10
0.7562500000000001
 20
7.962499999999999
 30
0
 11
0.7562500000000001
 21
8.062499999999998
 31
0
  0
LINE
  8
0
 62
7
  6
DASHDOT
 10
0.90625
 20
8.112499999999999
 30
0
 11
1.08125
 21
8.112499999999999
 31
0
  0
LINE
  8
0
 62
7
  6
DASHDOT
 10
1.08125
 20
8.112499999999999
 30
0
 11
1.13125
 21
8.112499999999999
 31
0
  0
LINE
  8
0
 62
7
  6
DASHDOT
 10
4.916249999999998
 20
7.762499999999999
 30
0
 11
4.916249999999998
 21
7.962499999999999
 31
0
  0
LINE
  8
0
 62
7
  6
DASHDOT
 10
4.916249999999998
 20
7.962499999999999
 30
0
 11
4.916249999999998
 21
8.062499999999998
 31
0
  0
LINE
  8
0
 62
7
  6
DASHDOT
 10
4.591249999999998
 20
8.112499999999999
 30
0
 11
4.766249999999999
 21
8.112499999999999
 31
0
  0
LINE
  8
0
 62
7
  6
DASHDOT
 10
4.766249999999999
 20
8.112499999999999
 30
0
 11
4.816249999999998
 21
8.112499999999999
 31
0
  0
LINE
  8
0
 62
7
 10
8.00625
 20
5.012499999999999
 30
0
 11
8.00625
 21
4.862499999999999
 31
0
  0
LINE
  8
0
 62
7
 10
7.766249999999999
 20
7.962499999999999
 30
0
 11
7.766249999999999
 21
8.112499999999999
 31
0
  0
LINE
  8
0
 62
7
 10
7.766249999999999
 20
7.962499999999999
 30
0
 11
8.00625
 21
7.962499999999999
 31
0
  0
LINE
  8
0
 62
7
 10
8.00625
 20
8.112499999999999
 30
0
 11
8.00625
 21
7.962499999999999
 31
0
  0
LINE
  8
0
 62
7
 10
7.766249999999999
 20
7.762499999999999
 30
0
 11
7.766249999999999
 21
7.962499999999999
 31
0
  0
LINE
  8
0
 62
7
 10
7.766249999999999
 20
7.762499999999999
 30
0
 11
8.00625
 21
7.762499999999999
 31
0
  0
LINE
  8
0
 62
7
 10
8.00625
 20
7.962499999999999
 30
0
 11
8.00625
 21
7.762499999999999
 31
0
  0
LINE
  8
0
 62
7
 10
7.766249999999999
 20
5.212499999999999
 30
0
 11
7.766249999999999
 21
7.762499999999999
 31
0
  0
LINE
  8
0
 62
7
 10
7.766249999999999
 20
5.212499999999999
 30
0
 11
8.00625
 21
5.212499999999999
 31
0
  0
LINE
  8
0
 62
7
 10
8.00625
 20
7.762499999999999
 30
0
 11
8.00625
 21
5.212499999999999
 31
0
  0
LINE
  8
0
 62
7
 10
7.766249999999999
 20
5.012499999999999
 30
0
 11
7.766249999999999
 21
5.212499999999999
 31
0
  0
LINE
  8
0
 62
7
 10
7.766249999999999
 20
5.012499999999999
 30
0
 11
8.00625
 21
5.012499999999999
 31
0
  0
LINE
  8
0
 62
7
 10
8.00625
 20
5.212499999999999
 30
0
 11
8.00625
 21
5.012499999999999
 31
0
  0
LINE
  8
0
 62
7
 10
7.766249999999999
 20
4.862499999999999
 30
0
 11
7.766249999999999
 21
5.012499999999999
 31
0
  0
LINE
  8
0
 62
7
 10
6.36625
 20
7.762499999999999
 30
0
 11
6.36625
 21
7.962499999999999
 31
0
  0
LINE
  8
0
 62
7
 10
6.06625
 20
7.762499999999999
 30
0
 11
6.36625
 21
7.762499999999999
 31
0
  0
LINE
  8
0
 62
7
 10
6.06625
 20
7.962499999999999
 30
0
 11
6.36625
 21
7.962499999999999
 31
0
  0
LINE
  8
0
 62
7
 10
6.06625
 20
5.212499999999999
 30
0
 11
6.36625
 21
5.212499999999999
 31
0
  0
LINE
  8
0
 62
7
 10
6.36625
 20
5.012499999999999
 30
0
 11
6.36625
 21
5.212499999999999
 31
0
  0
LINE
  8
0
 62
7
 10
6.06625
 20
5.012499999999999
 30
0
 11
6.36625
 21
5.012499999999999
 31
0
  0
LINE
  8
0
 62
7
  6
DASHDOT
 10
8.00625
 20
8.112499999999999
 30
0
 11
8.056249999999999
 21
8.112499999999999
 31
0
  0
LINE
  8
0
 62
7
  6
DASHDOT
 10
6.06625
 20
8.062499999999998
 30
0
 11
6.06625
 21
8.112499999999999
 31
0
  0
LINE
  8
0
 62
7
  6
DASHDOT
 10
6.06625
 20
5.012499999999999
 30
0
 11
6.06625
 21
4.962499999999999
 31
0
  0
LINE
  8
0
 62
7
  6
DASHDOT
 10
8.00625
 20
4.862499999999999
 30
0
 11
8.056249999999999
 21
4.862499999999999
 31
0
  0
LINE
  8
0
 62
7
 10
6.06625
 20
5.3125
 30
0
 11
6.36625
 21
5.3125
 31
0
  0
LINE
  8
0
 62
7
  6
DASHDOT
 10
6.06625
 20
5.3625
 30
0
 11
6.06625
 21
5.3125
 31
0
  0
LINE
  8
0
 62
7
 10
6.06625
 20
8.062499999999998
 30
0
 11
6.36625
 21
8.062499999999998
 31
0
  0
LINE
  8
0
 62
7
  6
DASHDOT
 10
6.06625
 20
7.962499999999999
 30
0
 11
6.06625
 21
8.062499999999998
 31
0
  0
LINE
  8
0
 62
7
  6
DASHDOT
 10
6.06625
 20
5.3125
 30
0
 11
6.06625
 21
5.212499999999999
 31
0
  0
LINE
  8
0
 62
7
  6
DASHDOT
 10
6.06625
 20
5.212499999999999
 30
0
 11
6.06625
 21
5.012499999999999
 31
0
  0
LINE
  8
0
 62
7
  6
DASHDOT
 10
7.766249999999999
 20
4.862499999999999
 30
0
 11
8.00625
 21
4.862499999999999
 31
0
  0
LINE
  8
0
 62
7
  6
DASHDOT
 10
7.71625
 20
4.862499999999999
 30
0
 11
7.766249999999999
 21
4.862499999999999
 31
0
  0
LINE
  8
0
 62
7
  6
DASHDOT
 10
7.71625
 20
8.112499999999999
 30
0
 11
7.766249999999999
 21
8.112499999999999
 31
0
  0
LINE
  8
0
 62
7
  6
DASHDOT
 10
7.766249999999999
 20
8.112499999999999
 30
0
 11
8.00625
 21
8.112499999999999
 31
0
  0
LINE
  8
0
 62
7
  6
DASHDOT
 10
6.06625
 20
7.712499999999999
 30
0
 11
6.06625
 21
7.762499999999999
 31
0
  0
LINE
  8
0
 62
7
  6
DASHDOT
 10
6.06625
 20
7.762499999999999
 30
0
 11
6.06625
 21
7.962499999999999
 31
0
  0
LINE
  8
0
 62
7
  6
DASHED
 10
6.36625
 20
7.962499999999999
 30
0
 11
7.766249999999999
 21
7.962499999999999
 31
0
  0
LINE
  8
0
 62
7
  6
DASHED
 10
6.36625
 20
7.762499999999999
 30
0
 11
7.766249999999999
 21
7.762499999999999
 31
0
  0
LINE
  8
0
 62
7
  6
DASHED
 10
6.36625
 20
5.212499999999999
 30
0
 11
7.766249999999999
 21
5.212499999999999
 31
0
  0
LINE
  8
0
 62
7
  6
DASHED
 10
6.36625
 20
5.012499999999999
 30
0
 11
7.766249999999999
 21
5.012499999999999
 31
0
  0
LINE
  8
0
 62
7
 10
4.766249999999999
 20
2.182499999999997
 30
0
 11
4.916249999999998
 21
2.182499999999997
 31
0
  0
LINE
  8
0
 62
7
 10
4.766249999999999
 20
2.332499999999997
 30
0
 11
4.766249999999999
 21
2.182499999999997
 31
0
  0
LINE
  8
0
 62
7
 10
4.591249999999998
 20
2.182499999999997
 30
0
 11
4.591249999999998
 21
2.332499999999997
 31
0
  0
LINE
  8
0
 62
7
 10
1.08125
 20
2.182499999999997
 30
0
 11
4.591249999999998
 21
2.182499999999997
 31
0
  0
LINE
  8
0
 62
7
 10
1.08125
 20
2.332499999999997
 30
0
 11
1.08125
 21
2.182499999999997
 31
0
  0
LINE
  8
0
 62
7
 10
0.90625
 20
2.182499999999997
 30
0
 11
0.90625
 21
2.332499999999997
 31
0
  0
LINE
  8
0
 62
7
 10
0.7412500000000001
 20
2.182499999999997
 30
0
 11
0.90625
 21
2.182499999999997
 31
0
  0
LINE
  8
0
 62
7
 10
0.7412500000000001
 20
1.9425
 30
0
 11
4.916249999999998
 21
1.9425
 31
0
  0
LINE
  8
0
 62
7
 10
0.7412500000000001
 20
1.9025
 30
0
 11
4.916249999999998
 21
1.9025
 31
0
  0
LINE
  8
0
 62
7
 10
4.766249999999999
 20
1.6625
 30
0
 11
4.916249999999998
 21
1.6625
 31
0
  0
LINE
  8
0
 62
7
 10
4.591249999999998
 20
0.2624999999999991
 30
0
 11
4.591249999999998
 21
0.1624999999999991
 31
0
  0
LINE
  8
0
 62
7
 10
4.591249999999998
 20
0.1624999999999991
 30
0
 11
4.766249999999999
 21
0.1624999999999991
 31
0
  0
LINE
  8
0
 62
7
 10
4.766249999999999
 20
0.1624999999999991
 30
0
 11
4.766249999999999
 21
1.6625
 31
0
  0
LINE
  8
0
 62
7
 10
1.08125
 20
1.6625
 30
0
 11
4.591249999999998
 21
1.6625
 31
0
  0
LINE
  8
0
 62
7
 10
1.08125
 20
0.3124999999999991
 30
0
 11
1.08125
 21
1.6625
 31
0
  0
LINE
  8
0
 62
7
 10
0.90625
 20
1.662500000000001
 30
0
 11
0.90625
 21
0.2624999999999991
 31
0
  0
LINE
  8
0
 62
7
 10
0.7412500000000001
 20
1.6625
 30
0
 11
0.90625
 21
1.662500000000001
 31
0
  0
LINE
  8
0
 62
7
 10
0.90625
 20
0.2624999999999991
 30
0
 11
1.08125
 21
0.2624999999999991
 31
0
  0
LINE
  8
0
 62
7
 10
4.591249999999998
 20
0.3124999999999991
 30
0
 11
1.08125
 21
0.3124999999999991
 31
0
  0
LINE
  8
0
 62
7
 10
4.591249999999998
 20
1.6625
 30
0
 11
4.591249999999998
 21
0.3124999999999991
 31
0
  0
LINE
  8
0
 62
7
 10
1.08125
 20
0.2624999999999991
 30
0
 11
1.08125
 21
0.3124999999999991
 31
0
  0
LINE
  8
0
 62
7
  6
DASHDOT
 10
4.591249999999998
 20
0.2624999999999991
 30
0
 11
1.08125
 21
0.2624999999999991
 31
0
  0
LINE
  8
0
 62
7
 10
4.591249999999998
 20
0.3124999999999991
 30
0
 11
4.591249999999998
 21
0.2624999999999991
 31
0
  0
LINE
  8
0
 62
7
  6
DASHDOT
 10
4.766249999999999
 20
2.332499999999997
 30
0
 11
4.816249999999998
 21
2.332499999999997
 31
0
  0
LINE
  8
0
 62
7
  6
DASHDOT
 10
1.08125
 20
2.332499999999997
 30
0
 11
1.13125
 21
2.332499999999997
 31
0
  0
LINE
  8
0
 62
7
  6
DASHDOT
 10
4.916249999999998
 20
2.182499999999997
 30
0
 11
4.916249999999998
 21
2.232499999999997
 31
0
  0
LINE
  8
0
 62
7
  6
DASHDOT
 10
0.7412500000000001
 20
2.182499999999997
 30
0
 11
0.7412500000000001
 21
2.232499999999997
 31
0
  0
LINE
  8
0
 62
7
  6
DASHDOT
 10
0.7412500000000001
 20
1.9425
 30
0
 11
0.7412500000000001
 21
2.182499999999997
 31
0
  0
LINE
  8
0
 62
7
  6
DASHDOT
 10
0.7412500000000001
 20
1.612499999999999
 30
0
 11
0.7412500000000001
 21
1.6625
 31
0
  0
LINE
  8
0
 62
7
  6
DASHDOT
 10
4.591249999999998
 20
2.332499999999997
 30
0
 11
4.766249999999999
 21
2.332499999999997
 31
0
  0
LINE
  8
0
 62
7
  6
DASHDOT
 10
4.541249999999998
 20
2.332499999999997
 30
0
 11
4.591249999999998
 21
2.332499999999997
 31
0
  0
LINE
  8
0
 62
7
  6
DASHDOT
 10
4.916249999999998
 20
1.9425
 30
0
 11
4.916249999999998
 21
2.182499999999997
 31
0
  0
LINE
  8
0
 62
7
  6
DASHDOT
 10
4.916249999999998
 20
1.612499999999999
 30
0
 11
4.916249999999998
 21
1.6625
 31
0
  0
LINE
  8
0
 62
7
  6
DASHDOT
 10
0.7412500000000001
 20
1.9025
 30
0
 11
0.7412500000000001
 21
1.9425
 31
0
  0
LINE
  8
0
 62
7
  6
DASHDOT
 10
4.916249999999998
 20
1.9025
 30
0
 11
4.916249999999998
 21
1.9425
 31
0
  0
LINE
  8
0
 62
7
  6
DASHDOT
 10
0.7412500000000001
 20
1.6625
 30
0
 11
0.7412500000000001
 21
1.9025
 31
0
  0
LINE
  8
0
 62
7
  6
DASHDOT
 10
4.916249999999998
 20
1.6625
 30
0
 11
4.916249999999998
 21
1.9025
 31
0
  0
LINE
  8
0
 62
7
  6
DASHDOT
 10
0.8562500000000001
 20
2.332499999999997
 30
0
 11
0.90625
 21
2.332499999999997
 31
0
  0
LINE
  8
0
 62
7
  6
DASHDOT
 10
0.90625
 20
2.332499999999997
 30
0
 11
1.08125
 21
2.332499999999997
 31
0
  0
LINE
  8
0
 62
7
 10
1.97136598975189
 20
1.30667674217907
 30
0
 11
1.97136598975189
 21
1.42667674217907
 31
0
  0
LINE
  8
0
 62
7
 10
2.04696598975189
 20
1.42667674217907
 30
0
 11
1.99296598975189
 21
1.36667674217907
 31
0
  0
LINE
  8
0
 62
7
 10
1.99296598975189
 20
1.36667674217907
 30
0
 11
2.04696598975189
 21
1.30667674217907
 31
0
  0
LINE
  8
0
 62
7
 10
1.99296598975189
 20
1.36667674217907
 30
0
 11
1.97136598975189
 21
1.34267674217907
 31
0
  0
LINE
  8
0
 62
7
 10
2.15496598975189
 20
1.42667674217907
 30
0
 11
2.07936598975189
 21
1.42667674217907
 31
0
  0
LINE
  8
0
 62
7
 10
2.07936598975189
 20
1.42667674217907
 30
0
 11
2.07936598975189
 21
1.36667674217907
 31
0
  0
LINE
  8
0
 62
7
 10
2.07936598975189
 20
1.30667674217907
 30
0
 11
2.15496598975189
 21
1.30667674217907
 31
0
  0
LINE
  8
0
 62
7
 10
2.14416598975189
 20
1.36667674217907
 30
0
 11
2.07936598975189
 21
1.36667674217907
 31
0
  0
LINE
  8
0
 62
7
 10
2.07936598975189
 20
1.36667674217907
 30
0
 11
2.07936598975189
 21
1.30667674217907
 31
0
  0
LINE
  8
0
 62
7
 10
2.18736598975189
 20
1.30667674217907
 30
0
 11
2.18736598975189
 21
1.42667674217907
 31
0
  0
LINE
  8
0
 62
7
 10
2.18736598975189
 20
1.42667674217907
 30
0
 11
2.26296598975189
 21
1.30667674217907
 31
0
  0
LINE
  8
0
 62
7
 10
2.26296598975189
 20
1.30667674217907
 30
0
 11
2.26296598975189
 21
1.42667674217907
 31
0
  0
LINE
  8
0
 62
7
 10
2.29536598975189
 20
1.30667674217907
 30
0
 11
2.29536598975189
 21
1.42667674217907
 31
0
  0
LINE
  8
0
 62
7
 10
2.29536598975189
 20
1.42667674217907
 30
0
 11
2.37096598975189
 21
1.30667674217907
 31
0
  0
LINE
  8
0
 62
7
 10
2.37096598975189
 20
1.30667674217907
 30
0
 11
2.37096598975189
 21
1.42667674217907
 31
0
  0
LINE
  8
0
 62
7
 10
2.47896598975189
 20
1.39067674217907
 30
0
 11
2.47626598975189
 21
1.40267674217907
 31
0
  0
LINE
  8
0
 62
7
 10
2.47626598975189
 20
1.40267674217907
 30
0
 11
2.470865989751891
 21
1.41167674217907
 31
0
  0
LINE
  8
0
 62
7
 10
2.470865989751891
 20
1.41167674217907
 30
0
 11
2.46546598975189
 21
1.41767674217907
 31
0
  0
LINE
  8
0
 62
7
 10
2.46546598975189
 20
1.41767674217907
 30
0
 11
2.45736598975189
 21
1.42367674217907
 31
0
  0
LINE
  8
0
 62
7
 10
2.45736598975189
 20
1.42367674217907
 30
0
 11
2.44926598975189
 21
1.42667674217907
 31
0
  0
LINE
  8
0
 62
7
 10
2.44926598975189
 20
1.42667674217907
 30
0
 11
2.43306598975189
 21
1.42667674217907
 31
0
  0
LINE
  8
0
 62
7
 10
2.43306598975189
 20
1.42667674217907
 30
0
 11
2.42496598975189
 21
1.42367674217907
 31
0
  0
LINE
  8
0
 62
7
 10
2.42496598975189
 20
1.42367674217907
 30
0
 11
2.41686598975189
 21
1.41767674217907
 31
0
  0
LINE
  8
0
 62
7
 10
2.41686598975189
 20
1.41767674217907
 30
0
 11
2.41146598975189
 21
1.41167674217907
 31
0
  0
LINE
  8
0
 62
7
 10
2.41146598975189
 20
1.41167674217907
 30
0
 11
2.406065989751889
 21
1.40267674217907
 31
0
  0
LINE
  8
0
 62
7
 10
2.406065989751889
 20
1.40267674217907
 30
0
 11
2.40336598975189
 21
1.39067674217907
 31
0
  0
LINE
  8
0
 62
7
 10
2.40336598975189
 20
1.39067674217907
 30
0
 11
2.40336598975189
 21
1.34267674217907
 31
0
  0
LINE
  8
0
 62
7
 10
2.40336598975189
 20
1.34267674217907
 30
0
 11
2.406065989751889
 21
1.33067674217907
 31
0
  0
LINE
  8
0
 62
7
 10
2.406065989751889
 20
1.33067674217907
 30
0
 11
2.41146598975189
 21
1.32167674217907
 31
0
  0
LINE
  8
0
 62
7
 10
2.41146598975189
 20
1.32167674217907
 30
0
 11
2.41686598975189
 21
1.31567674217907
 31
0
  0
LINE
  8
0
 62
7
 10
2.41686598975189
 20
1.31567674217907
 30
0
 11
2.42496598975189
 21
1.30967674217907
 31
0
  0
LINE
  8
0
 62
7
 10
2.42496598975189
 20
1.30967674217907
 30
0
 11
2.43306598975189
 21
1.30667674217907
 31
0
  0
LINE
  8
0
 62
7
 10
2.43306598975189
 20
1.30667674217907
 30
0
 11
2.44926598975189
 21
1.30667674217907
 31
0
  0
LINE
  8
0
 62
7
 10
2.44926598975189
 20
1.30667674217907
 30
0
 11
2.45736598975189
 21
1.30967674217907
 31
0
  0
LINE
  8
0
 62
7
 10
2.45736598975189
 20
1.30967674217907
 30
0
 11
2.46546598975189
 21
1.31567674217907
 31
0
  0
LINE
  8
0
 62
7
 10
2.46546598975189
 20
1.31567674217907
 30
0
 11
2.470865989751891
 21
1.32167674217907
 31
0
  0
LINE
  8
0
 62
7
 10
2.470865989751891
 20
1.32167674217907
 30
0
 11
2.47626598975189
 21
1.33067674217907
 31
0
  0
LINE
  8
0
 62
7
 10
2.47626598975189
 20
1.33067674217907
 30
0
 11
2.47896598975189
 21
1.34267674217907
 31
0
  0
LINE
  8
0
 62
7
 10
2.47896598975189
 20
1.34267674217907
 30
0
 11
2.47896598975189
 21
1.36667674217907
 31
0
  0
LINE
  8
0
 62
7
 10
2.47896598975189
 20
1.36667674217907
 30
0
 11
2.44656598975189
 21
1.36667674217907
 31
0
  0
LINE
  8
0
 62
7
 10
2.55726598975189
 20
1.42667674217907
 30
0
 11
2.541065989751889
 21
1.42667674217907
 31
0
  0
LINE
  8
0
 62
7
 10
2.541065989751889
 20
1.42667674217907
 30
0
 11
2.53296598975189
 21
1.42367674217907
 31
0
  0
LINE
  8
0
 62
7
 10
2.53296598975189
 20
1.42367674217907
 30
0
 11
2.52486598975189
 21
1.41767674217907
 31
0
  0
LINE
  8
0
 62
7
 10
2.52486598975189
 20
1.41767674217907
 30
0
 11
2.51946598975189
 21
1.41167674217907
 31
0
  0
LINE
  8
0
 62
7
 10
2.51946598975189
 20
1.41167674217907
 30
0
 11
2.51406598975189
 21
1.40267674217907
 31
0
  0
LINE
  8
0
 62
7
 10
2.51406598975189
 20
1.40267674217907
 30
0
 11
2.51136598975189
 21
1.39067674217907
 31
0
  0
LINE
  8
0
 62
7
 10
2.51136598975189
 20
1.39067674217907
 30
0
 11
2.51136598975189
 21
1.34267674217907
 31
0
  0
LINE
  8
0
 62
7
 10
2.51136598975189
 20
1.34267674217907
 30
0
 11
2.51406598975189
 21
1.33067674217907
 31
0
  0
LINE
  8
0
 62
7
 10
2.51406598975189
 20
1.33067674217907
 30
0
 11
2.51946598975189
 21
1.32167674217907
 31
0
  0
LINE
  8
0
 62
7
 10
2.51946598975189
 20
1.32167674217907
 30
0
 11
2.52486598975189
 21
1.31567674217907
 31
0
  0
LINE
  8
0
 62
7
 10
2.52486598975189
 20
1.31567674217907
 30
0
 11
2.53296598975189
 21
1.30967674217907
 31
0
  0
LINE
  8
0
 62
7
 10
2.53296598975189
 20
1.30967674217907
 30
0
 11
2.541065989751889
 21
1.30667674217907
 31
0
  0
LINE
  8
0
 62
7
 10
2.541065989751889
 20
1.30667674217907
 30
0
 11
2.55726598975189
 21
1.30667674217907
 31
0
  0
LINE
  8
0
 62
7
 10
2.55726598975189
 20
1.30667674217907
 30
0
 11
2.565365989751891
 21
1.30967674217907
 31
0
  0
LINE
  8
0
 62
7
 10
2.565365989751891
 20
1.30967674217907
 30
0
 11
2.57346598975189
 21
1.31567674217907
 31
0
  0
LINE
  8
0
 62
7
 10
2.57346598975189
 20
1.31567674217907
 30
0
 11
2.57886598975189
 21
1.32167674217907
 31
0
  0
LINE
  8
0
 62
7
 10
2.57886598975189
 20
1.32167674217907
 30
0
 11
2.58426598975189
 21
1.33067674217907
 31
0
  0
LINE
  8
0
 62
7
 10
2.58426598975189
 20
1.33067674217907
 30
0
 11
2.58696598975189
 21
1.34267674217907
 31
0
  0
LINE
  8
0
 62
7
 10
2.58696598975189
 20
1.34267674217907
 30
0
 11
2.58696598975189
 21
1.39067674217907
 31
0
  0
LINE
  8
0
 62
7
 10
2.58696598975189
 20
1.39067674217907
 30
0
 11
2.58426598975189
 21
1.40267674217907
 31
0
  0
LINE
  8
0
 62
7
 10
2.58426598975189
 20
1.40267674217907
 30
0
 11
2.57886598975189
 21
1.41167674217907
 31
0
  0
LINE
  8
0
 62
7
 10
2.57886598975189
 20
1.41167674217907
 30
0
 11
2.57346598975189
 21
1.41767674217907
 31
0
  0
LINE
  8
0
 62
7
 10
2.57346598975189
 20
1.41767674217907
 30
0
 11
2.565365989751891
 21
1.42367674217907
 31
0
  0
LINE
  8
0
 62
7
 10
2.565365989751891
 20
1.42367674217907
 30
0
 11
2.55726598975189
 21
1.42667674217907
 31
0
  0
LINE
  8
0
 62
7
 10
2.60856598975189
 20
1.42667674217907
 30
0
 11
2.64636598975189
 21
1.42667674217907
 31
0
  0
LINE
  8
0
 62
7
 10
2.64636598975189
 20
1.42667674217907
 30
0
 11
2.64636598975189
 21
1.30667674217907
 31
0
  0
LINE
  8
0
 62
7
 10
2.64636598975189
 20
1.42667674217907
 30
0
 11
2.68416598975189
 21
1.42667674217907
 31
0
  0
LINE
  8
0
 62
7
 10
2.71656598975189
 20
1.42667674217907
 30
0
 11
2.75436598975189
 21
1.42667674217907
 31
0
  0
LINE
  8
0
 62
7
 10
2.75436598975189
 20
1.42667674217907
 30
0
 11
2.75436598975189
 21
1.30667674217907
 31
0
  0
LINE
  8
0
 62
7
 10
2.75436598975189
 20
1.42667674217907
 30
0
 11
2.79216598975189
 21
1.42667674217907
 31
0
  0
LINE
  8
0
 62
7
 10
2.91096598975189
 20
1.34867674217907
 30
0
 11
2.964965989751891
 21
1.34867674217907
 31
0
  0
LINE
  8
0
 62
7
 10
3.07296598975189
 20
1.42667674217907
 30
0
 11
3.11076598975189
 21
1.42667674217907
 31
0
  0
LINE
  8
0
 62
7
 10
3.11076598975189
 20
1.42667674217907
 30
0
 11
3.11076598975189
 21
1.30667674217907
 31
0
  0
LINE
  8
0
 62
7
 10
3.11076598975189
 20
1.42667674217907
 30
0
 11
3.148565989751889
 21
1.42667674217907
 31
0
  0
LINE
  8
0
 62
7
 10
3.18096598975189
 20
1.30667674217907
 30
0
 11
3.18096598975189
 21
1.42667674217907
 31
0
  0
LINE
  8
0
 62
7
 10
3.18096598975189
 20
1.42667674217907
 30
0
 11
3.232265989751891
 21
1.42667674217907
 31
0
  0
LINE
  8
0
 62
7
 10
3.232265989751891
 20
1.42667674217907
 30
0
 11
3.24306598975189
 21
1.42367674217907
 31
0
  0
LINE
  8
0
 62
7
 10
3.24306598975189
 20
1.42367674217907
 30
0
 11
3.251165989751889
 21
1.41767674217907
 31
0
  0
LINE
  8
0
 62
7
 10
3.251165989751889
 20
1.41767674217907
 30
0
 11
3.25386598975189
 21
1.41167674217907
 31
0
  0
LINE
  8
0
 62
7
 10
3.25386598975189
 20
1.41167674217907
 30
0
 11
3.25656598975189
 21
1.40267674217907
 31
0
  0
LINE
  8
0
 62
7
 10
3.25656598975189
 20
1.40267674217907
 30
0
 11
3.25656598975189
 21
1.39067674217907
 31
0
  0
LINE
  8
0
 62
7
 10
3.25656598975189
 20
1.39067674217907
 30
0
 11
3.25386598975189
 21
1.38167674217907
 31
0
  0
LINE
  8
0
 62
7
 10
3.25386598975189
 20
1.38167674217907
 30
0
 11
3.251165989751889
 21
1.37567674217907
 31
0
  0
LINE
  8
0
 62
7
 10
3.251165989751889
 20
1.37567674217907
 30
0
 11
3.24306598975189
 21
1.36967674217907
 31
0
  0
LINE
  8
0
 62
7
 10
3.24306598975189
 20
1.36967674217907
 30
0
 11
3.232265989751891
 21
1.36667674217907
 31
0
  0
LINE
  8
0
 62
7
 10
3.232265989751891
 20
1.36667674217907
 30
0
 11
3.224165989751889
 21
1.36667674217907
 31
0
  0
LINE
  8
0
 62
7
 10
3.224165989751889
 20
1.36667674217907
 30
0
 11
3.25656598975189
 21
1.30667674217907
 31
0
  0
LINE
  8
0
 62
7
 10
3.224165989751889
 20
1.36667674217907
 30
0
 11
3.18096598975189
 21
1.36667674217907
 31
0
  0
LINE
  8
0
 62
7
 10
3.35376598975189
 20
1.42667674217907
 30
0
 11
3.27816598975189
 21
1.42667674217907
 31
0
  0
LINE
  8
0
 62
7
 10
3.27816598975189
 20
1.42667674217907
 30
0
 11
3.27816598975189
 21
1.36667674217907
 31
0
  0
LINE
  8
0
 62
7
 10
3.27816598975189
 20
1.30667674217907
 30
0
 11
3.35376598975189
 21
1.30667674217907
 31
0
  0
LINE
  8
0
 62
7
 10
3.342965989751891
 20
1.36667674217907
 30
0
 11
3.27816598975189
 21
1.36667674217907
 31
0
  0
LINE
  8
0
 62
7
 10
3.27816598975189
 20
1.36667674217907
 30
0
 11
3.27816598975189
 21
1.30667674217907
 31
0
  0
LINE
  8
0
 62
7
 10
3.38616598975189
 20
1.30667674217907
 30
0
 11
3.38616598975189
 21
1.36667674217907
 31
0
  0
LINE
  8
0
 62
7
 10
3.38616598975189
 20
1.42667674217907
 30
0
 11
3.437465989751891
 21
1.42667674217907
 31
0
  0
LINE
  8
0
 62
7
 10
3.437465989751891
 20
1.42667674217907
 30
0
 11
3.44826598975189
 21
1.42367674217907
 31
0
  0
LINE
  8
0
 62
7
 10
3.44826598975189
 20
1.42367674217907
 30
0
 11
3.45636598975189
 21
1.41767674217907
 31
0
  0
LINE
  8
0
 62
7
 10
3.45636598975189
 20
1.41767674217907
 30
0
 11
3.45906598975189
 21
1.41167674217907
 31
0
  0
LINE
  8
0
 62
7
 10
3.45906598975189
 20
1.41167674217907
 30
0
 11
3.46176598975189
 21
1.40267674217907
 31
0
  0
LINE
  8
0
 62
7
 10
3.46176598975189
 20
1.40267674217907
 30
0
 11
3.46176598975189
 21
1.39067674217907
 31
0
  0
LINE
  8
0
 62
7
 10
3.46176598975189
 20
1.39067674217907
 30
0
 11
3.45906598975189
 21
1.38167674217907
 31
0
  0
LINE
  8
0
 62
7
 10
3.45906598975189
 20
1.38167674217907
 30
0
 11
3.45636598975189
 21
1.37567674217907
 31
0
  0
LINE
  8
0
 62
7
 10
3.45636598975189
 20
1.37567674217907
 30
0
 11
3.44826598975189
 21
1.36967674217907
 31
0
  0
LINE
  8
0
 62
7
 10
3.44826598975189
 20
1.36967674217907
 30
0
 11
3.437465989751891
 21
1.36667674217907
 31
0
  0
LINE
  8
0
 62
7
 10
3.437465989751891
 20
1.36667674217907
 30
0
 11
3.38616598975189
 21
1.36667674217907
 31
0
  0
LINE
  8
0
 62
7
 10
3.38616598975189
 20
1.36667674217907
 30
0
 11
3.38616598975189
 21
1.42667674217907
 31
0
  0
LINE
  8
0
 62
7
 10
3.48336598975189
 20
1.30667674217907
 30
0
 11
3.48336598975189
 21
1.36667674217907
 31
0
  0
LINE
  8
0
 62
7
 10
3.48336598975189
 20
1.42667674217907
 30
0
 11
3.534665989751892
 21
1.42667674217907
 31
0
  0
LINE
  8
0
 62
7
 10
3.534665989751892
 20
1.42667674217907
 30
0
 11
3.54546598975189
 21
1.42367674217907
 31
0
  0
LINE
  8
0
 62
7
 10
3.54546598975189
 20
1.42367674217907
 30
0
 11
3.55356598975189
 21
1.41767674217907
 31
0
  0
LINE
  8
0
 62
7
 10
3.55356598975189
 20
1.41767674217907
 30
0
 11
3.55626598975189
 21
1.41167674217907
 31
0
  0
LINE
  8
0
 62
7
 10
3.55626598975189
 20
1.41167674217907
 30
0
 11
3.558965989751891
 21
1.40267674217907
 31
0
  0
LINE
  8
0
 62
7
 10
3.558965989751891
 20
1.40267674217907
 30
0
 11
3.558965989751891
 21
1.39067674217907
 31
0
  0
LINE
  8
0
 62
7
 10
3.558965989751891
 20
1.39067674217907
 30
0
 11
3.55626598975189
 21
1.38167674217907
 31
0
  0
LINE
  8
0
 62
7
 10
3.55626598975189
 20
1.38167674217907
 30
0
 11
3.55356598975189
 21
1.37567674217907
 31
0
  0
LINE
  8
0
 62
7
 10
3.55356598975189
 20
1.37567674217907
 30
0
 11
3.54546598975189
 21
1.36967674217907
 31
0
  0
LINE
  8
0
 62
7
 10
3.54546598975189
 20
1.36967674217907
 30
0
 11
3.534665989751892
 21
1.36667674217907
 31
0
  0
LINE
  8
0
 62
7
 10
3.534665989751892
 20
1.36667674217907
 30
0
 11
3.48336598975189
 21
1.36667674217907
 31
0
  0
LINE
  8
0
 62
7
 10
3.48336598975189
 20
1.36667674217907
 30
0
 11
3.48336598975189
 21
1.42667674217907
 31
0
  0
LINE
  8
0
 62
7
 10
3.65616598975189
 20
1.42667674217907
 30
0
 11
3.58056598975189
 21
1.42667674217907
 31
0
  0
LINE
  8
0
 62
7
 10
3.58056598975189
 20
1.42667674217907
 30
0
 11
3.58056598975189
 21
1.36667674217907
 31
0
  0
LINE
  8
0
 62
7
 10
3.58056598975189
 20
1.30667674217907
 30
0
 11
3.65616598975189
 21
1.30667674217907
 31
0
  0
LINE
  8
0
 62
7
 10
3.645365989751891
 20
1.36667674217907
 30
0
 11
3.58056598975189
 21
1.36667674217907
 31
0
  0
LINE
  8
0
 62
7
 10
3.58056598975189
 20
1.36667674217907
 30
0
 11
3.58056598975189
 21
1.30667674217907
 31
0
  0
LINE
  8
0
 62
7
 10
0.43125
 20
-0.1975000000000009
 30
0
 11
0.43125
 21
-0.07750000000000092
 31
0
  0
LINE
  8
0
 62
7
 10
0.43125
 20
-0.07750000000000092
 30
0
 11
0.47445
 21
-0.1735000000000009
 31
0
  0
LINE
  8
0
 62
7
 10
0.47445
 20
-0.1735000000000009
 30
0
 11
0.5176500000000001
 21
-0.07750000000000092
 31
0
  0
LINE
  8
0
 62
7
 10
0.5176500000000001
 20
-0.07750000000000092
 30
0
 11
0.5176500000000001
 21
-0.1975000000000009
 31
0
  0
LINE
  8
0
 62
7
 10
0.55005
 20
-0.09550000000000092
 30
0
 11
0.5554499999999999
 21
-0.08650000000000091
 31
0
  0
LINE
  8
0
 62
7
 10
0.5554499999999999
 20
-0.08650000000000091
 30
0
 11
0.56355
 21
-0.08050000000000092
 31
0
  0
LINE
  8
0
 62
7
 10
0.56355
 20
-0.08050000000000092
 30
0
 11
0.57435
 21
-0.07750000000000092
 31
0
  0
LINE
  8
0
 62
7
 10
0.57435
 20
-0.07750000000000092
 30
0
 11
0.59055
 21
-0.07750000000000092
 31
0
  0
LINE
  8
0
 62
7
 10
0.59055
 20
-0.07750000000000092
 30
0
 11
0.6013500000000001
 21
-0.08050000000000092
 31
0
  0
LINE
  8
0
 62
7
 10
0.6013500000000001
 20
-0.08050000000000092
 30
0
 11
0.6094499999999999
 21
-0.08650000000000091
 31
0
  0
LINE
  8
0
 62
7
 10
0.6094499999999999
 20
-0.08650000000000091
 30
0
 11
0.61485
 21
-0.09550000000000092
 31
0
  0
LINE
  8
0
 62
7
 10
0.61485
 20
-0.09550000000000092
 30
0
 11
0.61485
 21
-0.1075000000000009
 31
0
  0
LINE
  8
0
 62
7
 10
0.61485
 20
-0.1075000000000009
 30
0
 11
0.6094499999999999
 21
-0.1195000000000009
 31
0
  0
LINE
  8
0
 62
7
 10
0.6094499999999999
 20
-0.1195000000000009
 30
0
 11
0.55005
 21
-0.1975000000000009
 31
0
  0
LINE
  8
0
 62
7
 10
0.55005
 20
-0.1975000000000009
 30
0
 11
0.61485
 21
-0.1975000000000009
 31
0
  0
LINE
  8
0
 62
7
 10
0.6472500000000001
 20
-0.07750000000000092
 30
0
 11
0.6850499999999999
 21
-0.1975000000000009
 31
0
  0
LINE
  8
0
 62
7
 10
0.6850499999999999
 20
-0.1975000000000009
 30
0
 11
0.7228500000000002
 21
-0.07750000000000092
 31
0
  0
LINE
  8
0
 62
7
 10
0.7552500000000001
 20
-0.09550000000000092
 30
0
 11
0.76065
 21
-0.08650000000000091
 31
0
  0
LINE
  8
0
 62
7
 10
0.76065
 20
-0.08650000000000091
 30
0
 11
0.76875
 21
-0.08050000000000092
 31
0
  0
LINE
  8
0
 62
7
 10
0.76875
 20
-0.08050000000000092
 30
0
 11
0.77955
 21
-0.07750000000000092
 31
0
  0
LINE
  8
0
 62
7
 10
0.77955
 20
-0.07750000000000092
 30
0
 11
0.7957500000000001
 21
-0.07750000000000092
 31
0
  0
LINE
  8
0
 62
7
 10
0.7957500000000001
 20
-0.07750000000000092
 30
0
 11
0.8038500000000002
 21
-0.08050000000000092
 31
0
  0
LINE
  8
0
 62
7
 10
0.8038500000000002
 20
-0.08050000000000092
 30
0
 11
0.8119500000000001
 21
-0.08650000000000091
 31
0
  0
LINE
  8
0
 62
7
 10
0.8119500000000001
 20
-0.08650000000000091
 30
0
 11
0.8173500000000001
 21
-0.09550000000000092
 31
0
  0
LINE
  8
0
 62
7
 10
0.8173500000000001
 20
-0.09550000000000092
 30
0
 11
0.8200500000000001
 21
-0.1075000000000009
 31
0
  0
LINE
  8
0
 62
7
 10
0.8200500000000001
 20
-0.1075000000000009
 30
0
 11
0.8200500000000001
 21
-0.1165000000000009
 31
0
  0
LINE
  8
0
 62
7
 10
0.8200500000000001
 20
-0.1165000000000009
 30
0
 11
0.8173500000000001
 21
-0.1255000000000009
 31
0
  0
LINE
  8
0
 62
7
 10
0.8173500000000001
 20
-0.1255000000000009
 30
0
 11
0.8119500000000001
 21
-0.1315000000000009
 31
0
  0
LINE
  8
0
 62
7
 10
0.8119500000000001
 20
-0.1315000000000009
 30
0
 11
0.7984500000000002
 21
-0.1375000000000009
 31
0
  0
LINE
  8
0
 62
7
 10
0.77955
 20
-0.1375000000000009
 30
0
 11
0.7984500000000002
 21
-0.1375000000000009
 31
0
  0
LINE
  8
0
 62
7
 10
0.7984500000000002
 20
-0.1375000000000009
 30
0
 11
0.8119500000000001
 21
-0.1435000000000009
 31
0
  0
LINE
  8
0
 62
7
 10
0.8119500000000001
 20
-0.1435000000000009
 30
0
 11
0.8173500000000001
 21
-0.1495000000000009
 31
0
  0
LINE
  8
0
 62
7
 10
0.8173500000000001
 20
-0.1495000000000009
 30
0
 11
0.8200500000000001
 21
-0.1585000000000009
 31
0
  0
LINE
  8
0
 62
7
 10
0.8200500000000001
 20
-0.1585000000000009
 30
0
 11
0.8200500000000001
 21
-0.1675000000000009
 31
0
  0
LINE
  8
0
 62
7
 10
0.8200500000000001
 20
-0.1675000000000009
 30
0
 11
0.8173500000000001
 21
-0.1795000000000009
 31
0
  0
LINE
  8
0
 62
7
 10
0.8173500000000001
 20
-0.1795000000000009
 30
0
 11
0.8119500000000001
 21
-0.1885000000000009
 31
0
  0
LINE
  8
0
 62
7
 10
0.8119500000000001
 20
-0.1885000000000009
 30
0
 11
0.8038500000000002
 21
-0.1945000000000009
 31
0
  0
LINE
  8
0
 62
7
 10
0.8038500000000002
 20
-0.1945000000000009
 30
0
 11
0.7957500000000001
 21
-0.1975000000000009
 31
0
  0
LINE
  8
0
 62
7
 10
0.7957500000000001
 20
-0.1975000000000009
 30
0
 11
0.77955
 21
-0.1975000000000009
 31
0
  0
LINE
  8
0
 62
7
 10
0.77955
 20
-0.1975000000000009
 30
0
 11
0.76875
 21
-0.1945000000000009
 31
0
  0
LINE
  8
0
 62
7
 10
0.76875
 20
-0.1945000000000009
 30
0
 11
0.76065
 21
-0.1885000000000009
 31
0
  0
LINE
  8
0
 62
7
 10
0.76065
 20
-0.1885000000000009
 30
0
 11
0.7552500000000001
 21
-0.1795000000000009
 31
0
  0
LINE
  8
0
 62
7
 10
0.9118500000000002
 20
-0.07750000000000092
 30
0
 11
0.85245
 21
-0.07750000000000092
 31
0
  0
LINE
  8
0
 62
7
 10
0.85245
 20
-0.07750000000000092
 30
0
 11
0.85245
 21
-0.1375000000000009
 31
0
  0
LINE
  8
0
 62
7
 10
0.85245
 20
-0.1375000000000009
 30
0
 11
0.8578500000000002
 21
-0.1285000000000009
 31
0
  0
LINE
  8
0
 62
7
 10
0.8578500000000002
 20
-0.1285000000000009
 30
0
 11
0.8659500000000002
 21
-0.1225000000000009
 31
0
  0
LINE
  8
0
 62
7
 10
0.8659500000000002
 20
-0.1225000000000009
 30
0
 11
0.8767500000000003
 21
-0.1195000000000009
 31
0
  0
LINE
  8
0
 62
7
 10
0.8767500000000003
 20
-0.1195000000000009
 30
0
 11
0.8929500000000004
 21
-0.1195000000000009
 31
0
  0
LINE
  8
0
 62
7
 10
0.8929500000000004
 20
-0.1195000000000009
 30
0
 11
0.9010500000000002
 21
-0.1225000000000009
 31
0
  0
LINE
  8
0
 62
7
 10
0.9010500000000002
 20
-0.1225000000000009
 30
0
 11
0.9091500000000002
 21
-0.1285000000000009
 31
0
  0
LINE
  8
0
 62
7
 10
0.9091500000000002
 20
-0.1285000000000009
 30
0
 11
0.9145500000000002
 21
-0.1375000000000009
 31
0
  0
LINE
  8
0
 62
7
 10
0.9145500000000002
 20
-0.1375000000000009
 30
0
 11
0.9172500000000001
 21
-0.1495000000000009
 31
0
  0
LINE
  8
0
 62
7
 10
0.9172500000000001
 20
-0.1495000000000009
 30
0
 11
0.9172500000000001
 21
-0.1675000000000009
 31
0
  0
LINE
  8
0
 62
7
 10
0.9172500000000001
 20
-0.1675000000000009
 30
0
 11
0.9145500000000002
 21
-0.1795000000000009
 31
0
  0
LINE
  8
0
 62
7
 10
0.9145500000000002
 20
-0.1795000000000009
 30
0
 11
0.9091500000000002
 21
-0.1885000000000009
 31
0
  0
LINE
  8
0
 62
7
 10
0.9091500000000002
 20
-0.1885000000000009
 30
0
 11
0.9010500000000002
 21
-0.1945000000000009
 31
0
  0
LINE
  8
0
 62
7
 10
0.9010500000000002
 20
-0.1945000000000009
 30
0
 11
0.8929500000000004
 21
-0.1975000000000009
 31
0
  0
LINE
  8
0
 62
7
 10
0.8929500000000004
 20
-0.1975000000000009
 30
0
 11
0.8767500000000003
 21
-0.1975000000000009
 31
0
  0
LINE
  8
0
 62
7
 10
0.8767500000000003
 20
-0.1975000000000009
 30
0
 11
0.8659500000000002
 21
-0.1945000000000009
 31
0
  0
LINE
  8
0
 62
7
 10
0.8659500000000002
 20
-0.1945000000000009
 30
0
 11
0.8578500000000002
 21
-0.1885000000000009
 31
0
  0
LINE
  8
0
 62
7
 10
0.8578500000000002
 20
-0.1885000000000009
 30
0
 11
0.85245
 21
-0.1795000000000009
 31
0
  0
LINE
  8
0
 62
7
 10
0.9496500000000001
 20
-0.1135000000000009
 30
0
 11
0.98205
 21
-0.07750000000000092
 31
0
  0
LINE
  8
0
 62
7
 10
0.98205
 20
-0.07750000000000092
 30
0
 11
0.98205
 21
-0.1975000000000009
 31
0
  0
LINE
  8
0
 62
7
 10
1.07925
 20
-0.1975000000000009
 30
0
 11
1.01445
 21
-0.1975000000000009
 31
0
  0
LINE
  8
0
 62
7
 10
1.01445
 20
-0.1975000000000009
 30
0
 11
1.01445
 21
-0.07750000000000092
 31
0
  0
LINE
  8
0
 62
7
 10
1.11165
 20
-0.1495000000000009
 30
0
 11
1.11435
 21
-0.1375000000000009
 31
0
  0
LINE
  8
0
 62
7
 10
1.11435
 20
-0.1375000000000009
 30
0
 11
1.11975
 21
-0.1285000000000009
 31
0
  0
LINE
  8
0
 62
7
 10
1.11975
 20
-0.1285000000000009
 30
0
 11
1.12785
 21
-0.1225000000000009
 31
0
  0
LINE
  8
0
 62
7
 10
1.12785
 20
-0.1225000000000009
 30
0
 11
1.13595
 21
-0.1195000000000009
 31
0
  0
LINE
  8
0
 62
7
 10
1.13595
 20
-0.1195000000000009
 30
0
 11
1.15215
 21
-0.1195000000000009
 31
0
  0
LINE
  8
0
 62
7
 10
1.15215
 20
-0.1195000000000009
 30
0
 11
1.16025
 21
-0.1225000000000009
 31
0
  0
LINE
  8
0
 62
7
 10
1.16025
 20
-0.1225000000000009
 30
0
 11
1.16835
 21
-0.1285000000000009
 31
0
  0
LINE
  8
0
 62
7
 10
1.16835
 20
-0.1285000000000009
 30
0
 11
1.17375
 21
-0.1375000000000009
 31
0
  0
LINE
  8
0
 62
7
 10
1.17375
 20
-0.1375000000000009
 30
0
 11
1.17645
 21
-0.1495000000000009
 31
0
  0
LINE
  8
0
 62
7
 10
1.17645
 20
-0.1495000000000009
 30
0
 11
1.17645
 21
-0.1675000000000009
 31
0
  0
LINE
  8
0
 62
7
 10
1.17645
 20
-0.1675000000000009
 30
0
 11
1.17375
 21
-0.1795000000000009
 31
0
  0
LINE
  8
0
 62
7
 10
1.17375
 20
-0.1795000000000009
 30
0
 11
1.16835
 21
-0.1885000000000009
 31
0
  0
LINE
  8
0
 62
7
 10
1.16835
 20
-0.1885000000000009
 30
0
 11
1.16025
 21
-0.1945000000000009
 31
0
  0
LINE
  8
0
 62
7
 10
1.16025
 20
-0.1945000000000009
 30
0
 11
1.15215
 21
-0.1975000000000009
 31
0
  0
LINE
  8
0
 62
7
 10
1.15215
 20
-0.1975000000000009
 30
0
 11
1.13595
 21
-0.1975000000000009
 31
0
  0
LINE
  8
0
 62
7
 10
1.13595
 20
-0.1975000000000009
 30
0
 11
1.12785
 21
-0.1945000000000009
 31
0
  0
LINE
  8
0
 62
7
 10
1.12785
 20
-0.1945000000000009
 30
0
 11
1.11975
 21
-0.1885000000000009
 31
0
  0
LINE
  8
0
 62
7
 10
1.11975
 20
-0.1885000000000009
 30
0
 11
1.11435
 21
-0.1795000000000009
 31
0
  0
LINE
  8
0
 62
7
 10
1.11435
 20
-0.1795000000000009
 30
0
 11
1.11165
 21
-0.1675000000000009
 31
0
  0
LINE
  8
0
 62
7
 10
1.11165
 20
-0.1675000000000009
 30
0
 11
1.11165
 21
-0.1495000000000009
 31
0
  0
LINE
  8
0
 62
7
 10
1.11165
 20
-0.1075000000000009
 30
0
 11
1.11435
 21
-0.09550000000000092
 31
0
  0
LINE
  8
0
 62
7
 10
1.11435
 20
-0.09550000000000092
 30
0
 11
1.11975
 21
-0.08650000000000091
 31
0
  0
LINE
  8
0
 62
7
 10
1.11975
 20
-0.08650000000000091
 30
0
 11
1.12785
 21
-0.08050000000000092
 31
0
  0
LINE
  8
0
 62
7
 10
1.12785
 20
-0.08050000000000092
 30
0
 11
1.13595
 21
-0.07750000000000092
 31
0
  0
LINE
  8
0
 62
7
 10
1.13595
 20
-0.07750000000000092
 30
0
 11
1.15215
 21
-0.07750000000000092
 31
0
  0
LINE
  8
0
 62
7
 10
1.15215
 20
-0.07750000000000092
 30
0
 11
1.16025
 21
-0.08050000000000092
 31
0
  0
LINE
  8
0
 62
7
 10
1.16025
 20
-0.08050000000000092
 30
0
 11
1.16835
 21
-0.08650000000000091
 31
0
  0
LINE
  8
0
 62
7
 10
1.16835
 20
-0.08650000000000091
 30
0
 11
1.17375
 21
-0.09550000000000092
 31
0
  0
LINE
  8
0
 62
7
 10
1.11165
 20
-0.1495000000000009
 30
0
 11
1.11165
 21
-0.1075000000000009
 31
0
  0
LINE
  8
0
 62
7
 10
2.93125
 20
-0.1975000000000009
 30
0
 11
2.93125
 21
-0.09750000000000093
 31
0
  0
LINE
  8
0
 62
7
 10
2.93125
 20
-0.09750000000000093
 30
0
 11
2.99425
 21
-0.1975000000000009
 31
0
  0
LINE
  8
0
 62
7
 10
2.99425
 20
-0.1975000000000009
 30
0
 11
2.99425
 21
-0.09750000000000093
 31
0
  0
LINE
  8
0
 62
7
 10
3.07525
 20
-0.1975000000000009
 30
0
 11
3.02125
 21
-0.1975000000000009
 31
0
  0
LINE
  8
0
 62
7
 10
3.02125
 20
-0.1975000000000009
 30
0
 11
3.02125
 21
-0.09750000000000093
 31
0
  0
LINE
  8
0
 62
7
 10
3.10225
 20
-0.1475000000000009
 30
0
 11
3.13825
 21
-0.1475000000000009
 31
0
  0
LINE
  8
0
 62
7
 10
3.13825
 20
-0.1475000000000009
 30
0
 11
3.14275
 21
-0.1475000000000009
 31
0
  0
LINE
  8
0
 62
7
 10
3.14275
 20
-0.1475000000000009
 30
0
 11
3.15175
 21
-0.1525000000000009
 31
0
  0
LINE
  8
0
 62
7
 10
3.15175
 20
-0.1525000000000009
 30
0
 11
3.15625
 21
-0.1575000000000009
 31
0
  0
LINE
  8
0
 62
7
 10
3.15625
 20
-0.1575000000000009
 30
0
 11
3.16075
 21
-0.1675000000000009
 31
0
  0
LINE
  8
0
 62
7
 10
3.16075
 20
-0.1675000000000009
 30
0
 11
3.16075
 21
-0.1775000000000009
 31
0
  0
LINE
  8
0
 62
7
 10
3.16075
 20
-0.1775000000000009
 30
0
 11
3.15625
 21
-0.1875000000000009
 31
0
  0
LINE
  8
0
 62
7
 10
3.15625
 20
-0.1875000000000009
 30
0
 11
3.15175
 21
-0.1925000000000009
 31
0
  0
LINE
  8
0
 62
7
 10
3.15175
 20
-0.1925000000000009
 30
0
 11
3.14275
 21
-0.1975000000000009
 31
0
  0
LINE
  8
0
 62
7
 10
3.14275
 20
-0.1975000000000009
 30
0
 11
3.10225
 21
-0.1975000000000009
 31
0
  0
LINE
  8
0
 62
7
 10
3.10225
 20
-0.1975000000000009
 30
0
 11
3.10225
 21
-0.1475000000000009
 31
0
  0
LINE
  8
0
 62
7
 10
3.10225
 20
-0.09750000000000093
 30
0
 11
3.136
 21
-0.09750000000000093
 31
0
  0
LINE
  8
0
 62
7
 10
3.136
 20
-0.09750000000000093
 30
0
 11
3.14725
 21
-0.1000000000000009
 31
0
  0
LINE
  8
0
 62
7
 10
3.14725
 20
-0.1000000000000009
 30
0
 11
3.154
 21
-0.1075000000000009
 31
0
  0
LINE
  8
0
 62
7
 10
3.154
 20
-0.1075000000000009
 30
0
 11
3.15625
 21
-0.1175000000000009
 31
0
  0
LINE
  8
0
 62
7
 10
3.15625
 20
-0.1175000000000009
 30
0
 11
3.15625
 21
-0.1275000000000009
 31
0
  0
LINE
  8
0
 62
7
 10
3.15625
 20
-0.1275000000000009
 30
0
 11
3.15175
 21
-0.1375000000000009
 31
0
  0
LINE
  8
0
 62
7
 10
3.15175
 20
-0.1375000000000009
 30
0
 11
3.145
 21
-0.1450000000000009
 31
0
  0
LINE
  8
0
 62
7
 10
3.145
 20
-0.1450000000000009
 30
0
 11
3.13825
 21
-0.1475000000000009
 31
0
  0
LINE
  8
0
 62
7
 10
3.10225
 20
-0.1475000000000009
 30
0
 11
3.10225
 21
-0.09750000000000093
 31
0
  0
LINE
  8
0
 62
7
 10
3.3025
 20
-0.1450000000000009
 30
0
 11
3.29575
 21
-0.1350000000000009
 31
0
  0
LINE
  8
0
 62
7
 10
3.29575
 20
-0.1350000000000009
 30
0
 11
3.289
 21
-0.1300000000000009
 31
0
  0
LINE
  8
0
 62
7
 10
3.289
 20
-0.1300000000000009
 30
0
 11
3.28225
 21
-0.1275000000000009
 31
0
  0
LINE
  8
0
 62
7
 10
3.28225
 20
-0.1275000000000009
 30
0
 11
3.27325
 21
-0.1275000000000009
 31
0
  0
LINE
  8
0
 62
7
 10
3.27325
 20
-0.1275000000000009
 30
0
 11
3.2665
 21
-0.1300000000000009
 31
0
  0
LINE
  8
0
 62
7
 10
3.2665
 20
-0.1300000000000009
 30
0
 11
3.25975
 21
-0.1350000000000009
 31
0
  0
LINE
  8
0
 62
7
 10
3.25975
 20
-0.1350000000000009
 30
0
 11
3.253
 21
-0.1450000000000009
 31
0
  0
LINE
  8
0
 62
7
 10
3.253
 20
-0.1450000000000009
 30
0
 11
3.25075
 21
-0.1525000000000009
 31
0
  0
LINE
  8
0
 62
7
 10
3.25075
 20
-0.1525000000000009
 30
0
 11
3.25075
 21
-0.1725000000000009
 31
0
  0
LINE
  8
0
 62
7
 10
3.25075
 20
-0.1725000000000009
 30
0
 11
3.253
 21
-0.1800000000000009
 31
0
  0
LINE
  8
0
 62
7
 10
3.253
 20
-0.1800000000000009
 30
0
 11
3.25975
 21
-0.1900000000000009
 31
0
  0
LINE
  8
0
 62
7
 10
3.25975
 20
-0.1900000000000009
 30
0
 11
3.2665
 21
-0.1950000000000009
 31
0
  0
LINE
  8
0
 62
7
 10
3.2665
 20
-0.1950000000000009
 30
0
 11
3.27325
 21
-0.1975000000000009
 31
0
  0
LINE
  8
0
 62
7
 10
3.27325
 20
-0.1975000000000009
 30
0
 11
3.28225
 21
-0.1975000000000009
 31
0
  0
LINE
  8
0
 62
7
 10
3.28225
 20
-0.1975000000000009
 30
0
 11
3.289
 21
-0.1950000000000009
 31
0
  0
LINE
  8
0
 62
7
 10
3.289
 20
-0.1950000000000009
 30
0
 11
3.29575
 21
-0.1900000000000009
 31
0
  0
LINE
  8
0
 62
7
 10
3.29575
 20
-0.1900000000000009
 30
0
 11
3.3025
 21
-0.1800000000000009
 31
0
  0
LINE
  8
0
 62
7
 10
3.3745
 20
-0.1525000000000009
 30
0
 11
3.372250000000001
 21
-0.1450000000000009
 31
0
  0
LINE
  8
0
 62
7
 10
3.372250000000001
 20
-0.1450000000000009
 30
0
 11
3.3655
 21
-0.1350000000000009
 31
0
  0
LINE
  8
0
 62
7
 10
3.3655
 20
-0.1350000000000009
 30
0
 11
3.35875
 21
-0.1300000000000009
 31
0
  0
LINE
  8
0
 62
7
 10
3.35875
 20
-0.1300000000000009
 30
0
 11
3.352
 21
-0.1275000000000009
 31
0
  0
LINE
  8
0
 62
7
 10
3.352
 20
-0.1275000000000009
 30
0
 11
3.343
 21
-0.1275000000000009
 31
0
  0
LINE
  8
0
 62
7
 10
3.343
 20
-0.1275000000000009
 30
0
 11
3.33625
 21
-0.1300000000000009
 31
0
  0
LINE
  8
0
 62
7
 10
3.33625
 20
-0.1300000000000009
 30
0
 11
3.3295
 21
-0.1350000000000009
 31
0
  0
LINE
  8
0
 62
7
 10
3.3295
 20
-0.1350000000000009
 30
0
 11
3.32275
 21
-0.1450000000000009
 31
0
  0
LINE
  8
0
 62
7
 10
3.32275
 20
-0.1450000000000009
 30
0
 11
3.3205
 21
-0.1525000000000009
 31
0
  0
LINE
  8
0
 62
7
 10
3.3205
 20
-0.1525000000000009
 30
0
 11
3.3205
 21
-0.1725000000000009
 31
0
  0
LINE
  8
0
 62
7
 10
3.3205
 20
-0.1725000000000009
 30
0
 11
3.32275
 21
-0.1800000000000009
 31
0
  0
LINE
  8
0
 62
7
 10
3.32275
 20
-0.1800000000000009
 30
0
 11
3.3295
 21
-0.1900000000000009
 31
0
  0
LINE
  8
0
 62
7
 10
3.3295
 20
-0.1900000000000009
 30
0
 11
3.33625
 21
-0.1950000000000009
 31
0
  0
LINE
  8
0
 62
7
 10
3.33625
 20
-0.1950000000000009
 30
0
 11
3.343
 21
-0.1975000000000009
 31
0
  0
LINE
  8
0
 62
7
 10
3.343
 20
-0.1975000000000009
 30
0
 11
3.352
 21
-0.1975000000000009
 31
0
  0
LINE
  8
0
 62
7
 10
3.352
 20
-0.1975000000000009
 30
0
 11
3.35875
 21
-0.1950000000000009
 31
0
  0
LINE
  8
0
 62
7
 10
3.35875
 20
-0.1950000000000009
 30
0
 11
3.3655
 21
-0.1900000000000009
 31
0
  0
LINE
  8
0
 62
7
 10
3.3655
 20
-0.1900000000000009
 30
0
 11
3.372250000000001
 21
-0.1800000000000009
 31
0
  0
LINE
  8
0
 62
7
 10
3.372250000000001
 20
-0.1800000000000009
 30
0
 11
3.3745
 21
-0.1725000000000009
 31
0
  0
LINE
  8
0
 62
7
 10
3.3745
 20
-0.1275000000000009
 30
0
 11
3.3745
 21
-0.1525000000000009
 31
0
  0
LINE
  8
0
 62
7
 10
3.3745
 20
-0.1950000000000009
 30
0
 11
3.37675
 21
-0.1975000000000009
 31
0
  0
LINE
  8
0
 62
7
 10
3.37675
 20
-0.1975000000000009
 30
0
 11
3.379
 21
-0.1975000000000009
 31
0
  0
LINE
  8
0
 62
7
 10
3.3745
 20
-0.1725000000000009
 30
0
 11
3.3745
 21
-0.1950000000000009
 31
0
  0
LINE
  8
0
 62
7
 10
3.3745
 20
-0.1525000000000009
 30
0
 11
3.3745
 21
-0.1725000000000009
 31
0
  0
LINE
  8
0
 62
7
 10
3.397
 20
-0.1975000000000009
 30
0
 11
3.397
 21
-0.1950000000000009
 31
0
  0
LINE
  8
0
 62
7
 10
3.397
 20
-0.1950000000000009
 30
0
 11
3.39925
 21
-0.1950000000000009
 31
0
  0
LINE
  8
0
 62
7
 10
3.39925
 20
-0.1950000000000009
 30
0
 11
3.39925
 21
-0.1975000000000009
 31
0
  0
LINE
  8
0
 62
7
 10
3.39925
 20
-0.1975000000000009
 30
0
 11
3.397
 21
-0.1975000000000009
 31
0
  0
LINE
  8
0
 62
7
 10
3.500500000000001
 20
-0.1275000000000009
 30
0
 11
3.5275
 21
-0.09750000000000093
 31
0
  0
LINE
  8
0
 62
7
 10
3.5275
 20
-0.09750000000000093
 30
0
 11
3.5275
 21
-0.1975000000000009
 31
0
  0
LINE
  8
0
 62
7
 10
3.5545
 20
-0.1225000000000009
 30
0
 11
3.556750000000001
 21
-0.1125000000000009
 31
0
  0
LINE
  8
0
 62
7
 10
3.556750000000001
 20
-0.1125000000000009
 30
0
 11
3.561250000000001
 21
-0.1050000000000009
 31
0
  0
LINE
  8
0
 62
7
 10
3.561250000000001
 20
-0.1050000000000009
 30
0
 11
3.568
 21
-0.1000000000000009
 31
0
  0
LINE
  8
0
 62
7
 10
3.568
 20
-0.1000000000000009
 30
0
 11
3.57475
 21
-0.09750000000000093
 31
0
  0
LINE
  8
0
 62
7
 10
3.57475
 20
-0.09750000000000093
 30
0
 11
3.58825
 21
-0.09750000000000093
 31
0
  0
LINE
  8
0
 62
7
 10
3.58825
 20
-0.09750000000000093
 30
0
 11
3.595000000000001
 21
-0.1000000000000009
 31
0
  0
LINE
  8
0
 62
7
 10
3.595000000000001
 20
-0.1000000000000009
 30
0
 11
3.60175
 21
-0.1050000000000009
 31
0
  0
LINE
  8
0
 62
7
 10
3.60175
 20
-0.1050000000000009
 30
0
 11
3.60625
 21
-0.1125000000000009
 31
0
  0
LINE
  8
0
 62
7
 10
3.60625
 20
-0.1125000000000009
 30
0
 11
3.6085
 21
-0.1225000000000009
 31
0
  0
LINE
  8
0
 62
7
 10
3.6085
 20
-0.1225000000000009
 30
0
 11
3.6085
 21
-0.1725000000000009
 31
0
  0
LINE
  8
0
 62
7
 10
3.6085
 20
-0.1725000000000009
 30
0
 11
3.60625
 21
-0.1825000000000009
 31
0
  0
LINE
  8
0
 62
7
 10
3.60625
 20
-0.1825000000000009
 30
0
 11
3.60175
 21
-0.1900000000000009
 31
0
  0
LINE
  8
0
 62
7
 10
3.60175
 20
-0.1900000000000009
 30
0
 11
3.595000000000001
 21
-0.1950000000000009
 31
0
  0
LINE
  8
0
 62
7
 10
3.595000000000001
 20
-0.1950000000000009
 30
0
 11
3.58825
 21
-0.1975000000000009
 31
0
  0
LINE
  8
0
 62
7
 10
3.58825
 20
-0.1975000000000009
 30
0
 11
3.57475
 21
-0.1975000000000009
 31
0
  0
LINE
  8
0
 62
7
 10
3.57475
 20
-0.1975000000000009
 30
0
 11
3.568
 21
-0.1950000000000009
 31
0
  0
LINE
  8
0
 62
7
 10
3.568
 20
-0.1950000000000009
 30
0
 11
3.561250000000001
 21
-0.1900000000000009
 31
0
  0
LINE
  8
0
 62
7
 10
3.561250000000001
 20
-0.1900000000000009
 30
0
 11
3.556750000000001
 21
-0.1825000000000009
 31
0
  0
LINE
  8
0
 62
7
 10
3.556750000000001
 20
-0.1825000000000009
 30
0
 11
3.5545
 21
-0.1725000000000009
 31
0
  0
LINE
  8
0
 62
7
 10
3.5545
 20
-0.1725000000000009
 30
0
 11
3.5545
 21
-0.1225000000000009
 31
0
  0
LINE
  8
0
 62
7
 10
3.6355
 20
-0.1225000000000009
 30
0
 11
3.63775
 21
-0.1125000000000009
 31
0
  0
LINE
  8
0
 62
7
 10
3.63775
 20
-0.1125000000000009
 30
0
 11
3.64225
 21
-0.1050000000000009
 31
0
  0
LINE
  8
0
 62
7
 10
3.64225
 20
-0.1050000000000009
 30
0
 11
3.649
 21
-0.1000000000000009
 31
0
  0
LINE
  8
0
 62
7
 10
3.649
 20
-0.1000000000000009
 30
0
 11
3.65575
 21
-0.09750000000000093
 31
0
  0
LINE
  8
0
 62
7
 10
3.65575
 20
-0.09750000000000093
 30
0
 11
3.66925
 21
-0.09750000000000093
 31
0
  0
LINE
  8
0
 62
7
 10
3.66925
 20
-0.09750000000000093
 30
0
 11
3.676
 21
-0.1000000000000009
 31
0
  0
LINE
  8
0
 62
7
 10
3.676
 20
-0.1000000000000009
 30
0
 11
3.68275
 21
-0.1050000000000009
 31
0
  0
LINE
  8
0
 62
7
 10
3.68275
 20
-0.1050000000000009
 30
0
 11
3.687250000000001
 21
-0.1125000000000009
 31
0
  0
LINE
  8
0
 62
7
 10
3.687250000000001
 20
-0.1125000000000009
 30
0
 11
3.689500000000001
 21
-0.1225000000000009
 31
0
  0
LINE
  8
0
 62
7
 10
3.689500000000001
 20
-0.1225000000000009
 30
0
 11
3.689500000000001
 21
-0.1725000000000009
 31
0
  0
LINE
  8
0
 62
7
 10
3.689500000000001
 20
-0.1725000000000009
 30
0
 11
3.687250000000001
 21
-0.1825000000000009
 31
0
  0
LINE
  8
0
 62
7
 10
3.687250000000001
 20
-0.1825000000000009
 30
0
 11
3.68275
 21
-0.1900000000000009
 31
0
  0
LINE
  8
0
 62
7
 10
3.68275
 20
-0.1900000000000009
 30
0
 11
3.676
 21
-0.1950000000000009
 31
0
  0
LINE
  8
0
 62
7
 10
3.676
 20
-0.1950000000000009
 30
0
 11
3.66925
 21
-0.1975000000000009
 31
0
  0
LINE
  8
0
 62
7
 10
3.66925
 20
-0.1975000000000009
 30
0
 11
3.65575
 21
-0.1975000000000009
 31
0
  0
LINE
  8
0
 62
7
 10
3.65575
 20
-0.1975000000000009
 30
0
 11
3.649
 21
-0.1950000000000009
 31
0
  0
LINE
  8
0
 62
7
 10
3.649
 20
-0.1950000000000009
 30
0
 11
3.64225
 21
-0.1900000000000009
 31
0
  0
LINE
  8
0
 62
7
 10
3.64225
 20
-0.1900000000000009
 30
0
 11
3.63775
 21
-0.1825000000000009
 31
0
  0
LINE
  8
0
 62
7
 10
3.63775
 20
-0.1825000000000009
 30
0
 11
3.6355
 21
-0.1725000000000009
 31
0
  0
LINE
  8
0
 62
7
 10
3.6355
 20
-0.1725000000000009
 30
0
 11
3.6355
 21
-0.1225000000000009
 31
0
  0
LINE
  8
0
 62
7
 10
3.840250000000001
 20
-0.1450000000000009
 30
0
 11
3.8335
 21
-0.1350000000000009
 31
0
  0
LINE
  8
0
 62
7
 10
3.8335
 20
-0.1350000000000009
 30
0
 11
3.82675
 21
-0.1300000000000009
 31
0
  0
LINE
  8
0
 62
7
 10
3.82675
 20
-0.1300000000000009
 30
0
 11
3.82
 21
-0.1275000000000009
 31
0
  0
LINE
  8
0
 62
7
 10
3.82
 20
-0.1275000000000009
 30
0
 11
3.811
 21
-0.1275000000000009
 31
0
  0
LINE
  8
0
 62
7
 10
3.811
 20
-0.1275000000000009
 30
0
 11
3.804250000000001
 21
-0.1300000000000009
 31
0
  0
LINE
  8
0
 62
7
 10
3.804250000000001
 20
-0.1300000000000009
 30
0
 11
3.7975
 21
-0.1350000000000009
 31
0
  0
LINE
  8
0
 62
7
 10
3.7975
 20
-0.1350000000000009
 30
0
 11
3.79075
 21
-0.1450000000000009
 31
0
  0
LINE
  8
0
 62
7
 10
3.79075
 20
-0.1450000000000009
 30
0
 11
3.7885
 21
-0.1525000000000009
 31
0
  0
LINE
  8
0
 62
7
 10
3.7885
 20
-0.1525000000000009
 30
0
 11
3.7885
 21
-0.1725000000000009
 31
0
  0
LINE
  8
0
 62
7
 10
3.7885
 20
-0.1725000000000009
 30
0
 11
3.79075
 21
-0.1800000000000009
 31
0
  0
LINE
  8
0
 62
7
 10
3.79075
 20
-0.1800000000000009
 30
0
 11
3.7975
 21
-0.1900000000000009
 31
0
  0
LINE
  8
0
 62
7
 10
3.7975
 20
-0.1900000000000009
 30
0
 11
3.804250000000001
 21
-0.1950000000000009
 31
0
  0
LINE
  8
0
 62
7
 10
3.804250000000001
 20
-0.1950000000000009
 30
0
 11
3.811
 21
-0.1975000000000009
 31
0
  0
LINE
  8
0
 62
7
 10
3.811
 20
-0.1975000000000009
 30
0
 11
3.82
 21
-0.1975000000000009
 31
0
  0
LINE
  8
0
 62
7
 10
3.82
 20
-0.1975000000000009
 30
0
 11
3.82675
 21
-0.1950000000000009
 31
0
  0
LINE
  8
0
 62
7
 10
3.82675
 20
-0.1950000000000009
 30
0
 11
3.8335
 21
-0.1900000000000009
 31
0
  0
LINE
  8
0
 62
7
 10
3.8335
 20
-0.1900000000000009
 30
0
 11
3.840250000000001
 21
-0.1800000000000009
 31
0
  0
LINE
  8
0
 62
7
 10
3.898750000000001
 20
-0.1525000000000009
 30
0
 11
3.898750000000001
 21
-0.1975000000000009
 31
0
  0
LINE
  8
0
 62
7
 10
3.85825
 20
-0.1275000000000009
 30
0
 11
3.85825
 21
-0.1525000000000009
 31
0
  0
LINE
  8
0
 62
7
 10
3.85825
 20
-0.1975000000000009
 30
0
 11
3.85825
 21
-0.1525000000000009
 31
0
  0
LINE
  8
0
 62
7
 10
3.85825
 20
-0.1525000000000009
 30
0
 11
3.8605
 21
-0.1400000000000009
 31
0
  0
LINE
  8
0
 62
7
 10
3.8605
 20
-0.1400000000000009
 30
0
 11
3.86275
 21
-0.1350000000000009
 31
0
  0
LINE
  8
0
 62
7
 10
3.86275
 20
-0.1350000000000009
 30
0
 11
3.86725
 21
-0.1300000000000009
 31
0
  0
LINE
  8
0
 62
7
 10
3.86725
 20
-0.1300000000000009
 30
0
 11
3.874000000000001
 21
-0.1275000000000009
 31
0
  0
LINE
  8
0
 62
7
 10
3.874000000000001
 20
-0.1275000000000009
 30
0
 11
3.883
 21
-0.1275000000000009
 31
0
  0
LINE
  8
0
 62
7
 10
3.883
 20
-0.1275000000000009
 30
0
 11
3.88975
 21
-0.1300000000000009
 31
0
  0
LINE
  8
0
 62
7
 10
3.88975
 20
-0.1300000000000009
 30
0
 11
3.89425
 21
-0.1350000000000009
 31
0
  0
LINE
  8
0
 62
7
 10
3.89425
 20
-0.1350000000000009
 30
0
 11
3.896500000000001
 21
-0.1400000000000009
 31
0
  0
LINE
  8
0
 62
7
 10
3.896500000000001
 20
-0.1400000000000009
 30
0
 11
3.898750000000001
 21
-0.1525000000000009
 31
0
  0
LINE
  8
0
 62
7
 10
3.898750000000001
 20
-0.1525000000000009
 30
0
 11
3.901
 21
-0.1400000000000009
 31
0
  0
LINE
  8
0
 62
7
 10
3.901
 20
-0.1400000000000009
 30
0
 11
3.90325
 21
-0.1350000000000009
 31
0
  0
LINE
  8
0
 62
7
 10
3.90325
 20
-0.1350000000000009
 30
0
 11
3.90775
 21
-0.1300000000000009
 31
0
  0
LINE
  8
0
 62
7
 10
3.90775
 20
-0.1300000000000009
 30
0
 11
3.9145
 21
-0.1275000000000009
 31
0
  0
LINE
  8
0
 62
7
 10
3.9145
 20
-0.1275000000000009
 30
0
 11
3.9235
 21
-0.1275000000000009
 31
0
  0
LINE
  8
0
 62
7
 10
3.9235
 20
-0.1275000000000009
 30
0
 11
3.93025
 21
-0.1300000000000009
 31
0
  0
LINE
  8
0
 62
7
 10
3.934750000000001
 20
-0.1350000000000009
 30
0
 11
3.93025
 21
-0.1300000000000009
 31
0
  0
LINE
  8
0
 62
7
 10
3.93025
 20
-0.1300000000000009
 30
0
 11
3.934750000000001
 21
-0.1350000000000009
 31
0
  0
LINE
  8
0
 62
7
 10
3.934750000000001
 20
-0.1350000000000009
 30
0
 11
3.937
 21
-0.1400000000000009
 31
0
  0
LINE
  8
0
 62
7
 10
3.937
 20
-0.1400000000000009
 30
0
 11
3.93925
 21
-0.1525000000000009
 31
0
  0
LINE
  8
0
 62
7
 10
3.93925
 20
-0.1525000000000009
 30
0
 11
3.93925
 21
-0.1975000000000009
 31
0
  0
ARC
  8
0
 62
7
 10
2.195839689642058
 20
0.5479103103579283
 30
0
 40
0.5580000000000045
 50
89.95786907828015
 51
180.0421309220923
  0
ARC
  8
0
 62
7
 10
3.47666031035792
 20
0.5479103103579382
 30
0
 40
0.5580000000000027
 50
359.9578690800157
 51
90.04213092209142
  0
CIRCLE
  8
0
 62
7
 10
4.034660159502542
 20
0.1624999999999991
 30
0
 40
0.06000000000000139
  0
DIMENSION
  8
0
  6
CONTINUOUS
 62
7
  2
*D1
  3
DMST_1
 10
1.08125
 20
8.33595553852267
 30
0
 11
2.81836758076423
 21
8.33595553852267
 31
0
 12
0
 22
0
 32
0
 70
0
 13
4.591249999999998
 23
8.112499999999999
 33
0
 14
1.08125
 24
8.112499999999999
 34
0
 53
0
  0
DIMENSION
  8
0
  6
CONTINUOUS
 62
7
  2
*D2
  3
DMST_2
 10
5.10798638505651
 20
1.6625
 30
0
 11
5.10798638505651
 21
0.9837351558507891
 31
0
 12
0
 22
0
 32
0
 70
0
 13
4.766249999999999
 23
0.1624999999999991
 33
0
 14
4.766249999999999
 24
1.6625
 34
0
 50
90
 53
0
  0
DIMENSION
  8
0
  6
CONTINUOUS
 62
7
  2
*D3
  3
DMST_2
 10
1.081250000000001
 20
2.52286779651393
 30
0
 11
2.83108768523252
 21
2.52286779651393
 31
0
 12
0
 22
0
 32
0
 70
0
 13
4.591249999999998
 23
2.182499999999997
 33
0
 14
1.08125
 24
2.182499999999997
 34
0
 53
0
  0
DIMENSION
  8
0
  6
CONTINUOUS
 62
7
  2
*D4
  3
DMST_2
 10
0.643229716686567
 20
1.662500000000001
 30
0
 11
0.643229716686567
 21
1.03461557372395
 31
0
 12
0
 22
0
 32
0
 70
0
 13
0.90625
 23
0.2624999999999991
 33
0
 14
0.90625
 24
1.662500000000001
 34
0
 50
90
 53
0
  0
INSERT
  8
0
  2
*D0
 10
0
 20
0
 30
0
  0
ENDSEC
  0
EOF
