  0
SECTION
  2
HEADER
  9
$ACADVER
  1
AC1009
  9
$INSBASE
 10
0
 20
0
  9
$EXTMIN
 10
0.45
 20
2.889999999999999
  9
$EXTMAX
 10
8.108161729180511
 20
11.5631567122709
  9
$LIMMIN
 10
0.45
 20
2.889999999999999
  9
$LIMMAX
 10
8.108161729180511
 20
11.5631567122709
  9
$VIEWCTR
 10
10
 20
10
  9
$VIEWSIZE
 40
10
  9
$SNAPMODE
 70
0
  9
$SNAPUNIT
 10
1
 20
1
  9
$SNAPBASE
 10
0
 20
0
  9
$SNAPANG
 50
0
  9
$SNAPSTYLE
 70
0
  9
$SNAPISOPAIR
 70
0
  9
$GRIDMODE
 70
0
  9
$GRIDUNIT
 10
0
 20
0
  9
$ORTHOMODE
 70
0
  9
$REGENMODE
 70
1
  9
$FILLMODE
 70
1
  9
$QTEXTMODE
 70
0
  9
$DRAGMODE
 70
2
  9
$LTSCALE
 40
1
  9
$OSMODE
 70
0
  9
$ATTMODE
 70
1
  9
$TEXTSIZE
 40
3.5
  9
$TRACEWID
 40
0.5
  9
$TEXTSTYLE
  7
STANDARD
  9
$CLAYER
  8
0
  9
$CELTYPE
  6
BYLAYER
  9
$CECOLOR
 62
256
  9
$DIMSCALE
 40
1
  9
$DIMASZ
 40
0.18
  9
$DIMEXO
 40
0.0625
  9
$DIMDLI
 40
0.38
  9
$DIMRND
 40
0
  9
$DIMDLE
 40
0
  9
$DIMEXE
 40
0.18
  9
$DIMTP
 40
0
  9
$DIMTM
 40
0
  9
$DIMTXT
 40
0.18
  9
$DIMCEN
 40
0.09
  9
$DIMTSZ
 40
0
  9
$DIMTOL
 70
0
  9
$DIMLIM
 70
0
  9
$DIMTIH
 70
1
  9
$DIMTOH
 70
1
  9
$DIMSE1
 70
0
  9
$DIMSE2
 70
0
  9
$DIMTAD
 70
0
  9
$DIMZIN
 70
0
  9
$DIMBLK
  1

  9
$DIMASO
 70
1
  9
$DIMSHO
 70
1
  9
$DIMPOST
  1

  9
$DIMAPOST
  1

  9
$DIMALT
 70
0
  9
$DIMALTD
 70
2
  9
$DIMALTF
 40
25.4
  9
$DIMLFAC
 40
1
  9
$DIMTOFL
 70
0
  9
$DIMTVP
 40
0
  9
$DIMTIX
 70
0
  9
$DIMSOXD
 70
0
  9
$DIMSAH
 70
0
  9
$DIMBLK1
  1

  9
$DIMBLK2
  1

  9
$DIMSTYLE
  2
*UNNAMED
  9
$DIMCLRD
 70
0
  9
$DIMCLRE
 70
0
  9
$DIMCLRT
 70
0
  9
$DIMTFAC
 40
1
  9
$DIMGAP
 40
0.09
  9
$LUNITS
 70
2
  9
$LUPREC
 70
4
  9
$AXISMODE
 70
0
  9
$AXISUNIT
 10
0
 20
0
  9
$SKETCHINC
 40
0.1
  9
$FILLETRAD
 40
2
  9
$AUNITS
 70
0
  9
$AUPREC
 70
0
  9
$MENU
  1
ACAD
  9
$ELEVATION
 40
0
  9
$THICKNESS
 40
0
  9
$VIEWDIR
 10
0
 20
0
 30
1
  9
$LIMCHECK
 70
0
  9
$BLIPMODE
 70
1
  9
$CHAMFERA
 40
0
  9
$CHAMFERB
 40
0
  9
$FASTZOOM
 70
1
  9
$SKPOLY
 70
0
  9
$ANGBASE
 50
0
  9
$ANGDIR
 70
0
  9
$PDMODE
 70
0
  9
$PDSIZE
 40
0
  9
$PLINEWID
 40
0
  9
$COORDS
 70
2
  0
ENDSEC
  0
SECTION
  2
TABLES
  0
TABLE
  2
DIMSTYLE
 70
2
  0
DIMSTYLE
  2
DMST_1
 70
0
  3

  4

  5

  6

  7

 40
1
 41
0.1
 42
0
 43
0.7
 44
0.2
 45
0
 46
0
 47
0
 48
0
140
0.1
141
0
142
0.1
143
25.4
144
1
145
0
146
1
147
0.2
 71
0
 72
0
 73
0
 74
0
 75
0
 76
0
 77
0
 78
9
170
0
171
2
172
0
173
0
174
0
175
0
176
7
177
7
178
7
  0
DIMSTYLE
  2
DMST_2
 70
0
  3

  4

  5

  6

  7

 40
1
 41
0.1
 42
0
 43
0.7
 44
0.2
 45
0
 46
0
 47
0
 48
0
140
0.1
141
0
142
0.1
143
25.4
144
1
145
0
146
1
147
0.25
 71
0
 72
0
 73
0
 74
0
 75
0
 76
0
 77
0
 78
9
170
0
171
2
172
0
173
0
174
0
175
0
176
7
177
7
178
7
  0
ENDTAB
  0
TABLE
  2
LTYPE
 70
9
  0
LTYPE
  2
CONTINUOUS
 70
64
  3
Solid line
 72
65
 73
0
 40
0
  0
LTYPE
  2
BORDER
 70
64
  3
__ __ . __ __ .
 72
65
 73
6
 40
0.3994216906966862
 49
0.1141204830561961
 49
-0.05706024152809803
 49
0.1141204830561961
 49
-0.05706024152809803
 49
0
 49
-0.05706024152809803
  0
LTYPE
  2
CENTER
 70
64
  3
____ _ ____ _
 72
65
 73
4
 40
0.4564819322247842
 49
0.2853012076404902
 49
-0.05706024152809803
 49
0.05706024152809803
 49
-0.05706024152809803
  0
LTYPE
  2
DASHDOT
 70
64
  3
__ . __ . __ .
 72
65
 73
4
 40
0.2282409661123921
 49
0.1141204830561961
 49
-0.05706024152809803
 49
0
 49
-0.05706024152809803
  0
LTYPE
  2
DASHED
 70
64
  3
__ __ __ __ __
 72
65
 73
2
 40
0.1711807245842941
 49
0.1141204830561961
 49
-0.05706024152809803
  0
LTYPE
  2
DIVIDE
 70
64
  3
__ . . __ . . 
 72
65
 73
6
 40
0.2853012076404902
 49
0.1141204830561961
 49
-0.05706024152809803
 49
0
 49
-0.05706024152809803
 49
0
 49
-0.05706024152809803
  0
LTYPE
  2
DOT
 70
64
  3
..............
 72
65
 73
4
 40
0.1141204830561961
 49
0
 49
-0.05706024152809803
 49
0
 49
-0.05706024152809803
  0
LTYPE
  2
HIDDEN
 70
64
  3
_ _ _ _ _ _ _
 72
65
 73
2
 40
0.08559036229214705
 49
0.05706024152809803
 49
-0.02853012076404901
  0
LTYPE
  2
PHANTOM
 70
64
  3
_____ _ _ _____ _ _ 
 72
65
 73
6
 40
0.5706024152809803
 49
0.2853012076404902
 49
-0.05706024152809803
 49
0.05706024152809803
 49
-0.05706024152809803
 49
0.05706024152809803
 49
-0.05706024152809803
  0
ENDTAB
  0
TABLE
  2
LAYER
 70
2
  0
LAYER
  2
0
 70
0
 62
7
  6
CONTINUOUS
  0
ENDTAB
  0
TABLE
  2
STYLE
 70
4
  0
STYLE
  2
STANDARD
 70
0
 40
0
 41
1
 50
0
 71
0
 42
3.5
  3
txt
  4

  0
STYLE
  2
SIMPLEX
 70
0
 40
0
 41
1
 50
0
 71
0
 42
3.5
  3
simplex
  4

  0
STYLE
  2
COMPLEX
 70
0
 40
0
 41
1
 50
0
 71
0
 42
3.5
  3
complex
  4

  0
STYLE
  2
ITALIC
 70
0
 40
0
 41
1
 50
0
 71
0
 42
3.5
  3
italic
  4

  0
ENDTAB
  0
TABLE
  2
VIEW
 70
0
  0
ENDTAB
  0
ENDSEC
  0
SECTION
  2
BLOCKS
  0
BLOCK
  8
0
  2
*X0
 70
1
 10
0
 20
0
 30
0
  0
LINE
  8
0
 62
7
 10
7.424999999999997
 20
7.955330085889907
 30
0
 11
7.56966991411009
 21
8.1
 31
0
  0
LINE
  8
0
 62
7
 10
7.424999999999996
 20
8.061396103067889
 30
0
 11
7.463603896932107
 21
8.099999999999998
 31
0
  0
LINE
  8
0
 62
7
 10
7.525735931288073
 20
7.95
 30
0
 11
7.599999999999998
 21
8.024264068711926
 31
0
  0
ENDBLK
  8
0
  0
BLOCK
  8
0
  2
*X1
 70
1
 10
0
 20
0
 30
0
  0
LINE
  8
0
 62
7
 10
7.424999999999998
 20
10.71304653251744
 30
0
 11
7.561953467482555
 21
10.85
 31
0
  0
LINE
  8
0
 62
7
 10
7.424999999999998
 20
10.50091449816147
 30
0
 11
7.599999999999997
 21
10.67591449816147
 31
0
  0
LINE
  8
0
 62
7
 10
7.424999999999998
 20
10.28878246380551
 30
0
 11
7.599999999999997
 21
10.46378246380551
 31
0
  0
LINE
  8
0
 62
7
 10
7.424999999999998
 20
10.07665042944955
 30
0
 11
7.599999999999997
 21
10.25165042944955
 31
0
  0
LINE
  8
0
 62
7
 10
7.424999999999998
 20
9.864518395093583
 30
0
 11
7.599999999999997
 21
10.03951839509358
 31
0
  0
LINE
  8
0
 62
7
 10
7.424999999999998
 20
9.652386360737619
 30
0
 11
7.599999999999997
 21
9.827386360737618
 31
0
  0
LINE
  8
0
 62
7
 10
7.424999999999998
 20
9.440254326381655
 30
0
 11
7.599999999999997
 21
9.615254326381654
 31
0
  0
LINE
  8
0
 62
7
 10
7.424999999999998
 20
9.228122292025692
 30
0
 11
7.599999999999997
 21
9.40312229202569
 31
0
  0
LINE
  8
0
 62
7
 10
7.424999999999998
 20
9.015990257669728
 30
0
 11
7.599999999999997
 21
9.190990257669727
 31
0
  0
LINE
  8
0
 62
7
 10
7.424999999999998
 20
8.803858223313764
 30
0
 11
7.599999999999997
 21
8.978858223313763
 31
0
  0
LINE
  8
0
 62
7
 10
7.424999999999998
 20
8.5917261889578
 30
0
 11
7.599999999999997
 21
8.766726188957799
 31
0
  0
LINE
  8
0
 62
7
 10
7.424999999999998
 20
8.379594154601836
 30
0
 11
7.599999999999997
 21
8.554594154601835
 31
0
  0
LINE
  8
0
 62
7
 10
7.557537879754125
 20
8.299999999999999
 30
0
 11
7.599999999999997
 21
8.342462120245871
 31
0
  0
LINE
  8
0
 62
7
 10
7.424999999999997
 20
10.81911254969542
 30
0
 11
7.455887450304573
 21
10.85
 31
0
  0
LINE
  8
0
 62
7
 10
7.424999999999997
 20
10.60698051533946
 30
0
 11
7.599999999999997
 21
10.78198051533945
 31
0
  0
LINE
  8
0
 62
7
 10
7.424999999999997
 20
10.39484848098349
 30
0
 11
7.599999999999997
 21
10.56984848098349
 31
0
  0
LINE
  8
0
 62
7
 10
7.424999999999997
 20
10.18271644662753
 30
0
 11
7.599999999999997
 21
10.35771644662753
 31
0
  0
LINE
  8
0
 62
7
 10
7.424999999999997
 20
9.970584412271565
 30
0
 11
7.599999999999997
 21
10.14558441227156
 31
0
  0
LINE
  8
0
 62
7
 10
7.424999999999997
 20
9.758452377915601
 30
0
 11
7.599999999999997
 21
9.933452377915598
 31
0
  0
LINE
  8
0
 62
7
 10
7.424999999999997
 20
9.546320343559637
 30
0
 11
7.599999999999997
 21
9.721320343559634
 31
0
  0
LINE
  8
0
 62
7
 10
7.424999999999997
 20
9.334188309203673
 30
0
 11
7.599999999999997
 21
9.509188309203671
 31
0
  0
LINE
  8
0
 62
7
 10
7.424999999999997
 20
9.12205627484771
 30
0
 11
7.599999999999997
 21
9.297056274847707
 31
0
  0
LINE
  8
0
 62
7
 10
7.424999999999997
 20
8.909924240491746
 30
0
 11
7.599999999999997
 21
9.084924240491743
 31
0
  0
LINE
  8
0
 62
7
 10
7.424999999999997
 20
8.697792206135782
 30
0
 11
7.599999999999997
 21
8.872792206135779
 31
0
  0
LINE
  8
0
 62
7
 10
7.424999999999997
 20
8.485660171779818
 30
0
 11
7.599999999999997
 21
8.660660171779815
 31
0
  0
LINE
  8
0
 62
7
 10
7.451471862576144
 20
8.299999999999999
 30
0
 11
7.599999999999997
 21
8.448528137423851
 31
0
  0
ENDBLK
  8
0
  0
BLOCK
  8
0
  2
*X2
 70
1
 10
0
 20
0
 30
0
  0
LINE
  8
0
 62
7
 10
7.424999999999998
 20
11.13731060122937
 30
0
 11
7.487689398770626
 21
11.2
 31
0
  0
LINE
  8
0
 62
7
 10
7.549821433126593
 20
11.05
 30
0
 11
7.599999999999997
 21
11.10017856687341
 31
0
  0
LINE
  8
0
 62
7
 10
7.44375541594861
 20
11.05
 30
0
 11
7.593755415948609
 21
11.2
 31
0
  0
ENDBLK
  8
0
  0
BLOCK
  8
0
  2
*X3
 70
1
 10
0
 20
0
 30
0
  0
LINE
  8
0
 62
7
 10
3.740000000000001
 20
8.088706704297266
 30
0
 11
3.751293295702733
 21
8.1
 31
0
  0
LINE
  8
0
 62
7
 10
3.813425330058696
 20
7.949999999999998
 30
0
 11
3.915
 21
8.051574669941301
 31
0
  0
LINE
  8
0
 62
7
 10
3.74
 20
7.982640687119284
 30
0
 11
3.857359312880717
 21
8.1
 31
0
  0
ENDBLK
  8
0
  0
BLOCK
  8
0
  2
*X4
 70
1
 10
0
 20
0
 30
0
  0
LINE
  8
0
 62
7
 10
3.740000000000001
 20
10.8464231509248
 30
0
 11
3.743576849075198
 21
10.85
 31
0
  0
LINE
  8
0
 62
7
 10
3.740000000000001
 20
10.63429111656883
 30
0
 11
3.915
 21
10.80929111656883
 31
0
  0
LINE
  8
0
 62
7
 10
3.740000000000001
 20
10.42215908221287
 30
0
 11
3.915
 21
10.59715908221287
 31
0
  0
LINE
  8
0
 62
7
 10
3.740000000000001
 20
10.2100270478569
 30
0
 11
3.915
 21
10.38502704785691
 31
0
  0
LINE
  8
0
 62
7
 10
3.740000000000001
 20
9.997895013500941
 30
0
 11
3.915
 21
10.17289501350094
 31
0
  0
LINE
  8
0
 62
7
 10
3.740000000000001
 20
9.785762979144977
 30
0
 11
3.915
 21
9.960762979144977
 31
0
  0
LINE
  8
0
 62
7
 10
3.740000000000001
 20
9.573630944789013
 30
0
 11
3.915
 21
9.748630944789014
 31
0
  0
LINE
  8
0
 62
7
 10
3.740000000000001
 20
9.361498910433049
 30
0
 11
3.915
 21
9.53649891043305
 31
0
  0
LINE
  8
0
 62
7
 10
3.740000000000001
 20
9.149366876077085
 30
0
 11
3.915
 21
9.324366876077086
 31
0
  0
LINE
  8
0
 62
7
 10
3.740000000000001
 20
8.937234841721121
 30
0
 11
3.915
 21
9.112234841721122
 31
0
  0
LINE
  8
0
 62
7
 10
3.740000000000001
 20
8.725102807365158
 30
0
 11
3.915
 21
8.900102807365158
 31
0
  0
LINE
  8
0
 62
7
 10
3.740000000000001
 20
8.512970773009194
 30
0
 11
3.915
 21
8.687970773009194
 31
0
  0
LINE
  8
0
 62
7
 10
3.740000000000001
 20
8.30083873865323
 30
0
 11
3.915
 21
8.475838738653231
 31
0
  0
LINE
  8
0
 62
7
 10
3.74
 20
10.74035713374682
 30
0
 11
3.849642866253181
 21
10.85
 31
0
  0
LINE
  8
0
 62
7
 10
3.74
 20
10.52822509939085
 30
0
 11
3.915
 21
10.70322509939085
 31
0
  0
LINE
  8
0
 62
7
 10
3.74
 20
10.31609306503489
 30
0
 11
3.915
 21
10.49109306503489
 31
0
  0
LINE
  8
0
 62
7
 10
3.74
 20
10.10396103067892
 30
0
 11
3.915
 21
10.27896103067892
 31
0
  0
LINE
  8
0
 62
7
 10
3.74
 20
9.89182899632296
 30
0
 11
3.915
 21
10.06682899632296
 31
0
  0
LINE
  8
0
 62
7
 10
3.74
 20
9.679696961966997
 30
0
 11
3.915
 21
9.854696961966994
 31
0
  0
LINE
  8
0
 62
7
 10
3.74
 20
9.467564927611033
 30
0
 11
3.915
 21
9.64256492761103
 31
0
  0
LINE
  8
0
 62
7
 10
3.74
 20
9.255432893255069
 30
0
 11
3.915
 21
9.430432893255066
 31
0
  0
LINE
  8
0
 62
7
 10
3.74
 20
9.043300858899105
 30
0
 11
3.915
 21
9.218300858899102
 31
0
  0
LINE
  8
0
 62
7
 10
3.74
 20
8.831168824543141
 30
0
 11
3.915
 21
9.006168824543138
 31
0
  0
LINE
  8
0
 62
7
 10
3.74
 20
8.619036790187177
 30
0
 11
3.915
 21
8.794036790187175
 31
0
  0
LINE
  8
0
 62
7
 10
3.74
 20
8.406904755831214
 30
0
 11
3.915
 21
8.581904755831211
 31
0
  0
LINE
  8
0
 62
7
 10
3.845227278524751
 20
8.299999999999999
 30
0
 11
3.915
 21
8.369772721475247
 31
0
  0
ENDBLK
  8
0
  0
BLOCK
  8
0
  2
*X5
 70
1
 10
0
 20
0
 30
0
  0
LINE
  8
0
 62
7
 10
3.740000000000001
 20
11.05855518528077
 30
0
 11
3.881444814719234
 21
11.2
 31
0
  0
LINE
  8
0
 62
7
 10
3.740000000000002
 20
11.16462120245875
 30
0
 11
3.775378797541253
 21
11.2
 31
0
  0
LINE
  8
0
 62
7
 10
3.837510831897218
 20
11.05
 30
0
 11
3.915
 21
11.12748916810278
 31
0
  0
ENDBLK
  8
0
  0
BLOCK
  8
0
  2
*X6
 70
1
 10
0
 20
0
 30
0
  0
LINE
  8
0
 62
7
  6
DASHED
 10
3.590000000000001
 20
8.150838738653231
 30
0
 11
3.739161261346776
 21
8.299999999999999
 31
0
  0
LINE
  8
0
 62
7
  6
DASHED
 10
3.751293295702738
 20
8.099999999999998
 30
0
 11
3.95129329570274
 21
8.299999999999999
 31
0
  0
LINE
  8
0
 62
7
  6
DASHED
 10
3.963425330058703
 20
8.099999999999998
 30
0
 11
4.163425330058704
 21
8.299999999999999
 31
0
  0
LINE
  8
0
 62
7
  6
DASHED
 10
4.175557364414667
 20
8.099999999999998
 30
0
 11
4.375557364414668
 21
8.299999999999999
 31
0
  0
LINE
  8
0
 62
7
  6
DASHED
 10
4.387689398770631
 20
8.099999999999998
 30
0
 11
4.587689398770632
 21
8.299999999999999
 31
0
  0
LINE
  8
0
 62
7
  6
DASHED
 10
4.599821433126595
 20
8.099999999999998
 30
0
 11
4.799821433126596
 21
8.299999999999999
 31
0
  0
LINE
  8
0
 62
7
  6
DASHED
 10
4.811953467482558
 20
8.099999999999998
 30
0
 11
5.011953467482559
 21
8.299999999999999
 31
0
  0
LINE
  8
0
 62
7
  6
DASHED
 10
5.024085501838522
 20
8.099999999999998
 30
0
 11
5.224085501838523
 21
8.299999999999999
 31
0
  0
LINE
  8
0
 62
7
  6
DASHED
 10
5.236217536194486
 20
8.099999999999998
 30
0
 11
5.436217536194487
 21
8.299999999999999
 31
0
  0
LINE
  8
0
 62
7
  6
DASHED
 10
5.44834957055045
 20
8.099999999999998
 30
0
 11
5.648349570550451
 21
8.299999999999999
 31
0
  0
LINE
  8
0
 62
7
  6
DASHED
 10
5.660481604906414
 20
8.099999999999998
 30
0
 11
5.860481604906415
 21
8.299999999999999
 31
0
  0
LINE
  8
0
 62
7
  6
DASHED
 10
5.872613639262378
 20
8.099999999999998
 30
0
 11
6.072613639262379
 21
8.299999999999999
 31
0
  0
LINE
  8
0
 62
7
  6
DASHED
 10
6.084745673618341
 20
8.099999999999998
 30
0
 11
6.284745673618342
 21
8.299999999999999
 31
0
  0
LINE
  8
0
 62
7
  6
DASHED
 10
6.296877707974305
 20
8.099999999999998
 30
0
 11
6.496877707974306
 21
8.299999999999999
 31
0
  0
LINE
  8
0
 62
7
  6
DASHED
 10
6.509009742330269
 20
8.099999999999998
 30
0
 11
6.70900974233027
 21
8.299999999999999
 31
0
  0
LINE
  8
0
 62
7
  6
DASHED
 10
6.721141776686233
 20
8.099999999999998
 30
0
 11
6.921141776686234
 21
8.299999999999999
 31
0
  0
LINE
  8
0
 62
7
  6
DASHED
 10
6.933273811042197
 20
8.099999999999998
 30
0
 11
7.133273811042198
 21
8.299999999999999
 31
0
  0
LINE
  8
0
 62
7
  6
DASHED
 10
7.145405845398161
 20
8.099999999999998
 30
0
 11
7.345405845398162
 21
8.299999999999999
 31
0
  0
LINE
  8
0
 62
7
  6
DASHED
 10
7.357537879754124
 20
8.099999999999998
 30
0
 11
7.557537879754125
 21
8.299999999999999
 31
0
  0
LINE
  8
0
 62
7
  6
DASHED
 10
7.569669914110088
 20
8.099999999999998
 30
0
 11
7.749999999999998
 21
8.280330085889908
 31
0
  0
LINE
  8
0
 62
7
 10
3.589999999999999
 20
8.256904755831211
 30
0
 11
3.633095244168793
 21
8.299999999999999
 31
0
  0
LINE
  8
0
 62
7
 10
3.64522727852476
 20
8.1
 30
0
 11
3.845227278524757
 21
8.299999999999999
 31
0
  0
LINE
  8
0
 62
7
 10
3.857359312880724
 20
8.1
 30
0
 11
4.057359312880721
 21
8.299999999999999
 31
0
  0
LINE
  8
0
 62
7
 10
4.069491347236688
 20
8.1
 30
0
 11
4.269491347236685
 21
8.299999999999999
 31
0
  0
LINE
  8
0
 62
7
 10
4.281623381592652
 20
8.1
 30
0
 11
4.481623381592649
 21
8.299999999999999
 31
0
  0
LINE
  8
0
 62
7
 10
4.493755415948616
 20
8.1
 30
0
 11
4.693755415948613
 21
8.299999999999999
 31
0
  0
LINE
  8
0
 62
7
 10
4.70588745030458
 20
8.1
 30
0
 11
4.905887450304577
 21
8.299999999999999
 31
0
  0
LINE
  8
0
 62
7
 10
4.918019484660544
 20
8.1
 30
0
 11
5.11801948466054
 21
8.299999999999999
 31
0
  0
LINE
  8
0
 62
7
 10
5.130151519016508
 20
8.1
 30
0
 11
5.330151519016504
 21
8.299999999999999
 31
0
  0
LINE
  8
0
 62
7
 10
5.342283553372472
 20
8.1
 30
0
 11
5.542283553372468
 21
8.299999999999999
 31
0
  0
LINE
  8
0
 62
7
 10
5.554415587728435
 20
8.1
 30
0
 11
5.754415587728432
 21
8.299999999999999
 31
0
  0
LINE
  8
0
 62
7
 10
5.766547622084399
 20
8.1
 30
0
 11
5.966547622084396
 21
8.299999999999999
 31
0
  0
LINE
  8
0
 62
7
 10
5.978679656440363
 20
8.1
 30
0
 11
6.17867965644036
 21
8.299999999999999
 31
0
  0
LINE
  8
0
 62
7
 10
6.190811690796327
 20
8.1
 30
0
 11
6.390811690796323
 21
8.299999999999999
 31
0
  0
LINE
  8
0
 62
7
 10
6.402943725152291
 20
8.1
 30
0
 11
6.602943725152287
 21
8.299999999999999
 31
0
  0
LINE
  8
0
 62
7
 10
6.615075759508255
 20
8.1
 30
0
 11
6.815075759508251
 21
8.299999999999999
 31
0
  0
LINE
  8
0
 62
7
 10
6.827207793864218
 20
8.1
 30
0
 11
7.027207793864215
 21
8.299999999999999
 31
0
  0
LINE
  8
0
 62
7
 10
7.039339828220182
 20
8.1
 30
0
 11
7.239339828220179
 21
8.299999999999999
 31
0
  0
LINE
  8
0
 62
7
 10
7.251471862576146
 20
8.1
 30
0
 11
7.451471862576143
 21
8.299999999999999
 31
0
  0
LINE
  8
0
 62
7
 10
7.46360389693211
 20
8.1
 30
0
 11
7.663603896932107
 21
8.299999999999999
 31
0
  0
LINE
  8
0
 62
7
 10
7.675735931288074
 20
8.1
 30
0
 11
7.749999999999999
 21
8.174264068711926
 31
0
  0
ENDBLK
  8
0
  0
BLOCK
  8
0
  2
*X7
 70
1
 10
0
 20
0
 30
0
  0
LINE
  8
0
 62
7
  6
DASHED
 10
3.589999999999999
 20
10.90855518528076
 30
0
 11
3.731444814719241
 21
11.05
 31
0
  0
LINE
  8
0
 62
7
  6
DASHED
 10
3.743576849075205
 20
10.85
 30
0
 11
3.943576849075205
 21
11.05
 31
0
  0
LINE
  8
0
 62
7
  6
DASHED
 10
3.955708883431169
 20
10.85
 30
0
 11
4.15570888343117
 21
11.05
 31
0
  0
LINE
  8
0
 62
7
  6
DASHED
 10
4.167840917787133
 20
10.85
 30
0
 11
4.367840917787134
 21
11.05
 31
0
  0
LINE
  8
0
 62
7
  6
DASHED
 10
4.379972952143097
 20
10.85
 30
0
 11
4.579972952143097
 21
11.05
 31
0
  0
LINE
  8
0
 62
7
  6
DASHED
 10
4.592104986499061
 20
10.85
 30
0
 11
4.792104986499061
 21
11.05
 31
0
  0
LINE
  8
0
 62
7
  6
DASHED
 10
4.804237020855025
 20
10.85
 30
0
 11
5.004237020855025
 21
11.05
 31
0
  0
LINE
  8
0
 62
7
  6
DASHED
 10
5.016369055210989
 20
10.85
 30
0
 11
5.216369055210989
 21
11.05
 31
0
  0
LINE
  8
0
 62
7
  6
DASHED
 10
5.228501089566953
 20
10.85
 30
0
 11
5.428501089566953
 21
11.05
 31
0
  0
LINE
  8
0
 62
7
  6
DASHED
 10
5.440633123922916
 20
10.85
 30
0
 11
5.640633123922917
 21
11.05
 31
0
  0
LINE
  8
0
 62
7
  6
DASHED
 10
5.65276515827888
 20
10.85
 30
0
 11
5.85276515827888
 21
11.05
 31
0
  0
LINE
  8
0
 62
7
  6
DASHED
 10
5.864897192634844
 20
10.85
 30
0
 11
6.064897192634844
 21
11.05
 31
0
  0
LINE
  8
0
 62
7
  6
DASHED
 10
6.077029226990808
 20
10.85
 30
0
 11
6.277029226990808
 21
11.05
 31
0
  0
LINE
  8
0
 62
7
  6
DASHED
 10
6.289161261346772
 20
10.85
 30
0
 11
6.489161261346772
 21
11.05
 31
0
  0
LINE
  8
0
 62
7
  6
DASHED
 10
6.501293295702736
 20
10.85
 30
0
 11
6.701293295702736
 21
11.05
 31
0
  0
LINE
  8
0
 62
7
  6
DASHED
 10
6.713425330058699
 20
10.85
 30
0
 11
6.9134253300587
 21
11.05
 31
0
  0
LINE
  8
0
 62
7
  6
DASHED
 10
6.925557364414663
 20
10.85
 30
0
 11
7.125557364414663
 21
11.05
 31
0
  0
LINE
  8
0
 62
7
  6
DASHED
 10
7.137689398770627
 20
10.85
 30
0
 11
7.337689398770627
 21
11.05
 31
0
  0
LINE
  8
0
 62
7
  6
DASHED
 10
7.349821433126591
 20
10.85
 30
0
 11
7.549821433126591
 21
11.05
 31
0
  0
LINE
  8
0
 62
7
  6
DASHED
 10
7.561953467482555
 20
10.85
 30
0
 11
7.749999999999998
 21
11.03804653251744
 31
0
  0
LINE
  8
0
 62
7
 10
3.589999999999999
 20
11.01462120245875
 30
0
 11
3.62537879754126
 21
11.05
 31
0
  0
LINE
  8
0
 62
7
 10
3.637510831897224
 20
10.85
 30
0
 11
3.837510831897224
 21
11.05
 31
0
  0
LINE
  8
0
 62
7
 10
3.849642866253188
 20
10.85
 30
0
 11
4.049642866253189
 21
11.05
 31
0
  0
LINE
  8
0
 62
7
 10
4.061774900609152
 20
10.85
 30
0
 11
4.261774900609153
 21
11.05
 31
0
  0
LINE
  8
0
 62
7
 10
4.273906934965116
 20
10.85
 30
0
 11
4.473906934965116
 21
11.05
 31
0
  0
LINE
  8
0
 62
7
 10
4.48603896932108
 20
10.85
 30
0
 11
4.68603896932108
 21
11.05
 31
0
  0
LINE
  8
0
 62
7
 10
4.698171003677044
 20
10.85
 30
0
 11
4.898171003677044
 21
11.05
 31
0
  0
LINE
  8
0
 62
7
 10
4.910303038033008
 20
10.85
 30
0
 11
5.110303038033008
 21
11.05
 31
0
  0
LINE
  8
0
 62
7
 10
5.122435072388972
 20
10.85
 30
0
 11
5.322435072388972
 21
11.05
 31
0
  0
LINE
  8
0
 62
7
 10
5.334567106744935
 20
10.85
 30
0
 11
5.534567106744936
 21
11.05
 31
0
  0
LINE
  8
0
 62
7
 10
5.546699141100899
 20
10.85
 30
0
 11
5.746699141100899
 21
11.05
 31
0
  0
LINE
  8
0
 62
7
 10
5.758831175456863
 20
10.85
 30
0
 11
5.958831175456863
 21
11.05
 31
0
  0
LINE
  8
0
 62
7
 10
5.970963209812827
 20
10.85
 30
0
 11
6.170963209812827
 21
11.05
 31
0
  0
LINE
  8
0
 62
7
 10
6.183095244168791
 20
10.85
 30
0
 11
6.383095244168791
 21
11.05
 31
0
  0
LINE
  8
0
 62
7
 10
6.395227278524755
 20
10.85
 30
0
 11
6.595227278524755
 21
11.05
 31
0
  0
LINE
  8
0
 62
7
 10
6.607359312880718
 20
10.85
 30
0
 11
6.807359312880719
 21
11.05
 31
0
  0
LINE
  8
0
 62
7
 10
6.819491347236682
 20
10.85
 30
0
 11
7.019491347236682
 21
11.05
 31
0
  0
LINE
  8
0
 62
7
 10
7.031623381592646
 20
10.85
 30
0
 11
7.231623381592646
 21
11.05
 31
0
  0
LINE
  8
0
 62
7
 10
7.24375541594861
 20
10.85
 30
0
 11
7.44375541594861
 21
11.05
 31
0
  0
LINE
  8
0
 62
7
 10
7.455887450304574
 20
10.85
 30
0
 11
7.655887450304574
 21
11.05
 31
0
  0
LINE
  8
0
 62
7
 10
7.668019484660538
 20
10.85
 30
0
 11
7.749999999999997
 21
10.93198051533946
 31
0
  0
ENDBLK
  8
0
  0
BLOCK
  8
0
  2
*X8
 70
1
 10
0
 20
0
 30
0
  0
LINE
  8
0
 62
7
 10
0.5
 20
8.03068721963673
 30
0
 11
0.5693127803632692
 21
8.1
 31
0
  0
LINE
  8
0
 62
7
 10
0.6314448147192331
 20
7.949999999999999
 30
0
 11
0.7399999999999998
 21
8.058555185280765
 31
0
  0
LINE
  8
0
 62
7
 10
0.5253787975412521
 20
7.949999999999999
 30
0
 11
0.6753787975412515
 21
8.099999999999998
 31
0
  0
LINE
  8
0
 62
7
 10
0.7375108318972163
 20
7.949999999999999
 30
0
 11
0.7399999999999993
 21
7.952489168102783
 31
0
  0
ENDBLK
  8
0
  0
BLOCK
  8
0
  2
*X9
 70
1
 10
0
 20
0
 30
0
  0
LINE
  8
0
 62
7
 10
0.5000000000000004
 20
10.78840366626426
 30
0
 11
0.5615963337357339
 21
10.85
 31
0
  0
LINE
  8
0
 62
7
 10
0.5000000000000004
 20
10.5762716319083
 30
0
 11
0.7400000000000002
 21
10.8162716319083
 31
0
  0
LINE
  8
0
 62
7
 10
0.5000000000000004
 20
10.36413959755233
 30
0
 11
0.7400000000000002
 21
10.60413959755233
 31
0
  0
LINE
  8
0
 62
7
 10
0.5000000000000004
 20
10.15200756319637
 30
0
 11
0.7400000000000002
 21
10.39200756319637
 31
0
  0
LINE
  8
0
 62
7
 10
0.5000000000000004
 20
9.939875528840407
 30
0
 11
0.7400000000000002
 21
10.17987552884041
 31
0
  0
LINE
  8
0
 62
7
 10
0.5000000000000004
 20
9.727743494484443
 30
0
 11
0.7400000000000002
 21
9.967743494484441
 31
0
  0
LINE
  8
0
 62
7
 10
0.5000000000000004
 20
9.515611460128479
 30
0
 11
0.7400000000000002
 21
9.755611460128478
 31
0
  0
LINE
  8
0
 62
7
 10
0.5000000000000004
 20
9.303479425772515
 30
0
 11
0.7400000000000002
 21
9.543479425772514
 31
0
  0
LINE
  8
0
 62
7
 10
0.5000000000000004
 20
9.091347391416551
 30
0
 11
0.7400000000000002
 21
9.33134739141655
 31
0
  0
LINE
  8
0
 62
7
 10
0.5000000000000004
 20
8.879215357060588
 30
0
 11
0.7400000000000002
 21
9.119215357060586
 31
0
  0
LINE
  8
0
 62
7
 10
0.5000000000000004
 20
8.667083322704624
 30
0
 11
0.7400000000000002
 21
8.907083322704622
 31
0
  0
LINE
  8
0
 62
7
 10
0.5000000000000004
 20
8.45495128834866
 30
0
 11
0.7400000000000002
 21
8.694951288348658
 31
0
  0
LINE
  8
0
 62
7
 10
0.5571807460073046
 20
8.299999999999999
 30
0
 11
0.7400000000000002
 21
8.482819253992695
 31
0
  0
LINE
  8
0
 62
7
 10
0.5
 20
10.68233764908628
 30
0
 11
0.6676623509137176
 21
10.85
 31
0
  0
LINE
  8
0
 62
7
 10
0.5
 20
10.47020561473031
 30
0
 11
0.7399999999999998
 21
10.71020561473031
 31
0
  0
LINE
  8
0
 62
7
 10
0.5
 20
10.25807358037435
 30
0
 11
0.7399999999999998
 21
10.49807358037435
 31
0
  0
LINE
  8
0
 62
7
 10
0.5
 20
10.04594154601839
 30
0
 11
0.7399999999999998
 21
10.28594154601839
 31
0
  0
LINE
  8
0
 62
7
 10
0.5
 20
9.833809511662423
 30
0
 11
0.7399999999999998
 21
10.07380951166242
 31
0
  0
LINE
  8
0
 62
7
 10
0.5
 20
9.621677477306459
 30
0
 11
0.7399999999999998
 21
9.861677477306458
 31
0
  0
LINE
  8
0
 62
7
 10
0.5
 20
9.409545442950495
 30
0
 11
0.7399999999999998
 21
9.649545442950494
 31
0
  0
LINE
  8
0
 62
7
 10
0.5
 20
9.197413408594532
 30
0
 11
0.7399999999999998
 21
9.43741340859453
 31
0
  0
LINE
  8
0
 62
7
 10
0.5
 20
8.985281374238568
 30
0
 11
0.7399999999999998
 21
9.225281374238566
 31
0
  0
LINE
  8
0
 62
7
 10
0.5
 20
8.773149339882604
 30
0
 11
0.7399999999999998
 21
9.013149339882602
 31
0
  0
LINE
  8
0
 62
7
 10
0.5
 20
8.56101730552664
 30
0
 11
0.7399999999999998
 21
8.801017305526639
 31
0
  0
LINE
  8
0
 62
7
 10
0.5
 20
8.348885271170676
 30
0
 11
0.7399999999999998
 21
8.588885271170675
 31
0
  0
LINE
  8
0
 62
7
 10
0.6632467631852879
 20
8.299999999999999
 30
0
 11
0.7399999999999998
 21
8.376753236814711
 31
0
  0
ENDBLK
  8
0
  0
BLOCK
  8
0
  2
*X10
 70
1
 10
0
 20
0
 30
0
  0
LINE
  8
0
 62
7
 10
0.549464299379772
 20
11.05
 30
0
 11
0.6994642993797706
 21
11.2
 31
0
  0
LINE
  8
0
 62
7
 10
0.5
 20
11.10660171779821
 30
0
 11
0.5933982822017896
 21
11.2
 31
0
  0
LINE
  8
0
 62
7
 10
0.655530316557754
 20
11.05
 30
0
 11
0.7400000000000002
 21
11.13446968344225
 31
0
  0
ENDBLK
  8
0
  0
BLOCK
  8
0
  2
*X11
 70
1
 10
0
 20
0
 30
0
  0
LINE
  8
0
 62
7
  6
DASHED
 10
2.14
 20
8.185762979144981
 30
0
 11
2.254237020855018
 21
8.299999999999999
 31
0
  0
LINE
  8
0
 62
7
  6
DASHED
 10
2.266369055210983
 20
8.099999999999998
 30
0
 11
2.44
 21
8.273630944789016
 31
0
  0
LINE
  8
0
 62
7
 10
2.140000000000001
 20
8.291828996322963
 30
0
 11
2.148171003677037
 21
8.299999999999999
 31
0
  0
LINE
  8
0
 62
7
 10
2.160303038033002
 20
8.1
 30
0
 11
2.360303038033002
 21
8.299999999999999
 31
0
  0
LINE
  8
0
 62
7
 10
2.372435072388967
 20
8.1
 30
0
 11
2.44
 21
8.167564927611032
 31
0
  0
ENDBLK
  8
0
  0
BLOCK
  8
0
  2
*X12
 70
1
 10
0
 20
0
 30
0
  0
LINE
  8
0
 62
7
  6
DASHED
 10
2.14
 20
10.94347942577251
 30
0
 11
2.246520574227487
 21
11.05
 31
0
  0
LINE
  8
0
 62
7
  6
DASHED
 10
2.258652608583449
 20
10.85
 30
0
 11
2.439999999999999
 21
11.03134739141655
 31
0
  0
LINE
  8
0
 62
7
 10
2.14
 20
11.0495454429505
 30
0
 11
2.140454557049504
 21
11.05
 31
0
  0
LINE
  8
0
 62
7
 10
2.152586591405466
 20
10.85
 30
0
 11
2.352586591405468
 21
11.05
 31
0
  0
LINE
  8
0
 62
7
 10
2.36471862576143
 20
10.85
 30
0
 11
2.44
 21
10.92528137423857
 31
0
  0
ENDBLK
  8
0
  0
BLOCK
  8
0
  2
*X13
 70
1
 10
0
 20
0
 30
0
  0
LINE
  8
0
 62
7
  6
DASHED
 10
0.4999999999999991
 20
11.00053570062023
 30
0
 11
0.5494642993797729
 21
11.05
 31
0
  0
LINE
  8
0
 62
7
  6
DASHED
 10
0.5615963337357357
 20
10.85
 30
0
 11
0.7399999999999993
 21
11.02840366626426
 31
0
  0
LINE
  8
0
 62
7
 10
0.5000000000000009
 20
10.89446968344225
 30
0
 11
0.655530316557754
 21
11.05
 31
0
  0
LINE
  8
0
 62
7
 10
0.6676623509137176
 20
10.85
 30
0
 11
0.7400000000000002
 21
10.92233764908628
 31
0
  0
ENDBLK
  8
0
  0
BLOCK
  8
0
  2
*X14
 70
1
 10
0
 20
0
 30
0
  0
LINE
  8
0
 62
7
  6
DASHED
 10
0.5
 20
8.242819253992694
 30
0
 11
0.5571807460073046
 21
8.299999999999999
 31
0
  0
LINE
  8
0
 62
7
  6
DASHED
 10
0.5693127803632705
 20
8.100000000000001
 30
0
 11
0.7399999999999998
 21
8.270687219636729
 31
0
  0
LINE
  8
0
 62
7
 10
0.5
 20
8.136753236814712
 30
0
 11
0.6632467631852874
 21
8.299999999999999
 31
0
  0
LINE
  8
0
 62
7
 10
0.6753787975412515
 20
8.099999999999998
 30
0
 11
0.7400000000000007
 21
8.164621202458747
 31
0
  0
ENDBLK
  8
0
  0
BLOCK
  8
0
  2
*X15
 70
1
 10
0
 20
0
 30
0
  0
LINE
  8
0
 62
7
 10
3.74
 20
5.330990257669733
 30
0
 11
3.829009742330265
 21
5.419999999999996
 31
0
  0
LINE
  8
0
 62
7
 10
3.59
 20
5.180990257669732
 30
0
 11
3.679009742330265
 21
5.269999999999996
 31
0
  0
LINE
  8
0
 62
7
 10
3.651141776686241
 20
5.030000000000001
 30
0
 11
3.915
 21
5.293858223313768
 31
0
  0
LINE
  8
0
 62
7
 10
3.863273811042205
 20
5.030000000000001
 30
0
 11
4.1032738110422
 21
5.269999999999997
 31
0
  0
LINE
  8
0
 62
7
 10
4.075405845398169
 20
5.030000000000001
 30
0
 11
4.315405845398164
 21
5.269999999999997
 31
0
  0
LINE
  8
0
 62
7
 10
4.287537879754133
 20
5.030000000000001
 30
0
 11
4.527537879754128
 21
5.269999999999997
 31
0
  0
LINE
  8
0
 62
7
 10
4.499669914110097
 20
5.030000000000001
 30
0
 11
4.739669914110092
 21
5.269999999999997
 31
0
  0
LINE
  8
0
 62
7
 10
4.711801948466061
 20
5.030000000000001
 30
0
 11
4.951801948466056
 21
5.269999999999997
 31
0
  0
LINE
  8
0
 62
7
 10
4.923933982822025
 20
5.030000000000001
 30
0
 11
5.163933982822019
 21
5.269999999999997
 31
0
  0
LINE
  8
0
 62
7
 10
5.136066017177988
 20
5.030000000000001
 30
0
 11
5.376066017177983
 21
5.269999999999997
 31
0
  0
LINE
  8
0
 62
7
 10
5.348198051533952
 20
5.030000000000001
 30
0
 11
5.588198051533947
 21
5.269999999999997
 31
0
  0
LINE
  8
0
 62
7
 10
5.560330085889916
 20
5.030000000000001
 30
0
 11
5.800330085889911
 21
5.269999999999997
 31
0
  0
LINE
  8
0
 62
7
 10
5.77246212024588
 20
5.030000000000001
 30
0
 11
6.012462120245875
 21
5.269999999999997
 31
0
  0
LINE
  8
0
 62
7
 10
5.984594154601844
 20
5.030000000000001
 30
0
 11
6.224594154601839
 21
5.269999999999997
 31
0
  0
LINE
  8
0
 62
7
 10
6.196726188957808
 20
5.030000000000001
 30
0
 11
6.436726188957802
 21
5.269999999999997
 31
0
  0
LINE
  8
0
 62
7
 10
6.408858223313771
 20
5.030000000000001
 30
0
 11
6.648858223313766
 21
5.269999999999997
 31
0
  0
LINE
  8
0
 62
7
 10
6.620990257669735
 20
5.030000000000001
 30
0
 11
6.86099025766973
 21
5.269999999999997
 31
0
  0
LINE
  8
0
 62
7
 10
6.833122292025699
 20
5.030000000000001
 30
0
 11
7.073122292025694
 21
5.269999999999997
 31
0
  0
LINE
  8
0
 62
7
 10
7.424999999999996
 20
5.409745673618335
 30
0
 11
7.435254326381659
 21
5.419999999999998
 31
0
  0
LINE
  8
0
 62
7
 10
7.045254326381663
 20
5.030000000000001
 30
0
 11
7.285254326381658
 21
5.269999999999997
 31
0
  0
LINE
  8
0
 62
7
 10
7.257386360737627
 20
5.030000000000001
 30
0
 11
7.599999999999998
 21
5.372613639262373
 31
0
  0
LINE
  8
0
 62
7
 10
7.469518395093591
 20
5.030000000000001
 30
0
 11
7.709518395093585
 21
5.269999999999996
 31
0
  0
LINE
  8
0
 62
7
 10
7.681650429449554
 20
5.030000000000001
 30
0
 11
7.764999999999997
 21
5.113349570550444
 31
0
  0
LINE
  8
0
 62
7
 10
3.59
 20
5.074924240491749
 30
0
 11
3.915
 21
5.39992424049175
 31
0
  0
LINE
  8
0
 62
7
 10
3.757207793864224
 20
5.030000000000002
 30
0
 11
3.997207793864219
 21
5.269999999999998
 31
0
  0
LINE
  8
0
 62
7
 10
3.969339828220189
 20
5.030000000000002
 30
0
 11
4.209339828220183
 21
5.269999999999998
 31
0
  0
LINE
  8
0
 62
7
 10
4.181471862576153
 20
5.030000000000002
 30
0
 11
4.421471862576147
 21
5.269999999999998
 31
0
  0
LINE
  8
0
 62
7
 10
4.393603896932117
 20
5.030000000000002
 30
0
 11
4.633603896932111
 21
5.269999999999998
 31
0
  0
LINE
  8
0
 62
7
 10
4.605735931288081
 20
5.030000000000002
 30
0
 11
4.845735931288075
 21
5.269999999999998
 31
0
  0
LINE
  8
0
 62
7
 10
4.817867965644044
 20
5.030000000000002
 30
0
 11
5.057867965644038
 21
5.269999999999998
 31
0
  0
LINE
  8
0
 62
7
 10
5.030000000000008
 20
5.030000000000002
 30
0
 11
5.270000000000002
 21
5.269999999999998
 31
0
  0
LINE
  8
0
 62
7
 10
5.242132034355972
 20
5.030000000000002
 30
0
 11
5.482132034355966
 21
5.269999999999998
 31
0
  0
LINE
  8
0
 62
7
 10
5.454264068711936
 20
5.030000000000002
 30
0
 11
5.69426406871193
 21
5.269999999999998
 31
0
  0
LINE
  8
0
 62
7
 10
5.6663961030679
 20
5.030000000000002
 30
0
 11
5.906396103067894
 21
5.269999999999998
 31
0
  0
LINE
  8
0
 62
7
 10
5.878528137423864
 20
5.030000000000002
 30
0
 11
6.118528137423858
 21
5.269999999999998
 31
0
  0
LINE
  8
0
 62
7
 10
6.090660171779827
 20
5.030000000000002
 30
0
 11
6.330660171779821
 21
5.269999999999998
 31
0
  0
LINE
  8
0
 62
7
 10
6.302792206135791
 20
5.030000000000002
 30
0
 11
6.542792206135785
 21
5.269999999999998
 31
0
  0
LINE
  8
0
 62
7
 10
6.514924240491755
 20
5.030000000000002
 30
0
 11
6.754924240491749
 21
5.269999999999998
 31
0
  0
LINE
  8
0
 62
7
 10
6.727056274847719
 20
5.030000000000002
 30
0
 11
6.967056274847713
 21
5.269999999999998
 31
0
  0
LINE
  8
0
 62
7
 10
6.939188309203683
 20
5.030000000000002
 30
0
 11
7.179188309203677
 21
5.269999999999998
 31
0
  0
LINE
  8
0
 62
7
 10
7.424999999999997
 20
5.303679656440353
 30
0
 11
7.54132034355964
 21
5.419999999999997
 31
0
  0
LINE
  8
0
 62
7
 10
7.151320343559647
 20
5.030000000000002
 30
0
 11
7.391320343559641
 21
5.269999999999998
 31
0
  0
LINE
  8
0
 62
7
 10
7.36345237791561
 20
5.030000000000002
 30
0
 11
7.603452377915604
 21
5.269999999999998
 31
0
  0
LINE
  8
0
 62
7
 10
7.575584412271574
 20
5.030000000000002
 30
0
 11
7.764999999999997
 21
5.219415587728425
 31
0
  0
ENDBLK
  8
0
  0
BLOCK
  8
0
  2
*X16
 70
1
 10
0
 20
0
 30
0
  0
LINE
  8
0
 62
7
 10
3.589999999999999
 20
4.968858223313765
 30
0
 11
3.61114177668624
 21
4.99
 31
0
  0
LINE
  8
0
 62
7
 10
3.589999999999999
 20
4.756726188957801
 30
0
 11
3.823273811042204
 21
4.99
 31
0
  0
LINE
  8
0
 62
7
 10
3.74
 20
4.694594154601837
 30
0
 11
4.035405845398168
 21
4.99
 31
0
  0
LINE
  8
0
 62
7
 10
4.007537879754132
 20
4.75
 30
0
 11
4.247537879754132
 21
4.99
 31
0
  0
LINE
  8
0
 62
7
 10
3.74
 20
4.482462120245874
 30
0
 11
3.915
 21
4.657462120245873
 31
0
  0
LINE
  8
0
 62
7
 10
4.219669914110096
 20
4.75
 30
0
 11
4.459669914110096
 21
4.99
 31
0
  0
LINE
  8
0
 62
7
 10
3.74
 20
4.27033008588991
 30
0
 11
3.915
 21
4.44533008588991
 31
0
  0
LINE
  8
0
 62
7
 10
4.43180194846606
 20
4.75
 30
0
 11
4.67180194846606
 21
4.99
 31
0
  0
LINE
  8
0
 62
7
 10
3.74
 20
4.058198051533946
 30
0
 11
3.915
 21
4.233198051533946
 31
0
  0
LINE
  8
0
 62
7
 10
4.643933982822023
 20
4.75
 30
0
 11
4.883933982822024
 21
4.99
 31
0
  0
LINE
  8
0
 62
7
 10
3.74
 20
3.846066017177982
 30
0
 11
3.915
 21
4.021066017177982
 31
0
  0
LINE
  8
0
 62
7
 10
4.856066017177987
 20
4.75
 30
0
 11
5.096066017177987
 21
4.99
 31
0
  0
LINE
  8
0
 62
7
 10
3.74
 20
3.633933982822018
 30
0
 11
3.915
 21
3.808933982822018
 31
0
  0
LINE
  8
0
 62
7
 10
5.068198051533951
 20
4.75
 30
0
 11
5.308198051533951
 21
4.99
 31
0
  0
LINE
  8
0
 62
7
 10
3.74
 20
3.421801948466054
 30
0
 11
3.915
 21
3.596801948466053
 31
0
  0
LINE
  8
0
 62
7
 10
5.280330085889915
 20
4.75
 30
0
 11
5.520330085889915
 21
4.99
 31
0
  0
LINE
  8
0
 62
7
 10
3.78033008588991
 20
3.25
 30
0
 11
3.915
 21
3.384669914110089
 31
0
  0
LINE
  8
0
 62
7
 10
5.492462120245879
 20
4.75
 30
0
 11
5.732462120245879
 21
4.99
 31
0
  0
LINE
  8
0
 62
7
 10
5.704594154601843
 20
4.75
 30
0
 11
5.944594154601843
 21
4.99
 31
0
  0
LINE
  8
0
 62
7
 10
5.916726188957806
 20
4.75
 30
0
 11
6.156726188957807
 21
4.99
 31
0
  0
LINE
  8
0
 62
7
 10
6.12885822331377
 20
4.75
 30
0
 11
6.36885822331377
 21
4.99
 31
0
  0
LINE
  8
0
 62
7
 10
6.340990257669734
 20
4.75
 30
0
 11
6.580990257669734
 21
4.99
 31
0
  0
LINE
  8
0
 62
7
 10
6.553122292025698
 20
4.75
 30
0
 11
6.793122292025698
 21
4.99
 31
0
  0
LINE
  8
0
 62
7
 10
6.765254326381662
 20
4.75
 30
0
 11
7.005254326381662
 21
4.99
 31
0
  0
LINE
  8
0
 62
7
 10
6.977386360737626
 20
4.75
 30
0
 11
7.217386360737626
 21
4.99
 31
0
  0
LINE
  8
0
 62
7
 10
7.189518395093589
 20
4.75
 30
0
 11
7.42951839509359
 21
4.99
 31
0
  0
LINE
  8
0
 62
7
 10
7.401650429449553
 20
4.75
 30
0
 11
7.641650429449554
 21
4.99
 31
0
  0
LINE
  8
0
 62
7
 10
7.613782463805517
 20
4.749999999999999
 30
0
 11
7.764999999999996
 21
4.901217536194478
 31
0
  0
LINE
  8
0
 62
7
 10
7.424999999999997
 20
4.561217536194478
 30
0
 11
7.599999999999998
 21
4.736217536194479
 31
0
  0
LINE
  8
0
 62
7
 10
7.424999999999997
 20
4.349085501838514
 30
0
 11
7.599999999999998
 21
4.524085501838515
 31
0
  0
LINE
  8
0
 62
7
 10
7.424999999999997
 20
4.136953467482551
 30
0
 11
7.599999999999998
 21
4.311953467482551
 31
0
  0
LINE
  8
0
 62
7
 10
7.424999999999997
 20
3.924821433126587
 30
0
 11
7.599999999999998
 21
4.099821433126587
 31
0
  0
LINE
  8
0
 62
7
 10
7.424999999999997
 20
3.712689398770622
 30
0
 11
7.599999999999998
 21
3.887689398770623
 31
0
  0
LINE
  8
0
 62
7
 10
7.424999999999997
 20
3.500557364414658
 30
0
 11
7.599999999999998
 21
3.675557364414659
 31
0
  0
LINE
  8
0
 62
7
 10
7.486574669941303
 20
3.35
 30
0
 11
7.599999999999998
 21
3.463425330058695
 31
0
  0
LINE
  8
0
 62
7
 10
3.59
 20
4.862792206135786
 30
0
 11
3.717207793864223
 21
4.990000000000001
 31
0
  0
LINE
  8
0
 62
7
 10
3.689339828220178
 20
4.75
 30
0
 11
3.929339828220188
 21
4.990000000000001
 31
0
  0
LINE
  8
0
 62
7
 10
3.74
 20
4.588528137423856
 30
0
 11
4.141471862576152
 21
4.990000000000001
 31
0
  0
LINE
  8
0
 62
7
 10
4.113603896932114
 20
4.75
 30
0
 11
4.353603896932116
 21
4.990000000000001
 31
0
  0
LINE
  8
0
 62
7
 10
3.74
 20
4.376396103067893
 30
0
 11
3.915
 21
4.551396103067892
 31
0
  0
LINE
  8
0
 62
7
 10
4.325735931288078
 20
4.75
 30
0
 11
4.56573593128808
 21
4.990000000000001
 31
0
  0
LINE
  8
0
 62
7
 10
3.74
 20
4.164264068711929
 30
0
 11
3.915
 21
4.339264068711928
 31
0
  0
LINE
  8
0
 62
7
 10
4.537867965644041
 20
4.75
 30
0
 11
4.777867965644043
 21
4.990000000000001
 31
0
  0
LINE
  8
0
 62
7
 10
3.74
 20
3.952132034355964
 30
0
 11
3.915
 21
4.127132034355964
 31
0
  0
LINE
  8
0
 62
7
 10
4.750000000000005
 20
4.75
 30
0
 11
4.990000000000007
 21
4.990000000000001
 31
0
  0
LINE
  8
0
 62
7
 10
3.74
 20
3.74
 30
0
 11
3.915
 21
3.915
 31
0
  0
LINE
  8
0
 62
7
 10
4.962132034355969
 20
4.75
 30
0
 11
5.202132034355971
 21
4.990000000000001
 31
0
  0
LINE
  8
0
 62
7
 10
3.74
 20
3.527867965644036
 30
0
 11
3.915
 21
3.702867965644035
 31
0
  0
LINE
  8
0
 62
7
 10
5.174264068711933
 20
4.75
 30
0
 11
5.414264068711935
 21
4.990000000000001
 31
0
  0
LINE
  8
0
 62
7
 10
3.74
 20
3.315735931288072
 30
0
 11
3.915
 21
3.490735931288071
 31
0
  0
LINE
  8
0
 62
7
 10
5.386396103067897
 20
4.75
 30
0
 11
5.626396103067899
 21
4.990000000000001
 31
0
  0
LINE
  8
0
 62
7
 10
3.886396103067893
 20
3.25
 30
0
 11
3.915
 21
3.278603896932107
 31
0
  0
LINE
  8
0
 62
7
 10
5.598528137423861
 20
4.75
 30
0
 11
5.838528137423863
 21
4.990000000000001
 31
0
  0
LINE
  8
0
 62
7
 10
5.810660171779825
 20
4.75
 30
0
 11
6.050660171779827
 21
4.990000000000001
 31
0
  0
LINE
  8
0
 62
7
 10
6.022792206135788
 20
4.75
 30
0
 11
6.26279220613579
 21
4.990000000000001
 31
0
  0
LINE
  8
0
 62
7
 10
6.234924240491752
 20
4.75
 30
0
 11
6.474924240491754
 21
4.990000000000001
 31
0
  0
LINE
  8
0
 62
7
 10
6.447056274847716
 20
4.75
 30
0
 11
6.687056274847718
 21
4.990000000000001
 31
0
  0
LINE
  8
0
 62
7
 10
6.65918830920368
 20
4.75
 30
0
 11
6.899188309203682
 21
4.990000000000001
 31
0
  0
LINE
  8
0
 62
7
 10
6.871320343559644
 20
4.75
 30
0
 11
7.111320343559646
 21
4.990000000000001
 31
0
  0
LINE
  8
0
 62
7
 10
7.083452377915608
 20
4.75
 30
0
 11
7.32345237791561
 21
4.990000000000001
 31
0
  0
LINE
  8
0
 62
7
 10
7.295584412271571
 20
4.75
 30
0
 11
7.535584412271573
 21
4.990000000000001
 31
0
  0
LINE
  8
0
 62
7
 10
7.424999999999996
 20
4.66728355337246
 30
0
 11
7.747716446627537
 21
4.990000000000001
 31
0
  0
LINE
  8
0
 62
7
 10
7.7198484809835
 20
4.75
 30
0
 11
7.764999999999997
 21
4.795151519016496
 31
0
  0
LINE
  8
0
 62
7
 10
7.424999999999996
 20
4.455151519016496
 30
0
 11
7.599999999999998
 21
4.630151519016497
 31
0
  0
LINE
  8
0
 62
7
 10
7.424999999999996
 20
4.243019484660532
 30
0
 11
7.599999999999998
 21
4.418019484660533
 31
0
  0
LINE
  8
0
 62
7
 10
7.424999999999996
 20
4.030887450304569
 30
0
 11
7.599999999999998
 21
4.205887450304569
 31
0
  0
LINE
  8
0
 62
7
 10
7.424999999999996
 20
3.818755415948604
 30
0
 11
7.599999999999998
 21
3.993755415948606
 31
0
  0
LINE
  8
0
 62
7
 10
7.424999999999996
 20
3.60662338159264
 30
0
 11
7.599999999999998
 21
3.781623381592641
 31
0
  0
LINE
  8
0
 62
7
 10
7.424999999999997
 20
3.394491347236676
 30
0
 11
7.599999999999998
 21
3.569491347236677
 31
0
  0
LINE
  8
0
 62
7
 10
7.592640687119285
 20
3.35
 30
0
 11
7.599999999999998
 21
3.357359312880713
 31
0
  0
ENDBLK
  8
0
  0
BLOCK
  8
0
  2
*D0
 70
1
 10
0
 20
0
 30
0
  0
LINE
  8
0
 62
7
 10
7.978161729180511
 20
10.16359319461282
 30
0
 11
7.978161729180511
 21
11.05
 31
0
  0
LINE
  8
0
 62
7
 10
7.978161729180511
 20
8.299999999999999
 30
0
 11
7.978161729180511
 21
9.083593194612821
 31
0
  0
LINE
  8
0
 62
7
 10
7.749999999999997
 20
11.05
 30
0
 11
8.028161729180511
 21
11.05
 31
0
  0
LINE
  8
0
 62
7
 10
7.749999999999997
 20
8.299999999999999
 30
0
 11
8.028161729180511
 21
8.299999999999999
 31
0
  0
LINE
  8
0
 62
7
 10
7.942806390121183
 20
8.335355339059326
 30
0
 11
8.013517068239839
 21
8.264644660940672
 31
0
  0
LINE
  8
0
 62
7
 10
8.013517068239839
 20
11.01464466094067
 30
0
 11
7.942806390121183
 21
11.08535533905933
 31
0
  0
TEXT
  8
0
 62
7
 10
7.94816172918051
 20
9.486093194612822
 30
0
 40
0.1
  1
2,75
 50
90
 41
0.9
  0
TEXT
  8
0
 62
7
 10
8.108161729180511
 20
9.283593194612822
 30
0
 40
0.1
  1
(260-280)
 50
90
 41
0.9
  0
ENDBLK
  8
0
  0
BLOCK
  8
0
  2
*D1
 70
1
 10
0
 20
0
 30
0
  0
LINE
  8
0
 62
7
 10
5.962979114380619
 20
11.5081567122709
 30
0
 11
7.424999999999997
 21
11.5081567122709
 31
0
  0
LINE
  8
0
 62
7
 10
3.915
 20
11.5081567122709
 30
0
 11
5.31797911438062
 21
11.5081567122709
 31
0
  0
LINE
  8
0
 62
7
 10
7.424999999999997
 20
11.2
 30
0
 11
7.424999999999997
 21
11.5581567122709
 31
0
  0
LINE
  8
0
 62
7
 10
3.915
 20
11.2
 30
0
 11
3.915
 21
11.5581567122709
 31
0
  0
LINE
  8
0
 62
7
 10
7.38964466094067
 20
11.47280137321157
 30
0
 11
7.460355339059324
 21
11.54351205133023
 31
0
  0
LINE
  8
0
 62
7
 10
3.950355339059327
 20
11.54351205133023
 30
0
 11
3.879644660940672
 21
11.47280137321157
 31
0
  0
TEXT
  8
0
 62
7
 10
5.51797911438062
 20
11.4631567122709
 30
0
 40
0.1
  1
3,51
 41
0.9
  0
ENDBLK
  8
0
  0
BLOCK
  8
0
  2
*D2
 70
1
 10
0
 20
0
 30
0
  0
LINE
  8
0
 62
7
 10
3.41191105944471
 20
4.38238604439902
 30
0
 11
3.41191105944471
 21
4.75
 31
0
  0
LINE
  8
0
 62
7
 10
3.41191105944471
 20
3.25
 30
0
 11
3.41191105944471
 21
3.727386044399021
 31
0
  0
LINE
  8
0
 62
7
 10
3.74
 20
4.75
 30
0
 11
3.36191105944471
 21
4.75
 31
0
  0
LINE
  8
0
 62
7
 10
3.74
 20
3.25
 30
0
 11
3.36191105944471
 21
3.25
 31
0
  0
LINE
  8
0
 62
7
 10
3.376555720385383
 20
3.285355339059327
 30
0
 11
3.447266398504037
 21
3.214644660940672
 31
0
  0
LINE
  8
0
 62
7
 10
3.447266398504037
 20
4.714644660940673
 30
0
 11
3.376555720385383
 21
4.785355339059327
 31
0
  0
TEXT
  8
0
 62
7
 10
3.45691105944471
 20
3.97738604439902
 30
0
 40
0.1
  1
1,5
 50
90
 41
0.9
  0
ENDBLK
  8
0
  0
BLOCK
  8
0
  2
*D3
 70
1
 10
0
 20
0
 30
0
  0
LINE
  8
0
 62
7
 10
6.03069494748195
 20
5.66823911315505
 30
0
 11
7.424999999999998
 21
5.66823911315505
 31
0
  0
LINE
  8
0
 62
7
 10
3.915
 20
5.66823911315505
 30
0
 11
5.285694947481949
 21
5.66823911315505
 31
0
  0
LINE
  8
0
 62
7
 10
7.424999999999998
 20
5.269999999999997
 30
0
 11
7.424999999999998
 21
5.718239113155049
 31
0
  0
LINE
  8
0
 62
7
 10
3.915
 20
5.269999999999997
 30
0
 11
3.915
 21
5.718239113155049
 31
0
  0
LINE
  8
0
 62
7
 10
3.950355339059327
 20
5.703594452214377
 30
0
 11
3.879644660940673
 21
5.632883774095722
 31
0
  0
LINE
  8
0
 62
7
 10
7.389644660940671
 20
5.632883774095722
 30
0
 11
7.460355339059325
 21
5.703594452214377
 31
0
  0
TEXT
  8
0
 62
7
 10
5.53569494748195
 20
5.62323911315505
 30
0
 40
0.1
  1
3,51
 41
0.9
  0
ENDBLK
  8
0
  0
BLOCK
  8
0
  2
*D4
 70
1
 10
0
 20
0
 30
0
  0
LINE
  8
0
 62
7
 10
7.9292996519616
 20
4.40720686084142
 30
0
 11
7.9292996519616
 21
4.750000000000001
 31
0
  0
LINE
  8
0
 62
7
 10
7.9292996519616
 20
3.35
 30
0
 11
7.9292996519616
 21
3.752206860841421
 31
0
  0
LINE
  8
0
 62
7
 10
7.599999999999997
 20
4.750000000000001
 30
0
 11
7.9792996519616
 21
4.750000000000001
 31
0
  0
LINE
  8
0
 62
7
 10
7.599999999999997
 20
3.35
 30
0
 11
7.9792996519616
 21
3.35
 31
0
  0
LINE
  8
0
 62
7
 10
7.964654991020927
 20
4.714644660940674
 30
0
 11
7.893944312902272
 21
4.785355339059328
 31
0
  0
LINE
  8
0
 62
7
 10
7.893944312902272
 20
3.385355339059327
 30
0
 11
7.964654991020927
 21
3.314644660940672
 31
0
  0
TEXT
  8
0
 62
7
 10
7.9742996519616
 20
4.002206860841421
 30
0
 40
0.1
  1
1,4
 50
90
 41
0.9
  0
ENDBLK
  8
0
  0
ENDSEC
  0
SECTION
  2
ENTITIES
  0
INSERT
  8
0
  2
*X0
 10
0
 20
0
 30
0
  0
INSERT
  8
0
  2
*X1
 10
0
 20
0
 30
0
  0
INSERT
  8
0
  2
*X2
 10
0
 20
0
 30
0
  0
INSERT
  8
0
  2
*X3
 10
0
 20
0
 30
0
  0
INSERT
  8
0
  2
*X4
 10
0
 20
0
 30
0
  0
INSERT
  8
0
  2
*X5
 10
0
 20
0
 30
0
  0
INSERT
  8
0
  2
*X6
 10
0
 20
0
 30
0
  0
INSERT
  8
0
  2
*X7
 10
0
 20
0
 30
0
  0
INSERT
  8
0
  2
*X8
 10
0
 20
0
 30
0
  0
INSERT
  8
0
  2
*X9
 10
0
 20
0
 30
0
  0
INSERT
  8
0
  2
*X10
 10
0
 20
0
 30
0
  0
INSERT
  8
0
  2
*X11
 10
0
 20
0
 30
0
  0
INSERT
  8
0
  2
*X12
 10
0
 20
0
 30
0
  0
INSERT
  8
0
  2
*X13
 10
0
 20
0
 30
0
  0
INSERT
  8
0
  2
*X14
 10
0
 20
0
 30
0
  0
INSERT
  8
0
  2
*X15
 10
0
 20
0
 30
0
  0
INSERT
  8
0
  2
*X16
 10
0
 20
0
 30
0
  0
LINE
  8
0
 62
7
 10
6.309999999999997
 20
3.586530703241356
 30
0
 11
6.309999999999997
 21
3.421613924649579
 31
0
  0
LINE
  8
0
 62
7
 10
6.246550149203479
 20
3.635
 30
0
 11
6.309999999999997
 21
3.586530703241356
 31
0
  0
LINE
  8
0
 62
7
 10
6.0466059866162
 20
3.635
 30
0
 11
6.246550149203479
 21
3.635
 31
0
  0
LINE
  8
0
 62
7
 10
6.0466059866162
 20
3.635
 30
0
 11
6.151229355287721
 21
3.635
 31
0
  0
LINE
  8
0
 62
7
 10
5.06929415620659
 20
3.635
 30
0
 11
5.270313274829671
 21
3.635
 31
0
  0
LINE
  8
0
 62
7
 10
5.030000000000001
 20
3.594935647836567
 30
0
 11
5.06929415620659
 21
3.635
 31
0
  0
LINE
  8
0
 62
7
 10
5.030000000000001
 20
3.460559731624119
 30
0
 11
5.030000000000001
 21
3.550911793439659
 31
0
  0
LINE
  8
0
 62
7
 10
5.030000000000001
 20
3.460559731624119
 30
0
 11
5.030000000000001
 21
3.594935647836567
 31
0
  0
LINE
  8
0
 62
7
 10
3.970000000000001
 20
3.644761598258959
 30
0
 11
3.970000000000001
 21
3.25
 31
0
  0
LINE
  8
0
 62
7
 10
5.030000000000001
 20
3.25
 30
0
 11
5.030000000000001
 21
3.460559731624119
 31
0
  0
LINE
  8
0
 62
7
 10
3.970000000000001
 20
3.25
 30
0
 11
5.030000000000001
 21
3.25
 31
0
  0
LINE
  8
0
 62
7
 10
3.970000000000001
 20
4.080360987134038
 30
0
 11
3.970000000000001
 21
3.554409536443429
 31
0
  0
LINE
  8
0
 62
7
 10
3.970000000000001
 20
3.554409536443429
 30
0
 11
5.030000000000001
 21
3.460559731624119
 31
0
  0
LINE
  8
0
 62
7
 10
3.970000000000001
 20
4.64338226198616
 30
0
 11
3.970000000000001
 21
3.983012923512451
 31
0
  0
LINE
  8
0
 62
7
 10
4.995837639705741
 20
3.560103678767999
 30
0
 11
5.030000000000001
 21
3.594935647836567
 31
0
  0
LINE
  8
0
 62
7
 10
3.970000000000001
 20
3.983012923512451
 30
0
 11
4.995837639705741
 21
3.560103678767999
 31
0
  0
LINE
  8
0
 62
7
 10
3.970000000000001
 20
4.694999999999999
 30
0
 11
3.970000000000001
 21
4.526673672794749
 31
0
  0
LINE
  8
0
 62
7
 10
4.56591771246786
 20
4.694999999999999
 30
0
 11
3.970000000000001
 21
4.694999999999999
 31
0
  0
LINE
  8
0
 62
7
 10
5.050049643558999
 20
3.635
 30
0
 11
5.06929415620659
 21
3.635
 31
0
  0
LINE
  8
0
 62
7
 10
3.970000000000001
 20
4.526673672794749
 30
0
 11
5.050049643558999
 21
3.635
 31
0
  0
LINE
  8
0
 62
7
 10
4.987383031405852
 20
4.694999999999999
 30
0
 11
4.457858017715538
 21
4.694999999999999
 31
0
  0
LINE
  8
0
 62
7
 10
5.162253580077351
 20
3.635
 30
0
 11
5.375932920541
 21
3.635
 31
0
  0
LINE
  8
0
 62
7
 10
4.457858017715538
 20
4.694999999999999
 30
0
 11
5.162253580077351
 21
3.635
 31
0
  0
LINE
  8
0
 62
7
 10
5.37042717662091
 20
4.694999999999999
 30
0
 11
4.89152717241193
 21
4.694999999999999
 31
0
  0
LINE
  8
0
 62
7
 10
5.280077061547083
 20
3.635
 30
0
 11
5.487736384828852
 21
3.635
 31
0
  0
LINE
  8
0
 62
7
 10
4.89152717241193
 20
4.694999999999999
 30
0
 11
5.280077061547083
 21
3.635
 31
0
  0
LINE
  8
0
 62
7
 10
5.670323085729939
 20
4.694999999999999
 30
0
 11
5.27987771003712
 21
4.694999999999999
 31
0
  0
LINE
  8
0
 62
7
 10
5.397186918245062
 20
3.635
 30
0
 11
5.702246104288421
 21
3.635
 31
0
  0
LINE
  8
0
 62
7
 10
5.27987771003712
 20
4.694999999999999
 30
0
 11
5.397186918245062
 21
3.635
 31
0
  0
LINE
  8
0
 62
7
 10
5.971101205427753
 20
4.694999999999999
 30
0
 11
5.580282281024822
 21
4.694999999999999
 31
0
  0
LINE
  8
0
 62
7
 10
5.612205299583302
 20
3.635
 30
0
 11
5.917009864159181
 21
3.635
 31
0
  0
LINE
  8
0
 62
7
 10
5.580282281024822
 20
4.694999999999999
 30
0
 11
5.612205299583302
 21
3.635
 31
0
  0
LINE
  8
0
 62
7
 10
6.368614689469673
 20
4.694999999999999
 30
0
 11
5.880984100860799
 21
4.694999999999989
 31
0
  0
LINE
  8
0
 62
7
 10
5.826892759592233
 20
3.635
 30
0
 11
6.032978084374879
 21
3.635
 31
0
  0
LINE
  8
0
 62
7
 10
5.880984100860799
 20
4.694999999999989
 30
0
 11
5.826892759592233
 21
3.635
 31
0
  0
LINE
  8
0
 62
7
 10
6.77955467817776
 20
4.694999999999999
 30
0
 11
6.274210746120619
 21
4.694999999999999
 31
0
  0
LINE
  8
0
 62
7
 10
5.938574141025831
 20
3.635
 30
0
 11
6.0466059866162
 21
3.635
 31
0
  0
LINE
  8
0
 62
7
 10
6.274210746120619
 20
4.694999999999999
 30
0
 11
5.938574141025831
 21
3.635
 31
0
  0
LINE
  8
0
 62
7
 10
7.36769452589125
 20
4.694999999999999
 30
0
 11
6.674931309506239
 21
4.694999999999999
 31
0
  0
LINE
  8
0
 62
7
 10
6.674931309506239
 20
4.694999999999999
 30
0
 11
6.0466059866162
 21
3.635
 31
0
  0
LINE
  8
0
 62
7
 10
7.369999999999997
 20
4.694999999999999
 30
0
 11
7.237880544633054
 21
4.694999999999999
 31
0
  0
LINE
  8
0
 62
7
 10
7.369999999999997
 20
4.131580811962369
 30
0
 11
7.369999999999997
 21
4.694999999999999
 31
0
  0
LINE
  8
0
 62
7
 10
6.184965501588291
 20
3.682044469349657
 30
0
 11
6.246550149203479
 21
3.635
 31
0
  0
LINE
  8
0
 62
7
 10
7.237880544633054
 20
4.694999999999999
 30
0
 11
6.184965501588291
 21
3.682044469349657
 31
0
  0
LINE
  8
0
 62
7
 10
7.369999999999997
 20
3.697074381643031
 30
0
 11
7.369999999999997
 21
4.235062854979009
 31
0
  0
LINE
  8
0
 62
7
 10
6.309999999999997
 20
3.633526967505208
 30
0
 11
6.309999999999997
 21
3.586530703241356
 31
0
  0
LINE
  8
0
 62
7
 10
7.369999999999997
 20
4.235062854979009
 30
0
 11
6.309999999999997
 21
3.633526967505208
 31
0
  0
LINE
  8
0
 62
7
 10
7.369999999999997
 20
3.379999999999999
 30
0
 11
7.369999999999997
 21
3.79006365873663
 31
0
  0
LINE
  8
0
 62
7
 10
6.309999999999997
 20
3.51460320174318
 30
0
 11
6.309999999999997
 21
3.379999999999999
 31
0
  0
LINE
  8
0
 62
7
 10
7.369999999999997
 20
3.79006365873663
 30
0
 11
6.309999999999997
 21
3.51460320174318
 31
0
  0
LINE
  8
0
 62
7
 10
6.868410159502538
 20
3.634999999989368
 30
0
 11
6.868410159502538
 21
3.399999999999999
 31
0
  0
LINE
  8
0
 62
7
 10
6.974065258764245
 20
3.460999999999999
 30
0
 11
6.868410159502538
 21
3.399999999999999
 31
0
  0
LINE
  8
0
 62
7
 10
6.762755060240842
 20
3.460999999999999
 30
0
 11
6.974065258764245
 21
3.460999999999999
 31
0
  0
LINE
  8
0
 62
7
 10
6.868410159502538
 20
3.399999999999999
 30
0
 11
6.762755060240842
 21
3.460999999999999
 31
0
  0
LINE
  8
0
 62
7
 10
5.030000000010631
 20
4.19341015950254
 30
0
 11
6.309999999993008
 21
4.19341015950254
 31
0
  0
LINE
  8
0
 62
7
 10
4.471589840497463
 20
3.25
 30
0
 11
4.471589840497463
 21
3.635000000009908
 31
0
  0
LINE
  8
0
 62
7
 10
3.969999720000001
 20
8.583333226666666
 30
0
 11
5.029999849999991
 21
8.583333226666666
 31
0
  0
LINE
  8
0
 62
7
 10
3.969999720000001
 20
8.518333226666666
 30
0
 11
3.969999720000001
 21
8.583333226666666
 31
0
  0
LINE
  8
0
 62
7
 10
5.029999849999991
 20
8.583333226666666
 30
0
 11
5.029999849999991
 21
8.518333226666666
 31
0
  0
LINE
  8
0
 62
7
 10
5.029999849999991
 20
8.518333226666666
 30
0
 11
3.969999720000001
 21
8.518333226666666
 31
0
  0
LINE
  8
0
 62
7
 10
3.969999499999991
 20
8.766666566666668
 30
0
 11
5.029999999999993
 21
8.766666566666668
 31
0
  0
LINE
  8
0
 62
7
 10
3.969999499999991
 20
8.701666566666667
 30
0
 11
3.969999499999991
 21
8.766666566666668
 31
0
  0
LINE
  8
0
 62
7
 10
5.029999999999993
 20
8.766666566666668
 30
0
 11
5.029999999999993
 21
8.701666566666667
 31
0
  0
LINE
  8
0
 62
7
 10
5.029999999999993
 20
8.701666566666667
 30
0
 11
3.969999499999991
 21
8.701666566666667
 31
0
  0
LINE
  8
0
 62
7
 10
3.969999659999992
 20
8.949999906666667
 30
0
 11
5.123933950000003
 21
8.949999906666667
 31
0
  0
LINE
  8
0
 62
7
 10
5.123933950000003
 20
8.884999906666669
 30
0
 11
3.969999659999992
 21
8.884999906666669
 31
0
  0
LINE
  8
0
 62
7
 10
3.969999659999992
 20
8.884999906666669
 30
0
 11
3.969999659999992
 21
8.949999906666667
 31
0
  0
LINE
  8
0
 62
7
 10
5.123933950000003
 20
8.949999906666667
 30
0
 11
5.123933950000003
 21
8.884999906666669
 31
0
  0
LINE
  8
0
 62
7
 10
5.270312960000001
 20
9.068333226666665
 30
0
 11
3.969999670000002
 21
9.068333226666665
 31
0
  0
LINE
  8
0
 62
7
 10
3.969999670000002
 20
9.133333226666666
 30
0
 11
5.270312960000001
 21
9.133333226666666
 31
0
  0
LINE
  8
0
 62
7
 10
3.969999670000002
 20
9.068333226666665
 30
0
 11
3.969999670000002
 21
9.133333226666666
 31
0
  0
LINE
  8
0
 62
7
 10
5.270312960000001
 20
9.133333226666666
 30
0
 11
5.270312960000001
 21
9.068333226666665
 31
0
  0
LINE
  8
0
 62
7
 10
5.375932769999999
 20
9.251666586666667
 30
0
 11
4.457857590000003
 21
9.251666586666667
 31
0
  0
LINE
  8
0
 62
7
 10
4.457857590000003
 20
9.316666586666667
 30
0
 11
5.375932769999999
 21
9.316666586666667
 31
0
  0
LINE
  8
0
 62
7
 10
4.457857590000003
 20
9.251666586666667
 30
0
 11
4.457857590000003
 21
9.316666586666667
 31
0
  0
LINE
  8
0
 62
7
 10
5.375932769999999
 20
9.316666586666667
 30
0
 11
5.375932769999999
 21
9.251666586666667
 31
0
  0
LINE
  8
0
 62
7
 10
5.48773606
 20
9.434999946666668
 30
0
 11
4.891526719999991
 21
9.434999946666668
 31
0
  0
LINE
  8
0
 62
7
 10
4.891526719999991
 20
9.499999946666668
 30
0
 11
5.48773606
 21
9.499999946666668
 31
0
  0
LINE
  8
0
 62
7
 10
4.891526719999991
 20
9.434999946666668
 30
0
 11
4.891526719999991
 21
9.499999946666668
 31
0
  0
LINE
  8
0
 62
7
 10
5.48773606
 20
9.499999946666668
 30
0
 11
5.48773606
 21
9.434999946666668
 31
0
  0
LINE
  8
0
 62
7
 10
5.702245639999991
 20
9.618333226666666
 30
0
 11
5.27987748
 21
9.618333226666666
 31
0
  0
LINE
  8
0
 62
7
 10
5.27987748
 20
9.683333226666667
 30
0
 11
5.702245639999991
 21
9.683333226666667
 31
0
  0
LINE
  8
0
 62
7
 10
5.27987748
 20
9.618333226666666
 30
0
 11
5.27987748
 21
9.683333226666667
 31
0
  0
LINE
  8
0
 62
7
 10
5.702245639999991
 20
9.683333226666667
 30
0
 11
5.702245639999991
 21
9.618333226666666
 31
0
  0
LINE
  8
0
 62
7
 10
5.971100770000002
 20
9.801666666666668
 30
0
 11
5.58028199
 21
9.801666666666668
 31
0
  0
LINE
  8
0
 62
7
 10
5.58028199
 20
9.866666666666667
 30
0
 11
5.971100770000002
 21
9.866666666666667
 31
0
  0
LINE
  8
0
 62
7
 10
5.58028199
 20
9.801666666666668
 30
0
 11
5.58028199
 21
9.866666666666667
 31
0
  0
LINE
  8
0
 62
7
 10
5.971100770000002
 20
9.866666666666667
 30
0
 11
5.971100770000002
 21
9.801666666666668
 31
0
  0
LINE
  8
0
 62
7
 10
6.368614200000001
 20
9.984999946666669
 30
0
 11
5.826892550000002
 21
9.984999946666669
 31
0
  0
LINE
  8
0
 62
7
 10
5.880983580000001
 20
10.04999994666667
 30
0
 11
6.368614200000001
 21
10.04999994666667
 31
0
  0
LINE
  8
0
 62
7
 10
5.826892550000002
 20
10.04999994666667
 30
0
 11
5.880983580000001
 21
10.04999994666667
 31
0
  0
LINE
  8
0
 62
7
 10
5.826892550000002
 20
9.984999946666669
 30
0
 11
5.826892550000002
 21
10.04999994666667
 31
0
  0
LINE
  8
0
 62
7
 10
6.368614200000001
 20
10.04999994666667
 30
0
 11
6.368614200000001
 21
9.984999946666669
 31
0
  0
LINE
  8
0
 62
7
 10
6.779554450000001
 20
10.16833322666667
 30
0
 11
5.938573760000003
 21
10.16833322666667
 31
0
  0
LINE
  8
0
 62
7
 10
5.938573760000003
 20
10.23333322666667
 30
0
 11
6.779554450000001
 21
10.23333322666667
 31
0
  0
LINE
  8
0
 62
7
 10
5.938573760000003
 20
10.16833322666667
 30
0
 11
5.938573760000003
 21
10.23333322666667
 31
0
  0
LINE
  8
0
 62
7
 10
6.779554450000001
 20
10.23333322666667
 30
0
 11
6.779554450000001
 21
10.16833322666667
 31
0
  0
LINE
  8
0
 62
7
 10
7.367694089999991
 20
10.35166666666667
 30
0
 11
6.046605379999992
 21
10.35166666666667
 31
0
  0
LINE
  8
0
 62
7
 10
6.046605379999992
 20
10.41666666666667
 30
0
 11
7.367694089999991
 21
10.41666666666667
 31
0
  0
LINE
  8
0
 62
7
 10
6.046605379999992
 20
10.35166666666667
 30
0
 11
6.046605379999992
 21
10.41666666666667
 31
0
  0
LINE
  8
0
 62
7
 10
7.367694089999991
 20
10.41666666666667
 30
0
 11
7.367694089999991
 21
10.35166666666667
 31
0
  0
LINE
  8
0
 62
7
 10
7.369999999999997
 20
10.53499994666667
 30
0
 11
6.184965060000003
 21
10.53499994666667
 31
0
  0
LINE
  8
0
 62
7
 10
6.184965060000003
 20
10.59999994666667
 30
0
 11
7.369999999999997
 21
10.59999994666667
 31
0
  0
LINE
  8
0
 62
7
 10
6.184965060000003
 20
10.53499994666667
 30
0
 11
6.184965060000003
 21
10.59999994666667
 31
0
  0
LINE
  8
0
 62
7
 10
7.369999999999997
 20
10.59999994666667
 30
0
 11
7.369999999999997
 21
10.53499994666667
 31
0
  0
LINE
  8
0
 62
7
 10
6.309999550000001
 20
10.78333322666667
 30
0
 11
7.369999700000001
 21
10.78333322666667
 31
0
  0
LINE
  8
0
 62
7
 10
6.309999550000001
 20
10.71833322666667
 30
0
 11
6.309999550000001
 21
10.78333322666667
 31
0
  0
LINE
  8
0
 62
7
 10
7.369999700000001
 20
10.78333322666667
 30
0
 11
7.369999700000001
 21
10.71833322666667
 31
0
  0
LINE
  8
0
 62
7
 10
7.369999700000001
 20
10.71833322666667
 30
0
 11
6.309999550000001
 21
10.71833322666667
 31
0
  0
LINE
  8
0
 62
7
  6
DASHED
 10
6.309999390000002
 20
10.96666666666667
 30
0
 11
7.369999999999997
 21
10.96666666666667
 31
0
  0
LINE
  8
0
 62
7
  6
DASHED
 10
6.309999390000002
 20
10.90166666666667
 30
0
 11
6.309999390000002
 21
10.96666666666667
 31
0
  0
LINE
  8
0
 62
7
  6
DASHED
 10
7.369999999999997
 20
10.96666666666667
 30
0
 11
7.369999999999997
 21
10.90166666666667
 31
0
  0
LINE
  8
0
 62
7
  6
DASHED
 10
7.369999999999997
 20
10.90166666666667
 30
0
 11
6.309999390000002
 21
10.90166666666667
 31
0
  0
LINE
  8
0
 62
7
 10
1.845238420000002
 20
8.583333226666666
 30
0
 11
2.239999980000001
 21
8.583333226666666
 31
0
  0
LINE
  8
0
 62
7
 10
2.239999980000001
 20
8.518333226666666
 30
0
 11
1.845238420000002
 21
8.518333226666666
 31
0
  0
LINE
  8
0
 62
7
 10
2.239999980000001
 20
8.583333226666666
 30
0
 11
2.239999980000001
 21
8.518333226666666
 31
0
  0
LINE
  8
0
 62
7
 10
1.845238420000002
 20
8.518333226666666
 30
0
 11
1.845238420000002
 21
8.583333226666666
 31
0
  0
LINE
  8
0
 62
7
 10
2.029440269999999
 20
8.701666566666665
 30
0
 11
1.40963898
 21
8.701666566666665
 31
0
  0
LINE
  8
0
 62
7
 10
1.40963898
 20
8.766666566666665
 30
0
 11
2.029440269999999
 21
8.766666566666665
 31
0
  0
LINE
  8
0
 62
7
 10
2.029440269999999
 20
8.766666566666665
 30
0
 11
2.029440269999999
 21
8.701666566666665
 31
0
  0
LINE
  8
0
 62
7
 10
1.40963898
 20
8.701666566666665
 30
0
 11
1.40963898
 21
8.766666566666665
 31
0
  0
LINE
  8
0
 62
7
 10
1.929896389999998
 20
8.884999906666669
 30
0
 11
0.8466175900000018
 21
8.884999906666669
 31
0
  0
LINE
  8
0
 62
7
 10
0.8466175900000018
 20
8.949999906666667
 30
0
 11
1.929896389999998
 21
8.949999906666667
 31
0
  0
LINE
  8
0
 62
7
 10
1.929896389999998
 20
8.949999906666667
 30
0
 11
1.929896389999998
 21
8.884999906666669
 31
0
  0
LINE
  8
0
 62
7
 10
0.8466175900000018
 20
8.884999906666669
 30
0
 11
0.8466175900000018
 21
8.949999906666667
 31
0
  0
LINE
  8
0
 62
7
 10
0.7949998500000004
 20
9.133333226666666
 30
0
 11
1.855000039999999
 21
9.133333226666666
 31
0
  0
LINE
  8
0
 62
7
 10
1.855000039999999
 20
9.068333226666665
 30
0
 11
0.7949998500000004
 21
9.068333226666665
 31
0
  0
LINE
  8
0
 62
7
 10
1.855000039999999
 20
9.133333226666666
 30
0
 11
1.855000039999999
 21
9.068333226666665
 31
0
  0
LINE
  8
0
 62
7
 10
0.7949998500000004
 20
9.068333226666665
 30
0
 11
0.7949998500000004
 21
9.133333226666666
 31
0
  0
LINE
  8
0
 62
7
 10
0.7949998500000004
 20
9.316666586666667
 30
0
 11
1.855
 21
9.316666586666667
 31
0
  0
LINE
  8
0
 62
7
 10
1.855
 20
9.316666586666667
 30
0
 11
1.855
 21
9.251666586666667
 31
0
  0
LINE
  8
0
 62
7
 10
0.7949998500000004
 20
9.251666586666667
 30
0
 11
0.7949998500000004
 21
9.316666586666667
 31
0
  0
LINE
  8
0
 62
7
 10
1.855
 20
9.251666586666667
 30
0
 11
0.7949998500000004
 21
9.251666586666667
 31
0
  0
LINE
  8
0
 62
7
 10
0.7949997000000004
 20
9.499999946666666
 30
0
 11
1.855000190000003
 21
9.499999946666666
 31
0
  0
LINE
  8
0
 62
7
 10
1.855000190000003
 20
9.499999946666666
 30
0
 11
1.855000190000003
 21
9.434999946666665
 31
0
  0
LINE
  8
0
 62
7
 10
0.7949997000000004
 20
9.434999946666665
 30
0
 11
0.7949997000000004
 21
9.499999946666666
 31
0
  0
LINE
  8
0
 62
7
 10
1.855000190000003
 20
9.434999946666665
 30
0
 11
0.7949997000000004
 21
9.434999946666665
 31
0
  0
LINE
  8
0
 62
7
 10
0.795
 20
9.683333226666667
 30
0
 11
1.855000339999999
 21
9.683333226666667
 31
0
  0
LINE
  8
0
 62
7
 10
1.855000339999999
 20
9.683333226666667
 30
0
 11
1.855000339999999
 21
9.618333226666666
 31
0
  0
LINE
  8
0
 62
7
 10
0.795
 20
9.618333226666666
 30
0
 11
0.795
 21
9.683333226666667
 31
0
  0
LINE
  8
0
 62
7
 10
1.855000339999999
 20
9.618333226666666
 30
0
 11
0.795
 21
9.618333226666666
 31
0
  0
LINE
  8
0
 62
7
 10
0.7949997000000004
 20
9.866666666666667
 30
0
 11
1.855000459999999
 21
9.866666666666667
 31
0
  0
LINE
  8
0
 62
7
 10
1.855000459999999
 20
9.866666666666667
 30
0
 11
1.855000459999999
 21
9.801666666666666
 31
0
  0
LINE
  8
0
 62
7
 10
0.7949997000000004
 20
9.801666666666666
 30
0
 11
0.7949997000000004
 21
9.866666666666667
 31
0
  0
LINE
  8
0
 62
7
 10
1.855000459999999
 20
9.801666666666666
 30
0
 11
0.7949997000000004
 21
9.801666666666666
 31
0
  0
LINE
  8
0
 62
7
 10
0.7949995399999989
 20
10.04999994666667
 30
0
 11
1.855
 21
10.04999994666667
 31
0
  0
LINE
  8
0
 62
7
 10
1.855
 20
10.04999994666667
 30
0
 11
1.855
 21
9.984999946666665
 31
0
  0
LINE
  8
0
 62
7
 10
0.7949995399999989
 20
9.984999946666665
 30
0
 11
0.7949995399999989
 21
10.04999994666667
 31
0
  0
LINE
  8
0
 62
7
 10
1.855
 20
9.984999946666665
 30
0
 11
0.7949995399999989
 21
9.984999946666665
 31
0
  0
LINE
  8
0
 62
7
 10
0.795
 20
10.23333322666667
 30
0
 11
1.855000120000001
 21
10.23333322666667
 31
0
  0
LINE
  8
0
 62
7
 10
1.855000120000001
 20
10.23333322666667
 30
0
 11
1.855000120000001
 21
10.16833322666667
 31
0
  0
LINE
  8
0
 62
7
 10
0.795
 20
10.16833322666667
 30
0
 11
0.795
 21
10.23333322666667
 31
0
  0
LINE
  8
0
 62
7
 10
1.855000120000001
 20
10.16833322666667
 30
0
 11
0.795
 21
10.16833322666667
 31
0
  0
LINE
  8
0
 62
7
 10
0.7949998500000004
 20
10.41666666666667
 30
0
 11
1.854999960000001
 21
10.41666666666667
 31
0
  0
LINE
  8
0
 62
7
 10
1.854999960000001
 20
10.41666666666667
 30
0
 11
1.854999960000001
 21
10.35166666666667
 31
0
  0
LINE
  8
0
 62
7
 10
0.7949998500000004
 20
10.35166666666667
 30
0
 11
0.7949998500000004
 21
10.41666666666667
 31
0
  0
LINE
  8
0
 62
7
 10
1.854999960000001
 20
10.35166666666667
 30
0
 11
0.7949998500000004
 21
10.35166666666667
 31
0
  0
LINE
  8
0
 62
7
 10
1.935879210000003
 20
10.53499994666667
 30
0
 11
0.795
 21
10.53499994666667
 31
0
  0
LINE
  8
0
 62
7
 10
0.795
 20
10.59999994666667
 30
0
 11
1.935879210000003
 21
10.59999994666667
 31
0
  0
LINE
  8
0
 62
7
 10
1.935879210000003
 20
10.59999994666667
 30
0
 11
1.935879210000003
 21
10.53499994666667
 31
0
  0
LINE
  8
0
 62
7
 10
0.795
 20
10.53499994666667
 30
0
 11
0.795
 21
10.59999994666667
 31
0
  0
LINE
  8
0
 62
7
 10
2.068386610000001
 20
10.71833322666667
 30
0
 11
1.25493706
 21
10.71833322666667
 31
0
  0
LINE
  8
0
 62
7
 10
1.25493706
 20
10.78333322666667
 30
0
 11
2.068386610000001
 21
10.78333322666667
 31
0
  0
LINE
  8
0
 62
7
 10
2.068386610000001
 20
10.78333322666667
 30
0
 11
2.068386610000001
 21
10.71833322666667
 31
0
  0
LINE
  8
0
 62
7
 10
1.25493706
 20
10.71833322666667
 30
0
 11
1.25493706
 21
10.78333322666667
 31
0
  0
LINE
  8
0
 62
7
 10
1.699936140000002
 20
10.96666666666667
 30
0
 11
2.110000990000001
 21
10.96666666666667
 31
0
  0
LINE
  8
0
 62
7
 10
2.110000990000001
 20
10.90166666666667
 30
0
 11
1.699936140000002
 21
10.90166666666667
 31
0
  0
LINE
  8
0
 62
7
 10
2.110000990000001
 20
10.96666666666667
 30
0
 11
2.110000990000001
 21
10.90166666666667
 31
0
  0
LINE
  8
0
 62
7
 10
1.699936140000002
 20
10.90166666666667
 30
0
 11
1.699936140000002
 21
10.96666666666667
 31
0
  0
LINE
  8
0
 62
7
 10
7.599999999999998
 20
8.1
 30
0
 11
7.749999999999997
 21
8.1
 31
0
  0
LINE
  8
0
 62
7
 10
7.599999999999998
 20
8.299999999999999
 30
0
 11
7.749999999999997
 21
8.299999999999999
 31
0
  0
LINE
  8
0
 62
7
 10
7.599999999999998
 20
10.85
 30
0
 11
7.749999999999997
 21
10.85
 31
0
  0
LINE
  8
0
 62
7
 10
7.599999999999998
 20
11.05
 30
0
 11
7.749999999999997
 21
11.05
 31
0
  0
LINE
  8
0
 62
7
 10
7.599999999999998
 20
8.1
 30
0
 11
7.599999999999998
 21
7.949999999999999
 31
0
  0
LINE
  8
0
 62
7
 10
7.424999999999997
 20
8.1
 30
0
 11
7.599999999999998
 21
8.1
 31
0
  0
LINE
  8
0
 62
7
 10
7.599999999999998
 20
8.399999999999999
 30
0
 11
7.599999999999998
 21
8.299999999999999
 31
0
  0
LINE
  8
0
 62
7
 10
7.424999999999997
 20
8.299999999999999
 30
0
 11
7.599999999999998
 21
8.299999999999999
 31
0
  0
LINE
  8
0
 62
7
 10
7.424999999999997
 20
10.85
 30
0
 11
7.599999999999998
 21
10.85
 31
0
  0
LINE
  8
0
 62
7
 10
7.599999999999998
 20
11.15
 30
0
 11
7.599999999999998
 21
11.05
 31
0
  0
LINE
  8
0
 62
7
 10
7.424999999999997
 20
11.05
 30
0
 11
7.599999999999998
 21
11.05
 31
0
  0
LINE
  8
0
 62
7
 10
7.424999999999997
 20
8.1
 30
0
 11
7.424999999999997
 21
7.949999999999999
 31
0
  0
LINE
  8
0
 62
7
 10
3.915
 20
8.1
 30
0
 11
7.424999999999997
 21
8.1
 31
0
  0
LINE
  8
0
 62
7
 10
7.424999999999997
 20
8.399999999999999
 30
0
 11
7.424999999999997
 21
8.299999999999999
 31
0
  0
LINE
  8
0
 62
7
 10
3.915
 20
8.299999999999999
 30
0
 11
7.424999999999997
 21
8.299999999999999
 31
0
  0
LINE
  8
0
 62
7
 10
3.915
 20
10.85
 30
0
 11
7.424999999999997
 21
10.85
 31
0
  0
LINE
  8
0
 62
7
 10
7.424999999999997
 20
11.15
 30
0
 11
7.424999999999997
 21
11.05
 31
0
  0
LINE
  8
0
 62
7
 10
3.915
 20
11.05
 30
0
 11
7.424999999999997
 21
11.05
 31
0
  0
LINE
  8
0
 62
7
 10
3.915
 20
8.1
 30
0
 11
3.915
 21
7.949999999999999
 31
0
  0
LINE
  8
0
 62
7
 10
3.74
 20
8.1
 30
0
 11
3.915
 21
8.1
 31
0
  0
LINE
  8
0
 62
7
 10
3.915
 20
8.399999999999999
 30
0
 11
3.915
 21
8.299999999999999
 31
0
  0
LINE
  8
0
 62
7
 10
3.74
 20
8.299999999999999
 30
0
 11
3.915
 21
8.299999999999999
 31
0
  0
LINE
  8
0
 62
7
 10
3.74
 20
10.85
 30
0
 11
3.915
 21
10.85
 31
0
  0
LINE
  8
0
 62
7
 10
3.915
 20
11.15
 30
0
 11
3.915
 21
11.05
 31
0
  0
LINE
  8
0
 62
7
 10
3.74
 20
11.05
 30
0
 11
3.915
 21
11.05
 31
0
  0
LINE
  8
0
 62
7
 10
3.74
 20
8.1
 30
0
 11
3.74
 21
7.949999999999999
 31
0
  0
LINE
  8
0
 62
7
 10
3.59
 20
8.1
 30
0
 11
3.74
 21
8.1
 31
0
  0
LINE
  8
0
 62
7
 10
3.74
 20
8.399999999999999
 30
0
 11
3.74
 21
8.299999999999999
 31
0
  0
LINE
  8
0
 62
7
 10
3.59
 20
8.299999999999999
 30
0
 11
3.74
 21
8.299999999999999
 31
0
  0
LINE
  8
0
 62
7
 10
3.59
 20
10.85
 30
0
 11
3.74
 21
10.85
 31
0
  0
LINE
  8
0
 62
7
 10
3.74
 20
11.15
 30
0
 11
3.74
 21
11.05
 31
0
  0
LINE
  8
0
 62
7
 10
3.59
 20
11.05
 30
0
 11
3.74
 21
11.05
 31
0
  0
LINE
  8
0
 62
7
  6
DASHDOT
 10
7.749999999999997
 20
8.1
 30
0
 11
7.749999999999997
 21
8.049999999999999
 31
0
  0
LINE
  8
0
 62
7
  6
DASHDOT
 10
7.749999999999997
 20
10.85
 30
0
 11
7.749999999999997
 21
10.8
 31
0
  0
LINE
  8
0
 62
7
  6
DASHDOT
 10
3.59
 20
8.1
 30
0
 11
3.59
 21
8.049999999999999
 31
0
  0
LINE
  8
0
 62
7
  6
DASHDOT
 10
3.59
 20
10.85
 30
0
 11
3.59
 21
10.8
 31
0
  0
LINE
  8
0
 62
7
  6
DASHDOT
 10
7.599999999999998
 20
11.2
 30
0
 11
7.649999999999998
 21
11.2
 31
0
  0
LINE
  8
0
 62
7
  6
DASHDOT
 10
7.599999999999998
 20
7.949999999999999
 30
0
 11
7.649999999999998
 21
7.949999999999999
 31
0
  0
LINE
  8
0
 62
7
  6
DASHDOT
 10
3.915
 20
11.2
 30
0
 11
3.965
 21
11.2
 31
0
  0
LINE
  8
0
 62
7
  6
DASHDOT
 10
3.915
 20
7.949999999999999
 30
0
 11
3.965
 21
7.949999999999999
 31
0
  0
LINE
  8
0
 62
7
 10
7.599999999999998
 20
8.399999999999999
 30
0
 11
7.749999999999997
 21
8.399999999999999
 31
0
  0
LINE
  8
0
 62
7
 10
7.599999999999998
 20
10.85
 30
0
 11
7.599999999999998
 21
8.399999999999999
 31
0
  0
LINE
  8
0
 62
7
  6
DASHDOT
 10
7.749999999999997
 20
8.449999999999999
 30
0
 11
7.749999999999997
 21
8.399999999999999
 31
0
  0
LINE
  8
0
 62
7
 10
3.915
 20
8.399999999999999
 30
0
 11
7.424999999999997
 21
8.399999999999999
 31
0
  0
LINE
  8
0
 62
7
 10
7.424999999999997
 20
10.85
 30
0
 11
7.424999999999997
 21
8.399999999999999
 31
0
  0
LINE
  8
0
 62
7
 10
3.915
 20
10.85
 30
0
 11
3.915
 21
8.399999999999999
 31
0
  0
LINE
  8
0
 62
7
 10
3.59
 20
8.399999999999999
 30
0
 11
3.74
 21
8.399999999999999
 31
0
  0
LINE
  8
0
 62
7
 10
3.74
 20
10.85
 30
0
 11
3.74
 21
8.399999999999999
 31
0
  0
LINE
  8
0
 62
7
  6
DASHDOT
 10
3.59
 20
8.449999999999999
 30
0
 11
3.59
 21
8.399999999999999
 31
0
  0
LINE
  8
0
 62
7
 10
7.599999999999998
 20
11.15
 30
0
 11
7.749999999999997
 21
11.15
 31
0
  0
LINE
  8
0
 62
7
 10
7.599999999999998
 20
11.2
 30
0
 11
7.599999999999998
 21
11.15
 31
0
  0
LINE
  8
0
 62
7
  6
DASHDOT
 10
7.749999999999997
 20
11.2
 30
0
 11
7.749999999999997
 21
11.15
 31
0
  0
LINE
  8
0
 62
7
 10
3.915
 20
11.15
 30
0
 11
7.424999999999997
 21
11.15
 31
0
  0
LINE
  8
0
 62
7
 10
7.424999999999997
 20
11.2
 30
0
 11
7.424999999999997
 21
11.15
 31
0
  0
LINE
  8
0
 62
7
 10
3.915
 20
11.2
 30
0
 11
3.915
 21
11.15
 31
0
  0
LINE
  8
0
 62
7
 10
3.59
 20
11.15
 30
0
 11
3.74
 21
11.15
 31
0
  0
LINE
  8
0
 62
7
 10
3.74
 20
11.2
 30
0
 11
3.74
 21
11.15
 31
0
  0
LINE
  8
0
 62
7
  6
DASHDOT
 10
3.59
 20
11.2
 30
0
 11
3.59
 21
11.15
 31
0
  0
LINE
  8
0
 62
7
  6
DASHDOT
 10
3.59
 20
8.299999999999999
 30
0
 11
3.59
 21
8.1
 31
0
  0
LINE
  8
0
 62
7
  6
DASHDOT
 10
3.59
 20
8.399999999999999
 30
0
 11
3.59
 21
8.299999999999999
 31
0
  0
LINE
  8
0
 62
7
  6
DASHDOT
 10
3.74
 20
7.949999999999999
 30
0
 11
3.915
 21
7.949999999999999
 31
0
  0
LINE
  8
0
 62
7
  6
DASHDOT
 10
3.69
 20
7.949999999999999
 30
0
 11
3.74
 21
7.949999999999999
 31
0
  0
LINE
  8
0
 62
7
  6
DASHDOT
 10
7.749999999999997
 20
8.299999999999999
 30
0
 11
7.749999999999997
 21
8.1
 31
0
  0
LINE
  8
0
 62
7
  6
DASHDOT
 10
7.749999999999997
 20
8.399999999999999
 30
0
 11
7.749999999999997
 21
8.299999999999999
 31
0
  0
LINE
  8
0
 62
7
  6
DASHDOT
 10
7.424999999999997
 20
7.949999999999999
 30
0
 11
7.599999999999998
 21
7.949999999999999
 31
0
  0
LINE
  8
0
 62
7
  6
DASHDOT
 10
7.374999999999997
 20
7.949999999999999
 30
0
 11
7.424999999999997
 21
7.949999999999999
 31
0
  0
LINE
  8
0
 62
7
  6
DASHDOT
 10
7.749999999999997
 20
11.05
 30
0
 11
7.749999999999997
 21
10.85
 31
0
  0
LINE
  8
0
 62
7
  6
DASHDOT
 10
7.749999999999997
 20
11.15
 30
0
 11
7.749999999999997
 21
11.05
 31
0
  0
LINE
  8
0
 62
7
  6
DASHDOT
 10
7.424999999999997
 20
11.2
 30
0
 11
7.599999999999998
 21
11.2
 31
0
  0
LINE
  8
0
 62
7
  6
DASHDOT
 10
7.374999999999997
 20
11.2
 30
0
 11
7.424999999999997
 21
11.2
 31
0
  0
LINE
  8
0
 62
7
  6
DASHDOT
 10
3.59
 20
11.05
 30
0
 11
3.59
 21
10.85
 31
0
  0
LINE
  8
0
 62
7
  6
DASHDOT
 10
3.59
 20
11.15
 30
0
 11
3.59
 21
11.05
 31
0
  0
LINE
  8
0
 62
7
  6
DASHDOT
 10
3.74
 20
11.2
 30
0
 11
3.915
 21
11.2
 31
0
  0
LINE
  8
0
 62
7
  6
DASHDOT
 10
3.69
 20
11.2
 30
0
 11
3.74
 21
11.2
 31
0
  0
LINE
  8
0
 62
7
 10
0.5
 20
7.949999999999999
 30
0
 11
0.5
 21
8.1
 31
0
  0
LINE
  8
0
 62
7
 10
0.7400000000000001
 20
11.2
 30
0
 11
0.7400000000000001
 21
11.05
 31
0
  0
LINE
  8
0
 62
7
 10
0.5
 20
11.05
 30
0
 11
0.7400000000000001
 21
11.05
 31
0
  0
LINE
  8
0
 62
7
 10
0.5
 20
11.05
 30
0
 11
0.5
 21
11.2
 31
0
  0
LINE
  8
0
 62
7
 10
0.7400000000000001
 20
11.05
 30
0
 11
0.7400000000000001
 21
10.85
 31
0
  0
LINE
  8
0
 62
7
 10
0.5
 20
10.85
 30
0
 11
0.7400000000000001
 21
10.85
 31
0
  0
LINE
  8
0
 62
7
 10
0.5
 20
10.85
 30
0
 11
0.5
 21
11.05
 31
0
  0
LINE
  8
0
 62
7
 10
0.7400000000000001
 20
10.85
 30
0
 11
0.7400000000000001
 21
8.299999999999999
 31
0
  0
LINE
  8
0
 62
7
 10
0.5
 20
8.299999999999999
 30
0
 11
0.7400000000000001
 21
8.299999999999999
 31
0
  0
LINE
  8
0
 62
7
 10
0.5
 20
8.299999999999999
 30
0
 11
0.5
 21
10.85
 31
0
  0
LINE
  8
0
 62
7
 10
0.7400000000000001
 20
8.299999999999999
 30
0
 11
0.7400000000000001
 21
8.1
 31
0
  0
LINE
  8
0
 62
7
 10
0.5
 20
8.1
 30
0
 11
0.7400000000000001
 21
8.1
 31
0
  0
LINE
  8
0
 62
7
 10
0.5
 20
8.1
 30
0
 11
0.5
 21
8.299999999999999
 31
0
  0
LINE
  8
0
 62
7
 10
0.7400000000000001
 20
8.1
 30
0
 11
0.7400000000000001
 21
7.949999999999999
 31
0
  0
LINE
  8
0
 62
7
 10
2.14
 20
11.05
 30
0
 11
2.14
 21
10.85
 31
0
  0
LINE
  8
0
 62
7
 10
2.14
 20
10.85
 30
0
 11
2.44
 21
10.85
 31
0
  0
LINE
  8
0
 62
7
 10
2.14
 20
11.05
 30
0
 11
2.44
 21
11.05
 31
0
  0
LINE
  8
0
 62
7
 10
2.14
 20
8.299999999999999
 30
0
 11
2.44
 21
8.299999999999999
 31
0
  0
LINE
  8
0
 62
7
 10
2.14
 20
8.299999999999999
 30
0
 11
2.14
 21
8.1
 31
0
  0
LINE
  8
0
 62
7
 10
2.14
 20
8.1
 30
0
 11
2.44
 21
8.1
 31
0
  0
LINE
  8
0
 62
7
  6
DASHDOT
 10
0.45
 20
11.2
 30
0
 11
0.5
 21
11.2
 31
0
  0
LINE
  8
0
 62
7
  6
DASHDOT
 10
2.44
 20
11.2
 30
0
 11
2.44
 21
11.15
 31
0
  0
LINE
  8
0
 62
7
  6
DASHDOT
 10
2.44
 20
8.049999999999999
 30
0
 11
2.44
 21
8.1
 31
0
  0
LINE
  8
0
 62
7
  6
DASHDOT
 10
0.45
 20
7.949999999999999
 30
0
 11
0.5
 21
7.949999999999999
 31
0
  0
LINE
  8
0
 62
7
 10
2.14
 20
8.399999999999999
 30
0
 11
2.44
 21
8.399999999999999
 31
0
  0
LINE
  8
0
 62
7
  6
DASHDOT
 10
2.44
 20
8.399999999999999
 30
0
 11
2.44
 21
8.449999999999999
 31
0
  0
LINE
  8
0
 62
7
 10
2.14
 20
11.15
 30
0
 11
2.44
 21
11.15
 31
0
  0
LINE
  8
0
 62
7
  6
DASHDOT
 10
2.44
 20
11.15
 30
0
 11
2.44
 21
11.05
 31
0
  0
LINE
  8
0
 62
7
  6
DASHDOT
 10
2.44
 20
8.299999999999999
 30
0
 11
2.44
 21
8.399999999999999
 31
0
  0
LINE
  8
0
 62
7
  6
DASHDOT
 10
2.44
 20
8.1
 30
0
 11
2.44
 21
8.299999999999999
 31
0
  0
LINE
  8
0
 62
7
  6
DASHDOT
 10
0.5
 20
7.949999999999999
 30
0
 11
0.7400000000000001
 21
7.949999999999999
 31
0
  0
LINE
  8
0
 62
7
  6
DASHDOT
 10
0.7400000000000001
 20
7.949999999999999
 30
0
 11
0.79
 21
7.949999999999999
 31
0
  0
LINE
  8
0
 62
7
  6
DASHDOT
 10
0.7400000000000001
 20
11.2
 30
0
 11
0.79
 21
11.2
 31
0
  0
LINE
  8
0
 62
7
  6
DASHDOT
 10
0.5
 20
11.2
 30
0
 11
0.7400000000000001
 21
11.2
 31
0
  0
LINE
  8
0
 62
7
  6
DASHDOT
 10
2.44
 20
10.85
 30
0
 11
2.44
 21
10.8
 31
0
  0
LINE
  8
0
 62
7
  6
DASHDOT
 10
2.44
 20
11.05
 30
0
 11
2.44
 21
10.85
 31
0
  0
LINE
  8
0
 62
7
  6
DASHED
 10
0.7400000000000001
 20
11.05
 30
0
 11
2.14
 21
11.05
 31
0
  0
LINE
  8
0
 62
7
  6
DASHED
 10
0.7400000000000001
 20
10.85
 30
0
 11
2.14
 21
10.85
 31
0
  0
LINE
  8
0
 62
7
  6
DASHED
 10
0.7400000000000001
 20
8.299999999999999
 30
0
 11
2.14
 21
8.299999999999999
 31
0
  0
LINE
  8
0
 62
7
  6
DASHED
 10
0.7400000000000001
 20
8.1
 30
0
 11
2.14
 21
8.1
 31
0
  0
LINE
  8
0
 62
7
 10
3.59
 20
5.269999999999997
 30
0
 11
3.74
 21
5.269999999999997
 31
0
  0
LINE
  8
0
 62
7
 10
3.74
 20
5.269999999999997
 30
0
 11
3.74
 21
5.419999999999997
 31
0
  0
LINE
  8
0
 62
7
 10
3.915
 20
5.419999999999997
 30
0
 11
3.915
 21
5.269999999999997
 31
0
  0
LINE
  8
0
 62
7
 10
3.915
 20
5.269999999999997
 30
0
 11
7.424999999999997
 21
5.269999999999997
 31
0
  0
LINE
  8
0
 62
7
 10
7.424999999999997
 20
5.269999999999997
 30
0
 11
7.424999999999997
 21
5.419999999999997
 31
0
  0
LINE
  8
0
 62
7
 10
7.599999999999998
 20
5.419999999999997
 30
0
 11
7.599999999999998
 21
5.269999999999997
 31
0
  0
LINE
  8
0
 62
7
 10
7.599999999999998
 20
5.269999999999997
 30
0
 11
7.764999999999997
 21
5.269999999999997
 31
0
  0
LINE
  8
0
 62
7
 10
3.59
 20
5.030000000000001
 30
0
 11
7.764999999999997
 21
5.030000000000001
 31
0
  0
LINE
  8
0
 62
7
 10
3.59
 20
4.99
 30
0
 11
7.764999999999997
 21
4.99
 31
0
  0
LINE
  8
0
 62
7
 10
3.59
 20
4.75
 30
0
 11
3.74
 21
4.75
 31
0
  0
LINE
  8
0
 62
7
 10
3.915
 20
3.25
 30
0
 11
3.915
 21
3.35
 31
0
  0
LINE
  8
0
 62
7
 10
3.74
 20
3.25
 30
0
 11
3.915
 21
3.25
 31
0
  0
LINE
  8
0
 62
7
 10
3.74
 20
4.75
 30
0
 11
3.74
 21
3.25
 31
0
  0
LINE
  8
0
 62
7
 10
3.915
 20
4.75
 30
0
 11
7.424999999999997
 21
4.75
 31
0
  0
LINE
  8
0
 62
7
 10
7.424999999999997
 20
4.75
 30
0
 11
7.424999999999997
 21
3.399999999999999
 31
0
  0
LINE
  8
0
 62
7
 10
7.599999999999998
 20
3.35
 30
0
 11
7.599999999999998
 21
4.750000000000001
 31
0
  0
LINE
  8
0
 62
7
 10
7.599999999999998
 20
4.750000000000001
 30
0
 11
7.764999999999997
 21
4.75
 31
0
  0
LINE
  8
0
 62
7
 10
7.424999999999997
 20
3.35
 30
0
 11
7.599999999999998
 21
3.35
 31
0
  0
LINE
  8
0
 62
7
 10
7.424999999999997
 20
3.399999999999999
 30
0
 11
3.915
 21
3.399999999999999
 31
0
  0
LINE
  8
0
 62
7
 10
3.915
 20
3.399999999999999
 30
0
 11
3.915
 21
4.75
 31
0
  0
LINE
  8
0
 62
7
 10
7.424999999999997
 20
3.399999999999999
 30
0
 11
7.424999999999997
 21
3.35
 31
0
  0
LINE
  8
0
 62
7
  6
DASHDOT
 10
7.424999999999997
 20
3.35
 30
0
 11
3.915
 21
3.35
 31
0
  0
LINE
  8
0
 62
7
 10
3.915
 20
3.35
 30
0
 11
3.915
 21
3.399999999999999
 31
0
  0
LINE
  8
0
 62
7
  6
DASHDOT
 10
3.69
 20
5.419999999999997
 30
0
 11
3.74
 21
5.419999999999997
 31
0
  0
LINE
  8
0
 62
7
  6
DASHDOT
 10
7.374999999999997
 20
5.419999999999997
 30
0
 11
7.424999999999997
 21
5.419999999999997
 31
0
  0
LINE
  8
0
 62
7
  6
DASHDOT
 10
3.59
 20
5.319999999999997
 30
0
 11
3.59
 21
5.269999999999997
 31
0
  0
LINE
  8
0
 62
7
  6
DASHDOT
 10
7.764999999999997
 20
5.319999999999997
 30
0
 11
7.764999999999997
 21
5.269999999999997
 31
0
  0
LINE
  8
0
 62
7
  6
DASHDOT
 10
7.764999999999997
 20
5.269999999999997
 30
0
 11
7.764999999999997
 21
5.030000000000001
 31
0
  0
LINE
  8
0
 62
7
  6
DASHDOT
 10
7.764999999999997
 20
4.75
 30
0
 11
7.764999999999997
 21
4.699999999999999
 31
0
  0
LINE
  8
0
 62
7
  6
DASHDOT
 10
3.74
 20
5.419999999999997
 30
0
 11
3.915
 21
5.419999999999997
 31
0
  0
LINE
  8
0
 62
7
  6
DASHDOT
 10
3.915
 20
5.419999999999997
 30
0
 11
3.965
 21
5.419999999999997
 31
0
  0
LINE
  8
0
 62
7
  6
DASHDOT
 10
3.59
 20
5.269999999999997
 30
0
 11
3.59
 21
5.030000000000001
 31
0
  0
LINE
  8
0
 62
7
  6
DASHDOT
 10
3.59
 20
4.75
 30
0
 11
3.59
 21
4.699999999999999
 31
0
  0
LINE
  8
0
 62
7
  6
DASHDOT
 10
7.764999999999997
 20
5.030000000000001
 30
0
 11
7.764999999999997
 21
4.99
 31
0
  0
LINE
  8
0
 62
7
  6
DASHDOT
 10
3.59
 20
5.030000000000001
 30
0
 11
3.59
 21
4.99
 31
0
  0
LINE
  8
0
 62
7
  6
DASHDOT
 10
7.764999999999997
 20
4.99
 30
0
 11
7.764999999999997
 21
4.75
 31
0
  0
LINE
  8
0
 62
7
  6
DASHDOT
 10
3.59
 20
4.99
 30
0
 11
3.59
 21
4.75
 31
0
  0
LINE
  8
0
 62
7
  6
DASHDOT
 10
7.599999999999998
 20
5.419999999999997
 30
0
 11
7.649999999999998
 21
5.419999999999997
 31
0
  0
LINE
  8
0
 62
7
  6
DASHDOT
 10
7.424999999999997
 20
5.419999999999997
 30
0
 11
7.599999999999998
 21
5.419999999999997
 31
0
  0
LINE
  8
0
 62
7
 10
4.876335747033443
 20
4.39952664509169
 30
0
 11
4.876335747033443
 21
4.51952664509169
 31
0
  0
LINE
  8
0
 62
7
 10
4.951935747033442
 20
4.51952664509169
 30
0
 11
4.897935747033443
 21
4.45952664509169
 31
0
  0
LINE
  8
0
 62
7
 10
4.897935747033443
 20
4.45952664509169
 30
0
 11
4.951935747033442
 21
4.39952664509169
 31
0
  0
LINE
  8
0
 62
7
 10
4.897935747033443
 20
4.45952664509169
 30
0
 11
4.876335747033443
 21
4.435526645091691
 31
0
  0
LINE
  8
0
 62
7
 10
5.059935747033443
 20
4.51952664509169
 30
0
 11
4.984335747033443
 21
4.51952664509169
 31
0
  0
LINE
  8
0
 62
7
 10
4.984335747033443
 20
4.51952664509169
 30
0
 11
4.984335747033443
 21
4.45952664509169
 31
0
  0
LINE
  8
0
 62
7
 10
4.984335747033443
 20
4.39952664509169
 30
0
 11
5.059935747033443
 21
4.39952664509169
 31
0
  0
LINE
  8
0
 62
7
 10
5.049135747033442
 20
4.45952664509169
 30
0
 11
4.984335747033443
 21
4.45952664509169
 31
0
  0
LINE
  8
0
 62
7
 10
4.984335747033443
 20
4.45952664509169
 30
0
 11
4.984335747033443
 21
4.39952664509169
 31
0
  0
LINE
  8
0
 62
7
 10
5.092335747033442
 20
4.39952664509169
 30
0
 11
5.092335747033442
 21
4.51952664509169
 31
0
  0
LINE
  8
0
 62
7
 10
5.092335747033442
 20
4.51952664509169
 30
0
 11
5.167935747033443
 21
4.39952664509169
 31
0
  0
LINE
  8
0
 62
7
 10
5.167935747033443
 20
4.39952664509169
 30
0
 11
5.167935747033443
 21
4.51952664509169
 31
0
  0
LINE
  8
0
 62
7
 10
5.200335747033442
 20
4.39952664509169
 30
0
 11
5.200335747033442
 21
4.51952664509169
 31
0
  0
LINE
  8
0
 62
7
 10
5.200335747033442
 20
4.51952664509169
 30
0
 11
5.275935747033442
 21
4.39952664509169
 31
0
  0
LINE
  8
0
 62
7
 10
5.275935747033442
 20
4.39952664509169
 30
0
 11
5.275935747033442
 21
4.51952664509169
 31
0
  0
LINE
  8
0
 62
7
 10
5.383935747033442
 20
4.48352664509169
 30
0
 11
5.381235747033442
 21
4.495526645091689
 31
0
  0
LINE
  8
0
 62
7
 10
5.381235747033442
 20
4.495526645091689
 30
0
 11
5.375835747033443
 21
4.50452664509169
 31
0
  0
LINE
  8
0
 62
7
 10
5.375835747033443
 20
4.50452664509169
 30
0
 11
5.370435747033444
 21
4.51052664509169
 31
0
  0
LINE
  8
0
 62
7
 10
5.370435747033444
 20
4.51052664509169
 30
0
 11
5.362335747033441
 21
4.516526645091691
 31
0
  0
LINE
  8
0
 62
7
 10
5.362335747033441
 20
4.516526645091691
 30
0
 11
5.354235747033441
 21
4.51952664509169
 31
0
  0
LINE
  8
0
 62
7
 10
5.354235747033441
 20
4.51952664509169
 30
0
 11
5.338035747033441
 21
4.51952664509169
 31
0
  0
LINE
  8
0
 62
7
 10
5.338035747033441
 20
4.51952664509169
 30
0
 11
5.329935747033442
 21
4.516526645091691
 31
0
  0
LINE
  8
0
 62
7
 10
5.329935747033442
 20
4.516526645091691
 30
0
 11
5.321835747033441
 21
4.51052664509169
 31
0
  0
LINE
  8
0
 62
7
 10
5.321835747033441
 20
4.51052664509169
 30
0
 11
5.316435747033442
 21
4.50452664509169
 31
0
  0
LINE
  8
0
 62
7
 10
5.316435747033442
 20
4.50452664509169
 30
0
 11
5.311035747033443
 21
4.495526645091689
 31
0
  0
LINE
  8
0
 62
7
 10
5.311035747033443
 20
4.495526645091689
 30
0
 11
5.308335747033443
 21
4.48352664509169
 31
0
  0
LINE
  8
0
 62
7
 10
5.308335747033443
 20
4.48352664509169
 30
0
 11
5.308335747033443
 21
4.435526645091691
 31
0
  0
LINE
  8
0
 62
7
 10
5.308335747033443
 20
4.435526645091691
 30
0
 11
5.311035747033443
 21
4.42352664509169
 31
0
  0
LINE
  8
0
 62
7
 10
5.311035747033443
 20
4.42352664509169
 30
0
 11
5.316435747033442
 21
4.41452664509169
 31
0
  0
LINE
  8
0
 62
7
 10
5.316435747033442
 20
4.41452664509169
 30
0
 11
5.321835747033441
 21
4.40852664509169
 31
0
  0
LINE
  8
0
 62
7
 10
5.321835747033441
 20
4.40852664509169
 30
0
 11
5.329935747033442
 21
4.402526645091689
 31
0
  0
LINE
  8
0
 62
7
 10
5.329935747033442
 20
4.402526645091689
 30
0
 11
5.338035747033441
 21
4.39952664509169
 31
0
  0
LINE
  8
0
 62
7
 10
5.338035747033441
 20
4.39952664509169
 30
0
 11
5.354235747033441
 21
4.39952664509169
 31
0
  0
LINE
  8
0
 62
7
 10
5.354235747033441
 20
4.39952664509169
 30
0
 11
5.362335747033441
 21
4.402526645091689
 31
0
  0
LINE
  8
0
 62
7
 10
5.362335747033441
 20
4.402526645091689
 30
0
 11
5.370435747033444
 21
4.40852664509169
 31
0
  0
LINE
  8
0
 62
7
 10
5.370435747033444
 20
4.40852664509169
 30
0
 11
5.375835747033443
 21
4.41452664509169
 31
0
  0
LINE
  8
0
 62
7
 10
5.375835747033443
 20
4.41452664509169
 30
0
 11
5.381235747033442
 21
4.42352664509169
 31
0
  0
LINE
  8
0
 62
7
 10
5.381235747033442
 20
4.42352664509169
 30
0
 11
5.383935747033442
 21
4.435526645091691
 31
0
  0
LINE
  8
0
 62
7
 10
5.383935747033442
 20
4.435526645091691
 30
0
 11
5.383935747033442
 21
4.45952664509169
 31
0
  0
LINE
  8
0
 62
7
 10
5.383935747033442
 20
4.45952664509169
 30
0
 11
5.351535747033441
 21
4.45952664509169
 31
0
  0
LINE
  8
0
 62
7
 10
5.462235747033441
 20
4.51952664509169
 30
0
 11
5.446035747033442
 21
4.51952664509169
 31
0
  0
LINE
  8
0
 62
7
 10
5.446035747033442
 20
4.51952664509169
 30
0
 11
5.437935747033443
 21
4.516526645091691
 31
0
  0
LINE
  8
0
 62
7
 10
5.437935747033443
 20
4.516526645091691
 30
0
 11
5.429835747033442
 21
4.51052664509169
 31
0
  0
LINE
  8
0
 62
7
 10
5.429835747033442
 20
4.51052664509169
 30
0
 11
5.424435747033442
 21
4.50452664509169
 31
0
  0
LINE
  8
0
 62
7
 10
5.424435747033442
 20
4.50452664509169
 30
0
 11
5.419035747033441
 21
4.495526645091689
 31
0
  0
LINE
  8
0
 62
7
 10
5.419035747033441
 20
4.495526645091689
 30
0
 11
5.416335747033441
 21
4.48352664509169
 31
0
  0
LINE
  8
0
 62
7
 10
5.416335747033441
 20
4.48352664509169
 30
0
 11
5.416335747033441
 21
4.435526645091691
 31
0
  0
LINE
  8
0
 62
7
 10
5.416335747033441
 20
4.435526645091691
 30
0
 11
5.419035747033441
 21
4.42352664509169
 31
0
  0
LINE
  8
0
 62
7
 10
5.419035747033441
 20
4.42352664509169
 30
0
 11
5.424435747033442
 21
4.41452664509169
 31
0
  0
LINE
  8
0
 62
7
 10
5.424435747033442
 20
4.41452664509169
 30
0
 11
5.429835747033442
 21
4.40852664509169
 31
0
  0
LINE
  8
0
 62
7
 10
5.429835747033442
 20
4.40852664509169
 30
0
 11
5.437935747033443
 21
4.402526645091689
 31
0
  0
LINE
  8
0
 62
7
 10
5.437935747033443
 20
4.402526645091689
 30
0
 11
5.446035747033442
 21
4.39952664509169
 31
0
  0
LINE
  8
0
 62
7
 10
5.446035747033442
 20
4.39952664509169
 30
0
 11
5.462235747033441
 21
4.39952664509169
 31
0
  0
LINE
  8
0
 62
7
 10
5.462235747033441
 20
4.39952664509169
 30
0
 11
5.470335747033442
 21
4.402526645091689
 31
0
  0
LINE
  8
0
 62
7
 10
5.470335747033442
 20
4.402526645091689
 30
0
 11
5.478435747033442
 21
4.40852664509169
 31
0
  0
LINE
  8
0
 62
7
 10
5.478435747033442
 20
4.40852664509169
 30
0
 11
5.483835747033442
 21
4.41452664509169
 31
0
  0
LINE
  8
0
 62
7
 10
5.483835747033442
 20
4.41452664509169
 30
0
 11
5.489235747033441
 21
4.42352664509169
 31
0
  0
LINE
  8
0
 62
7
 10
5.489235747033441
 20
4.42352664509169
 30
0
 11
5.491935747033442
 21
4.435526645091691
 31
0
  0
LINE
  8
0
 62
7
 10
5.491935747033442
 20
4.435526645091691
 30
0
 11
5.491935747033442
 21
4.48352664509169
 31
0
  0
LINE
  8
0
 62
7
 10
5.491935747033442
 20
4.48352664509169
 30
0
 11
5.489235747033441
 21
4.495526645091689
 31
0
  0
LINE
  8
0
 62
7
 10
5.489235747033441
 20
4.495526645091689
 30
0
 11
5.483835747033442
 21
4.50452664509169
 31
0
  0
LINE
  8
0
 62
7
 10
5.483835747033442
 20
4.50452664509169
 30
0
 11
5.478435747033442
 21
4.51052664509169
 31
0
  0
LINE
  8
0
 62
7
 10
5.478435747033442
 20
4.51052664509169
 30
0
 11
5.470335747033442
 21
4.516526645091691
 31
0
  0
LINE
  8
0
 62
7
 10
5.470335747033442
 20
4.516526645091691
 30
0
 11
5.462235747033441
 21
4.51952664509169
 31
0
  0
LINE
  8
0
 62
7
 10
5.513535747033442
 20
4.51952664509169
 30
0
 11
5.551335747033444
 21
4.51952664509169
 31
0
  0
LINE
  8
0
 62
7
 10
5.551335747033444
 20
4.51952664509169
 30
0
 11
5.551335747033444
 21
4.39952664509169
 31
0
  0
LINE
  8
0
 62
7
 10
5.551335747033444
 20
4.51952664509169
 30
0
 11
5.589135747033443
 21
4.51952664509169
 31
0
  0
LINE
  8
0
 62
7
 10
5.621535747033443
 20
4.51952664509169
 30
0
 11
5.659335747033443
 21
4.51952664509169
 31
0
  0
LINE
  8
0
 62
7
 10
5.659335747033443
 20
4.51952664509169
 30
0
 11
5.659335747033443
 21
4.39952664509169
 31
0
  0
LINE
  8
0
 62
7
 10
5.659335747033443
 20
4.51952664509169
 30
0
 11
5.697135747033443
 21
4.51952664509169
 31
0
  0
LINE
  8
0
 62
7
 10
5.815935747033443
 20
4.441526645091691
 30
0
 11
5.869935747033442
 21
4.441526645091691
 31
0
  0
LINE
  8
0
 62
7
 10
5.977935747033443
 20
4.51952664509169
 30
0
 11
6.015735747033442
 21
4.51952664509169
 31
0
  0
LINE
  8
0
 62
7
 10
6.015735747033442
 20
4.51952664509169
 30
0
 11
6.015735747033442
 21
4.39952664509169
 31
0
  0
LINE
  8
0
 62
7
 10
6.015735747033442
 20
4.51952664509169
 30
0
 11
6.053535747033442
 21
4.51952664509169
 31
0
  0
LINE
  8
0
 62
7
 10
6.085935747033442
 20
4.39952664509169
 30
0
 11
6.085935747033442
 21
4.51952664509169
 31
0
  0
LINE
  8
0
 62
7
 10
6.085935747033442
 20
4.51952664509169
 30
0
 11
6.137235747033443
 21
4.51952664509169
 31
0
  0
LINE
  8
0
 62
7
 10
6.137235747033443
 20
4.51952664509169
 30
0
 11
6.148035747033442
 21
4.516526645091691
 31
0
  0
LINE
  8
0
 62
7
 10
6.148035747033442
 20
4.516526645091691
 30
0
 11
6.156135747033442
 21
4.51052664509169
 31
0
  0
LINE
  8
0
 62
7
 10
6.156135747033442
 20
4.51052664509169
 30
0
 11
6.158835747033442
 21
4.50452664509169
 31
0
  0
LINE
  8
0
 62
7
 10
6.158835747033442
 20
4.50452664509169
 30
0
 11
6.161535747033443
 21
4.495526645091689
 31
0
  0
LINE
  8
0
 62
7
 10
6.161535747033443
 20
4.495526645091689
 30
0
 11
6.161535747033443
 21
4.48352664509169
 31
0
  0
LINE
  8
0
 62
7
 10
6.161535747033443
 20
4.48352664509169
 30
0
 11
6.158835747033442
 21
4.47452664509169
 31
0
  0
LINE
  8
0
 62
7
 10
6.158835747033442
 20
4.47452664509169
 30
0
 11
6.156135747033442
 21
4.46852664509169
 31
0
  0
LINE
  8
0
 62
7
 10
6.156135747033442
 20
4.46852664509169
 30
0
 11
6.148035747033442
 21
4.46252664509169
 31
0
  0
LINE
  8
0
 62
7
 10
6.148035747033442
 20
4.46252664509169
 30
0
 11
6.137235747033443
 21
4.45952664509169
 31
0
  0
LINE
  8
0
 62
7
 10
6.137235747033443
 20
4.45952664509169
 30
0
 11
6.129135747033442
 21
4.45952664509169
 31
0
  0
LINE
  8
0
 62
7
 10
6.129135747033442
 20
4.45952664509169
 30
0
 11
6.161535747033443
 21
4.39952664509169
 31
0
  0
LINE
  8
0
 62
7
 10
6.129135747033442
 20
4.45952664509169
 30
0
 11
6.085935747033442
 21
4.45952664509169
 31
0
  0
LINE
  8
0
 62
7
 10
6.258735747033444
 20
4.51952664509169
 30
0
 11
6.183135747033443
 21
4.51952664509169
 31
0
  0
LINE
  8
0
 62
7
 10
6.183135747033443
 20
4.51952664509169
 30
0
 11
6.183135747033443
 21
4.45952664509169
 31
0
  0
LINE
  8
0
 62
7
 10
6.183135747033443
 20
4.39952664509169
 30
0
 11
6.258735747033444
 21
4.39952664509169
 31
0
  0
LINE
  8
0
 62
7
 10
6.247935747033444
 20
4.45952664509169
 30
0
 11
6.183135747033443
 21
4.45952664509169
 31
0
  0
LINE
  8
0
 62
7
 10
6.183135747033443
 20
4.45952664509169
 30
0
 11
6.183135747033443
 21
4.39952664509169
 31
0
  0
LINE
  8
0
 62
7
 10
6.291135747033443
 20
4.39952664509169
 30
0
 11
6.291135747033443
 21
4.45952664509169
 31
0
  0
LINE
  8
0
 62
7
 10
6.291135747033443
 20
4.51952664509169
 30
0
 11
6.342435747033443
 21
4.51952664509169
 31
0
  0
LINE
  8
0
 62
7
 10
6.342435747033443
 20
4.51952664509169
 30
0
 11
6.353235747033444
 21
4.516526645091691
 31
0
  0
LINE
  8
0
 62
7
 10
6.353235747033444
 20
4.516526645091691
 30
0
 11
6.361335747033444
 21
4.51052664509169
 31
0
  0
LINE
  8
0
 62
7
 10
6.361335747033444
 20
4.51052664509169
 30
0
 11
6.364035747033443
 21
4.50452664509169
 31
0
  0
LINE
  8
0
 62
7
 10
6.364035747033443
 20
4.50452664509169
 30
0
 11
6.366735747033444
 21
4.495526645091689
 31
0
  0
LINE
  8
0
 62
7
 10
6.366735747033444
 20
4.495526645091689
 30
0
 11
6.366735747033444
 21
4.48352664509169
 31
0
  0
LINE
  8
0
 62
7
 10
6.366735747033444
 20
4.48352664509169
 30
0
 11
6.364035747033443
 21
4.47452664509169
 31
0
  0
LINE
  8
0
 62
7
 10
6.364035747033443
 20
4.47452664509169
 30
0
 11
6.361335747033444
 21
4.46852664509169
 31
0
  0
LINE
  8
0
 62
7
 10
6.361335747033444
 20
4.46852664509169
 30
0
 11
6.353235747033444
 21
4.46252664509169
 31
0
  0
LINE
  8
0
 62
7
 10
6.353235747033444
 20
4.46252664509169
 30
0
 11
6.342435747033443
 21
4.45952664509169
 31
0
  0
LINE
  8
0
 62
7
 10
6.342435747033443
 20
4.45952664509169
 30
0
 11
6.291135747033443
 21
4.45952664509169
 31
0
  0
LINE
  8
0
 62
7
 10
6.291135747033443
 20
4.45952664509169
 30
0
 11
6.291135747033443
 21
4.51952664509169
 31
0
  0
LINE
  8
0
 62
7
 10
6.388335747033444
 20
4.39952664509169
 30
0
 11
6.388335747033444
 21
4.45952664509169
 31
0
  0
LINE
  8
0
 62
7
 10
6.388335747033444
 20
4.51952664509169
 30
0
 11
6.439635747033444
 21
4.51952664509169
 31
0
  0
LINE
  8
0
 62
7
 10
6.439635747033444
 20
4.51952664509169
 30
0
 11
6.450435747033445
 21
4.516526645091691
 31
0
  0
LINE
  8
0
 62
7
 10
6.450435747033445
 20
4.516526645091691
 30
0
 11
6.458535747033443
 21
4.51052664509169
 31
0
  0
LINE
  8
0
 62
7
 10
6.458535747033443
 20
4.51052664509169
 30
0
 11
6.461235747033443
 21
4.50452664509169
 31
0
  0
LINE
  8
0
 62
7
 10
6.461235747033443
 20
4.50452664509169
 30
0
 11
6.463935747033443
 21
4.495526645091689
 31
0
  0
LINE
  8
0
 62
7
 10
6.463935747033443
 20
4.495526645091689
 30
0
 11
6.463935747033443
 21
4.48352664509169
 31
0
  0
LINE
  8
0
 62
7
 10
6.463935747033443
 20
4.48352664509169
 30
0
 11
6.461235747033443
 21
4.47452664509169
 31
0
  0
LINE
  8
0
 62
7
 10
6.461235747033443
 20
4.47452664509169
 30
0
 11
6.458535747033443
 21
4.46852664509169
 31
0
  0
LINE
  8
0
 62
7
 10
6.458535747033443
 20
4.46852664509169
 30
0
 11
6.450435747033445
 21
4.46252664509169
 31
0
  0
LINE
  8
0
 62
7
 10
6.450435747033445
 20
4.46252664509169
 30
0
 11
6.439635747033444
 21
4.45952664509169
 31
0
  0
LINE
  8
0
 62
7
 10
6.439635747033444
 20
4.45952664509169
 30
0
 11
6.388335747033444
 21
4.45952664509169
 31
0
  0
LINE
  8
0
 62
7
 10
6.388335747033444
 20
4.45952664509169
 30
0
 11
6.388335747033444
 21
4.51952664509169
 31
0
  0
LINE
  8
0
 62
7
 10
6.561135747033443
 20
4.51952664509169
 30
0
 11
6.485535747033443
 21
4.51952664509169
 31
0
  0
LINE
  8
0
 62
7
 10
6.485535747033443
 20
4.51952664509169
 30
0
 11
6.485535747033443
 21
4.45952664509169
 31
0
  0
LINE
  8
0
 62
7
 10
6.485535747033443
 20
4.39952664509169
 30
0
 11
6.561135747033443
 21
4.39952664509169
 31
0
  0
LINE
  8
0
 62
7
 10
6.550335747033443
 20
4.45952664509169
 30
0
 11
6.485535747033443
 21
4.45952664509169
 31
0
  0
LINE
  8
0
 62
7
 10
6.485535747033443
 20
4.45952664509169
 30
0
 11
6.485535747033443
 21
4.39952664509169
 31
0
  0
LINE
  8
0
 62
7
 10
4.374999999999997
 20
2.889999999999999
 30
0
 11
4.374999999999997
 21
3.009999999999999
 31
0
  0
LINE
  8
0
 62
7
 10
4.374999999999997
 20
3.009999999999999
 30
0
 11
4.418199999999998
 21
2.914
 31
0
  0
LINE
  8
0
 62
7
 10
4.418199999999998
 20
2.914
 30
0
 11
4.461399999999997
 21
3.009999999999999
 31
0
  0
LINE
  8
0
 62
7
 10
4.461399999999997
 20
3.009999999999999
 30
0
 11
4.461399999999997
 21
2.889999999999999
 31
0
  0
LINE
  8
0
 62
7
 10
4.493799999999998
 20
2.992
 30
0
 11
4.499199999999997
 21
3.001
 31
0
  0
LINE
  8
0
 62
7
 10
4.499199999999997
 20
3.001
 30
0
 11
4.507299999999996
 21
3.007
 31
0
  0
LINE
  8
0
 62
7
 10
4.507299999999996
 20
3.007
 30
0
 11
4.518099999999997
 21
3.009999999999999
 31
0
  0
LINE
  8
0
 62
7
 10
4.518099999999997
 20
3.009999999999999
 30
0
 11
4.534299999999997
 21
3.009999999999999
 31
0
  0
LINE
  8
0
 62
7
 10
4.534299999999997
 20
3.009999999999999
 30
0
 11
4.545099999999997
 21
3.007
 31
0
  0
LINE
  8
0
 62
7
 10
4.545099999999997
 20
3.007
 30
0
 11
4.553199999999998
 21
3.001
 31
0
  0
LINE
  8
0
 62
7
 10
4.553199999999998
 20
3.001
 30
0
 11
4.558599999999998
 21
2.992
 31
0
  0
LINE
  8
0
 62
7
 10
4.558599999999998
 20
2.992
 30
0
 11
4.558599999999998
 21
2.979999999999999
 31
0
  0
LINE
  8
0
 62
7
 10
4.558599999999998
 20
2.979999999999999
 30
0
 11
4.553199999999998
 21
2.968
 31
0
  0
LINE
  8
0
 62
7
 10
4.553199999999998
 20
2.968
 30
0
 11
4.493799999999998
 21
2.889999999999999
 31
0
  0
LINE
  8
0
 62
7
 10
4.493799999999998
 20
2.889999999999999
 30
0
 11
4.558599999999998
 21
2.889999999999999
 31
0
  0
LINE
  8
0
 62
7
 10
4.590999999999997
 20
3.009999999999999
 30
0
 11
4.628799999999997
 21
2.889999999999999
 31
0
  0
LINE
  8
0
 62
7
 10
4.628799999999997
 20
2.889999999999999
 30
0
 11
4.666599999999997
 21
3.009999999999999
 31
0
  0
LINE
  8
0
 62
7
 10
4.698999999999995
 20
2.992
 30
0
 11
4.704399999999996
 21
3.001
 31
0
  0
LINE
  8
0
 62
7
 10
4.704399999999996
 20
3.001
 30
0
 11
4.712499999999998
 21
3.007
 31
0
  0
LINE
  8
0
 62
7
 10
4.712499999999998
 20
3.007
 30
0
 11
4.723299999999997
 21
3.009999999999999
 31
0
  0
LINE
  8
0
 62
7
 10
4.723299999999997
 20
3.009999999999999
 30
0
 11
4.739499999999997
 21
3.009999999999999
 31
0
  0
LINE
  8
0
 62
7
 10
4.739499999999997
 20
3.009999999999999
 30
0
 11
4.747599999999998
 21
3.007
 31
0
  0
LINE
  8
0
 62
7
 10
4.747599999999998
 20
3.007
 30
0
 11
4.755699999999997
 21
3.001
 31
0
  0
LINE
  8
0
 62
7
 10
4.755699999999997
 20
3.001
 30
0
 11
4.761099999999997
 21
2.992
 31
0
  0
LINE
  8
0
 62
7
 10
4.761099999999997
 20
2.992
 30
0
 11
4.763799999999998
 21
2.979999999999999
 31
0
  0
LINE
  8
0
 62
7
 10
4.763799999999998
 20
2.979999999999999
 30
0
 11
4.763799999999998
 21
2.971
 31
0
  0
LINE
  8
0
 62
7
 10
4.763799999999998
 20
2.971
 30
0
 11
4.761099999999997
 21
2.962
 31
0
  0
LINE
  8
0
 62
7
 10
4.761099999999997
 20
2.962
 30
0
 11
4.755699999999997
 21
2.956
 31
0
  0
LINE
  8
0
 62
7
 10
4.755699999999997
 20
2.956
 30
0
 11
4.742199999999996
 21
2.949999999999999
 31
0
  0
LINE
  8
0
 62
7
 10
4.723299999999997
 20
2.949999999999999
 30
0
 11
4.742199999999996
 21
2.949999999999999
 31
0
  0
LINE
  8
0
 62
7
 10
4.742199999999996
 20
2.949999999999999
 30
0
 11
4.755699999999997
 21
2.944
 31
0
  0
LINE
  8
0
 62
7
 10
4.755699999999997
 20
2.944
 30
0
 11
4.761099999999997
 21
2.938
 31
0
  0
LINE
  8
0
 62
7
 10
4.761099999999997
 20
2.938
 30
0
 11
4.763799999999998
 21
2.929
 31
0
  0
LINE
  8
0
 62
7
 10
4.763799999999998
 20
2.929
 30
0
 11
4.763799999999998
 21
2.919999999999999
 31
0
  0
LINE
  8
0
 62
7
 10
4.763799999999998
 20
2.919999999999999
 30
0
 11
4.761099999999997
 21
2.908
 31
0
  0
LINE
  8
0
 62
7
 10
4.761099999999997
 20
2.908
 30
0
 11
4.755699999999997
 21
2.899
 31
0
  0
LINE
  8
0
 62
7
 10
4.755699999999997
 20
2.899
 30
0
 11
4.747599999999998
 21
2.893
 31
0
  0
LINE
  8
0
 62
7
 10
4.747599999999998
 20
2.893
 30
0
 11
4.739499999999997
 21
2.889999999999999
 31
0
  0
LINE
  8
0
 62
7
 10
4.739499999999997
 20
2.889999999999999
 30
0
 11
4.723299999999997
 21
2.889999999999999
 31
0
  0
LINE
  8
0
 62
7
 10
4.723299999999997
 20
2.889999999999999
 30
0
 11
4.712499999999998
 21
2.893
 31
0
  0
LINE
  8
0
 62
7
 10
4.712499999999998
 20
2.893
 30
0
 11
4.704399999999996
 21
2.899
 31
0
  0
LINE
  8
0
 62
7
 10
4.704399999999996
 20
2.899
 30
0
 11
4.698999999999995
 21
2.908
 31
0
  0
LINE
  8
0
 62
7
 10
4.855599999999996
 20
3.009999999999999
 30
0
 11
4.796199999999998
 21
3.009999999999999
 31
0
  0
LINE
  8
0
 62
7
 10
4.796199999999998
 20
3.009999999999999
 30
0
 11
4.796199999999998
 21
2.949999999999999
 31
0
  0
LINE
  8
0
 62
7
 10
4.796199999999998
 20
2.949999999999999
 30
0
 11
4.801599999999997
 21
2.959
 31
0
  0
LINE
  8
0
 62
7
 10
4.801599999999997
 20
2.959
 30
0
 11
4.809699999999996
 21
2.964999999999999
 31
0
  0
LINE
  8
0
 62
7
 10
4.809699999999996
 20
2.964999999999999
 30
0
 11
4.820499999999998
 21
2.968
 31
0
  0
LINE
  8
0
 62
7
 10
4.820499999999998
 20
2.968
 30
0
 11
4.836699999999997
 21
2.968
 31
0
  0
LINE
  8
0
 62
7
 10
4.836699999999997
 20
2.968
 30
0
 11
4.844799999999997
 21
2.964999999999999
 31
0
  0
LINE
  8
0
 62
7
 10
4.844799999999997
 20
2.964999999999999
 30
0
 11
4.852899999999996
 21
2.959
 31
0
  0
LINE
  8
0
 62
7
 10
4.852899999999996
 20
2.959
 30
0
 11
4.858299999999998
 21
2.949999999999999
 31
0
  0
LINE
  8
0
 62
7
 10
4.858299999999998
 20
2.949999999999999
 30
0
 11
4.860999999999997
 21
2.938
 31
0
  0
LINE
  8
0
 62
7
 10
4.860999999999997
 20
2.938
 30
0
 11
4.860999999999997
 21
2.919999999999999
 31
0
  0
LINE
  8
0
 62
7
 10
4.860999999999997
 20
2.919999999999999
 30
0
 11
4.858299999999998
 21
2.908
 31
0
  0
LINE
  8
0
 62
7
 10
4.858299999999998
 20
2.908
 30
0
 11
4.852899999999996
 21
2.899
 31
0
  0
LINE
  8
0
 62
7
 10
4.852899999999996
 20
2.899
 30
0
 11
4.844799999999997
 21
2.893
 31
0
  0
LINE
  8
0
 62
7
 10
4.844799999999997
 20
2.893
 30
0
 11
4.836699999999997
 21
2.889999999999999
 31
0
  0
LINE
  8
0
 62
7
 10
4.836699999999997
 20
2.889999999999999
 30
0
 11
4.820499999999998
 21
2.889999999999999
 31
0
  0
LINE
  8
0
 62
7
 10
4.820499999999998
 20
2.889999999999999
 30
0
 11
4.809699999999996
 21
2.893
 31
0
  0
LINE
  8
0
 62
7
 10
4.809699999999996
 20
2.893
 30
0
 11
4.801599999999997
 21
2.899
 31
0
  0
LINE
  8
0
 62
7
 10
4.801599999999997
 20
2.899
 30
0
 11
4.796199999999998
 21
2.908
 31
0
  0
LINE
  8
0
 62
7
 10
4.893399999999996
 20
2.974
 30
0
 11
4.925799999999996
 21
3.009999999999999
 31
0
  0
LINE
  8
0
 62
7
 10
4.925799999999996
 20
3.009999999999999
 30
0
 11
4.925799999999996
 21
2.889999999999999
 31
0
  0
LINE
  8
0
 62
7
 10
4.958199999999998
 20
2.889999999999999
 30
0
 11
4.958199999999998
 21
3.009999999999999
 31
0
  0
LINE
  8
0
 62
7
 10
4.958199999999998
 20
3.009999999999999
 30
0
 11
5.009499999999997
 21
3.009999999999999
 31
0
  0
LINE
  8
0
 62
7
 10
5.009499999999997
 20
3.009999999999999
 30
0
 11
5.020299999999997
 21
3.007
 31
0
  0
LINE
  8
0
 62
7
 10
5.020299999999997
 20
3.007
 30
0
 11
5.028399999999997
 21
3.001
 31
0
  0
LINE
  8
0
 62
7
 10
5.028399999999997
 20
3.001
 30
0
 11
5.031099999999996
 21
2.994999999999999
 31
0
  0
LINE
  8
0
 62
7
 10
5.031099999999996
 20
2.994999999999999
 30
0
 11
5.033799999999998
 21
2.986
 31
0
  0
LINE
  8
0
 62
7
 10
5.033799999999998
 20
2.986
 30
0
 11
5.033799999999998
 21
2.974
 31
0
  0
LINE
  8
0
 62
7
 10
5.033799999999998
 20
2.974
 30
0
 11
5.031099999999996
 21
2.964999999999999
 31
0
  0
LINE
  8
0
 62
7
 10
5.031099999999996
 20
2.964999999999999
 30
0
 11
5.028399999999997
 21
2.959
 31
0
  0
LINE
  8
0
 62
7
 10
5.028399999999997
 20
2.959
 30
0
 11
5.020299999999997
 21
2.953
 31
0
  0
LINE
  8
0
 62
7
 10
5.020299999999997
 20
2.953
 30
0
 11
5.009499999999997
 21
2.949999999999999
 31
0
  0
LINE
  8
0
 62
7
 10
5.009499999999997
 20
2.949999999999999
 30
0
 11
5.001399999999997
 21
2.949999999999999
 31
0
  0
LINE
  8
0
 62
7
 10
5.001399999999997
 20
2.949999999999999
 30
0
 11
5.033799999999998
 21
2.889999999999999
 31
0
  0
LINE
  8
0
 62
7
 10
5.001399999999997
 20
2.949999999999999
 30
0
 11
4.958199999999998
 21
2.949999999999999
 31
0
  0
LINE
  8
0
 62
7
 10
5.055399999999996
 20
2.938
 30
0
 11
5.058099999999996
 21
2.949999999999999
 31
0
  0
LINE
  8
0
 62
7
 10
5.058099999999996
 20
2.949999999999999
 30
0
 11
5.063499999999997
 21
2.959
 31
0
  0
LINE
  8
0
 62
7
 10
5.063499999999997
 20
2.959
 30
0
 11
5.071599999999997
 21
2.964999999999999
 31
0
  0
LINE
  8
0
 62
7
 10
5.071599999999997
 20
2.964999999999999
 30
0
 11
5.079699999999995
 21
2.968
 31
0
  0
LINE
  8
0
 62
7
 10
5.079699999999995
 20
2.968
 30
0
 11
5.095899999999997
 21
2.968
 31
0
  0
LINE
  8
0
 62
7
 10
5.095899999999997
 20
2.968
 30
0
 11
5.103999999999996
 21
2.964999999999999
 31
0
  0
LINE
  8
0
 62
7
 10
5.103999999999996
 20
2.964999999999999
 30
0
 11
5.112099999999996
 21
2.959
 31
0
  0
LINE
  8
0
 62
7
 10
5.112099999999996
 20
2.959
 30
0
 11
5.117499999999998
 21
2.949999999999999
 31
0
  0
LINE
  8
0
 62
7
 10
5.117499999999998
 20
2.949999999999999
 30
0
 11
5.120199999999997
 21
2.938
 31
0
  0
LINE
  8
0
 62
7
 10
5.120199999999997
 20
2.938
 30
0
 11
5.120199999999997
 21
2.919999999999999
 31
0
  0
LINE
  8
0
 62
7
 10
5.120199999999997
 20
2.919999999999999
 30
0
 11
5.117499999999998
 21
2.908
 31
0
  0
LINE
  8
0
 62
7
 10
5.117499999999998
 20
2.908
 30
0
 11
5.112099999999996
 21
2.899
 31
0
  0
LINE
  8
0
 62
7
 10
5.112099999999996
 20
2.899
 30
0
 11
5.103999999999996
 21
2.893
 31
0
  0
LINE
  8
0
 62
7
 10
5.103999999999996
 20
2.893
 30
0
 11
5.095899999999997
 21
2.889999999999999
 31
0
  0
LINE
  8
0
 62
7
 10
5.095899999999997
 20
2.889999999999999
 30
0
 11
5.079699999999995
 21
2.889999999999999
 31
0
  0
LINE
  8
0
 62
7
 10
5.079699999999995
 20
2.889999999999999
 30
0
 11
5.071599999999997
 21
2.893
 31
0
  0
LINE
  8
0
 62
7
 10
5.071599999999997
 20
2.893
 30
0
 11
5.063499999999997
 21
2.899
 31
0
  0
LINE
  8
0
 62
7
 10
5.063499999999997
 20
2.899
 30
0
 11
5.058099999999996
 21
2.908
 31
0
  0
LINE
  8
0
 62
7
 10
5.058099999999996
 20
2.908
 30
0
 11
5.055399999999996
 21
2.919999999999999
 31
0
  0
LINE
  8
0
 62
7
 10
5.055399999999996
 20
2.919999999999999
 30
0
 11
5.055399999999996
 21
2.938
 31
0
  0
LINE
  8
0
 62
7
 10
5.055399999999996
 20
2.979999999999999
 30
0
 11
5.058099999999996
 21
2.992
 31
0
  0
LINE
  8
0
 62
7
 10
5.058099999999996
 20
2.992
 30
0
 11
5.063499999999997
 21
3.001
 31
0
  0
LINE
  8
0
 62
7
 10
5.063499999999997
 20
3.001
 30
0
 11
5.071599999999997
 21
3.007
 31
0
  0
LINE
  8
0
 62
7
 10
5.071599999999997
 20
3.007
 30
0
 11
5.079699999999995
 21
3.009999999999999
 31
0
  0
LINE
  8
0
 62
7
 10
5.079699999999995
 20
3.009999999999999
 30
0
 11
5.095899999999997
 21
3.009999999999999
 31
0
  0
LINE
  8
0
 62
7
 10
5.095899999999997
 20
3.009999999999999
 30
0
 11
5.103999999999996
 21
3.007
 31
0
  0
LINE
  8
0
 62
7
 10
5.103999999999996
 20
3.007
 30
0
 11
5.112099999999996
 21
3.001
 31
0
  0
LINE
  8
0
 62
7
 10
5.112099999999996
 20
3.001
 30
0
 11
5.117499999999998
 21
2.992
 31
0
  0
LINE
  8
0
 62
7
 10
5.055399999999996
 20
2.938
 30
0
 11
5.055399999999996
 21
2.979999999999999
 31
0
  0
LINE
  8
0
 62
7
 10
6.874999999999997
 20
2.889999999999999
 30
0
 11
6.874999999999997
 21
2.989999999999999
 31
0
  0
LINE
  8
0
 62
7
 10
6.874999999999997
 20
2.989999999999999
 30
0
 11
6.937999999999999
 21
2.889999999999999
 31
0
  0
LINE
  8
0
 62
7
 10
6.937999999999999
 20
2.889999999999999
 30
0
 11
6.937999999999999
 21
2.989999999999999
 31
0
  0
LINE
  8
0
 62
7
 10
7.018999999999997
 20
2.889999999999999
 30
0
 11
6.964999999999996
 21
2.889999999999999
 31
0
  0
LINE
  8
0
 62
7
 10
6.964999999999996
 20
2.889999999999999
 30
0
 11
6.964999999999996
 21
2.989999999999999
 31
0
  0
LINE
  8
0
 62
7
 10
7.045999999999997
 20
2.94
 30
0
 11
7.081999999999998
 21
2.94
 31
0
  0
LINE
  8
0
 62
7
 10
7.081999999999998
 20
2.94
 30
0
 11
7.086499999999997
 21
2.94
 31
0
  0
LINE
  8
0
 62
7
 10
7.086499999999997
 20
2.94
 30
0
 11
7.095499999999998
 21
2.934999999999999
 31
0
  0
LINE
  8
0
 62
7
 10
7.095499999999998
 20
2.934999999999999
 30
0
 11
7.099999999999998
 21
2.929999999999999
 31
0
  0
LINE
  8
0
 62
7
 10
7.099999999999998
 20
2.929999999999999
 30
0
 11
7.104499999999998
 21
2.919999999999999
 31
0
  0
LINE
  8
0
 62
7
 10
7.104499999999998
 20
2.919999999999999
 30
0
 11
7.104499999999998
 21
2.909999999999999
 31
0
  0
LINE
  8
0
 62
7
 10
7.104499999999998
 20
2.909999999999999
 30
0
 11
7.099999999999998
 21
2.899999999999999
 31
0
  0
LINE
  8
0
 62
7
 10
7.099999999999998
 20
2.899999999999999
 30
0
 11
7.095499999999998
 21
2.895
 31
0
  0
LINE
  8
0
 62
7
 10
7.095499999999998
 20
2.895
 30
0
 11
7.086499999999997
 21
2.889999999999999
 31
0
  0
LINE
  8
0
 62
7
 10
7.086499999999997
 20
2.889999999999999
 30
0
 11
7.045999999999997
 21
2.889999999999999
 31
0
  0
LINE
  8
0
 62
7
 10
7.045999999999997
 20
2.889999999999999
 30
0
 11
7.045999999999997
 21
2.94
 31
0
  0
LINE
  8
0
 62
7
 10
7.045999999999997
 20
2.989999999999999
 30
0
 11
7.079749999999997
 21
2.989999999999999
 31
0
  0
LINE
  8
0
 62
7
 10
7.079749999999997
 20
2.989999999999999
 30
0
 11
7.090999999999998
 21
2.987499999999999
 31
0
  0
LINE
  8
0
 62
7
 10
7.090999999999998
 20
2.987499999999999
 30
0
 11
7.097749999999997
 21
2.979999999999999
 31
0
  0
LINE
  8
0
 62
7
 10
7.097749999999997
 20
2.979999999999999
 30
0
 11
7.099999999999998
 21
2.969999999999999
 31
0
  0
LINE
  8
0
 62
7
 10
7.099999999999998
 20
2.969999999999999
 30
0
 11
7.099999999999998
 21
2.959999999999999
 31
0
  0
LINE
  8
0
 62
7
 10
7.099999999999998
 20
2.959999999999999
 30
0
 11
7.095499999999998
 21
2.949999999999999
 31
0
  0
LINE
  8
0
 62
7
 10
7.095499999999998
 20
2.949999999999999
 30
0
 11
7.088749999999997
 21
2.942499999999999
 31
0
  0
LINE
  8
0
 62
7
 10
7.088749999999997
 20
2.942499999999999
 30
0
 11
7.081999999999998
 21
2.94
 31
0
  0
LINE
  8
0
 62
7
 10
7.045999999999997
 20
2.94
 30
0
 11
7.045999999999997
 21
2.989999999999999
 31
0
  0
LINE
  8
0
 62
7
 10
7.246249999999996
 20
2.942499999999999
 30
0
 11
7.239499999999997
 21
2.952499999999999
 31
0
  0
LINE
  8
0
 62
7
 10
7.239499999999997
 20
2.952499999999999
 30
0
 11
7.232749999999998
 21
2.9575
 31
0
  0
LINE
  8
0
 62
7
 10
7.232749999999998
 20
2.9575
 30
0
 11
7.225999999999996
 21
2.959999999999999
 31
0
  0
LINE
  8
0
 62
7
 10
7.225999999999996
 20
2.959999999999999
 30
0
 11
7.216999999999998
 21
2.959999999999999
 31
0
  0
LINE
  8
0
 62
7
 10
7.216999999999998
 20
2.959999999999999
 30
0
 11
7.210249999999997
 21
2.9575
 31
0
  0
LINE
  8
0
 62
7
 10
7.210249999999997
 20
2.9575
 30
0
 11
7.203499999999997
 21
2.952499999999999
 31
0
  0
LINE
  8
0
 62
7
 10
7.203499999999997
 20
2.952499999999999
 30
0
 11
7.196749999999998
 21
2.942499999999999
 31
0
  0
LINE
  8
0
 62
7
 10
7.196749999999998
 20
2.942499999999999
 30
0
 11
7.194499999999998
 21
2.934999999999999
 31
0
  0
LINE
  8
0
 62
7
 10
7.194499999999998
 20
2.934999999999999
 30
0
 11
7.194499999999998
 21
2.914999999999999
 31
0
  0
LINE
  8
0
 62
7
 10
7.194499999999998
 20
2.914999999999999
 30
0
 11
7.196749999999998
 21
2.907499999999999
 31
0
  0
LINE
  8
0
 62
7
 10
7.196749999999998
 20
2.907499999999999
 30
0
 11
7.203499999999997
 21
2.897499999999999
 31
0
  0
LINE
  8
0
 62
7
 10
7.203499999999997
 20
2.897499999999999
 30
0
 11
7.210249999999997
 21
2.892499999999999
 31
0
  0
LINE
  8
0
 62
7
 10
7.210249999999997
 20
2.892499999999999
 30
0
 11
7.216999999999998
 21
2.889999999999999
 31
0
  0
LINE
  8
0
 62
7
 10
7.216999999999998
 20
2.889999999999999
 30
0
 11
7.225999999999996
 21
2.889999999999999
 31
0
  0
LINE
  8
0
 62
7
 10
7.225999999999996
 20
2.889999999999999
 30
0
 11
7.232749999999998
 21
2.892499999999999
 31
0
  0
LINE
  8
0
 62
7
 10
7.232749999999998
 20
2.892499999999999
 30
0
 11
7.239499999999997
 21
2.897499999999999
 31
0
  0
LINE
  8
0
 62
7
 10
7.239499999999997
 20
2.897499999999999
 30
0
 11
7.246249999999996
 21
2.907499999999999
 31
0
  0
LINE
  8
0
 62
7
 10
7.318249999999998
 20
2.934999999999999
 30
0
 11
7.315999999999997
 21
2.942499999999999
 31
0
  0
LINE
  8
0
 62
7
 10
7.315999999999997
 20
2.942499999999999
 30
0
 11
7.309249999999998
 21
2.952499999999999
 31
0
  0
LINE
  8
0
 62
7
 10
7.309249999999998
 20
2.952499999999999
 30
0
 11
7.302499999999997
 21
2.9575
 31
0
  0
LINE
  8
0
 62
7
 10
7.302499999999997
 20
2.9575
 30
0
 11
7.295749999999997
 21
2.959999999999999
 31
0
  0
LINE
  8
0
 62
7
 10
7.295749999999997
 20
2.959999999999999
 30
0
 11
7.286749999999998
 21
2.959999999999999
 31
0
  0
LINE
  8
0
 62
7
 10
7.286749999999998
 20
2.959999999999999
 30
0
 11
7.279999999999998
 21
2.9575
 31
0
  0
LINE
  8
0
 62
7
 10
7.279999999999998
 20
2.9575
 30
0
 11
7.273249999999997
 21
2.952499999999999
 31
0
  0
LINE
  8
0
 62
7
 10
7.273249999999997
 20
2.952499999999999
 30
0
 11
7.266499999999997
 21
2.942499999999999
 31
0
  0
LINE
  8
0
 62
7
 10
7.266499999999997
 20
2.942499999999999
 30
0
 11
7.264249999999997
 21
2.934999999999999
 31
0
  0
LINE
  8
0
 62
7
 10
7.264249999999997
 20
2.934999999999999
 30
0
 11
7.264249999999997
 21
2.914999999999999
 31
0
  0
LINE
  8
0
 62
7
 10
7.264249999999997
 20
2.914999999999999
 30
0
 11
7.266499999999997
 21
2.907499999999999
 31
0
  0
LINE
  8
0
 62
7
 10
7.266499999999997
 20
2.907499999999999
 30
0
 11
7.273249999999997
 21
2.897499999999999
 31
0
  0
LINE
  8
0
 62
7
 10
7.273249999999997
 20
2.897499999999999
 30
0
 11
7.279999999999998
 21
2.892499999999999
 31
0
  0
LINE
  8
0
 62
7
 10
7.279999999999998
 20
2.892499999999999
 30
0
 11
7.286749999999998
 21
2.889999999999999
 31
0
  0
LINE
  8
0
 62
7
 10
7.286749999999998
 20
2.889999999999999
 30
0
 11
7.295749999999997
 21
2.889999999999999
 31
0
  0
LINE
  8
0
 62
7
 10
7.295749999999997
 20
2.889999999999999
 30
0
 11
7.302499999999997
 21
2.892499999999999
 31
0
  0
LINE
  8
0
 62
7
 10
7.302499999999997
 20
2.892499999999999
 30
0
 11
7.309249999999998
 21
2.897499999999999
 31
0
  0
LINE
  8
0
 62
7
 10
7.309249999999998
 20
2.897499999999999
 30
0
 11
7.315999999999997
 21
2.907499999999999
 31
0
  0
LINE
  8
0
 62
7
 10
7.315999999999997
 20
2.907499999999999
 30
0
 11
7.318249999999998
 21
2.914999999999999
 31
0
  0
LINE
  8
0
 62
7
 10
7.318249999999998
 20
2.959999999999999
 30
0
 11
7.318249999999998
 21
2.934999999999999
 31
0
  0
LINE
  8
0
 62
7
 10
7.318249999999998
 20
2.892499999999999
 30
0
 11
7.320499999999997
 21
2.889999999999999
 31
0
  0
LINE
  8
0
 62
7
 10
7.320499999999997
 20
2.889999999999999
 30
0
 11
7.322749999999997
 21
2.889999999999999
 31
0
  0
LINE
  8
0
 62
7
 10
7.318249999999998
 20
2.914999999999999
 30
0
 11
7.318249999999998
 21
2.892499999999999
 31
0
  0
LINE
  8
0
 62
7
 10
7.318249999999998
 20
2.934999999999999
 30
0
 11
7.318249999999998
 21
2.914999999999999
 31
0
  0
LINE
  8
0
 62
7
 10
7.340749999999997
 20
2.889999999999999
 30
0
 11
7.340749999999997
 21
2.892499999999999
 31
0
  0
LINE
  8
0
 62
7
 10
7.340749999999997
 20
2.892499999999999
 30
0
 11
7.342999999999998
 21
2.892499999999999
 31
0
  0
LINE
  8
0
 62
7
 10
7.342999999999998
 20
2.892499999999999
 30
0
 11
7.342999999999998
 21
2.889999999999999
 31
0
  0
LINE
  8
0
 62
7
 10
7.342999999999998
 20
2.889999999999999
 30
0
 11
7.340749999999997
 21
2.889999999999999
 31
0
  0
LINE
  8
0
 62
7
 10
7.444249999999998
 20
2.959999999999999
 30
0
 11
7.471249999999997
 21
2.989999999999999
 31
0
  0
LINE
  8
0
 62
7
 10
7.471249999999997
 20
2.989999999999999
 30
0
 11
7.471249999999997
 21
2.889999999999999
 31
0
  0
LINE
  8
0
 62
7
 10
7.498249999999998
 20
2.964999999999999
 30
0
 11
7.500499999999999
 21
2.975
 31
0
  0
LINE
  8
0
 62
7
 10
7.500499999999999
 20
2.975
 30
0
 11
7.504999999999997
 21
2.982499999999999
 31
0
  0
LINE
  8
0
 62
7
 10
7.504999999999997
 20
2.982499999999999
 30
0
 11
7.511749999999998
 21
2.987499999999999
 31
0
  0
LINE
  8
0
 62
7
 10
7.511749999999998
 20
2.987499999999999
 30
0
 11
7.518499999999996
 21
2.989999999999999
 31
0
  0
LINE
  8
0
 62
7
 10
7.518499999999996
 20
2.989999999999999
 30
0
 11
7.531999999999998
 21
2.989999999999999
 31
0
  0
LINE
  8
0
 62
7
 10
7.531999999999998
 20
2.989999999999999
 30
0
 11
7.538749999999997
 21
2.987499999999999
 31
0
  0
LINE
  8
0
 62
7
 10
7.538749999999997
 20
2.987499999999999
 30
0
 11
7.545499999999997
 21
2.982499999999999
 31
0
  0
LINE
  8
0
 62
7
 10
7.545499999999997
 20
2.982499999999999
 30
0
 11
7.549999999999997
 21
2.975
 31
0
  0
LINE
  8
0
 62
7
 10
7.549999999999997
 20
2.975
 30
0
 11
7.552249999999997
 21
2.964999999999999
 31
0
  0
LINE
  8
0
 62
7
 10
7.552249999999997
 20
2.964999999999999
 30
0
 11
7.552249999999997
 21
2.914999999999999
 31
0
  0
LINE
  8
0
 62
7
 10
7.552249999999997
 20
2.914999999999999
 30
0
 11
7.549999999999997
 21
2.904999999999999
 31
0
  0
LINE
  8
0
 62
7
 10
7.549999999999997
 20
2.904999999999999
 30
0
 11
7.545499999999997
 21
2.897499999999999
 31
0
  0
LINE
  8
0
 62
7
 10
7.545499999999997
 20
2.897499999999999
 30
0
 11
7.538749999999997
 21
2.892499999999999
 31
0
  0
LINE
  8
0
 62
7
 10
7.538749999999997
 20
2.892499999999999
 30
0
 11
7.531999999999998
 21
2.889999999999999
 31
0
  0
LINE
  8
0
 62
7
 10
7.531999999999998
 20
2.889999999999999
 30
0
 11
7.518499999999996
 21
2.889999999999999
 31
0
  0
LINE
  8
0
 62
7
 10
7.518499999999996
 20
2.889999999999999
 30
0
 11
7.511749999999998
 21
2.892499999999999
 31
0
  0
LINE
  8
0
 62
7
 10
7.511749999999998
 20
2.892499999999999
 30
0
 11
7.504999999999997
 21
2.897499999999999
 31
0
  0
LINE
  8
0
 62
7
 10
7.504999999999997
 20
2.897499999999999
 30
0
 11
7.500499999999999
 21
2.904999999999999
 31
0
  0
LINE
  8
0
 62
7
 10
7.500499999999999
 20
2.904999999999999
 30
0
 11
7.498249999999998
 21
2.914999999999999
 31
0
  0
LINE
  8
0
 62
7
 10
7.498249999999998
 20
2.914999999999999
 30
0
 11
7.498249999999998
 21
2.964999999999999
 31
0
  0
LINE
  8
0
 62
7
 10
7.579249999999998
 20
2.964999999999999
 30
0
 11
7.581499999999997
 21
2.975
 31
0
  0
LINE
  8
0
 62
7
 10
7.581499999999997
 20
2.975
 30
0
 11
7.585999999999998
 21
2.982499999999999
 31
0
  0
LINE
  8
0
 62
7
 10
7.585999999999998
 20
2.982499999999999
 30
0
 11
7.592749999999997
 21
2.987499999999999
 31
0
  0
LINE
  8
0
 62
7
 10
7.592749999999997
 20
2.987499999999999
 30
0
 11
7.599499999999998
 21
2.989999999999999
 31
0
  0
LINE
  8
0
 62
7
 10
7.599499999999998
 20
2.989999999999999
 30
0
 11
7.612999999999999
 21
2.989999999999999
 31
0
  0
LINE
  8
0
 62
7
 10
7.612999999999999
 20
2.989999999999999
 30
0
 11
7.619749999999996
 21
2.987499999999999
 31
0
  0
LINE
  8
0
 62
7
 10
7.619749999999996
 20
2.987499999999999
 30
0
 11
7.626499999999997
 21
2.982499999999999
 31
0
  0
LINE
  8
0
 62
7
 10
7.626499999999997
 20
2.982499999999999
 30
0
 11
7.630999999999997
 21
2.975
 31
0
  0
LINE
  8
0
 62
7
 10
7.630999999999997
 20
2.975
 30
0
 11
7.633249999999997
 21
2.964999999999999
 31
0
  0
LINE
  8
0
 62
7
 10
7.633249999999997
 20
2.964999999999999
 30
0
 11
7.633249999999997
 21
2.914999999999999
 31
0
  0
LINE
  8
0
 62
7
 10
7.633249999999997
 20
2.914999999999999
 30
0
 11
7.630999999999997
 21
2.904999999999999
 31
0
  0
LINE
  8
0
 62
7
 10
7.630999999999997
 20
2.904999999999999
 30
0
 11
7.626499999999997
 21
2.897499999999999
 31
0
  0
LINE
  8
0
 62
7
 10
7.626499999999997
 20
2.897499999999999
 30
0
 11
7.619749999999996
 21
2.892499999999999
 31
0
  0
LINE
  8
0
 62
7
 10
7.619749999999996
 20
2.892499999999999
 30
0
 11
7.612999999999999
 21
2.889999999999999
 31
0
  0
LINE
  8
0
 62
7
 10
7.612999999999999
 20
2.889999999999999
 30
0
 11
7.599499999999998
 21
2.889999999999999
 31
0
  0
LINE
  8
0
 62
7
 10
7.599499999999998
 20
2.889999999999999
 30
0
 11
7.592749999999997
 21
2.892499999999999
 31
0
  0
LINE
  8
0
 62
7
 10
7.592749999999997
 20
2.892499999999999
 30
0
 11
7.585999999999998
 21
2.897499999999999
 31
0
  0
LINE
  8
0
 62
7
 10
7.585999999999998
 20
2.897499999999999
 30
0
 11
7.581499999999997
 21
2.904999999999999
 31
0
  0
LINE
  8
0
 62
7
 10
7.581499999999997
 20
2.904999999999999
 30
0
 11
7.579249999999998
 21
2.914999999999999
 31
0
  0
LINE
  8
0
 62
7
 10
7.579249999999998
 20
2.914999999999999
 30
0
 11
7.579249999999998
 21
2.964999999999999
 31
0
  0
LINE
  8
0
 62
7
 10
7.783999999999996
 20
2.942499999999999
 30
0
 11
7.777249999999997
 21
2.952499999999999
 31
0
  0
LINE
  8
0
 62
7
 10
7.777249999999997
 20
2.952499999999999
 30
0
 11
7.770499999999998
 21
2.9575
 31
0
  0
LINE
  8
0
 62
7
 10
7.770499999999998
 20
2.9575
 30
0
 11
7.763749999999996
 21
2.959999999999999
 31
0
  0
LINE
  8
0
 62
7
 10
7.763749999999996
 20
2.959999999999999
 30
0
 11
7.754749999999998
 21
2.959999999999999
 31
0
  0
LINE
  8
0
 62
7
 10
7.754749999999998
 20
2.959999999999999
 30
0
 11
7.747999999999998
 21
2.9575
 31
0
  0
LINE
  8
0
 62
7
 10
7.747999999999998
 20
2.9575
 30
0
 11
7.741249999999997
 21
2.952499999999999
 31
0
  0
LINE
  8
0
 62
7
 10
7.741249999999997
 20
2.952499999999999
 30
0
 11
7.734499999999997
 21
2.942499999999999
 31
0
  0
LINE
  8
0
 62
7
 10
7.734499999999997
 20
2.942499999999999
 30
0
 11
7.732249999999997
 21
2.934999999999999
 31
0
  0
LINE
  8
0
 62
7
 10
7.732249999999997
 20
2.934999999999999
 30
0
 11
7.732249999999997
 21
2.914999999999999
 31
0
  0
LINE
  8
0
 62
7
 10
7.732249999999997
 20
2.914999999999999
 30
0
 11
7.734499999999997
 21
2.907499999999999
 31
0
  0
LINE
  8
0
 62
7
 10
7.734499999999997
 20
2.907499999999999
 30
0
 11
7.741249999999997
 21
2.897499999999999
 31
0
  0
LINE
  8
0
 62
7
 10
7.741249999999997
 20
2.897499999999999
 30
0
 11
7.747999999999998
 21
2.892499999999999
 31
0
  0
LINE
  8
0
 62
7
 10
7.747999999999998
 20
2.892499999999999
 30
0
 11
7.754749999999998
 21
2.889999999999999
 31
0
  0
LINE
  8
0
 62
7
 10
7.754749999999998
 20
2.889999999999999
 30
0
 11
7.763749999999996
 21
2.889999999999999
 31
0
  0
LINE
  8
0
 62
7
 10
7.763749999999996
 20
2.889999999999999
 30
0
 11
7.770499999999998
 21
2.892499999999999
 31
0
  0
LINE
  8
0
 62
7
 10
7.770499999999998
 20
2.892499999999999
 30
0
 11
7.777249999999997
 21
2.897499999999999
 31
0
  0
LINE
  8
0
 62
7
 10
7.777249999999997
 20
2.897499999999999
 30
0
 11
7.783999999999996
 21
2.907499999999999
 31
0
  0
LINE
  8
0
 62
7
 10
7.842499999999998
 20
2.934999999999999
 30
0
 11
7.842499999999998
 21
2.889999999999999
 31
0
  0
LINE
  8
0
 62
7
 10
7.801999999999997
 20
2.959999999999999
 30
0
 11
7.801999999999997
 21
2.934999999999999
 31
0
  0
LINE
  8
0
 62
7
 10
7.801999999999997
 20
2.889999999999999
 30
0
 11
7.801999999999997
 21
2.934999999999999
 31
0
  0
LINE
  8
0
 62
7
 10
7.801999999999997
 20
2.934999999999999
 30
0
 11
7.804249999999998
 21
2.947499999999999
 31
0
  0
LINE
  8
0
 62
7
 10
7.804249999999998
 20
2.947499999999999
 30
0
 11
7.806499999999997
 21
2.952499999999999
 31
0
  0
LINE
  8
0
 62
7
 10
7.806499999999997
 20
2.952499999999999
 30
0
 11
7.810999999999997
 21
2.9575
 31
0
  0
LINE
  8
0
 62
7
 10
7.810999999999997
 20
2.9575
 30
0
 11
7.817749999999997
 21
2.959999999999999
 31
0
  0
LINE
  8
0
 62
7
 10
7.817749999999997
 20
2.959999999999999
 30
0
 11
7.826749999999997
 21
2.959999999999999
 31
0
  0
LINE
  8
0
 62
7
 10
7.826749999999997
 20
2.959999999999999
 30
0
 11
7.833499999999997
 21
2.9575
 31
0
  0
LINE
  8
0
 62
7
 10
7.833499999999997
 20
2.9575
 30
0
 11
7.837999999999998
 21
2.952499999999999
 31
0
  0
LINE
  8
0
 62
7
 10
7.837999999999998
 20
2.952499999999999
 30
0
 11
7.840249999999997
 21
2.947499999999999
 31
0
  0
LINE
  8
0
 62
7
 10
7.840249999999997
 20
2.947499999999999
 30
0
 11
7.842499999999998
 21
2.934999999999999
 31
0
  0
LINE
  8
0
 62
7
 10
7.842499999999998
 20
2.934999999999999
 30
0
 11
7.844749999999997
 21
2.947499999999999
 31
0
  0
LINE
  8
0
 62
7
 10
7.844749999999997
 20
2.947499999999999
 30
0
 11
7.846999999999998
 21
2.952499999999999
 31
0
  0
LINE
  8
0
 62
7
 10
7.846999999999998
 20
2.952499999999999
 30
0
 11
7.851499999999998
 21
2.9575
 31
0
  0
LINE
  8
0
 62
7
 10
7.851499999999998
 20
2.9575
 30
0
 11
7.858249999999997
 21
2.959999999999999
 31
0
  0
LINE
  8
0
 62
7
 10
7.858249999999997
 20
2.959999999999999
 30
0
 11
7.867249999999998
 21
2.959999999999999
 31
0
  0
LINE
  8
0
 62
7
 10
7.867249999999998
 20
2.959999999999999
 30
0
 11
7.873999999999997
 21
2.9575
 31
0
  0
LINE
  8
0
 62
7
 10
7.878499999999997
 20
2.952499999999999
 30
0
 11
7.873999999999997
 21
2.9575
 31
0
  0
LINE
  8
0
 62
7
 10
7.873999999999997
 20
2.9575
 30
0
 11
7.878499999999997
 21
2.952499999999999
 31
0
  0
LINE
  8
0
 62
7
 10
7.878499999999997
 20
2.952499999999999
 30
0
 11
7.880749999999998
 21
2.947499999999999
 31
0
  0
LINE
  8
0
 62
7
 10
7.880749999999998
 20
2.947499999999999
 30
0
 11
7.882999999999997
 21
2.934999999999999
 31
0
  0
LINE
  8
0
 62
7
 10
7.882999999999997
 20
2.934999999999999
 30
0
 11
7.882999999999997
 21
2.889999999999999
 31
0
  0
ARC
  8
0
 62
7
 10
6.310410310357941
 20
3.635410310357929
 30
0
 40
0.5579999999999925
 50
359.9578690779076
 51
90.0421309217199
  0
ARC
  8
0
 62
7
 10
5.029589689642083
 20
3.635410310357939
 30
0
 40
0.5579999999999964
 50
89.9578690779089
 51
180.0421309199844
  0
CIRCLE
  8
0
 62
7
 10
4.471589840497463
 20
3.25
 30
0
 40
0.05999999999999961
  0
DIMENSION
  8
0
  6
CONTINUOUS
 62
7
  2
*D1
  3
DMST_1
 10
3.915
 20
11.5081567122709
 30
0
 11
5.64047911438062
 21
11.5081567122709
 31
0
 12
0
 22
0
 32
0
 70
0
 13
7.424999999999997
 23
11.2
 33
0
 14
3.915
 24
11.2
 34
0
 53
0
  0
DIMENSION
  8
0
  6
CONTINUOUS
 62
7
  2
*D2
  3
DMST_2
 10
3.41191105944471
 20
4.75
 30
0
 11
3.41191105944471
 21
4.05488604439902
 31
0
 12
0
 22
0
 32
0
 70
0
 13
3.74
 23
3.25
 33
0
 14
3.74
 24
4.75
 34
0
 50
90
 53
0
  0
DIMENSION
  8
0
  6
CONTINUOUS
 62
7
  2
*D3
  3
DMST_2
 10
3.915
 20
5.66823911315505
 30
0
 11
5.65819494748195
 21
5.66823911315505
 31
0
 12
0
 22
0
 32
0
 70
0
 13
7.424999999999997
 23
5.269999999999997
 33
0
 14
3.915
 24
5.269999999999997
 34
0
 53
0
  0
DIMENSION
  8
0
  6
CONTINUOUS
 62
7
  2
*D4
  3
DMST_2
 10
7.9292996519616
 20
4.750000000000001
 30
0
 11
7.9292996519616
 21
4.07970686084142
 31
0
 12
0
 22
0
 32
0
 70
0
 13
7.599999999999998
 23
3.35
 33
0
 14
7.599999999999998
 24
4.750000000000001
 34
0
 50
90
 53
0
  0
INSERT
  8
0
  2
*D0
 10
0
 20
0
 30
0
  0
ENDSEC
  0
EOF
