  0
SECTION
  2
HEADER
  9
$ACADVER
  1
AC1009
  9
$INSBASE
 10
0
 20
0
  9
$EXTMIN
 10
0.675
 20
2.500000000000002
  9
$EXTMAX
 10
8.250000000000007
 20
11.5114844909985
  9
$LIMMIN
 10
0.675
 20
2.500000000000002
  9
$LIMMAX
 10
8.250000000000007
 20
11.5114844909985
  9
$VIEWCTR
 10
10
 20
10
  9
$VIEWSIZE
 40
10
  9
$SNAPMODE
 70
0
  9
$SNAPUNIT
 10
1
 20
1
  9
$SNAPBASE
 10
0
 20
0
  9
$SNAPANG
 50
0
  9
$SNAPSTYLE
 70
0
  9
$SNAPISOPAIR
 70
0
  9
$GRIDMODE
 70
0
  9
$GRIDUNIT
 10
0
 20
0
  9
$ORTHOMODE
 70
0
  9
$REGENMODE
 70
1
  9
$FILLMODE
 70
1
  9
$QTEXTMODE
 70
0
  9
$DRAGMODE
 70
2
  9
$LTSCALE
 40
1
  9
$OSMODE
 70
0
  9
$ATTMODE
 70
1
  9
$TEXTSIZE
 40
3.5
  9
$TRACEWID
 40
0.5
  9
$TEXTSTYLE
  7
STANDARD
  9
$CLAYER
  8
0
  9
$CELTYPE
  6
BYLAYER
  9
$CECOLOR
 62
256
  9
$DIMSCALE
 40
1
  9
$DIMASZ
 40
0.18
  9
$DIMEXO
 40
0.0625
  9
$DIMDLI
 40
0.38
  9
$DIMRND
 40
0
  9
$DIMDLE
 40
0
  9
$DIMEXE
 40
0.18
  9
$DIMTP
 40
0
  9
$DIMTM
 40
0
  9
$DIMTXT
 40
0.18
  9
$DIMCEN
 40
0.09
  9
$DIMTSZ
 40
0
  9
$DIMTOL
 70
0
  9
$DIMLIM
 70
0
  9
$DIMTIH
 70
1
  9
$DIMTOH
 70
1
  9
$DIMSE1
 70
0
  9
$DIMSE2
 70
0
  9
$DIMTAD
 70
0
  9
$DIMZIN
 70
0
  9
$DIMBLK
  1

  9
$DIMASO
 70
1
  9
$DIMSHO
 70
1
  9
$DIMPOST
  1

  9
$DIMAPOST
  1

  9
$DIMALT
 70
0
  9
$DIMALTD
 70
2
  9
$DIMALTF
 40
25.4
  9
$DIMLFAC
 40
1
  9
$DIMTOFL
 70
0
  9
$DIMTVP
 40
0
  9
$DIMTIX
 70
0
  9
$DIMSOXD
 70
0
  9
$DIMSAH
 70
0
  9
$DIMBLK1
  1

  9
$DIMBLK2
  1

  9
$DIMSTYLE
  2
*UNNAMED
  9
$DIMCLRD
 70
0
  9
$DIMCLRE
 70
0
  9
$DIMCLRT
 70
0
  9
$DIMTFAC
 40
1
  9
$DIMGAP
 40
0.09
  9
$LUNITS
 70
2
  9
$LUPREC
 70
4
  9
$AXISMODE
 70
0
  9
$AXISUNIT
 10
0
 20
0
  9
$SKETCHINC
 40
0.1
  9
$FILLETRAD
 40
2
  9
$AUNITS
 70
0
  9
$AUPREC
 70
0
  9
$MENU
  1
ACAD
  9
$ELEVATION
 40
0
  9
$THICKNESS
 40
0
  9
$VIEWDIR
 10
0
 20
0
 30
1
  9
$LIMCHECK
 70
0
  9
$BLIPMODE
 70
1
  9
$CHAMFERA
 40
0
  9
$CHAMFERB
 40
0
  9
$FASTZOOM
 70
1
  9
$SKPOLY
 70
0
  9
$ANGBASE
 50
0
  9
$ANGDIR
 70
0
  9
$PDMODE
 70
0
  9
$PDSIZE
 40
0
  9
$PLINEWID
 40
0
  9
$COORDS
 70
2
  0
ENDSEC
  0
SECTION
  2
TABLES
  0
TABLE
  2
DIMSTYLE
 70
1
  0
DIMSTYLE
  2
DMST_1
 70
0
  3

  4

  5

  6

  7

 40
1
 41
0.1
 42
0
 43
0.7
 44
0.2
 45
0
 46
0
 47
0
 48
0
140
0.1
141
0
142
0.1
143
25.4
144
1
145
0
146
1
147
0.25
 71
0
 72
0
 73
0
 74
0
 75
0
 76
0
 77
0
 78
9
170
0
171
2
172
0
173
0
174
0
175
0
176
7
177
7
178
7
  0
ENDTAB
  0
TABLE
  2
LTYPE
 70
9
  0
LTYPE
  2
CONTINUOUS
 70
64
  3
Solid line
 72
65
 73
0
 40
0
  0
LTYPE
  2
BORDER
 70
64
  3
__ __ . __ __ .
 72
65
 73
6
 40
0.4150025752433519
 49
0.1185721643552434
 49
-0.0592860821776217
 49
0.1185721643552434
 49
-0.0592860821776217
 49
0
 49
-0.0592860821776217
  0
LTYPE
  2
CENTER
 70
64
  3
____ _ ____ _
 72
65
 73
4
 40
0.4742886574209736
 49
0.2964304108881085
 49
-0.0592860821776217
 49
0.0592860821776217
 49
-0.0592860821776217
  0
LTYPE
  2
DASHDOT
 70
64
  3
__ . __ . __ .
 72
65
 73
4
 40
0.2371443287104868
 49
0.1185721643552434
 49
-0.0592860821776217
 49
0
 49
-0.0592860821776217
  0
LTYPE
  2
DASHED
 70
64
  3
__ __ __ __ __
 72
65
 73
2
 40
0.1778582465328651
 49
0.1185721643552434
 49
-0.0592860821776217
  0
LTYPE
  2
DIVIDE
 70
64
  3
__ . . __ . . 
 72
65
 73
6
 40
0.2964304108881085
 49
0.1185721643552434
 49
-0.0592860821776217
 49
0
 49
-0.0592860821776217
 49
0
 49
-0.0592860821776217
  0
LTYPE
  2
DOT
 70
64
  3
..............
 72
65
 73
4
 40
0.1185721643552434
 49
0
 49
-0.0592860821776217
 49
0
 49
-0.0592860821776217
  0
LTYPE
  2
HIDDEN
 70
64
  3
_ _ _ _ _ _ _
 72
65
 73
2
 40
0.08892912326643254
 49
0.0592860821776217
 49
-0.02964304108881085
  0
LTYPE
  2
PHANTOM
 70
64
  3
_____ _ _ _____ _ _ 
 72
65
 73
6
 40
0.592860821776217
 49
0.2964304108881085
 49
-0.0592860821776217
 49
0.0592860821776217
 49
-0.0592860821776217
 49
0.0592860821776217
 49
-0.0592860821776217
  0
ENDTAB
  0
TABLE
  2
LAYER
 70
2
  0
LAYER
  2
0
 70
0
 62
7
  6
CONTINUOUS
  0
ENDTAB
  0
TABLE
  2
STYLE
 70
4
  0
STYLE
  2
STANDARD
 70
0
 40
0
 41
1
 50
0
 71
0
 42
3.5
  3
txt
  4

  0
STYLE
  2
SIMPLEX
 70
0
 40
0
 41
1
 50
0
 71
0
 42
3.5
  3
simplex
  4

  0
STYLE
  2
COMPLEX
 70
0
 40
0
 41
1
 50
0
 71
0
 42
3.5
  3
complex
  4

  0
STYLE
  2
ITALIC
 70
0
 40
0
 41
1
 50
0
 71
0
 42
3.5
  3
italic
  4

  0
ENDTAB
  0
TABLE
  2
VIEW
 70
0
  0
ENDTAB
  0
ENDSEC
  0
SECTION
  2
BLOCKS
  0
BLOCK
  8
0
  2
*X0
 70
1
 10
0
 20
0
 30
0
  0
LINE
  8
0
 62
7
 10
1.25
 20
4.644112549695427
 30
0
 11
1.355887450304572
 21
4.750000000000003
 31
0
  0
LINE
  8
0
 62
7
 10
1.25
 20
4.431980515339463
 30
0
 11
1.568019484660536
 21
4.750000000000003
 31
0
  0
LINE
  8
0
 62
7
 10
1.540151519016504
 20
4.510000000000002
 30
0
 11
1.7801515190165
 21
4.750000000000003
 31
0
  0
LINE
  8
0
 62
7
 10
1.25
 20
4.219848480983499
 30
0
 11
1.425
 21
4.394848480983499
 31
0
  0
LINE
  8
0
 62
7
 10
1.752283553372469
 20
4.510000000000002
 30
0
 11
1.992283553372465
 21
4.750000000000003
 31
0
  0
LINE
  8
0
 62
7
 10
1.25
 20
4.007716446627535
 30
0
 11
1.425
 21
4.182716446627535
 31
0
  0
LINE
  8
0
 62
7
 10
1.964415587728433
 20
4.510000000000002
 30
0
 11
2.204415587728429
 21
4.750000000000003
 31
0
  0
LINE
  8
0
 62
7
 10
1.25
 20
3.795584412271571
 30
0
 11
1.425
 21
3.970584412271571
 31
0
  0
LINE
  8
0
 62
7
 10
2.176547622084397
 20
4.510000000000002
 30
0
 11
2.416547622084393
 21
4.750000000000003
 31
0
  0
LINE
  8
0
 62
7
 10
1.25
 20
3.583452377915607
 30
0
 11
1.425
 21
3.758452377915607
 31
0
  0
LINE
  8
0
 62
7
 10
2.388679656440361
 20
4.510000000000002
 30
0
 11
2.628679656440358
 21
4.750000000000003
 31
0
  0
LINE
  8
0
 62
7
 10
1.25
 20
3.371320343559643
 30
0
 11
1.425
 21
3.546320343559643
 31
0
  0
LINE
  8
0
 62
7
 10
2.600811690796326
 20
4.510000000000002
 30
0
 11
2.840811690796322
 21
4.750000000000003
 31
0
  0
LINE
  8
0
 62
7
 10
2.81294372515229
 20
4.510000000000002
 30
0
 11
3.052943725152286
 21
4.750000000000003
 31
0
  0
LINE
  8
0
 62
7
 10
3.025075759508254
 20
4.510000000000002
 30
0
 11
3.26507575950825
 21
4.750000000000003
 31
0
  0
LINE
  8
0
 62
7
 10
3.237207793864219
 20
4.510000000000002
 30
0
 11
3.477207793864215
 21
4.750000000000003
 31
0
  0
LINE
  8
0
 62
7
 10
3.449339828220183
 20
4.510000000000002
 30
0
 11
3.689339828220179
 21
4.750000000000003
 31
0
  0
LINE
  8
0
 62
7
 10
3.661471862576147
 20
4.510000000000002
 30
0
 11
3.901471862576143
 21
4.750000000000003
 31
0
  0
LINE
  8
0
 62
7
 10
3.873603896932111
 20
4.510000000000002
 30
0
 11
4.113603896932108
 21
4.750000000000003
 31
0
  0
LINE
  8
0
 62
7
 10
4.085735931288076
 20
4.510000000000002
 30
0
 11
4.325735931288072
 21
4.750000000000003
 31
0
  0
LINE
  8
0
 62
7
 10
4.29786796564404
 20
4.510000000000002
 30
0
 11
4.537867965644037
 21
4.750000000000003
 31
0
  0
LINE
  8
0
 62
7
 10
4.510000000000003
 20
4.510000000000002
 30
0
 11
4.750000000000002
 21
4.750000000000003
 31
0
  0
LINE
  8
0
 62
7
 10
4.722132034355967
 20
4.510000000000002
 30
0
 11
4.962132034355967
 21
4.750000000000003
 31
0
  0
LINE
  8
0
 62
7
 10
4.934264068711931
 20
4.510000000000002
 30
0
 11
5.174264068711931
 21
4.750000000000003
 31
0
  0
LINE
  8
0
 62
7
 10
5.146396103067895
 20
4.510000000000002
 30
0
 11
5.285000000000007
 21
4.648603896932114
 31
0
  0
ENDBLK
  8
0
  0
BLOCK
  8
0
  2
*X1
 70
1
 10
0
 20
0
 30
0
  0
LINE
  8
0
 62
7
 10
1.267840917787126
 20
7.949999999999999
 30
0
 11
1.417840917787125
 21
8.099999999999998
 31
0
  0
LINE
  8
0
 62
7
 10
1.25
 20
8.038225099390855
 30
0
 11
1.311774900609143
 21
8.099999999999998
 31
0
  0
LINE
  8
0
 62
7
 10
1.373906934965109
 20
7.949999999999999
 30
0
 11
1.424999999999999
 21
8.00109306503489
 31
0
  0
ENDBLK
  8
0
  0
BLOCK
  8
0
  2
*X2
 70
1
 10
0
 20
0
 30
0
  0
LINE
  8
0
 62
7
 10
1.249999999999999
 20
10.6898755288404
 30
0
 11
1.410124471159582
 21
10.84999999999999
 31
0
  0
LINE
  8
0
 62
7
 10
1.249999999999999
 20
10.47774349448444
 30
0
 11
1.424999999999999
 21
10.65274349448444
 31
0
  0
LINE
  8
0
 62
7
 10
1.249999999999999
 20
10.26561146012848
 30
0
 11
1.424999999999999
 21
10.44061146012847
 31
0
  0
LINE
  8
0
 62
7
 10
1.249999999999999
 20
10.05347942577251
 30
0
 11
1.424999999999999
 21
10.22847942577251
 31
0
  0
LINE
  8
0
 62
7
 10
1.249999999999999
 20
9.841347391416548
 30
0
 11
1.424999999999999
 21
10.01634739141655
 31
0
  0
LINE
  8
0
 62
7
 10
1.249999999999999
 20
9.629215357060584
 30
0
 11
1.424999999999999
 21
9.804215357060583
 31
0
  0
LINE
  8
0
 62
7
 10
1.249999999999999
 20
9.41708332270462
 30
0
 11
1.424999999999999
 21
9.592083322704619
 31
0
  0
LINE
  8
0
 62
7
 10
1.249999999999999
 20
9.204951288348656
 30
0
 11
1.424999999999999
 21
9.379951288348655
 31
0
  0
LINE
  8
0
 62
7
 10
1.249999999999999
 20
8.992819253992693
 30
0
 11
1.424999999999999
 21
9.167819253992691
 31
0
  0
LINE
  8
0
 62
7
 10
1.249999999999999
 20
8.780687219636729
 30
0
 11
1.424999999999999
 21
8.955687219636728
 31
0
  0
LINE
  8
0
 62
7
 10
1.249999999999999
 20
8.568555185280765
 30
0
 11
1.424999999999999
 21
8.743555185280764
 31
0
  0
LINE
  8
0
 62
7
 10
1.249999999999999
 20
8.356423150924801
 30
0
 11
1.424999999999999
 21
8.5314231509248
 31
0
  0
LINE
  8
0
 62
7
 10
1.405708883431161
 20
8.299999999999999
 30
0
 11
1.424999999999999
 21
8.319291116568836
 31
0
  0
LINE
  8
0
 62
7
 10
1.25
 20
10.79594154601839
 30
0
 11
1.3040584539816
 21
10.84999999999999
 31
0
  0
LINE
  8
0
 62
7
 10
1.25
 20
10.58380951166242
 30
0
 11
1.425
 21
10.75880951166242
 31
0
  0
LINE
  8
0
 62
7
 10
1.25
 20
10.37167747730646
 30
0
 11
1.425
 21
10.54667747730646
 31
0
  0
LINE
  8
0
 62
7
 10
1.25
 20
10.1595454429505
 30
0
 11
1.425
 21
10.33454544295049
 31
0
  0
LINE
  8
0
 62
7
 10
1.25
 20
9.947413408594532
 30
0
 11
1.425
 21
10.12241340859453
 31
0
  0
LINE
  8
0
 62
7
 10
1.25
 20
9.735281374238568
 30
0
 11
1.425
 21
9.910281374238567
 31
0
  0
LINE
  8
0
 62
7
 10
1.25
 20
9.523149339882604
 30
0
 11
1.425
 21
9.698149339882603
 31
0
  0
LINE
  8
0
 62
7
 10
1.25
 20
9.31101730552664
 30
0
 11
1.425
 21
9.486017305526639
 31
0
  0
LINE
  8
0
 62
7
 10
1.25
 20
9.098885271170676
 30
0
 11
1.425
 21
9.273885271170675
 31
0
  0
LINE
  8
0
 62
7
 10
1.25
 20
8.886753236814712
 30
0
 11
1.425
 21
9.061753236814711
 31
0
  0
LINE
  8
0
 62
7
 10
1.25
 20
8.674621202458749
 30
0
 11
1.425
 21
8.849621202458748
 31
0
  0
LINE
  8
0
 62
7
 10
1.25
 20
8.462489168102785
 30
0
 11
1.425
 21
8.637489168102784
 31
0
  0
LINE
  8
0
 62
7
 10
1.299642866253178
 20
8.299999999999997
 30
0
 11
1.425
 21
8.42535713374682
 31
0
  0
ENDBLK
  8
0
  0
BLOCK
  8
0
  2
*X3
 70
1
 10
0
 20
0
 30
0
  0
LINE
  8
0
 62
7
 10
1.25
 20
11.11413959755234
 30
0
 11
1.335860402447654
 21
11.19999999999999
 31
0
  0
LINE
  8
0
 62
7
 10
1.397992436803618
 20
11.04999999999999
 30
0
 11
1.425
 21
11.07700756319637
 31
0
  0
LINE
  8
0
 62
7
 10
1.291926419625636
 20
11.04999999999999
 30
0
 11
1.425
 21
11.18307358037436
 31
0
  0
ENDBLK
  8
0
  0
BLOCK
  8
0
  2
*X4
 70
1
 10
0
 20
0
 30
0
  0
LINE
  8
0
 62
7
  6
DASHED
 10
1.1
 20
8.206423150924801
 30
0
 11
1.193576849075198
 21
8.299999999999997
 31
0
  0
LINE
  8
0
 62
7
  6
DASHED
 10
1.205708883431162
 20
8.099999999999998
 30
0
 11
1.405708883431162
 21
8.299999999999997
 31
0
  0
LINE
  8
0
 62
7
  6
DASHED
 10
1.417840917787127
 20
8.099999999999998
 30
0
 11
1.617840917787126
 21
8.299999999999997
 31
0
  0
LINE
  8
0
 62
7
  6
DASHED
 10
1.629972952143091
 20
8.099999999999998
 30
0
 11
1.829972952143091
 21
8.299999999999997
 31
0
  0
LINE
  8
0
 62
7
  6
DASHED
 10
1.842104986499055
 20
8.099999999999998
 30
0
 11
2.042104986499055
 21
8.299999999999997
 31
0
  0
LINE
  8
0
 62
7
  6
DASHED
 10
2.05423702085502
 20
8.099999999999998
 30
0
 11
2.254237020855019
 21
8.299999999999997
 31
0
  0
LINE
  8
0
 62
7
  6
DASHED
 10
2.266369055210984
 20
8.099999999999998
 30
0
 11
2.466369055210984
 21
8.299999999999997
 31
0
  0
LINE
  8
0
 62
7
  6
DASHED
 10
2.478501089566948
 20
8.099999999999998
 30
0
 11
2.678501089566948
 21
8.299999999999997
 31
0
  0
LINE
  8
0
 62
7
  6
DASHED
 10
2.690633123922912
 20
8.099999999999998
 30
0
 11
2.890633123922912
 21
8.299999999999997
 31
0
  0
LINE
  8
0
 62
7
  6
DASHED
 10
2.902765158278877
 20
8.099999999999998
 30
0
 11
3.102765158278876
 21
8.299999999999997
 31
0
  0
LINE
  8
0
 62
7
  6
DASHED
 10
3.114897192634841
 20
8.099999999999998
 30
0
 11
3.314897192634841
 21
8.299999999999997
 31
0
  0
LINE
  8
0
 62
7
  6
DASHED
 10
3.327029226990805
 20
8.099999999999998
 30
0
 11
3.527029226990805
 21
8.299999999999997
 31
0
  0
LINE
  8
0
 62
7
  6
DASHED
 10
3.53916126134677
 20
8.099999999999998
 30
0
 11
3.739161261346769
 21
8.299999999999997
 31
0
  0
LINE
  8
0
 62
7
  6
DASHED
 10
3.751293295702734
 20
8.099999999999998
 30
0
 11
3.951293295702734
 21
8.299999999999997
 31
0
  0
LINE
  8
0
 62
7
  6
DASHED
 10
3.963425330058698
 20
8.099999999999998
 30
0
 11
4.163425330058698
 21
8.299999999999997
 31
0
  0
LINE
  8
0
 62
7
  6
DASHED
 10
4.175557364414662
 20
8.099999999999998
 30
0
 11
4.375557364414662
 21
8.299999999999997
 31
0
  0
LINE
  8
0
 62
7
  6
DASHED
 10
4.387689398770626
 20
8.099999999999998
 30
0
 11
4.587689398770626
 21
8.299999999999997
 31
0
  0
LINE
  8
0
 62
7
  6
DASHED
 10
4.59982143312659
 20
8.099999999999998
 30
0
 11
4.799821433126589
 21
8.299999999999997
 31
0
  0
LINE
  8
0
 62
7
  6
DASHED
 10
4.811953467482554
 20
8.099999999999998
 30
0
 11
5.011953467482553
 21
8.299999999999997
 31
0
  0
LINE
  8
0
 62
7
  6
DASHED
 10
5.024085501838518
 20
8.099999999999998
 30
0
 11
5.224085501838517
 21
8.299999999999997
 31
0
  0
LINE
  8
0
 62
7
  6
DASHED
 10
5.236217536194482
 20
8.099999999999998
 30
0
 11
5.325000000000011
 21
8.188782463805527
 31
0
  0
LINE
  8
0
 62
7
 10
1.100000000000001
 20
8.100357133746821
 30
0
 11
1.299642866253179
 21
8.299999999999997
 31
0
  0
LINE
  8
0
 62
7
 10
1.311774900609146
 20
8.1
 30
0
 11
1.511774900609144
 21
8.299999999999997
 31
0
  0
LINE
  8
0
 62
7
 10
1.52390693496511
 20
8.1
 30
0
 11
1.723906934965108
 21
8.299999999999997
 31
0
  0
LINE
  8
0
 62
7
 10
1.736038969321074
 20
8.1
 30
0
 11
1.936038969321072
 21
8.299999999999997
 31
0
  0
LINE
  8
0
 62
7
 10
1.948171003677039
 20
8.1
 30
0
 11
2.148171003677037
 21
8.299999999999997
 31
0
  0
LINE
  8
0
 62
7
 10
2.160303038033003
 20
8.1
 30
0
 11
2.360303038033001
 21
8.299999999999997
 31
0
  0
LINE
  8
0
 62
7
 10
2.372435072388967
 20
8.1
 30
0
 11
2.572435072388965
 21
8.299999999999997
 31
0
  0
LINE
  8
0
 62
7
 10
2.584567106744931
 20
8.1
 30
0
 11
2.784567106744929
 21
8.299999999999997
 31
0
  0
LINE
  8
0
 62
7
 10
2.796699141100896
 20
8.1
 30
0
 11
2.996699141100894
 21
8.299999999999997
 31
0
  0
LINE
  8
0
 62
7
 10
3.00883117545686
 20
8.1
 30
0
 11
3.208831175456858
 21
8.299999999999997
 31
0
  0
LINE
  8
0
 62
7
 10
3.220963209812824
 20
8.1
 30
0
 11
3.420963209812822
 21
8.299999999999997
 31
0
  0
LINE
  8
0
 62
7
 10
3.433095244168789
 20
8.1
 30
0
 11
3.633095244168786
 21
8.299999999999997
 31
0
  0
LINE
  8
0
 62
7
 10
3.645227278524753
 20
8.1
 30
0
 11
3.845227278524751
 21
8.299999999999997
 31
0
  0
LINE
  8
0
 62
7
 10
3.857359312880717
 20
8.1
 30
0
 11
4.057359312880715
 21
8.299999999999997
 31
0
  0
LINE
  8
0
 62
7
 10
4.069491347236681
 20
8.1
 30
0
 11
4.269491347236679
 21
8.299999999999997
 31
0
  0
LINE
  8
0
 62
7
 10
4.281623381592645
 20
8.1
 30
0
 11
4.481623381592643
 21
8.299999999999997
 31
0
  0
LINE
  8
0
 62
7
 10
4.493755415948609
 20
8.1
 30
0
 11
4.693755415948607
 21
8.299999999999997
 31
0
  0
LINE
  8
0
 62
7
 10
4.705887450304573
 20
8.1
 30
0
 11
4.90588745030457
 21
8.299999999999997
 31
0
  0
LINE
  8
0
 62
7
 10
4.918019484660537
 20
8.1
 30
0
 11
5.118019484660534
 21
8.299999999999997
 31
0
  0
LINE
  8
0
 62
7
 10
5.130151519016501
 20
8.1
 30
0
 11
5.32500000000001
 21
8.294848480983509
 31
0
  0
ENDBLK
  8
0
  0
BLOCK
  8
0
  2
*X5
 70
1
 10
0
 20
0
 30
0
  0
LINE
  8
0
 62
7
  6
DASHED
 10
1.100000000000001
 20
10.96413959755234
 30
0
 11
1.185860402447656
 21
11.04999999999999
 31
0
  0
LINE
  8
0
 62
7
  6
DASHED
 10
1.197992436803621
 20
10.84999999999999
 30
0
 11
1.39799243680362
 21
11.04999999999999
 31
0
  0
LINE
  8
0
 62
7
  6
DASHED
 10
1.410124471159585
 20
10.84999999999999
 30
0
 11
1.610124471159584
 21
11.04999999999999
 31
0
  0
LINE
  8
0
 62
7
  6
DASHED
 10
1.62225650551555
 20
10.84999999999999
 30
0
 11
1.822256505515548
 21
11.04999999999999
 31
0
  0
LINE
  8
0
 62
7
  6
DASHED
 10
1.834388539871514
 20
10.84999999999999
 30
0
 11
2.034388539871513
 21
11.04999999999999
 31
0
  0
LINE
  8
0
 62
7
  6
DASHED
 10
2.046520574227478
 20
10.84999999999999
 30
0
 11
2.246520574227477
 21
11.04999999999999
 31
0
  0
LINE
  8
0
 62
7
  6
DASHED
 10
2.258652608583442
 20
10.84999999999999
 30
0
 11
2.458652608583441
 21
11.04999999999999
 31
0
  0
LINE
  8
0
 62
7
  6
DASHED
 10
2.470784642939407
 20
10.84999999999999
 30
0
 11
2.670784642939406
 21
11.04999999999999
 31
0
  0
LINE
  8
0
 62
7
  6
DASHED
 10
2.682916677295371
 20
10.84999999999999
 30
0
 11
2.88291667729537
 21
11.04999999999999
 31
0
  0
LINE
  8
0
 62
7
  6
DASHED
 10
2.895048711651335
 20
10.84999999999999
 30
0
 11
3.095048711651334
 21
11.04999999999999
 31
0
  0
LINE
  8
0
 62
7
  6
DASHED
 10
3.1071807460073
 20
10.84999999999999
 30
0
 11
3.307180746007298
 21
11.04999999999999
 31
0
  0
LINE
  8
0
 62
7
  6
DASHED
 10
3.319312780363264
 20
10.84999999999999
 30
0
 11
3.519312780363263
 21
11.04999999999999
 31
0
  0
LINE
  8
0
 62
7
  6
DASHED
 10
3.531444814719228
 20
10.84999999999999
 30
0
 11
3.731444814719227
 21
11.04999999999999
 31
0
  0
LINE
  8
0
 62
7
  6
DASHED
 10
3.743576849075192
 20
10.84999999999999
 30
0
 11
3.943576849075191
 21
11.04999999999999
 31
0
  0
LINE
  8
0
 62
7
  6
DASHED
 10
3.955708883431157
 20
10.84999999999999
 30
0
 11
4.155708883431156
 21
11.04999999999999
 31
0
  0
LINE
  8
0
 62
7
  6
DASHED
 10
4.167840917787121
 20
10.84999999999999
 30
0
 11
4.367840917787119
 21
11.04999999999999
 31
0
  0
LINE
  8
0
 62
7
  6
DASHED
 10
4.379972952143085
 20
10.84999999999999
 30
0
 11
4.579972952143083
 21
11.04999999999999
 31
0
  0
LINE
  8
0
 62
7
  6
DASHED
 10
4.592104986499049
 20
10.84999999999999
 30
0
 11
4.792104986499047
 21
11.04999999999999
 31
0
  0
LINE
  8
0
 62
7
  6
DASHED
 10
4.804237020855012
 20
10.84999999999999
 30
0
 11
5.004237020855011
 21
11.04999999999999
 31
0
  0
LINE
  8
0
 62
7
  6
DASHED
 10
5.016369055210976
 20
10.84999999999999
 30
0
 11
5.216369055210975
 21
11.04999999999999
 31
0
  0
LINE
  8
0
 62
7
  6
DASHED
 10
5.22850108956694
 20
10.84999999999999
 30
0
 11
5.325000000000012
 21
10.94649891043306
 31
0
  0
LINE
  8
0
 62
7
 10
1.100000000000001
 20
10.85807358037436
 30
0
 11
1.291926419625639
 21
11.04999999999999
 31
0
  0
LINE
  8
0
 62
7
 10
1.304058453981603
 20
10.84999999999999
 30
0
 11
1.504058453981603
 21
11.04999999999999
 31
0
  0
LINE
  8
0
 62
7
 10
1.516190488337568
 20
10.84999999999999
 30
0
 11
1.716190488337567
 21
11.04999999999999
 31
0
  0
LINE
  8
0
 62
7
 10
1.728322522693532
 20
10.84999999999999
 30
0
 11
1.928322522693532
 21
11.04999999999999
 31
0
  0
LINE
  8
0
 62
7
 10
1.940454557049496
 20
10.84999999999999
 30
0
 11
2.140454557049496
 21
11.04999999999999
 31
0
  0
LINE
  8
0
 62
7
 10
2.15258659140546
 20
10.84999999999999
 30
0
 11
2.35258659140546
 21
11.04999999999999
 31
0
  0
LINE
  8
0
 62
7
 10
2.364718625761425
 20
10.84999999999999
 30
0
 11
2.564718625761425
 21
11.04999999999999
 31
0
  0
LINE
  8
0
 62
7
 10
2.576850660117389
 20
10.84999999999999
 30
0
 11
2.776850660117389
 21
11.04999999999999
 31
0
  0
LINE
  8
0
 62
7
 10
2.788982694473353
 20
10.84999999999999
 30
0
 11
2.988982694473353
 21
11.04999999999999
 31
0
  0
LINE
  8
0
 62
7
 10
3.001114728829318
 20
10.84999999999999
 30
0
 11
3.201114728829317
 21
11.04999999999999
 31
0
  0
LINE
  8
0
 62
7
 10
3.213246763185282
 20
10.84999999999999
 30
0
 11
3.413246763185282
 21
11.04999999999999
 31
0
  0
LINE
  8
0
 62
7
 10
3.425378797541246
 20
10.84999999999999
 30
0
 11
3.625378797541246
 21
11.04999999999999
 31
0
  0
LINE
  8
0
 62
7
 10
3.63751083189721
 20
10.84999999999999
 30
0
 11
3.83751083189721
 21
11.04999999999999
 31
0
  0
LINE
  8
0
 62
7
 10
3.849642866253175
 20
10.84999999999999
 30
0
 11
4.049642866253174
 21
11.04999999999999
 31
0
  0
LINE
  8
0
 62
7
 10
4.061774900609139
 20
10.84999999999999
 30
0
 11
4.261774900609138
 21
11.04999999999999
 31
0
  0
LINE
  8
0
 62
7
 10
4.273906934965103
 20
10.84999999999999
 30
0
 11
4.473906934965102
 21
11.04999999999999
 31
0
  0
LINE
  8
0
 62
7
 10
4.486038969321067
 20
10.84999999999999
 30
0
 11
4.686038969321066
 21
11.04999999999999
 31
0
  0
LINE
  8
0
 62
7
 10
4.698171003677031
 20
10.84999999999999
 30
0
 11
4.89817100367703
 21
11.04999999999999
 31
0
  0
LINE
  8
0
 62
7
 10
4.910303038032994
 20
10.84999999999999
 30
0
 11
5.110303038032994
 21
11.04999999999999
 31
0
  0
LINE
  8
0
 62
7
 10
5.122435072388958
 20
10.84999999999999
 30
0
 11
5.322435072388958
 21
11.04999999999999
 31
0
  0
ENDBLK
  8
0
  0
BLOCK
  8
0
  2
*X6
 70
1
 10
0
 20
0
 30
0
  0
LINE
  8
0
 62
7
 10
7.960000000000009
 20
8.06606601717799
 30
0
 11
7.993933982822015
 21
8.099999999999998
 31
0
  0
LINE
  8
0
 62
7
 10
8.056066017177983
 20
7.95
 30
0
 11
8.200000000000008
 21
8.093933982822023
 31
0
  0
LINE
  8
0
 62
7
 10
7.960000000000009
 20
7.960000000000007
 30
0
 11
8.099999999999998
 21
8.099999999999998
 31
0
  0
LINE
  8
0
 62
7
 10
8.162132034355965
 20
7.949999999999999
 30
0
 11
8.200000000000008
 21
7.987867965644043
 31
0
  0
ENDBLK
  8
0
  0
BLOCK
  8
0
  2
*X7
 70
1
 10
0
 20
0
 30
0
  0
LINE
  8
0
 62
7
 10
7.960000000000008
 20
10.82378246380552
 30
0
 11
7.986217536194475
 21
10.84999999999999
 31
0
  0
LINE
  8
0
 62
7
 10
7.960000000000008
 20
10.61165042944956
 30
0
 11
8.198349570550439
 21
10.84999999999999
 31
0
  0
LINE
  8
0
 62
7
 10
7.960000000000008
 20
10.39951839509359
 30
0
 11
8.200000000000008
 21
10.63951839509359
 31
0
  0
LINE
  8
0
 62
7
 10
7.960000000000008
 20
10.18738636073763
 30
0
 11
8.200000000000008
 21
10.42738636073763
 31
0
  0
LINE
  8
0
 62
7
 10
7.960000000000008
 20
9.975254326381664
 30
0
 11
8.200000000000008
 21
10.21525432638166
 31
0
  0
LINE
  8
0
 62
7
 10
7.960000000000008
 20
9.763122292025701
 30
0
 11
8.200000000000008
 21
10.0031222920257
 31
0
  0
LINE
  8
0
 62
7
 10
7.960000000000008
 20
9.550990257669737
 30
0
 11
8.200000000000008
 21
9.790990257669737
 31
0
  0
LINE
  8
0
 62
7
 10
7.960000000000008
 20
9.338858223313773
 30
0
 11
8.200000000000008
 21
9.578858223313773
 31
0
  0
LINE
  8
0
 62
7
 10
7.960000000000008
 20
9.126726188957809
 30
0
 11
8.200000000000008
 21
9.366726188957809
 31
0
  0
LINE
  8
0
 62
7
 10
7.960000000000008
 20
8.914594154601845
 30
0
 11
8.200000000000008
 21
9.154594154601845
 31
0
  0
LINE
  8
0
 62
7
 10
7.960000000000008
 20
8.702462120245881
 30
0
 11
8.200000000000008
 21
8.942462120245882
 31
0
  0
LINE
  8
0
 62
7
 10
7.960000000000008
 20
8.490330085889918
 30
0
 11
8.200000000000008
 21
8.730330085889918
 31
0
  0
LINE
  8
0
 62
7
 10
7.98180194846605
 20
8.299999999999997
 30
0
 11
8.200000000000008
 21
8.518198051533954
 31
0
  0
LINE
  8
0
 62
7
 10
8.193933982822013
 20
8.299999999999997
 30
0
 11
8.200000000000008
 21
8.30606601717799
 31
0
  0
LINE
  8
0
 62
7
 10
7.960000000000008
 20
10.71771644662754
 30
0
 11
8.092283553372457
 21
10.84999999999999
 31
0
  0
LINE
  8
0
 62
7
 10
7.960000000000008
 20
10.50558441227157
 30
0
 11
8.200000000000008
 21
10.74558441227157
 31
0
  0
LINE
  8
0
 62
7
 10
7.960000000000008
 20
10.29345237791561
 30
0
 11
8.200000000000008
 21
10.53345237791561
 31
0
  0
LINE
  8
0
 62
7
 10
7.960000000000008
 20
10.08132034355964
 30
0
 11
8.200000000000008
 21
10.32132034355964
 31
0
  0
LINE
  8
0
 62
7
 10
7.960000000000008
 20
9.869188309203681
 30
0
 11
8.200000000000008
 21
10.10918830920368
 31
0
  0
LINE
  8
0
 62
7
 10
7.960000000000008
 20
9.657056274847717
 30
0
 11
8.200000000000008
 21
9.897056274847717
 31
0
  0
LINE
  8
0
 62
7
 10
7.960000000000008
 20
9.444924240491753
 30
0
 11
8.200000000000008
 21
9.684924240491753
 31
0
  0
LINE
  8
0
 62
7
 10
7.960000000000008
 20
9.232792206135789
 30
0
 11
8.200000000000008
 21
9.472792206135789
 31
0
  0
LINE
  8
0
 62
7
 10
7.960000000000008
 20
9.020660171779825
 30
0
 11
8.200000000000008
 21
9.260660171779826
 31
0
  0
LINE
  8
0
 62
7
 10
7.960000000000008
 20
8.808528137423862
 30
0
 11
8.200000000000008
 21
9.048528137423862
 31
0
  0
LINE
  8
0
 62
7
 10
7.960000000000008
 20
8.596396103067898
 30
0
 11
8.200000000000008
 21
8.836396103067898
 31
0
  0
LINE
  8
0
 62
7
 10
7.960000000000008
 20
8.384264068711934
 30
0
 11
8.200000000000008
 21
8.624264068711934
 31
0
  0
LINE
  8
0
 62
7
 10
8.087867965644033
 20
8.299999999999995
 30
0
 11
8.200000000000008
 21
8.41213203435597
 31
0
  0
ENDBLK
  8
0
  0
BLOCK
  8
0
  2
*X8
 70
1
 10
0
 20
0
 30
0
  0
LINE
  8
0
 62
7
 10
7.974085501838511
 20
11.04999999999999
 30
0
 11
8.124085501838511
 21
11.19999999999999
 31
0
  0
LINE
  8
0
 62
7
 10
8.186217536194475
 20
11.04999999999999
 30
0
 11
8.200000000000008
 21
11.06378246380552
 31
0
  0
LINE
  8
0
 62
7
 10
7.960000000000007
 20
11.14198051533947
 30
0
 11
8.018019484660527
 21
11.19999999999999
 31
0
  0
LINE
  8
0
 62
7
 10
8.080151519016493
 20
11.04999999999999
 30
0
 11
8.200000000000006
 21
11.1698484809835
 31
0
  0
ENDBLK
  8
0
  0
BLOCK
  8
0
  2
*X9
 70
1
 10
0
 20
0
 30
0
  0
LINE
  8
0
 62
7
  6
DASHED
 10
6.509009742330267
 20
8.099999999999998
 30
0
 11
6.709009742330267
 21
8.299999999999997
 31
0
  0
LINE
  8
0
 62
7
  6
DASHED
 10
6.721141776686231
 20
8.099999999999998
 30
0
 11
6.80000000000001
 21
8.178858223313776
 31
0
  0
LINE
  8
0
 62
7
 10
6.50000000000001
 20
8.197056274847723
 30
0
 11
6.602943725152285
 21
8.299999999999997
 31
0
  0
LINE
  8
0
 62
7
 10
6.615075759508247
 20
8.099999999999996
 30
0
 11
6.80000000000001
 21
8.284924240491758
 31
0
  0
ENDBLK
  8
0
  0
BLOCK
  8
0
  2
*X10
 70
1
 10
0
 20
0
 30
0
  0
LINE
  8
0
 62
7
  6
DASHED
 10
6.501293295702724
 20
10.84999999999999
 30
0
 11
6.701293295702722
 21
11.04999999999999
 31
0
  0
LINE
  8
0
 62
7
  6
DASHED
 10
6.713425330058688
 20
10.84999999999999
 30
0
 11
6.800000000000009
 21
10.93657466994131
 31
0
  0
LINE
  8
0
 62
7
 10
6.500000000000009
 20
10.95477272147525
 30
0
 11
6.595227278524741
 21
11.04999999999999
 31
0
  0
LINE
  8
0
 62
7
 10
6.607359312880709
 20
10.84999999999999
 30
0
 11
6.800000000000008
 21
11.04264068711929
 31
0
  0
ENDBLK
  8
0
  0
BLOCK
  8
0
  2
*X11
 70
1
 10
0
 20
0
 30
0
  0
LINE
  8
0
 62
7
  6
DASHED
 10
7.96000000000001
 20
11.03591449816149
 30
0
 11
7.974085501838511
 21
11.04999999999999
 31
0
  0
LINE
  8
0
 62
7
  6
DASHED
 10
7.986217536194475
 20
10.84999999999999
 30
0
 11
8.186217536194475
 21
11.04999999999999
 31
0
  0
LINE
  8
0
 62
7
  6
DASHED
 10
8.198349570550439
 20
10.84999999999999
 30
0
 11
8.20000000000001
 21
10.85165042944956
 31
0
  0
LINE
  8
0
 62
7
 10
7.960000000000009
 20
10.92984848098351
 30
0
 11
8.080151519016493
 21
11.04999999999999
 31
0
  0
LINE
  8
0
 62
7
 10
8.092283553372457
 20
10.84999999999999
 30
0
 11
8.200000000000008
 21
10.95771644662754
 31
0
  0
ENDBLK
  8
0
  0
BLOCK
  8
0
  2
*X12
 70
1
 10
0
 20
0
 30
0
  0
LINE
  8
0
 62
7
  6
DASHED
 10
7.960000000000009
 20
8.278198051533954
 30
0
 11
7.98180194846605
 21
8.299999999999997
 31
0
  0
LINE
  8
0
 62
7
  6
DASHED
 10
7.993933982822015
 20
8.099999999999998
 30
0
 11
8.193933982822013
 21
8.299999999999997
 31
0
  0
LINE
  8
0
 62
7
 10
7.960000000000008
 20
8.17213203435597
 30
0
 11
8.087867965644033
 21
8.299999999999995
 31
0
  0
LINE
  8
0
 62
7
 10
8.099999999999998
 20
8.099999999999998
 30
0
 11
8.20000000000001
 21
8.200000000000008
 31
0
  0
ENDBLK
  8
0
  0
BLOCK
  8
0
  2
*X13
 70
1
 10
0
 20
0
 30
0
  0
LINE
  8
0
 62
7
 10
1.25
 20
5.068376618407355
 30
0
 11
1.36162338159264
 21
5.179999999999996
 31
0
  0
LINE
  8
0
 62
7
 10
1.25
 20
4.856244584051391
 30
0
 11
1.425
 21
5.031244584051392
 31
0
  0
LINE
  8
0
 62
7
 10
1.395887450304574
 20
4.79
 30
0
 11
1.635887450304572
 21
5.029999999999998
 31
0
  0
LINE
  8
0
 62
7
 10
1.608019484660538
 20
4.79
 30
0
 11
1.848019484660536
 21
5.029999999999998
 31
0
  0
LINE
  8
0
 62
7
 10
1.820151519016502
 20
4.79
 30
0
 11
2.0601515190165
 21
5.029999999999998
 31
0
  0
LINE
  8
0
 62
7
 10
2.032283553372467
 20
4.79
 30
0
 11
2.272283553372465
 21
5.029999999999998
 31
0
  0
LINE
  8
0
 62
7
 10
2.244415587728431
 20
4.79
 30
0
 11
2.484415587728429
 21
5.029999999999998
 31
0
  0
LINE
  8
0
 62
7
 10
2.456547622084395
 20
4.79
 30
0
 11
2.696547622084393
 21
5.029999999999998
 31
0
  0
LINE
  8
0
 62
7
 10
2.668679656440359
 20
4.79
 30
0
 11
2.908679656440357
 21
5.029999999999998
 31
0
  0
LINE
  8
0
 62
7
 10
2.880811690796324
 20
4.79
 30
0
 11
3.120811690796322
 21
5.029999999999998
 31
0
  0
LINE
  8
0
 62
7
 10
3.092943725152288
 20
4.79
 30
0
 11
3.332943725152286
 21
5.029999999999998
 31
0
  0
LINE
  8
0
 62
7
 10
3.305075759508252
 20
4.79
 30
0
 11
3.54507575950825
 21
5.029999999999998
 31
0
  0
LINE
  8
0
 62
7
 10
3.517207793864217
 20
4.79
 30
0
 11
3.757207793864215
 21
5.029999999999998
 31
0
  0
LINE
  8
0
 62
7
 10
3.729339828220181
 20
4.79
 30
0
 11
3.969339828220179
 21
5.029999999999998
 31
0
  0
LINE
  8
0
 62
7
 10
3.941471862576145
 20
4.79
 30
0
 11
4.181471862576143
 21
5.029999999999998
 31
0
  0
LINE
  8
0
 62
7
 10
4.153603896932109
 20
4.79
 30
0
 11
4.393603896932107
 21
5.029999999999998
 31
0
  0
LINE
  8
0
 62
7
 10
4.365735931288073
 20
4.79
 30
0
 11
4.605735931288071
 21
5.029999999999998
 31
0
  0
LINE
  8
0
 62
7
 10
4.577867965644037
 20
4.79
 30
0
 11
4.817867965644035
 21
5.029999999999998
 31
0
  0
LINE
  8
0
 62
7
 10
4.790000000000001
 20
4.79
 30
0
 11
5.029999999999998
 21
5.029999999999998
 31
0
  0
LINE
  8
0
 62
7
 10
5.002132034355965
 20
4.79
 30
0
 11
5.242132034355962
 21
5.029999999999998
 31
0
  0
LINE
  8
0
 62
7
 10
5.214264068711929
 20
4.79
 30
0
 11
5.285000000000008
 21
4.86073593128808
 31
0
  0
ENDBLK
  8
0
  0
BLOCK
  8
0
  2
*D0
 70
1
 10
0
 20
0
 30
0
  0
LINE
  8
0
 62
7
 10
0.914545235963146
 20
10.19949555394389
 30
0
 11
0.914545235963146
 21
11.04999999999999
 31
0
  0
LINE
  8
0
 62
7
 10
0.914545235963146
 20
8.299999999999997
 30
0
 11
0.914545235963146
 21
9.019495553943891
 31
0
  0
LINE
  8
0
 62
7
 10
1.1
 20
11.04999999999999
 30
0
 11
0.8645452359631459
 21
11.04999999999999
 31
0
  0
LINE
  8
0
 62
7
 10
1.1
 20
8.299999999999997
 30
0
 11
0.8645452359631459
 21
8.299999999999997
 31
0
  0
LINE
  8
0
 62
7
 10
0.9499005750224734
 20
11.01464466094067
 30
0
 11
0.8791898969038185
 21
11.08535533905932
 31
0
  0
LINE
  8
0
 62
7
 10
0.8791898969038185
 20
8.335355339059324
 30
0
 11
0.9499005750224734
 21
8.26464466094067
 31
0
  0
TEXT
  8
0
 62
7
 10
0.8895452359631459
 20
9.489495553943891
 30
0
 40
0.1
  1
275
 50
90
 41
0.9
  0
TEXT
  8
0
 62
7
 10
1.039545235963146
 20
9.269495553943891
 30
0
 40
0.1
  1
(260-280)
 50
90
 41
0.9
  0
ENDBLK
  8
0
  0
BLOCK
  8
0
  2
*D1
 70
1
 10
0
 20
0
 30
0
  0
LINE
  8
0
 62
7
 10
3.62889727016659
 20
3.086466536710621
 30
0
 11
5.185000000000008
 21
3.086466536710621
 31
0
  0
LINE
  8
0
 62
7
 10
1.425
 20
3.086466536710621
 30
0
 11
2.85389727016659
 21
3.086466536710621
 31
0
  0
LINE
  8
0
 62
7
 10
5.185000000000008
 20
3.350000000000001
 30
0
 11
5.185000000000008
 21
3.036466536710621
 31
0
  0
LINE
  8
0
 62
7
 10
1.425
 20
3.350000000000001
 30
0
 11
1.425
 21
3.036466536710621
 31
0
  0
LINE
  8
0
 62
7
 10
5.14964466094068
 20
3.051111197651294
 30
0
 11
5.220355339059335
 21
3.121821875769948
 31
0
  0
LINE
  8
0
 62
7
 10
1.460355339059327
 20
3.121821875769948
 30
0
 11
1.389644660940673
 21
3.051111197651294
 31
0
  0
TEXT
  8
0
 62
7
 10
3.10389727016659
 20
3.041466536710621
 30
0
 40
0.1
  1
3,76
 41
0.9
  0
ENDBLK
  8
0
  0
BLOCK
  8
0
  2
*D2
 70
1
 10
0
 20
0
 30
0
  0
LINE
  8
0
 62
7
 10
3.60459121045183
 20
5.36906036271372
 30
0
 11
5.285000000000008
 21
5.36906036271372
 31
0
  0
LINE
  8
0
 62
7
 10
1.425
 20
5.36906036271372
 30
0
 11
2.82959121045183
 21
5.36906036271372
 31
0
  0
LINE
  8
0
 62
7
 10
5.285000000000008
 20
5.029999999999998
 30
0
 11
5.285000000000008
 21
5.419060362713719
 31
0
  0
LINE
  8
0
 62
7
 10
1.425
 20
5.029999999999998
 30
0
 11
1.425
 21
5.419060362713719
 31
0
  0
LINE
  8
0
 62
7
 10
1.460355339059327
 20
5.404415701773047
 30
0
 11
1.389644660940673
 21
5.333705023654392
 31
0
  0
LINE
  8
0
 62
7
 10
5.249644660940681
 20
5.333705023654392
 30
0
 11
5.320355339059335
 21
5.404415701773047
 31
0
  0
TEXT
  8
0
 62
7
 10
3.07959121045183
 20
5.32406036271372
 30
0
 40
0.1
  1
3,86
 41
0.9
  0
ENDBLK
  8
0
  0
BLOCK
  8
0
  2
*D3
 70
1
 10
0
 20
0
 30
0
  0
LINE
  8
0
 62
7
 10
0.953761843281181
 20
4.3328763025861
 30
0
 11
0.953761843281181
 21
4.510000000000001
 31
0
  0
LINE
  8
0
 62
7
 10
0.953761843281181
 20
3.350000000000001
 30
0
 11
0.953761843281181
 21
3.6178763025861
 31
0
  0
LINE
  8
0
 62
7
 10
1.425
 20
4.510000000000001
 30
0
 11
0.9037618432811809
 21
4.510000000000001
 31
0
  0
LINE
  8
0
 62
7
 10
1.425
 20
3.350000000000001
 30
0
 11
0.9037618432811809
 21
3.350000000000001
 31
0
  0
LINE
  8
0
 62
7
 10
0.9891171823405084
 20
4.474644660940673
 30
0
 11
0.9184065042218535
 21
4.545355339059328
 31
0
  0
LINE
  8
0
 62
7
 10
0.9184065042218535
 20
3.385355339059328
 30
0
 11
0.9891171823405084
 21
3.314644660940674
 31
0
  0
TEXT
  8
0
 62
7
 10
0.998761843281181
 20
3.8678763025861
 30
0
 40
0.1
  1
1,16
 50
90
 41
0.9
  0
ENDBLK
  8
0
  0
BLOCK
  8
0
  2
*D4
 70
1
 10
0
 20
0
 30
0
  0
LINE
  8
0
 62
7
 10
3.67160872379074
 20
11.4564844909985
 30
0
 11
5.185000000000008
 21
11.4564844909985
 31
0
  0
LINE
  8
0
 62
7
 10
1.425
 20
11.4564844909985
 30
0
 11
2.89660872379074
 21
11.4564844909985
 31
0
  0
LINE
  8
0
 62
7
 10
5.185000000000008
 20
11.04999999999999
 30
0
 11
5.185000000000008
 21
11.5064844909985
 31
0
  0
LINE
  8
0
 62
7
 10
1.425
 20
11.04999999999999
 30
0
 11
1.425
 21
11.5064844909985
 31
0
  0
LINE
  8
0
 62
7
 10
5.14964466094068
 20
11.42112915193917
 30
0
 11
5.220355339059335
 21
11.49183983005783
 31
0
  0
LINE
  8
0
 62
7
 10
1.460355339059327
 20
11.49183983005783
 30
0
 11
1.389644660940673
 21
11.42112915193917
 31
0
  0
TEXT
  8
0
 62
7
 10
3.14660872379074
 20
11.4114844909985
 30
0
 40
0.1
  1
3,76
 41
0.9
  0
ENDBLK
  8
0
  0
ENDSEC
  0
SECTION
  2
ENTITIES
  0
INSERT
  8
0
  2
*X0
 10
0
 20
0
 30
0
  0
INSERT
  8
0
  2
*X1
 10
0
 20
0
 30
0
  0
INSERT
  8
0
  2
*X2
 10
0
 20
0
 30
0
  0
INSERT
  8
0
  2
*X3
 10
0
 20
0
 30
0
  0
INSERT
  8
0
  2
*X4
 10
0
 20
0
 30
0
  0
INSERT
  8
0
  2
*X5
 10
0
 20
0
 30
0
  0
INSERT
  8
0
  2
*X6
 10
0
 20
0
 30
0
  0
INSERT
  8
0
  2
*X7
 10
0
 20
0
 30
0
  0
INSERT
  8
0
  2
*X8
 10
0
 20
0
 30
0
  0
INSERT
  8
0
  2
*X9
 10
0
 20
0
 30
0
  0
INSERT
  8
0
  2
*X10
 10
0
 20
0
 30
0
  0
INSERT
  8
0
  2
*X11
 10
0
 20
0
 30
0
  0
INSERT
  8
0
  2
*X12
 10
0
 20
0
 30
0
  0
INSERT
  8
0
  2
*X13
 10
0
 20
0
 30
0
  0
LINE
  8
0
 62
7
 10
2.800762300082724
 20
3.405000000000001
 30
0
 11
2.839632006789776
 21
3.405000000000001
 31
0
  0
LINE
  8
0
 62
7
 10
2.681020087442594
 20
3.405000000000001
 30
0
 11
2.839632006789776
 21
3.405000000000001
 31
0
  0
LINE
  8
0
 62
7
 10
2.53
 20
3.380000000000001
 30
0
 11
2.53
 21
3.405000000000003
 31
0
  0
LINE
  8
0
 62
7
 10
2.53
 20
3.405000000000003
 30
0
 11
2.839632006789776
 21
3.405000000000001
 31
0
  0
LINE
  8
0
 62
7
 10
5.285
 20
3.405000000000001
 30
0
 11
5.285
 21
4.455000000000001
 31
0
  0
LINE
  8
0
 62
7
 10
4.935
 20
3.405000000000001
 30
0
 11
5.285
 21
3.405000000000001
 31
0
  0
LINE
  8
0
 62
7
 10
5.285
 20
4.455000000000001
 30
0
 11
4.935
 21
4.455000000000001
 31
0
  0
LINE
  8
0
 62
7
 10
5.025
 20
3.405000000000001
 30
0
 11
5.025
 21
4.455000000000001
 31
0
  0
LINE
  8
0
 62
7
 10
4.675
 20
3.405000000000001
 30
0
 11
5.025
 21
3.405000000000001
 31
0
  0
LINE
  8
0
 62
7
 10
5.025
 20
4.455000000000001
 30
0
 11
4.675
 21
4.455000000000001
 31
0
  0
LINE
  8
0
 62
7
 10
4.765
 20
3.405000000000001
 30
0
 11
4.765
 21
4.455000000000001
 31
0
  0
LINE
  8
0
 62
7
 10
4.415
 20
3.405000000000001
 30
0
 11
4.765
 21
3.405000000000001
 31
0
  0
LINE
  8
0
 62
7
 10
4.765
 20
4.455000000000001
 30
0
 11
4.415
 21
4.455000000000001
 31
0
  0
LINE
  8
0
 62
7
 10
4.505000000000001
 20
3.405000000000001
 30
0
 11
4.505000000000001
 21
4.455000000000001
 31
0
  0
LINE
  8
0
 62
7
 10
4.155
 20
3.405000000000001
 30
0
 11
4.505000000000001
 21
3.405000000000001
 31
0
  0
LINE
  8
0
 62
7
 10
4.505000000000001
 20
4.455000000000001
 30
0
 11
4.155
 21
4.455000000000001
 31
0
  0
LINE
  8
0
 62
7
 10
4.245
 20
3.405000000000001
 30
0
 11
4.245
 21
4.455000000000001
 31
0
  0
LINE
  8
0
 62
7
 10
3.895
 20
3.405000000000001
 30
0
 11
4.245
 21
3.405000000000001
 31
0
  0
LINE
  8
0
 62
7
 10
4.245
 20
4.455000000000001
 30
0
 11
3.895
 21
4.455000000000001
 31
0
  0
LINE
  8
0
 62
7
 10
3.985
 20
3.405000000000001
 30
0
 11
3.985
 21
4.455000000000001
 31
0
  0
LINE
  8
0
 62
7
 10
3.635
 20
3.405000000000001
 30
0
 11
3.985
 21
3.405000000000001
 31
0
  0
LINE
  8
0
 62
7
 10
3.985
 20
4.455000000000001
 30
0
 11
3.635
 21
4.455000000000001
 31
0
  0
LINE
  8
0
 62
7
 10
3.725
 20
3.405000000000001
 30
0
 11
3.725
 21
4.455000000000001
 31
0
  0
LINE
  8
0
 62
7
 10
3.375
 20
3.405000000000001
 30
0
 11
3.725
 21
3.405000000000001
 31
0
  0
LINE
  8
0
 62
7
 10
3.725
 20
4.455000000000001
 30
0
 11
3.375
 21
4.455000000000001
 31
0
  0
LINE
  8
0
 62
7
 10
3.465
 20
3.405000000000001
 30
0
 11
3.465
 21
4.455000000000001
 31
0
  0
LINE
  8
0
 62
7
 10
3.160077594859898
 20
3.405000000000001
 30
0
 11
3.465
 21
3.405000000000001
 31
0
  0
LINE
  8
0
 62
7
 10
3.465
 20
4.455000000000001
 30
0
 11
3.075712890383315
 21
4.455000000000001
 31
0
  0
LINE
  8
0
 62
7
 10
3.250367633771917
 20
3.405000000000001
 30
0
 11
3.166002929295355
 21
4.455000000000001
 31
0
  0
LINE
  8
0
 62
7
 10
3.042269803601288
 20
3.405000000000001
 30
0
 11
3.250367633771917
 21
3.405000000000001
 31
0
  0
LINE
  8
0
 62
7
 10
3.166002929295355
 20
4.455000000000001
 30
0
 11
2.684582445146575
 21
4.455000000000001
 31
0
  0
LINE
  8
0
 62
7
 10
3.137348555997458
 20
3.405000000000001
 30
0
 11
2.779661197542744
 21
4.455000000000001
 31
0
  0
LINE
  8
0
 62
7
 10
2.922119979497365
 20
3.405000000000001
 30
0
 11
3.137348555997458
 21
3.405000000000001
 31
0
  0
LINE
  8
0
 62
7
 10
2.779661197542744
 20
4.455000000000001
 30
0
 11
2.285451542637115
 21
4.455000000000001
 31
0
  0
LINE
  8
0
 62
7
 10
3.027372330429266
 20
3.405000000000001
 30
0
 11
2.390703893569014
 21
4.455000000000001
 31
0
  0
LINE
  8
0
 62
7
 10
2.839632006789776
 20
3.405000000000001
 30
0
 11
3.027372330429266
 21
3.405000000000001
 31
0
  0
LINE
  8
0
 62
7
 10
2.390703893569014
 20
4.455000000000001
 30
0
 11
1.861662052892345
 21
4.455000000000001
 31
0
  0
LINE
  8
0
 62
7
 10
2.921507210715188
 20
3.405000000000001
 30
0
 11
1.982406963524794
 21
4.455000000000001
 31
0
  0
LINE
  8
0
 62
7
 10
2.839632006789776
 20
3.405000000000001
 30
0
 11
2.921507210715188
 21
3.405000000000001
 31
0
  0
LINE
  8
0
 62
7
 10
1.48
 20
4.455000000000001
 30
0
 11
1.48
 21
4.232621993400051
 31
0
  0
LINE
  8
0
 62
7
 10
1.982406963524794
 20
4.455000000000001
 30
0
 11
1.48
 21
4.455000000000001
 31
0
  0
LINE
  8
0
 62
7
 10
2.839632006789776
 20
3.405000000000001
 30
0
 11
1.48
 21
4.341921341712061
 31
0
  0
LINE
  8
0
 62
7
 10
1.48
 20
4.341921341712061
 30
0
 11
1.48
 21
3.72631137967287
 31
0
  0
LINE
  8
0
 62
7
 10
2.53
 20
3.497065183455581
 30
0
 11
1.48
 21
3.820484029410393
 31
0
  0
LINE
  8
0
 62
7
 10
2.53
 20
3.405000000000003
 30
0
 11
2.53
 21
3.497065183455581
 31
0
  0
LINE
  8
0
 62
7
 10
1.48
 20
3.820484029410393
 30
0
 11
1.48
 21
3.380000000000001
 31
0
  0
LINE
  8
0
 62
7
 10
2.53000000012808
 20
3.969643896473922
 30
0
 11
5.285
 21
3.96964389647392
 31
0
  0
LINE
  8
0
 62
7
 10
2.071011202787778
 20
3.460999999999999
 30
0
 11
1.965356103526072
 21
3.400000000000001
 31
0
  0
LINE
  8
0
 62
7
 10
1.859701004264374
 20
3.460999999999999
 30
0
 11
2.071011202787778
 21
3.460999999999999
 31
0
  0
LINE
  8
0
 62
7
 10
1.965356103526072
 20
3.400000000000001
 30
0
 11
1.859701004264374
 21
3.460999999999999
 31
0
  0
LINE
  8
0
 62
7
 10
1.965356103526072
 20
3.400000000000001
 30
0
 11
1.965356103526072
 21
3.40499999998926
 31
0
  0
LINE
  8
0
 62
7
 10
4.934999969999997
 20
8.583333226666662
 30
0
 11
5.284999959999995
 21
8.583333226666662
 31
0
  0
LINE
  8
0
 62
7
 10
5.284999959999995
 20
8.583333226666662
 30
0
 11
5.284999959999995
 21
8.518333226666662
 31
0
  0
LINE
  8
0
 62
7
 10
4.934999969999997
 20
8.518333226666662
 30
0
 11
4.934999969999997
 21
8.583333226666662
 31
0
  0
LINE
  8
0
 62
7
 10
5.284999959999995
 20
8.518333226666662
 30
0
 11
4.934999969999997
 21
8.518333226666662
 31
0
  0
LINE
  8
0
 62
7
 10
5.02499985
 20
8.766666566666663
 30
0
 11
5.024999929999999
 21
8.766666566666663
 31
0
  0
LINE
  8
0
 62
7
 10
5.024999929999999
 20
8.766666566666663
 30
0
 11
5.024999929999999
 21
8.701666566666665
 31
0
  0
LINE
  8
0
 62
7
 10
4.674999850000001
 20
8.766666566666663
 30
0
 11
5.02499985
 21
8.766666566666663
 31
0
  0
LINE
  8
0
 62
7
 10
4.674999850000001
 20
8.701666566666665
 30
0
 11
4.674999850000001
 21
8.766666566666663
 31
0
  0
LINE
  8
0
 62
7
 10
5.024999929999999
 20
8.701666566666665
 30
0
 11
4.674999850000001
 21
8.701666566666665
 31
0
  0
LINE
  8
0
 62
7
 10
4.764999850000001
 20
8.949999906666664
 30
0
 11
4.764999929999998
 21
8.949999906666664
 31
0
  0
LINE
  8
0
 62
7
 10
4.764999929999998
 20
8.949999906666664
 30
0
 11
4.764999929999998
 21
8.884999906666662
 31
0
  0
LINE
  8
0
 62
7
 10
4.41499985
 20
8.949999906666664
 30
0
 11
4.764999850000001
 21
8.949999906666664
 31
0
  0
LINE
  8
0
 62
7
 10
4.41499985
 20
8.884999906666662
 30
0
 11
4.41499985
 21
8.949999906666664
 31
0
  0
LINE
  8
0
 62
7
 10
4.764999929999998
 20
8.884999906666662
 30
0
 11
4.41499985
 21
8.884999906666662
 31
0
  0
LINE
  8
0
 62
7
 10
4.504999769999995
 20
9.133333226666663
 30
0
 11
4.504999769999995
 21
9.068333226666663
 31
0
  0
LINE
  8
0
 62
7
 10
4.154999769999995
 20
9.133333226666663
 30
0
 11
4.504999769999995
 21
9.133333226666663
 31
0
  0
LINE
  8
0
 62
7
 10
4.154999769999995
 20
9.068333226666663
 30
0
 11
4.154999769999995
 21
9.133333226666663
 31
0
  0
LINE
  8
0
 62
7
 10
4.504999769999995
 20
9.068333226666663
 30
0
 11
4.154999769999995
 21
9.068333226666663
 31
0
  0
LINE
  8
0
 62
7
 10
4.244999929999998
 20
9.316666586666663
 30
0
 11
4.244999929999998
 21
9.251666586666664
 31
0
  0
LINE
  8
0
 62
7
 10
3.894999549999994
 20
9.316666586666663
 30
0
 11
4.244999929999998
 21
9.316666586666663
 31
0
  0
LINE
  8
0
 62
7
 10
3.894999549999994
 20
9.251666586666664
 30
0
 11
3.894999549999994
 21
9.316666586666663
 31
0
  0
LINE
  8
0
 62
7
 10
4.244999929999998
 20
9.251666586666664
 30
0
 11
3.894999549999994
 21
9.251666586666664
 31
0
  0
LINE
  8
0
 62
7
 10
3.98499985
 20
9.499999946666666
 30
0
 11
3.98499985
 21
9.434999946666665
 31
0
  0
LINE
  8
0
 62
7
 10
3.634999699999993
 20
9.499999946666666
 30
0
 11
3.98499985
 21
9.499999946666666
 31
0
  0
LINE
  8
0
 62
7
 10
3.634999699999993
 20
9.434999946666665
 30
0
 11
3.634999699999993
 21
9.499999946666666
 31
0
  0
LINE
  8
0
 62
7
 10
3.98499985
 20
9.434999946666665
 30
0
 11
3.634999699999993
 21
9.434999946666665
 31
0
  0
LINE
  8
0
 62
7
 10
3.72499985
 20
9.683333226666662
 30
0
 11
3.72499985
 21
9.618333226666664
 31
0
  0
LINE
  8
0
 62
7
 10
3.375
 20
9.683333226666662
 30
0
 11
3.72499985
 21
9.683333226666662
 31
0
  0
LINE
  8
0
 62
7
 10
3.375
 20
9.618333226666664
 30
0
 11
3.375
 21
9.683333226666662
 31
0
  0
LINE
  8
0
 62
7
 10
3.72499985
 20
9.618333226666664
 30
0
 11
3.375
 21
9.618333226666664
 31
0
  0
LINE
  8
0
 62
7
 10
3.075713049999999
 20
9.866666666666664
 30
0
 11
3.465
 21
9.866666666666664
 31
0
  0
LINE
  8
0
 62
7
 10
3.465
 20
9.801666666666662
 30
0
 11
3.075713049999999
 21
9.801666666666662
 31
0
  0
LINE
  8
0
 62
7
 10
3.465
 20
9.866666666666664
 30
0
 11
3.465
 21
9.801666666666662
 31
0
  0
LINE
  8
0
 62
7
 10
3.075713049999999
 20
9.801666666666662
 30
0
 11
3.075713049999999
 21
9.866666666666664
 31
0
  0
LINE
  8
0
 62
7
 10
3.250367280000006
 20
9.984999946666665
 30
0
 11
2.684582219999998
 21
9.984999946666665
 31
0
  0
LINE
  8
0
 62
7
 10
2.684582219999998
 20
10.04999994666667
 30
0
 11
3.250367280000006
 21
10.04999994666667
 31
0
  0
LINE
  8
0
 62
7
 10
3.250367280000006
 20
10.04999994666667
 30
0
 11
3.250367280000006
 21
9.984999946666665
 31
0
  0
LINE
  8
0
 62
7
 10
2.684582219999998
 20
9.984999946666665
 30
0
 11
2.684582219999998
 21
10.04999994666667
 31
0
  0
LINE
  8
0
 62
7
 10
3.137348330000001
 20
10.16833322666666
 30
0
 11
2.285451359999992
 21
10.16833322666666
 31
0
  0
LINE
  8
0
 62
7
 10
2.285451359999992
 20
10.23333322666666
 30
0
 11
3.137348330000001
 21
10.23333322666666
 31
0
  0
LINE
  8
0
 62
7
 10
3.137348330000001
 20
10.23333322666666
 30
0
 11
3.137348330000001
 21
10.16833322666666
 31
0
  0
LINE
  8
0
 62
7
 10
2.285451359999992
 20
10.16833322666666
 30
0
 11
2.285451359999992
 21
10.23333322666666
 31
0
  0
LINE
  8
0
 62
7
 10
3.027372129999996
 20
10.35166666666666
 30
0
 11
1.861661690000001
 21
10.35166666666666
 31
0
  0
LINE
  8
0
 62
7
 10
1.861661690000001
 20
10.41666666666666
 30
0
 11
3.027372129999996
 21
10.41666666666666
 31
0
  0
LINE
  8
0
 62
7
 10
3.027372129999996
 20
10.41666666666666
 30
0
 11
3.027372129999996
 21
10.35166666666666
 31
0
  0
LINE
  8
0
 62
7
 10
1.861661690000001
 20
10.35166666666666
 30
0
 11
1.861661690000001
 21
10.41666666666666
 31
0
  0
LINE
  8
0
 62
7
 10
2.921507109999999
 20
10.53499994666666
 30
0
 11
1.48
 21
10.53499994666666
 31
0
  0
LINE
  8
0
 62
7
 10
1.48
 20
10.59999994666666
 30
0
 11
2.921507109999999
 21
10.59999994666666
 31
0
  0
LINE
  8
0
 62
7
 10
2.921507109999999
 20
10.59999994666666
 30
0
 11
2.921507109999999
 21
10.53499994666666
 31
0
  0
LINE
  8
0
 62
7
 10
1.48
 20
10.53499994666666
 30
0
 11
1.48
 21
10.59999994666666
 31
0
  0
LINE
  8
0
 62
7
 10
1.48
 20
10.78333322666666
 30
0
 11
2.839632269999994
 21
10.78333322666666
 31
0
  0
LINE
  8
0
 62
7
 10
2.839632269999994
 20
10.71833322666666
 30
0
 11
1.48
 21
10.71833322666666
 31
0
  0
LINE
  8
0
 62
7
 10
2.839632269999994
 20
10.78333322666666
 30
0
 11
2.839632269999994
 21
10.71833322666666
 31
0
  0
LINE
  8
0
 62
7
 10
1.48
 20
10.71833322666666
 30
0
 11
1.48
 21
10.78333322666666
 31
0
  0
LINE
  8
0
 62
7
  6
DASHED
 10
1.48
 20
10.96666666666666
 30
0
 11
2.53
 21
10.96666666666666
 31
0
  0
LINE
  8
0
 62
7
  6
DASHED
 10
2.53
 20
10.96666666666666
 30
0
 11
2.53
 21
10.90166666666666
 31
0
  0
LINE
  8
0
 62
7
  6
DASHED
 10
1.48
 20
10.90166666666666
 30
0
 11
1.48
 21
10.96666666666666
 31
0
  0
LINE
  8
0
 62
7
  6
DASHED
 10
2.53
 20
10.90166666666666
 30
0
 11
1.48
 21
10.90166666666666
 31
0
  0
LINE
  8
0
 62
7
 10
6.854999220000005
 20
8.583333333333329
 30
0
 11
7.905000750000013
 21
8.583333333333329
 31
0
  0
LINE
  8
0
 62
7
 10
7.905000750000013
 20
8.583333333333329
 30
0
 11
7.905000750000013
 21
8.518333333333329
 31
0
  0
LINE
  8
0
 62
7
 10
6.854999220000005
 20
8.518333333333329
 30
0
 11
6.854999220000005
 21
8.583333333333329
 31
0
  0
LINE
  8
0
 62
7
 10
7.905000750000013
 20
8.518333333333329
 30
0
 11
6.854999220000005
 21
8.518333333333329
 31
0
  0
LINE
  8
0
 62
7
 10
6.854999370000006
 20
8.766666673333331
 30
0
 11
7.905000230000006
 21
8.766666673333331
 31
0
  0
LINE
  8
0
 62
7
 10
7.905000230000006
 20
8.766666673333331
 30
0
 11
7.905000230000006
 21
8.701666673333328
 31
0
  0
LINE
  8
0
 62
7
 10
6.854999370000006
 20
8.701666673333328
 30
0
 11
6.854999370000006
 21
8.766666673333331
 31
0
  0
LINE
  8
0
 62
7
 10
7.905000230000006
 20
8.701666673333328
 30
0
 11
6.854999370000006
 21
8.701666673333328
 31
0
  0
LINE
  8
0
 62
7
 10
6.854999370000006
 20
8.95000001333333
 30
0
 11
7.904999830000001
 21
8.95000001333333
 31
0
  0
LINE
  8
0
 62
7
 10
7.904999830000001
 20
8.95000001333333
 30
0
 11
7.904999830000001
 21
8.885000013333331
 31
0
  0
LINE
  8
0
 62
7
 10
6.854999370000006
 20
8.885000013333331
 30
0
 11
6.854999370000006
 21
8.95000001333333
 31
0
  0
LINE
  8
0
 62
7
 10
7.904999830000001
 20
8.885000013333331
 30
0
 11
6.854999370000006
 21
8.885000013333331
 31
0
  0
LINE
  8
0
 62
7
 10
6.854999530000009
 20
9.133333333333331
 30
0
 11
7.905000000000008
 21
9.133333333333331
 31
0
  0
LINE
  8
0
 62
7
 10
7.905000000000008
 20
9.133333333333331
 30
0
 11
7.905000000000008
 21
9.068333333333332
 31
0
  0
LINE
  8
0
 62
7
 10
6.854999530000009
 20
9.068333333333332
 30
0
 11
6.854999530000009
 21
9.133333333333331
 31
0
  0
LINE
  8
0
 62
7
 10
7.905000000000008
 20
9.068333333333332
 30
0
 11
6.854999530000009
 21
9.068333333333332
 31
0
  0
LINE
  8
0
 62
7
 10
6.854999070000005
 20
9.316666693333334
 30
0
 11
7.905000400000013
 21
9.316666693333334
 31
0
  0
LINE
  8
0
 62
7
 10
7.905000400000013
 20
9.316666693333334
 30
0
 11
7.905000400000013
 21
9.251666693333332
 31
0
  0
LINE
  8
0
 62
7
 10
6.854999070000005
 20
9.251666693333332
 30
0
 11
6.854999070000005
 21
9.316666693333334
 31
0
  0
LINE
  8
0
 62
7
 10
7.905000400000013
 20
9.251666693333332
 30
0
 11
6.854999070000005
 21
9.251666693333332
 31
0
  0
LINE
  8
0
 62
7
 10
6.854999530000009
 20
9.500000053333332
 30
0
 11
7.904999300000005
 21
9.500000053333332
 31
0
  0
LINE
  8
0
 62
7
 10
7.904999300000005
 20
9.500000053333332
 30
0
 11
7.904999300000005
 21
9.435000053333331
 31
0
  0
LINE
  8
0
 62
7
 10
6.854999530000009
 20
9.435000053333331
 30
0
 11
6.854999530000009
 21
9.500000053333332
 31
0
  0
LINE
  8
0
 62
7
 10
7.904999300000005
 20
9.435000053333331
 30
0
 11
6.854999530000009
 21
9.435000053333331
 31
0
  0
LINE
  8
0
 62
7
 10
6.854999370000006
 20
9.68333333333333
 30
0
 11
7.904999160000007
 21
9.68333333333333
 31
0
  0
LINE
  8
0
 62
7
 10
7.904999160000007
 20
9.68333333333333
 30
0
 11
7.904999160000007
 21
9.618333333333332
 31
0
  0
LINE
  8
0
 62
7
 10
6.854999370000006
 20
9.618333333333332
 30
0
 11
6.854999370000006
 21
9.68333333333333
 31
0
  0
LINE
  8
0
 62
7
 10
7.904999160000007
 20
9.618333333333332
 30
0
 11
6.854999370000006
 21
9.618333333333332
 31
0
  0
LINE
  8
0
 62
7
 10
6.854999220000005
 20
9.866666773333332
 30
0
 11
7.904999200000008
 21
9.866666773333332
 31
0
  0
LINE
  8
0
 62
7
 10
7.904999200000008
 20
9.866666773333332
 30
0
 11
7.904999200000008
 21
9.801666773333331
 31
0
  0
LINE
  8
0
 62
7
 10
6.854999220000005
 20
9.801666773333331
 30
0
 11
6.854999220000005
 21
9.866666773333332
 31
0
  0
LINE
  8
0
 62
7
 10
7.904999200000008
 20
9.801666773333331
 30
0
 11
6.854999220000005
 21
9.801666773333331
 31
0
  0
LINE
  8
0
 62
7
 10
6.854999220000005
 20
10.05000005333333
 30
0
 11
7.904999220000014
 21
10.05000005333333
 31
0
  0
LINE
  8
0
 62
7
 10
7.904999220000014
 20
10.05000005333333
 30
0
 11
7.904999220000014
 21
9.985000053333332
 31
0
  0
LINE
  8
0
 62
7
 10
6.854999220000005
 20
9.985000053333332
 30
0
 11
6.854999220000005
 21
10.05000005333333
 31
0
  0
LINE
  8
0
 62
7
 10
7.904999220000014
 20
9.985000053333332
 30
0
 11
6.854999220000005
 21
9.985000053333332
 31
0
  0
LINE
  8
0
 62
7
 10
6.854998920000007
 20
10.23333333333333
 30
0
 11
7.904999370000006
 21
10.23333333333333
 31
0
  0
LINE
  8
0
 62
7
 10
7.904999370000006
 20
10.23333333333333
 30
0
 11
7.904999370000006
 21
10.16833333333333
 31
0
  0
LINE
  8
0
 62
7
 10
6.854998920000007
 20
10.16833333333333
 30
0
 11
6.854998920000007
 21
10.23333333333333
 31
0
  0
LINE
  8
0
 62
7
 10
7.904999370000006
 20
10.16833333333333
 30
0
 11
6.854998920000007
 21
10.16833333333333
 31
0
  0
LINE
  8
0
 62
7
 10
6.854999070000005
 20
10.41666677333333
 30
0
 11
7.904999220000014
 21
10.41666677333333
 31
0
  0
LINE
  8
0
 62
7
 10
7.904999220000014
 20
10.41666677333333
 30
0
 11
7.904999220000014
 21
10.35166677333333
 31
0
  0
LINE
  8
0
 62
7
 10
6.854999070000005
 20
10.35166677333333
 30
0
 11
6.854999070000005
 21
10.41666677333333
 31
0
  0
LINE
  8
0
 62
7
 10
7.904999220000014
 20
10.35166677333333
 30
0
 11
6.854999070000005
 21
10.35166677333333
 31
0
  0
LINE
  8
0
 62
7
 10
6.854999070000005
 20
10.60000005333333
 30
0
 11
7.904999260000004
 21
10.60000005333333
 31
0
  0
LINE
  8
0
 62
7
 10
7.904999260000004
 20
10.53500005333333
 30
0
 11
6.854999070000005
 21
10.53500005333333
 31
0
  0
LINE
  8
0
 62
7
 10
7.904999260000004
 20
10.60000005333333
 30
0
 11
7.904999260000004
 21
10.53500005333333
 31
0
  0
LINE
  8
0
 62
7
 10
6.854999070000005
 20
10.53500005333333
 30
0
 11
6.854999070000005
 21
10.60000005333333
 31
0
  0
LINE
  8
0
 62
7
 10
6.854999220000005
 20
10.78333333333333
 30
0
 11
7.791920610000003
 21
10.78333333333333
 31
0
  0
LINE
  8
0
 62
7
 10
7.791920610000003
 20
10.71833333333333
 30
0
 11
6.854999220000005
 21
10.71833333333333
 31
0
  0
LINE
  8
0
 62
7
 10
7.791920610000003
 20
10.78333333333333
 30
0
 11
7.791920610000003
 21
10.71833333333333
 31
0
  0
LINE
  8
0
 62
7
 10
6.854999220000005
 20
10.71833333333333
 30
0
 11
6.854999220000005
 21
10.78333333333333
 31
0
  0
LINE
  8
0
 62
7
 10
6.829999220000005
 20
10.96666677333333
 30
0
 11
7.270483150000008
 21
10.96666677333333
 31
0
  0
LINE
  8
0
 62
7
 10
7.270483150000008
 20
10.90166677333333
 30
0
 11
6.829999220000005
 21
10.90166677333333
 31
0
  0
LINE
  8
0
 62
7
 10
7.270483150000008
 20
10.96666677333333
 30
0
 11
7.270483150000008
 21
10.90166677333333
 31
0
  0
LINE
  8
0
 62
7
 10
6.829999220000005
 20
10.90166677333333
 30
0
 11
6.829999220000005
 21
10.96666677333333
 31
0
  0
LINE
  8
0
 62
7
 10
1.425
 20
8.099999999999998
 30
0
 11
5.185000000000008
 21
8.099999999999998
 31
0
  0
LINE
  8
0
 62
7
 10
5.185000000000008
 20
8.099999999999998
 30
0
 11
5.185000000000008
 21
8.299999999999997
 31
0
  0
LINE
  8
0
 62
7
 10
7.960000000000008
 20
8.299999999999997
 30
0
 11
7.960000000000008
 21
8.399999999999997
 31
0
  0
LINE
  8
0
 62
7
  6
DASHED
 10
7.960000000000008
 20
8.399999999999997
 30
0
 11
6.800000000000009
 21
8.399999999999997
 31
0
  0
LINE
  8
0
 62
7
 10
1.425
 20
5.029999999999998
 30
0
 11
5.285000000000008
 21
5.029999999999998
 31
0
  0
LINE
  8
0
 62
7
 10
1.25
 20
4.79
 30
0
 11
5.285000000000008
 21
4.79
 31
0
  0
LINE
  8
0
 62
7
 10
5.285000000000008
 20
5.029999999999998
 30
0
 11
5.285000000000008
 21
4.79
 31
0
  0
LINE
  8
0
 62
7
 10
1.25
 20
4.75
 30
0
 11
5.285000000000008
 21
4.750000000000003
 31
0
  0
LINE
  8
0
 62
7
 10
5.185000000000008
 20
4.510000000000001
 30
0
 11
5.285000000000008
 21
4.510000000000001
 31
0
  0
LINE
  8
0
 62
7
 10
5.285000000000008
 20
4.750000000000003
 30
0
 11
5.285000000000008
 21
4.510000000000001
 31
0
  0
LINE
  8
0
 62
7
  6
DASHDOT
 10
5.185000000000008
 20
4.510000000000001
 30
0
 11
5.185000000000008
 21
3.400000000000001
 31
0
  0
LINE
  8
0
 62
7
 10
1.425
 20
3.350000000000001
 30
0
 11
1.425
 21
3.400000000000001
 31
0
  0
LINE
  8
0
 62
7
 10
5.185000000000008
 20
3.400000000000001
 30
0
 11
1.425
 21
3.400000000000001
 31
0
  0
LINE
  8
0
 62
7
 10
5.185000000000008
 20
11.04999999999999
 30
0
 11
5.325000000000009
 21
11.04999999999999
 31
0
  0
LINE
  8
0
 62
7
 10
5.185000000000008
 20
11.04999999999999
 30
0
 11
5.325000000000009
 21
11.04999999999999
 31
0
  0
LINE
  8
0
 62
7
 10
5.185000000000008
 20
8.099999999999998
 30
0
 11
5.325000000000009
 21
8.099999999999998
 31
0
  0
LINE
  8
0
 62
7
 10
1.425
 20
8.299999999999997
 30
0
 11
5.185000000000008
 21
8.299999999999997
 31
0
  0
LINE
  8
0
 62
7
 10
1.425
 20
10.84999999999999
 30
0
 11
5.185000000000008
 21
10.84999999999999
 31
0
  0
LINE
  8
0
 62
7
 10
1.425
 20
11.04999999999999
 30
0
 11
5.185000000000008
 21
11.04999999999999
 31
0
  0
LINE
  8
0
 62
7
 10
1.425
 20
8.099999999999998
 30
0
 11
1.425
 21
7.949999999999999
 31
0
  0
LINE
  8
0
 62
7
 10
1.25
 20
8.099999999999998
 30
0
 11
1.425
 21
8.099999999999998
 31
0
  0
LINE
  8
0
 62
7
 10
1.25
 20
8.299999999999997
 30
0
 11
1.425
 21
8.299999999999997
 31
0
  0
LINE
  8
0
 62
7
 10
1.25
 20
10.84999999999999
 30
0
 11
1.425
 21
10.84999999999999
 31
0
  0
LINE
  8
0
 62
7
 10
1.25
 20
11.04999999999999
 30
0
 11
1.425
 21
11.04999999999999
 31
0
  0
LINE
  8
0
 62
7
 10
1.25
 20
8.099999999999998
 30
0
 11
1.25
 21
7.949999999999999
 31
0
  0
LINE
  8
0
 62
7
 10
1.1
 20
8.099999999999998
 30
0
 11
1.25
 21
8.099999999999998
 31
0
  0
LINE
  8
0
 62
7
 10
1.25
 20
8.399999999999997
 30
0
 11
1.25
 21
8.299999999999997
 31
0
  0
LINE
  8
0
 62
7
 10
1.1
 20
8.299999999999997
 30
0
 11
1.25
 21
8.299999999999997
 31
0
  0
LINE
  8
0
 62
7
 10
1.1
 20
10.84999999999999
 30
0
 11
1.25
 21
10.84999999999999
 31
0
  0
LINE
  8
0
 62
7
 10
1.25
 20
11.14999999999999
 30
0
 11
1.25
 21
11.04999999999999
 31
0
  0
LINE
  8
0
 62
7
 10
1.1
 20
11.04999999999999
 30
0
 11
1.25
 21
11.04999999999999
 31
0
  0
LINE
  8
0
 62
7
  6
DASHDOT
 10
5.325000000000009
 20
8.099999999999998
 30
0
 11
5.325000000000009
 21
8.049999999999997
 31
0
  0
LINE
  8
0
 62
7
  6
DASHDOT
 10
5.325000000000009
 20
10.84999999999999
 30
0
 11
5.325000000000009
 21
10.79999999999999
 31
0
  0
LINE
  8
0
 62
7
  6
DASHDOT
 10
1.1
 20
8.099999999999998
 30
0
 11
1.1
 21
8.049999999999997
 31
0
  0
LINE
  8
0
 62
7
  6
DASHDOT
 10
1.1
 20
10.84999999999999
 30
0
 11
1.1
 21
10.79999999999999
 31
0
  0
LINE
  8
0
 62
7
  6
DASHDOT
 10
1.425
 20
11.19999999999999
 30
0
 11
1.475
 21
11.19999999999999
 31
0
  0
LINE
  8
0
 62
7
  6
DASHDOT
 10
1.425
 20
7.949999999999999
 30
0
 11
1.475
 21
7.949999999999999
 31
0
  0
LINE
  8
0
 62
7
  6
DASHDOT
 10
5.325000000000009
 20
8.449999999999998
 30
0
 11
5.325000000000009
 21
8.399999999999997
 31
0
  0
LINE
  8
0
 62
7
 10
1.425
 20
10.84999999999999
 30
0
 11
1.425
 21
8.399999999999997
 31
0
  0
LINE
  8
0
 62
7
 10
1.1
 20
8.399999999999997
 30
0
 11
1.25
 21
8.399999999999997
 31
0
  0
LINE
  8
0
 62
7
 10
1.25
 20
10.84999999999999
 30
0
 11
1.25
 21
8.399999999999997
 31
0
  0
LINE
  8
0
 62
7
  6
DASHDOT
 10
1.1
 20
8.449999999999998
 30
0
 11
1.1
 21
8.399999999999997
 31
0
  0
LINE
  8
0
 62
7
  6
DASHDOT
 10
5.325000000000009
 20
11.19999999999999
 30
0
 11
5.325000000000009
 21
11.14999999999999
 31
0
  0
LINE
  8
0
 62
7
 10
1.425
 20
11.19999999999999
 30
0
 11
1.425
 21
11.14999999999999
 31
0
  0
LINE
  8
0
 62
7
 10
1.1
 20
11.14999999999999
 30
0
 11
1.25
 21
11.14999999999999
 31
0
  0
LINE
  8
0
 62
7
 10
1.25
 20
11.19999999999999
 30
0
 11
1.25
 21
11.14999999999999
 31
0
  0
LINE
  8
0
 62
7
  6
DASHDOT
 10
1.1
 20
11.19999999999999
 30
0
 11
1.1
 21
11.14999999999999
 31
0
  0
LINE
  8
0
 62
7
  6
DASHDOT
 10
1.1
 20
8.299999999999997
 30
0
 11
1.1
 21
8.099999999999998
 31
0
  0
LINE
  8
0
 62
7
  6
DASHDOT
 10
1.1
 20
8.399999999999997
 30
0
 11
1.1
 21
8.299999999999997
 31
0
  0
LINE
  8
0
 62
7
  6
DASHDOT
 10
1.25
 20
7.949999999999999
 30
0
 11
1.425
 21
7.949999999999999
 31
0
  0
LINE
  8
0
 62
7
  6
DASHDOT
 10
1.2
 20
7.949999999999999
 30
0
 11
1.25
 21
7.949999999999999
 31
0
  0
LINE
  8
0
 62
7
  6
DASHDOT
 10
5.325000000000009
 20
8.299999999999997
 30
0
 11
5.325000000000009
 21
8.099999999999998
 31
0
  0
LINE
  8
0
 62
7
  6
DASHDOT
 10
5.325000000000009
 20
8.399999999999997
 30
0
 11
5.325000000000009
 21
8.299999999999997
 31
0
  0
LINE
  8
0
 62
7
  6
DASHDOT
 10
5.325000000000009
 20
11.04999999999999
 30
0
 11
5.325000000000009
 21
10.84999999999999
 31
0
  0
LINE
  8
0
 62
7
  6
DASHDOT
 10
5.325000000000009
 20
11.14999999999999
 30
0
 11
5.325000000000009
 21
11.04999999999999
 31
0
  0
LINE
  8
0
 62
7
  6
DASHDOT
 10
1.1
 20
11.04999999999999
 30
0
 11
1.1
 21
10.84999999999999
 31
0
  0
LINE
  8
0
 62
7
  6
DASHDOT
 10
1.1
 20
11.14999999999999
 30
0
 11
1.1
 21
11.04999999999999
 31
0
  0
LINE
  8
0
 62
7
  6
DASHDOT
 10
1.25
 20
11.19999999999999
 30
0
 11
1.425
 21
11.19999999999999
 31
0
  0
LINE
  8
0
 62
7
  6
DASHDOT
 10
1.2
 20
11.19999999999999
 30
0
 11
1.25
 21
11.19999999999999
 31
0
  0
LINE
  8
0
 62
7
 10
8.200000000000008
 20
8.099999999999998
 30
0
 11
8.200000000000008
 21
7.949999999999999
 31
0
  0
LINE
  8
0
 62
7
 10
7.960000000000008
 20
11.14999999999999
 30
0
 11
7.960000000000008
 21
11.19999999999999
 31
0
  0
LINE
  8
0
 62
7
 10
7.960000000000008
 20
11.04999999999999
 30
0
 11
8.200000000000008
 21
11.04999999999999
 31
0
  0
LINE
  8
0
 62
7
 10
8.200000000000008
 20
11.19999999999999
 30
0
 11
8.200000000000008
 21
11.04999999999999
 31
0
  0
LINE
  8
0
 62
7
 10
7.960000000000008
 20
10.84999999999999
 30
0
 11
7.960000000000008
 21
11.04999999999999
 31
0
  0
LINE
  8
0
 62
7
 10
7.960000000000008
 20
10.84999999999999
 30
0
 11
8.200000000000008
 21
10.84999999999999
 31
0
  0
LINE
  8
0
 62
7
 10
8.200000000000008
 20
11.04999999999999
 30
0
 11
8.200000000000008
 21
10.84999999999999
 31
0
  0
LINE
  8
0
 62
7
 10
7.960000000000008
 20
8.399999999999997
 30
0
 11
7.960000000000008
 21
10.84999999999999
 31
0
  0
LINE
  8
0
 62
7
 10
7.960000000000008
 20
8.299999999999997
 30
0
 11
8.200000000000008
 21
8.299999999999997
 31
0
  0
LINE
  8
0
 62
7
 10
8.200000000000008
 20
10.84999999999999
 30
0
 11
8.200000000000008
 21
8.299999999999997
 31
0
  0
LINE
  8
0
 62
7
 10
7.960000000000008
 20
8.099999999999998
 30
0
 11
7.960000000000008
 21
8.299999999999997
 31
0
  0
LINE
  8
0
 62
7
 10
7.960000000000008
 20
8.099999999999998
 30
0
 11
8.200000000000008
 21
8.099999999999998
 31
0
  0
LINE
  8
0
 62
7
 10
8.200000000000008
 20
8.299999999999997
 30
0
 11
8.200000000000008
 21
8.099999999999998
 31
0
  0
LINE
  8
0
 62
7
 10
7.960000000000008
 20
7.949999999999999
 30
0
 11
7.960000000000008
 21
8.099999999999998
 31
0
  0
LINE
  8
0
 62
7
 10
6.800000000000009
 20
10.84999999999999
 30
0
 11
6.800000000000009
 21
11.04999999999999
 31
0
  0
LINE
  8
0
 62
7
 10
6.500000000000009
 20
10.84999999999999
 30
0
 11
6.800000000000009
 21
10.84999999999999
 31
0
  0
LINE
  8
0
 62
7
 10
6.500000000000009
 20
11.04999999999999
 30
0
 11
6.800000000000009
 21
11.04999999999999
 31
0
  0
LINE
  8
0
 62
7
 10
6.500000000000009
 20
8.299999999999997
 30
0
 11
6.800000000000009
 21
8.299999999999997
 31
0
  0
LINE
  8
0
 62
7
 10
6.800000000000009
 20
8.099999999999998
 30
0
 11
6.800000000000009
 21
8.299999999999997
 31
0
  0
LINE
  8
0
 62
7
 10
6.500000000000009
 20
8.099999999999998
 30
0
 11
6.800000000000009
 21
8.099999999999998
 31
0
  0
LINE
  8
0
 62
7
  6
DASHDOT
 10
8.200000000000008
 20
11.19999999999999
 30
0
 11
8.250000000000007
 21
11.19999999999999
 31
0
  0
LINE
  8
0
 62
7
  6
DASHDOT
 10
6.500000000000009
 20
11.14999999999999
 30
0
 11
6.500000000000009
 21
11.19999999999999
 31
0
  0
LINE
  8
0
 62
7
  6
DASHDOT
 10
6.500000000000009
 20
8.099999999999998
 30
0
 11
6.500000000000009
 21
8.049999999999997
 31
0
  0
LINE
  8
0
 62
7
  6
DASHDOT
 10
8.200000000000008
 20
7.949999999999999
 30
0
 11
8.250000000000007
 21
7.949999999999999
 31
0
  0
LINE
  8
0
 62
7
 10
6.500000000000009
 20
8.399999999999997
 30
0
 11
6.800000000000009
 21
8.399999999999997
 31
0
  0
LINE
  8
0
 62
7
  6
DASHDOT
 10
6.500000000000009
 20
8.449999999999998
 30
0
 11
6.500000000000009
 21
8.399999999999997
 31
0
  0
LINE
  8
0
 62
7
 10
6.500000000000009
 20
11.14999999999999
 30
0
 11
6.800000000000009
 21
11.14999999999999
 31
0
  0
LINE
  8
0
 62
7
  6
DASHDOT
 10
6.500000000000009
 20
11.04999999999999
 30
0
 11
6.500000000000009
 21
11.14999999999999
 31
0
  0
LINE
  8
0
 62
7
  6
DASHDOT
 10
6.500000000000009
 20
8.399999999999997
 30
0
 11
6.500000000000009
 21
8.299999999999997
 31
0
  0
LINE
  8
0
 62
7
  6
DASHDOT
 10
6.500000000000009
 20
8.299999999999997
 30
0
 11
6.500000000000009
 21
8.099999999999998
 31
0
  0
LINE
  8
0
 62
7
  6
DASHDOT
 10
7.960000000000008
 20
7.949999999999999
 30
0
 11
8.200000000000008
 21
7.949999999999999
 31
0
  0
LINE
  8
0
 62
7
  6
DASHDOT
 10
7.910000000000008
 20
7.949999999999999
 30
0
 11
7.960000000000008
 21
7.949999999999999
 31
0
  0
LINE
  8
0
 62
7
  6
DASHDOT
 10
7.910000000000008
 20
11.19999999999999
 30
0
 11
7.960000000000008
 21
11.19999999999999
 31
0
  0
LINE
  8
0
 62
7
  6
DASHDOT
 10
7.960000000000008
 20
11.19999999999999
 30
0
 11
8.200000000000008
 21
11.19999999999999
 31
0
  0
LINE
  8
0
 62
7
  6
DASHDOT
 10
6.500000000000009
 20
10.79999999999999
 30
0
 11
6.500000000000009
 21
10.84999999999999
 31
0
  0
LINE
  8
0
 62
7
  6
DASHDOT
 10
6.500000000000009
 20
10.84999999999999
 30
0
 11
6.500000000000009
 21
11.04999999999999
 31
0
  0
LINE
  8
0
 62
7
  6
DASHED
 10
6.800000000000009
 20
11.04999999999999
 30
0
 11
7.960000000000008
 21
11.04999999999999
 31
0
  0
LINE
  8
0
 62
7
  6
DASHED
 10
6.800000000000009
 20
10.84999999999999
 30
0
 11
7.960000000000008
 21
10.84999999999999
 31
0
  0
LINE
  8
0
 62
7
  6
DASHED
 10
6.800000000000009
 20
8.299999999999997
 30
0
 11
7.960000000000008
 21
8.299999999999997
 31
0
  0
LINE
  8
0
 62
7
  6
DASHED
 10
6.800000000000009
 20
8.099999999999998
 30
0
 11
7.960000000000008
 21
8.099999999999998
 31
0
  0
LINE
  8
0
 62
7
 10
1.425
 20
5.179999999999996
 30
0
 11
1.425
 21
5.029999999999998
 31
0
  0
LINE
  8
0
 62
7
 10
1.25
 20
3.350000000000001
 30
0
 11
1.425
 21
3.350000000000001
 31
0
  0
LINE
  8
0
 62
7
 10
1.25
 20
4.75
 30
0
 11
1.25
 21
3.350000000000001
 31
0
  0
LINE
  8
0
 62
7
 10
1.425
 20
4.510000000000001
 30
0
 11
5.185000000000008
 21
4.510000000000001
 31
0
  0
LINE
  8
0
 62
7
  6
DASHDOT
 10
5.185000000000008
 20
3.400000000000001
 30
0
 11
5.185000000000008
 21
3.350000000000001
 31
0
  0
LINE
  8
0
 62
7
  6
DASHDOT
 10
5.185000000000008
 20
3.350000000000001
 30
0
 11
1.425
 21
3.350000000000001
 31
0
  0
LINE
  8
0
 62
7
 10
1.425
 20
3.400000000000001
 30
0
 11
1.425
 21
4.510000000000001
 31
0
  0
LINE
  8
0
 62
7
  6
DASHDOT
 10
1.2
 20
5.179999999999996
 30
0
 11
1.25
 21
5.179999999999996
 31
0
  0
LINE
  8
0
 62
7
  6
DASHDOT
 10
1.25
 20
5.179999999999996
 30
0
 11
1.425
 21
5.179999999999996
 31
0
  0
LINE
  8
0
 62
7
  6
DASHDOT
 10
1.425
 20
5.179999999999996
 30
0
 11
1.475
 21
5.179999999999996
 31
0
  0
LINE
  8
0
 62
7
 10
1.25
 20
5.179999999999996
 30
0
 11
1.25
 21
4.79
 31
0
  0
LINE
  8
0
 62
7
 10
1.425
 20
8.399999999999997
 30
0
 11
5.325000000000009
 21
8.399999999999997
 31
0
  0
LINE
  8
0
 62
7
 10
1.425
 20
8.399999999999997
 30
0
 11
1.425
 21
8.299999999999997
 31
0
  0
LINE
  8
0
 62
7
 10
5.185000000000008
 20
8.299999999999997
 30
0
 11
5.325000000000009
 21
8.299999999999997
 31
0
  0
LINE
  8
0
 62
7
 10
5.325000000000009
 20
11.14999999999999
 30
0
 11
1.425
 21
11.14999999999999
 31
0
  0
LINE
  8
0
 62
7
 10
1.425
 20
11.14999999999999
 30
0
 11
1.425
 21
11.04999999999999
 31
0
  0
LINE
  8
0
 62
7
 10
5.185000000000008
 20
11.04999999999999
 30
0
 11
5.185000000000008
 21
10.84999999999999
 31
0
  0
LINE
  8
0
 62
7
 10
5.185000000000008
 20
10.84999999999999
 30
0
 11
5.325000000000009
 21
10.84999999999999
 31
0
  0
LINE
  8
0
 62
7
  6
DASHED
 10
7.960000000000008
 20
11.14999999999999
 30
0
 11
6.800000000000009
 21
11.14999999999999
 31
0
  0
LINE
  8
0
 62
7
 10
7.960000000000008
 20
11.04999999999999
 30
0
 11
7.960000000000008
 21
11.14999999999999
 31
0
  0
LINE
  8
0
 62
7
 10
2.48662945253507
 20
4.15377210355987
 30
0
 11
2.48662945253507
 21
4.27377210355987
 31
0
  0
LINE
  8
0
 62
7
 10
2.562229452535071
 20
4.27377210355987
 30
0
 11
2.50822945253507
 21
4.21377210355987
 31
0
  0
LINE
  8
0
 62
7
 10
2.50822945253507
 20
4.21377210355987
 30
0
 11
2.562229452535071
 21
4.15377210355987
 31
0
  0
LINE
  8
0
 62
7
 10
2.50822945253507
 20
4.21377210355987
 30
0
 11
2.48662945253507
 21
4.189772103559871
 31
0
  0
LINE
  8
0
 62
7
 10
2.67022945253507
 20
4.27377210355987
 30
0
 11
2.59462945253507
 21
4.27377210355987
 31
0
  0
LINE
  8
0
 62
7
 10
2.59462945253507
 20
4.27377210355987
 30
0
 11
2.59462945253507
 21
4.21377210355987
 31
0
  0
LINE
  8
0
 62
7
 10
2.59462945253507
 20
4.15377210355987
 30
0
 11
2.67022945253507
 21
4.15377210355987
 31
0
  0
LINE
  8
0
 62
7
 10
2.65942945253507
 20
4.21377210355987
 30
0
 11
2.59462945253507
 21
4.21377210355987
 31
0
  0
LINE
  8
0
 62
7
 10
2.59462945253507
 20
4.21377210355987
 30
0
 11
2.59462945253507
 21
4.15377210355987
 31
0
  0
LINE
  8
0
 62
7
 10
2.70262945253507
 20
4.15377210355987
 30
0
 11
2.70262945253507
 21
4.27377210355987
 31
0
  0
LINE
  8
0
 62
7
 10
2.70262945253507
 20
4.27377210355987
 30
0
 11
2.77822945253507
 21
4.15377210355987
 31
0
  0
LINE
  8
0
 62
7
 10
2.77822945253507
 20
4.15377210355987
 30
0
 11
2.77822945253507
 21
4.27377210355987
 31
0
  0
LINE
  8
0
 62
7
 10
2.81062945253507
 20
4.15377210355987
 30
0
 11
2.81062945253507
 21
4.27377210355987
 31
0
  0
LINE
  8
0
 62
7
 10
2.81062945253507
 20
4.27377210355987
 30
0
 11
2.88622945253507
 21
4.15377210355987
 31
0
  0
LINE
  8
0
 62
7
 10
2.88622945253507
 20
4.15377210355987
 30
0
 11
2.88622945253507
 21
4.27377210355987
 31
0
  0
LINE
  8
0
 62
7
 10
2.99422945253507
 20
4.23777210355987
 30
0
 11
2.991529452535071
 21
4.24977210355987
 31
0
  0
LINE
  8
0
 62
7
 10
2.991529452535071
 20
4.24977210355987
 30
0
 11
2.98612945253507
 21
4.25877210355987
 31
0
  0
LINE
  8
0
 62
7
 10
2.98612945253507
 20
4.25877210355987
 30
0
 11
2.98072945253507
 21
4.26477210355987
 31
0
  0
LINE
  8
0
 62
7
 10
2.98072945253507
 20
4.26477210355987
 30
0
 11
2.97262945253507
 21
4.27077210355987
 31
0
  0
LINE
  8
0
 62
7
 10
2.97262945253507
 20
4.27077210355987
 30
0
 11
2.96452945253507
 21
4.27377210355987
 31
0
  0
LINE
  8
0
 62
7
 10
2.96452945253507
 20
4.27377210355987
 30
0
 11
2.94832945253507
 21
4.27377210355987
 31
0
  0
LINE
  8
0
 62
7
 10
2.94832945253507
 20
4.27377210355987
 30
0
 11
2.94022945253507
 21
4.27077210355987
 31
0
  0
LINE
  8
0
 62
7
 10
2.94022945253507
 20
4.27077210355987
 30
0
 11
2.93212945253507
 21
4.26477210355987
 31
0
  0
LINE
  8
0
 62
7
 10
2.93212945253507
 20
4.26477210355987
 30
0
 11
2.92672945253507
 21
4.25877210355987
 31
0
  0
LINE
  8
0
 62
7
 10
2.92672945253507
 20
4.25877210355987
 30
0
 11
2.92132945253507
 21
4.24977210355987
 31
0
  0
LINE
  8
0
 62
7
 10
2.92132945253507
 20
4.24977210355987
 30
0
 11
2.91862945253507
 21
4.23777210355987
 31
0
  0
LINE
  8
0
 62
7
 10
2.91862945253507
 20
4.23777210355987
 30
0
 11
2.91862945253507
 21
4.189772103559871
 31
0
  0
LINE
  8
0
 62
7
 10
2.91862945253507
 20
4.189772103559871
 30
0
 11
2.92132945253507
 21
4.17777210355987
 31
0
  0
LINE
  8
0
 62
7
 10
2.92132945253507
 20
4.17777210355987
 30
0
 11
2.92672945253507
 21
4.16877210355987
 31
0
  0
LINE
  8
0
 62
7
 10
2.92672945253507
 20
4.16877210355987
 30
0
 11
2.93212945253507
 21
4.162772103559869
 31
0
  0
LINE
  8
0
 62
7
 10
2.93212945253507
 20
4.162772103559869
 30
0
 11
2.94022945253507
 21
4.15677210355987
 31
0
  0
LINE
  8
0
 62
7
 10
2.94022945253507
 20
4.15677210355987
 30
0
 11
2.94832945253507
 21
4.15377210355987
 31
0
  0
LINE
  8
0
 62
7
 10
2.94832945253507
 20
4.15377210355987
 30
0
 11
2.96452945253507
 21
4.15377210355987
 31
0
  0
LINE
  8
0
 62
7
 10
2.96452945253507
 20
4.15377210355987
 30
0
 11
2.97262945253507
 21
4.15677210355987
 31
0
  0
LINE
  8
0
 62
7
 10
2.97262945253507
 20
4.15677210355987
 30
0
 11
2.98072945253507
 21
4.162772103559869
 31
0
  0
LINE
  8
0
 62
7
 10
2.98072945253507
 20
4.162772103559869
 30
0
 11
2.98612945253507
 21
4.16877210355987
 31
0
  0
LINE
  8
0
 62
7
 10
2.98612945253507
 20
4.16877210355987
 30
0
 11
2.991529452535071
 21
4.17777210355987
 31
0
  0
LINE
  8
0
 62
7
 10
2.991529452535071
 20
4.17777210355987
 30
0
 11
2.99422945253507
 21
4.189772103559871
 31
0
  0
LINE
  8
0
 62
7
 10
2.99422945253507
 20
4.189772103559871
 30
0
 11
2.99422945253507
 21
4.21377210355987
 31
0
  0
LINE
  8
0
 62
7
 10
2.99422945253507
 20
4.21377210355987
 30
0
 11
2.961829452535071
 21
4.21377210355987
 31
0
  0
LINE
  8
0
 62
7
 10
3.072529452535071
 20
4.27377210355987
 30
0
 11
3.05632945253507
 21
4.27377210355987
 31
0
  0
LINE
  8
0
 62
7
 10
3.05632945253507
 20
4.27377210355987
 30
0
 11
3.04822945253507
 21
4.27077210355987
 31
0
  0
LINE
  8
0
 62
7
 10
3.04822945253507
 20
4.27077210355987
 30
0
 11
3.04012945253507
 21
4.26477210355987
 31
0
  0
LINE
  8
0
 62
7
 10
3.04012945253507
 20
4.26477210355987
 30
0
 11
3.034729452535071
 21
4.25877210355987
 31
0
  0
LINE
  8
0
 62
7
 10
3.034729452535071
 20
4.25877210355987
 30
0
 11
3.02932945253507
 21
4.24977210355987
 31
0
  0
LINE
  8
0
 62
7
 10
3.02932945253507
 20
4.24977210355987
 30
0
 11
3.026629452535071
 21
4.23777210355987
 31
0
  0
LINE
  8
0
 62
7
 10
3.026629452535071
 20
4.23777210355987
 30
0
 11
3.026629452535071
 21
4.189772103559871
 31
0
  0
LINE
  8
0
 62
7
 10
3.026629452535071
 20
4.189772103559871
 30
0
 11
3.02932945253507
 21
4.17777210355987
 31
0
  0
LINE
  8
0
 62
7
 10
3.02932945253507
 20
4.17777210355987
 30
0
 11
3.034729452535071
 21
4.16877210355987
 31
0
  0
LINE
  8
0
 62
7
 10
3.034729452535071
 20
4.16877210355987
 30
0
 11
3.04012945253507
 21
4.162772103559869
 31
0
  0
LINE
  8
0
 62
7
 10
3.04012945253507
 20
4.162772103559869
 30
0
 11
3.04822945253507
 21
4.15677210355987
 31
0
  0
LINE
  8
0
 62
7
 10
3.04822945253507
 20
4.15677210355987
 30
0
 11
3.05632945253507
 21
4.15377210355987
 31
0
  0
LINE
  8
0
 62
7
 10
3.05632945253507
 20
4.15377210355987
 30
0
 11
3.072529452535071
 21
4.15377210355987
 31
0
  0
LINE
  8
0
 62
7
 10
3.072529452535071
 20
4.15377210355987
 30
0
 11
3.08062945253507
 21
4.15677210355987
 31
0
  0
LINE
  8
0
 62
7
 10
3.08062945253507
 20
4.15677210355987
 30
0
 11
3.08872945253507
 21
4.162772103559869
 31
0
  0
LINE
  8
0
 62
7
 10
3.08872945253507
 20
4.162772103559869
 30
0
 11
3.094129452535071
 21
4.16877210355987
 31
0
  0
LINE
  8
0
 62
7
 10
3.094129452535071
 20
4.16877210355987
 30
0
 11
3.09952945253507
 21
4.17777210355987
 31
0
  0
LINE
  8
0
 62
7
 10
3.09952945253507
 20
4.17777210355987
 30
0
 11
3.102229452535071
 21
4.189772103559871
 31
0
  0
LINE
  8
0
 62
7
 10
3.102229452535071
 20
4.189772103559871
 30
0
 11
3.102229452535071
 21
4.23777210355987
 31
0
  0
LINE
  8
0
 62
7
 10
3.102229452535071
 20
4.23777210355987
 30
0
 11
3.09952945253507
 21
4.24977210355987
 31
0
  0
LINE
  8
0
 62
7
 10
3.09952945253507
 20
4.24977210355987
 30
0
 11
3.094129452535071
 21
4.25877210355987
 31
0
  0
LINE
  8
0
 62
7
 10
3.094129452535071
 20
4.25877210355987
 30
0
 11
3.08872945253507
 21
4.26477210355987
 31
0
  0
LINE
  8
0
 62
7
 10
3.08872945253507
 20
4.26477210355987
 30
0
 11
3.08062945253507
 21
4.27077210355987
 31
0
  0
LINE
  8
0
 62
7
 10
3.08062945253507
 20
4.27077210355987
 30
0
 11
3.072529452535071
 21
4.27377210355987
 31
0
  0
LINE
  8
0
 62
7
 10
3.12382945253507
 20
4.27377210355987
 30
0
 11
3.161629452535071
 21
4.27377210355987
 31
0
  0
LINE
  8
0
 62
7
 10
3.161629452535071
 20
4.27377210355987
 30
0
 11
3.161629452535071
 21
4.15377210355987
 31
0
  0
LINE
  8
0
 62
7
 10
3.161629452535071
 20
4.27377210355987
 30
0
 11
3.19942945253507
 21
4.27377210355987
 31
0
  0
LINE
  8
0
 62
7
 10
3.231829452535071
 20
4.27377210355987
 30
0
 11
3.269629452535071
 21
4.27377210355987
 31
0
  0
LINE
  8
0
 62
7
 10
3.269629452535071
 20
4.27377210355987
 30
0
 11
3.269629452535071
 21
4.15377210355987
 31
0
  0
LINE
  8
0
 62
7
 10
3.269629452535071
 20
4.27377210355987
 30
0
 11
3.307429452535071
 21
4.27377210355987
 31
0
  0
LINE
  8
0
 62
7
 10
3.42622945253507
 20
4.19577210355987
 30
0
 11
3.48022945253507
 21
4.19577210355987
 31
0
  0
LINE
  8
0
 62
7
 10
3.58822945253507
 20
4.27377210355987
 30
0
 11
3.62602945253507
 21
4.27377210355987
 31
0
  0
LINE
  8
0
 62
7
 10
3.62602945253507
 20
4.27377210355987
 30
0
 11
3.62602945253507
 21
4.15377210355987
 31
0
  0
LINE
  8
0
 62
7
 10
3.62602945253507
 20
4.27377210355987
 30
0
 11
3.663829452535071
 21
4.27377210355987
 31
0
  0
LINE
  8
0
 62
7
 10
3.69622945253507
 20
4.15377210355987
 30
0
 11
3.69622945253507
 21
4.27377210355987
 31
0
  0
LINE
  8
0
 62
7
 10
3.69622945253507
 20
4.27377210355987
 30
0
 11
3.747529452535071
 21
4.27377210355987
 31
0
  0
LINE
  8
0
 62
7
 10
3.747529452535071
 20
4.27377210355987
 30
0
 11
3.758329452535071
 21
4.27077210355987
 31
0
  0
LINE
  8
0
 62
7
 10
3.758329452535071
 20
4.27077210355987
 30
0
 11
3.76642945253507
 21
4.26477210355987
 31
0
  0
LINE
  8
0
 62
7
 10
3.76642945253507
 20
4.26477210355987
 30
0
 11
3.769129452535071
 21
4.25877210355987
 31
0
  0
LINE
  8
0
 62
7
 10
3.769129452535071
 20
4.25877210355987
 30
0
 11
3.77182945253507
 21
4.24977210355987
 31
0
  0
LINE
  8
0
 62
7
 10
3.77182945253507
 20
4.24977210355987
 30
0
 11
3.77182945253507
 21
4.23777210355987
 31
0
  0
LINE
  8
0
 62
7
 10
3.77182945253507
 20
4.23777210355987
 30
0
 11
3.769129452535071
 21
4.22877210355987
 31
0
  0
LINE
  8
0
 62
7
 10
3.769129452535071
 20
4.22877210355987
 30
0
 11
3.76642945253507
 21
4.22277210355987
 31
0
  0
LINE
  8
0
 62
7
 10
3.76642945253507
 20
4.22277210355987
 30
0
 11
3.758329452535071
 21
4.21677210355987
 31
0
  0
LINE
  8
0
 62
7
 10
3.758329452535071
 20
4.21677210355987
 30
0
 11
3.747529452535071
 21
4.21377210355987
 31
0
  0
LINE
  8
0
 62
7
 10
3.747529452535071
 20
4.21377210355987
 30
0
 11
3.73942945253507
 21
4.21377210355987
 31
0
  0
LINE
  8
0
 62
7
 10
3.73942945253507
 20
4.21377210355987
 30
0
 11
3.77182945253507
 21
4.15377210355987
 31
0
  0
LINE
  8
0
 62
7
 10
3.73942945253507
 20
4.21377210355987
 30
0
 11
3.69622945253507
 21
4.21377210355987
 31
0
  0
LINE
  8
0
 62
7
 10
3.86902945253507
 20
4.27377210355987
 30
0
 11
3.79342945253507
 21
4.27377210355987
 31
0
  0
LINE
  8
0
 62
7
 10
3.79342945253507
 20
4.27377210355987
 30
0
 11
3.79342945253507
 21
4.21377210355987
 31
0
  0
LINE
  8
0
 62
7
 10
3.79342945253507
 20
4.15377210355987
 30
0
 11
3.86902945253507
 21
4.15377210355987
 31
0
  0
LINE
  8
0
 62
7
 10
3.85822945253507
 20
4.21377210355987
 30
0
 11
3.79342945253507
 21
4.21377210355987
 31
0
  0
LINE
  8
0
 62
7
 10
3.79342945253507
 20
4.21377210355987
 30
0
 11
3.79342945253507
 21
4.15377210355987
 31
0
  0
LINE
  8
0
 62
7
 10
3.90142945253507
 20
4.15377210355987
 30
0
 11
3.90142945253507
 21
4.21377210355987
 31
0
  0
LINE
  8
0
 62
7
 10
3.90142945253507
 20
4.27377210355987
 30
0
 11
3.95272945253507
 21
4.27377210355987
 31
0
  0
LINE
  8
0
 62
7
 10
3.95272945253507
 20
4.27377210355987
 30
0
 11
3.96352945253507
 21
4.27077210355987
 31
0
  0
LINE
  8
0
 62
7
 10
3.96352945253507
 20
4.27077210355987
 30
0
 11
3.971629452535071
 21
4.26477210355987
 31
0
  0
LINE
  8
0
 62
7
 10
3.971629452535071
 20
4.26477210355987
 30
0
 11
3.974329452535072
 21
4.25877210355987
 31
0
  0
LINE
  8
0
 62
7
 10
3.974329452535072
 20
4.25877210355987
 30
0
 11
3.97702945253507
 21
4.24977210355987
 31
0
  0
LINE
  8
0
 62
7
 10
3.97702945253507
 20
4.24977210355987
 30
0
 11
3.97702945253507
 21
4.23777210355987
 31
0
  0
LINE
  8
0
 62
7
 10
3.97702945253507
 20
4.23777210355987
 30
0
 11
3.974329452535072
 21
4.22877210355987
 31
0
  0
LINE
  8
0
 62
7
 10
3.974329452535072
 20
4.22877210355987
 30
0
 11
3.971629452535071
 21
4.22277210355987
 31
0
  0
LINE
  8
0
 62
7
 10
3.971629452535071
 20
4.22277210355987
 30
0
 11
3.96352945253507
 21
4.21677210355987
 31
0
  0
LINE
  8
0
 62
7
 10
3.96352945253507
 20
4.21677210355987
 30
0
 11
3.95272945253507
 21
4.21377210355987
 31
0
  0
LINE
  8
0
 62
7
 10
3.95272945253507
 20
4.21377210355987
 30
0
 11
3.90142945253507
 21
4.21377210355987
 31
0
  0
LINE
  8
0
 62
7
 10
3.90142945253507
 20
4.21377210355987
 30
0
 11
3.90142945253507
 21
4.27377210355987
 31
0
  0
LINE
  8
0
 62
7
 10
3.998629452535072
 20
4.15377210355987
 30
0
 11
3.998629452535072
 21
4.21377210355987
 31
0
  0
LINE
  8
0
 62
7
 10
3.998629452535072
 20
4.27377210355987
 30
0
 11
4.049929452535071
 21
4.27377210355987
 31
0
  0
LINE
  8
0
 62
7
 10
4.049929452535071
 20
4.27377210355987
 30
0
 11
4.06072945253507
 21
4.27077210355987
 31
0
  0
LINE
  8
0
 62
7
 10
4.06072945253507
 20
4.27077210355987
 30
0
 11
4.06882945253507
 21
4.26477210355987
 31
0
  0
LINE
  8
0
 62
7
 10
4.06882945253507
 20
4.26477210355987
 30
0
 11
4.071529452535071
 21
4.25877210355987
 31
0
  0
LINE
  8
0
 62
7
 10
4.071529452535071
 20
4.25877210355987
 30
0
 11
4.074229452535072
 21
4.24977210355987
 31
0
  0
LINE
  8
0
 62
7
 10
4.074229452535072
 20
4.24977210355987
 30
0
 11
4.074229452535072
 21
4.23777210355987
 31
0
  0
LINE
  8
0
 62
7
 10
4.074229452535072
 20
4.23777210355987
 30
0
 11
4.071529452535071
 21
4.22877210355987
 31
0
  0
LINE
  8
0
 62
7
 10
4.071529452535071
 20
4.22877210355987
 30
0
 11
4.06882945253507
 21
4.22277210355987
 31
0
  0
LINE
  8
0
 62
7
 10
4.06882945253507
 20
4.22277210355987
 30
0
 11
4.06072945253507
 21
4.21677210355987
 31
0
  0
LINE
  8
0
 62
7
 10
4.06072945253507
 20
4.21677210355987
 30
0
 11
4.049929452535071
 21
4.21377210355987
 31
0
  0
LINE
  8
0
 62
7
 10
4.049929452535071
 20
4.21377210355987
 30
0
 11
3.998629452535072
 21
4.21377210355987
 31
0
  0
LINE
  8
0
 62
7
 10
3.998629452535072
 20
4.21377210355987
 30
0
 11
3.998629452535072
 21
4.27377210355987
 31
0
  0
LINE
  8
0
 62
7
 10
4.171429452535071
 20
4.27377210355987
 30
0
 11
4.09582945253507
 21
4.27377210355987
 31
0
  0
LINE
  8
0
 62
7
 10
4.09582945253507
 20
4.27377210355987
 30
0
 11
4.09582945253507
 21
4.21377210355987
 31
0
  0
LINE
  8
0
 62
7
 10
4.09582945253507
 20
4.15377210355987
 30
0
 11
4.171429452535071
 21
4.15377210355987
 31
0
  0
LINE
  8
0
 62
7
 10
4.160629452535072
 20
4.21377210355987
 30
0
 11
4.09582945253507
 21
4.21377210355987
 31
0
  0
LINE
  8
0
 62
7
 10
4.09582945253507
 20
4.21377210355987
 30
0
 11
4.09582945253507
 21
4.15377210355987
 31
0
  0
LINE
  8
0
 62
7
 10
0.675
 20
2.500000000000002
 30
0
 11
0.675
 21
2.620000000000003
 31
0
  0
LINE
  8
0
 62
7
 10
0.675
 20
2.620000000000003
 30
0
 11
0.7182000000000001
 21
2.524000000000002
 31
0
  0
LINE
  8
0
 62
7
 10
0.7182000000000001
 20
2.524000000000002
 30
0
 11
0.7614000000000001
 21
2.620000000000003
 31
0
  0
LINE
  8
0
 62
7
 10
0.7614000000000001
 20
2.620000000000003
 30
0
 11
0.7614000000000001
 21
2.500000000000002
 31
0
  0
LINE
  8
0
 62
7
 10
0.8397000000000001
 20
2.620000000000003
 30
0
 11
0.8235000000000001
 21
2.620000000000003
 31
0
  0
LINE
  8
0
 62
7
 10
0.8235000000000001
 20
2.620000000000003
 30
0
 11
0.8154000000000002
 21
2.617000000000003
 31
0
  0
LINE
  8
0
 62
7
 10
0.8154000000000002
 20
2.617000000000003
 30
0
 11
0.8073000000000001
 21
2.611000000000002
 31
0
  0
LINE
  8
0
 62
7
 10
0.8073000000000001
 20
2.611000000000002
 30
0
 11
0.8019000000000001
 21
2.605000000000002
 31
0
  0
LINE
  8
0
 62
7
 10
0.8019000000000001
 20
2.605000000000002
 30
0
 11
0.7965
 21
2.596000000000002
 31
0
  0
LINE
  8
0
 62
7
 10
0.7965
 20
2.596000000000002
 30
0
 11
0.7938000000000001
 21
2.584000000000002
 31
0
  0
LINE
  8
0
 62
7
 10
0.7938000000000001
 20
2.584000000000002
 30
0
 11
0.7938000000000001
 21
2.536000000000002
 31
0
  0
LINE
  8
0
 62
7
 10
0.7938000000000001
 20
2.536000000000002
 30
0
 11
0.7965
 21
2.524000000000002
 31
0
  0
LINE
  8
0
 62
7
 10
0.7965
 20
2.524000000000002
 30
0
 11
0.8019000000000001
 21
2.515000000000002
 31
0
  0
LINE
  8
0
 62
7
 10
0.8019000000000001
 20
2.515000000000002
 30
0
 11
0.8073000000000001
 21
2.509000000000002
 31
0
  0
LINE
  8
0
 62
7
 10
0.8073000000000001
 20
2.509000000000002
 30
0
 11
0.8154000000000002
 21
2.503000000000002
 31
0
  0
LINE
  8
0
 62
7
 10
0.8154000000000002
 20
2.503000000000002
 30
0
 11
0.8235000000000001
 21
2.500000000000002
 31
0
  0
LINE
  8
0
 62
7
 10
0.8235000000000001
 20
2.500000000000002
 30
0
 11
0.8397000000000001
 21
2.500000000000002
 31
0
  0
LINE
  8
0
 62
7
 10
0.8397000000000001
 20
2.500000000000002
 30
0
 11
0.8478
 21
2.503000000000002
 31
0
  0
LINE
  8
0
 62
7
 10
0.8478
 20
2.503000000000002
 30
0
 11
0.8559000000000001
 21
2.509000000000002
 31
0
  0
LINE
  8
0
 62
7
 10
0.8559000000000001
 20
2.509000000000002
 30
0
 11
0.8613
 21
2.515000000000002
 31
0
  0
LINE
  8
0
 62
7
 10
0.8613
 20
2.515000000000002
 30
0
 11
0.8667
 21
2.524000000000002
 31
0
  0
LINE
  8
0
 62
7
 10
0.8667
 20
2.524000000000002
 30
0
 11
0.8694000000000002
 21
2.536000000000002
 31
0
  0
LINE
  8
0
 62
7
 10
0.8694000000000002
 20
2.536000000000002
 30
0
 11
0.8694000000000002
 21
2.584000000000002
 31
0
  0
LINE
  8
0
 62
7
 10
0.8694000000000002
 20
2.584000000000002
 30
0
 11
0.8667
 21
2.596000000000002
 31
0
  0
LINE
  8
0
 62
7
 10
0.8667
 20
2.596000000000002
 30
0
 11
0.8613
 21
2.605000000000002
 31
0
  0
LINE
  8
0
 62
7
 10
0.8613
 20
2.605000000000002
 30
0
 11
0.8559000000000001
 21
2.611000000000002
 31
0
  0
LINE
  8
0
 62
7
 10
0.8559000000000001
 20
2.611000000000002
 30
0
 11
0.8478
 21
2.617000000000003
 31
0
  0
LINE
  8
0
 62
7
 10
0.8478
 20
2.617000000000003
 30
0
 11
0.8397000000000001
 21
2.620000000000003
 31
0
  0
LINE
  8
0
 62
7
 10
0.8910000000000002
 20
2.620000000000003
 30
0
 11
0.9288000000000001
 21
2.500000000000002
 31
0
  0
LINE
  8
0
 62
7
 10
0.9288000000000001
 20
2.500000000000002
 30
0
 11
0.9666000000000002
 21
2.620000000000003
 31
0
  0
LINE
  8
0
 62
7
 10
0.9990000000000001
 20
2.602000000000003
 30
0
 11
1.0044
 21
2.611000000000002
 31
0
  0
LINE
  8
0
 62
7
 10
1.0044
 20
2.611000000000002
 30
0
 11
1.0125
 21
2.617000000000003
 31
0
  0
LINE
  8
0
 62
7
 10
1.0125
 20
2.617000000000003
 30
0
 11
1.0233
 21
2.620000000000003
 31
0
  0
LINE
  8
0
 62
7
 10
1.0233
 20
2.620000000000003
 30
0
 11
1.0395
 21
2.620000000000003
 31
0
  0
LINE
  8
0
 62
7
 10
1.0395
 20
2.620000000000003
 30
0
 11
1.0476
 21
2.617000000000003
 31
0
  0
LINE
  8
0
 62
7
 10
1.0476
 20
2.617000000000003
 30
0
 11
1.0557
 21
2.611000000000002
 31
0
  0
LINE
  8
0
 62
7
 10
1.0557
 20
2.611000000000002
 30
0
 11
1.0611
 21
2.602000000000003
 31
0
  0
LINE
  8
0
 62
7
 10
1.0611
 20
2.602000000000003
 30
0
 11
1.0638
 21
2.590000000000003
 31
0
  0
LINE
  8
0
 62
7
 10
1.0638
 20
2.590000000000003
 30
0
 11
1.0638
 21
2.581000000000002
 31
0
  0
LINE
  8
0
 62
7
 10
1.0638
 20
2.581000000000002
 30
0
 11
1.0611
 21
2.572000000000003
 31
0
  0
LINE
  8
0
 62
7
 10
1.0611
 20
2.572000000000003
 30
0
 11
1.0557
 21
2.566000000000002
 31
0
  0
LINE
  8
0
 62
7
 10
1.0557
 20
2.566000000000002
 30
0
 11
1.0422
 21
2.560000000000002
 31
0
  0
LINE
  8
0
 62
7
 10
1.0233
 20
2.560000000000002
 30
0
 11
1.0422
 21
2.560000000000002
 31
0
  0
LINE
  8
0
 62
7
 10
1.0422
 20
2.560000000000002
 30
0
 11
1.0557
 21
2.554000000000002
 31
0
  0
LINE
  8
0
 62
7
 10
1.0557
 20
2.554000000000002
 30
0
 11
1.0611
 21
2.548000000000002
 31
0
  0
LINE
  8
0
 62
7
 10
1.0611
 20
2.548000000000002
 30
0
 11
1.0638
 21
2.539000000000002
 31
0
  0
LINE
  8
0
 62
7
 10
1.0638
 20
2.539000000000002
 30
0
 11
1.0638
 21
2.530000000000002
 31
0
  0
LINE
  8
0
 62
7
 10
1.0638
 20
2.530000000000002
 30
0
 11
1.0611
 21
2.518000000000002
 31
0
  0
LINE
  8
0
 62
7
 10
1.0611
 20
2.518000000000002
 30
0
 11
1.0557
 21
2.509000000000002
 31
0
  0
LINE
  8
0
 62
7
 10
1.0557
 20
2.509000000000002
 30
0
 11
1.0476
 21
2.503000000000002
 31
0
  0
LINE
  8
0
 62
7
 10
1.0476
 20
2.503000000000002
 30
0
 11
1.0395
 21
2.500000000000002
 31
0
  0
LINE
  8
0
 62
7
 10
1.0395
 20
2.500000000000002
 30
0
 11
1.0233
 21
2.500000000000002
 31
0
  0
LINE
  8
0
 62
7
 10
1.0233
 20
2.500000000000002
 30
0
 11
1.0125
 21
2.503000000000002
 31
0
  0
LINE
  8
0
 62
7
 10
1.0125
 20
2.503000000000002
 30
0
 11
1.0044
 21
2.509000000000002
 31
0
  0
LINE
  8
0
 62
7
 10
1.0044
 20
2.509000000000002
 30
0
 11
0.9990000000000001
 21
2.518000000000002
 31
0
  0
LINE
  8
0
 62
7
 10
1.0962
 20
2.608000000000002
 30
0
 11
1.0962
 21
2.620000000000003
 31
0
  0
LINE
  8
0
 62
7
 10
1.0962
 20
2.620000000000003
 30
0
 11
1.161
 21
2.620000000000003
 31
0
  0
LINE
  8
0
 62
7
 10
1.161
 20
2.620000000000003
 30
0
 11
1.107
 21
2.500000000000002
 31
0
  0
LINE
  8
0
 62
7
 10
1.1934
 20
2.548000000000002
 30
0
 11
1.1961
 21
2.560000000000002
 31
0
  0
LINE
  8
0
 62
7
 10
1.1961
 20
2.560000000000002
 30
0
 11
1.2015
 21
2.569000000000002
 31
0
  0
LINE
  8
0
 62
7
 10
1.2015
 20
2.569000000000002
 30
0
 11
1.2096
 21
2.575000000000003
 31
0
  0
LINE
  8
0
 62
7
 10
1.2096
 20
2.575000000000003
 30
0
 11
1.2177
 21
2.578000000000002
 31
0
  0
LINE
  8
0
 62
7
 10
1.2177
 20
2.578000000000002
 30
0
 11
1.2339
 21
2.578000000000002
 31
0
  0
LINE
  8
0
 62
7
 10
1.2339
 20
2.578000000000002
 30
0
 11
1.242
 21
2.575000000000003
 31
0
  0
LINE
  8
0
 62
7
 10
1.242
 20
2.575000000000003
 30
0
 11
1.2501
 21
2.569000000000002
 31
0
  0
LINE
  8
0
 62
7
 10
1.2501
 20
2.569000000000002
 30
0
 11
1.2555
 21
2.560000000000002
 31
0
  0
LINE
  8
0
 62
7
 10
1.2555
 20
2.560000000000002
 30
0
 11
1.2582
 21
2.548000000000002
 31
0
  0
LINE
  8
0
 62
7
 10
1.2582
 20
2.548000000000002
 30
0
 11
1.2582
 21
2.530000000000002
 31
0
  0
LINE
  8
0
 62
7
 10
1.2582
 20
2.530000000000002
 30
0
 11
1.2555
 21
2.518000000000002
 31
0
  0
LINE
  8
0
 62
7
 10
1.2555
 20
2.518000000000002
 30
0
 11
1.2501
 21
2.509000000000002
 31
0
  0
LINE
  8
0
 62
7
 10
1.2501
 20
2.509000000000002
 30
0
 11
1.242
 21
2.503000000000002
 31
0
  0
LINE
  8
0
 62
7
 10
1.242
 20
2.503000000000002
 30
0
 11
1.2339
 21
2.500000000000002
 31
0
  0
LINE
  8
0
 62
7
 10
1.2339
 20
2.500000000000002
 30
0
 11
1.2177
 21
2.500000000000002
 31
0
  0
LINE
  8
0
 62
7
 10
1.2177
 20
2.500000000000002
 30
0
 11
1.2096
 21
2.503000000000002
 31
0
  0
LINE
  8
0
 62
7
 10
1.2096
 20
2.503000000000002
 30
0
 11
1.2015
 21
2.509000000000002
 31
0
  0
LINE
  8
0
 62
7
 10
1.2015
 20
2.509000000000002
 30
0
 11
1.1961
 21
2.518000000000002
 31
0
  0
LINE
  8
0
 62
7
 10
1.1961
 20
2.518000000000002
 30
0
 11
1.1934
 21
2.530000000000002
 31
0
  0
LINE
  8
0
 62
7
 10
1.1934
 20
2.530000000000002
 30
0
 11
1.1934
 21
2.548000000000002
 31
0
  0
LINE
  8
0
 62
7
 10
1.1934
 20
2.590000000000003
 30
0
 11
1.1961
 21
2.602000000000003
 31
0
  0
LINE
  8
0
 62
7
 10
1.1961
 20
2.602000000000003
 30
0
 11
1.2015
 21
2.611000000000002
 31
0
  0
LINE
  8
0
 62
7
 10
1.2015
 20
2.611000000000002
 30
0
 11
1.2096
 21
2.617000000000003
 31
0
  0
LINE
  8
0
 62
7
 10
1.2096
 20
2.617000000000003
 30
0
 11
1.2177
 21
2.620000000000003
 31
0
  0
LINE
  8
0
 62
7
 10
1.2177
 20
2.620000000000003
 30
0
 11
1.2339
 21
2.620000000000003
 31
0
  0
LINE
  8
0
 62
7
 10
1.2339
 20
2.620000000000003
 30
0
 11
1.242
 21
2.617000000000003
 31
0
  0
LINE
  8
0
 62
7
 10
1.242
 20
2.617000000000003
 30
0
 11
1.2501
 21
2.611000000000002
 31
0
  0
LINE
  8
0
 62
7
 10
1.2501
 20
2.611000000000002
 30
0
 11
1.2555
 21
2.602000000000003
 31
0
  0
LINE
  8
0
 62
7
 10
1.1934
 20
2.548000000000002
 30
0
 11
1.1934
 21
2.590000000000003
 31
0
  0
LINE
  8
0
 62
7
 10
1.3554
 20
2.500000000000002
 30
0
 11
1.2906
 21
2.500000000000002
 31
0
  0
LINE
  8
0
 62
7
 10
1.2906
 20
2.500000000000002
 30
0
 11
1.2906
 21
2.620000000000003
 31
0
  0
LINE
  8
0
 62
7
 10
1.3878
 20
2.548000000000002
 30
0
 11
1.3905
 21
2.560000000000002
 31
0
  0
LINE
  8
0
 62
7
 10
1.3905
 20
2.560000000000002
 30
0
 11
1.3959
 21
2.569000000000002
 31
0
  0
LINE
  8
0
 62
7
 10
1.3959
 20
2.569000000000002
 30
0
 11
1.404
 21
2.575000000000003
 31
0
  0
LINE
  8
0
 62
7
 10
1.404
 20
2.575000000000003
 30
0
 11
1.4121
 21
2.578000000000002
 31
0
  0
LINE
  8
0
 62
7
 10
1.4121
 20
2.578000000000002
 30
0
 11
1.4283
 21
2.578000000000002
 31
0
  0
LINE
  8
0
 62
7
 10
1.4283
 20
2.578000000000002
 30
0
 11
1.4364
 21
2.575000000000003
 31
0
  0
LINE
  8
0
 62
7
 10
1.4364
 20
2.575000000000003
 30
0
 11
1.4445
 21
2.569000000000002
 31
0
  0
LINE
  8
0
 62
7
 10
1.4445
 20
2.569000000000002
 30
0
 11
1.4499
 21
2.560000000000002
 31
0
  0
LINE
  8
0
 62
7
 10
1.4499
 20
2.560000000000002
 30
0
 11
1.4526
 21
2.548000000000002
 31
0
  0
LINE
  8
0
 62
7
 10
1.4526
 20
2.548000000000002
 30
0
 11
1.4526
 21
2.530000000000002
 31
0
  0
LINE
  8
0
 62
7
 10
1.4526
 20
2.530000000000002
 30
0
 11
1.4499
 21
2.518000000000002
 31
0
  0
LINE
  8
0
 62
7
 10
1.4499
 20
2.518000000000002
 30
0
 11
1.4445
 21
2.509000000000002
 31
0
  0
LINE
  8
0
 62
7
 10
1.4445
 20
2.509000000000002
 30
0
 11
1.4364
 21
2.503000000000002
 31
0
  0
LINE
  8
0
 62
7
 10
1.4364
 20
2.503000000000002
 30
0
 11
1.4283
 21
2.500000000000002
 31
0
  0
LINE
  8
0
 62
7
 10
1.4283
 20
2.500000000000002
 30
0
 11
1.4121
 21
2.500000000000002
 31
0
  0
LINE
  8
0
 62
7
 10
1.4121
 20
2.500000000000002
 30
0
 11
1.404
 21
2.503000000000002
 31
0
  0
LINE
  8
0
 62
7
 10
1.404
 20
2.503000000000002
 30
0
 11
1.3959
 21
2.509000000000002
 31
0
  0
LINE
  8
0
 62
7
 10
1.3959
 20
2.509000000000002
 30
0
 11
1.3905
 21
2.518000000000002
 31
0
  0
LINE
  8
0
 62
7
 10
1.3905
 20
2.518000000000002
 30
0
 11
1.3878
 21
2.530000000000002
 31
0
  0
LINE
  8
0
 62
7
 10
1.3878
 20
2.530000000000002
 30
0
 11
1.3878
 21
2.548000000000002
 31
0
  0
LINE
  8
0
 62
7
 10
1.3878
 20
2.590000000000003
 30
0
 11
1.3905
 21
2.602000000000003
 31
0
  0
LINE
  8
0
 62
7
 10
1.3905
 20
2.602000000000003
 30
0
 11
1.3959
 21
2.611000000000002
 31
0
  0
LINE
  8
0
 62
7
 10
1.3959
 20
2.611000000000002
 30
0
 11
1.404
 21
2.617000000000003
 31
0
  0
LINE
  8
0
 62
7
 10
1.404
 20
2.617000000000003
 30
0
 11
1.4121
 21
2.620000000000003
 31
0
  0
LINE
  8
0
 62
7
 10
1.4121
 20
2.620000000000003
 30
0
 11
1.4283
 21
2.620000000000003
 31
0
  0
LINE
  8
0
 62
7
 10
1.4283
 20
2.620000000000003
 30
0
 11
1.4364
 21
2.617000000000003
 31
0
  0
LINE
  8
0
 62
7
 10
1.4364
 20
2.617000000000003
 30
0
 11
1.4445
 21
2.611000000000002
 31
0
  0
LINE
  8
0
 62
7
 10
1.4445
 20
2.611000000000002
 30
0
 11
1.4499
 21
2.602000000000003
 31
0
  0
LINE
  8
0
 62
7
 10
1.3878
 20
2.548000000000002
 30
0
 11
1.3878
 21
2.590000000000003
 31
0
  0
LINE
  8
0
 62
7
 10
3.175
 20
2.500000000000002
 30
0
 11
3.175
 21
2.600000000000003
 31
0
  0
LINE
  8
0
 62
7
 10
3.175
 20
2.600000000000003
 30
0
 11
3.238
 21
2.500000000000002
 31
0
  0
LINE
  8
0
 62
7
 10
3.238
 20
2.500000000000002
 30
0
 11
3.238
 21
2.600000000000003
 31
0
  0
LINE
  8
0
 62
7
 10
3.319
 20
2.500000000000002
 30
0
 11
3.265
 21
2.500000000000002
 31
0
  0
LINE
  8
0
 62
7
 10
3.265
 20
2.500000000000002
 30
0
 11
3.265
 21
2.600000000000003
 31
0
  0
LINE
  8
0
 62
7
 10
3.346
 20
2.550000000000002
 30
0
 11
3.382
 21
2.550000000000002
 31
0
  0
LINE
  8
0
 62
7
 10
3.382
 20
2.550000000000002
 30
0
 11
3.3865
 21
2.550000000000002
 31
0
  0
LINE
  8
0
 62
7
 10
3.3865
 20
2.550000000000002
 30
0
 11
3.3955
 21
2.545000000000002
 31
0
  0
LINE
  8
0
 62
7
 10
3.3955
 20
2.545000000000002
 30
0
 11
3.4
 21
2.540000000000002
 31
0
  0
LINE
  8
0
 62
7
 10
3.4
 20
2.540000000000002
 30
0
 11
3.404500000000001
 21
2.530000000000002
 31
0
  0
LINE
  8
0
 62
7
 10
3.404500000000001
 20
2.530000000000002
 30
0
 11
3.404500000000001
 21
2.520000000000002
 31
0
  0
LINE
  8
0
 62
7
 10
3.404500000000001
 20
2.520000000000002
 30
0
 11
3.4
 21
2.510000000000002
 31
0
  0
LINE
  8
0
 62
7
 10
3.4
 20
2.510000000000002
 30
0
 11
3.3955
 21
2.505000000000002
 31
0
  0
LINE
  8
0
 62
7
 10
3.3955
 20
2.505000000000002
 30
0
 11
3.3865
 21
2.500000000000002
 31
0
  0
LINE
  8
0
 62
7
 10
3.3865
 20
2.500000000000002
 30
0
 11
3.346
 21
2.500000000000002
 31
0
  0
LINE
  8
0
 62
7
 10
3.346
 20
2.500000000000002
 30
0
 11
3.346
 21
2.550000000000002
 31
0
  0
LINE
  8
0
 62
7
 10
3.346
 20
2.600000000000003
 30
0
 11
3.37975
 21
2.600000000000003
 31
0
  0
LINE
  8
0
 62
7
 10
3.37975
 20
2.600000000000003
 30
0
 11
3.391
 21
2.597500000000002
 31
0
  0
LINE
  8
0
 62
7
 10
3.391
 20
2.597500000000002
 30
0
 11
3.39775
 21
2.590000000000003
 31
0
  0
LINE
  8
0
 62
7
 10
3.39775
 20
2.590000000000003
 30
0
 11
3.4
 21
2.580000000000002
 31
0
  0
LINE
  8
0
 62
7
 10
3.4
 20
2.580000000000002
 30
0
 11
3.4
 21
2.570000000000003
 31
0
  0
LINE
  8
0
 62
7
 10
3.4
 20
2.570000000000003
 30
0
 11
3.3955
 21
2.560000000000002
 31
0
  0
LINE
  8
0
 62
7
 10
3.3955
 20
2.560000000000002
 30
0
 11
3.38875
 21
2.552500000000002
 31
0
  0
LINE
  8
0
 62
7
 10
3.38875
 20
2.552500000000002
 30
0
 11
3.382
 21
2.550000000000002
 31
0
  0
LINE
  8
0
 62
7
 10
3.346
 20
2.550000000000002
 30
0
 11
3.346
 21
2.600000000000003
 31
0
  0
LINE
  8
0
 62
7
 10
3.54625
 20
2.552500000000002
 30
0
 11
3.5395
 21
2.562500000000003
 31
0
  0
LINE
  8
0
 62
7
 10
3.5395
 20
2.562500000000003
 30
0
 11
3.53275
 21
2.567500000000003
 31
0
  0
LINE
  8
0
 62
7
 10
3.53275
 20
2.567500000000003
 30
0
 11
3.526
 21
2.570000000000003
 31
0
  0
LINE
  8
0
 62
7
 10
3.526
 20
2.570000000000003
 30
0
 11
3.517
 21
2.570000000000003
 31
0
  0
LINE
  8
0
 62
7
 10
3.517
 20
2.570000000000003
 30
0
 11
3.51025
 21
2.567500000000003
 31
0
  0
LINE
  8
0
 62
7
 10
3.51025
 20
2.567500000000003
 30
0
 11
3.503500000000001
 21
2.562500000000003
 31
0
  0
LINE
  8
0
 62
7
 10
3.503500000000001
 20
2.562500000000003
 30
0
 11
3.49675
 21
2.552500000000002
 31
0
  0
LINE
  8
0
 62
7
 10
3.49675
 20
2.552500000000002
 30
0
 11
3.4945
 21
2.545000000000002
 31
0
  0
LINE
  8
0
 62
7
 10
3.4945
 20
2.545000000000002
 30
0
 11
3.4945
 21
2.525000000000002
 31
0
  0
LINE
  8
0
 62
7
 10
3.4945
 20
2.525000000000002
 30
0
 11
3.49675
 21
2.517500000000002
 31
0
  0
LINE
  8
0
 62
7
 10
3.49675
 20
2.517500000000002
 30
0
 11
3.503500000000001
 21
2.507500000000002
 31
0
  0
LINE
  8
0
 62
7
 10
3.503500000000001
 20
2.507500000000002
 30
0
 11
3.51025
 21
2.502500000000002
 31
0
  0
LINE
  8
0
 62
7
 10
3.51025
 20
2.502500000000002
 30
0
 11
3.517
 21
2.500000000000002
 31
0
  0
LINE
  8
0
 62
7
 10
3.517
 20
2.500000000000002
 30
0
 11
3.526
 21
2.500000000000002
 31
0
  0
LINE
  8
0
 62
7
 10
3.526
 20
2.500000000000002
 30
0
 11
3.53275
 21
2.502500000000002
 31
0
  0
LINE
  8
0
 62
7
 10
3.53275
 20
2.502500000000002
 30
0
 11
3.5395
 21
2.507500000000002
 31
0
  0
LINE
  8
0
 62
7
 10
3.5395
 20
2.507500000000002
 30
0
 11
3.54625
 21
2.517500000000002
 31
0
  0
LINE
  8
0
 62
7
 10
3.61825
 20
2.545000000000002
 30
0
 11
3.616000000000001
 21
2.552500000000002
 31
0
  0
LINE
  8
0
 62
7
 10
3.616000000000001
 20
2.552500000000002
 30
0
 11
3.60925
 21
2.562500000000003
 31
0
  0
LINE
  8
0
 62
7
 10
3.60925
 20
2.562500000000003
 30
0
 11
3.6025
 21
2.567500000000003
 31
0
  0
LINE
  8
0
 62
7
 10
3.6025
 20
2.567500000000003
 30
0
 11
3.595750000000001
 21
2.570000000000003
 31
0
  0
LINE
  8
0
 62
7
 10
3.595750000000001
 20
2.570000000000003
 30
0
 11
3.58675
 21
2.570000000000003
 31
0
  0
LINE
  8
0
 62
7
 10
3.58675
 20
2.570000000000003
 30
0
 11
3.580000000000001
 21
2.567500000000003
 31
0
  0
LINE
  8
0
 62
7
 10
3.580000000000001
 20
2.567500000000003
 30
0
 11
3.57325
 21
2.562500000000003
 31
0
  0
LINE
  8
0
 62
7
 10
3.57325
 20
2.562500000000003
 30
0
 11
3.5665
 21
2.552500000000002
 31
0
  0
LINE
  8
0
 62
7
 10
3.5665
 20
2.552500000000002
 30
0
 11
3.56425
 21
2.545000000000002
 31
0
  0
LINE
  8
0
 62
7
 10
3.56425
 20
2.545000000000002
 30
0
 11
3.56425
 21
2.525000000000002
 31
0
  0
LINE
  8
0
 62
7
 10
3.56425
 20
2.525000000000002
 30
0
 11
3.5665
 21
2.517500000000002
 31
0
  0
LINE
  8
0
 62
7
 10
3.5665
 20
2.517500000000002
 30
0
 11
3.57325
 21
2.507500000000002
 31
0
  0
LINE
  8
0
 62
7
 10
3.57325
 20
2.507500000000002
 30
0
 11
3.580000000000001
 21
2.502500000000002
 31
0
  0
LINE
  8
0
 62
7
 10
3.580000000000001
 20
2.502500000000002
 30
0
 11
3.58675
 21
2.500000000000002
 31
0
  0
LINE
  8
0
 62
7
 10
3.58675
 20
2.500000000000002
 30
0
 11
3.595750000000001
 21
2.500000000000002
 31
0
  0
LINE
  8
0
 62
7
 10
3.595750000000001
 20
2.500000000000002
 30
0
 11
3.6025
 21
2.502500000000002
 31
0
  0
LINE
  8
0
 62
7
 10
3.6025
 20
2.502500000000002
 30
0
 11
3.60925
 21
2.507500000000002
 31
0
  0
LINE
  8
0
 62
7
 10
3.60925
 20
2.507500000000002
 30
0
 11
3.616000000000001
 21
2.517500000000002
 31
0
  0
LINE
  8
0
 62
7
 10
3.616000000000001
 20
2.517500000000002
 30
0
 11
3.61825
 21
2.525000000000002
 31
0
  0
LINE
  8
0
 62
7
 10
3.61825
 20
2.570000000000003
 30
0
 11
3.61825
 21
2.545000000000002
 31
0
  0
LINE
  8
0
 62
7
 10
3.61825
 20
2.502500000000002
 30
0
 11
3.6205
 21
2.500000000000002
 31
0
  0
LINE
  8
0
 62
7
 10
3.6205
 20
2.500000000000002
 30
0
 11
3.62275
 21
2.500000000000002
 31
0
  0
LINE
  8
0
 62
7
 10
3.61825
 20
2.525000000000002
 30
0
 11
3.61825
 21
2.502500000000002
 31
0
  0
LINE
  8
0
 62
7
 10
3.61825
 20
2.545000000000002
 30
0
 11
3.61825
 21
2.525000000000002
 31
0
  0
LINE
  8
0
 62
7
 10
3.64075
 20
2.500000000000002
 30
0
 11
3.64075
 21
2.502500000000002
 31
0
  0
LINE
  8
0
 62
7
 10
3.64075
 20
2.502500000000002
 30
0
 11
3.643
 21
2.502500000000002
 31
0
  0
LINE
  8
0
 62
7
 10
3.643
 20
2.502500000000002
 30
0
 11
3.643
 21
2.500000000000002
 31
0
  0
LINE
  8
0
 62
7
 10
3.643
 20
2.500000000000002
 30
0
 11
3.64075
 21
2.500000000000002
 31
0
  0
LINE
  8
0
 62
7
 10
3.744250000000001
 20
2.570000000000003
 30
0
 11
3.77125
 21
2.600000000000003
 31
0
  0
LINE
  8
0
 62
7
 10
3.77125
 20
2.600000000000003
 30
0
 11
3.77125
 21
2.500000000000002
 31
0
  0
LINE
  8
0
 62
7
 10
3.79825
 20
2.575000000000003
 30
0
 11
3.8005
 21
2.585000000000003
 31
0
  0
LINE
  8
0
 62
7
 10
3.8005
 20
2.585000000000003
 30
0
 11
3.805000000000001
 21
2.592500000000002
 31
0
  0
LINE
  8
0
 62
7
 10
3.805000000000001
 20
2.592500000000002
 30
0
 11
3.81175
 21
2.597500000000002
 31
0
  0
LINE
  8
0
 62
7
 10
3.81175
 20
2.597500000000002
 30
0
 11
3.8185
 21
2.600000000000003
 31
0
  0
LINE
  8
0
 62
7
 10
3.8185
 20
2.600000000000003
 30
0
 11
3.832
 21
2.600000000000003
 31
0
  0
LINE
  8
0
 62
7
 10
3.832
 20
2.600000000000003
 30
0
 11
3.838750000000001
 21
2.597500000000002
 31
0
  0
LINE
  8
0
 62
7
 10
3.838750000000001
 20
2.597500000000002
 30
0
 11
3.8455
 21
2.592500000000002
 31
0
  0
LINE
  8
0
 62
7
 10
3.8455
 20
2.592500000000002
 30
0
 11
3.85
 21
2.585000000000003
 31
0
  0
LINE
  8
0
 62
7
 10
3.85
 20
2.585000000000003
 30
0
 11
3.85225
 21
2.575000000000003
 31
0
  0
LINE
  8
0
 62
7
 10
3.85225
 20
2.575000000000003
 30
0
 11
3.85225
 21
2.525000000000002
 31
0
  0
LINE
  8
0
 62
7
 10
3.85225
 20
2.525000000000002
 30
0
 11
3.85
 21
2.515000000000002
 31
0
  0
LINE
  8
0
 62
7
 10
3.85
 20
2.515000000000002
 30
0
 11
3.8455
 21
2.507500000000002
 31
0
  0
LINE
  8
0
 62
7
 10
3.8455
 20
2.507500000000002
 30
0
 11
3.838750000000001
 21
2.502500000000002
 31
0
  0
LINE
  8
0
 62
7
 10
3.838750000000001
 20
2.502500000000002
 30
0
 11
3.832
 21
2.500000000000002
 31
0
  0
LINE
  8
0
 62
7
 10
3.832
 20
2.500000000000002
 30
0
 11
3.8185
 21
2.500000000000002
 31
0
  0
LINE
  8
0
 62
7
 10
3.8185
 20
2.500000000000002
 30
0
 11
3.81175
 21
2.502500000000002
 31
0
  0
LINE
  8
0
 62
7
 10
3.81175
 20
2.502500000000002
 30
0
 11
3.805000000000001
 21
2.507500000000002
 31
0
  0
LINE
  8
0
 62
7
 10
3.805000000000001
 20
2.507500000000002
 30
0
 11
3.8005
 21
2.515000000000002
 31
0
  0
LINE
  8
0
 62
7
 10
3.8005
 20
2.515000000000002
 30
0
 11
3.79825
 21
2.525000000000002
 31
0
  0
LINE
  8
0
 62
7
 10
3.79825
 20
2.525000000000002
 30
0
 11
3.79825
 21
2.575000000000003
 31
0
  0
LINE
  8
0
 62
7
 10
3.879250000000001
 20
2.575000000000003
 30
0
 11
3.8815
 21
2.585000000000003
 31
0
  0
LINE
  8
0
 62
7
 10
3.8815
 20
2.585000000000003
 30
0
 11
3.886
 21
2.592500000000002
 31
0
  0
LINE
  8
0
 62
7
 10
3.886
 20
2.592500000000002
 30
0
 11
3.89275
 21
2.597500000000002
 31
0
  0
LINE
  8
0
 62
7
 10
3.89275
 20
2.597500000000002
 30
0
 11
3.8995
 21
2.600000000000003
 31
0
  0
LINE
  8
0
 62
7
 10
3.8995
 20
2.600000000000003
 30
0
 11
3.913
 21
2.600000000000003
 31
0
  0
LINE
  8
0
 62
7
 10
3.913
 20
2.600000000000003
 30
0
 11
3.91975
 21
2.597500000000002
 31
0
  0
LINE
  8
0
 62
7
 10
3.91975
 20
2.597500000000002
 30
0
 11
3.9265
 21
2.592500000000002
 31
0
  0
LINE
  8
0
 62
7
 10
3.9265
 20
2.592500000000002
 30
0
 11
3.931
 21
2.585000000000003
 31
0
  0
LINE
  8
0
 62
7
 10
3.931
 20
2.585000000000003
 30
0
 11
3.933250000000001
 21
2.575000000000003
 31
0
  0
LINE
  8
0
 62
7
 10
3.933250000000001
 20
2.575000000000003
 30
0
 11
3.933250000000001
 21
2.525000000000002
 31
0
  0
LINE
  8
0
 62
7
 10
3.933250000000001
 20
2.525000000000002
 30
0
 11
3.931
 21
2.515000000000002
 31
0
  0
LINE
  8
0
 62
7
 10
3.931
 20
2.515000000000002
 30
0
 11
3.9265
 21
2.507500000000002
 31
0
  0
LINE
  8
0
 62
7
 10
3.9265
 20
2.507500000000002
 30
0
 11
3.91975
 21
2.502500000000002
 31
0
  0
LINE
  8
0
 62
7
 10
3.91975
 20
2.502500000000002
 30
0
 11
3.913
 21
2.500000000000002
 31
0
  0
LINE
  8
0
 62
7
 10
3.913
 20
2.500000000000002
 30
0
 11
3.8995
 21
2.500000000000002
 31
0
  0
LINE
  8
0
 62
7
 10
3.8995
 20
2.500000000000002
 30
0
 11
3.89275
 21
2.502500000000002
 31
0
  0
LINE
  8
0
 62
7
 10
3.89275
 20
2.502500000000002
 30
0
 11
3.886
 21
2.507500000000002
 31
0
  0
LINE
  8
0
 62
7
 10
3.886
 20
2.507500000000002
 30
0
 11
3.8815
 21
2.515000000000002
 31
0
  0
LINE
  8
0
 62
7
 10
3.8815
 20
2.515000000000002
 30
0
 11
3.879250000000001
 21
2.525000000000002
 31
0
  0
LINE
  8
0
 62
7
 10
3.879250000000001
 20
2.525000000000002
 30
0
 11
3.879250000000001
 21
2.575000000000003
 31
0
  0
LINE
  8
0
 62
7
 10
4.084000000000001
 20
2.552500000000002
 30
0
 11
4.07725
 21
2.562500000000003
 31
0
  0
LINE
  8
0
 62
7
 10
4.07725
 20
2.562500000000003
 30
0
 11
4.0705
 21
2.567500000000003
 31
0
  0
LINE
  8
0
 62
7
 10
4.0705
 20
2.567500000000003
 30
0
 11
4.063750000000001
 21
2.570000000000003
 31
0
  0
LINE
  8
0
 62
7
 10
4.063750000000001
 20
2.570000000000003
 30
0
 11
4.05475
 21
2.570000000000003
 31
0
  0
LINE
  8
0
 62
7
 10
4.05475
 20
2.570000000000003
 30
0
 11
4.048000000000001
 21
2.567500000000003
 31
0
  0
LINE
  8
0
 62
7
 10
4.048000000000001
 20
2.567500000000003
 30
0
 11
4.041250000000001
 21
2.562500000000003
 31
0
  0
LINE
  8
0
 62
7
 10
4.041250000000001
 20
2.562500000000003
 30
0
 11
4.0345
 21
2.552500000000002
 31
0
  0
LINE
  8
0
 62
7
 10
4.0345
 20
2.552500000000002
 30
0
 11
4.03225
 21
2.545000000000002
 31
0
  0
LINE
  8
0
 62
7
 10
4.03225
 20
2.545000000000002
 30
0
 11
4.03225
 21
2.525000000000002
 31
0
  0
LINE
  8
0
 62
7
 10
4.03225
 20
2.525000000000002
 30
0
 11
4.0345
 21
2.517500000000002
 31
0
  0
LINE
  8
0
 62
7
 10
4.0345
 20
2.517500000000002
 30
0
 11
4.041250000000001
 21
2.507500000000002
 31
0
  0
LINE
  8
0
 62
7
 10
4.041250000000001
 20
2.507500000000002
 30
0
 11
4.048000000000001
 21
2.502500000000002
 31
0
  0
LINE
  8
0
 62
7
 10
4.048000000000001
 20
2.502500000000002
 30
0
 11
4.05475
 21
2.500000000000002
 31
0
  0
LINE
  8
0
 62
7
 10
4.05475
 20
2.500000000000002
 30
0
 11
4.063750000000001
 21
2.500000000000002
 31
0
  0
LINE
  8
0
 62
7
 10
4.063750000000001
 20
2.500000000000002
 30
0
 11
4.0705
 21
2.502500000000002
 31
0
  0
LINE
  8
0
 62
7
 10
4.0705
 20
2.502500000000002
 30
0
 11
4.07725
 21
2.507500000000002
 31
0
  0
LINE
  8
0
 62
7
 10
4.07725
 20
2.507500000000002
 30
0
 11
4.084000000000001
 21
2.517500000000002
 31
0
  0
LINE
  8
0
 62
7
 10
4.142500000000001
 20
2.545000000000002
 30
0
 11
4.142500000000001
 21
2.500000000000002
 31
0
  0
LINE
  8
0
 62
7
 10
4.102
 20
2.570000000000003
 30
0
 11
4.102
 21
2.545000000000002
 31
0
  0
LINE
  8
0
 62
7
 10
4.102
 20
2.500000000000002
 30
0
 11
4.102
 21
2.545000000000002
 31
0
  0
LINE
  8
0
 62
7
 10
4.102
 20
2.545000000000002
 30
0
 11
4.10425
 21
2.557500000000002
 31
0
  0
LINE
  8
0
 62
7
 10
4.10425
 20
2.557500000000002
 30
0
 11
4.1065
 21
2.562500000000003
 31
0
  0
LINE
  8
0
 62
7
 10
4.1065
 20
2.562500000000003
 30
0
 11
4.111
 21
2.567500000000003
 31
0
  0
LINE
  8
0
 62
7
 10
4.111
 20
2.567500000000003
 30
0
 11
4.11775
 21
2.570000000000003
 31
0
  0
LINE
  8
0
 62
7
 10
4.11775
 20
2.570000000000003
 30
0
 11
4.12675
 21
2.570000000000003
 31
0
  0
LINE
  8
0
 62
7
 10
4.12675
 20
2.570000000000003
 30
0
 11
4.133500000000001
 21
2.567500000000003
 31
0
  0
LINE
  8
0
 62
7
 10
4.133500000000001
 20
2.567500000000003
 30
0
 11
4.138000000000001
 21
2.562500000000003
 31
0
  0
LINE
  8
0
 62
7
 10
4.138000000000001
 20
2.562500000000003
 30
0
 11
4.140250000000001
 21
2.557500000000002
 31
0
  0
LINE
  8
0
 62
7
 10
4.140250000000001
 20
2.557500000000002
 30
0
 11
4.142500000000001
 21
2.545000000000002
 31
0
  0
LINE
  8
0
 62
7
 10
4.142500000000001
 20
2.545000000000002
 30
0
 11
4.14475
 21
2.557500000000002
 31
0
  0
LINE
  8
0
 62
7
 10
4.14475
 20
2.557500000000002
 30
0
 11
4.147
 21
2.562500000000003
 31
0
  0
LINE
  8
0
 62
7
 10
4.147
 20
2.562500000000003
 30
0
 11
4.1515
 21
2.567500000000003
 31
0
  0
LINE
  8
0
 62
7
 10
4.1515
 20
2.567500000000003
 30
0
 11
4.158250000000001
 21
2.570000000000003
 31
0
  0
LINE
  8
0
 62
7
 10
4.158250000000001
 20
2.570000000000003
 30
0
 11
4.16725
 21
2.570000000000003
 31
0
  0
LINE
  8
0
 62
7
 10
4.16725
 20
2.570000000000003
 30
0
 11
4.174
 21
2.567500000000003
 31
0
  0
LINE
  8
0
 62
7
 10
4.178500000000001
 20
2.562500000000003
 30
0
 11
4.174
 21
2.567500000000003
 31
0
  0
LINE
  8
0
 62
7
 10
4.174
 20
2.567500000000003
 30
0
 11
4.178500000000001
 21
2.562500000000003
 31
0
  0
LINE
  8
0
 62
7
 10
4.178500000000001
 20
2.562500000000003
 30
0
 11
4.18075
 21
2.557500000000002
 31
0
  0
LINE
  8
0
 62
7
 10
4.18075
 20
2.557500000000002
 30
0
 11
4.183
 21
2.545000000000002
 31
0
  0
LINE
  8
0
 62
7
 10
4.183
 20
2.545000000000002
 30
0
 11
4.183
 21
2.500000000000002
 31
0
  0
ARC
  8
0
 62
7
 10
2.529355735550162
 20
3.405644264449968
 30
0
 40
0.5640000000000016
 50
89.93455026731833
 51
180.0654497207745
  0
CIRCLE
  8
0
 62
7
 10
5.285
 20
3.96964389647392
 30
0
 40
0.06000000000000005
  0
DIMENSION
  8
0
  6
CONTINUOUS
 62
7
  2
*D1
  3
DMST_1
 10
1.425
 20
3.086466536710621
 30
0
 11
3.24139727016659
 21
3.086466536710621
 31
0
 12
0
 22
0
 32
0
 70
0
 13
5.185000000000008
 23
3.350000000000001
 33
0
 14
1.425
 24
3.350000000000001
 34
0
 53
0
  0
DIMENSION
  8
0
  6
CONTINUOUS
 62
7
  2
*D2
  3
DMST_1
 10
1.425
 20
5.36906036271372
 30
0
 11
3.21709121045183
 21
5.36906036271372
 31
0
 12
0
 22
0
 32
0
 70
0
 13
5.285000000000008
 23
5.029999999999998
 33
0
 14
1.425
 24
5.029999999999998
 34
0
 53
0
  0
DIMENSION
  8
0
  6
CONTINUOUS
 62
7
  2
*D3
  3
DMST_1
 10
0.953761843281181
 20
4.510000000000001
 30
0
 11
0.953761843281181
 21
3.9753763025861
 31
0
 12
0
 22
0
 32
0
 70
0
 13
1.425
 23
3.350000000000001
 33
0
 14
1.425
 24
4.510000000000001
 34
0
 50
90
 53
0
  0
DIMENSION
  8
0
  6
CONTINUOUS
 62
7
  2
*D4
  3
DMST_1
 10
1.425
 20
11.4564844909985
 30
0
 11
3.28410872379074
 21
11.4564844909985
 31
0
 12
0
 22
0
 32
0
 70
0
 13
5.185000000000008
 23
11.04999999999999
 33
0
 14
1.425
 24
11.04999999999999
 34
0
 53
0
  0
INSERT
  8
0
  2
*D0
 10
0
 20
0
 30
0
  0
ENDSEC
  0
EOF
