  0
SECTION
  2
HEADER
  9
$ACADVER
  1
AC1009
  9
$INSBASE
 10
0
 20
0
  9
$EXTMIN
 10
0.45
 20
2.500000000000002
  9
$EXTMAX
 10
8.00925714409003
 20
11.5416403278606
  9
$LIMMIN
 10
0.45
 20
2.500000000000002
  9
$LIMMAX
 10
8.00925714409003
 20
11.5416403278606
  9
$VIEWCTR
 10
10
 20
10
  9
$VIEWSIZE
 40
10
  9
$SNAPMODE
 70
0
  9
$SNAPUNIT
 10
1
 20
1
  9
$SNAPBASE
 10
0
 20
0
  9
$SNAPANG
 50
0
  9
$SNAPSTYLE
 70
0
  9
$SNAPISOPAIR
 70
0
  9
$GRIDMODE
 70
0
  9
$GRIDUNIT
 10
0
 20
0
  9
$ORTHOMODE
 70
0
  9
$REGENMODE
 70
1
  9
$FILLMODE
 70
1
  9
$QTEXTMODE
 70
0
  9
$DRAGMODE
 70
2
  9
$LTSCALE
 40
1
  9
$OSMODE
 70
0
  9
$ATTMODE
 70
1
  9
$TEXTSIZE
 40
3.5
  9
$TRACEWID
 40
0.5
  9
$TEXTSTYLE
  7
STANDARD
  9
$CLAYER
  8
0
  9
$CELTYPE
  6
BYLAYER
  9
$CECOLOR
 62
256
  9
$DIMSCALE
 40
1
  9
$DIMASZ
 40
0.18
  9
$DIMEXO
 40
0.0625
  9
$DIMDLI
 40
0.38
  9
$DIMRND
 40
0
  9
$DIMDLE
 40
0
  9
$DIMEXE
 40
0.18
  9
$DIMTP
 40
0
  9
$DIMTM
 40
0
  9
$DIMTXT
 40
0.18
  9
$DIMCEN
 40
0.09
  9
$DIMTSZ
 40
0
  9
$DIMTOL
 70
0
  9
$DIMLIM
 70
0
  9
$DIMTIH
 70
1
  9
$DIMTOH
 70
1
  9
$DIMSE1
 70
0
  9
$DIMSE2
 70
0
  9
$DIMTAD
 70
0
  9
$DIMZIN
 70
0
  9
$DIMBLK
  1

  9
$DIMASO
 70
1
  9
$DIMSHO
 70
1
  9
$DIMPOST
  1

  9
$DIMAPOST
  1

  9
$DIMALT
 70
0
  9
$DIMALTD
 70
2
  9
$DIMALTF
 40
25.4
  9
$DIMLFAC
 40
1
  9
$DIMTOFL
 70
0
  9
$DIMTVP
 40
0
  9
$DIMTIX
 70
0
  9
$DIMSOXD
 70
0
  9
$DIMSAH
 70
0
  9
$DIMBLK1
  1

  9
$DIMBLK2
  1

  9
$DIMSTYLE
  2
*UNNAMED
  9
$DIMCLRD
 70
0
  9
$DIMCLRE
 70
0
  9
$DIMCLRT
 70
0
  9
$DIMTFAC
 40
1
  9
$DIMGAP
 40
0.09
  9
$LUNITS
 70
2
  9
$LUPREC
 70
4
  9
$AXISMODE
 70
0
  9
$AXISUNIT
 10
0
 20
0
  9
$SKETCHINC
 40
0.1
  9
$FILLETRAD
 40
2
  9
$AUNITS
 70
0
  9
$AUPREC
 70
0
  9
$MENU
  1
ACAD
  9
$ELEVATION
 40
0
  9
$THICKNESS
 40
0
  9
$VIEWDIR
 10
0
 20
0
 30
1
  9
$LIMCHECK
 70
0
  9
$BLIPMODE
 70
1
  9
$CHAMFERA
 40
0
  9
$CHAMFERB
 40
0
  9
$FASTZOOM
 70
1
  9
$SKPOLY
 70
0
  9
$ANGBASE
 50
0
  9
$ANGDIR
 70
0
  9
$PDMODE
 70
0
  9
$PDSIZE
 40
0
  9
$PLINEWID
 40
0
  9
$COORDS
 70
2
  0
ENDSEC
  0
SECTION
  2
TABLES
  0
TABLE
  2
DIMSTYLE
 70
1
  0
DIMSTYLE
  2
DMST_1
 70
0
  3

  4

  5

  6

  7

 40
1
 41
0.1
 42
0
 43
0.7
 44
0.2
 45
0
 46
0
 47
0
 48
0
140
0.1
141
0
142
0.1
143
25.4
144
1
145
0
146
1
147
0.25
 71
0
 72
0
 73
0
 74
0
 75
0
 76
0
 77
0
 78
9
170
0
171
2
172
0
173
0
174
0
175
0
176
7
177
7
178
7
  0
ENDTAB
  0
TABLE
  2
LTYPE
 70
9
  0
LTYPE
  2
CONTINUOUS
 70
64
  3
Solid line
 72
65
 73
0
 40
0
  0
LTYPE
  2
BORDER
 70
64
  3
__ __ . __ __ .
 72
65
 73
6
 40
0.416391330888317
 49
0.1189689516823763
 49
-0.05948447584118815
 49
0.1189689516823763
 49
-0.05948447584118815
 49
0
 49
-0.05948447584118815
  0
LTYPE
  2
CENTER
 70
64
  3
____ _ ____ _
 72
65
 73
4
 40
0.4758758067295052
 49
0.2974223792059407
 49
-0.05948447584118815
 49
0.05948447584118815
 49
-0.05948447584118815
  0
LTYPE
  2
DASHDOT
 70
64
  3
__ . __ . __ .
 72
65
 73
4
 40
0.2379379033647526
 49
0.1189689516823763
 49
-0.05948447584118815
 49
0
 49
-0.05948447584118815
  0
LTYPE
  2
DASHED
 70
64
  3
__ __ __ __ __
 72
65
 73
2
 40
0.1784534275235644
 49
0.1189689516823763
 49
-0.05948447584118815
  0
LTYPE
  2
DIVIDE
 70
64
  3
__ . . __ . . 
 72
65
 73
6
 40
0.2974223792059407
 49
0.1189689516823763
 49
-0.05948447584118815
 49
0
 49
-0.05948447584118815
 49
0
 49
-0.05948447584118815
  0
LTYPE
  2
DOT
 70
64
  3
..............
 72
65
 73
4
 40
0.1189689516823763
 49
0
 49
-0.05948447584118815
 49
0
 49
-0.05948447584118815
  0
LTYPE
  2
HIDDEN
 70
64
  3
_ _ _ _ _ _ _
 72
65
 73
2
 40
0.08922671376178222
 49
0.05948447584118815
 49
-0.02974223792059407
  0
LTYPE
  2
PHANTOM
 70
64
  3
_____ _ _ _____ _ _ 
 72
65
 73
6
 40
0.5948447584118814
 49
0.2974223792059407
 49
-0.05948447584118815
 49
0.05948447584118815
 49
-0.05948447584118815
 49
0.05948447584118815
 49
-0.05948447584118815
  0
ENDTAB
  0
TABLE
  2
LAYER
 70
2
  0
LAYER
  2
0
 70
0
 62
7
  6
CONTINUOUS
  0
ENDTAB
  0
TABLE
  2
STYLE
 70
4
  0
STYLE
  2
STANDARD
 70
0
 40
0
 41
1
 50
0
 71
0
 42
3.5
  3
txt
  4

  0
STYLE
  2
SIMPLEX
 70
0
 40
0
 41
1
 50
0
 71
0
 42
3.5
  3
simplex
  4

  0
STYLE
  2
COMPLEX
 70
0
 40
0
 41
1
 50
0
 71
0
 42
3.5
  3
complex
  4

  0
STYLE
  2
ITALIC
 70
0
 40
0
 41
1
 50
0
 71
0
 42
3.5
  3
italic
  4

  0
ENDTAB
  0
TABLE
  2
VIEW
 70
0
  0
ENDTAB
  0
ENDSEC
  0
SECTION
  2
BLOCKS
  0
BLOCK
  8
0
  2
*X0
 70
1
 10
0
 20
0
 30
0
  0
LINE
  8
0
 62
7
 10
3.415
 20
4.687792206135785
 30
0
 11
3.477207793864221
 21
4.75
 31
0
  0
LINE
  8
0
 62
7
 10
3.449339828220187
 20
4.510000000000002
 30
0
 11
3.689339828220185
 21
4.75
 31
0
  0
LINE
  8
0
 62
7
 10
3.661471862576152
 20
4.510000000000002
 30
0
 11
3.90147186257615
 21
4.75
 31
0
  0
LINE
  8
0
 62
7
 10
3.873603896932116
 20
4.510000000000002
 30
0
 11
4.113603896932114
 21
4.75
 31
0
  0
LINE
  8
0
 62
7
 10
4.08573593128808
 20
4.510000000000002
 30
0
 11
4.325735931288078
 21
4.75
 31
0
  0
LINE
  8
0
 62
7
 10
4.297867965644044
 20
4.510000000000002
 30
0
 11
4.537867965644041
 21
4.75
 31
0
  0
LINE
  8
0
 62
7
 10
4.510000000000008
 20
4.510000000000002
 30
0
 11
4.750000000000005
 21
4.75
 31
0
  0
LINE
  8
0
 62
7
 10
4.722132034355972
 20
4.510000000000002
 30
0
 11
4.962132034355969
 21
4.75
 31
0
  0
LINE
  8
0
 62
7
 10
4.934264068711935
 20
4.510000000000002
 30
0
 11
5.174264068711933
 21
4.75
 31
0
  0
LINE
  8
0
 62
7
 10
5.146396103067899
 20
4.510000000000002
 30
0
 11
5.386396103067897
 21
4.75
 31
0
  0
LINE
  8
0
 62
7
 10
5.358528137423863
 20
4.510000000000002
 30
0
 11
5.598528137423861
 21
4.75
 31
0
  0
LINE
  8
0
 62
7
 10
5.570660171779827
 20
4.510000000000002
 30
0
 11
5.810660171779825
 21
4.75
 31
0
  0
LINE
  8
0
 62
7
 10
5.782792206135791
 20
4.510000000000002
 30
0
 11
6.022792206135788
 21
4.75
 31
0
  0
LINE
  8
0
 62
7
 10
5.994924240491755
 20
4.510000000000002
 30
0
 11
6.234924240491752
 21
4.75
 31
0
  0
LINE
  8
0
 62
7
 10
6.207056274847718
 20
4.510000000000002
 30
0
 11
6.447056274847716
 21
4.75
 31
0
  0
LINE
  8
0
 62
7
 10
6.419188309203682
 20
4.510000000000002
 30
0
 11
6.65918830920368
 21
4.75
 31
0
  0
LINE
  8
0
 62
7
 10
6.631320343559646
 20
4.510000000000002
 30
0
 11
6.871320343559644
 21
4.75
 31
0
  0
LINE
  8
0
 62
7
 10
6.84345237791561
 20
4.510000000000002
 30
0
 11
7.083452377915608
 21
4.75
 31
0
  0
LINE
  8
0
 62
7
 10
7.055584412271574
 20
4.510000000000002
 30
0
 11
7.295584412271571
 21
4.75
 31
0
  0
LINE
  8
0
 62
7
 10
7.267716446627538
 20
4.510000000000002
 30
0
 11
7.450000000000022
 21
4.692283553372485
 31
0
  0
LINE
  8
0
 62
7
 10
7.275000000000023
 20
4.305151519016522
 30
0
 11
7.450000000000022
 21
4.480151519016522
 31
0
  0
LINE
  8
0
 62
7
 10
7.275000000000023
 20
4.093019484660558
 30
0
 11
7.450000000000022
 21
4.268019484660558
 31
0
  0
LINE
  8
0
 62
7
 10
7.275000000000023
 20
3.880887450304594
 30
0
 11
7.450000000000022
 21
4.055887450304594
 31
0
  0
LINE
  8
0
 62
7
 10
7.275000000000023
 20
3.66875541594863
 30
0
 11
7.450000000000022
 21
3.84375541594863
 31
0
  0
LINE
  8
0
 62
7
 10
7.275000000000023
 20
3.456623381592665
 30
0
 11
7.450000000000022
 21
3.631623381592665
 31
0
  0
LINE
  8
0
 62
7
 10
7.380508652763323
 20
3.350000000000002
 30
0
 11
7.450000000000022
 21
3.419491347236701
 31
0
  0
ENDBLK
  8
0
  0
BLOCK
  8
0
  2
*X1
 70
1
 10
0
 20
0
 30
0
  0
LINE
  8
0
 62
7
 10
7.275000000000023
 20
8.017462120245897
 30
0
 11
7.357537879754125
 21
8.1
 31
0
  0
LINE
  8
0
 62
7
 10
7.41966991411009
 20
7.949999999999999
 30
0
 11
7.450000000000022
 21
7.980330085889932
 31
0
  0
LINE
  8
0
 62
7
 10
7.313603896932108
 20
7.949999999999999
 30
0
 11
7.450000000000022
 21
8.086396103067914
 31
0
  0
ENDBLK
  8
0
  0
BLOCK
  8
0
  2
*X2
 70
1
 10
0
 20
0
 30
0
  0
LINE
  8
0
 62
7
 10
7.275000000000023
 20
10.77517856687343
 30
0
 11
7.349821433126583
 21
10.84999999999999
 31
0
  0
LINE
  8
0
 62
7
 10
7.275000000000023
 20
10.56304653251746
 30
0
 11
7.450000000000023
 21
10.73804653251746
 31
0
  0
LINE
  8
0
 62
7
 10
7.275000000000023
 20
10.3509144981615
 30
0
 11
7.450000000000023
 21
10.5259144981615
 31
0
  0
LINE
  8
0
 62
7
 10
7.275000000000023
 20
10.13878246380554
 30
0
 11
7.450000000000023
 21
10.31378246380554
 31
0
  0
LINE
  8
0
 62
7
 10
7.275000000000023
 20
9.926650429449571
 30
0
 11
7.450000000000023
 21
10.10165042944957
 31
0
  0
LINE
  8
0
 62
7
 10
7.275000000000023
 20
9.714518395093608
 30
0
 11
7.450000000000023
 21
9.889518395093608
 31
0
  0
LINE
  8
0
 62
7
 10
7.275000000000023
 20
9.502386360737644
 30
0
 11
7.450000000000023
 21
9.677386360737644
 31
0
  0
LINE
  8
0
 62
7
 10
7.275000000000023
 20
9.29025432638168
 30
0
 11
7.450000000000023
 21
9.465254326381681
 31
0
  0
LINE
  8
0
 62
7
 10
7.275000000000023
 20
9.078122292025716
 30
0
 11
7.450000000000023
 21
9.253122292025717
 31
0
  0
LINE
  8
0
 62
7
 10
7.275000000000023
 20
8.865990257669752
 30
0
 11
7.450000000000023
 21
9.040990257669753
 31
0
  0
LINE
  8
0
 62
7
 10
7.275000000000023
 20
8.653858223313788
 30
0
 11
7.450000000000023
 21
8.828858223313789
 31
0
  0
LINE
  8
0
 62
7
 10
7.275000000000023
 20
8.441726188957825
 30
0
 11
7.450000000000023
 21
8.616726188957825
 31
0
  0
LINE
  8
0
 62
7
 10
7.34540584539816
 20
8.299999999999997
 30
0
 11
7.450000000000023
 21
8.404594154601861
 31
0
  0
LINE
  8
0
 62
7
 10
7.275000000000023
 20
10.66911254969544
 30
0
 11
7.450000000000023
 21
10.84411254969545
 31
0
  0
LINE
  8
0
 62
7
 10
7.275000000000023
 20
10.45698051533948
 30
0
 11
7.450000000000023
 21
10.63198051533948
 31
0
  0
LINE
  8
0
 62
7
 10
7.275000000000023
 20
10.24484848098352
 30
0
 11
7.450000000000023
 21
10.41984848098352
 31
0
  0
LINE
  8
0
 62
7
 10
7.275000000000023
 20
10.03271644662755
 30
0
 11
7.450000000000023
 21
10.20771644662755
 31
0
  0
LINE
  8
0
 62
7
 10
7.275000000000023
 20
9.82058441227159
 30
0
 11
7.450000000000023
 21
9.99558441227159
 31
0
  0
LINE
  8
0
 62
7
 10
7.275000000000023
 20
9.608452377915626
 30
0
 11
7.450000000000023
 21
9.783452377915626
 31
0
  0
LINE
  8
0
 62
7
 10
7.275000000000023
 20
9.396320343559662
 30
0
 11
7.450000000000023
 21
9.571320343559663
 31
0
  0
LINE
  8
0
 62
7
 10
7.275000000000023
 20
9.184188309203698
 30
0
 11
7.450000000000023
 21
9.359188309203699
 31
0
  0
LINE
  8
0
 62
7
 10
7.275000000000023
 20
8.972056274847734
 30
0
 11
7.450000000000023
 21
9.147056274847735
 31
0
  0
LINE
  8
0
 62
7
 10
7.275000000000023
 20
8.75992424049177
 30
0
 11
7.450000000000023
 21
8.934924240491771
 31
0
  0
LINE
  8
0
 62
7
 10
7.275000000000023
 20
8.547792206135806
 30
0
 11
7.450000000000023
 21
8.722792206135807
 31
0
  0
LINE
  8
0
 62
7
 10
7.275000000000023
 20
8.335660171779843
 30
0
 11
7.450000000000023
 21
8.510660171779843
 31
0
  0
ENDBLK
  8
0
  0
BLOCK
  8
0
  2
*X3
 70
1
 10
0
 20
0
 30
0
  0
LINE
  8
0
 62
7
 10
7.275000000000023
 20
11.19944263558536
 30
0
 11
7.275557364414653
 21
11.19999999999999
 31
0
  0
LINE
  8
0
 62
7
 10
7.337689398770615
 20
11.04999999999999
 30
0
 11
7.450000000000023
 21
11.1623106012294
 31
0
  0
LINE
  8
0
 62
7
 10
7.275000000000022
 20
11.09337661840738
 30
0
 11
7.381623381592636
 21
11.19999999999999
 31
0
  0
LINE
  8
0
 62
7
 10
7.443755415948598
 20
11.04999999999999
 30
0
 11
7.450000000000022
 21
11.05624458405141
 31
0
  0
ENDBLK
  8
0
  0
BLOCK
  8
0
  2
*X4
 70
1
 10
0
 20
0
 30
0
  0
LINE
  8
0
 62
7
  6
DASHED
 10
3.375
 20
8.147970773009195
 30
0
 11
3.527029226990809
 21
8.299999999999995
 31
0
  0
LINE
  8
0
 62
7
  6
DASHED
 10
3.539161261346774
 20
8.099999999999998
 30
0
 11
3.739161261346773
 21
8.299999999999995
 31
0
  0
LINE
  8
0
 62
7
  6
DASHED
 10
3.751293295702738
 20
8.099999999999998
 30
0
 11
3.951293295702737
 21
8.299999999999995
 31
0
  0
LINE
  8
0
 62
7
  6
DASHED
 10
3.963425330058703
 20
8.099999999999998
 30
0
 11
4.163425330058701
 21
8.299999999999995
 31
0
  0
LINE
  8
0
 62
7
  6
DASHED
 10
4.175557364414667
 20
8.099999999999998
 30
0
 11
4.375557364414665
 21
8.299999999999995
 31
0
  0
LINE
  8
0
 62
7
  6
DASHED
 10
4.387689398770631
 20
8.099999999999998
 30
0
 11
4.587689398770629
 21
8.299999999999995
 31
0
  0
LINE
  8
0
 62
7
  6
DASHED
 10
4.599821433126595
 20
8.099999999999998
 30
0
 11
4.799821433126593
 21
8.299999999999995
 31
0
  0
LINE
  8
0
 62
7
  6
DASHED
 10
4.811953467482558
 20
8.099999999999998
 30
0
 11
5.011953467482557
 21
8.299999999999995
 31
0
  0
LINE
  8
0
 62
7
  6
DASHED
 10
5.024085501838522
 20
8.099999999999998
 30
0
 11
5.224085501838521
 21
8.299999999999995
 31
0
  0
LINE
  8
0
 62
7
  6
DASHED
 10
5.236217536194486
 20
8.099999999999998
 30
0
 11
5.436217536194484
 21
8.299999999999995
 31
0
  0
LINE
  8
0
 62
7
  6
DASHED
 10
5.44834957055045
 20
8.099999999999998
 30
0
 11
5.648349570550448
 21
8.299999999999995
 31
0
  0
LINE
  8
0
 62
7
  6
DASHED
 10
5.660481604906414
 20
8.099999999999998
 30
0
 11
5.860481604906412
 21
8.299999999999995
 31
0
  0
LINE
  8
0
 62
7
  6
DASHED
 10
5.872613639262378
 20
8.099999999999998
 30
0
 11
6.072613639262376
 21
8.299999999999995
 31
0
  0
LINE
  8
0
 62
7
  6
DASHED
 10
6.084745673618341
 20
8.099999999999998
 30
0
 11
6.28474567361834
 21
8.299999999999995
 31
0
  0
LINE
  8
0
 62
7
  6
DASHED
 10
6.296877707974305
 20
8.099999999999998
 30
0
 11
6.496877707974304
 21
8.299999999999995
 31
0
  0
LINE
  8
0
 62
7
  6
DASHED
 10
6.509009742330269
 20
8.099999999999998
 30
0
 11
6.709009742330267
 21
8.299999999999995
 31
0
  0
LINE
  8
0
 62
7
  6
DASHED
 10
6.721141776686233
 20
8.099999999999998
 30
0
 11
6.921141776686231
 21
8.299999999999995
 31
0
  0
LINE
  8
0
 62
7
  6
DASHED
 10
6.933273811042197
 20
8.099999999999998
 30
0
 11
7.133273811042195
 21
8.299999999999995
 31
0
  0
LINE
  8
0
 62
7
  6
DASHED
 10
7.145405845398161
 20
8.099999999999998
 30
0
 11
7.345405845398159
 21
8.299999999999995
 31
0
  0
LINE
  8
0
 62
7
  6
DASHED
 10
7.357537879754124
 20
8.099999999999998
 30
0
 11
7.557537879754123
 21
8.299999999999995
 31
0
  0
LINE
  8
0
 62
7
  6
DASHED
 10
7.569669914110088
 20
8.099999999999998
 30
0
 11
7.600000000000023
 21
8.130330085889932
 31
0
  0
LINE
  8
0
 62
7
 10
3.375
 20
8.254036790187177
 30
0
 11
3.420963209812828
 21
8.299999999999997
 31
0
  0
LINE
  8
0
 62
7
 10
3.433095244168791
 20
8.099999999999998
 30
0
 11
3.633095244168793
 21
8.299999999999997
 31
0
  0
LINE
  8
0
 62
7
 10
3.645227278524755
 20
8.099999999999998
 30
0
 11
3.845227278524757
 21
8.299999999999997
 31
0
  0
LINE
  8
0
 62
7
 10
3.85735931288072
 20
8.099999999999998
 30
0
 11
4.057359312880721
 21
8.299999999999997
 31
0
  0
LINE
  8
0
 62
7
 10
4.069491347236684
 20
8.099999999999998
 30
0
 11
4.269491347236685
 21
8.299999999999997
 31
0
  0
LINE
  8
0
 62
7
 10
4.281623381592648
 20
8.099999999999998
 30
0
 11
4.481623381592649
 21
8.299999999999997
 31
0
  0
LINE
  8
0
 62
7
 10
4.493755415948612
 20
8.099999999999998
 30
0
 11
4.693755415948613
 21
8.299999999999997
 31
0
  0
LINE
  8
0
 62
7
 10
4.705887450304576
 20
8.099999999999998
 30
0
 11
4.905887450304577
 21
8.299999999999997
 31
0
  0
LINE
  8
0
 62
7
 10
4.918019484660539
 20
8.099999999999998
 30
0
 11
5.11801948466054
 21
8.299999999999997
 31
0
  0
LINE
  8
0
 62
7
 10
5.130151519016503
 20
8.099999999999998
 30
0
 11
5.330151519016504
 21
8.299999999999997
 31
0
  0
LINE
  8
0
 62
7
 10
5.342283553372467
 20
8.099999999999998
 30
0
 11
5.542283553372468
 21
8.299999999999997
 31
0
  0
LINE
  8
0
 62
7
 10
5.554415587728431
 20
8.099999999999998
 30
0
 11
5.754415587728432
 21
8.299999999999997
 31
0
  0
LINE
  8
0
 62
7
 10
5.766547622084395
 20
8.099999999999998
 30
0
 11
5.966547622084396
 21
8.299999999999997
 31
0
  0
LINE
  8
0
 62
7
 10
5.978679656440359
 20
8.099999999999998
 30
0
 11
6.17867965644036
 21
8.299999999999997
 31
0
  0
LINE
  8
0
 62
7
 10
6.190811690796322
 20
8.099999999999998
 30
0
 11
6.390811690796323
 21
8.299999999999997
 31
0
  0
LINE
  8
0
 62
7
 10
6.402943725152286
 20
8.099999999999998
 30
0
 11
6.602943725152287
 21
8.299999999999997
 31
0
  0
LINE
  8
0
 62
7
 10
6.61507575950825
 20
8.099999999999998
 30
0
 11
6.815075759508251
 21
8.299999999999997
 31
0
  0
LINE
  8
0
 62
7
 10
6.827207793864214
 20
8.099999999999998
 30
0
 11
7.027207793864215
 21
8.299999999999997
 31
0
  0
LINE
  8
0
 62
7
 10
7.039339828220178
 20
8.099999999999998
 30
0
 11
7.239339828220179
 21
8.299999999999997
 31
0
  0
LINE
  8
0
 62
7
 10
7.251471862576142
 20
8.099999999999998
 30
0
 11
7.451471862576143
 21
8.299999999999997
 31
0
  0
LINE
  8
0
 62
7
 10
7.463603896932105
 20
8.099999999999998
 30
0
 11
7.600000000000024
 21
8.236396103067916
 31
0
  0
ENDBLK
  8
0
  0
BLOCK
  8
0
  2
*X5
 70
1
 10
0
 20
0
 30
0
  0
LINE
  8
0
 62
7
  6
DASHED
 10
3.375000000000001
 20
10.90568721963673
 30
0
 11
3.519312780363268
 21
11.04999999999999
 31
0
  0
LINE
  8
0
 62
7
  6
DASHED
 10
3.531444814719233
 20
10.84999999999999
 30
0
 11
3.731444814719232
 21
11.04999999999999
 31
0
  0
LINE
  8
0
 62
7
  6
DASHED
 10
3.743576849075198
 20
10.84999999999999
 30
0
 11
3.943576849075197
 21
11.04999999999999
 31
0
  0
LINE
  8
0
 62
7
  6
DASHED
 10
3.955708883431162
 20
10.84999999999999
 30
0
 11
4.155708883431161
 21
11.04999999999999
 31
0
  0
LINE
  8
0
 62
7
  6
DASHED
 10
4.167840917787126
 20
10.84999999999999
 30
0
 11
4.367840917787125
 21
11.04999999999999
 31
0
  0
LINE
  8
0
 62
7
  6
DASHED
 10
4.37997295214309
 20
10.84999999999999
 30
0
 11
4.579972952143089
 21
11.04999999999999
 31
0
  0
LINE
  8
0
 62
7
  6
DASHED
 10
4.592104986499054
 20
10.84999999999999
 30
0
 11
4.792104986499052
 21
11.04999999999999
 31
0
  0
LINE
  8
0
 62
7
  6
DASHED
 10
4.804237020855018
 20
10.84999999999999
 30
0
 11
5.004237020855016
 21
11.04999999999999
 31
0
  0
LINE
  8
0
 62
7
  6
DASHED
 10
5.016369055210982
 20
10.84999999999999
 30
0
 11
5.21636905521098
 21
11.04999999999999
 31
0
  0
LINE
  8
0
 62
7
  6
DASHED
 10
5.228501089566945
 20
10.84999999999999
 30
0
 11
5.428501089566944
 21
11.04999999999999
 31
0
  0
LINE
  8
0
 62
7
  6
DASHED
 10
5.440633123922909
 20
10.84999999999999
 30
0
 11
5.640633123922908
 21
11.04999999999999
 31
0
  0
LINE
  8
0
 62
7
  6
DASHED
 10
5.652765158278873
 20
10.84999999999999
 30
0
 11
5.852765158278872
 21
11.04999999999999
 31
0
  0
LINE
  8
0
 62
7
  6
DASHED
 10
5.864897192634837
 20
10.84999999999999
 30
0
 11
6.064897192634835
 21
11.04999999999999
 31
0
  0
LINE
  8
0
 62
7
  6
DASHED
 10
6.077029226990801
 20
10.84999999999999
 30
0
 11
6.277029226990799
 21
11.04999999999999
 31
0
  0
LINE
  8
0
 62
7
  6
DASHED
 10
6.289161261346765
 20
10.84999999999999
 30
0
 11
6.489161261346763
 21
11.04999999999999
 31
0
  0
LINE
  8
0
 62
7
  6
DASHED
 10
6.501293295702729
 20
10.84999999999999
 30
0
 11
6.701293295702727
 21
11.04999999999999
 31
0
  0
LINE
  8
0
 62
7
  6
DASHED
 10
6.713425330058692
 20
10.84999999999999
 30
0
 11
6.913425330058691
 21
11.04999999999999
 31
0
  0
LINE
  8
0
 62
7
  6
DASHED
 10
6.925557364414656
 20
10.84999999999999
 30
0
 11
7.125557364414655
 21
11.04999999999999
 31
0
  0
LINE
  8
0
 62
7
  6
DASHED
 10
7.13768939877062
 20
10.84999999999999
 30
0
 11
7.337689398770618
 21
11.04999999999999
 31
0
  0
LINE
  8
0
 62
7
  6
DASHED
 10
7.349821433126584
 20
10.84999999999999
 30
0
 11
7.549821433126582
 21
11.04999999999999
 31
0
  0
LINE
  8
0
 62
7
  6
DASHED
 10
7.561953467482548
 20
10.84999999999999
 30
0
 11
7.600000000000023
 21
10.88804653251747
 31
0
  0
LINE
  8
0
 62
7
 10
3.375000000000001
 20
11.01175323681471
 30
0
 11
3.413246763185285
 21
11.04999999999999
 31
0
  0
LINE
  8
0
 62
7
 10
3.42537879754125
 20
10.84999999999999
 30
0
 11
3.625378797541249
 21
11.04999999999999
 31
0
  0
LINE
  8
0
 62
7
 10
3.637510831897214
 20
10.84999999999999
 30
0
 11
3.837510831897214
 21
11.04999999999999
 31
0
  0
LINE
  8
0
 62
7
 10
3.849642866253178
 20
10.84999999999999
 30
0
 11
4.049642866253178
 21
11.04999999999999
 31
0
  0
LINE
  8
0
 62
7
 10
4.061774900609143
 20
10.84999999999999
 30
0
 11
4.261774900609142
 21
11.04999999999999
 31
0
  0
LINE
  8
0
 62
7
 10
4.273906934965106
 20
10.84999999999999
 30
0
 11
4.473906934965106
 21
11.04999999999999
 31
0
  0
LINE
  8
0
 62
7
 10
4.48603896932107
 20
10.84999999999999
 30
0
 11
4.68603896932107
 21
11.04999999999999
 31
0
  0
LINE
  8
0
 62
7
 10
4.698171003677034
 20
10.84999999999999
 30
0
 11
4.898171003677033
 21
11.04999999999999
 31
0
  0
LINE
  8
0
 62
7
 10
4.910303038032998
 20
10.84999999999999
 30
0
 11
5.110303038032997
 21
11.04999999999999
 31
0
  0
LINE
  8
0
 62
7
 10
5.122435072388962
 20
10.84999999999999
 30
0
 11
5.322435072388961
 21
11.04999999999999
 31
0
  0
LINE
  8
0
 62
7
 10
5.334567106744926
 20
10.84999999999999
 30
0
 11
5.534567106744925
 21
11.04999999999999
 31
0
  0
LINE
  8
0
 62
7
 10
5.546699141100889
 20
10.84999999999999
 30
0
 11
5.746699141100889
 21
11.04999999999999
 31
0
  0
LINE
  8
0
 62
7
 10
5.758831175456853
 20
10.84999999999999
 30
0
 11
5.958831175456853
 21
11.04999999999999
 31
0
  0
LINE
  8
0
 62
7
 10
5.970963209812817
 20
10.84999999999999
 30
0
 11
6.170963209812816
 21
11.04999999999999
 31
0
  0
LINE
  8
0
 62
7
 10
6.183095244168781
 20
10.84999999999999
 30
0
 11
6.38309524416878
 21
11.04999999999999
 31
0
  0
LINE
  8
0
 62
7
 10
6.395227278524745
 20
10.84999999999999
 30
0
 11
6.595227278524744
 21
11.04999999999999
 31
0
  0
LINE
  8
0
 62
7
 10
6.607359312880709
 20
10.84999999999999
 30
0
 11
6.807359312880708
 21
11.04999999999999
 31
0
  0
LINE
  8
0
 62
7
 10
6.819491347236672
 20
10.84999999999999
 30
0
 11
7.019491347236672
 21
11.04999999999999
 31
0
  0
LINE
  8
0
 62
7
 10
7.031623381592636
 20
10.84999999999999
 30
0
 11
7.231623381592636
 21
11.04999999999999
 31
0
  0
LINE
  8
0
 62
7
 10
7.2437554159486
 20
10.84999999999999
 30
0
 11
7.443755415948599
 21
11.04999999999999
 31
0
  0
LINE
  8
0
 62
7
 10
7.455887450304564
 20
10.84999999999999
 30
0
 11
7.600000000000023
 21
10.99411254969545
 31
0
  0
ENDBLK
  8
0
  0
BLOCK
  8
0
  2
*X6
 70
1
 10
0
 20
0
 30
0
  0
LINE
  8
0
 62
7
 10
0.5
 20
8.03068721963673
 30
0
 11
0.5693127803632692
 21
8.1
 31
0
  0
LINE
  8
0
 62
7
 10
0.6314448147192331
 20
7.949999999999999
 30
0
 11
0.7399999999999998
 21
8.058555185280765
 31
0
  0
LINE
  8
0
 62
7
 10
0.5253787975412521
 20
7.949999999999999
 30
0
 11
0.6753787975412515
 21
8.099999999999998
 31
0
  0
LINE
  8
0
 62
7
 10
0.7375108318972163
 20
7.949999999999999
 30
0
 11
0.7399999999999993
 21
7.952489168102783
 31
0
  0
ENDBLK
  8
0
  0
BLOCK
  8
0
  2
*X7
 70
1
 10
0
 20
0
 30
0
  0
LINE
  8
0
 62
7
 10
0.5000000000000004
 20
10.78840366626426
 30
0
 11
0.561596333735725
 21
10.84999999999999
 31
0
  0
LINE
  8
0
 62
7
 10
0.5000000000000004
 20
10.5762716319083
 30
0
 11
0.7400000000000002
 21
10.8162716319083
 31
0
  0
LINE
  8
0
 62
7
 10
0.5000000000000004
 20
10.36413959755233
 30
0
 11
0.7400000000000002
 21
10.60413959755233
 31
0
  0
LINE
  8
0
 62
7
 10
0.5000000000000004
 20
10.15200756319637
 30
0
 11
0.7400000000000002
 21
10.39200756319637
 31
0
  0
LINE
  8
0
 62
7
 10
0.5000000000000004
 20
9.939875528840407
 30
0
 11
0.7400000000000002
 21
10.17987552884041
 31
0
  0
LINE
  8
0
 62
7
 10
0.5000000000000004
 20
9.727743494484443
 30
0
 11
0.7400000000000002
 21
9.967743494484441
 31
0
  0
LINE
  8
0
 62
7
 10
0.5000000000000004
 20
9.515611460128479
 30
0
 11
0.7400000000000002
 21
9.755611460128478
 31
0
  0
LINE
  8
0
 62
7
 10
0.5000000000000004
 20
9.303479425772515
 30
0
 11
0.7400000000000002
 21
9.543479425772514
 31
0
  0
LINE
  8
0
 62
7
 10
0.5000000000000004
 20
9.091347391416551
 30
0
 11
0.7400000000000002
 21
9.33134739141655
 31
0
  0
LINE
  8
0
 62
7
 10
0.5000000000000004
 20
8.879215357060588
 30
0
 11
0.7400000000000002
 21
9.119215357060586
 31
0
  0
LINE
  8
0
 62
7
 10
0.5000000000000004
 20
8.667083322704624
 30
0
 11
0.7400000000000002
 21
8.907083322704622
 31
0
  0
LINE
  8
0
 62
7
 10
0.5000000000000004
 20
8.45495128834866
 30
0
 11
0.7400000000000002
 21
8.694951288348658
 31
0
  0
LINE
  8
0
 62
7
 10
0.5571807460073028
 20
8.299999999999997
 30
0
 11
0.7400000000000002
 21
8.482819253992695
 31
0
  0
LINE
  8
0
 62
7
 10
0.5
 20
10.68233764908628
 30
0
 11
0.6676623509137087
 21
10.84999999999999
 31
0
  0
LINE
  8
0
 62
7
 10
0.5
 20
10.47020561473031
 30
0
 11
0.7400000000000007
 21
10.71020561473031
 31
0
  0
LINE
  8
0
 62
7
 10
0.5
 20
10.25807358037435
 30
0
 11
0.7400000000000007
 21
10.49807358037435
 31
0
  0
LINE
  8
0
 62
7
 10
0.5
 20
10.04594154601839
 30
0
 11
0.7400000000000007
 21
10.28594154601839
 31
0
  0
LINE
  8
0
 62
7
 10
0.5
 20
9.833809511662423
 30
0
 11
0.7400000000000007
 21
10.07380951166242
 31
0
  0
LINE
  8
0
 62
7
 10
0.5
 20
9.621677477306459
 30
0
 11
0.7400000000000007
 21
9.861677477306458
 31
0
  0
LINE
  8
0
 62
7
 10
0.5
 20
9.409545442950495
 30
0
 11
0.7400000000000007
 21
9.649545442950494
 31
0
  0
LINE
  8
0
 62
7
 10
0.5
 20
9.197413408594532
 30
0
 11
0.7400000000000007
 21
9.43741340859453
 31
0
  0
LINE
  8
0
 62
7
 10
0.5
 20
8.985281374238568
 30
0
 11
0.7400000000000007
 21
9.225281374238566
 31
0
  0
LINE
  8
0
 62
7
 10
0.5
 20
8.773149339882604
 30
0
 11
0.7400000000000007
 21
9.013149339882602
 31
0
  0
LINE
  8
0
 62
7
 10
0.5
 20
8.56101730552664
 30
0
 11
0.7400000000000007
 21
8.801017305526639
 31
0
  0
LINE
  8
0
 62
7
 10
0.5
 20
8.348885271170676
 30
0
 11
0.7400000000000007
 21
8.588885271170675
 31
0
  0
LINE
  8
0
 62
7
 10
0.6632467631852861
 20
8.299999999999997
 30
0
 11
0.7400000000000007
 21
8.376753236814711
 31
0
  0
ENDBLK
  8
0
  0
BLOCK
  8
0
  2
*X8
 70
1
 10
0
 20
0
 30
0
  0
LINE
  8
0
 62
7
 10
0.5494642993797614
 20
11.04999999999999
 30
0
 11
0.6994642993797617
 21
11.19999999999999
 31
0
  0
LINE
  8
0
 62
7
 10
0.5
 20
11.10660171779821
 30
0
 11
0.5933982822017807
 21
11.19999999999999
 31
0
  0
LINE
  8
0
 62
7
 10
0.6555303165577433
 20
11.04999999999999
 30
0
 11
0.7400000000000002
 21
11.13446968344225
 31
0
  0
ENDBLK
  8
0
  0
BLOCK
  8
0
  2
*X9
 70
1
 10
0
 20
0
 30
0
  0
LINE
  8
0
 62
7
  6
DASHED
 10
1.9
 20
8.157895013500944
 30
0
 11
2.042104986499053
 21
8.299999999999997
 31
0
  0
LINE
  8
0
 62
7
  6
DASHED
 10
2.054237020855017
 20
8.099999999999996
 30
0
 11
2.200000000000001
 21
8.245762979144981
 31
0
  0
LINE
  8
0
 62
7
 10
1.9
 20
8.263961030678926
 30
0
 11
1.93603896932107
 21
8.299999999999997
 31
0
  0
LINE
  8
0
 62
7
 10
1.948171003677037
 20
8.1
 30
0
 11
2.148171003677035
 21
8.299999999999997
 31
0
  0
LINE
  8
0
 62
7
 10
2.160303038033001
 20
8.1
 30
0
 11
2.2
 21
8.139696961966997
 31
0
  0
ENDBLK
  8
0
  0
BLOCK
  8
0
  2
*X10
 70
1
 10
0
 20
0
 30
0
  0
LINE
  8
0
 62
7
  6
DASHED
 10
1.9
 20
10.91561146012848
 30
0
 11
2.034388539871511
 21
11.04999999999999
 31
0
  0
LINE
  8
0
 62
7
  6
DASHED
 10
2.046520574227475
 20
10.84999999999999
 30
0
 11
2.2
 21
11.00347942577251
 31
0
  0
LINE
  8
0
 62
7
 10
1.9
 20
11.02167747730646
 30
0
 11
1.928322522693529
 21
11.04999999999999
 31
0
  0
LINE
  8
0
 62
7
 10
1.940454557049494
 20
10.84999999999999
 30
0
 11
2.140454557049494
 21
11.04999999999999
 31
0
  0
LINE
  8
0
 62
7
 10
2.152586591405458
 20
10.84999999999999
 30
0
 11
2.200000000000001
 21
10.89741340859453
 31
0
  0
ENDBLK
  8
0
  0
BLOCK
  8
0
  2
*X11
 70
1
 10
0
 20
0
 30
0
  0
LINE
  8
0
 62
7
  6
DASHED
 10
0.5
 20
11.00053570062023
 30
0
 11
0.5494642993797623
 21
11.04999999999999
 31
0
  0
LINE
  8
0
 62
7
  6
DASHED
 10
0.5615963337357259
 20
10.84999999999999
 30
0
 11
0.7400000000000011
 21
11.02840366626426
 31
0
  0
LINE
  8
0
 62
7
 10
0.5000000000000009
 20
10.89446968344225
 30
0
 11
0.6555303165577433
 21
11.04999999999999
 31
0
  0
LINE
  8
0
 62
7
 10
0.6676623509137087
 20
10.84999999999999
 30
0
 11
0.7400000000000002
 21
10.92233764908628
 31
0
  0
ENDBLK
  8
0
  0
BLOCK
  8
0
  2
*X12
 70
1
 10
0
 20
0
 30
0
  0
LINE
  8
0
 62
7
  6
DASHED
 10
0.5
 20
8.242819253992694
 30
0
 11
0.5571807460073028
 21
8.299999999999997
 31
0
  0
LINE
  8
0
 62
7
  6
DASHED
 10
0.5693127803632705
 20
8.100000000000001
 30
0
 11
0.7399999999999998
 21
8.270687219636729
 31
0
  0
LINE
  8
0
 62
7
 10
0.5
 20
8.136753236814712
 30
0
 11
0.6632467631852856
 21
8.299999999999997
 31
0
  0
LINE
  8
0
 62
7
 10
0.6753787975412515
 20
8.099999999999998
 30
0
 11
0.7399999999999998
 21
8.164621202458747
 31
0
  0
ENDBLK
  8
0
  0
BLOCK
  8
0
  2
*X13
 70
1
 10
0
 20
0
 30
0
  0
LINE
  8
0
 62
7
 10
3.415
 20
4.89992424049175
 30
0
 11
3.545075759508253
 21
5.029999999999997
 31
0
  0
LINE
  8
0
 62
7
 10
3.51720779386422
 20
4.789999999999999
 30
0
 11
3.757207793864217
 21
5.029999999999997
 31
0
  0
LINE
  8
0
 62
7
 10
3.729339828220184
 20
4.789999999999999
 30
0
 11
3.969339828220181
 21
5.029999999999997
 31
0
  0
LINE
  8
0
 62
7
 10
3.941471862576149
 20
4.789999999999999
 30
0
 11
4.181471862576146
 21
5.029999999999997
 31
0
  0
LINE
  8
0
 62
7
 10
4.153603896932113
 20
4.789999999999999
 30
0
 11
4.39360389693211
 21
5.029999999999997
 31
0
  0
LINE
  8
0
 62
7
 10
4.365735931288077
 20
4.789999999999999
 30
0
 11
4.605735931288073
 21
5.029999999999997
 31
0
  0
LINE
  8
0
 62
7
 10
4.577867965644041
 20
4.789999999999999
 30
0
 11
4.817867965644037
 21
5.029999999999997
 31
0
  0
LINE
  8
0
 62
7
 10
4.790000000000004
 20
4.789999999999999
 30
0
 11
5.030000000000001
 21
5.029999999999997
 31
0
  0
LINE
  8
0
 62
7
 10
5.002132034355968
 20
4.789999999999999
 30
0
 11
5.242132034355965
 21
5.029999999999997
 31
0
  0
LINE
  8
0
 62
7
 10
5.214264068711932
 20
4.789999999999999
 30
0
 11
5.454264068711929
 21
5.029999999999997
 31
0
  0
LINE
  8
0
 62
7
 10
5.426396103067896
 20
4.789999999999999
 30
0
 11
5.666396103067893
 21
5.029999999999997
 31
0
  0
LINE
  8
0
 62
7
 10
5.63852813742386
 20
4.789999999999999
 30
0
 11
5.878528137423856
 21
5.029999999999997
 31
0
  0
LINE
  8
0
 62
7
 10
5.850660171779824
 20
4.789999999999999
 30
0
 11
6.09066017177982
 21
5.029999999999997
 31
0
  0
LINE
  8
0
 62
7
 10
6.062792206135788
 20
4.789999999999999
 30
0
 11
6.302792206135784
 21
5.029999999999997
 31
0
  0
LINE
  8
0
 62
7
 10
6.274924240491751
 20
4.789999999999999
 30
0
 11
6.514924240491748
 21
5.029999999999997
 31
0
  0
LINE
  8
0
 62
7
 10
6.487056274847715
 20
4.789999999999999
 30
0
 11
6.727056274847712
 21
5.029999999999997
 31
0
  0
LINE
  8
0
 62
7
 10
6.699188309203679
 20
4.789999999999999
 30
0
 11
6.939188309203676
 21
5.029999999999997
 31
0
  0
LINE
  8
0
 62
7
 10
7.275000000000023
 20
5.153679656440379
 30
0
 11
7.301320343559639
 21
5.179999999999996
 31
0
  0
LINE
  8
0
 62
7
 10
6.911320343559643
 20
4.789999999999999
 30
0
 11
7.15132034355964
 21
5.029999999999997
 31
0
  0
LINE
  8
0
 62
7
 10
7.123452377915607
 20
4.789999999999999
 30
0
 11
7.450000000000021
 21
5.116547622084413
 31
0
  0
LINE
  8
0
 62
7
 10
7.335584412271571
 20
4.789999999999999
 30
0
 11
7.450000000000021
 21
4.904415587728449
 31
0
  0
ENDBLK
  8
0
  0
BLOCK
  8
0
  2
*D0
 70
1
 10
0
 20
0
 30
0
  0
LINE
  8
0
 62
7
 10
7.88425714409003
 20
10.29844043614388
 30
0
 11
7.88425714409003
 21
11.04999999999999
 31
0
  0
LINE
  8
0
 62
7
 10
7.88425714409003
 20
8.299999999999999
 30
0
 11
7.88425714409003
 21
9.118440436143882
 31
0
  0
LINE
  8
0
 62
7
 10
7.600000000000023
 20
11.04999999999999
 30
0
 11
7.93425714409003
 21
11.04999999999999
 31
0
  0
LINE
  8
0
 62
7
 10
7.600000000000023
 20
8.299999999999999
 30
0
 11
7.93425714409003
 21
8.299999999999999
 31
0
  0
LINE
  8
0
 62
7
 10
7.919612483149358
 20
11.01464466094067
 30
0
 11
7.848901805030703
 21
11.08535533905932
 31
0
  0
LINE
  8
0
 62
7
 10
7.848901805030703
 20
8.335355339059326
 30
0
 11
7.919612483149358
 21
8.264644660940672
 31
0
  0
TEXT
  8
0
 62
7
 10
7.85925714409003
 20
9.588440436143882
 30
0
 40
0.1
  1
275
 50
90
 41
0.9
  0
TEXT
  8
0
 62
7
 10
8.00925714409003
 20
9.368440436143882
 30
0
 40
0.1
  1
(260-280)
 50
90
 41
0.9
  0
ENDBLK
  8
0
  0
BLOCK
  8
0
  2
*D1
 70
1
 10
0
 20
0
 30
0
  0
LINE
  8
0
 62
7
 10
5.793306595320101
 20
3.07043871986175
 30
0
 11
7.275000000000023
 21
3.07043871986175
 31
0
  0
LINE
  8
0
 62
7
 10
3.515000000000001
 20
3.07043871986175
 30
0
 11
5.018306595320101
 21
3.07043871986175
 31
0
  0
LINE
  8
0
 62
7
 10
7.275000000000023
 20
3.350000000000001
 30
0
 11
7.275000000000023
 21
3.02043871986175
 31
0
  0
LINE
  8
0
 62
7
 10
3.515000000000001
 20
3.350000000000001
 30
0
 11
3.515000000000001
 21
3.02043871986175
 31
0
  0
LINE
  8
0
 62
7
 10
3.550355339059328
 20
3.105794058921077
 30
0
 11
3.479644660940673
 21
3.035083380802423
 31
0
  0
LINE
  8
0
 62
7
 10
7.239644660940696
 20
3.035083380802423
 30
0
 11
7.310355339059351
 21
3.105794058921077
 31
0
  0
TEXT
  8
0
 62
7
 10
5.268306595320101
 20
3.02543871986175
 30
0
 40
0.1
  1
3,76
 41
0.9
  0
ENDBLK
  8
0
  0
BLOCK
  8
0
  2
*D2
 70
1
 10
0
 20
0
 30
0
  0
LINE
  8
0
 62
7
 10
5.77830445341636
 20
5.380768573037891
 30
0
 11
7.275000000000023
 21
5.380768573037891
 31
0
  0
LINE
  8
0
 62
7
 10
3.415
 20
5.380768573037891
 30
0
 11
5.00330445341636
 21
5.380768573037891
 31
0
  0
LINE
  8
0
 62
7
 10
7.275000000000023
 20
5.029999999999998
 30
0
 11
7.275000000000023
 21
5.430768573037891
 31
0
  0
LINE
  8
0
 62
7
 10
3.415
 20
5.029999999999998
 30
0
 11
3.415
 21
5.430768573037891
 31
0
  0
LINE
  8
0
 62
7
 10
7.239644660940696
 20
5.345413233978563
 30
0
 11
7.310355339059351
 21
5.416123912097218
 31
0
  0
LINE
  8
0
 62
7
 10
3.450355339059327
 20
5.416123912097218
 30
0
 11
3.379644660940673
 21
5.345413233978563
 31
0
  0
TEXT
  8
0
 62
7
 10
5.25330445341636
 20
5.335768573037891
 30
0
 40
0.1
  1
3,86
 41
0.9
  0
ENDBLK
  8
0
  0
BLOCK
  8
0
  2
*D3
 70
1
 10
0
 20
0
 30
0
  0
LINE
  8
0
 62
7
 10
7.79842495974788
 20
4.29372603913428
 30
0
 11
7.79842495974788
 21
4.510000000000001
 31
0
  0
LINE
  8
0
 62
7
 10
7.79842495974788
 20
3.350000000000001
 30
0
 11
7.79842495974788
 21
3.578726039134279
 31
0
  0
LINE
  8
0
 62
7
 10
7.275000000000023
 20
4.510000000000001
 30
0
 11
7.84842495974788
 21
4.510000000000001
 31
0
  0
LINE
  8
0
 62
7
 10
7.275000000000023
 20
3.350000000000001
 30
0
 11
7.84842495974788
 21
3.350000000000001
 31
0
  0
LINE
  8
0
 62
7
 10
7.833780298807207
 20
4.474644660940673
 30
0
 11
7.763069620688553
 21
4.545355339059328
 31
0
  0
LINE
  8
0
 62
7
 10
7.763069620688553
 20
3.385355339059328
 30
0
 11
7.833780298807207
 21
3.314644660940673
 31
0
  0
TEXT
  8
0
 62
7
 10
7.84342495974788
 20
3.82872603913428
 30
0
 40
0.1
  1
1,16
 50
90
 41
0.9
  0
ENDBLK
  8
0
  0
BLOCK
  8
0
  2
*D4
 70
1
 10
0
 20
0
 30
0
  0
LINE
  8
0
 62
7
 10
5.74830016960888
 20
11.4866403278606
 30
0
 11
7.275000000000023
 21
11.4866403278606
 31
0
  0
LINE
  8
0
 62
7
 10
3.515
 20
11.4866403278606
 30
0
 11
4.97330016960888
 21
11.4866403278606
 31
0
  0
LINE
  8
0
 62
7
 10
7.275000000000023
 20
11.04999999999999
 30
0
 11
7.275000000000023
 21
11.5366403278606
 31
0
  0
LINE
  8
0
 62
7
 10
3.515
 20
11.04999999999999
 30
0
 11
3.515
 21
11.5366403278606
 31
0
  0
LINE
  8
0
 62
7
 10
3.550355339059327
 20
11.52199566691993
 30
0
 11
3.479644660940673
 21
11.45128498880127
 31
0
  0
LINE
  8
0
 62
7
 10
7.239644660940696
 20
11.45128498880127
 30
0
 11
7.310355339059351
 21
11.52199566691993
 31
0
  0
TEXT
  8
0
 62
7
 10
5.22330016960888
 20
11.4416403278606
 30
0
 40
0.1
  1
3,76
 41
0.9
  0
ENDBLK
  8
0
  0
ENDSEC
  0
SECTION
  2
ENTITIES
  0
INSERT
  8
0
  2
*X0
 10
0
 20
0
 30
0
  0
INSERT
  8
0
  2
*X1
 10
0
 20
0
 30
0
  0
INSERT
  8
0
  2
*X2
 10
0
 20
0
 30
0
  0
INSERT
  8
0
  2
*X3
 10
0
 20
0
 30
0
  0
INSERT
  8
0
  2
*X4
 10
0
 20
0
 30
0
  0
INSERT
  8
0
  2
*X5
 10
0
 20
0
 30
0
  0
INSERT
  8
0
  2
*X6
 10
0
 20
0
 30
0
  0
INSERT
  8
0
  2
*X7
 10
0
 20
0
 30
0
  0
INSERT
  8
0
  2
*X8
 10
0
 20
0
 30
0
  0
INSERT
  8
0
  2
*X9
 10
0
 20
0
 30
0
  0
INSERT
  8
0
  2
*X10
 10
0
 20
0
 30
0
  0
INSERT
  8
0
  2
*X11
 10
0
 20
0
 30
0
  0
INSERT
  8
0
  2
*X12
 10
0
 20
0
 30
0
  0
INSERT
  8
0
  2
*X13
 10
0
 20
0
 30
0
  0
LINE
  8
0
 62
7
 10
5.860367993210224
 20
3.405000000000001
 30
0
 11
5.899237699917285
 21
3.405000000000001
 31
0
  0
LINE
  8
0
 62
7
 10
5.860367993210224
 20
3.405000000000001
 30
0
 11
6.018979912557406
 21
3.405000000000001
 31
0
  0
LINE
  8
0
 62
7
 10
6.170000000000023
 20
3.405000000000003
 30
0
 11
6.170000000000023
 21
3.380000000000001
 31
0
  0
LINE
  8
0
 62
7
 10
5.860367993210224
 20
3.405000000000001
 30
0
 11
6.170000000000023
 21
3.405000000000003
 31
0
  0
LINE
  8
0
 62
7
 10
3.415000000000023
 20
4.455000000000001
 30
0
 11
3.415000000000023
 21
3.405000000000001
 31
0
  0
LINE
  8
0
 62
7
 10
3.415000000000023
 20
3.405000000000001
 30
0
 11
3.765000000000023
 21
3.405000000000001
 31
0
  0
LINE
  8
0
 62
7
 10
3.765000000000023
 20
4.455000000000001
 30
0
 11
3.415000000000023
 21
4.455000000000001
 31
0
  0
LINE
  8
0
 62
7
 10
3.675000000000022
 20
4.455000000000001
 30
0
 11
3.675000000000022
 21
3.405000000000001
 31
0
  0
LINE
  8
0
 62
7
 10
3.675000000000022
 20
3.405000000000001
 30
0
 11
4.025000000000023
 21
3.405000000000001
 31
0
  0
LINE
  8
0
 62
7
 10
4.025000000000023
 20
4.455000000000001
 30
0
 11
3.675000000000022
 21
4.455000000000001
 31
0
  0
LINE
  8
0
 62
7
 10
3.935000000000022
 20
4.455000000000001
 30
0
 11
3.935000000000022
 21
3.405000000000001
 31
0
  0
LINE
  8
0
 62
7
 10
3.935000000000022
 20
3.405000000000001
 30
0
 11
4.285000000000022
 21
3.405000000000001
 31
0
  0
LINE
  8
0
 62
7
 10
4.285000000000022
 20
4.455000000000001
 30
0
 11
3.935000000000022
 21
4.455000000000001
 31
0
  0
LINE
  8
0
 62
7
 10
4.195000000000022
 20
4.455000000000001
 30
0
 11
4.195000000000022
 21
3.405000000000001
 31
0
  0
LINE
  8
0
 62
7
 10
4.195000000000022
 20
3.405000000000001
 30
0
 11
4.545000000000022
 21
3.405000000000001
 31
0
  0
LINE
  8
0
 62
7
 10
4.545000000000022
 20
4.455000000000001
 30
0
 11
4.195000000000022
 21
4.455000000000001
 31
0
  0
LINE
  8
0
 62
7
 10
4.455000000000022
 20
4.455000000000001
 30
0
 11
4.455000000000022
 21
3.405000000000001
 31
0
  0
LINE
  8
0
 62
7
 10
4.455000000000022
 20
3.405000000000001
 30
0
 11
4.805000000000022
 21
3.405000000000001
 31
0
  0
LINE
  8
0
 62
7
 10
4.805000000000022
 20
4.455000000000001
 30
0
 11
4.455000000000022
 21
4.455000000000001
 31
0
  0
LINE
  8
0
 62
7
 10
4.715000000000022
 20
4.455000000000001
 30
0
 11
4.715000000000022
 21
3.405000000000001
 31
0
  0
LINE
  8
0
 62
7
 10
4.715000000000022
 20
3.405000000000001
 30
0
 11
5.065000000000023
 21
3.405000000000001
 31
0
  0
LINE
  8
0
 62
7
 10
5.065000000000023
 20
4.455000000000001
 30
0
 11
4.715000000000022
 21
4.455000000000001
 31
0
  0
LINE
  8
0
 62
7
 10
4.975000000000023
 20
4.455000000000001
 30
0
 11
4.975000000000023
 21
3.405000000000001
 31
0
  0
LINE
  8
0
 62
7
 10
4.975000000000023
 20
3.405000000000001
 30
0
 11
5.325000000000022
 21
3.405000000000001
 31
0
  0
LINE
  8
0
 62
7
 10
5.325000000000022
 20
4.455000000000001
 30
0
 11
4.975000000000023
 21
4.455000000000001
 31
0
  0
LINE
  8
0
 62
7
 10
5.235000000000023
 20
4.455000000000001
 30
0
 11
5.235000000000023
 21
3.405000000000001
 31
0
  0
LINE
  8
0
 62
7
 10
5.235000000000023
 20
3.405000000000001
 30
0
 11
5.539922405140126
 21
3.405000000000001
 31
0
  0
LINE
  8
0
 62
7
 10
5.6242871096167
 20
4.455000000000001
 30
0
 11
5.235000000000023
 21
4.455000000000001
 31
0
  0
LINE
  8
0
 62
7
 10
5.533997070704646
 20
4.455000000000001
 30
0
 11
5.4496323662281
 21
3.405000000000001
 31
0
  0
LINE
  8
0
 62
7
 10
5.4496323662281
 20
3.405000000000001
 30
0
 11
5.65773019639872
 21
3.405000000000001
 31
0
  0
LINE
  8
0
 62
7
 10
6.015417554853441
 20
4.455000000000001
 30
0
 11
5.533997070704646
 21
4.455000000000001
 31
0
  0
LINE
  8
0
 62
7
 10
5.920338802457272
 20
4.455000000000001
 30
0
 11
5.56265144400255
 21
3.405000000000001
 31
0
  0
LINE
  8
0
 62
7
 10
5.56265144400255
 20
3.405000000000001
 30
0
 11
5.777880020502643
 21
3.405000000000001
 31
0
  0
LINE
  8
0
 62
7
 10
6.414548457362901
 20
4.455000000000001
 30
0
 11
5.920338802457272
 21
4.455000000000001
 31
0
  0
LINE
  8
0
 62
7
 10
6.309296106431002
 20
4.455000000000001
 30
0
 11
5.67262766957075
 21
3.405000000000001
 31
0
  0
LINE
  8
0
 62
7
 10
5.67262766957075
 20
3.405000000000001
 30
0
 11
5.860367993210224
 21
3.405000000000001
 31
0
  0
LINE
  8
0
 62
7
 10
6.838337947107663
 20
4.455000000000001
 30
0
 11
6.309296106431002
 21
4.455000000000001
 31
0
  0
LINE
  8
0
 62
7
 10
6.717593036475221
 20
4.455000000000001
 30
0
 11
5.778492789284821
 21
3.405000000000001
 31
0
  0
LINE
  8
0
 62
7
 10
5.778492789284821
 20
3.405000000000001
 30
0
 11
5.860367993210224
 21
3.405000000000001
 31
0
  0
LINE
  8
0
 62
7
 10
7.220000000000024
 20
4.232621993400051
 30
0
 11
7.220000000000024
 21
4.455000000000001
 31
0
  0
LINE
  8
0
 62
7
 10
7.220000000000024
 20
4.455000000000001
 30
0
 11
6.717593036475221
 21
4.455000000000001
 31
0
  0
LINE
  8
0
 62
7
 10
7.220000000000024
 20
4.341921341712061
 30
0
 11
5.860367993210224
 21
3.405000000000001
 31
0
  0
LINE
  8
0
 62
7
 10
7.220000000000024
 20
3.72631137967287
 30
0
 11
7.220000000000024
 21
4.341921341712061
 31
0
  0
LINE
  8
0
 62
7
 10
7.220000000000024
 20
3.820484029410393
 30
0
 11
6.170000000000023
 21
3.497065183455581
 31
0
  0
LINE
  8
0
 62
7
 10
6.170000000000023
 20
3.497065183455581
 30
0
 11
6.170000000000023
 21
3.405000000000003
 31
0
  0
LINE
  8
0
 62
7
 10
7.220000000000024
 20
3.380000000000001
 30
0
 11
7.220000000000024
 21
3.820484029410393
 31
0
  0
LINE
  8
0
 62
7
 10
3.415000000000023
 20
3.96964389647392
 30
0
 11
6.169999999871944
 21
3.969643896473922
 31
0
  0
LINE
  8
0
 62
7
 10
6.734643896473928
 20
3.400000000000001
 30
0
 11
6.628988797212232
 21
3.460999999999999
 31
0
  0
LINE
  8
0
 62
7
 10
6.628988797212232
 20
3.460999999999999
 30
0
 11
6.840298995735641
 21
3.460999999999999
 31
0
  0
LINE
  8
0
 62
7
 10
6.840298995735641
 20
3.460999999999999
 30
0
 11
6.734643896473928
 21
3.400000000000001
 31
0
  0
LINE
  8
0
 62
7
 10
6.734643896473928
 20
3.40499999998926
 30
0
 11
6.734643896473928
 21
3.400000000000001
 31
0
  0
LINE
  8
0
 62
7
 10
3.415000040000021
 20
8.583333226666662
 30
0
 11
3.76500003000001
 21
8.583333226666662
 31
0
  0
LINE
  8
0
 62
7
 10
3.415000040000021
 20
8.518333226666662
 30
0
 11
3.415000040000021
 21
8.583333226666662
 31
0
  0
LINE
  8
0
 62
7
 10
3.76500003000001
 20
8.583333226666662
 30
0
 11
3.76500003000001
 21
8.518333226666662
 31
0
  0
LINE
  8
0
 62
7
 10
3.76500003000001
 20
8.518333226666662
 30
0
 11
3.415000040000021
 21
8.518333226666662
 31
0
  0
LINE
  8
0
 62
7
 10
3.67500007000001
 20
8.766666566666663
 30
0
 11
3.675000150000022
 21
8.766666566666663
 31
0
  0
LINE
  8
0
 62
7
 10
3.67500007000001
 20
8.701666566666665
 30
0
 11
3.67500007000001
 21
8.766666566666663
 31
0
  0
LINE
  8
0
 62
7
 10
3.675000150000022
 20
8.766666566666663
 30
0
 11
4.025000150000022
 21
8.766666566666663
 31
0
  0
LINE
  8
0
 62
7
 10
4.025000150000022
 20
8.766666566666663
 30
0
 11
4.025000150000022
 21
8.701666566666665
 31
0
  0
LINE
  8
0
 62
7
 10
4.025000150000022
 20
8.701666566666665
 30
0
 11
3.67500007000001
 21
8.701666566666665
 31
0
  0
LINE
  8
0
 62
7
 10
3.93500007000001
 20
8.949999906666664
 30
0
 11
3.935000150000022
 21
8.949999906666664
 31
0
  0
LINE
  8
0
 62
7
 10
3.93500007000001
 20
8.884999906666662
 30
0
 11
3.93500007000001
 21
8.949999906666664
 31
0
  0
LINE
  8
0
 62
7
 10
3.935000150000022
 20
8.949999906666664
 30
0
 11
4.285000150000022
 21
8.949999906666664
 31
0
  0
LINE
  8
0
 62
7
 10
4.285000150000022
 20
8.949999906666664
 30
0
 11
4.285000150000022
 21
8.884999906666662
 31
0
  0
LINE
  8
0
 62
7
 10
4.285000150000022
 20
8.884999906666662
 30
0
 11
3.93500007000001
 21
8.884999906666662
 31
0
  0
LINE
  8
0
 62
7
 10
4.195000230000005
 20
9.068333226666663
 30
0
 11
4.195000230000005
 21
9.133333226666663
 31
0
  0
LINE
  8
0
 62
7
 10
4.195000230000005
 20
9.133333226666663
 30
0
 11
4.545000230000006
 21
9.133333226666663
 31
0
  0
LINE
  8
0
 62
7
 10
4.545000230000006
 20
9.133333226666663
 30
0
 11
4.545000230000006
 21
9.068333226666663
 31
0
  0
LINE
  8
0
 62
7
 10
4.545000230000006
 20
9.068333226666663
 30
0
 11
4.195000230000005
 21
9.068333226666663
 31
0
  0
LINE
  8
0
 62
7
 10
4.455000070000009
 20
9.251666586666664
 30
0
 11
4.455000070000009
 21
9.316666586666663
 31
0
  0
LINE
  8
0
 62
7
 10
4.455000070000009
 20
9.316666586666663
 30
0
 11
4.805000450000008
 21
9.316666586666663
 31
0
  0
LINE
  8
0
 62
7
 10
4.805000450000008
 20
9.316666586666663
 30
0
 11
4.805000450000008
 21
9.251666586666664
 31
0
  0
LINE
  8
0
 62
7
 10
4.805000450000008
 20
9.251666586666664
 30
0
 11
4.455000070000009
 21
9.251666586666664
 31
0
  0
LINE
  8
0
 62
7
 10
4.715000150000022
 20
9.434999946666665
 30
0
 11
4.715000150000022
 21
9.499999946666666
 31
0
  0
LINE
  8
0
 62
7
 10
4.715000150000022
 20
9.499999946666666
 30
0
 11
5.065000300000015
 21
9.499999946666666
 31
0
  0
LINE
  8
0
 62
7
 10
5.065000300000015
 20
9.499999946666666
 30
0
 11
5.065000300000015
 21
9.434999946666665
 31
0
  0
LINE
  8
0
 62
7
 10
5.065000300000015
 20
9.434999946666665
 30
0
 11
4.715000150000022
 21
9.434999946666665
 31
0
  0
LINE
  8
0
 62
7
 10
4.975000150000022
 20
9.618333226666664
 30
0
 11
4.975000150000022
 21
9.683333226666662
 31
0
  0
LINE
  8
0
 62
7
 10
4.975000150000022
 20
9.683333226666662
 30
0
 11
5.325000000000022
 21
9.683333226666662
 31
0
  0
LINE
  8
0
 62
7
 10
5.325000000000022
 20
9.683333226666662
 30
0
 11
5.325000000000022
 21
9.618333226666664
 31
0
  0
LINE
  8
0
 62
7
 10
5.325000000000022
 20
9.618333226666664
 30
0
 11
4.975000150000022
 21
9.618333226666664
 31
0
  0
LINE
  8
0
 62
7
 10
5.235000000000023
 20
9.866666666666664
 30
0
 11
5.624286950000009
 21
9.866666666666664
 31
0
  0
LINE
  8
0
 62
7
 10
5.624286950000009
 20
9.801666666666662
 30
0
 11
5.235000000000023
 21
9.801666666666662
 31
0
  0
LINE
  8
0
 62
7
 10
5.235000000000023
 20
9.801666666666662
 30
0
 11
5.235000000000023
 21
9.866666666666664
 31
0
  0
LINE
  8
0
 62
7
 10
5.624286950000009
 20
9.866666666666664
 30
0
 11
5.624286950000009
 21
9.801666666666662
 31
0
  0
LINE
  8
0
 62
7
 10
6.015417780000011
 20
9.984999946666665
 30
0
 11
5.449632720000009
 21
9.984999946666665
 31
0
  0
LINE
  8
0
 62
7
 10
5.449632720000009
 20
10.04999994666667
 30
0
 11
6.015417780000011
 21
10.04999994666667
 31
0
  0
LINE
  8
0
 62
7
 10
5.449632720000009
 20
9.984999946666665
 30
0
 11
5.449632720000009
 21
10.04999994666667
 31
0
  0
LINE
  8
0
 62
7
 10
6.015417780000011
 20
10.04999994666667
 30
0
 11
6.015417780000011
 21
9.984999946666665
 31
0
  0
LINE
  8
0
 62
7
 10
6.414548640000023
 20
10.16833322666666
 30
0
 11
5.562651670000022
 21
10.16833322666666
 31
0
  0
LINE
  8
0
 62
7
 10
5.562651670000022
 20
10.23333322666666
 30
0
 11
6.414548640000023
 21
10.23333322666666
 31
0
  0
LINE
  8
0
 62
7
 10
5.562651670000022
 20
10.16833322666666
 30
0
 11
5.562651670000022
 21
10.23333322666666
 31
0
  0
LINE
  8
0
 62
7
 10
6.414548640000023
 20
10.23333322666666
 30
0
 11
6.414548640000023
 21
10.16833322666666
 31
0
  0
LINE
  8
0
 62
7
 10
6.838338310000022
 20
10.35166666666666
 30
0
 11
5.672627870000012
 21
10.35166666666666
 31
0
  0
LINE
  8
0
 62
7
 10
5.672627870000012
 20
10.41666666666666
 30
0
 11
6.838338310000022
 21
10.41666666666666
 31
0
  0
LINE
  8
0
 62
7
 10
5.672627870000012
 20
10.35166666666666
 30
0
 11
5.672627870000012
 21
10.41666666666666
 31
0
  0
LINE
  8
0
 62
7
 10
6.838338310000022
 20
10.41666666666666
 30
0
 11
6.838338310000022
 21
10.35166666666666
 31
0
  0
LINE
  8
0
 62
7
 10
7.220000000000024
 20
10.53499994666666
 30
0
 11
5.77849289000001
 21
10.53499994666666
 31
0
  0
LINE
  8
0
 62
7
 10
5.77849289000001
 20
10.59999994666666
 30
0
 11
7.220000000000024
 21
10.59999994666666
 31
0
  0
LINE
  8
0
 62
7
 10
5.77849289000001
 20
10.53499994666666
 30
0
 11
5.77849289000001
 21
10.59999994666666
 31
0
  0
LINE
  8
0
 62
7
 10
7.220000000000024
 20
10.59999994666666
 30
0
 11
7.220000000000024
 21
10.53499994666666
 31
0
  0
LINE
  8
0
 62
7
 10
5.860367730000013
 20
10.78333322666666
 30
0
 11
7.220000000000024
 21
10.78333322666666
 31
0
  0
LINE
  8
0
 62
7
 10
7.220000000000024
 20
10.71833322666666
 30
0
 11
5.860367730000013
 21
10.71833322666666
 31
0
  0
LINE
  8
0
 62
7
 10
5.860367730000013
 20
10.71833322666666
 30
0
 11
5.860367730000013
 21
10.78333322666666
 31
0
  0
LINE
  8
0
 62
7
 10
7.220000000000024
 20
10.78333322666666
 30
0
 11
7.220000000000024
 21
10.71833322666666
 31
0
  0
LINE
  8
0
 62
7
  6
DASHED
 10
6.170000000000023
 20
10.96666666666666
 30
0
 11
7.220000000000024
 21
10.96666666666666
 31
0
  0
LINE
  8
0
 62
7
  6
DASHED
 10
6.170000000000023
 20
10.90166666666666
 30
0
 11
6.170000000000023
 21
10.96666666666666
 31
0
  0
LINE
  8
0
 62
7
  6
DASHED
 10
7.220000000000024
 20
10.96666666666666
 30
0
 11
7.220000000000024
 21
10.90166666666666
 31
0
  0
LINE
  8
0
 62
7
  6
DASHED
 10
7.220000000000024
 20
10.90166666666666
 30
0
 11
6.170000000000023
 21
10.90166666666666
 31
0
  0
LINE
  8
0
 62
7
 10
0.7949992500000008
 20
8.583333333333329
 30
0
 11
1.845000780000002
 21
8.583333333333329
 31
0
  0
LINE
  8
0
 62
7
 10
0.7949992500000008
 20
8.518333333333329
 30
0
 11
0.7949992500000008
 21
8.583333333333329
 31
0
  0
LINE
  8
0
 62
7
 10
1.845000780000002
 20
8.583333333333329
 30
0
 11
1.845000780000002
 21
8.518333333333329
 31
0
  0
LINE
  8
0
 62
7
 10
1.845000780000002
 20
8.518333333333329
 30
0
 11
0.7949992500000008
 21
8.518333333333329
 31
0
  0
LINE
  8
0
 62
7
 10
0.794999769999995
 20
8.766666673333331
 30
0
 11
1.845000629999995
 21
8.766666673333331
 31
0
  0
LINE
  8
0
 62
7
 10
0.794999769999995
 20
8.701666673333328
 30
0
 11
0.794999769999995
 21
8.766666673333331
 31
0
  0
LINE
  8
0
 62
7
 10
1.845000629999995
 20
8.766666673333331
 30
0
 11
1.845000629999995
 21
8.701666673333328
 31
0
  0
LINE
  8
0
 62
7
 10
1.845000629999995
 20
8.701666673333328
 30
0
 11
0.794999769999995
 21
8.701666673333328
 31
0
  0
LINE
  8
0
 62
7
 10
0.795000170000014
 20
8.95000001333333
 30
0
 11
1.845000629999995
 21
8.95000001333333
 31
0
  0
LINE
  8
0
 62
7
 10
0.795000170000014
 20
8.885000013333331
 30
0
 11
0.795000170000014
 21
8.95000001333333
 31
0
  0
LINE
  8
0
 62
7
 10
1.845000629999995
 20
8.95000001333333
 30
0
 11
1.845000629999995
 21
8.885000013333331
 31
0
  0
LINE
  8
0
 62
7
 10
1.845000629999995
 20
8.885000013333331
 30
0
 11
0.795000170000014
 21
8.885000013333331
 31
0
  0
LINE
  8
0
 62
7
 10
0.795
 20
9.133333333333331
 30
0
 11
1.845000470000014
 21
9.133333333333331
 31
0
  0
LINE
  8
0
 62
7
 10
0.795
 20
9.068333333333332
 30
0
 11
0.795
 21
9.133333333333331
 31
0
  0
LINE
  8
0
 62
7
 10
1.845000470000014
 20
9.133333333333331
 30
0
 11
1.845000470000014
 21
9.068333333333332
 31
0
  0
LINE
  8
0
 62
7
 10
1.845000470000014
 20
9.068333333333332
 30
0
 11
0.795
 21
9.068333333333332
 31
0
  0
LINE
  8
0
 62
7
 10
0.7949995999999957
 20
9.316666693333334
 30
0
 11
1.845000930000002
 21
9.316666693333334
 31
0
  0
LINE
  8
0
 62
7
 10
0.7949995999999957
 20
9.251666693333332
 30
0
 11
0.7949995999999957
 21
9.316666693333334
 31
0
  0
LINE
  8
0
 62
7
 10
1.845000930000002
 20
9.316666693333334
 30
0
 11
1.845000930000002
 21
9.251666693333332
 31
0
  0
LINE
  8
0
 62
7
 10
1.845000930000002
 20
9.251666693333332
 30
0
 11
0.7949995999999957
 21
9.251666693333332
 31
0
  0
LINE
  8
0
 62
7
 10
0.7950007000000042
 20
9.500000053333332
 30
0
 11
1.845000470000014
 21
9.500000053333332
 31
0
  0
LINE
  8
0
 62
7
 10
0.7950007000000042
 20
9.435000053333331
 30
0
 11
0.7950007000000042
 21
9.500000053333332
 31
0
  0
LINE
  8
0
 62
7
 10
1.845000470000014
 20
9.500000053333332
 30
0
 11
1.845000470000014
 21
9.435000053333331
 31
0
  0
LINE
  8
0
 62
7
 10
1.845000470000014
 20
9.435000053333331
 30
0
 11
0.7950007000000042
 21
9.435000053333331
 31
0
  0
LINE
  8
0
 62
7
 10
0.7950008400000008
 20
9.68333333333333
 30
0
 11
1.845000629999995
 21
9.68333333333333
 31
0
  0
LINE
  8
0
 62
7
 10
0.7950008400000008
 20
9.618333333333332
 30
0
 11
0.7950008400000008
 21
9.68333333333333
 31
0
  0
LINE
  8
0
 62
7
 10
1.845000629999995
 20
9.68333333333333
 30
0
 11
1.845000629999995
 21
9.618333333333332
 31
0
  0
LINE
  8
0
 62
7
 10
1.845000629999995
 20
9.618333333333332
 30
0
 11
0.7950008400000008
 21
9.618333333333332
 31
0
  0
LINE
  8
0
 62
7
 10
0.7950008000000089
 20
9.866666773333332
 30
0
 11
1.845000780000002
 21
9.866666773333332
 31
0
  0
LINE
  8
0
 62
7
 10
0.7950008000000089
 20
9.801666773333331
 30
0
 11
0.7950008000000089
 21
9.866666773333332
 31
0
  0
LINE
  8
0
 62
7
 10
1.845000780000002
 20
9.866666773333332
 30
0
 11
1.845000780000002
 21
9.801666773333331
 31
0
  0
LINE
  8
0
 62
7
 10
1.845000780000002
 20
9.801666773333331
 30
0
 11
0.7950008000000089
 21
9.801666773333331
 31
0
  0
LINE
  8
0
 62
7
 10
0.7950007800000022
 20
10.05000005333333
 30
0
 11
1.845000780000002
 21
10.05000005333333
 31
0
  0
LINE
  8
0
 62
7
 10
0.7950007800000022
 20
9.985000053333332
 30
0
 11
0.7950007800000022
 21
10.05000005333333
 31
0
  0
LINE
  8
0
 62
7
 10
1.845000780000002
 20
10.05000005333333
 30
0
 11
1.845000780000002
 21
9.985000053333332
 31
0
  0
LINE
  8
0
 62
7
 10
1.845000780000002
 20
9.985000053333332
 30
0
 11
0.7950007800000022
 21
9.985000053333332
 31
0
  0
LINE
  8
0
 62
7
 10
0.7950006299999951
 20
10.23333333333333
 30
0
 11
1.845001080000002
 21
10.23333333333333
 31
0
  0
LINE
  8
0
 62
7
 10
0.7950006299999951
 20
10.16833333333333
 30
0
 11
0.7950006299999951
 21
10.23333333333333
 31
0
  0
LINE
  8
0
 62
7
 10
1.845001080000002
 20
10.23333333333333
 30
0
 11
1.845001080000002
 21
10.16833333333333
 31
0
  0
LINE
  8
0
 62
7
 10
1.845001080000002
 20
10.16833333333333
 30
0
 11
0.7950006299999951
 21
10.16833333333333
 31
0
  0
LINE
  8
0
 62
7
 10
0.7950007800000022
 20
10.41666677333333
 30
0
 11
1.845000930000002
 21
10.41666677333333
 31
0
  0
LINE
  8
0
 62
7
 10
0.7950007800000022
 20
10.35166677333333
 30
0
 11
0.7950007800000022
 21
10.41666677333333
 31
0
  0
LINE
  8
0
 62
7
 10
1.845000930000002
 20
10.41666677333333
 30
0
 11
1.845000930000002
 21
10.35166677333333
 31
0
  0
LINE
  8
0
 62
7
 10
1.845000930000002
 20
10.35166677333333
 30
0
 11
0.7950007800000022
 21
10.35166677333333
 31
0
  0
LINE
  8
0
 62
7
 10
0.7950007399999959
 20
10.60000005333333
 30
0
 11
1.845000930000002
 21
10.60000005333333
 31
0
  0
LINE
  8
0
 62
7
 10
1.845000930000002
 20
10.53500005333333
 30
0
 11
0.7950007399999959
 21
10.53500005333333
 31
0
  0
LINE
  8
0
 62
7
 10
0.7950007399999959
 20
10.53500005333333
 30
0
 11
0.7950007399999959
 21
10.60000005333333
 31
0
  0
LINE
  8
0
 62
7
 10
1.845000930000002
 20
10.60000005333333
 30
0
 11
1.845000930000002
 21
10.53500005333333
 31
0
  0
LINE
  8
0
 62
7
 10
0.9080793900000135
 20
10.78333333333333
 30
0
 11
1.845000780000002
 21
10.78333333333333
 31
0
  0
LINE
  8
0
 62
7
 10
1.845000780000002
 20
10.71833333333333
 30
0
 11
0.9080793900000135
 21
10.71833333333333
 31
0
  0
LINE
  8
0
 62
7
 10
0.9080793900000135
 20
10.71833333333333
 30
0
 11
0.9080793900000135
 21
10.78333333333333
 31
0
  0
LINE
  8
0
 62
7
 10
1.845000780000002
 20
10.78333333333333
 30
0
 11
1.845000780000002
 21
10.71833333333333
 31
0
  0
LINE
  8
0
 62
7
 10
1.42951685
 20
10.96666677333333
 30
0
 11
1.870000780000002
 21
10.96666677333333
 31
0
  0
LINE
  8
0
 62
7
 10
1.870000780000002
 20
10.90166677333333
 30
0
 11
1.42951685
 21
10.90166677333333
 31
0
  0
LINE
  8
0
 62
7
 10
1.42951685
 20
10.90166677333333
 30
0
 11
1.42951685
 21
10.96666677333333
 31
0
  0
LINE
  8
0
 62
7
 10
1.870000780000002
 20
10.96666677333333
 30
0
 11
1.870000780000002
 21
10.90166677333333
 31
0
  0
LINE
  8
0
 62
7
 10
3.515
 20
8.099999999999998
 30
0
 11
7.275000000000023
 21
8.1
 31
0
  0
LINE
  8
0
 62
7
 10
3.515
 20
8.299999999999997
 30
0
 11
3.515
 21
8.099999999999998
 31
0
  0
LINE
  8
0
 62
7
 10
0.7400000000000001
 20
8.399999999999997
 30
0
 11
0.7400000000000001
 21
8.299999999999997
 31
0
  0
LINE
  8
0
 62
7
  6
DASHED
 10
1.9
 20
8.399999999999997
 30
0
 11
0.7400000000000001
 21
8.399999999999997
 31
0
  0
LINE
  8
0
 62
7
 10
3.415
 20
5.029999999999998
 30
0
 11
7.275000000000023
 21
5.029999999999998
 31
0
  0
LINE
  8
0
 62
7
 10
3.415
 20
4.79
 30
0
 11
7.450000000000023
 21
4.79
 31
0
  0
LINE
  8
0
 62
7
 10
3.415
 20
4.79
 30
0
 11
3.415
 21
5.029999999999998
 31
0
  0
LINE
  8
0
 62
7
 10
3.415
 20
4.750000000000003
 30
0
 11
7.450000000000023
 21
4.75
 31
0
  0
LINE
  8
0
 62
7
 10
3.415
 20
4.510000000000001
 30
0
 11
3.515
 21
4.510000000000001
 31
0
  0
LINE
  8
0
 62
7
 10
3.415
 20
4.510000000000001
 30
0
 11
3.415
 21
4.750000000000003
 31
0
  0
LINE
  8
0
 62
7
  6
DASHDOT
 10
3.515
 20
3.400000000000001
 30
0
 11
3.515
 21
4.510000000000001
 31
0
  0
LINE
  8
0
 62
7
 10
7.275000000000023
 20
3.400000000000001
 30
0
 11
7.275000000000023
 21
3.350000000000001
 31
0
  0
LINE
  8
0
 62
7
 10
7.275000000000023
 20
3.400000000000001
 30
0
 11
3.515
 21
3.400000000000001
 31
0
  0
LINE
  8
0
 62
7
 10
3.375
 20
11.04999999999999
 30
0
 11
3.515
 21
11.04999999999999
 31
0
  0
LINE
  8
0
 62
7
 10
3.375
 20
11.04999999999999
 30
0
 11
3.515
 21
11.04999999999999
 31
0
  0
LINE
  8
0
 62
7
 10
3.375
 20
8.099999999999998
 30
0
 11
3.515
 21
8.099999999999998
 31
0
  0
LINE
  8
0
 62
7
 10
3.515
 20
8.299999999999997
 30
0
 11
7.275000000000023
 21
8.299999999999997
 31
0
  0
LINE
  8
0
 62
7
 10
3.515
 20
10.84999999999999
 30
0
 11
7.275000000000023
 21
10.84999999999999
 31
0
  0
LINE
  8
0
 62
7
 10
3.515
 20
11.04999999999999
 30
0
 11
7.275000000000023
 21
11.04999999999999
 31
0
  0
LINE
  8
0
 62
7
 10
7.275000000000023
 20
7.949999999999999
 30
0
 11
7.275000000000023
 21
8.1
 31
0
  0
LINE
  8
0
 62
7
 10
7.275000000000023
 20
8.1
 30
0
 11
7.450000000000023
 21
8.1
 31
0
  0
LINE
  8
0
 62
7
 10
7.275000000000023
 20
8.299999999999997
 30
0
 11
7.450000000000023
 21
8.299999999999997
 31
0
  0
LINE
  8
0
 62
7
 10
7.275000000000023
 20
10.84999999999999
 30
0
 11
7.450000000000023
 21
10.84999999999999
 31
0
  0
LINE
  8
0
 62
7
 10
7.275000000000023
 20
11.04999999999999
 30
0
 11
7.450000000000023
 21
11.04999999999999
 31
0
  0
LINE
  8
0
 62
7
 10
7.450000000000023
 20
7.949999999999999
 30
0
 11
7.450000000000023
 21
8.1
 31
0
  0
LINE
  8
0
 62
7
 10
7.450000000000023
 20
8.1
 30
0
 11
7.600000000000023
 21
8.099999999999998
 31
0
  0
LINE
  8
0
 62
7
 10
7.450000000000023
 20
8.299999999999997
 30
0
 11
7.450000000000023
 21
8.399999999999997
 31
0
  0
LINE
  8
0
 62
7
 10
7.450000000000023
 20
8.299999999999997
 30
0
 11
7.600000000000023
 21
8.299999999999997
 31
0
  0
LINE
  8
0
 62
7
 10
7.450000000000023
 20
10.84999999999999
 30
0
 11
7.600000000000023
 21
10.84999999999999
 31
0
  0
LINE
  8
0
 62
7
 10
7.450000000000023
 20
11.04999999999999
 30
0
 11
7.450000000000023
 21
11.14999999999999
 31
0
  0
LINE
  8
0
 62
7
 10
7.450000000000023
 20
11.04999999999999
 30
0
 11
7.600000000000023
 21
11.04999999999999
 31
0
  0
LINE
  8
0
 62
7
  6
DASHDOT
 10
3.375
 20
8.049999999999997
 30
0
 11
3.375
 21
8.099999999999998
 31
0
  0
LINE
  8
0
 62
7
  6
DASHDOT
 10
3.375
 20
10.79999999999999
 30
0
 11
3.375
 21
10.84999999999999
 31
0
  0
LINE
  8
0
 62
7
  6
DASHDOT
 10
7.600000000000023
 20
8.049999999999997
 30
0
 11
7.600000000000023
 21
8.099999999999998
 31
0
  0
LINE
  8
0
 62
7
  6
DASHDOT
 10
7.600000000000023
 20
10.79999999999999
 30
0
 11
7.600000000000023
 21
10.84999999999999
 31
0
  0
LINE
  8
0
 62
7
  6
DASHDOT
 10
7.225000000000023
 20
11.19999999999999
 30
0
 11
7.275000000000023
 21
11.19999999999999
 31
0
  0
LINE
  8
0
 62
7
  6
DASHDOT
 10
7.225000000000023
 20
7.949999999999999
 30
0
 11
7.275000000000023
 21
7.949999999999999
 31
0
  0
LINE
  8
0
 62
7
  6
DASHDOT
 10
3.375
 20
8.399999999999997
 30
0
 11
3.375
 21
8.449999999999998
 31
0
  0
LINE
  8
0
 62
7
 10
7.275000000000023
 20
8.399999999999997
 30
0
 11
7.275000000000023
 21
10.84999999999999
 31
0
  0
LINE
  8
0
 62
7
 10
7.450000000000023
 20
8.399999999999997
 30
0
 11
7.600000000000023
 21
8.399999999999997
 31
0
  0
LINE
  8
0
 62
7
 10
7.450000000000023
 20
8.399999999999997
 30
0
 11
7.450000000000023
 21
10.84999999999999
 31
0
  0
LINE
  8
0
 62
7
  6
DASHDOT
 10
7.600000000000023
 20
8.399999999999997
 30
0
 11
7.600000000000023
 21
8.449999999999998
 31
0
  0
LINE
  8
0
 62
7
  6
DASHDOT
 10
3.375
 20
11.14999999999999
 30
0
 11
3.375
 21
11.19999999999999
 31
0
  0
LINE
  8
0
 62
7
 10
7.275000000000023
 20
11.14999999999999
 30
0
 11
7.275000000000023
 21
11.19999999999999
 31
0
  0
LINE
  8
0
 62
7
 10
7.450000000000023
 20
11.14999999999999
 30
0
 11
7.600000000000023
 21
11.14999999999999
 31
0
  0
LINE
  8
0
 62
7
 10
7.450000000000023
 20
11.14999999999999
 30
0
 11
7.450000000000023
 21
11.19999999999999
 31
0
  0
LINE
  8
0
 62
7
  6
DASHDOT
 10
7.600000000000023
 20
11.14999999999999
 30
0
 11
7.600000000000023
 21
11.19999999999999
 31
0
  0
LINE
  8
0
 62
7
  6
DASHDOT
 10
7.600000000000023
 20
8.099999999999998
 30
0
 11
7.600000000000023
 21
8.299999999999997
 31
0
  0
LINE
  8
0
 62
7
  6
DASHDOT
 10
7.600000000000023
 20
8.299999999999997
 30
0
 11
7.600000000000023
 21
8.399999999999997
 31
0
  0
LINE
  8
0
 62
7
  6
DASHDOT
 10
7.275000000000023
 20
7.949999999999999
 30
0
 11
7.450000000000023
 21
7.949999999999999
 31
0
  0
LINE
  8
0
 62
7
  6
DASHDOT
 10
7.450000000000023
 20
7.949999999999999
 30
0
 11
7.500000000000023
 21
7.949999999999999
 31
0
  0
LINE
  8
0
 62
7
  6
DASHDOT
 10
3.375
 20
8.099999999999998
 30
0
 11
3.375
 21
8.299999999999997
 31
0
  0
LINE
  8
0
 62
7
  6
DASHDOT
 10
3.375
 20
8.299999999999997
 30
0
 11
3.375
 21
8.399999999999997
 31
0
  0
LINE
  8
0
 62
7
  6
DASHDOT
 10
3.375
 20
10.84999999999999
 30
0
 11
3.375
 21
11.04999999999999
 31
0
  0
LINE
  8
0
 62
7
  6
DASHDOT
 10
3.375
 20
11.04999999999999
 30
0
 11
3.375
 21
11.14999999999999
 31
0
  0
LINE
  8
0
 62
7
  6
DASHDOT
 10
7.600000000000023
 20
10.84999999999999
 30
0
 11
7.600000000000023
 21
11.04999999999999
 31
0
  0
LINE
  8
0
 62
7
  6
DASHDOT
 10
7.600000000000023
 20
11.04999999999999
 30
0
 11
7.600000000000023
 21
11.14999999999999
 31
0
  0
LINE
  8
0
 62
7
  6
DASHDOT
 10
7.275000000000023
 20
11.19999999999999
 30
0
 11
7.450000000000023
 21
11.19999999999999
 31
0
  0
LINE
  8
0
 62
7
  6
DASHDOT
 10
7.450000000000023
 20
11.19999999999999
 30
0
 11
7.500000000000023
 21
11.19999999999999
 31
0
  0
LINE
  8
0
 62
7
 10
0.5
 20
7.949999999999999
 30
0
 11
0.5
 21
8.1
 31
0
  0
LINE
  8
0
 62
7
 10
0.7400000000000001
 20
11.19999999999999
 30
0
 11
0.7400000000000001
 21
11.14999999999999
 31
0
  0
LINE
  8
0
 62
7
 10
0.5
 20
11.04999999999999
 30
0
 11
0.7400000000000001
 21
11.04999999999999
 31
0
  0
LINE
  8
0
 62
7
 10
0.5
 20
11.04999999999999
 30
0
 11
0.5
 21
11.19999999999999
 31
0
  0
LINE
  8
0
 62
7
 10
0.7400000000000001
 20
11.04999999999999
 30
0
 11
0.7400000000000001
 21
10.84999999999999
 31
0
  0
LINE
  8
0
 62
7
 10
0.5
 20
10.84999999999999
 30
0
 11
0.7400000000000001
 21
10.84999999999999
 31
0
  0
LINE
  8
0
 62
7
 10
0.5
 20
10.84999999999999
 30
0
 11
0.5
 21
11.04999999999999
 31
0
  0
LINE
  8
0
 62
7
 10
0.7400000000000001
 20
10.84999999999999
 30
0
 11
0.7400000000000001
 21
8.399999999999997
 31
0
  0
LINE
  8
0
 62
7
 10
0.5
 20
8.299999999999997
 30
0
 11
0.7400000000000001
 21
8.299999999999997
 31
0
  0
LINE
  8
0
 62
7
 10
0.5
 20
8.299999999999997
 30
0
 11
0.5
 21
10.84999999999999
 31
0
  0
LINE
  8
0
 62
7
 10
0.7400000000000001
 20
8.299999999999997
 30
0
 11
0.7400000000000001
 21
8.1
 31
0
  0
LINE
  8
0
 62
7
 10
0.5
 20
8.1
 30
0
 11
0.7400000000000001
 21
8.1
 31
0
  0
LINE
  8
0
 62
7
 10
0.5
 20
8.1
 30
0
 11
0.5
 21
8.299999999999997
 31
0
  0
LINE
  8
0
 62
7
 10
0.7400000000000001
 20
8.1
 30
0
 11
0.7400000000000001
 21
7.949999999999999
 31
0
  0
LINE
  8
0
 62
7
 10
1.9
 20
11.04999999999999
 30
0
 11
1.9
 21
10.84999999999999
 31
0
  0
LINE
  8
0
 62
7
 10
1.9
 20
10.84999999999999
 30
0
 11
2.2
 21
10.84999999999999
 31
0
  0
LINE
  8
0
 62
7
 10
1.9
 20
11.04999999999999
 30
0
 11
2.2
 21
11.04999999999999
 31
0
  0
LINE
  8
0
 62
7
 10
1.9
 20
8.299999999999997
 30
0
 11
2.2
 21
8.299999999999997
 31
0
  0
LINE
  8
0
 62
7
 10
1.9
 20
8.299999999999997
 30
0
 11
1.9
 21
8.099999999999998
 31
0
  0
LINE
  8
0
 62
7
 10
1.9
 20
8.099999999999998
 30
0
 11
2.2
 21
8.099999999999998
 31
0
  0
LINE
  8
0
 62
7
  6
DASHDOT
 10
0.45
 20
11.19999999999999
 30
0
 11
0.5
 21
11.19999999999999
 31
0
  0
LINE
  8
0
 62
7
  6
DASHDOT
 10
2.2
 20
11.19999999999999
 30
0
 11
2.2
 21
11.14999999999999
 31
0
  0
LINE
  8
0
 62
7
  6
DASHDOT
 10
2.2
 20
8.049999999999997
 30
0
 11
2.2
 21
8.099999999999998
 31
0
  0
LINE
  8
0
 62
7
  6
DASHDOT
 10
0.45
 20
7.949999999999999
 30
0
 11
0.5
 21
7.949999999999999
 31
0
  0
LINE
  8
0
 62
7
 10
1.9
 20
8.399999999999997
 30
0
 11
2.2
 21
8.399999999999997
 31
0
  0
LINE
  8
0
 62
7
  6
DASHDOT
 10
2.2
 20
8.399999999999997
 30
0
 11
2.2
 21
8.449999999999998
 31
0
  0
LINE
  8
0
 62
7
 10
1.9
 20
11.14999999999999
 30
0
 11
2.2
 21
11.14999999999999
 31
0
  0
LINE
  8
0
 62
7
  6
DASHDOT
 10
2.2
 20
11.14999999999999
 30
0
 11
2.2
 21
11.04999999999999
 31
0
  0
LINE
  8
0
 62
7
  6
DASHDOT
 10
2.2
 20
8.299999999999997
 30
0
 11
2.2
 21
8.399999999999997
 31
0
  0
LINE
  8
0
 62
7
  6
DASHDOT
 10
2.2
 20
8.099999999999998
 30
0
 11
2.2
 21
8.299999999999997
 31
0
  0
LINE
  8
0
 62
7
  6
DASHDOT
 10
0.5
 20
7.949999999999999
 30
0
 11
0.7400000000000001
 21
7.949999999999999
 31
0
  0
LINE
  8
0
 62
7
  6
DASHDOT
 10
0.7400000000000001
 20
7.949999999999999
 30
0
 11
0.79
 21
7.949999999999999
 31
0
  0
LINE
  8
0
 62
7
  6
DASHDOT
 10
0.7400000000000001
 20
11.19999999999999
 30
0
 11
0.79
 21
11.19999999999999
 31
0
  0
LINE
  8
0
 62
7
  6
DASHDOT
 10
0.5
 20
11.19999999999999
 30
0
 11
0.7400000000000001
 21
11.19999999999999
 31
0
  0
LINE
  8
0
 62
7
  6
DASHDOT
 10
2.2
 20
10.84999999999999
 30
0
 11
2.2
 21
10.79999999999999
 31
0
  0
LINE
  8
0
 62
7
  6
DASHDOT
 10
2.2
 20
11.04999999999999
 30
0
 11
2.2
 21
10.84999999999999
 31
0
  0
LINE
  8
0
 62
7
  6
DASHED
 10
0.7400000000000001
 20
11.04999999999999
 30
0
 11
1.9
 21
11.04999999999999
 31
0
  0
LINE
  8
0
 62
7
  6
DASHED
 10
0.7400000000000001
 20
10.84999999999999
 30
0
 11
1.9
 21
10.84999999999999
 31
0
  0
LINE
  8
0
 62
7
  6
DASHED
 10
0.7400000000000001
 20
8.299999999999997
 30
0
 11
1.9
 21
8.299999999999997
 31
0
  0
LINE
  8
0
 62
7
  6
DASHED
 10
0.7400000000000001
 20
8.1
 30
0
 11
1.9
 21
8.099999999999998
 31
0
  0
LINE
  8
0
 62
7
 10
7.275000000000023
 20
5.029999999999998
 30
0
 11
7.275000000000023
 21
5.179999999999996
 31
0
  0
LINE
  8
0
 62
7
 10
7.275000000000023
 20
3.350000000000001
 30
0
 11
7.450000000000023
 21
3.350000000000001
 31
0
  0
LINE
  8
0
 62
7
 10
7.450000000000023
 20
3.350000000000001
 30
0
 11
7.450000000000023
 21
4.75
 31
0
  0
LINE
  8
0
 62
7
 10
3.515
 20
4.510000000000001
 30
0
 11
7.275000000000023
 21
4.510000000000001
 31
0
  0
LINE
  8
0
 62
7
  6
DASHDOT
 10
3.515
 20
3.350000000000001
 30
0
 11
3.515
 21
3.400000000000001
 31
0
  0
LINE
  8
0
 62
7
  6
DASHDOT
 10
7.275000000000023
 20
3.350000000000001
 30
0
 11
3.515
 21
3.350000000000001
 31
0
  0
LINE
  8
0
 62
7
 10
7.275000000000023
 20
4.510000000000001
 30
0
 11
7.275000000000023
 21
3.400000000000001
 31
0
  0
LINE
  8
0
 62
7
  6
DASHDOT
 10
7.450000000000023
 20
5.179999999999996
 30
0
 11
7.500000000000023
 21
5.179999999999996
 31
0
  0
LINE
  8
0
 62
7
  6
DASHDOT
 10
7.275000000000023
 20
5.179999999999996
 30
0
 11
7.450000000000023
 21
5.179999999999996
 31
0
  0
LINE
  8
0
 62
7
  6
DASHDOT
 10
7.225000000000023
 20
5.179999999999996
 30
0
 11
7.275000000000023
 21
5.179999999999996
 31
0
  0
LINE
  8
0
 62
7
 10
7.450000000000023
 20
4.79
 30
0
 11
7.450000000000023
 21
5.179999999999996
 31
0
  0
LINE
  8
0
 62
7
 10
3.375
 20
8.399999999999997
 30
0
 11
7.275000000000023
 21
8.399999999999997
 31
0
  0
LINE
  8
0
 62
7
 10
7.275000000000023
 20
8.299999999999997
 30
0
 11
7.275000000000023
 21
8.399999999999997
 31
0
  0
LINE
  8
0
 62
7
 10
3.375
 20
8.299999999999997
 30
0
 11
3.515
 21
8.299999999999997
 31
0
  0
LINE
  8
0
 62
7
 10
7.275000000000023
 20
11.14999999999999
 30
0
 11
3.375
 21
11.14999999999999
 31
0
  0
LINE
  8
0
 62
7
 10
7.275000000000023
 20
11.04999999999999
 30
0
 11
7.275000000000023
 21
11.14999999999999
 31
0
  0
LINE
  8
0
 62
7
 10
3.515
 20
10.84999999999999
 30
0
 11
3.515
 21
11.04999999999999
 31
0
  0
LINE
  8
0
 62
7
 10
3.375
 20
10.84999999999999
 30
0
 11
3.515
 21
10.84999999999999
 31
0
  0
LINE
  8
0
 62
7
  6
DASHED
 10
1.9
 20
11.14999999999999
 30
0
 11
0.7400000000000001
 21
11.14999999999999
 31
0
  0
LINE
  8
0
 62
7
 10
0.7400000000000001
 20
11.14999999999999
 30
0
 11
0.7400000000000001
 21
11.04999999999999
 31
0
  0
LINE
  8
0
 62
7
 10
4.519482241100321
 20
4.16832578209277
 30
0
 11
4.519482241100321
 21
4.28832578209277
 31
0
  0
LINE
  8
0
 62
7
 10
4.595082241100321
 20
4.28832578209277
 30
0
 11
4.541082241100321
 21
4.22832578209277
 31
0
  0
LINE
  8
0
 62
7
 10
4.541082241100321
 20
4.22832578209277
 30
0
 11
4.595082241100321
 21
4.16832578209277
 31
0
  0
LINE
  8
0
 62
7
 10
4.541082241100321
 20
4.22832578209277
 30
0
 11
4.519482241100321
 21
4.20432578209277
 31
0
  0
LINE
  8
0
 62
7
 10
4.703082241100321
 20
4.28832578209277
 30
0
 11
4.627482241100321
 21
4.28832578209277
 31
0
  0
LINE
  8
0
 62
7
 10
4.627482241100321
 20
4.28832578209277
 30
0
 11
4.627482241100321
 21
4.22832578209277
 31
0
  0
LINE
  8
0
 62
7
 10
4.627482241100321
 20
4.16832578209277
 30
0
 11
4.703082241100321
 21
4.16832578209277
 31
0
  0
LINE
  8
0
 62
7
 10
4.692282241100322
 20
4.22832578209277
 30
0
 11
4.627482241100321
 21
4.22832578209277
 31
0
  0
LINE
  8
0
 62
7
 10
4.627482241100321
 20
4.22832578209277
 30
0
 11
4.627482241100321
 21
4.16832578209277
 31
0
  0
LINE
  8
0
 62
7
 10
4.73548224110032
 20
4.16832578209277
 30
0
 11
4.73548224110032
 21
4.28832578209277
 31
0
  0
LINE
  8
0
 62
7
 10
4.73548224110032
 20
4.28832578209277
 30
0
 11
4.811082241100322
 21
4.16832578209277
 31
0
  0
LINE
  8
0
 62
7
 10
4.811082241100322
 20
4.16832578209277
 30
0
 11
4.811082241100322
 21
4.28832578209277
 31
0
  0
LINE
  8
0
 62
7
 10
4.843482241100322
 20
4.16832578209277
 30
0
 11
4.843482241100322
 21
4.28832578209277
 31
0
  0
LINE
  8
0
 62
7
 10
4.843482241100322
 20
4.28832578209277
 30
0
 11
4.919082241100321
 21
4.16832578209277
 31
0
  0
LINE
  8
0
 62
7
 10
4.919082241100321
 20
4.16832578209277
 30
0
 11
4.919082241100321
 21
4.28832578209277
 31
0
  0
LINE
  8
0
 62
7
 10
5.027082241100321
 20
4.252325782092771
 30
0
 11
5.02438224110032
 21
4.26432578209277
 31
0
  0
LINE
  8
0
 62
7
 10
5.02438224110032
 20
4.26432578209277
 30
0
 11
5.018982241100321
 21
4.273325782092771
 31
0
  0
LINE
  8
0
 62
7
 10
5.018982241100321
 20
4.273325782092771
 30
0
 11
5.013582241100321
 21
4.27932578209277
 31
0
  0
LINE
  8
0
 62
7
 10
5.013582241100321
 20
4.27932578209277
 30
0
 11
5.005482241100321
 21
4.285325782092771
 31
0
  0
LINE
  8
0
 62
7
 10
5.005482241100321
 20
4.285325782092771
 30
0
 11
4.997382241100321
 21
4.28832578209277
 31
0
  0
LINE
  8
0
 62
7
 10
4.997382241100321
 20
4.28832578209277
 30
0
 11
4.981182241100321
 21
4.28832578209277
 31
0
  0
LINE
  8
0
 62
7
 10
4.981182241100321
 20
4.28832578209277
 30
0
 11
4.973082241100322
 21
4.285325782092771
 31
0
  0
LINE
  8
0
 62
7
 10
4.973082241100322
 20
4.285325782092771
 30
0
 11
4.964982241100321
 21
4.27932578209277
 31
0
  0
LINE
  8
0
 62
7
 10
4.964982241100321
 20
4.27932578209277
 30
0
 11
4.959582241100321
 21
4.273325782092771
 31
0
  0
LINE
  8
0
 62
7
 10
4.959582241100321
 20
4.273325782092771
 30
0
 11
4.95418224110032
 21
4.26432578209277
 31
0
  0
LINE
  8
0
 62
7
 10
4.95418224110032
 20
4.26432578209277
 30
0
 11
4.951482241100322
 21
4.252325782092771
 31
0
  0
LINE
  8
0
 62
7
 10
4.951482241100322
 20
4.252325782092771
 30
0
 11
4.951482241100322
 21
4.20432578209277
 31
0
  0
LINE
  8
0
 62
7
 10
4.951482241100322
 20
4.20432578209277
 30
0
 11
4.95418224110032
 21
4.192325782092771
 31
0
  0
LINE
  8
0
 62
7
 10
4.95418224110032
 20
4.192325782092771
 30
0
 11
4.959582241100321
 21
4.183325782092771
 31
0
  0
LINE
  8
0
 62
7
 10
4.959582241100321
 20
4.183325782092771
 30
0
 11
4.964982241100321
 21
4.177325782092772
 31
0
  0
LINE
  8
0
 62
7
 10
4.964982241100321
 20
4.177325782092772
 30
0
 11
4.973082241100322
 21
4.17132578209277
 31
0
  0
LINE
  8
0
 62
7
 10
4.973082241100322
 20
4.17132578209277
 30
0
 11
4.981182241100321
 21
4.16832578209277
 31
0
  0
LINE
  8
0
 62
7
 10
4.981182241100321
 20
4.16832578209277
 30
0
 11
4.997382241100321
 21
4.16832578209277
 31
0
  0
LINE
  8
0
 62
7
 10
4.997382241100321
 20
4.16832578209277
 30
0
 11
5.005482241100321
 21
4.17132578209277
 31
0
  0
LINE
  8
0
 62
7
 10
5.005482241100321
 20
4.17132578209277
 30
0
 11
5.013582241100321
 21
4.177325782092772
 31
0
  0
LINE
  8
0
 62
7
 10
5.013582241100321
 20
4.177325782092772
 30
0
 11
5.018982241100321
 21
4.183325782092771
 31
0
  0
LINE
  8
0
 62
7
 10
5.018982241100321
 20
4.183325782092771
 30
0
 11
5.02438224110032
 21
4.192325782092771
 31
0
  0
LINE
  8
0
 62
7
 10
5.02438224110032
 20
4.192325782092771
 30
0
 11
5.027082241100321
 21
4.20432578209277
 31
0
  0
LINE
  8
0
 62
7
 10
5.027082241100321
 20
4.20432578209277
 30
0
 11
5.027082241100321
 21
4.22832578209277
 31
0
  0
LINE
  8
0
 62
7
 10
5.027082241100321
 20
4.22832578209277
 30
0
 11
4.994682241100321
 21
4.22832578209277
 31
0
  0
LINE
  8
0
 62
7
 10
5.105382241100321
 20
4.28832578209277
 30
0
 11
5.08918224110032
 21
4.28832578209277
 31
0
  0
LINE
  8
0
 62
7
 10
5.08918224110032
 20
4.28832578209277
 30
0
 11
5.081082241100321
 21
4.285325782092771
 31
0
  0
LINE
  8
0
 62
7
 10
5.081082241100321
 20
4.285325782092771
 30
0
 11
5.072982241100321
 21
4.27932578209277
 31
0
  0
LINE
  8
0
 62
7
 10
5.072982241100321
 20
4.27932578209277
 30
0
 11
5.067582241100322
 21
4.273325782092771
 31
0
  0
LINE
  8
0
 62
7
 10
5.067582241100322
 20
4.273325782092771
 30
0
 11
5.062182241100322
 21
4.26432578209277
 31
0
  0
LINE
  8
0
 62
7
 10
5.062182241100322
 20
4.26432578209277
 30
0
 11
5.059482241100321
 21
4.252325782092771
 31
0
  0
LINE
  8
0
 62
7
 10
5.059482241100321
 20
4.252325782092771
 30
0
 11
5.059482241100321
 21
4.20432578209277
 31
0
  0
LINE
  8
0
 62
7
 10
5.059482241100321
 20
4.20432578209277
 30
0
 11
5.062182241100322
 21
4.192325782092771
 31
0
  0
LINE
  8
0
 62
7
 10
5.062182241100322
 20
4.192325782092771
 30
0
 11
5.067582241100322
 21
4.183325782092771
 31
0
  0
LINE
  8
0
 62
7
 10
5.067582241100322
 20
4.183325782092771
 30
0
 11
5.072982241100321
 21
4.177325782092772
 31
0
  0
LINE
  8
0
 62
7
 10
5.072982241100321
 20
4.177325782092772
 30
0
 11
5.081082241100321
 21
4.17132578209277
 31
0
  0
LINE
  8
0
 62
7
 10
5.081082241100321
 20
4.17132578209277
 30
0
 11
5.08918224110032
 21
4.16832578209277
 31
0
  0
LINE
  8
0
 62
7
 10
5.08918224110032
 20
4.16832578209277
 30
0
 11
5.105382241100321
 21
4.16832578209277
 31
0
  0
LINE
  8
0
 62
7
 10
5.105382241100321
 20
4.16832578209277
 30
0
 11
5.113482241100321
 21
4.17132578209277
 31
0
  0
LINE
  8
0
 62
7
 10
5.113482241100321
 20
4.17132578209277
 30
0
 11
5.121582241100322
 21
4.177325782092772
 31
0
  0
LINE
  8
0
 62
7
 10
5.121582241100322
 20
4.177325782092772
 30
0
 11
5.126982241100322
 21
4.183325782092771
 31
0
  0
LINE
  8
0
 62
7
 10
5.126982241100322
 20
4.183325782092771
 30
0
 11
5.132382241100322
 21
4.192325782092771
 31
0
  0
LINE
  8
0
 62
7
 10
5.132382241100322
 20
4.192325782092771
 30
0
 11
5.135082241100321
 21
4.20432578209277
 31
0
  0
LINE
  8
0
 62
7
 10
5.135082241100321
 20
4.20432578209277
 30
0
 11
5.135082241100321
 21
4.252325782092771
 31
0
  0
LINE
  8
0
 62
7
 10
5.135082241100321
 20
4.252325782092771
 30
0
 11
5.132382241100322
 21
4.26432578209277
 31
0
  0
LINE
  8
0
 62
7
 10
5.132382241100322
 20
4.26432578209277
 30
0
 11
5.126982241100322
 21
4.273325782092771
 31
0
  0
LINE
  8
0
 62
7
 10
5.126982241100322
 20
4.273325782092771
 30
0
 11
5.121582241100322
 21
4.27932578209277
 31
0
  0
LINE
  8
0
 62
7
 10
5.121582241100322
 20
4.27932578209277
 30
0
 11
5.113482241100321
 21
4.285325782092771
 31
0
  0
LINE
  8
0
 62
7
 10
5.113482241100321
 20
4.285325782092771
 30
0
 11
5.105382241100321
 21
4.28832578209277
 31
0
  0
LINE
  8
0
 62
7
 10
5.156682241100321
 20
4.28832578209277
 30
0
 11
5.194482241100322
 21
4.28832578209277
 31
0
  0
LINE
  8
0
 62
7
 10
5.194482241100322
 20
4.28832578209277
 30
0
 11
5.194482241100322
 21
4.16832578209277
 31
0
  0
LINE
  8
0
 62
7
 10
5.194482241100322
 20
4.28832578209277
 30
0
 11
5.232282241100322
 21
4.28832578209277
 31
0
  0
LINE
  8
0
 62
7
 10
5.264682241100322
 20
4.28832578209277
 30
0
 11
5.302482241100321
 21
4.28832578209277
 31
0
  0
LINE
  8
0
 62
7
 10
5.302482241100321
 20
4.28832578209277
 30
0
 11
5.302482241100321
 21
4.16832578209277
 31
0
  0
LINE
  8
0
 62
7
 10
5.302482241100321
 20
4.28832578209277
 30
0
 11
5.340282241100321
 21
4.28832578209277
 31
0
  0
LINE
  8
0
 62
7
 10
5.459082241100321
 20
4.210325782092771
 30
0
 11
5.513082241100321
 21
4.210325782092771
 31
0
  0
LINE
  8
0
 62
7
 10
5.621082241100321
 20
4.28832578209277
 30
0
 11
5.658882241100321
 21
4.28832578209277
 31
0
  0
LINE
  8
0
 62
7
 10
5.658882241100321
 20
4.28832578209277
 30
0
 11
5.658882241100321
 21
4.16832578209277
 31
0
  0
LINE
  8
0
 62
7
 10
5.658882241100321
 20
4.28832578209277
 30
0
 11
5.696682241100321
 21
4.28832578209277
 31
0
  0
LINE
  8
0
 62
7
 10
5.729082241100322
 20
4.16832578209277
 30
0
 11
5.729082241100322
 21
4.28832578209277
 31
0
  0
LINE
  8
0
 62
7
 10
5.729082241100322
 20
4.28832578209277
 30
0
 11
5.780382241100321
 21
4.28832578209277
 31
0
  0
LINE
  8
0
 62
7
 10
5.780382241100321
 20
4.28832578209277
 30
0
 11
5.791182241100322
 21
4.285325782092771
 31
0
  0
LINE
  8
0
 62
7
 10
5.791182241100322
 20
4.285325782092771
 30
0
 11
5.799282241100321
 21
4.27932578209277
 31
0
  0
LINE
  8
0
 62
7
 10
5.799282241100321
 20
4.27932578209277
 30
0
 11
5.801982241100321
 21
4.273325782092771
 31
0
  0
LINE
  8
0
 62
7
 10
5.801982241100321
 20
4.273325782092771
 30
0
 11
5.804682241100322
 21
4.26432578209277
 31
0
  0
LINE
  8
0
 62
7
 10
5.804682241100322
 20
4.26432578209277
 30
0
 11
5.804682241100322
 21
4.252325782092771
 31
0
  0
LINE
  8
0
 62
7
 10
5.804682241100322
 20
4.252325782092771
 30
0
 11
5.801982241100321
 21
4.243325782092771
 31
0
  0
LINE
  8
0
 62
7
 10
5.801982241100321
 20
4.243325782092771
 30
0
 11
5.799282241100321
 21
4.237325782092771
 31
0
  0
LINE
  8
0
 62
7
 10
5.799282241100321
 20
4.237325782092771
 30
0
 11
5.791182241100322
 21
4.23132578209277
 31
0
  0
LINE
  8
0
 62
7
 10
5.791182241100322
 20
4.23132578209277
 30
0
 11
5.780382241100321
 21
4.22832578209277
 31
0
  0
LINE
  8
0
 62
7
 10
5.780382241100321
 20
4.22832578209277
 30
0
 11
5.772282241100321
 21
4.22832578209277
 31
0
  0
LINE
  8
0
 62
7
 10
5.772282241100321
 20
4.22832578209277
 30
0
 11
5.804682241100322
 21
4.16832578209277
 31
0
  0
LINE
  8
0
 62
7
 10
5.772282241100321
 20
4.22832578209277
 30
0
 11
5.729082241100322
 21
4.22832578209277
 31
0
  0
LINE
  8
0
 62
7
 10
5.901882241100321
 20
4.28832578209277
 30
0
 11
5.82628224110032
 21
4.28832578209277
 31
0
  0
LINE
  8
0
 62
7
 10
5.82628224110032
 20
4.28832578209277
 30
0
 11
5.82628224110032
 21
4.22832578209277
 31
0
  0
LINE
  8
0
 62
7
 10
5.82628224110032
 20
4.16832578209277
 30
0
 11
5.901882241100321
 21
4.16832578209277
 31
0
  0
LINE
  8
0
 62
7
 10
5.891082241100321
 20
4.22832578209277
 30
0
 11
5.82628224110032
 21
4.22832578209277
 31
0
  0
LINE
  8
0
 62
7
 10
5.82628224110032
 20
4.22832578209277
 30
0
 11
5.82628224110032
 21
4.16832578209277
 31
0
  0
LINE
  8
0
 62
7
 10
5.93428224110032
 20
4.16832578209277
 30
0
 11
5.93428224110032
 21
4.22832578209277
 31
0
  0
LINE
  8
0
 62
7
 10
5.93428224110032
 20
4.28832578209277
 30
0
 11
5.985582241100321
 21
4.28832578209277
 31
0
  0
LINE
  8
0
 62
7
 10
5.985582241100321
 20
4.28832578209277
 30
0
 11
5.996382241100321
 21
4.285325782092771
 31
0
  0
LINE
  8
0
 62
7
 10
5.996382241100321
 20
4.285325782092771
 30
0
 11
6.004482241100321
 21
4.27932578209277
 31
0
  0
LINE
  8
0
 62
7
 10
6.004482241100321
 20
4.27932578209277
 30
0
 11
6.00718224110032
 21
4.273325782092771
 31
0
  0
LINE
  8
0
 62
7
 10
6.00718224110032
 20
4.273325782092771
 30
0
 11
6.009882241100321
 21
4.26432578209277
 31
0
  0
LINE
  8
0
 62
7
 10
6.009882241100321
 20
4.26432578209277
 30
0
 11
6.009882241100321
 21
4.252325782092771
 31
0
  0
LINE
  8
0
 62
7
 10
6.009882241100321
 20
4.252325782092771
 30
0
 11
6.00718224110032
 21
4.243325782092771
 31
0
  0
LINE
  8
0
 62
7
 10
6.00718224110032
 20
4.243325782092771
 30
0
 11
6.004482241100321
 21
4.237325782092771
 31
0
  0
LINE
  8
0
 62
7
 10
6.004482241100321
 20
4.237325782092771
 30
0
 11
5.996382241100321
 21
4.23132578209277
 31
0
  0
LINE
  8
0
 62
7
 10
5.996382241100321
 20
4.23132578209277
 30
0
 11
5.985582241100321
 21
4.22832578209277
 31
0
  0
LINE
  8
0
 62
7
 10
5.985582241100321
 20
4.22832578209277
 30
0
 11
5.93428224110032
 21
4.22832578209277
 31
0
  0
LINE
  8
0
 62
7
 10
5.93428224110032
 20
4.22832578209277
 30
0
 11
5.93428224110032
 21
4.28832578209277
 31
0
  0
LINE
  8
0
 62
7
 10
6.031482241100321
 20
4.16832578209277
 30
0
 11
6.031482241100321
 21
4.22832578209277
 31
0
  0
LINE
  8
0
 62
7
 10
6.031482241100321
 20
4.28832578209277
 30
0
 11
6.082782241100322
 21
4.28832578209277
 31
0
  0
LINE
  8
0
 62
7
 10
6.082782241100322
 20
4.28832578209277
 30
0
 11
6.093582241100322
 21
4.285325782092771
 31
0
  0
LINE
  8
0
 62
7
 10
6.093582241100322
 20
4.285325782092771
 30
0
 11
6.10168224110032
 21
4.27932578209277
 31
0
  0
LINE
  8
0
 62
7
 10
6.10168224110032
 20
4.27932578209277
 30
0
 11
6.104382241100321
 21
4.273325782092771
 31
0
  0
LINE
  8
0
 62
7
 10
6.104382241100321
 20
4.273325782092771
 30
0
 11
6.107082241100322
 21
4.26432578209277
 31
0
  0
LINE
  8
0
 62
7
 10
6.107082241100322
 20
4.26432578209277
 30
0
 11
6.107082241100322
 21
4.252325782092771
 31
0
  0
LINE
  8
0
 62
7
 10
6.107082241100322
 20
4.252325782092771
 30
0
 11
6.104382241100321
 21
4.243325782092771
 31
0
  0
LINE
  8
0
 62
7
 10
6.104382241100321
 20
4.243325782092771
 30
0
 11
6.10168224110032
 21
4.237325782092771
 31
0
  0
LINE
  8
0
 62
7
 10
6.10168224110032
 20
4.237325782092771
 30
0
 11
6.093582241100322
 21
4.23132578209277
 31
0
  0
LINE
  8
0
 62
7
 10
6.093582241100322
 20
4.23132578209277
 30
0
 11
6.082782241100322
 21
4.22832578209277
 31
0
  0
LINE
  8
0
 62
7
 10
6.082782241100322
 20
4.22832578209277
 30
0
 11
6.031482241100321
 21
4.22832578209277
 31
0
  0
LINE
  8
0
 62
7
 10
6.031482241100321
 20
4.22832578209277
 30
0
 11
6.031482241100321
 21
4.28832578209277
 31
0
  0
LINE
  8
0
 62
7
 10
6.204282241100323
 20
4.28832578209277
 30
0
 11
6.128682241100321
 21
4.28832578209277
 31
0
  0
LINE
  8
0
 62
7
 10
6.128682241100321
 20
4.28832578209277
 30
0
 11
6.128682241100321
 21
4.22832578209277
 31
0
  0
LINE
  8
0
 62
7
 10
6.128682241100321
 20
4.16832578209277
 30
0
 11
6.204282241100323
 21
4.16832578209277
 31
0
  0
LINE
  8
0
 62
7
 10
6.193482241100321
 20
4.22832578209277
 30
0
 11
6.128682241100321
 21
4.22832578209277
 31
0
  0
LINE
  8
0
 62
7
 10
6.128682241100321
 20
4.22832578209277
 30
0
 11
6.128682241100321
 21
4.16832578209277
 31
0
  0
LINE
  8
0
 62
7
 10
4.325000000000015
 20
2.500000000000002
 30
0
 11
4.325000000000015
 21
2.620000000000003
 31
0
  0
LINE
  8
0
 62
7
 10
4.325000000000015
 20
2.620000000000003
 30
0
 11
4.368200000000015
 21
2.524000000000002
 31
0
  0
LINE
  8
0
 62
7
 10
4.368200000000015
 20
2.524000000000002
 30
0
 11
4.411400000000016
 21
2.620000000000003
 31
0
  0
LINE
  8
0
 62
7
 10
4.411400000000016
 20
2.620000000000003
 30
0
 11
4.411400000000016
 21
2.500000000000002
 31
0
  0
LINE
  8
0
 62
7
 10
4.489700000000013
 20
2.620000000000003
 30
0
 11
4.473500000000015
 21
2.620000000000003
 31
0
  0
LINE
  8
0
 62
7
 10
4.473500000000015
 20
2.620000000000003
 30
0
 11
4.465400000000016
 21
2.617000000000003
 31
0
  0
LINE
  8
0
 62
7
 10
4.465400000000016
 20
2.617000000000003
 30
0
 11
4.457300000000015
 21
2.611000000000002
 31
0
  0
LINE
  8
0
 62
7
 10
4.457300000000015
 20
2.611000000000002
 30
0
 11
4.451900000000015
 21
2.605000000000002
 31
0
  0
LINE
  8
0
 62
7
 10
4.451900000000015
 20
2.605000000000002
 30
0
 11
4.446500000000015
 21
2.596000000000002
 31
0
  0
LINE
  8
0
 62
7
 10
4.446500000000015
 20
2.596000000000002
 30
0
 11
4.443800000000016
 21
2.584000000000002
 31
0
  0
LINE
  8
0
 62
7
 10
4.443800000000016
 20
2.584000000000002
 30
0
 11
4.443800000000016
 21
2.536000000000002
 31
0
  0
LINE
  8
0
 62
7
 10
4.443800000000016
 20
2.536000000000002
 30
0
 11
4.446500000000015
 21
2.524000000000002
 31
0
  0
LINE
  8
0
 62
7
 10
4.446500000000015
 20
2.524000000000002
 30
0
 11
4.451900000000015
 21
2.515000000000002
 31
0
  0
LINE
  8
0
 62
7
 10
4.451900000000015
 20
2.515000000000002
 30
0
 11
4.457300000000015
 21
2.509000000000002
 31
0
  0
LINE
  8
0
 62
7
 10
4.457300000000015
 20
2.509000000000002
 30
0
 11
4.465400000000016
 21
2.503000000000002
 31
0
  0
LINE
  8
0
 62
7
 10
4.465400000000016
 20
2.503000000000002
 30
0
 11
4.473500000000015
 21
2.500000000000002
 31
0
  0
LINE
  8
0
 62
7
 10
4.473500000000015
 20
2.500000000000002
 30
0
 11
4.489700000000013
 21
2.500000000000002
 31
0
  0
LINE
  8
0
 62
7
 10
4.489700000000013
 20
2.500000000000002
 30
0
 11
4.497800000000015
 21
2.503000000000002
 31
0
  0
LINE
  8
0
 62
7
 10
4.497800000000015
 20
2.503000000000002
 30
0
 11
4.505900000000016
 21
2.509000000000002
 31
0
  0
LINE
  8
0
 62
7
 10
4.505900000000016
 20
2.509000000000002
 30
0
 11
4.511300000000015
 21
2.515000000000002
 31
0
  0
LINE
  8
0
 62
7
 10
4.511300000000015
 20
2.515000000000002
 30
0
 11
4.516700000000013
 21
2.524000000000002
 31
0
  0
LINE
  8
0
 62
7
 10
4.516700000000013
 20
2.524000000000002
 30
0
 11
4.519400000000015
 21
2.536000000000002
 31
0
  0
LINE
  8
0
 62
7
 10
4.519400000000015
 20
2.536000000000002
 30
0
 11
4.519400000000015
 21
2.584000000000002
 31
0
  0
LINE
  8
0
 62
7
 10
4.519400000000015
 20
2.584000000000002
 30
0
 11
4.516700000000013
 21
2.596000000000002
 31
0
  0
LINE
  8
0
 62
7
 10
4.516700000000013
 20
2.596000000000002
 30
0
 11
4.511300000000015
 21
2.605000000000002
 31
0
  0
LINE
  8
0
 62
7
 10
4.511300000000015
 20
2.605000000000002
 30
0
 11
4.505900000000016
 21
2.611000000000002
 31
0
  0
LINE
  8
0
 62
7
 10
4.505900000000016
 20
2.611000000000002
 30
0
 11
4.497800000000015
 21
2.617000000000003
 31
0
  0
LINE
  8
0
 62
7
 10
4.497800000000015
 20
2.617000000000003
 30
0
 11
4.489700000000013
 21
2.620000000000003
 31
0
  0
LINE
  8
0
 62
7
 10
4.541000000000015
 20
2.620000000000003
 30
0
 11
4.578800000000014
 21
2.500000000000002
 31
0
  0
LINE
  8
0
 62
7
 10
4.578800000000014
 20
2.500000000000002
 30
0
 11
4.616600000000015
 21
2.620000000000003
 31
0
  0
LINE
  8
0
 62
7
 10
4.649000000000016
 20
2.602000000000003
 30
0
 11
4.654400000000015
 21
2.611000000000002
 31
0
  0
LINE
  8
0
 62
7
 10
4.654400000000015
 20
2.611000000000002
 30
0
 11
4.662500000000015
 21
2.617000000000003
 31
0
  0
LINE
  8
0
 62
7
 10
4.662500000000015
 20
2.617000000000003
 30
0
 11
4.673300000000016
 21
2.620000000000003
 31
0
  0
LINE
  8
0
 62
7
 10
4.673300000000016
 20
2.620000000000003
 30
0
 11
4.689500000000016
 21
2.620000000000003
 31
0
  0
LINE
  8
0
 62
7
 10
4.689500000000016
 20
2.620000000000003
 30
0
 11
4.697600000000015
 21
2.617000000000003
 31
0
  0
LINE
  8
0
 62
7
 10
4.697600000000015
 20
2.617000000000003
 30
0
 11
4.705700000000015
 21
2.611000000000002
 31
0
  0
LINE
  8
0
 62
7
 10
4.705700000000015
 20
2.611000000000002
 30
0
 11
4.711100000000015
 21
2.602000000000003
 31
0
  0
LINE
  8
0
 62
7
 10
4.711100000000015
 20
2.602000000000003
 30
0
 11
4.713800000000015
 21
2.590000000000003
 31
0
  0
LINE
  8
0
 62
7
 10
4.713800000000015
 20
2.590000000000003
 30
0
 11
4.713800000000015
 21
2.581000000000002
 31
0
  0
LINE
  8
0
 62
7
 10
4.713800000000015
 20
2.581000000000002
 30
0
 11
4.711100000000015
 21
2.572000000000003
 31
0
  0
LINE
  8
0
 62
7
 10
4.711100000000015
 20
2.572000000000003
 30
0
 11
4.705700000000015
 21
2.566000000000002
 31
0
  0
LINE
  8
0
 62
7
 10
4.705700000000015
 20
2.566000000000002
 30
0
 11
4.692200000000013
 21
2.560000000000002
 31
0
  0
LINE
  8
0
 62
7
 10
4.673300000000016
 20
2.560000000000002
 30
0
 11
4.692200000000013
 21
2.560000000000002
 31
0
  0
LINE
  8
0
 62
7
 10
4.692200000000013
 20
2.560000000000002
 30
0
 11
4.705700000000015
 21
2.554000000000002
 31
0
  0
LINE
  8
0
 62
7
 10
4.705700000000015
 20
2.554000000000002
 30
0
 11
4.711100000000015
 21
2.548000000000002
 31
0
  0
LINE
  8
0
 62
7
 10
4.711100000000015
 20
2.548000000000002
 30
0
 11
4.713800000000015
 21
2.539000000000002
 31
0
  0
LINE
  8
0
 62
7
 10
4.713800000000015
 20
2.539000000000002
 30
0
 11
4.713800000000015
 21
2.530000000000002
 31
0
  0
LINE
  8
0
 62
7
 10
4.713800000000015
 20
2.530000000000002
 30
0
 11
4.711100000000015
 21
2.518000000000002
 31
0
  0
LINE
  8
0
 62
7
 10
4.711100000000015
 20
2.518000000000002
 30
0
 11
4.705700000000015
 21
2.509000000000002
 31
0
  0
LINE
  8
0
 62
7
 10
4.705700000000015
 20
2.509000000000002
 30
0
 11
4.697600000000015
 21
2.503000000000002
 31
0
  0
LINE
  8
0
 62
7
 10
4.697600000000015
 20
2.503000000000002
 30
0
 11
4.689500000000016
 21
2.500000000000002
 31
0
  0
LINE
  8
0
 62
7
 10
4.689500000000016
 20
2.500000000000002
 30
0
 11
4.673300000000016
 21
2.500000000000002
 31
0
  0
LINE
  8
0
 62
7
 10
4.673300000000016
 20
2.500000000000002
 30
0
 11
4.662500000000015
 21
2.503000000000002
 31
0
  0
LINE
  8
0
 62
7
 10
4.662500000000015
 20
2.503000000000002
 30
0
 11
4.654400000000015
 21
2.509000000000002
 31
0
  0
LINE
  8
0
 62
7
 10
4.654400000000015
 20
2.509000000000002
 30
0
 11
4.649000000000016
 21
2.518000000000002
 31
0
  0
LINE
  8
0
 62
7
 10
4.746200000000015
 20
2.608000000000002
 30
0
 11
4.746200000000015
 21
2.620000000000003
 31
0
  0
LINE
  8
0
 62
7
 10
4.746200000000015
 20
2.620000000000003
 30
0
 11
4.811000000000015
 21
2.620000000000003
 31
0
  0
LINE
  8
0
 62
7
 10
4.811000000000015
 20
2.620000000000003
 30
0
 11
4.757000000000016
 21
2.500000000000002
 31
0
  0
LINE
  8
0
 62
7
 10
4.843400000000016
 20
2.548000000000002
 30
0
 11
4.846100000000014
 21
2.560000000000002
 31
0
  0
LINE
  8
0
 62
7
 10
4.846100000000014
 20
2.560000000000002
 30
0
 11
4.851500000000016
 21
2.569000000000002
 31
0
  0
LINE
  8
0
 62
7
 10
4.851500000000016
 20
2.569000000000002
 30
0
 11
4.859600000000015
 21
2.575000000000003
 31
0
  0
LINE
  8
0
 62
7
 10
4.859600000000015
 20
2.575000000000003
 30
0
 11
4.867700000000016
 21
2.578000000000002
 31
0
  0
LINE
  8
0
 62
7
 10
4.867700000000016
 20
2.578000000000002
 30
0
 11
4.883900000000016
 21
2.578000000000002
 31
0
  0
LINE
  8
0
 62
7
 10
4.883900000000016
 20
2.578000000000002
 30
0
 11
4.892000000000016
 21
2.575000000000003
 31
0
  0
LINE
  8
0
 62
7
 10
4.892000000000016
 20
2.575000000000003
 30
0
 11
4.900100000000014
 21
2.569000000000002
 31
0
  0
LINE
  8
0
 62
7
 10
4.900100000000014
 20
2.569000000000002
 30
0
 11
4.905500000000015
 21
2.560000000000002
 31
0
  0
LINE
  8
0
 62
7
 10
4.905500000000015
 20
2.560000000000002
 30
0
 11
4.908200000000016
 21
2.548000000000002
 31
0
  0
LINE
  8
0
 62
7
 10
4.908200000000016
 20
2.548000000000002
 30
0
 11
4.908200000000016
 21
2.530000000000002
 31
0
  0
LINE
  8
0
 62
7
 10
4.908200000000016
 20
2.530000000000002
 30
0
 11
4.905500000000015
 21
2.518000000000002
 31
0
  0
LINE
  8
0
 62
7
 10
4.905500000000015
 20
2.518000000000002
 30
0
 11
4.900100000000014
 21
2.509000000000002
 31
0
  0
LINE
  8
0
 62
7
 10
4.900100000000014
 20
2.509000000000002
 30
0
 11
4.892000000000016
 21
2.503000000000002
 31
0
  0
LINE
  8
0
 62
7
 10
4.892000000000016
 20
2.503000000000002
 30
0
 11
4.883900000000016
 21
2.500000000000002
 31
0
  0
LINE
  8
0
 62
7
 10
4.883900000000016
 20
2.500000000000002
 30
0
 11
4.867700000000016
 21
2.500000000000002
 31
0
  0
LINE
  8
0
 62
7
 10
4.867700000000016
 20
2.500000000000002
 30
0
 11
4.859600000000015
 21
2.503000000000002
 31
0
  0
LINE
  8
0
 62
7
 10
4.859600000000015
 20
2.503000000000002
 30
0
 11
4.851500000000016
 21
2.509000000000002
 31
0
  0
LINE
  8
0
 62
7
 10
4.851500000000016
 20
2.509000000000002
 30
0
 11
4.846100000000014
 21
2.518000000000002
 31
0
  0
LINE
  8
0
 62
7
 10
4.846100000000014
 20
2.518000000000002
 30
0
 11
4.843400000000016
 21
2.530000000000002
 31
0
  0
LINE
  8
0
 62
7
 10
4.843400000000016
 20
2.530000000000002
 30
0
 11
4.843400000000016
 21
2.548000000000002
 31
0
  0
LINE
  8
0
 62
7
 10
4.843400000000016
 20
2.590000000000003
 30
0
 11
4.846100000000014
 21
2.602000000000003
 31
0
  0
LINE
  8
0
 62
7
 10
4.846100000000014
 20
2.602000000000003
 30
0
 11
4.851500000000016
 21
2.611000000000002
 31
0
  0
LINE
  8
0
 62
7
 10
4.851500000000016
 20
2.611000000000002
 30
0
 11
4.859600000000015
 21
2.617000000000003
 31
0
  0
LINE
  8
0
 62
7
 10
4.859600000000015
 20
2.617000000000003
 30
0
 11
4.867700000000016
 21
2.620000000000003
 31
0
  0
LINE
  8
0
 62
7
 10
4.867700000000016
 20
2.620000000000003
 30
0
 11
4.883900000000016
 21
2.620000000000003
 31
0
  0
LINE
  8
0
 62
7
 10
4.883900000000016
 20
2.620000000000003
 30
0
 11
4.892000000000016
 21
2.617000000000003
 31
0
  0
LINE
  8
0
 62
7
 10
4.892000000000016
 20
2.617000000000003
 30
0
 11
4.900100000000014
 21
2.611000000000002
 31
0
  0
LINE
  8
0
 62
7
 10
4.900100000000014
 20
2.611000000000002
 30
0
 11
4.905500000000015
 21
2.602000000000003
 31
0
  0
LINE
  8
0
 62
7
 10
4.843400000000016
 20
2.548000000000002
 30
0
 11
4.843400000000016
 21
2.590000000000003
 31
0
  0
LINE
  8
0
 62
7
 10
4.940600000000015
 20
2.500000000000002
 30
0
 11
4.940600000000015
 21
2.620000000000003
 31
0
  0
LINE
  8
0
 62
7
 10
4.940600000000015
 20
2.620000000000003
 30
0
 11
4.991900000000015
 21
2.620000000000003
 31
0
  0
LINE
  8
0
 62
7
 10
4.991900000000015
 20
2.620000000000003
 30
0
 11
5.002700000000016
 21
2.617000000000003
 31
0
  0
LINE
  8
0
 62
7
 10
5.002700000000016
 20
2.617000000000003
 30
0
 11
5.010800000000017
 21
2.611000000000002
 31
0
  0
LINE
  8
0
 62
7
 10
5.010800000000017
 20
2.611000000000002
 30
0
 11
5.013500000000015
 21
2.605000000000002
 31
0
  0
LINE
  8
0
 62
7
 10
5.013500000000015
 20
2.605000000000002
 30
0
 11
5.016200000000016
 21
2.596000000000002
 31
0
  0
LINE
  8
0
 62
7
 10
5.016200000000016
 20
2.596000000000002
 30
0
 11
5.016200000000016
 21
2.584000000000002
 31
0
  0
LINE
  8
0
 62
7
 10
5.016200000000016
 20
2.584000000000002
 30
0
 11
5.013500000000015
 21
2.575000000000003
 31
0
  0
LINE
  8
0
 62
7
 10
5.013500000000015
 20
2.575000000000003
 30
0
 11
5.010800000000017
 21
2.569000000000002
 31
0
  0
LINE
  8
0
 62
7
 10
5.010800000000017
 20
2.569000000000002
 30
0
 11
5.002700000000016
 21
2.563000000000002
 31
0
  0
LINE
  8
0
 62
7
 10
5.002700000000016
 20
2.563000000000002
 30
0
 11
4.991900000000015
 21
2.560000000000002
 31
0
  0
LINE
  8
0
 62
7
 10
4.991900000000015
 20
2.560000000000002
 30
0
 11
4.983800000000016
 21
2.560000000000002
 31
0
  0
LINE
  8
0
 62
7
 10
4.983800000000016
 20
2.560000000000002
 30
0
 11
5.016200000000016
 21
2.500000000000002
 31
0
  0
LINE
  8
0
 62
7
 10
4.983800000000016
 20
2.560000000000002
 30
0
 11
4.940600000000015
 21
2.560000000000002
 31
0
  0
LINE
  8
0
 62
7
 10
5.037800000000015
 20
2.548000000000002
 30
0
 11
5.040500000000015
 21
2.560000000000002
 31
0
  0
LINE
  8
0
 62
7
 10
5.040500000000015
 20
2.560000000000002
 30
0
 11
5.045900000000016
 21
2.569000000000002
 31
0
  0
LINE
  8
0
 62
7
 10
5.045900000000016
 20
2.569000000000002
 30
0
 11
5.054000000000016
 21
2.575000000000003
 31
0
  0
LINE
  8
0
 62
7
 10
5.054000000000016
 20
2.575000000000003
 30
0
 11
5.062100000000015
 21
2.578000000000002
 31
0
  0
LINE
  8
0
 62
7
 10
5.062100000000015
 20
2.578000000000002
 30
0
 11
5.078300000000016
 21
2.578000000000002
 31
0
  0
LINE
  8
0
 62
7
 10
5.078300000000016
 20
2.578000000000002
 30
0
 11
5.086400000000015
 21
2.575000000000003
 31
0
  0
LINE
  8
0
 62
7
 10
5.086400000000015
 20
2.575000000000003
 30
0
 11
5.094500000000016
 21
2.569000000000002
 31
0
  0
LINE
  8
0
 62
7
 10
5.094500000000016
 20
2.569000000000002
 30
0
 11
5.099900000000016
 21
2.560000000000002
 31
0
  0
LINE
  8
0
 62
7
 10
5.099900000000016
 20
2.560000000000002
 30
0
 11
5.102600000000016
 21
2.548000000000002
 31
0
  0
LINE
  8
0
 62
7
 10
5.102600000000016
 20
2.548000000000002
 30
0
 11
5.102600000000016
 21
2.530000000000002
 31
0
  0
LINE
  8
0
 62
7
 10
5.102600000000016
 20
2.530000000000002
 30
0
 11
5.099900000000016
 21
2.518000000000002
 31
0
  0
LINE
  8
0
 62
7
 10
5.099900000000016
 20
2.518000000000002
 30
0
 11
5.094500000000016
 21
2.509000000000002
 31
0
  0
LINE
  8
0
 62
7
 10
5.094500000000016
 20
2.509000000000002
 30
0
 11
5.086400000000015
 21
2.503000000000002
 31
0
  0
LINE
  8
0
 62
7
 10
5.086400000000015
 20
2.503000000000002
 30
0
 11
5.078300000000016
 21
2.500000000000002
 31
0
  0
LINE
  8
0
 62
7
 10
5.078300000000016
 20
2.500000000000002
 30
0
 11
5.062100000000015
 21
2.500000000000002
 31
0
  0
LINE
  8
0
 62
7
 10
5.062100000000015
 20
2.500000000000002
 30
0
 11
5.054000000000016
 21
2.503000000000002
 31
0
  0
LINE
  8
0
 62
7
 10
5.054000000000016
 20
2.503000000000002
 30
0
 11
5.045900000000016
 21
2.509000000000002
 31
0
  0
LINE
  8
0
 62
7
 10
5.045900000000016
 20
2.509000000000002
 30
0
 11
5.040500000000015
 21
2.518000000000002
 31
0
  0
LINE
  8
0
 62
7
 10
5.040500000000015
 20
2.518000000000002
 30
0
 11
5.037800000000015
 21
2.530000000000002
 31
0
  0
LINE
  8
0
 62
7
 10
5.037800000000015
 20
2.530000000000002
 30
0
 11
5.037800000000015
 21
2.548000000000002
 31
0
  0
LINE
  8
0
 62
7
 10
5.037800000000015
 20
2.590000000000003
 30
0
 11
5.040500000000015
 21
2.602000000000003
 31
0
  0
LINE
  8
0
 62
7
 10
5.040500000000015
 20
2.602000000000003
 30
0
 11
5.045900000000016
 21
2.611000000000002
 31
0
  0
LINE
  8
0
 62
7
 10
5.045900000000016
 20
2.611000000000002
 30
0
 11
5.054000000000016
 21
2.617000000000003
 31
0
  0
LINE
  8
0
 62
7
 10
5.054000000000016
 20
2.617000000000003
 30
0
 11
5.062100000000015
 21
2.620000000000003
 31
0
  0
LINE
  8
0
 62
7
 10
5.062100000000015
 20
2.620000000000003
 30
0
 11
5.078300000000016
 21
2.620000000000003
 31
0
  0
LINE
  8
0
 62
7
 10
5.078300000000016
 20
2.620000000000003
 30
0
 11
5.086400000000015
 21
2.617000000000003
 31
0
  0
LINE
  8
0
 62
7
 10
5.086400000000015
 20
2.617000000000003
 30
0
 11
5.094500000000016
 21
2.611000000000002
 31
0
  0
LINE
  8
0
 62
7
 10
5.094500000000016
 20
2.611000000000002
 30
0
 11
5.099900000000016
 21
2.602000000000003
 31
0
  0
LINE
  8
0
 62
7
 10
5.037800000000015
 20
2.548000000000002
 30
0
 11
5.037800000000015
 21
2.590000000000003
 31
0
  0
LINE
  8
0
 62
7
 10
6.825000000000014
 20
2.500000000000002
 30
0
 11
6.825000000000014
 21
2.600000000000003
 31
0
  0
LINE
  8
0
 62
7
 10
6.825000000000014
 20
2.600000000000003
 30
0
 11
6.888000000000016
 21
2.500000000000002
 31
0
  0
LINE
  8
0
 62
7
 10
6.888000000000016
 20
2.500000000000002
 30
0
 11
6.888000000000016
 21
2.600000000000003
 31
0
  0
LINE
  8
0
 62
7
 10
6.969000000000015
 20
2.500000000000002
 30
0
 11
6.915000000000015
 21
2.500000000000002
 31
0
  0
LINE
  8
0
 62
7
 10
6.915000000000015
 20
2.500000000000002
 30
0
 11
6.915000000000015
 21
2.600000000000003
 31
0
  0
LINE
  8
0
 62
7
 10
6.996000000000016
 20
2.550000000000002
 30
0
 11
7.032000000000015
 21
2.550000000000002
 31
0
  0
LINE
  8
0
 62
7
 10
7.032000000000015
 20
2.550000000000002
 30
0
 11
7.036500000000015
 21
2.550000000000002
 31
0
  0
LINE
  8
0
 62
7
 10
7.036500000000015
 20
2.550000000000002
 30
0
 11
7.045500000000016
 21
2.545000000000002
 31
0
  0
LINE
  8
0
 62
7
 10
7.045500000000016
 20
2.545000000000002
 30
0
 11
7.050000000000015
 21
2.540000000000002
 31
0
  0
LINE
  8
0
 62
7
 10
7.050000000000015
 20
2.540000000000002
 30
0
 11
7.054500000000016
 21
2.530000000000002
 31
0
  0
LINE
  8
0
 62
7
 10
7.054500000000016
 20
2.530000000000002
 30
0
 11
7.054500000000016
 21
2.520000000000002
 31
0
  0
LINE
  8
0
 62
7
 10
7.054500000000016
 20
2.520000000000002
 30
0
 11
7.050000000000015
 21
2.510000000000002
 31
0
  0
LINE
  8
0
 62
7
 10
7.050000000000015
 20
2.510000000000002
 30
0
 11
7.045500000000016
 21
2.505000000000002
 31
0
  0
LINE
  8
0
 62
7
 10
7.045500000000016
 20
2.505000000000002
 30
0
 11
7.036500000000015
 21
2.500000000000002
 31
0
  0
LINE
  8
0
 62
7
 10
7.036500000000015
 20
2.500000000000002
 30
0
 11
6.996000000000016
 21
2.500000000000002
 31
0
  0
LINE
  8
0
 62
7
 10
6.996000000000016
 20
2.500000000000002
 30
0
 11
6.996000000000016
 21
2.550000000000002
 31
0
  0
LINE
  8
0
 62
7
 10
6.996000000000016
 20
2.600000000000003
 30
0
 11
7.029750000000014
 21
2.600000000000003
 31
0
  0
LINE
  8
0
 62
7
 10
7.029750000000014
 20
2.600000000000003
 30
0
 11
7.041000000000015
 21
2.597500000000002
 31
0
  0
LINE
  8
0
 62
7
 10
7.041000000000015
 20
2.597500000000002
 30
0
 11
7.047750000000015
 21
2.590000000000003
 31
0
  0
LINE
  8
0
 62
7
 10
7.047750000000015
 20
2.590000000000003
 30
0
 11
7.050000000000015
 21
2.580000000000002
 31
0
  0
LINE
  8
0
 62
7
 10
7.050000000000015
 20
2.580000000000002
 30
0
 11
7.050000000000015
 21
2.570000000000003
 31
0
  0
LINE
  8
0
 62
7
 10
7.050000000000015
 20
2.570000000000003
 30
0
 11
7.045500000000016
 21
2.560000000000002
 31
0
  0
LINE
  8
0
 62
7
 10
7.045500000000016
 20
2.560000000000002
 30
0
 11
7.038750000000014
 21
2.552500000000002
 31
0
  0
LINE
  8
0
 62
7
 10
7.038750000000014
 20
2.552500000000002
 30
0
 11
7.032000000000015
 21
2.550000000000002
 31
0
  0
LINE
  8
0
 62
7
 10
6.996000000000016
 20
2.550000000000002
 30
0
 11
6.996000000000016
 21
2.600000000000003
 31
0
  0
LINE
  8
0
 62
7
 10
7.196250000000015
 20
2.552500000000002
 30
0
 11
7.189500000000016
 21
2.562500000000003
 31
0
  0
LINE
  8
0
 62
7
 10
7.189500000000016
 20
2.562500000000003
 30
0
 11
7.182750000000015
 21
2.567500000000003
 31
0
  0
LINE
  8
0
 62
7
 10
7.182750000000015
 20
2.567500000000003
 30
0
 11
7.176000000000015
 21
2.570000000000003
 31
0
  0
LINE
  8
0
 62
7
 10
7.176000000000015
 20
2.570000000000003
 30
0
 11
7.167000000000016
 21
2.570000000000003
 31
0
  0
LINE
  8
0
 62
7
 10
7.167000000000016
 20
2.570000000000003
 30
0
 11
7.160250000000016
 21
2.567500000000003
 31
0
  0
LINE
  8
0
 62
7
 10
7.160250000000016
 20
2.567500000000003
 30
0
 11
7.153500000000015
 21
2.562500000000003
 31
0
  0
LINE
  8
0
 62
7
 10
7.153500000000015
 20
2.562500000000003
 30
0
 11
7.146750000000016
 21
2.552500000000002
 31
0
  0
LINE
  8
0
 62
7
 10
7.146750000000016
 20
2.552500000000002
 30
0
 11
7.144500000000015
 21
2.545000000000002
 31
0
  0
LINE
  8
0
 62
7
 10
7.144500000000015
 20
2.545000000000002
 30
0
 11
7.144500000000015
 21
2.525000000000002
 31
0
  0
LINE
  8
0
 62
7
 10
7.144500000000015
 20
2.525000000000002
 30
0
 11
7.146750000000016
 21
2.517500000000002
 31
0
  0
LINE
  8
0
 62
7
 10
7.146750000000016
 20
2.517500000000002
 30
0
 11
7.153500000000015
 21
2.507500000000002
 31
0
  0
LINE
  8
0
 62
7
 10
7.153500000000015
 20
2.507500000000002
 30
0
 11
7.160250000000016
 21
2.502500000000002
 31
0
  0
LINE
  8
0
 62
7
 10
7.160250000000016
 20
2.502500000000002
 30
0
 11
7.167000000000016
 21
2.500000000000002
 31
0
  0
LINE
  8
0
 62
7
 10
7.167000000000016
 20
2.500000000000002
 30
0
 11
7.176000000000015
 21
2.500000000000002
 31
0
  0
LINE
  8
0
 62
7
 10
7.176000000000015
 20
2.500000000000002
 30
0
 11
7.182750000000015
 21
2.502500000000002
 31
0
  0
LINE
  8
0
 62
7
 10
7.182750000000015
 20
2.502500000000002
 30
0
 11
7.189500000000016
 21
2.507500000000002
 31
0
  0
LINE
  8
0
 62
7
 10
7.189500000000016
 20
2.507500000000002
 30
0
 11
7.196250000000015
 21
2.517500000000002
 31
0
  0
LINE
  8
0
 62
7
 10
7.268250000000016
 20
2.545000000000002
 30
0
 11
7.266000000000016
 21
2.552500000000002
 31
0
  0
LINE
  8
0
 62
7
 10
7.266000000000016
 20
2.552500000000002
 30
0
 11
7.259250000000016
 21
2.562500000000003
 31
0
  0
LINE
  8
0
 62
7
 10
7.259250000000016
 20
2.562500000000003
 30
0
 11
7.252500000000015
 21
2.567500000000003
 31
0
  0
LINE
  8
0
 62
7
 10
7.252500000000015
 20
2.567500000000003
 30
0
 11
7.245750000000015
 21
2.570000000000003
 31
0
  0
LINE
  8
0
 62
7
 10
7.245750000000015
 20
2.570000000000003
 30
0
 11
7.236750000000017
 21
2.570000000000003
 31
0
  0
LINE
  8
0
 62
7
 10
7.236750000000017
 20
2.570000000000003
 30
0
 11
7.230000000000016
 21
2.567500000000003
 31
0
  0
LINE
  8
0
 62
7
 10
7.230000000000016
 20
2.567500000000003
 30
0
 11
7.223250000000016
 21
2.562500000000003
 31
0
  0
LINE
  8
0
 62
7
 10
7.223250000000016
 20
2.562500000000003
 30
0
 11
7.216500000000015
 21
2.552500000000002
 31
0
  0
LINE
  8
0
 62
7
 10
7.216500000000015
 20
2.552500000000002
 30
0
 11
7.214250000000016
 21
2.545000000000002
 31
0
  0
LINE
  8
0
 62
7
 10
7.214250000000016
 20
2.545000000000002
 30
0
 11
7.214250000000016
 21
2.525000000000002
 31
0
  0
LINE
  8
0
 62
7
 10
7.214250000000016
 20
2.525000000000002
 30
0
 11
7.216500000000015
 21
2.517500000000002
 31
0
  0
LINE
  8
0
 62
7
 10
7.216500000000015
 20
2.517500000000002
 30
0
 11
7.223250000000016
 21
2.507500000000002
 31
0
  0
LINE
  8
0
 62
7
 10
7.223250000000016
 20
2.507500000000002
 30
0
 11
7.230000000000016
 21
2.502500000000002
 31
0
  0
LINE
  8
0
 62
7
 10
7.230000000000016
 20
2.502500000000002
 30
0
 11
7.236750000000017
 21
2.500000000000002
 31
0
  0
LINE
  8
0
 62
7
 10
7.236750000000017
 20
2.500000000000002
 30
0
 11
7.245750000000015
 21
2.500000000000002
 31
0
  0
LINE
  8
0
 62
7
 10
7.245750000000015
 20
2.500000000000002
 30
0
 11
7.252500000000015
 21
2.502500000000002
 31
0
  0
LINE
  8
0
 62
7
 10
7.252500000000015
 20
2.502500000000002
 30
0
 11
7.259250000000016
 21
2.507500000000002
 31
0
  0
LINE
  8
0
 62
7
 10
7.259250000000016
 20
2.507500000000002
 30
0
 11
7.266000000000016
 21
2.517500000000002
 31
0
  0
LINE
  8
0
 62
7
 10
7.266000000000016
 20
2.517500000000002
 30
0
 11
7.268250000000016
 21
2.525000000000002
 31
0
  0
LINE
  8
0
 62
7
 10
7.268250000000016
 20
2.570000000000003
 30
0
 11
7.268250000000016
 21
2.545000000000002
 31
0
  0
LINE
  8
0
 62
7
 10
7.268250000000016
 20
2.502500000000002
 30
0
 11
7.270500000000016
 21
2.500000000000002
 31
0
  0
LINE
  8
0
 62
7
 10
7.270500000000016
 20
2.500000000000002
 30
0
 11
7.272750000000015
 21
2.500000000000002
 31
0
  0
LINE
  8
0
 62
7
 10
7.268250000000016
 20
2.525000000000002
 30
0
 11
7.268250000000016
 21
2.502500000000002
 31
0
  0
LINE
  8
0
 62
7
 10
7.268250000000016
 20
2.545000000000002
 30
0
 11
7.268250000000016
 21
2.525000000000002
 31
0
  0
LINE
  8
0
 62
7
 10
7.290750000000016
 20
2.500000000000002
 30
0
 11
7.290750000000016
 21
2.502500000000002
 31
0
  0
LINE
  8
0
 62
7
 10
7.290750000000016
 20
2.502500000000002
 30
0
 11
7.293000000000017
 21
2.502500000000002
 31
0
  0
LINE
  8
0
 62
7
 10
7.293000000000017
 20
2.502500000000002
 30
0
 11
7.293000000000017
 21
2.500000000000002
 31
0
  0
LINE
  8
0
 62
7
 10
7.293000000000017
 20
2.500000000000002
 30
0
 11
7.290750000000016
 21
2.500000000000002
 31
0
  0
LINE
  8
0
 62
7
 10
7.394250000000016
 20
2.570000000000003
 30
0
 11
7.421250000000015
 21
2.600000000000003
 31
0
  0
LINE
  8
0
 62
7
 10
7.421250000000015
 20
2.600000000000003
 30
0
 11
7.421250000000015
 21
2.500000000000002
 31
0
  0
LINE
  8
0
 62
7
 10
7.448250000000016
 20
2.575000000000003
 30
0
 11
7.450500000000016
 21
2.585000000000003
 31
0
  0
LINE
  8
0
 62
7
 10
7.450500000000016
 20
2.585000000000003
 30
0
 11
7.455000000000016
 21
2.592500000000002
 31
0
  0
LINE
  8
0
 62
7
 10
7.455000000000016
 20
2.592500000000002
 30
0
 11
7.461750000000016
 21
2.597500000000002
 31
0
  0
LINE
  8
0
 62
7
 10
7.461750000000016
 20
2.597500000000002
 30
0
 11
7.468500000000015
 21
2.600000000000003
 31
0
  0
LINE
  8
0
 62
7
 10
7.468500000000015
 20
2.600000000000003
 30
0
 11
7.482000000000015
 21
2.600000000000003
 31
0
  0
LINE
  8
0
 62
7
 10
7.482000000000015
 20
2.600000000000003
 30
0
 11
7.488750000000015
 21
2.597500000000002
 31
0
  0
LINE
  8
0
 62
7
 10
7.488750000000015
 20
2.597500000000002
 30
0
 11
7.495500000000016
 21
2.592500000000002
 31
0
  0
LINE
  8
0
 62
7
 10
7.495500000000016
 20
2.592500000000002
 30
0
 11
7.500000000000014
 21
2.585000000000003
 31
0
  0
LINE
  8
0
 62
7
 10
7.500000000000014
 20
2.585000000000003
 30
0
 11
7.502250000000015
 21
2.575000000000003
 31
0
  0
LINE
  8
0
 62
7
 10
7.502250000000015
 20
2.575000000000003
 30
0
 11
7.502250000000015
 21
2.525000000000002
 31
0
  0
LINE
  8
0
 62
7
 10
7.502250000000015
 20
2.525000000000002
 30
0
 11
7.500000000000014
 21
2.515000000000002
 31
0
  0
LINE
  8
0
 62
7
 10
7.500000000000014
 20
2.515000000000002
 30
0
 11
7.495500000000016
 21
2.507500000000002
 31
0
  0
LINE
  8
0
 62
7
 10
7.495500000000016
 20
2.507500000000002
 30
0
 11
7.488750000000015
 21
2.502500000000002
 31
0
  0
LINE
  8
0
 62
7
 10
7.488750000000015
 20
2.502500000000002
 30
0
 11
7.482000000000015
 21
2.500000000000002
 31
0
  0
LINE
  8
0
 62
7
 10
7.482000000000015
 20
2.500000000000002
 30
0
 11
7.468500000000015
 21
2.500000000000002
 31
0
  0
LINE
  8
0
 62
7
 10
7.468500000000015
 20
2.500000000000002
 30
0
 11
7.461750000000016
 21
2.502500000000002
 31
0
  0
LINE
  8
0
 62
7
 10
7.461750000000016
 20
2.502500000000002
 30
0
 11
7.455000000000016
 21
2.507500000000002
 31
0
  0
LINE
  8
0
 62
7
 10
7.455000000000016
 20
2.507500000000002
 30
0
 11
7.450500000000016
 21
2.515000000000002
 31
0
  0
LINE
  8
0
 62
7
 10
7.450500000000016
 20
2.515000000000002
 30
0
 11
7.448250000000016
 21
2.525000000000002
 31
0
  0
LINE
  8
0
 62
7
 10
7.448250000000016
 20
2.525000000000002
 30
0
 11
7.448250000000016
 21
2.575000000000003
 31
0
  0
LINE
  8
0
 62
7
 10
7.529250000000016
 20
2.575000000000003
 30
0
 11
7.531500000000015
 21
2.585000000000003
 31
0
  0
LINE
  8
0
 62
7
 10
7.531500000000015
 20
2.585000000000003
 30
0
 11
7.536000000000015
 21
2.592500000000002
 31
0
  0
LINE
  8
0
 62
7
 10
7.536000000000015
 20
2.592500000000002
 30
0
 11
7.542750000000016
 21
2.597500000000002
 31
0
  0
LINE
  8
0
 62
7
 10
7.542750000000016
 20
2.597500000000002
 30
0
 11
7.549500000000016
 21
2.600000000000003
 31
0
  0
LINE
  8
0
 62
7
 10
7.549500000000016
 20
2.600000000000003
 30
0
 11
7.563000000000016
 21
2.600000000000003
 31
0
  0
LINE
  8
0
 62
7
 10
7.563000000000016
 20
2.600000000000003
 30
0
 11
7.569750000000015
 21
2.597500000000002
 31
0
  0
LINE
  8
0
 62
7
 10
7.569750000000015
 20
2.597500000000002
 30
0
 11
7.576500000000014
 21
2.592500000000002
 31
0
  0
LINE
  8
0
 62
7
 10
7.576500000000014
 20
2.592500000000002
 30
0
 11
7.581000000000015
 21
2.585000000000003
 31
0
  0
LINE
  8
0
 62
7
 10
7.581000000000015
 20
2.585000000000003
 30
0
 11
7.583250000000016
 21
2.575000000000003
 31
0
  0
LINE
  8
0
 62
7
 10
7.583250000000016
 20
2.575000000000003
 30
0
 11
7.583250000000016
 21
2.525000000000002
 31
0
  0
LINE
  8
0
 62
7
 10
7.583250000000016
 20
2.525000000000002
 30
0
 11
7.581000000000015
 21
2.515000000000002
 31
0
  0
LINE
  8
0
 62
7
 10
7.581000000000015
 20
2.515000000000002
 30
0
 11
7.576500000000014
 21
2.507500000000002
 31
0
  0
LINE
  8
0
 62
7
 10
7.576500000000014
 20
2.507500000000002
 30
0
 11
7.569750000000015
 21
2.502500000000002
 31
0
  0
LINE
  8
0
 62
7
 10
7.569750000000015
 20
2.502500000000002
 30
0
 11
7.563000000000016
 21
2.500000000000002
 31
0
  0
LINE
  8
0
 62
7
 10
7.563000000000016
 20
2.500000000000002
 30
0
 11
7.549500000000016
 21
2.500000000000002
 31
0
  0
LINE
  8
0
 62
7
 10
7.549500000000016
 20
2.500000000000002
 30
0
 11
7.542750000000016
 21
2.502500000000002
 31
0
  0
LINE
  8
0
 62
7
 10
7.542750000000016
 20
2.502500000000002
 30
0
 11
7.536000000000015
 21
2.507500000000002
 31
0
  0
LINE
  8
0
 62
7
 10
7.536000000000015
 20
2.507500000000002
 30
0
 11
7.531500000000015
 21
2.515000000000002
 31
0
  0
LINE
  8
0
 62
7
 10
7.531500000000015
 20
2.515000000000002
 30
0
 11
7.529250000000016
 21
2.525000000000002
 31
0
  0
LINE
  8
0
 62
7
 10
7.529250000000016
 20
2.525000000000002
 30
0
 11
7.529250000000016
 21
2.575000000000003
 31
0
  0
LINE
  8
0
 62
7
 10
7.734000000000015
 20
2.552500000000002
 30
0
 11
7.727250000000016
 21
2.562500000000003
 31
0
  0
LINE
  8
0
 62
7
 10
7.727250000000016
 20
2.562500000000003
 30
0
 11
7.720500000000015
 21
2.567500000000003
 31
0
  0
LINE
  8
0
 62
7
 10
7.720500000000015
 20
2.567500000000003
 30
0
 11
7.713750000000015
 21
2.570000000000003
 31
0
  0
LINE
  8
0
 62
7
 10
7.713750000000015
 20
2.570000000000003
 30
0
 11
7.704750000000015
 21
2.570000000000003
 31
0
  0
LINE
  8
0
 62
7
 10
7.704750000000015
 20
2.570000000000003
 30
0
 11
7.698000000000016
 21
2.567500000000003
 31
0
  0
LINE
  8
0
 62
7
 10
7.698000000000016
 20
2.567500000000003
 30
0
 11
7.691250000000015
 21
2.562500000000003
 31
0
  0
LINE
  8
0
 62
7
 10
7.691250000000015
 20
2.562500000000003
 30
0
 11
7.684500000000016
 21
2.552500000000002
 31
0
  0
LINE
  8
0
 62
7
 10
7.684500000000016
 20
2.552500000000002
 30
0
 11
7.682250000000015
 21
2.545000000000002
 31
0
  0
LINE
  8
0
 62
7
 10
7.682250000000015
 20
2.545000000000002
 30
0
 11
7.682250000000015
 21
2.525000000000002
 31
0
  0
LINE
  8
0
 62
7
 10
7.682250000000015
 20
2.525000000000002
 30
0
 11
7.684500000000016
 21
2.517500000000002
 31
0
  0
LINE
  8
0
 62
7
 10
7.684500000000016
 20
2.517500000000002
 30
0
 11
7.691250000000015
 21
2.507500000000002
 31
0
  0
LINE
  8
0
 62
7
 10
7.691250000000015
 20
2.507500000000002
 30
0
 11
7.698000000000016
 21
2.502500000000002
 31
0
  0
LINE
  8
0
 62
7
 10
7.698000000000016
 20
2.502500000000002
 30
0
 11
7.704750000000015
 21
2.500000000000002
 31
0
  0
LINE
  8
0
 62
7
 10
7.704750000000015
 20
2.500000000000002
 30
0
 11
7.713750000000015
 21
2.500000000000002
 31
0
  0
LINE
  8
0
 62
7
 10
7.713750000000015
 20
2.500000000000002
 30
0
 11
7.720500000000015
 21
2.502500000000002
 31
0
  0
LINE
  8
0
 62
7
 10
7.720500000000015
 20
2.502500000000002
 30
0
 11
7.727250000000016
 21
2.507500000000002
 31
0
  0
LINE
  8
0
 62
7
 10
7.727250000000016
 20
2.507500000000002
 30
0
 11
7.734000000000015
 21
2.517500000000002
 31
0
  0
LINE
  8
0
 62
7
 10
7.792500000000016
 20
2.545000000000002
 30
0
 11
7.792500000000016
 21
2.500000000000002
 31
0
  0
LINE
  8
0
 62
7
 10
7.752000000000016
 20
2.570000000000003
 30
0
 11
7.752000000000016
 21
2.545000000000002
 31
0
  0
LINE
  8
0
 62
7
 10
7.752000000000016
 20
2.500000000000002
 30
0
 11
7.752000000000016
 21
2.545000000000002
 31
0
  0
LINE
  8
0
 62
7
 10
7.752000000000016
 20
2.545000000000002
 30
0
 11
7.754250000000017
 21
2.557500000000002
 31
0
  0
LINE
  8
0
 62
7
 10
7.754250000000017
 20
2.557500000000002
 30
0
 11
7.756500000000016
 21
2.562500000000003
 31
0
  0
LINE
  8
0
 62
7
 10
7.756500000000016
 20
2.562500000000003
 30
0
 11
7.761000000000014
 21
2.567500000000003
 31
0
  0
LINE
  8
0
 62
7
 10
7.761000000000014
 20
2.567500000000003
 30
0
 11
7.767750000000015
 21
2.570000000000003
 31
0
  0
LINE
  8
0
 62
7
 10
7.767750000000015
 20
2.570000000000003
 30
0
 11
7.776750000000016
 21
2.570000000000003
 31
0
  0
LINE
  8
0
 62
7
 10
7.776750000000016
 20
2.570000000000003
 30
0
 11
7.783500000000015
 21
2.567500000000003
 31
0
  0
LINE
  8
0
 62
7
 10
7.783500000000015
 20
2.567500000000003
 30
0
 11
7.788000000000015
 21
2.562500000000003
 31
0
  0
LINE
  8
0
 62
7
 10
7.788000000000015
 20
2.562500000000003
 30
0
 11
7.790250000000015
 21
2.557500000000002
 31
0
  0
LINE
  8
0
 62
7
 10
7.790250000000015
 20
2.557500000000002
 30
0
 11
7.792500000000016
 21
2.545000000000002
 31
0
  0
LINE
  8
0
 62
7
 10
7.792500000000016
 20
2.545000000000002
 30
0
 11
7.794750000000015
 21
2.557500000000002
 31
0
  0
LINE
  8
0
 62
7
 10
7.794750000000015
 20
2.557500000000002
 30
0
 11
7.797000000000016
 21
2.562500000000003
 31
0
  0
LINE
  8
0
 62
7
 10
7.797000000000016
 20
2.562500000000003
 30
0
 11
7.801500000000015
 21
2.567500000000003
 31
0
  0
LINE
  8
0
 62
7
 10
7.801500000000015
 20
2.567500000000003
 30
0
 11
7.808250000000015
 21
2.570000000000003
 31
0
  0
LINE
  8
0
 62
7
 10
7.808250000000015
 20
2.570000000000003
 30
0
 11
7.817250000000015
 21
2.570000000000003
 31
0
  0
LINE
  8
0
 62
7
 10
7.817250000000015
 20
2.570000000000003
 30
0
 11
7.824000000000016
 21
2.567500000000003
 31
0
  0
LINE
  8
0
 62
7
 10
7.828500000000016
 20
2.562500000000003
 30
0
 11
7.824000000000016
 21
2.567500000000003
 31
0
  0
LINE
  8
0
 62
7
 10
7.824000000000016
 20
2.567500000000003
 30
0
 11
7.828500000000016
 21
2.562500000000003
 31
0
  0
LINE
  8
0
 62
7
 10
7.828500000000016
 20
2.562500000000003
 30
0
 11
7.830750000000016
 21
2.557500000000002
 31
0
  0
LINE
  8
0
 62
7
 10
7.830750000000016
 20
2.557500000000002
 30
0
 11
7.833000000000016
 21
2.545000000000002
 31
0
  0
LINE
  8
0
 62
7
 10
7.833000000000016
 20
2.545000000000002
 30
0
 11
7.833000000000016
 21
2.500000000000002
 31
0
  0
ARC
  8
0
 62
7
 10
6.170644264449853
 20
3.405644264449968
 30
0
 40
0.5639999999999886
 50
359.9345502792255
 51
90.06544973268078
  0
CIRCLE
  8
0
 62
7
 10
3.415000000000023
 20
3.96964389647392
 30
0
 40
0.06000000000000005
  0
DIMENSION
  8
0
  6
CONTINUOUS
 62
7
  2
*D1
  3
DMST_1
 10
7.275000000000023
 20
3.07043871986175
 30
0
 11
5.405806595320101
 21
3.07043871986175
 31
0
 12
0
 22
0
 32
0
 70
0
 13
3.515
 23
3.350000000000001
 33
0
 14
7.275000000000023
 24
3.350000000000001
 34
0
 53
0
  0
DIMENSION
  8
0
  6
CONTINUOUS
 62
7
  2
*D2
  3
DMST_1
 10
7.275000000000023
 20
5.380768573037891
 30
0
 11
5.39080445341636
 21
5.380768573037891
 31
0
 12
0
 22
0
 32
0
 70
0
 13
3.415
 23
5.029999999999998
 33
0
 14
7.275000000000023
 24
5.029999999999998
 34
0
 53
0
  0
DIMENSION
  8
0
  6
CONTINUOUS
 62
7
  2
*D3
  3
DMST_1
 10
7.79842495974788
 20
4.510000000000001
 30
0
 11
7.79842495974788
 21
3.93622603913428
 31
0
 12
0
 22
0
 32
0
 70
0
 13
7.275000000000023
 23
3.350000000000001
 33
0
 14
7.275000000000023
 24
4.510000000000001
 34
0
 50
90
 53
0
  0
DIMENSION
  8
0
  6
CONTINUOUS
 62
7
  2
*D4
  3
DMST_1
 10
3.515
 20
11.4866403278606
 30
0
 11
5.36080016960888
 21
11.4866403278606
 31
0
 12
0
 22
0
 32
0
 70
0
 13
7.275000000000023
 23
11.04999999999999
 33
0
 14
3.515
 24
11.04999999999999
 34
0
 53
0
  0
INSERT
  8
0
  2
*D0
 10
0
 20
0
 30
0
  0
ENDSEC
  0
EOF
