  0
SECTION
  2
HEADER
  9
$ACADVER
  1
AC1009
  9
$INSBASE
 10
0
 20
0
  9
$EXTMIN
 10
0.45
 20
2.890000000000002
  9
$EXTMAX
 10
8.17130893658114
 20
11.5068170503885
  9
$LIMMIN
 10
0.45
 20
2.890000000000002
  9
$LIMMAX
 10
8.17130893658114
 20
11.5068170503885
  9
$VIEWCTR
 10
10
 20
10
  9
$VIEWSIZE
 40
10
  9
$SNAPMODE
 70
0
  9
$SNAPUNIT
 10
1
 20
1
  9
$SNAPBASE
 10
0
 20
0
  9
$SNAPANG
 50
0
  9
$SNAPSTYLE
 70
0
  9
$SNAPISOPAIR
 70
0
  9
$GRIDMODE
 70
0
  9
$GRIDUNIT
 10
0
 20
0
  9
$ORTHOMODE
 70
0
  9
$REGENMODE
 70
1
  9
$FILLMODE
 70
1
  9
$QTEXTMODE
 70
0
  9
$DRAGMODE
 70
2
  9
$LTSCALE
 40
1
  9
$OSMODE
 70
0
  9
$ATTMODE
 70
1
  9
$TEXTSIZE
 40
3.5
  9
$TRACEWID
 40
0.5
  9
$TEXTSTYLE
  7
STANDARD
  9
$CLAYER
  8
0
  9
$CELTYPE
  6
BYLAYER
  9
$CECOLOR
 62
256
  9
$DIMSCALE
 40
1
  9
$DIMASZ
 40
0.18
  9
$DIMEXO
 40
0.0625
  9
$DIMDLI
 40
0.38
  9
$DIMRND
 40
0
  9
$DIMDLE
 40
0
  9
$DIMEXE
 40
0.18
  9
$DIMTP
 40
0
  9
$DIMTM
 40
0
  9
$DIMTXT
 40
0.18
  9
$DIMCEN
 40
0.09
  9
$DIMTSZ
 40
0
  9
$DIMTOL
 70
0
  9
$DIMLIM
 70
0
  9
$DIMTIH
 70
1
  9
$DIMTOH
 70
1
  9
$DIMSE1
 70
0
  9
$DIMSE2
 70
0
  9
$DIMTAD
 70
0
  9
$DIMZIN
 70
0
  9
$DIMBLK
  1

  9
$DIMASO
 70
1
  9
$DIMSHO
 70
1
  9
$DIMPOST
  1

  9
$DIMAPOST
  1

  9
$DIMALT
 70
0
  9
$DIMALTD
 70
2
  9
$DIMALTF
 40
25.4
  9
$DIMLFAC
 40
1
  9
$DIMTOFL
 70
0
  9
$DIMTVP
 40
0
  9
$DIMTIX
 70
0
  9
$DIMSOXD
 70
0
  9
$DIMSAH
 70
0
  9
$DIMBLK1
  1

  9
$DIMBLK2
  1

  9
$DIMSTYLE
  2
*UNNAMED
  9
$DIMCLRD
 70
0
  9
$DIMCLRE
 70
0
  9
$DIMCLRT
 70
0
  9
$DIMTFAC
 40
1
  9
$DIMGAP
 40
0.09
  9
$LUNITS
 70
2
  9
$LUPREC
 70
4
  9
$AXISMODE
 70
0
  9
$AXISUNIT
 10
0
 20
0
  9
$SKETCHINC
 40
0.1
  9
$FILLETRAD
 40
2
  9
$AUNITS
 70
0
  9
$AUPREC
 70
0
  9
$MENU
  1
ACAD
  9
$ELEVATION
 40
0
  9
$THICKNESS
 40
0
  9
$VIEWDIR
 10
0
 20
0
 30
1
  9
$LIMCHECK
 70
0
  9
$BLIPMODE
 70
1
  9
$CHAMFERA
 40
0
  9
$CHAMFERB
 40
0
  9
$FASTZOOM
 70
1
  9
$SKPOLY
 70
0
  9
$ANGBASE
 50
0
  9
$ANGDIR
 70
0
  9
$PDMODE
 70
0
  9
$PDSIZE
 40
0
  9
$PLINEWID
 40
0
  9
$COORDS
 70
2
  0
ENDSEC
  0
SECTION
  2
TABLES
  0
TABLE
  2
DIMSTYLE
 70
1
  0
DIMSTYLE
  2
DMST_1
 70
0
  3

  4

  5

  6

  7

 40
1
 41
0.1
 42
0
 43
0.7
 44
0.2
 45
0
 46
0
 47
0
 48
0
140
0.1
141
0
142
0.1
143
25.4
144
1
145
0
146
1
147
0.25
 71
0
 72
0
 73
0
 74
0
 75
0
 76
0
 77
0
 78
9
170
0
171
2
172
0
173
0
174
0
175
0
176
7
177
7
178
7
  0
ENDTAB
  0
TABLE
  2
LTYPE
 70
9
  0
LTYPE
  2
CONTINUOUS
 70
64
  3
Solid line
 72
65
 73
0
 40
0
  0
LTYPE
  2
BORDER
 70
64
  3
__ __ . __ __ .
 72
65
 73
6
 40
0.3968271010047335
 49
0.1133791717156381
 49
-0.05668958585781907
 49
0.1133791717156381
 49
-0.05668958585781907
 49
0
 49
-0.05668958585781907
  0
LTYPE
  2
CENTER
 70
64
  3
____ _ ____ _
 72
65
 73
4
 40
0.4535166868625525
 49
0.2834479292890953
 49
-0.05668958585781907
 49
0.05668958585781907
 49
-0.05668958585781907
  0
LTYPE
  2
DASHDOT
 70
64
  3
__ . __ . __ .
 72
65
 73
4
 40
0.2267583434312763
 49
0.1133791717156381
 49
-0.05668958585781907
 49
0
 49
-0.05668958585781907
  0
LTYPE
  2
DASHED
 70
64
  3
__ __ __ __ __
 72
65
 73
2
 40
0.1700687575734572
 49
0.1133791717156381
 49
-0.05668958585781907
  0
LTYPE
  2
DIVIDE
 70
64
  3
__ . . __ . . 
 72
65
 73
6
 40
0.2834479292890953
 49
0.1133791717156381
 49
-0.05668958585781907
 49
0
 49
-0.05668958585781907
 49
0
 49
-0.05668958585781907
  0
LTYPE
  2
DOT
 70
64
  3
..............
 72
65
 73
4
 40
0.1133791717156381
 49
0
 49
-0.05668958585781907
 49
0
 49
-0.05668958585781907
  0
LTYPE
  2
HIDDEN
 70
64
  3
_ _ _ _ _ _ _
 72
65
 73
2
 40
0.08503437878672859
 49
0.05668958585781907
 49
-0.02834479292890953
  0
LTYPE
  2
PHANTOM
 70
64
  3
_____ _ _ _____ _ _ 
 72
65
 73
6
 40
0.5668958585781907
 49
0.2834479292890953
 49
-0.05668958585781907
 49
0.05668958585781907
 49
-0.05668958585781907
 49
0.05668958585781907
 49
-0.05668958585781907
  0
ENDTAB
  0
TABLE
  2
LAYER
 70
2
  0
LAYER
  2
0
 70
0
 62
7
  6
CONTINUOUS
  0
ENDTAB
  0
TABLE
  2
STYLE
 70
4
  0
STYLE
  2
STANDARD
 70
0
 40
0
 41
1
 50
0
 71
0
 42
3.5
  3
txt
  4

  0
STYLE
  2
SIMPLEX
 70
0
 40
0
 41
1
 50
0
 71
0
 42
3.5
  3
simplex
  4

  0
STYLE
  2
COMPLEX
 70
0
 40
0
 41
1
 50
0
 71
0
 42
3.5
  3
complex
  4

  0
STYLE
  2
ITALIC
 70
0
 40
0
 41
1
 50
0
 71
0
 42
3.5
  3
italic
  4

  0
ENDTAB
  0
TABLE
  2
VIEW
 70
0
  0
ENDTAB
  0
ENDSEC
  0
SECTION
  2
BLOCKS
  0
BLOCK
  8
0
  2
*X0
 70
1
 10
0
 20
0
 30
0
  0
LINE
  8
0
 62
7
 10
3.525000000000003
 20
8.085838738653234
 30
0
 11
3.539161261346769
 21
8.1
 31
0
  0
LINE
  8
0
 62
7
 10
3.601293295702732
 20
7.949999999999998
 30
0
 11
3.700000000000003
 21
8.048706704297269
 31
0
  0
LINE
  8
0
 62
7
 10
3.525000000000004
 20
7.979772721475252
 30
0
 11
3.645227278524752
 21
8.1
 31
0
  0
ENDBLK
  8
0
  0
BLOCK
  8
0
  2
*X1
 70
1
 10
0
 20
0
 30
0
  0
LINE
  8
0
 62
7
 10
3.525000000000003
 20
10.84355518528077
 30
0
 11
3.531444814719233
 21
10.85
 31
0
  0
LINE
  8
0
 62
7
 10
3.525000000000003
 20
10.6314231509248
 30
0
 11
3.700000000000005
 21
10.8064231509248
 31
0
  0
LINE
  8
0
 62
7
 10
3.525000000000003
 20
10.41929111656884
 30
0
 11
3.700000000000005
 21
10.59429111656884
 31
0
  0
LINE
  8
0
 62
7
 10
3.525000000000003
 20
10.20715908221287
 30
0
 11
3.700000000000005
 21
10.38215908221287
 31
0
  0
LINE
  8
0
 62
7
 10
3.525000000000003
 20
9.99502704785691
 30
0
 11
3.700000000000005
 21
10.17002704785691
 31
0
  0
LINE
  8
0
 62
7
 10
3.525000000000003
 20
9.782895013500946
 30
0
 11
3.700000000000005
 21
9.957895013500945
 31
0
  0
LINE
  8
0
 62
7
 10
3.525000000000003
 20
9.570762979144982
 30
0
 11
3.700000000000005
 21
9.745762979144981
 31
0
  0
LINE
  8
0
 62
7
 10
3.525000000000003
 20
9.358630944789018
 30
0
 11
3.700000000000005
 21
9.533630944789017
 31
0
  0
LINE
  8
0
 62
7
 10
3.525000000000003
 20
9.146498910433055
 30
0
 11
3.700000000000005
 21
9.321498910433053
 31
0
  0
LINE
  8
0
 62
7
 10
3.525000000000003
 20
8.934366876077091
 30
0
 11
3.700000000000005
 21
9.10936687607709
 31
0
  0
LINE
  8
0
 62
7
 10
3.525000000000003
 20
8.722234841721127
 30
0
 11
3.700000000000005
 21
8.897234841721126
 31
0
  0
LINE
  8
0
 62
7
 10
3.525000000000003
 20
8.510102807365163
 30
0
 11
3.700000000000005
 21
8.685102807365162
 31
0
  0
LINE
  8
0
 62
7
 10
3.527029226990804
 20
8.299999999999997
 30
0
 11
3.700000000000005
 21
8.472970773009198
 31
0
  0
LINE
  8
0
 62
7
 10
3.525000000000003
 20
10.73748916810278
 30
0
 11
3.637510831897216
 21
10.85
 31
0
  0
LINE
  8
0
 62
7
 10
3.525000000000003
 20
10.52535713374682
 30
0
 11
3.700000000000006
 21
10.70035713374682
 31
0
  0
LINE
  8
0
 62
7
 10
3.525000000000003
 20
10.31322509939085
 30
0
 11
3.700000000000006
 21
10.48822509939086
 31
0
  0
LINE
  8
0
 62
7
 10
3.525000000000003
 20
10.10109306503489
 30
0
 11
3.700000000000006
 21
10.27609306503489
 31
0
  0
LINE
  8
0
 62
7
 10
3.525000000000003
 20
9.888961030678926
 30
0
 11
3.700000000000006
 21
10.06396103067893
 31
0
  0
LINE
  8
0
 62
7
 10
3.525000000000003
 20
9.676828996322962
 30
0
 11
3.700000000000006
 21
9.851828996322965
 31
0
  0
LINE
  8
0
 62
7
 10
3.525000000000003
 20
9.464696961966999
 30
0
 11
3.700000000000006
 21
9.639696961967001
 31
0
  0
LINE
  8
0
 62
7
 10
3.525000000000003
 20
9.252564927611035
 30
0
 11
3.700000000000006
 21
9.427564927611037
 31
0
  0
LINE
  8
0
 62
7
 10
3.525000000000003
 20
9.040432893255071
 30
0
 11
3.700000000000006
 21
9.215432893255073
 31
0
  0
LINE
  8
0
 62
7
 10
3.525000000000003
 20
8.828300858899107
 30
0
 11
3.700000000000006
 21
9.003300858899109
 31
0
  0
LINE
  8
0
 62
7
 10
3.525000000000003
 20
8.616168824543143
 30
0
 11
3.700000000000006
 21
8.791168824543146
 31
0
  0
LINE
  8
0
 62
7
 10
3.525000000000003
 20
8.404036790187179
 30
0
 11
3.700000000000006
 21
8.579036790187182
 31
0
  0
LINE
  8
0
 62
7
 10
3.633095244168787
 20
8.299999999999999
 30
0
 11
3.700000000000006
 21
8.366904755831218
 31
0
  0
ENDBLK
  8
0
  0
BLOCK
  8
0
  2
*X2
 70
1
 10
0
 20
0
 30
0
  0
LINE
  8
0
 62
7
 10
3.525000000000003
 20
11.05568721963673
 30
0
 11
3.66931278036327
 21
11.2
 31
0
  0
LINE
  8
0
 62
7
 10
3.525000000000004
 20
11.16175323681472
 30
0
 11
3.563246763185287
 21
11.2
 31
0
  0
LINE
  8
0
 62
7
 10
3.625378797541254
 20
11.05
 30
0
 11
3.700000000000004
 21
11.12462120245875
 31
0
  0
ENDBLK
  8
0
  0
BLOCK
  8
0
  2
*X3
 70
1
 10
0
 20
0
 30
0
  0
LINE
  8
0
 62
7
  6
DASHED
 10
3.375000000000004
 20
8.147970773009199
 30
0
 11
3.527029226990811
 21
8.299999999999999
 31
0
  0
LINE
  8
0
 62
7
  6
DASHED
 10
3.539161261346776
 20
8.1
 30
0
 11
3.739161261346776
 21
8.299999999999999
 31
0
  0
LINE
  8
0
 62
7
  6
DASHED
 10
3.75129329570274
 20
8.1
 30
0
 11
3.95129329570274
 21
8.299999999999999
 31
0
  0
LINE
  8
0
 62
7
  6
DASHED
 10
3.963425330058704
 20
8.1
 30
0
 11
4.163425330058704
 21
8.299999999999999
 31
0
  0
LINE
  8
0
 62
7
  6
DASHED
 10
4.175557364414669
 20
8.1
 30
0
 11
4.375557364414668
 21
8.299999999999999
 31
0
  0
LINE
  8
0
 62
7
  6
DASHED
 10
4.387689398770632
 20
8.1
 30
0
 11
4.587689398770632
 21
8.299999999999999
 31
0
  0
LINE
  8
0
 62
7
  6
DASHED
 10
4.599821433126596
 20
8.1
 30
0
 11
4.799821433126596
 21
8.299999999999999
 31
0
  0
LINE
  8
0
 62
7
  6
DASHED
 10
4.81195346748256
 20
8.1
 30
0
 11
5.011953467482559
 21
8.299999999999999
 31
0
  0
LINE
  8
0
 62
7
  6
DASHED
 10
5.024085501838524
 20
8.1
 30
0
 11
5.224085501838523
 21
8.299999999999999
 31
0
  0
LINE
  8
0
 62
7
  6
DASHED
 10
5.236217536194488
 20
8.1
 30
0
 11
5.436217536194487
 21
8.299999999999999
 31
0
  0
LINE
  8
0
 62
7
  6
DASHED
 10
5.448349570550452
 20
8.1
 30
0
 11
5.648349570550451
 21
8.299999999999999
 31
0
  0
LINE
  8
0
 62
7
  6
DASHED
 10
5.660481604906415
 20
8.1
 30
0
 11
5.860481604906415
 21
8.299999999999999
 31
0
  0
LINE
  8
0
 62
7
  6
DASHED
 10
5.872613639262379
 20
8.1
 30
0
 11
6.072613639262379
 21
8.299999999999999
 31
0
  0
LINE
  8
0
 62
7
  6
DASHED
 10
6.084745673618343
 20
8.1
 30
0
 11
6.284745673618342
 21
8.299999999999999
 31
0
  0
LINE
  8
0
 62
7
  6
DASHED
 10
6.296877707974307
 20
8.1
 30
0
 11
6.496877707974306
 21
8.299999999999999
 31
0
  0
LINE
  8
0
 62
7
  6
DASHED
 10
6.509009742330271
 20
8.1
 30
0
 11
6.70900974233027
 21
8.299999999999999
 31
0
  0
LINE
  8
0
 62
7
  6
DASHED
 10
6.721141776686235
 20
8.1
 30
0
 11
6.921141776686234
 21
8.299999999999999
 31
0
  0
LINE
  8
0
 62
7
  6
DASHED
 10
6.933273811042199
 20
8.1
 30
0
 11
7.133273811042198
 21
8.299999999999999
 31
0
  0
LINE
  8
0
 62
7
  6
DASHED
 10
7.145405845398162
 20
8.1
 30
0
 11
7.345405845398162
 21
8.299999999999999
 31
0
  0
LINE
  8
0
 62
7
  6
DASHED
 10
7.357537879754126
 20
8.1
 30
0
 11
7.557537879754125
 21
8.299999999999999
 31
0
  0
LINE
  8
0
 62
7
  6
DASHED
 10
7.56966991411009
 20
8.1
 30
0
 11
7.600000000000012
 21
8.130330085889922
 31
0
  0
LINE
  8
0
 62
7
 10
3.375000000000005
 20
8.254036790187183
 30
0
 11
3.420963209812829
 21
8.299999999999999
 31
0
  0
LINE
  8
0
 62
7
 10
3.433095244168794
 20
8.1
 30
0
 11
3.633095244168794
 21
8.299999999999999
 31
0
  0
LINE
  8
0
 62
7
 10
3.645227278524758
 20
8.1
 30
0
 11
3.845227278524758
 21
8.299999999999999
 31
0
  0
LINE
  8
0
 62
7
 10
3.857359312880722
 20
8.1
 30
0
 11
4.057359312880722
 21
8.299999999999999
 31
0
  0
LINE
  8
0
 62
7
 10
4.069491347236687
 20
8.1
 30
0
 11
4.269491347236686
 21
8.299999999999999
 31
0
  0
LINE
  8
0
 62
7
 10
4.281623381592651
 20
8.1
 30
0
 11
4.48162338159265
 21
8.299999999999999
 31
0
  0
LINE
  8
0
 62
7
 10
4.493755415948614
 20
8.1
 30
0
 11
4.693755415948614
 21
8.299999999999999
 31
0
  0
LINE
  8
0
 62
7
 10
4.705887450304578
 20
8.1
 30
0
 11
4.905887450304578
 21
8.299999999999999
 31
0
  0
LINE
  8
0
 62
7
 10
4.918019484660542
 20
8.1
 30
0
 11
5.118019484660541
 21
8.299999999999999
 31
0
  0
LINE
  8
0
 62
7
 10
5.130151519016506
 20
8.1
 30
0
 11
5.330151519016505
 21
8.299999999999999
 31
0
  0
LINE
  8
0
 62
7
 10
5.34228355337247
 20
8.1
 30
0
 11
5.542283553372469
 21
8.299999999999999
 31
0
  0
LINE
  8
0
 62
7
 10
5.554415587728434
 20
8.1
 30
0
 11
5.754415587728433
 21
8.299999999999999
 31
0
  0
LINE
  8
0
 62
7
 10
5.766547622084397
 20
8.1
 30
0
 11
5.966547622084397
 21
8.299999999999999
 31
0
  0
LINE
  8
0
 62
7
 10
5.978679656440361
 20
8.1
 30
0
 11
6.178679656440361
 21
8.299999999999999
 31
0
  0
LINE
  8
0
 62
7
 10
6.190811690796325
 20
8.1
 30
0
 11
6.390811690796324
 21
8.299999999999999
 31
0
  0
LINE
  8
0
 62
7
 10
6.402943725152289
 20
8.1
 30
0
 11
6.602943725152288
 21
8.299999999999999
 31
0
  0
LINE
  8
0
 62
7
 10
6.615075759508253
 20
8.1
 30
0
 11
6.815075759508252
 21
8.299999999999999
 31
0
  0
LINE
  8
0
 62
7
 10
6.827207793864217
 20
8.1
 30
0
 11
7.027207793864216
 21
8.299999999999999
 31
0
  0
LINE
  8
0
 62
7
 10
7.03933982822018
 20
8.1
 30
0
 11
7.23933982822018
 21
8.299999999999999
 31
0
  0
LINE
  8
0
 62
7
 10
7.251471862576144
 20
8.1
 30
0
 11
7.451471862576144
 21
8.299999999999999
 31
0
  0
LINE
  8
0
 62
7
 10
7.463603896932108
 20
8.1
 30
0
 11
7.600000000000011
 21
8.236396103067904
 31
0
  0
ENDBLK
  8
0
  0
BLOCK
  8
0
  2
*X4
 70
1
 10
0
 20
0
 30
0
  0
LINE
  8
0
 62
7
  6
DASHED
 10
3.375000000000004
 20
10.90568721963673
 30
0
 11
3.519312780363279
 21
11.05
 31
0
  0
LINE
  8
0
 62
7
  6
DASHED
 10
3.531444814719242
 20
10.85
 30
0
 11
3.731444814719243
 21
11.05
 31
0
  0
LINE
  8
0
 62
7
  6
DASHED
 10
3.743576849075207
 20
10.85
 30
0
 11
3.943576849075207
 21
11.05
 31
0
  0
LINE
  8
0
 62
7
  6
DASHED
 10
3.955708883431171
 20
10.85
 30
0
 11
4.155708883431172
 21
11.05
 31
0
  0
LINE
  8
0
 62
7
  6
DASHED
 10
4.167840917787135
 20
10.85
 30
0
 11
4.367840917787135
 21
11.05
 31
0
  0
LINE
  8
0
 62
7
  6
DASHED
 10
4.379972952143099
 20
10.85
 30
0
 11
4.579972952143099
 21
11.05
 31
0
  0
LINE
  8
0
 62
7
  6
DASHED
 10
4.592104986499063
 20
10.85
 30
0
 11
4.792104986499063
 21
11.05
 31
0
  0
LINE
  8
0
 62
7
  6
DASHED
 10
4.804237020855027
 20
10.85
 30
0
 11
5.004237020855027
 21
11.05
 31
0
  0
LINE
  8
0
 62
7
  6
DASHED
 10
5.016369055210991
 20
10.85
 30
0
 11
5.216369055210991
 21
11.05
 31
0
  0
LINE
  8
0
 62
7
  6
DASHED
 10
5.228501089566954
 20
10.85
 30
0
 11
5.428501089566955
 21
11.05
 31
0
  0
LINE
  8
0
 62
7
  6
DASHED
 10
5.440633123922918
 20
10.85
 30
0
 11
5.640633123922918
 21
11.05
 31
0
  0
LINE
  8
0
 62
7
  6
DASHED
 10
5.652765158278882
 20
10.85
 30
0
 11
5.852765158278882
 21
11.05
 31
0
  0
LINE
  8
0
 62
7
  6
DASHED
 10
5.864897192634846
 20
10.85
 30
0
 11
6.064897192634846
 21
11.05
 31
0
  0
LINE
  8
0
 62
7
  6
DASHED
 10
6.07702922699081
 20
10.85
 30
0
 11
6.27702922699081
 21
11.05
 31
0
  0
LINE
  8
0
 62
7
  6
DASHED
 10
6.289161261346774
 20
10.85
 30
0
 11
6.489161261346774
 21
11.05
 31
0
  0
LINE
  8
0
 62
7
  6
DASHED
 10
6.501293295702737
 20
10.85
 30
0
 11
6.701293295702738
 21
11.05
 31
0
  0
LINE
  8
0
 62
7
  6
DASHED
 10
6.713425330058701
 20
10.85
 30
0
 11
6.913425330058701
 21
11.05
 31
0
  0
LINE
  8
0
 62
7
  6
DASHED
 10
6.925557364414665
 20
10.85
 30
0
 11
7.125557364414665
 21
11.05
 31
0
  0
LINE
  8
0
 62
7
  6
DASHED
 10
7.137689398770629
 20
10.85
 30
0
 11
7.337689398770629
 21
11.05
 31
0
  0
LINE
  8
0
 62
7
  6
DASHED
 10
7.349821433126593
 20
10.85
 30
0
 11
7.549821433126593
 21
11.05
 31
0
  0
LINE
  8
0
 62
7
  6
DASHED
 10
7.561953467482557
 20
10.85
 30
0
 11
7.60000000000001
 21
10.88804653251745
 31
0
  0
LINE
  8
0
 62
7
 10
3.375000000000002
 20
11.01175323681471
 30
0
 11
3.413246763185296
 21
11.05
 31
0
  0
LINE
  8
0
 62
7
 10
3.425378797541259
 20
10.85
 30
0
 11
3.62537879754126
 21
11.05
 31
0
  0
LINE
  8
0
 62
7
 10
3.637510831897223
 20
10.85
 30
0
 11
3.837510831897224
 21
11.05
 31
0
  0
LINE
  8
0
 62
7
 10
3.849642866253187
 20
10.85
 30
0
 11
4.049642866253189
 21
11.05
 31
0
  0
LINE
  8
0
 62
7
 10
4.061774900609151
 20
10.85
 30
0
 11
4.261774900609153
 21
11.05
 31
0
  0
LINE
  8
0
 62
7
 10
4.273906934965115
 20
10.85
 30
0
 11
4.473906934965116
 21
11.05
 31
0
  0
LINE
  8
0
 62
7
 10
4.486038969321079
 20
10.85
 30
0
 11
4.68603896932108
 21
11.05
 31
0
  0
LINE
  8
0
 62
7
 10
4.698171003677043
 20
10.85
 30
0
 11
4.898171003677044
 21
11.05
 31
0
  0
LINE
  8
0
 62
7
 10
4.910303038033007
 20
10.85
 30
0
 11
5.110303038033008
 21
11.05
 31
0
  0
LINE
  8
0
 62
7
 10
5.122435072388971
 20
10.85
 30
0
 11
5.322435072388972
 21
11.05
 31
0
  0
LINE
  8
0
 62
7
 10
5.334567106744935
 20
10.85
 30
0
 11
5.534567106744936
 21
11.05
 31
0
  0
LINE
  8
0
 62
7
 10
5.546699141100898
 20
10.85
 30
0
 11
5.746699141100899
 21
11.05
 31
0
  0
LINE
  8
0
 62
7
 10
5.758831175456862
 20
10.85
 30
0
 11
5.958831175456863
 21
11.05
 31
0
  0
LINE
  8
0
 62
7
 10
5.970963209812826
 20
10.85
 30
0
 11
6.170963209812827
 21
11.05
 31
0
  0
LINE
  8
0
 62
7
 10
6.18309524416879
 20
10.85
 30
0
 11
6.383095244168791
 21
11.05
 31
0
  0
LINE
  8
0
 62
7
 10
6.395227278524754
 20
10.85
 30
0
 11
6.595227278524755
 21
11.05
 31
0
  0
LINE
  8
0
 62
7
 10
6.607359312880718
 20
10.85
 30
0
 11
6.807359312880719
 21
11.05
 31
0
  0
LINE
  8
0
 62
7
 10
6.819491347236681
 20
10.85
 30
0
 11
7.019491347236682
 21
11.05
 31
0
  0
LINE
  8
0
 62
7
 10
7.031623381592645
 20
10.85
 30
0
 11
7.231623381592646
 21
11.05
 31
0
  0
LINE
  8
0
 62
7
 10
7.243755415948609
 20
10.85
 30
0
 11
7.44375541594861
 21
11.05
 31
0
  0
LINE
  8
0
 62
7
 10
7.455887450304573
 20
10.85
 30
0
 11
7.60000000000001
 21
10.99411254969544
 31
0
  0
ENDBLK
  8
0
  0
BLOCK
  8
0
  2
*X5
 70
1
 10
0
 20
0
 30
0
  0
LINE
  8
0
 62
7
 10
0.4999999999999991
 20
8.030687219636729
 30
0
 11
0.5693127803632692
 21
8.1
 31
0
  0
LINE
  8
0
 62
7
 10
0.6314448147192331
 20
7.949999999999999
 30
0
 11
0.7399999999999989
 21
8.058555185280763
 31
0
  0
LINE
  8
0
 62
7
 10
0.5253787975412521
 20
7.949999999999999
 30
0
 11
0.6753787975412515
 21
8.099999999999998
 31
0
  0
LINE
  8
0
 62
7
 10
0.7375108318972163
 20
7.949999999999999
 30
0
 11
0.7400000000000002
 21
7.952489168102783
 31
0
  0
ENDBLK
  8
0
  0
BLOCK
  8
0
  2
*X6
 70
1
 10
0
 20
0
 30
0
  0
LINE
  8
0
 62
7
 10
0.5000000000000004
 20
10.78840366626426
 30
0
 11
0.5615963337357339
 21
10.85
 31
0
  0
LINE
  8
0
 62
7
 10
0.5000000000000004
 20
10.5762716319083
 30
0
 11
0.7400000000000002
 21
10.8162716319083
 31
0
  0
LINE
  8
0
 62
7
 10
0.5000000000000004
 20
10.36413959755233
 30
0
 11
0.7400000000000002
 21
10.60413959755233
 31
0
  0
LINE
  8
0
 62
7
 10
0.5000000000000004
 20
10.15200756319637
 30
0
 11
0.7400000000000002
 21
10.39200756319637
 31
0
  0
LINE
  8
0
 62
7
 10
0.5000000000000004
 20
9.939875528840407
 30
0
 11
0.7400000000000002
 21
10.17987552884041
 31
0
  0
LINE
  8
0
 62
7
 10
0.5000000000000004
 20
9.727743494484443
 30
0
 11
0.7400000000000002
 21
9.967743494484441
 31
0
  0
LINE
  8
0
 62
7
 10
0.5000000000000004
 20
9.515611460128479
 30
0
 11
0.7400000000000002
 21
9.755611460128478
 31
0
  0
LINE
  8
0
 62
7
 10
0.5000000000000004
 20
9.303479425772515
 30
0
 11
0.7400000000000002
 21
9.543479425772514
 31
0
  0
LINE
  8
0
 62
7
 10
0.5000000000000004
 20
9.091347391416551
 30
0
 11
0.7400000000000002
 21
9.33134739141655
 31
0
  0
LINE
  8
0
 62
7
 10
0.5000000000000004
 20
8.879215357060588
 30
0
 11
0.7400000000000002
 21
9.119215357060586
 31
0
  0
LINE
  8
0
 62
7
 10
0.5000000000000004
 20
8.667083322704624
 30
0
 11
0.7400000000000002
 21
8.907083322704622
 31
0
  0
LINE
  8
0
 62
7
 10
0.5000000000000004
 20
8.45495128834866
 30
0
 11
0.7400000000000002
 21
8.694951288348658
 31
0
  0
LINE
  8
0
 62
7
 10
0.5571807460073046
 20
8.299999999999999
 30
0
 11
0.7400000000000002
 21
8.482819253992695
 31
0
  0
LINE
  8
0
 62
7
 10
0.5
 20
10.68233764908628
 30
0
 11
0.6676623509137176
 21
10.85
 31
0
  0
LINE
  8
0
 62
7
 10
0.5
 20
10.47020561473031
 30
0
 11
0.7399999999999998
 21
10.71020561473031
 31
0
  0
LINE
  8
0
 62
7
 10
0.5
 20
10.25807358037435
 30
0
 11
0.7399999999999998
 21
10.49807358037435
 31
0
  0
LINE
  8
0
 62
7
 10
0.5
 20
10.04594154601839
 30
0
 11
0.7399999999999998
 21
10.28594154601839
 31
0
  0
LINE
  8
0
 62
7
 10
0.5
 20
9.833809511662423
 30
0
 11
0.7399999999999998
 21
10.07380951166242
 31
0
  0
LINE
  8
0
 62
7
 10
0.5
 20
9.621677477306459
 30
0
 11
0.7399999999999998
 21
9.861677477306458
 31
0
  0
LINE
  8
0
 62
7
 10
0.5
 20
9.409545442950495
 30
0
 11
0.7399999999999998
 21
9.649545442950494
 31
0
  0
LINE
  8
0
 62
7
 10
0.5
 20
9.197413408594532
 30
0
 11
0.7399999999999998
 21
9.43741340859453
 31
0
  0
LINE
  8
0
 62
7
 10
0.5
 20
8.985281374238568
 30
0
 11
0.7399999999999998
 21
9.225281374238566
 31
0
  0
LINE
  8
0
 62
7
 10
0.5
 20
8.773149339882604
 30
0
 11
0.7399999999999998
 21
9.013149339882602
 31
0
  0
LINE
  8
0
 62
7
 10
0.5
 20
8.56101730552664
 30
0
 11
0.7399999999999998
 21
8.801017305526639
 31
0
  0
LINE
  8
0
 62
7
 10
0.5
 20
8.348885271170676
 30
0
 11
0.7399999999999998
 21
8.588885271170675
 31
0
  0
LINE
  8
0
 62
7
 10
0.6632467631852879
 20
8.299999999999999
 30
0
 11
0.7399999999999998
 21
8.376753236814711
 31
0
  0
ENDBLK
  8
0
  0
BLOCK
  8
0
  2
*X7
 70
1
 10
0
 20
0
 30
0
  0
LINE
  8
0
 62
7
 10
0.549464299379772
 20
11.05
 30
0
 11
0.6994642993797706
 21
11.2
 31
0
  0
LINE
  8
0
 62
7
 10
0.5
 20
11.10660171779821
 30
0
 11
0.5933982822017896
 21
11.2
 31
0
  0
LINE
  8
0
 62
7
 10
0.655530316557754
 20
11.05
 30
0
 11
0.7400000000000002
 21
11.13446968344225
 31
0
  0
ENDBLK
  8
0
  0
BLOCK
  8
0
  2
*X8
 70
1
 10
0
 20
0
 30
0
  0
LINE
  8
0
 62
7
  6
DASHED
 10
1.9
 20
8.157895013500944
 30
0
 11
2.042104986499055
 21
8.299999999999999
 31
0
  0
LINE
  8
0
 62
7
  6
DASHED
 10
2.05423702085502
 20
8.1
 30
0
 11
2.200000000000001
 21
8.245762979144981
 31
0
  0
LINE
  8
0
 62
7
 10
1.9
 20
8.263961030678926
 30
0
 11
1.936038969321072
 21
8.299999999999999
 31
0
  0
LINE
  8
0
 62
7
 10
1.948171003677038
 20
8.1
 30
0
 11
2.148171003677037
 21
8.299999999999999
 31
0
  0
LINE
  8
0
 62
7
 10
2.160303038033002
 20
8.1
 30
0
 11
2.2
 21
8.139696961966997
 31
0
  0
ENDBLK
  8
0
  0
BLOCK
  8
0
  2
*X9
 70
1
 10
0
 20
0
 30
0
  0
LINE
  8
0
 62
7
  6
DASHED
 10
1.9
 20
10.91561146012848
 30
0
 11
2.034388539871522
 21
11.05
 31
0
  0
LINE
  8
0
 62
7
  6
DASHED
 10
2.046520574227484
 20
10.85
 30
0
 11
2.2
 21
11.00347942577251
 31
0
  0
LINE
  8
0
 62
7
 10
1.9
 20
11.02167747730646
 30
0
 11
1.92832252269354
 21
11.05
 31
0
  0
LINE
  8
0
 62
7
 10
1.940454557049503
 20
10.85
 30
0
 11
2.140454557049504
 21
11.05
 31
0
  0
LINE
  8
0
 62
7
 10
2.152586591405467
 20
10.85
 30
0
 11
2.199999999999999
 21
10.89741340859453
 31
0
  0
ENDBLK
  8
0
  0
BLOCK
  8
0
  2
*X10
 70
1
 10
0
 20
0
 30
0
  0
LINE
  8
0
 62
7
  6
DASHED
 10
0.4999999999999991
 20
11.00053570062023
 30
0
 11
0.5494642993797729
 21
11.05
 31
0
  0
LINE
  8
0
 62
7
  6
DASHED
 10
0.5615963337357357
 20
10.85
 30
0
 11
0.7399999999999993
 21
11.02840366626426
 31
0
  0
LINE
  8
0
 62
7
 10
0.5000000000000009
 20
10.89446968344225
 30
0
 11
0.655530316557754
 21
11.05
 31
0
  0
LINE
  8
0
 62
7
 10
0.6676623509137176
 20
10.85
 30
0
 11
0.7400000000000002
 21
10.92233764908628
 31
0
  0
ENDBLK
  8
0
  0
BLOCK
  8
0
  2
*X11
 70
1
 10
0
 20
0
 30
0
  0
LINE
  8
0
 62
7
  6
DASHED
 10
0.5
 20
8.242819253992694
 30
0
 11
0.5571807460073046
 21
8.299999999999999
 31
0
  0
LINE
  8
0
 62
7
  6
DASHED
 10
0.5693127803632705
 20
8.100000000000001
 30
0
 11
0.7399999999999998
 21
8.270687219636729
 31
0
  0
LINE
  8
0
 62
7
 10
0.5
 20
8.136753236814712
 30
0
 11
0.6632467631852874
 21
8.299999999999999
 31
0
  0
LINE
  8
0
 62
7
 10
0.6753787975412515
 20
8.099999999999998
 30
0
 11
0.7399999999999998
 21
8.164621202458747
 31
0
  0
ENDBLK
  8
0
  0
BLOCK
  8
0
  2
*X12
 70
1
 10
0
 20
0
 30
0
  0
LINE
  8
0
 62
7
 10
3.525000000000005
 20
5.009924240491754
 30
0
 11
3.695075759508251
 21
5.18
 31
0
  0
LINE
  8
0
 62
7
 10
3.525000000000005
 20
4.79779220613579
 30
0
 11
3.757207793864219
 21
5.029999999999998
 31
0
  0
LINE
  8
0
 62
7
 10
3.729339828220189
 20
4.790000000000003
 30
0
 11
3.969339828220183
 21
5.029999999999998
 31
0
  0
LINE
  8
0
 62
7
 10
3.941471862576153
 20
4.790000000000003
 30
0
 11
4.181471862576148
 21
5.029999999999998
 31
0
  0
LINE
  8
0
 62
7
 10
4.153603896932117
 20
4.790000000000003
 30
0
 11
4.393603896932111
 21
5.029999999999998
 31
0
  0
LINE
  8
0
 62
7
 10
4.365735931288081
 20
4.790000000000003
 30
0
 11
4.605735931288075
 21
5.029999999999998
 31
0
  0
LINE
  8
0
 62
7
 10
4.577867965644045
 20
4.790000000000003
 30
0
 11
4.817867965644039
 21
5.029999999999998
 31
0
  0
LINE
  8
0
 62
7
 10
4.790000000000009
 20
4.790000000000003
 30
0
 11
5.030000000000003
 21
5.029999999999998
 31
0
  0
LINE
  8
0
 62
7
 10
5.002132034355973
 20
4.790000000000003
 30
0
 11
5.242132034355967
 21
5.029999999999998
 31
0
  0
LINE
  8
0
 62
7
 10
5.214264068711937
 20
4.790000000000003
 30
0
 11
5.454264068711931
 21
5.029999999999998
 31
0
  0
LINE
  8
0
 62
7
 10
5.4263961030679
 20
4.790000000000003
 30
0
 11
5.666396103067894
 21
5.029999999999998
 31
0
  0
LINE
  8
0
 62
7
 10
5.638528137423864
 20
4.790000000000003
 30
0
 11
5.878528137423858
 21
5.029999999999998
 31
0
  0
LINE
  8
0
 62
7
 10
5.850660171779828
 20
4.790000000000003
 30
0
 11
6.090660171779822
 21
5.029999999999998
 31
0
  0
LINE
  8
0
 62
7
 10
6.062792206135792
 20
4.790000000000003
 30
0
 11
6.302792206135786
 21
5.029999999999998
 31
0
  0
LINE
  8
0
 62
7
 10
6.274924240491756
 20
4.790000000000003
 30
0
 11
6.51492424049175
 21
5.029999999999998
 31
0
  0
LINE
  8
0
 62
7
 10
6.48705627484772
 20
4.790000000000003
 30
0
 11
6.727056274847714
 21
5.029999999999998
 31
0
  0
LINE
  8
0
 62
7
 10
6.699188309203683
 20
4.790000000000003
 30
0
 11
6.939188309203677
 21
5.029999999999998
 31
0
  0
LINE
  8
0
 62
7
 10
6.911320343559647
 20
4.790000000000003
 30
0
 11
7.151320343559641
 21
5.029999999999998
 31
0
  0
LINE
  8
0
 62
7
 10
7.123452377915611
 20
4.790000000000003
 30
0
 11
7.363452377915605
 21
5.029999999999998
 31
0
  0
LINE
  8
0
 62
7
 10
7.335584412271575
 20
4.790000000000003
 30
0
 11
7.575584412271569
 21
5.029999999999998
 31
0
  0
LINE
  8
0
 62
7
 10
7.547716446627539
 20
4.790000000000003
 30
0
 11
7.600000000000011
 21
4.842283553372475
 31
0
  0
ENDBLK
  8
0
  0
BLOCK
  8
0
  2
*X13
 70
1
 10
0
 20
0
 30
0
  0
LINE
  8
0
 62
7
 10
3.525000000000003
 20
4.585660171779824
 30
0
 11
3.689339828220187
 21
4.750000000000001
 31
0
  0
LINE
  8
0
 62
7
 10
3.525000000000003
 20
4.37352813742386
 30
0
 11
3.901471862576151
 21
4.750000000000001
 31
0
  0
LINE
  8
0
 62
7
 10
3.873603896932114
 20
4.51
 30
0
 11
4.113603896932116
 21
4.750000000000001
 31
0
  0
LINE
  8
0
 62
7
 10
3.525000000000003
 20
4.161396103067896
 30
0
 11
3.700000000000004
 21
4.336396103067896
 31
0
  0
LINE
  8
0
 62
7
 10
4.085735931288078
 20
4.51
 30
0
 11
4.325735931288079
 21
4.750000000000001
 31
0
  0
LINE
  8
0
 62
7
 10
3.525000000000003
 20
3.949264068711932
 30
0
 11
3.700000000000002
 21
4.12426406871193
 31
0
  0
LINE
  8
0
 62
7
 10
4.297867965644042
 20
4.51
 30
0
 11
4.537867965644043
 21
4.750000000000001
 31
0
  0
LINE
  8
0
 62
7
 10
3.525000000000003
 20
3.737132034355968
 30
0
 11
3.699999999999999
 21
3.912132034355964
 31
0
  0
LINE
  8
0
 62
7
 10
4.510000000000006
 20
4.51
 30
0
 11
4.750000000000007
 21
4.750000000000001
 31
0
  0
LINE
  8
0
 62
7
 10
3.525000000000003
 20
3.525000000000003
 30
0
 11
3.699999999999997
 21
3.699999999999997
 31
0
  0
LINE
  8
0
 62
7
 10
4.72213203435597
 20
4.51
 30
0
 11
4.962132034355971
 21
4.750000000000001
 31
0
  0
LINE
  8
0
 62
7
 10
3.525000000000003
 20
3.312867965644039
 30
0
 11
3.699999999999995
 21
3.487867965644031
 31
0
  0
LINE
  8
0
 62
7
 10
4.934264068711934
 20
4.51
 30
0
 11
5.174264068711935
 21
4.750000000000001
 31
0
  0
LINE
  8
0
 62
7
 10
3.674264068711931
 20
3.250000000000002
 30
0
 11
3.700000000000002
 21
3.275735931288073
 31
0
  0
LINE
  8
0
 62
7
 10
5.146396103067898
 20
4.51
 30
0
 11
5.386396103067899
 21
4.750000000000001
 31
0
  0
LINE
  8
0
 62
7
 10
5.358528137423861
 20
4.51
 30
0
 11
5.598528137423862
 21
4.750000000000001
 31
0
  0
LINE
  8
0
 62
7
 10
5.570660171779825
 20
4.51
 30
0
 11
5.810660171779826
 21
4.750000000000001
 31
0
  0
LINE
  8
0
 62
7
 10
5.782792206135789
 20
4.51
 30
0
 11
6.02279220613579
 21
4.750000000000001
 31
0
  0
LINE
  8
0
 62
7
 10
5.994924240491753
 20
4.51
 30
0
 11
6.234924240491754
 21
4.750000000000001
 31
0
  0
LINE
  8
0
 62
7
 10
6.207056274847717
 20
4.51
 30
0
 11
6.447056274847718
 21
4.750000000000001
 31
0
  0
LINE
  8
0
 62
7
 10
6.419188309203681
 20
4.51
 30
0
 11
6.659188309203682
 21
4.750000000000001
 31
0
  0
LINE
  8
0
 62
7
 10
6.631320343559644
 20
4.51
 30
0
 11
6.871320343559645
 21
4.750000000000001
 31
0
  0
LINE
  8
0
 62
7
 10
6.843452377915608
 20
4.51
 30
0
 11
7.083452377915609
 21
4.750000000000001
 31
0
  0
LINE
  8
0
 62
7
 10
7.055584412271572
 20
4.51
 30
0
 11
7.295584412271573
 21
4.750000000000001
 31
0
  0
LINE
  8
0
 62
7
 10
7.267716446627536
 20
4.51
 30
0
 11
7.507716446627537
 21
4.750000000000001
 31
0
  0
LINE
  8
0
 62
7
 10
7.479848480983501
 20
4.510000000000001
 30
0
 11
7.600000000000009
 21
4.630151519016509
 31
0
  0
ENDBLK
  8
0
  0
BLOCK
  8
0
  2
*D0
 70
1
 10
0
 20
0
 30
0
  0
LINE
  8
0
 62
7
 10
8.041308936581141
 20
10.2839052857241
 30
0
 11
8.041308936581141
 21
11.05
 31
0
  0
LINE
  8
0
 62
7
 10
8.041308936581141
 20
8.299999999999999
 30
0
 11
8.041308936581141
 21
9.203905285724099
 31
0
  0
LINE
  8
0
 62
7
 10
7.60000000000001
 20
11.05
 30
0
 11
8.091308936581141
 21
11.05
 31
0
  0
LINE
  8
0
 62
7
 10
7.60000000000001
 20
8.299999999999999
 30
0
 11
8.091308936581141
 21
8.299999999999999
 31
0
  0
LINE
  8
0
 62
7
 10
8.005953597521813
 20
8.335355339059326
 30
0
 11
8.076664275640468
 21
8.264644660940672
 31
0
  0
LINE
  8
0
 62
7
 10
8.076664275640468
 20
11.01464466094067
 30
0
 11
8.005953597521813
 21
11.08535533905933
 31
0
  0
TEXT
  8
0
 62
7
 10
8.011308936581141
 20
9.606405285724101
 30
0
 40
0.1
  1
2,75
 50
90
 41
0.9
  0
TEXT
  8
0
 62
7
 10
8.171308936581141
 20
9.4039052857241
 30
0
 40
0.1
  1
(260-280)
 50
90
 41
0.9
  0
ENDBLK
  8
0
  0
BLOCK
  8
0
  2
*D1
 70
1
 10
0
 20
0
 30
0
  0
LINE
  8
0
 62
7
 10
3.29976368782754
 20
4.276063656906691
 30
0
 11
3.29976368782754
 21
4.510000000000001
 31
0
  0
LINE
  8
0
 62
7
 10
3.29976368782754
 20
3.250000000000002
 30
0
 11
3.29976368782754
 21
3.53106365690669
 31
0
  0
LINE
  8
0
 62
7
 10
3.700000000000006
 20
4.510000000000001
 30
0
 11
3.24976368782754
 21
4.510000000000001
 31
0
  0
LINE
  8
0
 62
7
 10
3.700000000000004
 20
3.250000000000002
 30
0
 11
3.24976368782754
 21
3.250000000000002
 31
0
  0
LINE
  8
0
 62
7
 10
3.335119026886867
 20
4.474644660940673
 30
0
 11
3.264408348768213
 21
4.545355339059328
 31
0
  0
LINE
  8
0
 62
7
 10
3.264408348768213
 20
3.285355339059329
 30
0
 11
3.335119026886867
 21
3.214644660940674
 31
0
  0
TEXT
  8
0
 62
7
 10
3.34476368782754
 20
3.78106365690669
 30
0
 40
0.1
  1
1,26
 50
90
 41
0.9
  0
ENDBLK
  8
0
  0
BLOCK
  8
0
  2
*D2
 70
1
 10
0
 20
0
 30
0
  0
LINE
  8
0
 62
7
 10
7.754666402651451
 20
4.26106365690669
 30
0
 11
7.754666402651451
 21
4.510000000000001
 31
0
  0
LINE
  8
0
 62
7
 10
7.754666402651451
 20
3.350000000000002
 30
0
 11
7.754666402651451
 21
3.54606365690669
 31
0
  0
LINE
  8
0
 62
7
 10
7.46000000000001
 20
4.510000000000001
 30
0
 11
7.804666402651451
 21
4.510000000000001
 31
0
  0
LINE
  8
0
 62
7
 10
7.46000000000001
 20
3.350000000000002
 30
0
 11
7.804666402651451
 21
3.350000000000002
 31
0
  0
LINE
  8
0
 62
7
 10
7.790021741710778
 20
4.474644660940673
 30
0
 11
7.719311063592124
 21
4.545355339059328
 31
0
  0
LINE
  8
0
 62
7
 10
7.719311063592124
 20
3.385355339059329
 30
0
 11
7.790021741710778
 21
3.314644660940675
 31
0
  0
TEXT
  8
0
 62
7
 10
7.799666402651451
 20
3.79606365690669
 30
0
 40
0.1
  1
1,16
 50
90
 41
0.9
  0
ENDBLK
  8
0
  0
BLOCK
  8
0
  2
*D3
 70
1
 10
0
 20
0
 30
0
  0
LINE
  8
0
 62
7
 10
6.01623427600626
 20
5.3606632043826
 30
0
 11
7.46000000000001
 21
5.3606632043826
 31
0
  0
LINE
  8
0
 62
7
 10
3.700000000000006
 20
5.3606632043826
 30
0
 11
5.24123427600626
 21
5.3606632043826
 31
0
  0
LINE
  8
0
 62
7
 10
7.46000000000001
 20
4.510000000000001
 30
0
 11
7.46000000000001
 21
5.4106632043826
 31
0
  0
LINE
  8
0
 62
7
 10
3.700000000000006
 20
4.510000000000001
 30
0
 11
3.700000000000006
 21
5.4106632043826
 31
0
  0
LINE
  8
0
 62
7
 10
7.424644660940682
 20
5.325307865323273
 30
0
 11
7.495355339059337
 21
5.396018543441928
 31
0
  0
LINE
  8
0
 62
7
 10
3.735355339059334
 20
5.396018543441928
 30
0
 11
3.664644660940679
 21
5.325307865323273
 31
0
  0
TEXT
  8
0
 62
7
 10
5.49123427600626
 20
5.3156632043826
 30
0
 40
0.1
  1
3,76
 41
0.9
  0
ENDBLK
  8
0
  0
BLOCK
  8
0
  2
*D4
 70
1
 10
0
 20
0
 30
0
  0
LINE
  8
0
 62
7
 10
5.95651708143758
 20
11.4518170503885
 30
0
 11
7.46000000000001
 21
11.4518170503885
 31
0
  0
LINE
  8
0
 62
7
 10
3.700000000000004
 20
11.4518170503885
 30
0
 11
5.18151708143758
 21
11.4518170503885
 31
0
  0
LINE
  8
0
 62
7
 10
7.46000000000001
 20
11.05
 30
0
 11
7.46000000000001
 21
11.5018170503885
 31
0
  0
LINE
  8
0
 62
7
 10
3.700000000000004
 20
11.05
 30
0
 11
3.700000000000004
 21
11.5018170503885
 31
0
  0
LINE
  8
0
 62
7
 10
7.424644660940682
 20
11.41646171132917
 30
0
 11
7.495355339059337
 21
11.48717238944783
 31
0
  0
LINE
  8
0
 62
7
 10
3.735355339059331
 20
11.48717238944783
 30
0
 11
3.664644660940676
 21
11.41646171132917
 31
0
  0
TEXT
  8
0
 62
7
 10
5.43151708143758
 20
11.4068170503885
 30
0
 40
0.1
  1
3,76
 41
0.9
  0
ENDBLK
  8
0
  0
ENDSEC
  0
SECTION
  2
ENTITIES
  0
INSERT
  8
0
  2
*X0
 10
0
 20
0
 30
0
  0
INSERT
  8
0
  2
*X1
 10
0
 20
0
 30
0
  0
INSERT
  8
0
  2
*X2
 10
0
 20
0
 30
0
  0
INSERT
  8
0
  2
*X3
 10
0
 20
0
 30
0
  0
INSERT
  8
0
  2
*X4
 10
0
 20
0
 30
0
  0
INSERT
  8
0
  2
*X5
 10
0
 20
0
 30
0
  0
INSERT
  8
0
  2
*X6
 10
0
 20
0
 30
0
  0
INSERT
  8
0
  2
*X7
 10
0
 20
0
 30
0
  0
INSERT
  8
0
  2
*X8
 10
0
 20
0
 30
0
  0
INSERT
  8
0
  2
*X9
 10
0
 20
0
 30
0
  0
INSERT
  8
0
  2
*X10
 10
0
 20
0
 30
0
  0
INSERT
  8
0
  2
*X11
 10
0
 20
0
 30
0
  0
INSERT
  8
0
  2
*X12
 10
0
 20
0
 30
0
  0
INSERT
  8
0
  2
*X13
 10
0
 20
0
 30
0
  0
LINE
  8
0
 62
7
 10
4.815000000000009
 20
3.372139249731262
 30
0
 11
4.870009446749227
 21
3.395714726909503
 31
0
  0
LINE
  8
0
 62
7
 10
4.815000000000009
 20
3.250000000000002
 30
0
 11
4.815000000000009
 21
3.372139249731262
 31
0
  0
LINE
  8
0
 62
7
 10
3.755000000000006
 20
3.742801756898094
 30
0
 11
3.755000000000006
 21
3.250000000000002
 31
0
  0
LINE
  8
0
 62
7
 10
3.755000000000006
 20
3.250000000000002
 30
0
 11
4.815000000000009
 21
3.250000000000002
 31
0
  0
LINE
  8
0
 62
7
 10
3.755000000000006
 20
4.267036884599952
 30
0
 11
3.755000000000006
 21
3.649280543130093
 31
0
  0
LINE
  8
0
 62
7
 10
4.783694031120278
 20
3.358722405925662
 30
0
 11
4.815000000000009
 21
3.372139249731262
 31
0
  0
LINE
  8
0
 62
7
 10
3.755000000000006
 20
3.649280543130093
 30
0
 11
4.783694031120278
 21
3.358722405925662
 31
0
  0
LINE
  8
0
 62
7
 10
3.755000000000006
 20
4.455000000000001
 30
0
 11
3.755000000000006
 21
4.157992002120142
 31
0
  0
LINE
  8
0
 62
7
 10
4.224043864024927
 20
4.455000000000001
 30
0
 11
3.755000000000006
 21
4.455000000000001
 31
0
  0
LINE
  8
0
 62
7
 10
4.87031575828188
 20
3.395000000000003
 30
0
 11
5.10230169469613
 21
3.395000000000003
 31
0
  0
LINE
  8
0
 62
7
 10
3.755000000000006
 20
4.157992002120142
 30
0
 11
4.87031575828188
 21
3.395000000000003
 31
0
  0
LINE
  8
0
 62
7
 10
4.662346332323889
 20
4.455000000000001
 30
0
 11
4.107165530393117
 21
4.455000000000001
 31
0
  0
LINE
  8
0
 62
7
 10
4.98542336106431
 20
3.395000000000003
 30
0
 11
5.209181783688891
 21
3.395000000000003
 31
0
  0
LINE
  8
0
 62
7
 10
4.107165530393117
 20
4.455000000000001
 30
0
 11
4.98542336106431
 21
3.395000000000003
 31
0
  0
LINE
  8
0
 62
7
 10
5.028567041355799
 20
4.455000000000001
 30
0
 11
4.561075944171217
 21
4.455000000000001
 31
0
  0
LINE
  8
0
 62
7
 10
5.107911395536219
 20
3.395000000000003
 30
0
 11
5.32491951732958
 21
3.395000000000003
 31
0
  0
LINE
  8
0
 62
7
 10
4.561075944171217
 20
4.455000000000001
 30
0
 11
5.107911395536219
 21
3.395000000000003
 31
0
  0
LINE
  8
0
 62
7
 10
5.401295240915501
 20
4.455000000000012
 30
0
 11
4.935115843510509
 21
4.455000000000001
 31
0
  0
LINE
  8
0
 62
7
 10
5.231468319484299
 20
3.395000000000003
 30
0
 11
5.442595108227151
 21
3.394999999999993
 31
0
  0
LINE
  8
0
 62
7
 10
4.935115843510509
 20
4.455000000000001
 30
0
 11
5.231468319484299
 21
3.395000000000003
 31
0
  0
LINE
  8
0
 62
7
 10
5.68002842625229
 20
4.455000000000001
 30
0
 11
5.31122695464884
 21
4.454999999999991
 31
0
  0
LINE
  8
0
 62
7
 10
5.352526821960479
 20
3.395000000000003
 30
0
 11
5.6800285046623
 21
3.394999995231633
 31
0
  0
LINE
  8
0
 62
7
 10
5.31122695464884
 20
4.454999999999991
 30
0
 11
5.352526821960479
 21
3.395000000000003
 31
0
  0
LINE
  8
0
 62
7
 10
5.94002842625229
 20
4.455000000000001
 30
0
 11
5.59002842625229
 21
4.455000000000001
 31
0
  0
LINE
  8
0
 62
7
 10
5.5900285046623
 20
3.395000004768372
 30
0
 11
5.9400285046623
 21
3.395000000000003
 31
0
  0
LINE
  8
0
 62
7
 10
5.59002842625229
 20
4.455000000000001
 30
0
 11
5.5900285046623
 21
3.395000004768372
 31
0
  0
LINE
  8
0
 62
7
 10
6.200028426252289
 20
4.455000000000001
 30
0
 11
5.850028426252289
 21
4.454999995231634
 31
0
  0
LINE
  8
0
 62
7
 10
5.8500285046623
 20
3.395000004768372
 30
0
 11
6.200028504662301
 21
3.395000000000003
 31
0
  0
LINE
  8
0
 62
7
 10
5.850028426252289
 20
4.454999995231634
 30
0
 11
5.8500285046623
 21
3.395000004768372
 31
0
  0
LINE
  8
0
 62
7
 10
6.460055255452959
 20
4.455000000000001
 30
0
 11
6.110028426252289
 21
4.455000000000001
 31
0
  0
LINE
  8
0
 62
7
 10
6.110028504662299
 20
3.395000000000003
 30
0
 11
6.459996400465727
 21
3.395000000000003
 31
0
  0
LINE
  8
0
 62
7
 10
6.110028426252289
 20
4.455000000000001
 30
0
 11
6.110028504662299
 21
3.395000000000003
 31
0
  0
LINE
  8
0
 62
7
 10
6.72002842625229
 20
4.455000000000001
 30
0
 11
6.370055255314228
 21
4.455000000000001
 31
0
  0
LINE
  8
0
 62
7
 10
6.369996400327
 20
3.395000000000003
 30
0
 11
6.720028504662301
 21
3.395000000000003
 31
0
  0
LINE
  8
0
 62
7
 10
6.370055255314228
 20
4.455000000000001
 30
0
 11
6.369996400327
 21
3.395000000000003
 31
0
  0
LINE
  8
0
 62
7
 10
6.980028426252289
 20
4.455000000000001
 30
0
 11
6.63002842625229
 21
4.455000000000001
 31
0
  0
LINE
  8
0
 62
7
 10
6.630028504662301
 20
3.395000000000003
 30
0
 11
6.9800285046623
 21
3.395000000000003
 31
0
  0
LINE
  8
0
 62
7
 10
6.63002842625229
 20
4.455000000000001
 30
0
 11
6.630028504662301
 21
3.395000000000003
 31
0
  0
LINE
  8
0
 62
7
 10
7.240028426252289
 20
4.455000000000001
 30
0
 11
6.89002842625229
 21
4.455000000000001
 31
0
  0
LINE
  8
0
 62
7
 10
6.890028504662301
 20
3.395000000000003
 30
0
 11
7.240028504662302
 21
3.395000000000003
 31
0
  0
LINE
  8
0
 62
7
 10
6.89002842625229
 20
4.455000000000001
 30
0
 11
6.890028504662301
 21
3.395000000000003
 31
0
  0
LINE
  8
0
 62
7
 10
7.43000000000001
 20
4.455000000000001
 30
0
 11
7.15002842625229
 21
4.455000000000001
 31
0
  0
LINE
  8
0
 62
7
 10
7.150028504662301
 20
3.395000000000003
 30
0
 11
7.43000000000001
 21
3.395000000000003
 31
0
  0
LINE
  8
0
 62
7
 10
7.15002842625229
 20
4.455000000000001
 30
0
 11
7.150028504662301
 21
3.395000000000003
 31
0
  0
LINE
  8
0
 62
7
 10
4.815000000010998
 20
3.972441603705931
 30
0
 11
7.41000000000001
 21
3.972441603705931
 31
0
  0
LINE
  8
0
 62
7
 10
7.349000000000008
 20
4.078096702967635
 30
0
 11
7.41000000000001
 21
3.972441603705931
 31
0
  0
LINE
  8
0
 62
7
 10
7.349000000000008
 20
3.866786504444231
 30
0
 11
7.349000000000008
 21
4.078096702967635
 31
0
  0
LINE
  8
0
 62
7
 10
7.41000000000001
 20
3.972441603705931
 30
0
 11
7.349000000000008
 21
3.866786504444231
 31
0
  0
LINE
  8
0
 62
7
 10
4.237558396294086
 20
3.250000000000002
 30
0
 11
4.237558396294086
 21
3.395000000022341
 31
0
  0
LINE
  8
0
 62
7
 10
3.754999770000053
 20
8.583333333333334
 30
0
 11
4.815000070000059
 21
8.583333333333334
 31
0
  0
LINE
  8
0
 62
7
 10
3.754999770000053
 20
8.518333333333333
 30
0
 11
3.754999770000053
 21
8.583333333333334
 31
0
  0
LINE
  8
0
 62
7
 10
4.815000070000059
 20
8.583333333333334
 30
0
 11
4.815000070000059
 21
8.518333333333333
 31
0
  0
LINE
  8
0
 62
7
 10
4.815000070000059
 20
8.518333333333333
 30
0
 11
3.754999770000053
 21
8.518333333333333
 31
0
  0
LINE
  8
0
 62
7
 10
3.754999670000052
 20
8.766666673333331
 30
0
 11
4.967557900000052
 21
8.766666673333331
 31
0
  0
LINE
  8
0
 62
7
 10
4.967557900000052
 20
8.701666673333332
 30
0
 11
3.754999670000052
 21
8.701666673333332
 31
0
  0
LINE
  8
0
 62
7
 10
3.754999670000052
 20
8.701666673333332
 30
0
 11
3.754999670000052
 21
8.766666673333331
 31
0
  0
LINE
  8
0
 62
7
 10
4.967557900000052
 20
8.766666673333331
 30
0
 11
4.967557900000052
 21
8.701666673333332
 31
0
  0
LINE
  8
0
 62
7
 10
5.10230170000005
 20
8.885000013333331
 30
0
 11
3.755000000000053
 21
8.885000013333331
 31
0
  0
LINE
  8
0
 62
7
 10
3.755000000000053
 20
8.950000013333336
 30
0
 11
5.10230170000005
 21
8.950000013333336
 31
0
  0
LINE
  8
0
 62
7
 10
3.755000000000053
 20
8.885000013333331
 30
0
 11
3.755000000000053
 21
8.950000013333336
 31
0
  0
LINE
  8
0
 62
7
 10
5.10230170000005
 20
8.950000013333336
 30
0
 11
5.10230170000005
 21
8.885000013333331
 31
0
  0
LINE
  8
0
 62
7
 10
5.209181890000048
 20
9.068333333333333
 30
0
 11
4.107165520000052
 21
9.068333333333333
 31
0
  0
LINE
  8
0
 62
7
 10
4.107165520000052
 20
9.133333333333333
 30
0
 11
5.209181890000048
 21
9.133333333333333
 31
0
  0
LINE
  8
0
 62
7
 10
4.107165520000052
 20
9.068333333333333
 30
0
 11
4.107165520000052
 21
9.133333333333333
 31
0
  0
LINE
  8
0
 62
7
 10
5.209181890000048
 20
9.133333333333333
 30
0
 11
5.209181890000048
 21
9.068333333333333
 31
0
  0
LINE
  8
0
 62
7
 10
5.324919650000052
 20
9.251666693333332
 30
0
 11
4.561075970000053
 21
9.251666693333332
 31
0
  0
LINE
  8
0
 62
7
 10
4.561075970000053
 20
9.316666693333334
 30
0
 11
5.324919650000052
 21
9.316666693333334
 31
0
  0
LINE
  8
0
 62
7
 10
4.561075970000053
 20
9.251666693333332
 30
0
 11
4.561075970000053
 21
9.316666693333334
 31
0
  0
LINE
  8
0
 62
7
 10
5.324919650000052
 20
9.316666693333334
 30
0
 11
5.324919650000052
 21
9.251666693333332
 31
0
  0
LINE
  8
0
 62
7
 10
5.44259483000005
 20
9.435000053333331
 30
0
 11
4.935115880000048
 21
9.435000053333331
 31
0
  0
LINE
  8
0
 62
7
 10
4.935115880000048
 20
9.500000053333332
 30
0
 11
5.44259483000005
 21
9.500000053333332
 31
0
  0
LINE
  8
0
 62
7
 10
4.935115880000048
 20
9.435000053333331
 30
0
 11
4.935115880000048
 21
9.500000053333332
 31
0
  0
LINE
  8
0
 62
7
 10
5.44259483000005
 20
9.500000053333332
 30
0
 11
5.44259483000005
 21
9.435000053333331
 31
0
  0
LINE
  8
0
 62
7
 10
5.311227030000049
 20
9.683333333333334
 30
0
 11
5.680028450000049
 21
9.683333333333334
 31
0
  0
LINE
  8
0
 62
7
 10
5.680028450000049
 20
9.618333333333332
 30
0
 11
5.311227030000049
 21
9.618333333333332
 31
0
  0
LINE
  8
0
 62
7
 10
5.311227030000049
 20
9.618333333333332
 30
0
 11
5.311227030000049
 21
9.683333333333334
 31
0
  0
LINE
  8
0
 62
7
 10
5.680028450000049
 20
9.683333333333334
 30
0
 11
5.680028450000049
 21
9.618333333333332
 31
0
  0
LINE
  8
0
 62
7
 10
5.590028300000059
 20
9.801666773333331
 30
0
 11
5.590028300000059
 21
9.866666773333332
 31
0
  0
LINE
  8
0
 62
7
 10
5.590028300000059
 20
9.866666773333332
 30
0
 11
5.94002845000005
 21
9.866666773333332
 31
0
  0
LINE
  8
0
 62
7
 10
5.94002845000005
 20
9.866666773333332
 30
0
 11
5.94002845000005
 21
9.801666773333331
 31
0
  0
LINE
  8
0
 62
7
 10
5.94002845000005
 20
9.801666773333331
 30
0
 11
5.590028300000059
 21
9.801666773333331
 31
0
  0
LINE
  8
0
 62
7
 10
5.85002845000005
 20
9.985000053333332
 30
0
 11
5.85002845000005
 21
10.05000005333333
 31
0
  0
LINE
  8
0
 62
7
 10
5.85002845000005
 20
10.05000005333333
 30
0
 11
6.200028300000059
 21
10.05000005333333
 31
0
  0
LINE
  8
0
 62
7
 10
6.200028300000059
 20
10.05000005333333
 30
0
 11
6.200028300000059
 21
9.985000053333332
 31
0
  0
LINE
  8
0
 62
7
 10
6.200028300000059
 20
9.985000053333332
 30
0
 11
5.85002845000005
 21
9.985000053333332
 31
0
  0
LINE
  8
0
 62
7
 10
6.110028450000049
 20
10.16833333333333
 30
0
 11
6.110028450000049
 21
10.23333333333333
 31
0
  0
LINE
  8
0
 62
7
 10
6.110028450000049
 20
10.23333333333333
 30
0
 11
6.460055150000049
 21
10.23333333333333
 31
0
  0
LINE
  8
0
 62
7
 10
6.460055150000049
 20
10.23333333333333
 30
0
 11
6.460055150000049
 21
10.16833333333333
 31
0
  0
LINE
  8
0
 62
7
 10
6.460055150000049
 20
10.16833333333333
 30
0
 11
6.110028450000049
 21
10.16833333333333
 31
0
  0
LINE
  8
0
 62
7
 10
6.369996560000047
 20
10.41666677333333
 30
0
 11
6.720028300000059
 21
10.41666677333333
 31
0
  0
LINE
  8
0
 62
7
 10
6.369996560000047
 20
10.35166677333333
 30
0
 11
6.369996560000047
 21
10.41666677333333
 31
0
  0
LINE
  8
0
 62
7
 10
6.720028300000059
 20
10.41666677333333
 30
0
 11
6.720028300000059
 21
10.35166677333333
 31
0
  0
LINE
  8
0
 62
7
 10
6.720028300000059
 20
10.35166677333333
 30
0
 11
6.369996560000047
 21
10.35166677333333
 31
0
  0
LINE
  8
0
 62
7
 10
6.630028300000058
 20
10.53500005333333
 30
0
 11
6.630028300000058
 21
10.60000005333333
 31
0
  0
LINE
  8
0
 62
7
 10
6.630028300000058
 20
10.60000005333333
 30
0
 11
6.98002830000005
 21
10.60000005333333
 31
0
  0
LINE
  8
0
 62
7
 10
6.98002830000005
 20
10.60000005333333
 30
0
 11
6.98002830000005
 21
10.53500005333333
 31
0
  0
LINE
  8
0
 62
7
 10
6.98002830000005
 20
10.53500005333333
 30
0
 11
6.630028300000058
 21
10.53500005333333
 31
0
  0
LINE
  8
0
 62
7
 10
6.890028300000051
 20
10.71833333333333
 30
0
 11
6.890028300000051
 21
10.78333333333333
 31
0
  0
LINE
  8
0
 62
7
 10
6.890028300000051
 20
10.78333333333333
 30
0
 11
7.24002830000005
 21
10.78333333333333
 31
0
  0
LINE
  8
0
 62
7
 10
7.24002830000005
 20
10.78333333333333
 30
0
 11
7.24002830000005
 21
10.71833333333333
 31
0
  0
LINE
  8
0
 62
7
 10
7.24002830000005
 20
10.71833333333333
 30
0
 11
6.890028300000051
 21
10.71833333333333
 31
0
  0
LINE
  8
0
 62
7
  6
DASHED
 10
7.150028300000058
 20
10.96666677333333
 30
0
 11
7.430000220000061
 21
10.96666677333333
 31
0
  0
LINE
  8
0
 62
7
  6
DASHED
 10
7.150028300000058
 20
10.90166677333333
 30
0
 11
7.150028300000058
 21
10.96666677333333
 31
0
  0
LINE
  8
0
 62
7
  6
DASHED
 10
7.430000220000061
 20
10.96666677333333
 30
0
 11
7.430000220000061
 21
10.90166677333333
 31
0
  0
LINE
  8
0
 62
7
  6
DASHED
 10
7.430000220000061
 20
10.90166677333333
 30
0
 11
7.150028300000058
 21
10.90166677333333
 31
0
  0
LINE
  8
0
 62
7
 10
1.50719833
 20
8.583333326666667
 30
0
 11
2.00000027
 21
8.583333326666667
 31
0
  0
LINE
  8
0
 62
7
 10
2.00000027
 20
8.518333326666667
 30
0
 11
1.50719833
 21
8.518333326666667
 31
0
  0
LINE
  8
0
 62
7
 10
2.00000027
 20
8.583333326666667
 30
0
 11
2.00000027
 21
8.518333326666667
 31
0
  0
LINE
  8
0
 62
7
 10
1.50719833
 20
8.518333326666667
 30
0
 11
1.50719833
 21
8.583333326666667
 31
0
  0
LINE
  8
0
 62
7
 10
1.891277880000001
 20
8.701666666666664
 30
0
 11
0.9829634800000013
 21
8.701666666666664
 31
0
  0
LINE
  8
0
 62
7
 10
0.9829634800000013
 20
8.766666666666664
 30
0
 11
1.891277880000001
 21
8.766666666666664
 31
0
  0
LINE
  8
0
 62
7
 10
1.891277880000001
 20
8.766666666666664
 30
0
 11
1.891277880000001
 21
8.701666666666664
 31
0
  0
LINE
  8
0
 62
7
 10
0.9829634800000013
 20
8.701666666666664
 30
0
 11
0.9829634800000013
 21
8.766666666666664
 31
0
  0
LINE
  8
0
 62
7
 10
0.795
 20
8.950000006666667
 30
0
 11
1.855000210000001
 21
8.950000006666667
 31
0
  0
LINE
  8
0
 62
7
 10
1.855000210000001
 20
8.885000006666665
 30
0
 11
0.795
 21
8.885000006666665
 31
0
  0
LINE
  8
0
 62
7
 10
1.855000210000001
 20
8.950000006666667
 30
0
 11
1.855000210000001
 21
8.885000006666665
 31
0
  0
LINE
  8
0
 62
7
 10
0.795
 20
8.885000006666665
 30
0
 11
0.795
 21
8.950000006666667
 31
0
  0
LINE
  8
0
 62
7
 10
0.7950001499999999
 20
9.133333326666664
 30
0
 11
1.85500027
 21
9.133333326666664
 31
0
  0
LINE
  8
0
 62
7
 10
1.85500027
 20
9.133333326666664
 30
0
 11
1.85500027
 21
9.068333326666664
 31
0
  0
LINE
  8
0
 62
7
 10
0.7950001499999999
 20
9.068333326666664
 30
0
 11
0.7950001499999999
 21
9.133333326666664
 31
0
  0
LINE
  8
0
 62
7
 10
1.85500027
 20
9.068333326666664
 30
0
 11
0.7950001499999999
 21
9.068333326666664
 31
0
  0
LINE
  8
0
 62
7
 10
0.795
 20
9.316666686666665
 30
0
 11
1.855000210000001
 21
9.316666686666665
 31
0
  0
LINE
  8
0
 62
7
 10
1.855000210000001
 20
9.316666686666665
 30
0
 11
1.855000210000001
 21
9.251666686666665
 31
0
  0
LINE
  8
0
 62
7
 10
0.795
 20
9.251666686666665
 30
0
 11
0.795
 21
9.316666686666665
 31
0
  0
LINE
  8
0
 62
7
 10
1.855000210000001
 20
9.251666686666665
 30
0
 11
0.795
 21
9.251666686666665
 31
0
  0
LINE
  8
0
 62
7
 10
0.795
 20
9.500000046666665
 30
0
 11
1.855000340000001
 21
9.500000046666665
 31
0
  0
LINE
  8
0
 62
7
 10
1.855000340000001
 20
9.500000046666665
 30
0
 11
1.855000340000001
 21
9.435000046666664
 31
0
  0
LINE
  8
0
 62
7
 10
0.795
 20
9.435000046666664
 30
0
 11
0.795
 21
9.500000046666665
 31
0
  0
LINE
  8
0
 62
7
 10
1.855000340000001
 20
9.435000046666664
 30
0
 11
0.795
 21
9.435000046666664
 31
0
  0
LINE
  8
0
 62
7
 10
0.7950003000000007
 20
9.683333326666668
 30
0
 11
1.85500006
 21
9.683333326666668
 31
0
  0
LINE
  8
0
 62
7
 10
1.85500006
 20
9.683333326666668
 30
0
 11
1.85500006
 21
9.618333326666667
 31
0
  0
LINE
  8
0
 62
7
 10
0.7950003000000007
 20
9.618333326666667
 30
0
 11
0.7950003000000007
 21
9.683333326666668
 31
0
  0
LINE
  8
0
 62
7
 10
1.85500006
 20
9.618333326666667
 30
0
 11
0.7950003000000007
 21
9.618333326666667
 31
0
  0
LINE
  8
0
 62
7
 10
0.7950003000000007
 20
9.866666766666667
 30
0
 11
1.855000700000001
 21
9.866666766666667
 31
0
  0
LINE
  8
0
 62
7
 10
1.855000700000001
 20
9.866666766666667
 30
0
 11
1.855000700000001
 21
9.801666766666665
 31
0
  0
LINE
  8
0
 62
7
 10
0.7950003000000007
 20
9.801666766666665
 30
0
 11
0.7950003000000007
 21
9.866666766666667
 31
0
  0
LINE
  8
0
 62
7
 10
1.855000700000001
 20
9.801666766666665
 30
0
 11
0.7950003000000007
 21
9.801666766666665
 31
0
  0
LINE
  8
0
 62
7
 10
0.7949998500000022
 20
10.05000004666666
 30
0
 11
1.855000130000001
 21
10.05000004666666
 31
0
  0
LINE
  8
0
 62
7
 10
1.855000130000001
 20
10.05000004666666
 30
0
 11
1.855000130000001
 21
9.985000046666665
 31
0
  0
LINE
  8
0
 62
7
 10
0.7949998500000022
 20
9.985000046666665
 30
0
 11
0.7949998500000022
 21
10.05000004666666
 31
0
  0
LINE
  8
0
 62
7
 10
1.855000130000001
 20
9.985000046666665
 30
0
 11
0.7949998500000022
 21
9.985000046666665
 31
0
  0
LINE
  8
0
 62
7
 10
0.795
 20
10.23333332666666
 30
0
 11
1.85500069
 21
10.23333332666666
 31
0
  0
LINE
  8
0
 62
7
 10
1.85500069
 20
10.23333332666666
 30
0
 11
1.85500069
 21
10.16833332666667
 31
0
  0
LINE
  8
0
 62
7
 10
0.795
 20
10.16833332666667
 30
0
 11
0.795
 21
10.23333332666666
 31
0
  0
LINE
  8
0
 62
7
 10
1.85500069
 20
10.16833332666667
 30
0
 11
0.795
 21
10.16833332666667
 31
0
  0
LINE
  8
0
 62
7
 10
0.7950004600000002
 20
10.41666676666666
 30
0
 11
1.854999830000001
 21
10.41666676666666
 31
0
  0
LINE
  8
0
 62
7
 10
1.854999830000001
 20
10.41666676666666
 30
0
 11
1.854999830000001
 21
10.35166676666666
 31
0
  0
LINE
  8
0
 62
7
 10
0.7950004600000002
 20
10.35166676666666
 30
0
 11
0.7950004600000002
 21
10.41666676666666
 31
0
  0
LINE
  8
0
 62
7
 10
1.854999830000001
 20
10.35166676666666
 30
0
 11
0.7950004600000002
 21
10.35166676666666
 31
0
  0
LINE
  8
0
 62
7
 10
0.7950004600000002
 20
10.60000004666666
 30
0
 11
1.855000250000001
 21
10.60000004666666
 31
0
  0
LINE
  8
0
 62
7
 10
1.855000250000001
 20
10.60000004666666
 30
0
 11
1.855000250000001
 21
10.53500004666666
 31
0
  0
LINE
  8
0
 62
7
 10
0.7950004600000002
 20
10.53500004666666
 30
0
 11
0.7950004600000002
 21
10.60000004666666
 31
0
  0
LINE
  8
0
 62
7
 10
1.855000250000001
 20
10.53500004666666
 30
0
 11
0.7950004600000002
 21
10.53500004666666
 31
0
  0
LINE
  8
0
 62
7
 10
0.7950003000000007
 20
10.78333332666666
 30
0
 11
1.855001220000001
 21
10.78333332666666
 31
0
  0
LINE
  8
0
 62
7
 10
1.855001220000001
 20
10.78333332666666
 30
0
 11
1.855001220000001
 21
10.71833332666666
 31
0
  0
LINE
  8
0
 62
7
 10
0.7950003000000007
 20
10.71833332666666
 30
0
 11
0.7950003000000007
 21
10.78333332666666
 31
0
  0
LINE
  8
0
 62
7
 10
1.855001220000001
 20
10.71833332666666
 30
0
 11
0.7950003000000007
 21
10.71833332666666
 31
0
  0
LINE
  8
0
 62
7
 10
0.795000760000001
 20
10.96666676666666
 30
0
 11
1.855002570000001
 21
10.96666676666666
 31
0
  0
LINE
  8
0
 62
7
 10
1.855002570000001
 20
10.96666676666666
 30
0
 11
1.855002570000001
 21
10.90166676666666
 31
0
  0
LINE
  8
0
 62
7
 10
0.795000760000001
 20
10.90166676666666
 30
0
 11
0.795000760000001
 21
10.96666676666666
 31
0
  0
LINE
  8
0
 62
7
 10
1.855002570000001
 20
10.90166676666666
 30
0
 11
0.795000760000001
 21
10.90166676666666
 31
0
  0
LINE
  8
0
 62
7
 10
7.46000000000001
 20
11.05
 30
0
 11
7.60000000000001
 21
11.05
 31
0
  0
LINE
  8
0
 62
7
 10
7.46000000000001
 20
11.05
 30
0
 11
7.63500000000001
 21
11.05
 31
0
  0
LINE
  8
0
 62
7
 10
3.700000000000003
 20
8.1
 30
0
 11
7.60000000000001
 21
8.1
 31
0
  0
LINE
  8
0
 62
7
 10
3.700000000000005
 20
8.299999999999999
 30
0
 11
7.46000000000001
 21
8.299999999999999
 31
0
  0
LINE
  8
0
 62
7
 10
3.700000000000005
 20
10.85
 30
0
 11
7.46000000000001
 21
10.85
 31
0
  0
LINE
  8
0
 62
7
 10
3.700000000000005
 20
11.05
 30
0
 11
7.46000000000001
 21
11.05
 31
0
  0
LINE
  8
0
 62
7
 10
3.700000000000003
 20
8.1
 30
0
 11
3.700000000000005
 21
7.949999999999999
 31
0
  0
LINE
  8
0
 62
7
 10
3.525000000000003
 20
8.1
 30
0
 11
3.700000000000003
 21
8.1
 31
0
  0
LINE
  8
0
 62
7
 10
3.525000000000004
 20
8.299999999999999
 30
0
 11
3.700000000000005
 21
8.299999999999999
 31
0
  0
LINE
  8
0
 62
7
 10
3.525000000000004
 20
10.85
 30
0
 11
3.700000000000005
 21
10.85
 31
0
  0
LINE
  8
0
 62
7
 10
3.525000000000004
 20
11.05
 30
0
 11
3.700000000000005
 21
11.05
 31
0
  0
LINE
  8
0
 62
7
 10
3.525000000000003
 20
8.1
 30
0
 11
3.525000000000004
 21
7.949999999999999
 31
0
  0
LINE
  8
0
 62
7
 10
3.375000000000004
 20
8.1
 30
0
 11
3.525000000000003
 21
8.1
 31
0
  0
LINE
  8
0
 62
7
 10
3.525000000000004
 20
8.399999999999999
 30
0
 11
3.525000000000004
 21
8.299999999999999
 31
0
  0
LINE
  8
0
 62
7
 10
3.375000000000004
 20
8.299999999999999
 30
0
 11
3.525000000000004
 21
8.299999999999999
 31
0
  0
LINE
  8
0
 62
7
 10
3.375000000000004
 20
10.85
 30
0
 11
3.525000000000004
 21
10.85
 31
0
  0
LINE
  8
0
 62
7
 10
3.525000000000004
 20
11.15
 30
0
 11
3.525000000000004
 21
11.05
 31
0
  0
LINE
  8
0
 62
7
 10
3.375000000000004
 20
11.05
 30
0
 11
3.525000000000004
 21
11.05
 31
0
  0
LINE
  8
0
 62
7
  6
DASHDOT
 10
7.60000000000001
 20
8.1
 30
0
 11
7.60000000000001
 21
8.049999999999999
 31
0
  0
LINE
  8
0
 62
7
  6
DASHDOT
 10
7.60000000000001
 20
10.85
 30
0
 11
7.60000000000001
 21
10.8
 31
0
  0
LINE
  8
0
 62
7
  6
DASHDOT
 10
3.375000000000004
 20
8.1
 30
0
 11
3.375000000000004
 21
8.049999999999999
 31
0
  0
LINE
  8
0
 62
7
  6
DASHDOT
 10
3.375000000000004
 20
10.85
 30
0
 11
3.375000000000004
 21
10.8
 31
0
  0
LINE
  8
0
 62
7
  6
DASHDOT
 10
3.700000000000003
 20
11.2
 30
0
 11
3.750000000000004
 21
11.2
 31
0
  0
LINE
  8
0
 62
7
  6
DASHDOT
 10
3.700000000000005
 20
7.949999999999999
 30
0
 11
3.750000000000004
 21
7.949999999999999
 31
0
  0
LINE
  8
0
 62
7
  6
DASHDOT
 10
7.60000000000001
 20
8.449999999999999
 30
0
 11
7.60000000000001
 21
8.399999999999999
 31
0
  0
LINE
  8
0
 62
7
 10
3.700000000000005
 20
10.85
 30
0
 11
3.700000000000005
 21
8.399999999999999
 31
0
  0
LINE
  8
0
 62
7
 10
3.375000000000004
 20
8.399999999999999
 30
0
 11
3.525000000000004
 21
8.399999999999999
 31
0
  0
LINE
  8
0
 62
7
 10
3.525000000000004
 20
10.85
 30
0
 11
3.525000000000004
 21
8.399999999999999
 31
0
  0
LINE
  8
0
 62
7
  6
DASHDOT
 10
3.375000000000003
 20
8.449999999999999
 30
0
 11
3.375000000000004
 21
8.399999999999999
 31
0
  0
LINE
  8
0
 62
7
  6
DASHDOT
 10
7.60000000000001
 20
11.2
 30
0
 11
7.60000000000001
 21
11.15
 31
0
  0
LINE
  8
0
 62
7
 10
3.700000000000003
 20
11.2
 30
0
 11
3.700000000000005
 21
11.15
 31
0
  0
LINE
  8
0
 62
7
 10
3.375000000000004
 20
11.15
 30
0
 11
3.525000000000004
 21
11.15
 31
0
  0
LINE
  8
0
 62
7
 10
3.525000000000003
 20
11.2
 30
0
 11
3.525000000000004
 21
11.15
 31
0
  0
LINE
  8
0
 62
7
  6
DASHDOT
 10
3.375000000000003
 20
11.2
 30
0
 11
3.375000000000004
 21
11.15
 31
0
  0
LINE
  8
0
 62
7
  6
DASHDOT
 10
3.375000000000004
 20
8.299999999999999
 30
0
 11
3.375000000000004
 21
8.1
 31
0
  0
LINE
  8
0
 62
7
  6
DASHDOT
 10
3.375000000000004
 20
8.399999999999999
 30
0
 11
3.375000000000004
 21
8.299999999999999
 31
0
  0
LINE
  8
0
 62
7
  6
DASHDOT
 10
3.525000000000004
 20
7.949999999999999
 30
0
 11
3.700000000000005
 21
7.949999999999999
 31
0
  0
LINE
  8
0
 62
7
  6
DASHDOT
 10
3.475000000000005
 20
7.949999999999999
 30
0
 11
3.525000000000004
 21
7.949999999999999
 31
0
  0
LINE
  8
0
 62
7
  6
DASHDOT
 10
7.60000000000001
 20
8.299999999999999
 30
0
 11
7.60000000000001
 21
8.1
 31
0
  0
LINE
  8
0
 62
7
  6
DASHDOT
 10
7.60000000000001
 20
8.399999999999999
 30
0
 11
7.60000000000001
 21
8.299999999999999
 31
0
  0
LINE
  8
0
 62
7
  6
DASHDOT
 10
7.60000000000001
 20
11.05
 30
0
 11
7.60000000000001
 21
10.85
 31
0
  0
LINE
  8
0
 62
7
  6
DASHDOT
 10
7.60000000000001
 20
11.15
 30
0
 11
7.60000000000001
 21
11.05
 31
0
  0
LINE
  8
0
 62
7
  6
DASHDOT
 10
3.375000000000004
 20
11.05
 30
0
 11
3.375000000000004
 21
10.85
 31
0
  0
LINE
  8
0
 62
7
  6
DASHDOT
 10
3.375000000000004
 20
11.15
 30
0
 11
3.375000000000004
 21
11.05
 31
0
  0
LINE
  8
0
 62
7
  6
DASHDOT
 10
3.525000000000003
 20
11.2
 30
0
 11
3.700000000000003
 21
11.2
 31
0
  0
LINE
  8
0
 62
7
  6
DASHDOT
 10
3.475000000000005
 20
11.2
 30
0
 11
3.525000000000003
 21
11.2
 31
0
  0
LINE
  8
0
 62
7
 10
0.5
 20
7.949999999999999
 30
0
 11
0.4999999999999991
 21
8.1
 31
0
  0
LINE
  8
0
 62
7
 10
0.7399999999999992
 20
11.2
 30
0
 11
0.7400000000000001
 21
11.15
 31
0
  0
LINE
  8
0
 62
7
 10
0.5
 20
11.05
 30
0
 11
0.7400000000000001
 21
11.05
 31
0
  0
LINE
  8
0
 62
7
 10
0.5
 20
11.05
 30
0
 11
0.4999999999999991
 21
11.2
 31
0
  0
LINE
  8
0
 62
7
 10
0.7400000000000001
 20
11.05
 30
0
 11
0.7400000000000001
 21
10.85
 31
0
  0
LINE
  8
0
 62
7
 10
0.5
 20
10.85
 30
0
 11
0.7400000000000001
 21
10.85
 31
0
  0
LINE
  8
0
 62
7
 10
0.5
 20
10.85
 30
0
 11
0.5
 21
11.05
 31
0
  0
LINE
  8
0
 62
7
 10
0.7400000000000001
 20
10.85
 30
0
 11
0.7400000000000001
 21
8.299999999999999
 31
0
  0
LINE
  8
0
 62
7
 10
0.5
 20
8.299999999999999
 30
0
 11
0.7400000000000001
 21
8.299999999999999
 31
0
  0
LINE
  8
0
 62
7
 10
0.5
 20
8.299999999999999
 30
0
 11
0.5
 21
10.85
 31
0
  0
LINE
  8
0
 62
7
 10
0.7400000000000001
 20
8.299999999999999
 30
0
 11
0.7399999999999992
 21
8.1
 31
0
  0
LINE
  8
0
 62
7
 10
0.4999999999999991
 20
8.1
 30
0
 11
0.7399999999999992
 21
8.1
 31
0
  0
LINE
  8
0
 62
7
 10
0.4999999999999991
 20
8.1
 30
0
 11
0.5
 21
8.299999999999999
 31
0
  0
LINE
  8
0
 62
7
 10
0.7399999999999992
 20
8.1
 30
0
 11
0.7400000000000001
 21
7.949999999999999
 31
0
  0
LINE
  8
0
 62
7
 10
1.9
 20
11.05
 30
0
 11
1.9
 21
10.85
 31
0
  0
LINE
  8
0
 62
7
 10
1.9
 20
10.85
 30
0
 11
2.2
 21
10.85
 31
0
  0
LINE
  8
0
 62
7
 10
1.9
 20
11.05
 30
0
 11
2.2
 21
11.05
 31
0
  0
LINE
  8
0
 62
7
 10
1.9
 20
8.299999999999999
 30
0
 11
2.2
 21
8.299999999999999
 31
0
  0
LINE
  8
0
 62
7
 10
1.9
 20
8.299999999999999
 30
0
 11
1.9
 21
8.1
 31
0
  0
LINE
  8
0
 62
7
 10
1.9
 20
8.1
 30
0
 11
2.2
 21
8.1
 31
0
  0
LINE
  8
0
 62
7
  6
DASHDOT
 10
0.45
 20
11.2
 30
0
 11
0.4999999999999991
 21
11.2
 31
0
  0
LINE
  8
0
 62
7
  6
DASHDOT
 10
2.199999999999999
 20
11.2
 30
0
 11
2.2
 21
11.15
 31
0
  0
LINE
  8
0
 62
7
  6
DASHDOT
 10
2.2
 20
8.049999999999999
 30
0
 11
2.2
 21
8.1
 31
0
  0
LINE
  8
0
 62
7
  6
DASHDOT
 10
0.45
 20
7.949999999999999
 30
0
 11
0.5
 21
7.949999999999999
 31
0
  0
LINE
  8
0
 62
7
 10
1.9
 20
8.399999999999999
 30
0
 11
2.2
 21
8.399999999999999
 31
0
  0
LINE
  8
0
 62
7
  6
DASHDOT
 10
2.2
 20
8.399999999999999
 30
0
 11
2.199999999999999
 21
8.449999999999999
 31
0
  0
LINE
  8
0
 62
7
 10
1.9
 20
11.15
 30
0
 11
2.2
 21
11.15
 31
0
  0
LINE
  8
0
 62
7
  6
DASHDOT
 10
2.2
 20
11.15
 30
0
 11
2.2
 21
11.05
 31
0
  0
LINE
  8
0
 62
7
  6
DASHDOT
 10
2.2
 20
8.299999999999999
 30
0
 11
2.2
 21
8.399999999999999
 31
0
  0
LINE
  8
0
 62
7
  6
DASHDOT
 10
2.2
 20
8.1
 30
0
 11
2.2
 21
8.299999999999999
 31
0
  0
LINE
  8
0
 62
7
  6
DASHDOT
 10
0.5
 20
7.949999999999999
 30
0
 11
0.7400000000000001
 21
7.949999999999999
 31
0
  0
LINE
  8
0
 62
7
  6
DASHDOT
 10
0.7400000000000001
 20
7.949999999999999
 30
0
 11
0.79
 21
7.949999999999999
 31
0
  0
LINE
  8
0
 62
7
  6
DASHDOT
 10
0.7399999999999992
 20
11.2
 30
0
 11
0.79
 21
11.2
 31
0
  0
LINE
  8
0
 62
7
  6
DASHDOT
 10
0.4999999999999991
 20
11.2
 30
0
 11
0.7399999999999992
 21
11.2
 31
0
  0
LINE
  8
0
 62
7
  6
DASHDOT
 10
2.2
 20
10.85
 30
0
 11
2.2
 21
10.8
 31
0
  0
LINE
  8
0
 62
7
  6
DASHDOT
 10
2.2
 20
11.05
 30
0
 11
2.2
 21
10.85
 31
0
  0
LINE
  8
0
 62
7
  6
DASHED
 10
0.7400000000000001
 20
11.05
 30
0
 11
1.9
 21
11.05
 31
0
  0
LINE
  8
0
 62
7
  6
DASHED
 10
0.7400000000000001
 20
10.85
 30
0
 11
1.9
 21
10.85
 31
0
  0
LINE
  8
0
 62
7
  6
DASHED
 10
0.7400000000000001
 20
8.299999999999999
 30
0
 11
1.9
 21
8.299999999999999
 31
0
  0
LINE
  8
0
 62
7
  6
DASHED
 10
0.7399999999999992
 20
8.1
 30
0
 11
1.9
 21
8.1
 31
0
  0
LINE
  8
0
 62
7
 10
3.700000000000003
 20
5.18
 30
0
 11
3.700000000000005
 21
5.029999999999998
 31
0
  0
LINE
  8
0
 62
7
 10
3.700000000000005
 20
5.029999999999998
 30
0
 11
7.60000000000001
 21
5.029999999999998
 31
0
  0
LINE
  8
0
 62
7
 10
3.700000000000005
 20
3.250000000000002
 30
0
 11
3.699999999999994
 21
3.350000000000002
 31
0
  0
LINE
  8
0
 62
7
 10
3.525000000000004
 20
3.250000000000002
 30
0
 11
3.700000000000005
 21
3.250000000000002
 31
0
  0
LINE
  8
0
 62
7
 10
3.525000000000004
 20
4.750000000000001
 30
0
 11
3.525000000000004
 21
3.250000000000002
 31
0
  0
LINE
  8
0
 62
7
 10
3.700000000000006
 20
4.510000000000001
 30
0
 11
7.41000000000001
 21
4.510000000000001
 31
0
  0
LINE
  8
0
 62
7
  6
DASHDOT
 10
7.46000000000001
 20
4.510000000000001
 30
0
 11
7.46000000000001
 21
3.350000000000002
 31
0
  0
LINE
  8
0
 62
7
  6
DASHDOT
 10
7.46000000000001
 20
3.350000000000002
 30
0
 11
7.41000000000001
 21
3.350000000000002
 31
0
  0
LINE
  8
0
 62
7
 10
3.699999999999994
 20
3.350000000000002
 30
0
 11
3.700000000000006
 21
4.510000000000001
 31
0
  0
LINE
  8
0
 62
7
  6
DASHDOT
 10
3.475000000000005
 20
5.18
 30
0
 11
3.525000000000004
 21
5.18
 31
0
  0
LINE
  8
0
 62
7
  6
DASHDOT
 10
7.60000000000001
 20
5.079999999999998
 30
0
 11
7.60000000000001
 21
5.029999999999998
 31
0
  0
LINE
  8
0
 62
7
  6
DASHDOT
 10
7.60000000000001
 20
5.029999999999998
 30
0
 11
7.60000000000001
 21
4.790000000000002
 31
0
  0
LINE
  8
0
 62
7
  6
DASHDOT
 10
3.525000000000004
 20
5.18
 30
0
 11
3.700000000000003
 21
5.18
 31
0
  0
LINE
  8
0
 62
7
  6
DASHDOT
 10
3.700000000000003
 20
5.18
 30
0
 11
3.750000000000004
 21
5.18
 31
0
  0
LINE
  8
0
 62
7
  6
DASHDOT
 10
7.60000000000001
 20
4.790000000000002
 30
0
 11
7.60000000000001
 21
4.750000000000001
 31
0
  0
LINE
  8
0
 62
7
  6
DASHDOT
 10
7.60000000000001
 20
4.750000000000001
 30
0
 11
7.60000000000001
 21
4.510000000000001
 31
0
  0
LINE
  8
0
 62
7
 10
3.525000000000004
 20
4.750000000000001
 30
0
 11
7.60000000000001
 21
4.750000000000001
 31
0
  0
LINE
  8
0
 62
7
 10
3.525000000000004
 20
5.18
 30
0
 11
3.525000000000004
 21
4.790000000000002
 31
0
  0
LINE
  8
0
 62
7
 10
3.525000000000004
 20
4.790000000000002
 30
0
 11
7.60000000000001
 21
4.790000000000002
 31
0
  0
LINE
  8
0
 62
7
 10
7.46000000000001
 20
4.510000000000001
 30
0
 11
7.60000000000001
 21
4.510000000000001
 31
0
  0
LINE
  8
0
 62
7
  6
DASHDOT
 10
7.60000000000001
 20
4.510000000000001
 30
0
 11
7.60000000000001
 21
4.460000000000001
 31
0
  0
LINE
  8
0
 62
7
 10
7.41000000000001
 20
4.510000000000001
 30
0
 11
7.41000000000001
 21
3.350000000000002
 31
0
  0
LINE
  8
0
 62
7
 10
7.41000000000001
 20
4.510000000000001
 30
0
 11
7.46000000000001
 21
4.510000000000001
 31
0
  0
LINE
  8
0
 62
7
  6
DASHDOT
 10
7.41000000000001
 20
3.350000000000002
 30
0
 11
3.699999999999994
 21
3.350000000000002
 31
0
  0
LINE
  8
0
 62
7
 10
3.700000000000005
 20
8.399999999999999
 30
0
 11
7.60000000000001
 21
8.399999999999999
 31
0
  0
LINE
  8
0
 62
7
 10
3.700000000000005
 20
8.399999999999999
 30
0
 11
3.700000000000005
 21
8.299999999999999
 31
0
  0
LINE
  8
0
 62
7
 10
7.46000000000001
 20
8.299999999999999
 30
0
 11
7.60000000000001
 21
8.299999999999999
 31
0
  0
LINE
  8
0
 62
7
 10
7.60000000000001
 20
11.15
 30
0
 11
3.700000000000005
 21
11.15
 31
0
  0
LINE
  8
0
 62
7
 10
3.700000000000005
 20
11.15
 30
0
 11
3.700000000000005
 21
11.05
 31
0
  0
LINE
  8
0
 62
7
 10
7.46000000000001
 20
11.05
 30
0
 11
7.46000000000001
 21
10.85
 31
0
  0
LINE
  8
0
 62
7
 10
7.46000000000001
 20
10.85
 30
0
 11
7.60000000000001
 21
10.85
 31
0
  0
LINE
  8
0
 62
7
 10
1.9
 20
11.15
 30
0
 11
0.7400000000000001
 21
11.15
 31
0
  0
LINE
  8
0
 62
7
 10
0.7400000000000001
 20
11.15
 30
0
 11
0.7400000000000001
 21
11.05
 31
0
  0
LINE
  8
0
 62
7
 10
4.86125742988134
 20
4.173351887810139
 30
0
 11
4.86125742988134
 21
4.29335188781014
 31
0
  0
LINE
  8
0
 62
7
 10
4.936857429881342
 20
4.29335188781014
 30
0
 11
4.882857429881341
 21
4.23335188781014
 31
0
  0
LINE
  8
0
 62
7
 10
4.882857429881341
 20
4.23335188781014
 30
0
 11
4.936857429881342
 21
4.173351887810139
 31
0
  0
LINE
  8
0
 62
7
 10
4.882857429881341
 20
4.23335188781014
 30
0
 11
4.86125742988134
 21
4.209351887810139
 31
0
  0
LINE
  8
0
 62
7
 10
5.044857429881341
 20
4.29335188781014
 30
0
 11
4.96925742988134
 21
4.29335188781014
 31
0
  0
LINE
  8
0
 62
7
 10
4.96925742988134
 20
4.29335188781014
 30
0
 11
4.96925742988134
 21
4.23335188781014
 31
0
  0
LINE
  8
0
 62
7
 10
4.96925742988134
 20
4.173351887810139
 30
0
 11
5.044857429881341
 21
4.173351887810139
 31
0
  0
LINE
  8
0
 62
7
 10
5.03405742988134
 20
4.23335188781014
 30
0
 11
4.96925742988134
 21
4.23335188781014
 31
0
  0
LINE
  8
0
 62
7
 10
4.96925742988134
 20
4.23335188781014
 30
0
 11
4.96925742988134
 21
4.173351887810139
 31
0
  0
LINE
  8
0
 62
7
 10
5.07725742988134
 20
4.173351887810139
 30
0
 11
5.07725742988134
 21
4.29335188781014
 31
0
  0
LINE
  8
0
 62
7
 10
5.07725742988134
 20
4.29335188781014
 30
0
 11
5.152857429881341
 21
4.173351887810139
 31
0
  0
LINE
  8
0
 62
7
 10
5.152857429881341
 20
4.173351887810139
 30
0
 11
5.152857429881341
 21
4.29335188781014
 31
0
  0
LINE
  8
0
 62
7
 10
5.18525742988134
 20
4.173351887810139
 30
0
 11
5.18525742988134
 21
4.29335188781014
 31
0
  0
LINE
  8
0
 62
7
 10
5.18525742988134
 20
4.29335188781014
 30
0
 11
5.260857429881341
 21
4.173351887810139
 31
0
  0
LINE
  8
0
 62
7
 10
5.260857429881341
 20
4.173351887810139
 30
0
 11
5.260857429881341
 21
4.29335188781014
 31
0
  0
LINE
  8
0
 62
7
 10
5.368857429881341
 20
4.257351887810141
 30
0
 11
5.366157429881341
 21
4.269351887810139
 31
0
  0
LINE
  8
0
 62
7
 10
5.366157429881341
 20
4.269351887810139
 30
0
 11
5.360757429881341
 21
4.27835188781014
 31
0
  0
LINE
  8
0
 62
7
 10
5.360757429881341
 20
4.27835188781014
 30
0
 11
5.355357429881341
 21
4.284351887810138
 31
0
  0
LINE
  8
0
 62
7
 10
5.355357429881341
 20
4.284351887810138
 30
0
 11
5.34725742988134
 21
4.29035188781014
 31
0
  0
LINE
  8
0
 62
7
 10
5.34725742988134
 20
4.29035188781014
 30
0
 11
5.33915742988134
 21
4.29335188781014
 31
0
  0
LINE
  8
0
 62
7
 10
5.33915742988134
 20
4.29335188781014
 30
0
 11
5.32295742988134
 21
4.29335188781014
 31
0
  0
LINE
  8
0
 62
7
 10
5.32295742988134
 20
4.29335188781014
 30
0
 11
5.31485742988134
 21
4.29035188781014
 31
0
  0
LINE
  8
0
 62
7
 10
5.31485742988134
 20
4.29035188781014
 30
0
 11
5.30675742988134
 21
4.284351887810138
 31
0
  0
LINE
  8
0
 62
7
 10
5.30675742988134
 20
4.284351887810138
 30
0
 11
5.301357429881341
 21
4.27835188781014
 31
0
  0
LINE
  8
0
 62
7
 10
5.301357429881341
 20
4.27835188781014
 30
0
 11
5.295957429881341
 21
4.269351887810139
 31
0
  0
LINE
  8
0
 62
7
 10
5.295957429881341
 20
4.269351887810139
 30
0
 11
5.293257429881341
 21
4.257351887810141
 31
0
  0
LINE
  8
0
 62
7
 10
5.293257429881341
 20
4.257351887810141
 30
0
 11
5.293257429881341
 21
4.209351887810139
 31
0
  0
LINE
  8
0
 62
7
 10
5.293257429881341
 20
4.209351887810139
 30
0
 11
5.295957429881341
 21
4.19735188781014
 31
0
  0
LINE
  8
0
 62
7
 10
5.295957429881341
 20
4.19735188781014
 30
0
 11
5.301357429881341
 21
4.18835188781014
 31
0
  0
LINE
  8
0
 62
7
 10
5.301357429881341
 20
4.18835188781014
 30
0
 11
5.30675742988134
 21
4.182351887810141
 31
0
  0
LINE
  8
0
 62
7
 10
5.30675742988134
 20
4.182351887810141
 30
0
 11
5.31485742988134
 21
4.176351887810141
 31
0
  0
LINE
  8
0
 62
7
 10
5.31485742988134
 20
4.176351887810141
 30
0
 11
5.32295742988134
 21
4.173351887810139
 31
0
  0
LINE
  8
0
 62
7
 10
5.32295742988134
 20
4.173351887810139
 30
0
 11
5.33915742988134
 21
4.173351887810139
 31
0
  0
LINE
  8
0
 62
7
 10
5.33915742988134
 20
4.173351887810139
 30
0
 11
5.34725742988134
 21
4.176351887810141
 31
0
  0
LINE
  8
0
 62
7
 10
5.34725742988134
 20
4.176351887810141
 30
0
 11
5.355357429881341
 21
4.182351887810141
 31
0
  0
LINE
  8
0
 62
7
 10
5.355357429881341
 20
4.182351887810141
 30
0
 11
5.360757429881341
 21
4.18835188781014
 31
0
  0
LINE
  8
0
 62
7
 10
5.360757429881341
 20
4.18835188781014
 30
0
 11
5.366157429881341
 21
4.19735188781014
 31
0
  0
LINE
  8
0
 62
7
 10
5.366157429881341
 20
4.19735188781014
 30
0
 11
5.368857429881341
 21
4.209351887810139
 31
0
  0
LINE
  8
0
 62
7
 10
5.368857429881341
 20
4.209351887810139
 30
0
 11
5.368857429881341
 21
4.23335188781014
 31
0
  0
LINE
  8
0
 62
7
 10
5.368857429881341
 20
4.23335188781014
 30
0
 11
5.33645742988134
 21
4.23335188781014
 31
0
  0
LINE
  8
0
 62
7
 10
5.44715742988134
 20
4.29335188781014
 30
0
 11
5.430957429881341
 21
4.29335188781014
 31
0
  0
LINE
  8
0
 62
7
 10
5.430957429881341
 20
4.29335188781014
 30
0
 11
5.422857429881342
 21
4.29035188781014
 31
0
  0
LINE
  8
0
 62
7
 10
5.422857429881342
 20
4.29035188781014
 30
0
 11
5.41475742988134
 21
4.284351887810138
 31
0
  0
LINE
  8
0
 62
7
 10
5.41475742988134
 20
4.284351887810138
 30
0
 11
5.40935742988134
 21
4.27835188781014
 31
0
  0
LINE
  8
0
 62
7
 10
5.40935742988134
 20
4.27835188781014
 30
0
 11
5.40395742988134
 21
4.269351887810139
 31
0
  0
LINE
  8
0
 62
7
 10
5.40395742988134
 20
4.269351887810139
 30
0
 11
5.40125742988134
 21
4.257351887810141
 31
0
  0
LINE
  8
0
 62
7
 10
5.40125742988134
 20
4.257351887810141
 30
0
 11
5.40125742988134
 21
4.209351887810139
 31
0
  0
LINE
  8
0
 62
7
 10
5.40125742988134
 20
4.209351887810139
 30
0
 11
5.40395742988134
 21
4.19735188781014
 31
0
  0
LINE
  8
0
 62
7
 10
5.40395742988134
 20
4.19735188781014
 30
0
 11
5.40935742988134
 21
4.18835188781014
 31
0
  0
LINE
  8
0
 62
7
 10
5.40935742988134
 20
4.18835188781014
 30
0
 11
5.41475742988134
 21
4.182351887810141
 31
0
  0
LINE
  8
0
 62
7
 10
5.41475742988134
 20
4.182351887810141
 30
0
 11
5.422857429881342
 21
4.176351887810141
 31
0
  0
LINE
  8
0
 62
7
 10
5.422857429881342
 20
4.176351887810141
 30
0
 11
5.430957429881341
 21
4.173351887810139
 31
0
  0
LINE
  8
0
 62
7
 10
5.430957429881341
 20
4.173351887810139
 30
0
 11
5.44715742988134
 21
4.173351887810139
 31
0
  0
LINE
  8
0
 62
7
 10
5.44715742988134
 20
4.173351887810139
 30
0
 11
5.45525742988134
 21
4.176351887810141
 31
0
  0
LINE
  8
0
 62
7
 10
5.45525742988134
 20
4.176351887810141
 30
0
 11
5.463357429881341
 21
4.182351887810141
 31
0
  0
LINE
  8
0
 62
7
 10
5.463357429881341
 20
4.182351887810141
 30
0
 11
5.46875742988134
 21
4.18835188781014
 31
0
  0
LINE
  8
0
 62
7
 10
5.46875742988134
 20
4.18835188781014
 30
0
 11
5.47415742988134
 21
4.19735188781014
 31
0
  0
LINE
  8
0
 62
7
 10
5.47415742988134
 20
4.19735188781014
 30
0
 11
5.476857429881341
 21
4.209351887810139
 31
0
  0
LINE
  8
0
 62
7
 10
5.476857429881341
 20
4.209351887810139
 30
0
 11
5.476857429881341
 21
4.257351887810141
 31
0
  0
LINE
  8
0
 62
7
 10
5.476857429881341
 20
4.257351887810141
 30
0
 11
5.47415742988134
 21
4.269351887810139
 31
0
  0
LINE
  8
0
 62
7
 10
5.47415742988134
 20
4.269351887810139
 30
0
 11
5.46875742988134
 21
4.27835188781014
 31
0
  0
LINE
  8
0
 62
7
 10
5.46875742988134
 20
4.27835188781014
 30
0
 11
5.463357429881341
 21
4.284351887810138
 31
0
  0
LINE
  8
0
 62
7
 10
5.463357429881341
 20
4.284351887810138
 30
0
 11
5.45525742988134
 21
4.29035188781014
 31
0
  0
LINE
  8
0
 62
7
 10
5.45525742988134
 20
4.29035188781014
 30
0
 11
5.44715742988134
 21
4.29335188781014
 31
0
  0
LINE
  8
0
 62
7
 10
5.498457429881341
 20
4.29335188781014
 30
0
 11
5.536257429881342
 21
4.29335188781014
 31
0
  0
LINE
  8
0
 62
7
 10
5.536257429881342
 20
4.29335188781014
 30
0
 11
5.536257429881342
 21
4.173351887810139
 31
0
  0
LINE
  8
0
 62
7
 10
5.536257429881342
 20
4.29335188781014
 30
0
 11
5.574057429881341
 21
4.29335188781014
 31
0
  0
LINE
  8
0
 62
7
 10
5.606457429881341
 20
4.29335188781014
 30
0
 11
5.644257429881341
 21
4.29335188781014
 31
0
  0
LINE
  8
0
 62
7
 10
5.644257429881341
 20
4.29335188781014
 30
0
 11
5.644257429881341
 21
4.173351887810139
 31
0
  0
LINE
  8
0
 62
7
 10
5.644257429881341
 20
4.29335188781014
 30
0
 11
5.682057429881342
 21
4.29335188781014
 31
0
  0
LINE
  8
0
 62
7
 10
5.80085742988134
 20
4.21535188781014
 30
0
 11
5.85485742988134
 21
4.21535188781014
 31
0
  0
LINE
  8
0
 62
7
 10
5.962857429881342
 20
4.29335188781014
 30
0
 11
6.000657429881341
 21
4.29335188781014
 31
0
  0
LINE
  8
0
 62
7
 10
6.000657429881341
 20
4.29335188781014
 30
0
 11
6.000657429881341
 21
4.173351887810139
 31
0
  0
LINE
  8
0
 62
7
 10
6.000657429881341
 20
4.29335188781014
 30
0
 11
6.03845742988134
 21
4.29335188781014
 31
0
  0
LINE
  8
0
 62
7
 10
6.07085742988134
 20
4.173351887810139
 30
0
 11
6.07085742988134
 21
4.29335188781014
 31
0
  0
LINE
  8
0
 62
7
 10
6.07085742988134
 20
4.29335188781014
 30
0
 11
6.122157429881341
 21
4.29335188781014
 31
0
  0
LINE
  8
0
 62
7
 10
6.122157429881341
 20
4.29335188781014
 30
0
 11
6.132957429881341
 21
4.29035188781014
 31
0
  0
LINE
  8
0
 62
7
 10
6.132957429881341
 20
4.29035188781014
 30
0
 11
6.14105742988134
 21
4.284351887810138
 31
0
  0
LINE
  8
0
 62
7
 10
6.14105742988134
 20
4.284351887810138
 30
0
 11
6.14375742988134
 21
4.27835188781014
 31
0
  0
LINE
  8
0
 62
7
 10
6.14375742988134
 20
4.27835188781014
 30
0
 11
6.146457429881341
 21
4.269351887810139
 31
0
  0
LINE
  8
0
 62
7
 10
6.146457429881341
 20
4.269351887810139
 30
0
 11
6.146457429881341
 21
4.257351887810141
 31
0
  0
LINE
  8
0
 62
7
 10
6.146457429881341
 20
4.257351887810141
 30
0
 11
6.14375742988134
 21
4.24835188781014
 31
0
  0
LINE
  8
0
 62
7
 10
6.14375742988134
 20
4.24835188781014
 30
0
 11
6.14105742988134
 21
4.24235188781014
 31
0
  0
LINE
  8
0
 62
7
 10
6.14105742988134
 20
4.24235188781014
 30
0
 11
6.132957429881341
 21
4.23635188781014
 31
0
  0
LINE
  8
0
 62
7
 10
6.132957429881341
 20
4.23635188781014
 30
0
 11
6.122157429881341
 21
4.23335188781014
 31
0
  0
LINE
  8
0
 62
7
 10
6.122157429881341
 20
4.23335188781014
 30
0
 11
6.11405742988134
 21
4.23335188781014
 31
0
  0
LINE
  8
0
 62
7
 10
6.11405742988134
 20
4.23335188781014
 30
0
 11
6.146457429881341
 21
4.173351887810139
 31
0
  0
LINE
  8
0
 62
7
 10
6.11405742988134
 20
4.23335188781014
 30
0
 11
6.07085742988134
 21
4.23335188781014
 31
0
  0
LINE
  8
0
 62
7
 10
6.243657429881342
 20
4.29335188781014
 30
0
 11
6.168057429881342
 21
4.29335188781014
 31
0
  0
LINE
  8
0
 62
7
 10
6.168057429881342
 20
4.29335188781014
 30
0
 11
6.168057429881342
 21
4.23335188781014
 31
0
  0
LINE
  8
0
 62
7
 10
6.168057429881342
 20
4.173351887810139
 30
0
 11
6.243657429881342
 21
4.173351887810139
 31
0
  0
LINE
  8
0
 62
7
 10
6.232857429881342
 20
4.23335188781014
 30
0
 11
6.168057429881342
 21
4.23335188781014
 31
0
  0
LINE
  8
0
 62
7
 10
6.168057429881342
 20
4.23335188781014
 30
0
 11
6.168057429881342
 21
4.173351887810139
 31
0
  0
LINE
  8
0
 62
7
 10
6.276057429881341
 20
4.173351887810139
 30
0
 11
6.276057429881341
 21
4.23335188781014
 31
0
  0
LINE
  8
0
 62
7
 10
6.276057429881341
 20
4.29335188781014
 30
0
 11
6.327357429881341
 21
4.29335188781014
 31
0
  0
LINE
  8
0
 62
7
 10
6.327357429881341
 20
4.29335188781014
 30
0
 11
6.338157429881342
 21
4.29035188781014
 31
0
  0
LINE
  8
0
 62
7
 10
6.338157429881342
 20
4.29035188781014
 30
0
 11
6.346257429881342
 21
4.284351887810138
 31
0
  0
LINE
  8
0
 62
7
 10
6.346257429881342
 20
4.284351887810138
 30
0
 11
6.348957429881342
 21
4.27835188781014
 31
0
  0
LINE
  8
0
 62
7
 10
6.348957429881342
 20
4.27835188781014
 30
0
 11
6.351657429881342
 21
4.269351887810139
 31
0
  0
LINE
  8
0
 62
7
 10
6.351657429881342
 20
4.269351887810139
 30
0
 11
6.351657429881342
 21
4.257351887810141
 31
0
  0
LINE
  8
0
 62
7
 10
6.351657429881342
 20
4.257351887810141
 30
0
 11
6.348957429881342
 21
4.24835188781014
 31
0
  0
LINE
  8
0
 62
7
 10
6.348957429881342
 20
4.24835188781014
 30
0
 11
6.346257429881342
 21
4.24235188781014
 31
0
  0
LINE
  8
0
 62
7
 10
6.346257429881342
 20
4.24235188781014
 30
0
 11
6.338157429881342
 21
4.23635188781014
 31
0
  0
LINE
  8
0
 62
7
 10
6.338157429881342
 20
4.23635188781014
 30
0
 11
6.327357429881341
 21
4.23335188781014
 31
0
  0
LINE
  8
0
 62
7
 10
6.327357429881341
 20
4.23335188781014
 30
0
 11
6.276057429881341
 21
4.23335188781014
 31
0
  0
LINE
  8
0
 62
7
 10
6.276057429881341
 20
4.23335188781014
 30
0
 11
6.276057429881341
 21
4.29335188781014
 31
0
  0
LINE
  8
0
 62
7
 10
6.373257429881342
 20
4.173351887810139
 30
0
 11
6.373257429881342
 21
4.23335188781014
 31
0
  0
LINE
  8
0
 62
7
 10
6.373257429881342
 20
4.29335188781014
 30
0
 11
6.424557429881343
 21
4.29335188781014
 31
0
  0
LINE
  8
0
 62
7
 10
6.424557429881343
 20
4.29335188781014
 30
0
 11
6.435357429881342
 21
4.29035188781014
 31
0
  0
LINE
  8
0
 62
7
 10
6.435357429881342
 20
4.29035188781014
 30
0
 11
6.443457429881342
 21
4.284351887810138
 31
0
  0
LINE
  8
0
 62
7
 10
6.443457429881342
 20
4.284351887810138
 30
0
 11
6.446157429881342
 21
4.27835188781014
 31
0
  0
LINE
  8
0
 62
7
 10
6.446157429881342
 20
4.27835188781014
 30
0
 11
6.448857429881341
 21
4.269351887810139
 31
0
  0
LINE
  8
0
 62
7
 10
6.448857429881341
 20
4.269351887810139
 30
0
 11
6.448857429881341
 21
4.257351887810141
 31
0
  0
LINE
  8
0
 62
7
 10
6.448857429881341
 20
4.257351887810141
 30
0
 11
6.446157429881342
 21
4.24835188781014
 31
0
  0
LINE
  8
0
 62
7
 10
6.446157429881342
 20
4.24835188781014
 30
0
 11
6.443457429881342
 21
4.24235188781014
 31
0
  0
LINE
  8
0
 62
7
 10
6.443457429881342
 20
4.24235188781014
 30
0
 11
6.435357429881342
 21
4.23635188781014
 31
0
  0
LINE
  8
0
 62
7
 10
6.435357429881342
 20
4.23635188781014
 30
0
 11
6.424557429881343
 21
4.23335188781014
 31
0
  0
LINE
  8
0
 62
7
 10
6.424557429881343
 20
4.23335188781014
 30
0
 11
6.373257429881342
 21
4.23335188781014
 31
0
  0
LINE
  8
0
 62
7
 10
6.373257429881342
 20
4.23335188781014
 30
0
 11
6.373257429881342
 21
4.29335188781014
 31
0
  0
LINE
  8
0
 62
7
 10
6.546057429881341
 20
4.29335188781014
 30
0
 11
6.470457429881342
 21
4.29335188781014
 31
0
  0
LINE
  8
0
 62
7
 10
6.470457429881342
 20
4.29335188781014
 30
0
 11
6.470457429881342
 21
4.23335188781014
 31
0
  0
LINE
  8
0
 62
7
 10
6.470457429881342
 20
4.173351887810139
 30
0
 11
6.546057429881341
 21
4.173351887810139
 31
0
  0
LINE
  8
0
 62
7
 10
6.535257429881341
 20
4.23335188781014
 30
0
 11
6.470457429881342
 21
4.23335188781014
 31
0
  0
LINE
  8
0
 62
7
 10
6.470457429881342
 20
4.23335188781014
 30
0
 11
6.470457429881342
 21
4.173351887810139
 31
0
  0
LINE
  8
0
 62
7
 10
4.37500000000001
 20
2.890000000000002
 30
0
 11
4.37500000000001
 21
3.010000000000002
 31
0
  0
LINE
  8
0
 62
7
 10
4.37500000000001
 20
3.010000000000002
 30
0
 11
4.418200000000009
 21
2.914000000000003
 31
0
  0
LINE
  8
0
 62
7
 10
4.418200000000009
 20
2.914000000000003
 30
0
 11
4.461400000000008
 21
3.010000000000002
 31
0
  0
LINE
  8
0
 62
7
 10
4.461400000000008
 20
3.010000000000002
 30
0
 11
4.461400000000008
 21
2.890000000000002
 31
0
  0
LINE
  8
0
 62
7
 10
4.569400000000009
 20
3.010000000000002
 30
0
 11
4.569400000000009
 21
2.926000000000004
 31
0
  0
LINE
  8
0
 62
7
 10
4.569400000000009
 20
2.926000000000004
 30
0
 11
4.566700000000008
 21
2.914000000000003
 31
0
  0
LINE
  8
0
 62
7
 10
4.566700000000008
 20
2.914000000000003
 30
0
 11
4.561300000000009
 21
2.905000000000002
 31
0
  0
LINE
  8
0
 62
7
 10
4.561300000000009
 20
2.905000000000002
 30
0
 11
4.555900000000009
 21
2.899000000000004
 31
0
  0
LINE
  8
0
 62
7
 10
4.555900000000009
 20
2.899000000000004
 30
0
 11
4.547800000000009
 21
2.893000000000002
 31
0
  0
LINE
  8
0
 62
7
 10
4.547800000000009
 20
2.893000000000002
 30
0
 11
4.539700000000009
 21
2.890000000000002
 31
0
  0
LINE
  8
0
 62
7
 10
4.539700000000009
 20
2.890000000000002
 30
0
 11
4.523500000000008
 21
2.890000000000002
 31
0
  0
LINE
  8
0
 62
7
 10
4.523500000000008
 20
2.890000000000002
 30
0
 11
4.515400000000009
 21
2.893000000000002
 31
0
  0
LINE
  8
0
 62
7
 10
4.515400000000009
 20
2.893000000000002
 30
0
 11
4.50730000000001
 21
2.899000000000004
 31
0
  0
LINE
  8
0
 62
7
 10
4.50730000000001
 20
2.899000000000004
 30
0
 11
4.501900000000009
 21
2.905000000000002
 31
0
  0
LINE
  8
0
 62
7
 10
4.501900000000009
 20
2.905000000000002
 30
0
 11
4.496500000000007
 21
2.914000000000003
 31
0
  0
LINE
  8
0
 62
7
 10
4.496500000000007
 20
2.914000000000003
 30
0
 11
4.493800000000009
 21
2.926000000000004
 31
0
  0
LINE
  8
0
 62
7
 10
4.493800000000009
 20
2.926000000000004
 30
0
 11
4.493800000000009
 21
3.010000000000002
 31
0
  0
LINE
  8
0
 62
7
 10
4.60180000000001
 20
3.010000000000002
 30
0
 11
4.639600000000009
 21
2.890000000000002
 31
0
  0
LINE
  8
0
 62
7
 10
4.639600000000009
 20
2.890000000000002
 30
0
 11
4.677400000000008
 21
3.010000000000002
 31
0
  0
LINE
  8
0
 62
7
 10
4.709800000000009
 20
2.992000000000003
 30
0
 11
4.715200000000008
 21
3.001000000000003
 31
0
  0
LINE
  8
0
 62
7
 10
4.715200000000008
 20
3.001000000000003
 30
0
 11
4.723300000000008
 21
3.007000000000002
 31
0
  0
LINE
  8
0
 62
7
 10
4.723300000000008
 20
3.007000000000002
 30
0
 11
4.734100000000009
 21
3.010000000000002
 31
0
  0
LINE
  8
0
 62
7
 10
4.734100000000009
 20
3.010000000000002
 30
0
 11
4.750300000000009
 21
3.010000000000002
 31
0
  0
LINE
  8
0
 62
7
 10
4.750300000000009
 20
3.010000000000002
 30
0
 11
4.758400000000009
 21
3.007000000000002
 31
0
  0
LINE
  8
0
 62
7
 10
4.758400000000009
 20
3.007000000000002
 30
0
 11
4.766500000000007
 21
3.001000000000003
 31
0
  0
LINE
  8
0
 62
7
 10
4.766500000000007
 20
3.001000000000003
 30
0
 11
4.771900000000008
 21
2.992000000000003
 31
0
  0
LINE
  8
0
 62
7
 10
4.771900000000008
 20
2.992000000000003
 30
0
 11
4.774600000000009
 21
2.980000000000002
 31
0
  0
LINE
  8
0
 62
7
 10
4.774600000000009
 20
2.980000000000002
 30
0
 11
4.774600000000009
 21
2.971000000000004
 31
0
  0
LINE
  8
0
 62
7
 10
4.774600000000009
 20
2.971000000000004
 30
0
 11
4.771900000000008
 21
2.962000000000002
 31
0
  0
LINE
  8
0
 62
7
 10
4.771900000000008
 20
2.962000000000002
 30
0
 11
4.766500000000007
 21
2.956000000000003
 31
0
  0
LINE
  8
0
 62
7
 10
4.766500000000007
 20
2.956000000000003
 30
0
 11
4.75300000000001
 21
2.950000000000003
 31
0
  0
LINE
  8
0
 62
7
 10
4.734100000000009
 20
2.950000000000003
 30
0
 11
4.75300000000001
 21
2.950000000000003
 31
0
  0
LINE
  8
0
 62
7
 10
4.75300000000001
 20
2.950000000000003
 30
0
 11
4.766500000000007
 21
2.944000000000004
 31
0
  0
LINE
  8
0
 62
7
 10
4.766500000000007
 20
2.944000000000004
 30
0
 11
4.771900000000008
 21
2.938000000000002
 31
0
  0
LINE
  8
0
 62
7
 10
4.771900000000008
 20
2.938000000000002
 30
0
 11
4.774600000000009
 21
2.929000000000003
 31
0
  0
LINE
  8
0
 62
7
 10
4.774600000000009
 20
2.929000000000003
 30
0
 11
4.774600000000009
 21
2.920000000000003
 31
0
  0
LINE
  8
0
 62
7
 10
4.774600000000009
 20
2.920000000000003
 30
0
 11
4.771900000000008
 21
2.908000000000002
 31
0
  0
LINE
  8
0
 62
7
 10
4.771900000000008
 20
2.908000000000002
 30
0
 11
4.766500000000007
 21
2.899000000000004
 31
0
  0
LINE
  8
0
 62
7
 10
4.766500000000007
 20
2.899000000000004
 30
0
 11
4.758400000000009
 21
2.893000000000002
 31
0
  0
LINE
  8
0
 62
7
 10
4.758400000000009
 20
2.893000000000002
 30
0
 11
4.750300000000009
 21
2.890000000000002
 31
0
  0
LINE
  8
0
 62
7
 10
4.750300000000009
 20
2.890000000000002
 30
0
 11
4.734100000000009
 21
2.890000000000002
 31
0
  0
LINE
  8
0
 62
7
 10
4.734100000000009
 20
2.890000000000002
 30
0
 11
4.723300000000008
 21
2.893000000000002
 31
0
  0
LINE
  8
0
 62
7
 10
4.723300000000008
 20
2.893000000000002
 30
0
 11
4.715200000000008
 21
2.899000000000004
 31
0
  0
LINE
  8
0
 62
7
 10
4.715200000000008
 20
2.899000000000004
 30
0
 11
4.709800000000009
 21
2.908000000000002
 31
0
  0
LINE
  8
0
 62
7
 10
4.807000000000009
 20
2.998000000000002
 30
0
 11
4.807000000000009
 21
3.010000000000002
 31
0
  0
LINE
  8
0
 62
7
 10
4.807000000000009
 20
3.010000000000002
 30
0
 11
4.87180000000001
 21
3.010000000000002
 31
0
  0
LINE
  8
0
 62
7
 10
4.87180000000001
 20
3.010000000000002
 30
0
 11
4.817800000000009
 21
2.890000000000002
 31
0
  0
LINE
  8
0
 62
7
 10
4.904200000000008
 20
2.938000000000002
 30
0
 11
4.906900000000008
 21
2.950000000000003
 31
0
  0
LINE
  8
0
 62
7
 10
4.906900000000008
 20
2.950000000000003
 30
0
 11
4.91230000000001
 21
2.959000000000003
 31
0
  0
LINE
  8
0
 62
7
 10
4.91230000000001
 20
2.959000000000003
 30
0
 11
4.920400000000008
 21
2.965000000000003
 31
0
  0
LINE
  8
0
 62
7
 10
4.920400000000008
 20
2.965000000000003
 30
0
 11
4.928500000000009
 21
2.968000000000002
 31
0
  0
LINE
  8
0
 62
7
 10
4.928500000000009
 20
2.968000000000002
 30
0
 11
4.944700000000008
 21
2.968000000000002
 31
0
  0
LINE
  8
0
 62
7
 10
4.944700000000008
 20
2.968000000000002
 30
0
 11
4.952800000000009
 21
2.965000000000003
 31
0
  0
LINE
  8
0
 62
7
 10
4.952800000000009
 20
2.965000000000003
 30
0
 11
4.960900000000009
 21
2.959000000000003
 31
0
  0
LINE
  8
0
 62
7
 10
4.960900000000009
 20
2.959000000000003
 30
0
 11
4.966300000000008
 21
2.950000000000003
 31
0
  0
LINE
  8
0
 62
7
 10
4.966300000000008
 20
2.950000000000003
 30
0
 11
4.969000000000008
 21
2.938000000000002
 31
0
  0
LINE
  8
0
 62
7
 10
4.969000000000008
 20
2.938000000000002
 30
0
 11
4.969000000000008
 21
2.920000000000003
 31
0
  0
LINE
  8
0
 62
7
 10
4.969000000000008
 20
2.920000000000003
 30
0
 11
4.966300000000008
 21
2.908000000000002
 31
0
  0
LINE
  8
0
 62
7
 10
4.966300000000008
 20
2.908000000000002
 30
0
 11
4.960900000000009
 21
2.899000000000004
 31
0
  0
LINE
  8
0
 62
7
 10
4.960900000000009
 20
2.899000000000004
 30
0
 11
4.952800000000009
 21
2.893000000000002
 31
0
  0
LINE
  8
0
 62
7
 10
4.952800000000009
 20
2.893000000000002
 30
0
 11
4.944700000000008
 21
2.890000000000002
 31
0
  0
LINE
  8
0
 62
7
 10
4.944700000000008
 20
2.890000000000002
 30
0
 11
4.928500000000009
 21
2.890000000000002
 31
0
  0
LINE
  8
0
 62
7
 10
4.928500000000009
 20
2.890000000000002
 30
0
 11
4.920400000000008
 21
2.893000000000002
 31
0
  0
LINE
  8
0
 62
7
 10
4.920400000000008
 20
2.893000000000002
 30
0
 11
4.91230000000001
 21
2.899000000000004
 31
0
  0
LINE
  8
0
 62
7
 10
4.91230000000001
 20
2.899000000000004
 30
0
 11
4.906900000000008
 21
2.908000000000002
 31
0
  0
LINE
  8
0
 62
7
 10
4.906900000000008
 20
2.908000000000002
 30
0
 11
4.904200000000008
 21
2.920000000000003
 31
0
  0
LINE
  8
0
 62
7
 10
4.904200000000008
 20
2.920000000000003
 30
0
 11
4.904200000000008
 21
2.938000000000002
 31
0
  0
LINE
  8
0
 62
7
 10
4.904200000000008
 20
2.980000000000002
 30
0
 11
4.906900000000008
 21
2.992000000000003
 31
0
  0
LINE
  8
0
 62
7
 10
4.906900000000008
 20
2.992000000000003
 30
0
 11
4.91230000000001
 21
3.001000000000003
 31
0
  0
LINE
  8
0
 62
7
 10
4.91230000000001
 20
3.001000000000003
 30
0
 11
4.920400000000008
 21
3.007000000000002
 31
0
  0
LINE
  8
0
 62
7
 10
4.920400000000008
 20
3.007000000000002
 30
0
 11
4.928500000000009
 21
3.010000000000002
 31
0
  0
LINE
  8
0
 62
7
 10
4.928500000000009
 20
3.010000000000002
 30
0
 11
4.944700000000008
 21
3.010000000000002
 31
0
  0
LINE
  8
0
 62
7
 10
4.944700000000008
 20
3.010000000000002
 30
0
 11
4.952800000000009
 21
3.007000000000002
 31
0
  0
LINE
  8
0
 62
7
 10
4.952800000000009
 20
3.007000000000002
 30
0
 11
4.960900000000009
 21
3.001000000000003
 31
0
  0
LINE
  8
0
 62
7
 10
4.960900000000009
 20
3.001000000000003
 30
0
 11
4.966300000000008
 21
2.992000000000003
 31
0
  0
LINE
  8
0
 62
7
 10
4.904200000000008
 20
2.938000000000002
 30
0
 11
4.904200000000008
 21
2.980000000000002
 31
0
  0
LINE
  8
0
 62
7
 10
5.001400000000009
 20
2.890000000000002
 30
0
 11
5.001400000000009
 21
3.010000000000002
 31
0
  0
LINE
  8
0
 62
7
 10
5.001400000000009
 20
3.010000000000002
 30
0
 11
5.05270000000001
 21
3.010000000000002
 31
0
  0
LINE
  8
0
 62
7
 10
5.05270000000001
 20
3.010000000000002
 30
0
 11
5.063500000000009
 21
3.007000000000002
 31
0
  0
LINE
  8
0
 62
7
 10
5.063500000000009
 20
3.007000000000002
 30
0
 11
5.071600000000009
 21
3.001000000000003
 31
0
  0
LINE
  8
0
 62
7
 10
5.071600000000009
 20
3.001000000000003
 30
0
 11
5.07430000000001
 21
2.995000000000003
 31
0
  0
LINE
  8
0
 62
7
 10
5.07430000000001
 20
2.995000000000003
 30
0
 11
5.077000000000011
 21
2.986000000000003
 31
0
  0
LINE
  8
0
 62
7
 10
5.077000000000011
 20
2.986000000000003
 30
0
 11
5.077000000000011
 21
2.974000000000004
 31
0
  0
LINE
  8
0
 62
7
 10
5.077000000000011
 20
2.974000000000004
 30
0
 11
5.07430000000001
 21
2.965000000000003
 31
0
  0
LINE
  8
0
 62
7
 10
5.07430000000001
 20
2.965000000000003
 30
0
 11
5.071600000000009
 21
2.959000000000003
 31
0
  0
LINE
  8
0
 62
7
 10
5.071600000000009
 20
2.959000000000003
 30
0
 11
5.063500000000009
 21
2.953000000000002
 31
0
  0
LINE
  8
0
 62
7
 10
5.063500000000009
 20
2.953000000000002
 30
0
 11
5.05270000000001
 21
2.950000000000003
 31
0
  0
LINE
  8
0
 62
7
 10
5.05270000000001
 20
2.950000000000003
 30
0
 11
5.044600000000009
 21
2.950000000000003
 31
0
  0
LINE
  8
0
 62
7
 10
5.044600000000009
 20
2.950000000000003
 30
0
 11
5.077000000000011
 21
2.890000000000002
 31
0
  0
LINE
  8
0
 62
7
 10
5.044600000000009
 20
2.950000000000003
 30
0
 11
5.001400000000009
 21
2.950000000000003
 31
0
  0
LINE
  8
0
 62
7
 10
5.09860000000001
 20
2.938000000000002
 30
0
 11
5.101300000000009
 21
2.950000000000003
 31
0
  0
LINE
  8
0
 62
7
 10
5.101300000000009
 20
2.950000000000003
 30
0
 11
5.10670000000001
 21
2.959000000000003
 31
0
  0
LINE
  8
0
 62
7
 10
5.10670000000001
 20
2.959000000000003
 30
0
 11
5.11480000000001
 21
2.965000000000003
 31
0
  0
LINE
  8
0
 62
7
 10
5.11480000000001
 20
2.965000000000003
 30
0
 11
5.122900000000009
 21
2.968000000000002
 31
0
  0
LINE
  8
0
 62
7
 10
5.122900000000009
 20
2.968000000000002
 30
0
 11
5.139100000000009
 21
2.968000000000002
 31
0
  0
LINE
  8
0
 62
7
 10
5.139100000000009
 20
2.968000000000002
 30
0
 11
5.14720000000001
 21
2.965000000000003
 31
0
  0
LINE
  8
0
 62
7
 10
5.14720000000001
 20
2.965000000000003
 30
0
 11
5.155300000000008
 21
2.959000000000003
 31
0
  0
LINE
  8
0
 62
7
 10
5.155300000000008
 20
2.959000000000003
 30
0
 11
5.16070000000001
 21
2.950000000000003
 31
0
  0
LINE
  8
0
 62
7
 10
5.16070000000001
 20
2.950000000000003
 30
0
 11
5.16340000000001
 21
2.938000000000002
 31
0
  0
LINE
  8
0
 62
7
 10
5.16340000000001
 20
2.938000000000002
 30
0
 11
5.16340000000001
 21
2.920000000000003
 31
0
  0
LINE
  8
0
 62
7
 10
5.16340000000001
 20
2.920000000000003
 30
0
 11
5.16070000000001
 21
2.908000000000002
 31
0
  0
LINE
  8
0
 62
7
 10
5.16070000000001
 20
2.908000000000002
 30
0
 11
5.155300000000008
 21
2.899000000000004
 31
0
  0
LINE
  8
0
 62
7
 10
5.155300000000008
 20
2.899000000000004
 30
0
 11
5.14720000000001
 21
2.893000000000002
 31
0
  0
LINE
  8
0
 62
7
 10
5.14720000000001
 20
2.893000000000002
 30
0
 11
5.139100000000009
 21
2.890000000000002
 31
0
  0
LINE
  8
0
 62
7
 10
5.139100000000009
 20
2.890000000000002
 30
0
 11
5.122900000000009
 21
2.890000000000002
 31
0
  0
LINE
  8
0
 62
7
 10
5.122900000000009
 20
2.890000000000002
 30
0
 11
5.11480000000001
 21
2.893000000000002
 31
0
  0
LINE
  8
0
 62
7
 10
5.11480000000001
 20
2.893000000000002
 30
0
 11
5.10670000000001
 21
2.899000000000004
 31
0
  0
LINE
  8
0
 62
7
 10
5.10670000000001
 20
2.899000000000004
 30
0
 11
5.101300000000009
 21
2.908000000000002
 31
0
  0
LINE
  8
0
 62
7
 10
5.101300000000009
 20
2.908000000000002
 30
0
 11
5.09860000000001
 21
2.920000000000003
 31
0
  0
LINE
  8
0
 62
7
 10
5.09860000000001
 20
2.920000000000003
 30
0
 11
5.09860000000001
 21
2.938000000000002
 31
0
  0
LINE
  8
0
 62
7
 10
5.09860000000001
 20
2.980000000000002
 30
0
 11
5.101300000000009
 21
2.992000000000003
 31
0
  0
LINE
  8
0
 62
7
 10
5.101300000000009
 20
2.992000000000003
 30
0
 11
5.10670000000001
 21
3.001000000000003
 31
0
  0
LINE
  8
0
 62
7
 10
5.10670000000001
 20
3.001000000000003
 30
0
 11
5.11480000000001
 21
3.007000000000002
 31
0
  0
LINE
  8
0
 62
7
 10
5.11480000000001
 20
3.007000000000002
 30
0
 11
5.122900000000009
 21
3.010000000000002
 31
0
  0
LINE
  8
0
 62
7
 10
5.122900000000009
 20
3.010000000000002
 30
0
 11
5.139100000000009
 21
3.010000000000002
 31
0
  0
LINE
  8
0
 62
7
 10
5.139100000000009
 20
3.010000000000002
 30
0
 11
5.14720000000001
 21
3.007000000000002
 31
0
  0
LINE
  8
0
 62
7
 10
5.14720000000001
 20
3.007000000000002
 30
0
 11
5.155300000000008
 21
3.001000000000003
 31
0
  0
LINE
  8
0
 62
7
 10
5.155300000000008
 20
3.001000000000003
 30
0
 11
5.16070000000001
 21
2.992000000000003
 31
0
  0
LINE
  8
0
 62
7
 10
5.09860000000001
 20
2.938000000000002
 30
0
 11
5.09860000000001
 21
2.980000000000002
 31
0
  0
LINE
  8
0
 62
7
 10
6.875000000000011
 20
2.890000000000002
 30
0
 11
6.875000000000011
 21
2.990000000000002
 31
0
  0
LINE
  8
0
 62
7
 10
6.875000000000011
 20
2.990000000000002
 30
0
 11
6.938000000000009
 21
2.890000000000002
 31
0
  0
LINE
  8
0
 62
7
 10
6.938000000000009
 20
2.890000000000002
 30
0
 11
6.938000000000009
 21
2.990000000000002
 31
0
  0
LINE
  8
0
 62
7
 10
7.01900000000001
 20
2.890000000000002
 30
0
 11
6.96500000000001
 21
2.890000000000002
 31
0
  0
LINE
  8
0
 62
7
 10
6.96500000000001
 20
2.890000000000002
 30
0
 11
6.96500000000001
 21
2.990000000000002
 31
0
  0
LINE
  8
0
 62
7
 10
7.046000000000008
 20
2.940000000000003
 30
0
 11
7.082000000000008
 21
2.940000000000003
 31
0
  0
LINE
  8
0
 62
7
 10
7.082000000000008
 20
2.940000000000003
 30
0
 11
7.08650000000001
 21
2.940000000000003
 31
0
  0
LINE
  8
0
 62
7
 10
7.08650000000001
 20
2.940000000000003
 30
0
 11
7.09550000000001
 21
2.935000000000002
 31
0
  0
LINE
  8
0
 62
7
 10
7.09550000000001
 20
2.935000000000002
 30
0
 11
7.10000000000001
 21
2.930000000000002
 31
0
  0
LINE
  8
0
 62
7
 10
7.10000000000001
 20
2.930000000000002
 30
0
 11
7.104500000000009
 21
2.920000000000003
 31
0
  0
LINE
  8
0
 62
7
 10
7.104500000000009
 20
2.920000000000003
 30
0
 11
7.104500000000009
 21
2.910000000000002
 31
0
  0
LINE
  8
0
 62
7
 10
7.104500000000009
 20
2.910000000000002
 30
0
 11
7.10000000000001
 21
2.900000000000003
 31
0
  0
LINE
  8
0
 62
7
 10
7.10000000000001
 20
2.900000000000003
 30
0
 11
7.09550000000001
 21
2.895000000000003
 31
0
  0
LINE
  8
0
 62
7
 10
7.09550000000001
 20
2.895000000000003
 30
0
 11
7.08650000000001
 21
2.890000000000002
 31
0
  0
LINE
  8
0
 62
7
 10
7.08650000000001
 20
2.890000000000002
 30
0
 11
7.046000000000008
 21
2.890000000000002
 31
0
  0
LINE
  8
0
 62
7
 10
7.046000000000008
 20
2.890000000000002
 30
0
 11
7.046000000000008
 21
2.940000000000003
 31
0
  0
LINE
  8
0
 62
7
 10
7.046000000000008
 20
2.990000000000002
 30
0
 11
7.079750000000009
 21
2.990000000000002
 31
0
  0
LINE
  8
0
 62
7
 10
7.079750000000009
 20
2.990000000000002
 30
0
 11
7.091000000000008
 21
2.987500000000002
 31
0
  0
LINE
  8
0
 62
7
 10
7.091000000000008
 20
2.987500000000002
 30
0
 11
7.097750000000009
 21
2.980000000000002
 31
0
  0
LINE
  8
0
 62
7
 10
7.097750000000009
 20
2.980000000000002
 30
0
 11
7.10000000000001
 21
2.970000000000002
 31
0
  0
LINE
  8
0
 62
7
 10
7.10000000000001
 20
2.970000000000002
 30
0
 11
7.10000000000001
 21
2.960000000000003
 31
0
  0
LINE
  8
0
 62
7
 10
7.10000000000001
 20
2.960000000000003
 30
0
 11
7.09550000000001
 21
2.950000000000003
 31
0
  0
LINE
  8
0
 62
7
 10
7.09550000000001
 20
2.950000000000003
 30
0
 11
7.088750000000009
 21
2.942500000000003
 31
0
  0
LINE
  8
0
 62
7
 10
7.088750000000009
 20
2.942500000000003
 30
0
 11
7.082000000000008
 21
2.940000000000003
 31
0
  0
LINE
  8
0
 62
7
 10
7.046000000000008
 20
2.940000000000003
 30
0
 11
7.046000000000008
 21
2.990000000000002
 31
0
  0
LINE
  8
0
 62
7
 10
7.24625000000001
 20
2.942500000000003
 30
0
 11
7.239500000000008
 21
2.952500000000002
 31
0
  0
LINE
  8
0
 62
7
 10
7.239500000000008
 20
2.952500000000002
 30
0
 11
7.232750000000009
 21
2.957500000000003
 31
0
  0
LINE
  8
0
 62
7
 10
7.232750000000009
 20
2.957500000000003
 30
0
 11
7.22600000000001
 21
2.960000000000003
 31
0
  0
LINE
  8
0
 62
7
 10
7.22600000000001
 20
2.960000000000003
 30
0
 11
7.217000000000009
 21
2.960000000000003
 31
0
  0
LINE
  8
0
 62
7
 10
7.217000000000009
 20
2.960000000000003
 30
0
 11
7.210250000000009
 21
2.957500000000003
 31
0
  0
LINE
  8
0
 62
7
 10
7.210250000000009
 20
2.957500000000003
 30
0
 11
7.203500000000009
 21
2.952500000000002
 31
0
  0
LINE
  8
0
 62
7
 10
7.203500000000009
 20
2.952500000000002
 30
0
 11
7.196750000000009
 21
2.942500000000003
 31
0
  0
LINE
  8
0
 62
7
 10
7.196750000000009
 20
2.942500000000003
 30
0
 11
7.194500000000009
 21
2.935000000000002
 31
0
  0
LINE
  8
0
 62
7
 10
7.194500000000009
 20
2.935000000000002
 30
0
 11
7.194500000000009
 21
2.915000000000003
 31
0
  0
LINE
  8
0
 62
7
 10
7.194500000000009
 20
2.915000000000003
 30
0
 11
7.196750000000009
 21
2.907500000000002
 31
0
  0
LINE
  8
0
 62
7
 10
7.196750000000009
 20
2.907500000000002
 30
0
 11
7.203500000000009
 21
2.897500000000003
 31
0
  0
LINE
  8
0
 62
7
 10
7.203500000000009
 20
2.897500000000003
 30
0
 11
7.210250000000009
 21
2.892500000000002
 31
0
  0
LINE
  8
0
 62
7
 10
7.210250000000009
 20
2.892500000000002
 30
0
 11
7.217000000000009
 21
2.890000000000002
 31
0
  0
LINE
  8
0
 62
7
 10
7.217000000000009
 20
2.890000000000002
 30
0
 11
7.22600000000001
 21
2.890000000000002
 31
0
  0
LINE
  8
0
 62
7
 10
7.22600000000001
 20
2.890000000000002
 30
0
 11
7.232750000000009
 21
2.892500000000002
 31
0
  0
LINE
  8
0
 62
7
 10
7.232750000000009
 20
2.892500000000002
 30
0
 11
7.239500000000008
 21
2.897500000000003
 31
0
  0
LINE
  8
0
 62
7
 10
7.239500000000008
 20
2.897500000000003
 30
0
 11
7.24625000000001
 21
2.907500000000002
 31
0
  0
LINE
  8
0
 62
7
 10
7.31825000000001
 20
2.935000000000002
 30
0
 11
7.316000000000009
 21
2.942500000000003
 31
0
  0
LINE
  8
0
 62
7
 10
7.316000000000009
 20
2.942500000000003
 30
0
 11
7.309250000000009
 21
2.952500000000002
 31
0
  0
LINE
  8
0
 62
7
 10
7.309250000000009
 20
2.952500000000002
 30
0
 11
7.302500000000009
 21
2.957500000000003
 31
0
  0
LINE
  8
0
 62
7
 10
7.302500000000009
 20
2.957500000000003
 30
0
 11
7.295750000000009
 21
2.960000000000003
 31
0
  0
LINE
  8
0
 62
7
 10
7.295750000000009
 20
2.960000000000003
 30
0
 11
7.286750000000009
 21
2.960000000000003
 31
0
  0
LINE
  8
0
 62
7
 10
7.286750000000009
 20
2.960000000000003
 30
0
 11
7.28000000000001
 21
2.957500000000003
 31
0
  0
LINE
  8
0
 62
7
 10
7.28000000000001
 20
2.957500000000003
 30
0
 11
7.273250000000009
 21
2.952500000000002
 31
0
  0
LINE
  8
0
 62
7
 10
7.273250000000009
 20
2.952500000000002
 30
0
 11
7.26650000000001
 21
2.942500000000003
 31
0
  0
LINE
  8
0
 62
7
 10
7.26650000000001
 20
2.942500000000003
 30
0
 11
7.26425000000001
 21
2.935000000000002
 31
0
  0
LINE
  8
0
 62
7
 10
7.26425000000001
 20
2.935000000000002
 30
0
 11
7.26425000000001
 21
2.915000000000003
 31
0
  0
LINE
  8
0
 62
7
 10
7.26425000000001
 20
2.915000000000003
 30
0
 11
7.26650000000001
 21
2.907500000000002
 31
0
  0
LINE
  8
0
 62
7
 10
7.26650000000001
 20
2.907500000000002
 30
0
 11
7.273250000000009
 21
2.897500000000003
 31
0
  0
LINE
  8
0
 62
7
 10
7.273250000000009
 20
2.897500000000003
 30
0
 11
7.28000000000001
 21
2.892500000000002
 31
0
  0
LINE
  8
0
 62
7
 10
7.28000000000001
 20
2.892500000000002
 30
0
 11
7.286750000000009
 21
2.890000000000002
 31
0
  0
LINE
  8
0
 62
7
 10
7.286750000000009
 20
2.890000000000002
 30
0
 11
7.295750000000009
 21
2.890000000000002
 31
0
  0
LINE
  8
0
 62
7
 10
7.295750000000009
 20
2.890000000000002
 30
0
 11
7.302500000000009
 21
2.892500000000002
 31
0
  0
LINE
  8
0
 62
7
 10
7.302500000000009
 20
2.892500000000002
 30
0
 11
7.309250000000009
 21
2.897500000000003
 31
0
  0
LINE
  8
0
 62
7
 10
7.309250000000009
 20
2.897500000000003
 30
0
 11
7.316000000000009
 21
2.907500000000002
 31
0
  0
LINE
  8
0
 62
7
 10
7.316000000000009
 20
2.907500000000002
 30
0
 11
7.31825000000001
 21
2.915000000000003
 31
0
  0
LINE
  8
0
 62
7
 10
7.31825000000001
 20
2.960000000000003
 30
0
 11
7.31825000000001
 21
2.935000000000002
 31
0
  0
LINE
  8
0
 62
7
 10
7.31825000000001
 20
2.892500000000002
 30
0
 11
7.32050000000001
 21
2.890000000000002
 31
0
  0
LINE
  8
0
 62
7
 10
7.32050000000001
 20
2.890000000000002
 30
0
 11
7.32275000000001
 21
2.890000000000002
 31
0
  0
LINE
  8
0
 62
7
 10
7.31825000000001
 20
2.915000000000003
 30
0
 11
7.31825000000001
 21
2.892500000000002
 31
0
  0
LINE
  8
0
 62
7
 10
7.31825000000001
 20
2.935000000000002
 30
0
 11
7.31825000000001
 21
2.915000000000003
 31
0
  0
LINE
  8
0
 62
7
 10
7.340750000000009
 20
2.890000000000002
 30
0
 11
7.340750000000009
 21
2.892500000000002
 31
0
  0
LINE
  8
0
 62
7
 10
7.340750000000009
 20
2.892500000000002
 30
0
 11
7.34300000000001
 21
2.892500000000002
 31
0
  0
LINE
  8
0
 62
7
 10
7.34300000000001
 20
2.892500000000002
 30
0
 11
7.34300000000001
 21
2.890000000000002
 31
0
  0
LINE
  8
0
 62
7
 10
7.34300000000001
 20
2.890000000000002
 30
0
 11
7.340750000000009
 21
2.890000000000002
 31
0
  0
LINE
  8
0
 62
7
 10
7.44425000000001
 20
2.960000000000003
 30
0
 11
7.471250000000009
 21
2.990000000000002
 31
0
  0
LINE
  8
0
 62
7
 10
7.471250000000009
 20
2.990000000000002
 30
0
 11
7.471250000000009
 21
2.890000000000002
 31
0
  0
LINE
  8
0
 62
7
 10
7.498250000000009
 20
2.965000000000003
 30
0
 11
7.500500000000009
 21
2.975000000000003
 31
0
  0
LINE
  8
0
 62
7
 10
7.500500000000009
 20
2.975000000000003
 30
0
 11
7.50500000000001
 21
2.982500000000003
 31
0
  0
LINE
  8
0
 62
7
 10
7.50500000000001
 20
2.982500000000003
 30
0
 11
7.51175000000001
 21
2.987500000000002
 31
0
  0
LINE
  8
0
 62
7
 10
7.51175000000001
 20
2.987500000000002
 30
0
 11
7.518500000000009
 21
2.990000000000002
 31
0
  0
LINE
  8
0
 62
7
 10
7.518500000000009
 20
2.990000000000002
 30
0
 11
7.532000000000008
 21
2.990000000000002
 31
0
  0
LINE
  8
0
 62
7
 10
7.532000000000008
 20
2.990000000000002
 30
0
 11
7.538750000000009
 21
2.987500000000002
 31
0
  0
LINE
  8
0
 62
7
 10
7.538750000000009
 20
2.987500000000002
 30
0
 11
7.54550000000001
 21
2.982500000000003
 31
0
  0
LINE
  8
0
 62
7
 10
7.54550000000001
 20
2.982500000000003
 30
0
 11
7.55000000000001
 21
2.975000000000003
 31
0
  0
LINE
  8
0
 62
7
 10
7.55000000000001
 20
2.975000000000003
 30
0
 11
7.552250000000008
 21
2.965000000000003
 31
0
  0
LINE
  8
0
 62
7
 10
7.552250000000008
 20
2.965000000000003
 30
0
 11
7.552250000000008
 21
2.915000000000003
 31
0
  0
LINE
  8
0
 62
7
 10
7.552250000000008
 20
2.915000000000003
 30
0
 11
7.55000000000001
 21
2.905000000000002
 31
0
  0
LINE
  8
0
 62
7
 10
7.55000000000001
 20
2.905000000000002
 30
0
 11
7.54550000000001
 21
2.897500000000003
 31
0
  0
LINE
  8
0
 62
7
 10
7.54550000000001
 20
2.897500000000003
 30
0
 11
7.538750000000009
 21
2.892500000000002
 31
0
  0
LINE
  8
0
 62
7
 10
7.538750000000009
 20
2.892500000000002
 30
0
 11
7.532000000000008
 21
2.890000000000002
 31
0
  0
LINE
  8
0
 62
7
 10
7.532000000000008
 20
2.890000000000002
 30
0
 11
7.518500000000009
 21
2.890000000000002
 31
0
  0
LINE
  8
0
 62
7
 10
7.518500000000009
 20
2.890000000000002
 30
0
 11
7.51175000000001
 21
2.892500000000002
 31
0
  0
LINE
  8
0
 62
7
 10
7.51175000000001
 20
2.892500000000002
 30
0
 11
7.50500000000001
 21
2.897500000000003
 31
0
  0
LINE
  8
0
 62
7
 10
7.50500000000001
 20
2.897500000000003
 30
0
 11
7.500500000000009
 21
2.905000000000002
 31
0
  0
LINE
  8
0
 62
7
 10
7.500500000000009
 20
2.905000000000002
 30
0
 11
7.498250000000009
 21
2.915000000000003
 31
0
  0
LINE
  8
0
 62
7
 10
7.498250000000009
 20
2.915000000000003
 30
0
 11
7.498250000000009
 21
2.965000000000003
 31
0
  0
LINE
  8
0
 62
7
 10
7.579250000000009
 20
2.965000000000003
 30
0
 11
7.58150000000001
 21
2.975000000000003
 31
0
  0
LINE
  8
0
 62
7
 10
7.58150000000001
 20
2.975000000000003
 30
0
 11
7.586000000000009
 21
2.982500000000003
 31
0
  0
LINE
  8
0
 62
7
 10
7.586000000000009
 20
2.982500000000003
 30
0
 11
7.592750000000009
 21
2.987500000000002
 31
0
  0
LINE
  8
0
 62
7
 10
7.592750000000009
 20
2.987500000000002
 30
0
 11
7.59950000000001
 21
2.990000000000002
 31
0
  0
LINE
  8
0
 62
7
 10
7.59950000000001
 20
2.990000000000002
 30
0
 11
7.61300000000001
 21
2.990000000000002
 31
0
  0
LINE
  8
0
 62
7
 10
7.61300000000001
 20
2.990000000000002
 30
0
 11
7.61975000000001
 21
2.987500000000002
 31
0
  0
LINE
  8
0
 62
7
 10
7.61975000000001
 20
2.987500000000002
 30
0
 11
7.626500000000009
 21
2.982500000000003
 31
0
  0
LINE
  8
0
 62
7
 10
7.626500000000009
 20
2.982500000000003
 30
0
 11
7.631000000000009
 21
2.975000000000003
 31
0
  0
LINE
  8
0
 62
7
 10
7.631000000000009
 20
2.975000000000003
 30
0
 11
7.633250000000008
 21
2.965000000000003
 31
0
  0
LINE
  8
0
 62
7
 10
7.633250000000008
 20
2.965000000000003
 30
0
 11
7.633250000000008
 21
2.915000000000003
 31
0
  0
LINE
  8
0
 62
7
 10
7.633250000000008
 20
2.915000000000003
 30
0
 11
7.631000000000009
 21
2.905000000000002
 31
0
  0
LINE
  8
0
 62
7
 10
7.631000000000009
 20
2.905000000000002
 30
0
 11
7.626500000000009
 21
2.897500000000003
 31
0
  0
LINE
  8
0
 62
7
 10
7.626500000000009
 20
2.897500000000003
 30
0
 11
7.61975000000001
 21
2.892500000000002
 31
0
  0
LINE
  8
0
 62
7
 10
7.61975000000001
 20
2.892500000000002
 30
0
 11
7.61300000000001
 21
2.890000000000002
 31
0
  0
LINE
  8
0
 62
7
 10
7.61300000000001
 20
2.890000000000002
 30
0
 11
7.59950000000001
 21
2.890000000000002
 31
0
  0
LINE
  8
0
 62
7
 10
7.59950000000001
 20
2.890000000000002
 30
0
 11
7.592750000000009
 21
2.892500000000002
 31
0
  0
LINE
  8
0
 62
7
 10
7.592750000000009
 20
2.892500000000002
 30
0
 11
7.586000000000009
 21
2.897500000000003
 31
0
  0
LINE
  8
0
 62
7
 10
7.586000000000009
 20
2.897500000000003
 30
0
 11
7.58150000000001
 21
2.905000000000002
 31
0
  0
LINE
  8
0
 62
7
 10
7.58150000000001
 20
2.905000000000002
 30
0
 11
7.579250000000009
 21
2.915000000000003
 31
0
  0
LINE
  8
0
 62
7
 10
7.579250000000009
 20
2.915000000000003
 30
0
 11
7.579250000000009
 21
2.965000000000003
 31
0
  0
LINE
  8
0
 62
7
 10
7.78400000000001
 20
2.942500000000003
 30
0
 11
7.777250000000008
 21
2.952500000000002
 31
0
  0
LINE
  8
0
 62
7
 10
7.777250000000008
 20
2.952500000000002
 30
0
 11
7.77050000000001
 21
2.957500000000003
 31
0
  0
LINE
  8
0
 62
7
 10
7.77050000000001
 20
2.957500000000003
 30
0
 11
7.763750000000009
 21
2.960000000000003
 31
0
  0
LINE
  8
0
 62
7
 10
7.763750000000009
 20
2.960000000000003
 30
0
 11
7.754750000000008
 21
2.960000000000003
 31
0
  0
LINE
  8
0
 62
7
 10
7.754750000000008
 20
2.960000000000003
 30
0
 11
7.748000000000009
 21
2.957500000000003
 31
0
  0
LINE
  8
0
 62
7
 10
7.748000000000009
 20
2.957500000000003
 30
0
 11
7.74125000000001
 21
2.952500000000002
 31
0
  0
LINE
  8
0
 62
7
 10
7.74125000000001
 20
2.952500000000002
 30
0
 11
7.734500000000009
 21
2.942500000000003
 31
0
  0
LINE
  8
0
 62
7
 10
7.734500000000009
 20
2.942500000000003
 30
0
 11
7.732250000000009
 21
2.935000000000002
 31
0
  0
LINE
  8
0
 62
7
 10
7.732250000000009
 20
2.935000000000002
 30
0
 11
7.732250000000009
 21
2.915000000000003
 31
0
  0
LINE
  8
0
 62
7
 10
7.732250000000009
 20
2.915000000000003
 30
0
 11
7.734500000000009
 21
2.907500000000002
 31
0
  0
LINE
  8
0
 62
7
 10
7.734500000000009
 20
2.907500000000002
 30
0
 11
7.74125000000001
 21
2.897500000000003
 31
0
  0
LINE
  8
0
 62
7
 10
7.74125000000001
 20
2.897500000000003
 30
0
 11
7.748000000000009
 21
2.892500000000002
 31
0
  0
LINE
  8
0
 62
7
 10
7.748000000000009
 20
2.892500000000002
 30
0
 11
7.754750000000008
 21
2.890000000000002
 31
0
  0
LINE
  8
0
 62
7
 10
7.754750000000008
 20
2.890000000000002
 30
0
 11
7.763750000000009
 21
2.890000000000002
 31
0
  0
LINE
  8
0
 62
7
 10
7.763750000000009
 20
2.890000000000002
 30
0
 11
7.77050000000001
 21
2.892500000000002
 31
0
  0
LINE
  8
0
 62
7
 10
7.77050000000001
 20
2.892500000000002
 30
0
 11
7.777250000000008
 21
2.897500000000003
 31
0
  0
LINE
  8
0
 62
7
 10
7.777250000000008
 20
2.897500000000003
 30
0
 11
7.78400000000001
 21
2.907500000000002
 31
0
  0
LINE
  8
0
 62
7
 10
7.84250000000001
 20
2.935000000000002
 30
0
 11
7.84250000000001
 21
2.890000000000002
 31
0
  0
LINE
  8
0
 62
7
 10
7.802000000000008
 20
2.960000000000003
 30
0
 11
7.802000000000008
 21
2.935000000000002
 31
0
  0
LINE
  8
0
 62
7
 10
7.802000000000008
 20
2.890000000000002
 30
0
 11
7.802000000000008
 21
2.935000000000002
 31
0
  0
LINE
  8
0
 62
7
 10
7.802000000000008
 20
2.935000000000002
 30
0
 11
7.804250000000009
 21
2.947500000000002
 31
0
  0
LINE
  8
0
 62
7
 10
7.804250000000009
 20
2.947500000000002
 30
0
 11
7.80650000000001
 21
2.952500000000002
 31
0
  0
LINE
  8
0
 62
7
 10
7.80650000000001
 20
2.952500000000002
 30
0
 11
7.811000000000009
 21
2.957500000000003
 31
0
  0
LINE
  8
0
 62
7
 10
7.811000000000009
 20
2.957500000000003
 30
0
 11
7.81775000000001
 21
2.960000000000003
 31
0
  0
LINE
  8
0
 62
7
 10
7.81775000000001
 20
2.960000000000003
 30
0
 11
7.82675000000001
 21
2.960000000000003
 31
0
  0
LINE
  8
0
 62
7
 10
7.82675000000001
 20
2.960000000000003
 30
0
 11
7.833500000000008
 21
2.957500000000003
 31
0
  0
LINE
  8
0
 62
7
 10
7.833500000000008
 20
2.957500000000003
 30
0
 11
7.83800000000001
 21
2.952500000000002
 31
0
  0
LINE
  8
0
 62
7
 10
7.83800000000001
 20
2.952500000000002
 30
0
 11
7.840250000000009
 21
2.947500000000002
 31
0
  0
LINE
  8
0
 62
7
 10
7.840250000000009
 20
2.947500000000002
 30
0
 11
7.84250000000001
 21
2.935000000000002
 31
0
  0
LINE
  8
0
 62
7
 10
7.84250000000001
 20
2.935000000000002
 30
0
 11
7.844750000000009
 21
2.947500000000002
 31
0
  0
LINE
  8
0
 62
7
 10
7.844750000000009
 20
2.947500000000002
 30
0
 11
7.847000000000008
 21
2.952500000000002
 31
0
  0
LINE
  8
0
 62
7
 10
7.847000000000008
 20
2.952500000000002
 30
0
 11
7.851500000000009
 21
2.957500000000003
 31
0
  0
LINE
  8
0
 62
7
 10
7.851500000000009
 20
2.957500000000003
 30
0
 11
7.858250000000009
 21
2.960000000000003
 31
0
  0
LINE
  8
0
 62
7
 10
7.858250000000009
 20
2.960000000000003
 30
0
 11
7.867250000000009
 21
2.960000000000003
 31
0
  0
LINE
  8
0
 62
7
 10
7.867250000000009
 20
2.960000000000003
 30
0
 11
7.874000000000009
 21
2.957500000000003
 31
0
  0
LINE
  8
0
 62
7
 10
7.878500000000009
 20
2.952500000000002
 30
0
 11
7.874000000000009
 21
2.957500000000003
 31
0
  0
LINE
  8
0
 62
7
 10
7.874000000000009
 20
2.957500000000003
 30
0
 11
7.878500000000009
 21
2.952500000000002
 31
0
  0
LINE
  8
0
 62
7
 10
7.878500000000009
 20
2.952500000000002
 30
0
 11
7.88075000000001
 21
2.947500000000002
 31
0
  0
LINE
  8
0
 62
7
 10
7.88075000000001
 20
2.947500000000002
 30
0
 11
7.88300000000001
 21
2.935000000000002
 31
0
  0
LINE
  8
0
 62
7
 10
7.88300000000001
 20
2.935000000000002
 30
0
 11
7.88300000000001
 21
2.890000000000002
 31
0
  0
ARC
  8
0
 62
7
 10
4.814558227175157
 20
3.395441772824872
 30
0
 40
0.5770000000000078
 50
89.95613219849191
 51
180.0438677982004
  0
CIRCLE
  8
0
 62
7
 10
4.237558396294086
 20
3.250000000000002
 30
0
 40
0.0600000000000005
  0
DIMENSION
  8
0
  6
CONTINUOUS
 62
7
  2
*D1
  3
DMST_1
 10
3.29976368782754
 20
4.510000000000001
 30
0
 11
3.29976368782754
 21
3.90356365690669
 31
0
 12
0
 22
0
 32
0
 70
0
 13
3.700000000000005
 23
3.250000000000002
 33
0
 14
3.700000000000006
 24
4.510000000000001
 34
0
 50
90
 53
0
  0
DIMENSION
  8
0
  6
CONTINUOUS
 62
7
  2
*D2
  3
DMST_1
 10
7.754666402651451
 20
3.350000000000002
 30
0
 11
7.754666402651451
 21
3.90356365690669
 31
0
 12
0
 22
0
 32
0
 70
0
 13
7.46000000000001
 23
4.510000000000001
 33
0
 14
7.46000000000001
 24
3.350000000000002
 34
0
 50
90
 53
0
  0
DIMENSION
  8
0
  6
CONTINUOUS
 62
7
  2
*D3
  3
DMST_1
 10
7.46000000000001
 20
5.3606632043826
 30
0
 11
5.62873427600626
 21
5.3606632043826
 31
0
 12
0
 22
0
 32
0
 70
0
 13
3.700000000000006
 23
4.510000000000001
 33
0
 14
7.46000000000001
 24
4.510000000000001
 34
0
 53
0
  0
DIMENSION
  8
0
  6
CONTINUOUS
 62
7
  2
*D4
  3
DMST_1
 10
3.700000000000004
 20
11.4518170503885
 30
0
 11
5.56901708143758
 21
11.4518170503885
 31
0
 12
0
 22
0
 32
0
 70
0
 13
7.46000000000001
 23
11.05
 33
0
 14
3.700000000000005
 24
11.05
 34
0
 53
0
  0
INSERT
  8
0
  2
*D0
 10
0
 20
0
 30
0
  0
ENDSEC
  0
EOF
