  0
SECTION
  2
HEADER
  9
$ACADVER
  1
AC1009
  9
$INSBASE
 10
0
 20
0
  9
$EXTMIN
 10
0.5086159025861521
 20
2.890000000000001
  9
$EXTMAX
 10
8.249999999999998
 20
11.5451188112473
  9
$LIMMIN
 10
0.5086159025861521
 20
2.890000000000001
  9
$LIMMAX
 10
8.249999999999998
 20
11.5451188112473
  9
$VIEWCTR
 10
10
 20
10
  9
$VIEWSIZE
 40
10
  9
$SNAPMODE
 70
0
  9
$SNAPUNIT
 10
1
 20
1
  9
$SNAPBASE
 10
0
 20
0
  9
$SNAPANG
 50
0
  9
$SNAPSTYLE
 70
0
  9
$SNAPISOPAIR
 70
0
  9
$GRIDMODE
 70
0
  9
$GRIDUNIT
 10
0
 20
0
  9
$ORTHOMODE
 70
0
  9
$REGENMODE
 70
1
  9
$FILLMODE
 70
1
  9
$QTEXTMODE
 70
0
  9
$DRAGMODE
 70
2
  9
$LTSCALE
 40
1
  9
$OSMODE
 70
0
  9
$ATTMODE
 70
1
  9
$TEXTSIZE
 40
3.5
  9
$TRACEWID
 40
0.5
  9
$TEXTSTYLE
  7
STANDARD
  9
$CLAYER
  8
0
  9
$CELTYPE
  6
BYLAYER
  9
$CECOLOR
 62
256
  9
$DIMSCALE
 40
1
  9
$DIMASZ
 40
0.18
  9
$DIMEXO
 40
0.0625
  9
$DIMDLI
 40
0.38
  9
$DIMRND
 40
0
  9
$DIMDLE
 40
0
  9
$DIMEXE
 40
0.18
  9
$DIMTP
 40
0
  9
$DIMTM
 40
0
  9
$DIMTXT
 40
0.18
  9
$DIMCEN
 40
0.09
  9
$DIMTSZ
 40
0
  9
$DIMTOL
 70
0
  9
$DIMLIM
 70
0
  9
$DIMTIH
 70
1
  9
$DIMTOH
 70
1
  9
$DIMSE1
 70
0
  9
$DIMSE2
 70
0
  9
$DIMTAD
 70
0
  9
$DIMZIN
 70
0
  9
$DIMBLK
  1

  9
$DIMASO
 70
1
  9
$DIMSHO
 70
1
  9
$DIMPOST
  1

  9
$DIMAPOST
  1

  9
$DIMALT
 70
0
  9
$DIMALTD
 70
2
  9
$DIMALTF
 40
25.4
  9
$DIMLFAC
 40
1
  9
$DIMTOFL
 70
0
  9
$DIMTVP
 40
0
  9
$DIMTIX
 70
0
  9
$DIMSOXD
 70
0
  9
$DIMSAH
 70
0
  9
$DIMBLK1
  1

  9
$DIMBLK2
  1

  9
$DIMSTYLE
  2
*UNNAMED
  9
$DIMCLRD
 70
0
  9
$DIMCLRE
 70
0
  9
$DIMCLRT
 70
0
  9
$DIMTFAC
 40
1
  9
$DIMGAP
 40
0.09
  9
$LUNITS
 70
2
  9
$LUPREC
 70
4
  9
$AXISMODE
 70
0
  9
$AXISUNIT
 10
0
 20
0
  9
$SKETCHINC
 40
0.1
  9
$FILLETRAD
 40
2
  9
$AUNITS
 70
0
  9
$AUPREC
 70
0
  9
$MENU
  1
ACAD
  9
$ELEVATION
 40
0
  9
$THICKNESS
 40
0
  9
$VIEWDIR
 10
0
 20
0
 30
1
  9
$LIMCHECK
 70
0
  9
$BLIPMODE
 70
1
  9
$CHAMFERA
 40
0
  9
$CHAMFERB
 40
0
  9
$FASTZOOM
 70
1
  9
$SKPOLY
 70
0
  9
$ANGBASE
 50
0
  9
$ANGDIR
 70
0
  9
$PDMODE
 70
0
  9
$PDSIZE
 40
0
  9
$PLINEWID
 40
0
  9
$COORDS
 70
2
  0
ENDSEC
  0
SECTION
  2
TABLES
  0
TABLE
  2
DIMSTYLE
 70
2
  0
DIMSTYLE
  2
DMST_1
 70
0
  3

  4

  5

  6

  7

 40
1
 41
0.1
 42
0
 43
0.7
 44
0.2
 45
0
 46
0
 47
0
 48
0
140
0.1
141
0
142
0.1
143
25.4
144
1
145
0
146
1
147
0.25
 71
0
 72
0
 73
0
 74
0
 75
0
 76
0
 77
0
 78
9
170
0
171
2
172
0
173
0
174
0
175
0
176
7
177
7
178
7
  0
DIMSTYLE
  2
DMST_2
 70
0
  3

  4

  5

  6

  7

 40
1
 41
0.1
 42
0
 43
0.7
 44
0.2
 45
0
 46
0
 47
0
 48
0
140
0.1
141
0
142
0.1
143
25.4
144
1
145
0
146
1
147
0.2
 71
0
 72
0
 73
0
 74
0
 75
0
 76
0
 77
0
 78
9
170
0
171
2
172
0
173
0
174
0
175
0
176
7
177
7
178
7
  0
ENDTAB
  0
TABLE
  2
LTYPE
 70
9
  0
LTYPE
  2
CONTINUOUS
 70
64
  3
Solid line
 72
65
 73
0
 40
0
  0
LTYPE
  2
BORDER
 70
64
  3
__ __ . __ __ .
 72
65
 73
6
 40
0.3985909978863889
 49
0.113883142253254
 49
-0.05694157112662698
 49
0.113883142253254
 49
-0.05694157112662698
 49
0
 49
-0.05694157112662698
  0
LTYPE
  2
CENTER
 70
64
  3
____ _ ____ _
 72
65
 73
4
 40
0.4555325690130158
 49
0.2847078556331349
 49
-0.05694157112662698
 49
0.05694157112662698
 49
-0.05694157112662698
  0
LTYPE
  2
DASHDOT
 70
64
  3
__ . __ . __ .
 72
65
 73
4
 40
0.2277662845065079
 49
0.113883142253254
 49
-0.05694157112662698
 49
0
 49
-0.05694157112662698
  0
LTYPE
  2
DASHED
 70
64
  3
__ __ __ __ __
 72
65
 73
2
 40
0.1708247133798809
 49
0.113883142253254
 49
-0.05694157112662698
  0
LTYPE
  2
DIVIDE
 70
64
  3
__ . . __ . . 
 72
65
 73
6
 40
0.2847078556331349
 49
0.113883142253254
 49
-0.05694157112662698
 49
0
 49
-0.05694157112662698
 49
0
 49
-0.05694157112662698
  0
LTYPE
  2
DOT
 70
64
  3
..............
 72
65
 73
4
 40
0.113883142253254
 49
0
 49
-0.05694157112662698
 49
0
 49
-0.05694157112662698
  0
LTYPE
  2
HIDDEN
 70
64
  3
_ _ _ _ _ _ _
 72
65
 73
2
 40
0.08541235668994046
 49
0.05694157112662698
 49
-0.02847078556331349
  0
LTYPE
  2
PHANTOM
 70
64
  3
_____ _ _ _____ _ _ 
 72
65
 73
6
 40
0.5694157112662698
 49
0.2847078556331349
 49
-0.05694157112662698
 49
0.05694157112662698
 49
-0.05694157112662698
 49
0.05694157112662698
 49
-0.05694157112662698
  0
ENDTAB
  0
TABLE
  2
LAYER
 70
2
  0
LAYER
  2
0
 70
0
 62
7
  6
CONTINUOUS
  0
ENDTAB
  0
TABLE
  2
STYLE
 70
4
  0
STYLE
  2
STANDARD
 70
0
 40
0
 41
1
 50
0
 71
0
 42
3.5
  3
txt
  4

  0
STYLE
  2
SIMPLEX
 70
0
 40
0
 41
1
 50
0
 71
0
 42
3.5
  3
simplex
  4

  0
STYLE
  2
COMPLEX
 70
0
 40
0
 41
1
 50
0
 71
0
 42
3.5
  3
complex
  4

  0
STYLE
  2
ITALIC
 70
0
 40
0
 41
1
 50
0
 71
0
 42
3.5
  3
italic
  4

  0
ENDTAB
  0
TABLE
  2
VIEW
 70
0
  0
ENDTAB
  0
ENDSEC
  0
SECTION
  2
BLOCKS
  0
BLOCK
  8
0
  2
*X0
 70
1
 10
0
 20
0
 30
0
  0
LINE
  8
0
 62
7
  6
DASHED
 10
7.959999999999998
 20
8.278198051533943
 30
0
 11
7.98180194846605
 21
8.299999999999997
 31
0
  0
LINE
  8
0
 62
7
  6
DASHED
 10
7.993933982822015
 20
8.099999999999996
 30
0
 11
8.193933982822013
 21
8.299999999999997
 31
0
  0
LINE
  8
0
 62
7
 10
7.959999999999999
 20
8.172132034355961
 30
0
 11
8.087867965644033
 21
8.299999999999995
 31
0
  0
LINE
  8
0
 62
7
 10
8.099999999999998
 20
8.099999999999996
 30
0
 11
8.199999999999998
 21
8.199999999999996
 31
0
  0
ENDBLK
  8
0
  0
BLOCK
  8
0
  2
*X1
 70
1
 10
0
 20
0
 30
0
  0
LINE
  8
0
 62
7
  6
DASHED
 10
7.959999999999997
 20
11.03591449816148
 30
0
 11
7.974085501838521
 21
11.05
 31
0
  0
LINE
  8
0
 62
7
  6
DASHED
 10
7.986217536194484
 20
10.85
 30
0
 11
8.186217536194485
 21
11.05
 31
0
  0
LINE
  8
0
 62
7
  6
DASHED
 10
8.198349570550448
 20
10.85
 30
0
 11
8.199999999999996
 21
10.85165042944955
 31
0
  0
LINE
  8
0
 62
7
 10
7.959999999999996
 20
10.9298484809835
 30
0
 11
8.080151519016503
 21
11.05
 31
0
  0
LINE
  8
0
 62
7
 10
8.092283553372466
 20
10.85
 30
0
 11
8.199999999999996
 21
10.95771644662753
 31
0
  0
ENDBLK
  8
0
  0
BLOCK
  8
0
  2
*X2
 70
1
 10
0
 20
0
 30
0
  0
LINE
  8
0
 62
7
  6
DASHED
 10
5.829999999999997
 20
11.02723484172112
 30
0
 11
5.85276515827888
 21
11.05
 31
0
  0
LINE
  8
0
 62
7
  6
DASHED
 10
5.864897192634842
 20
10.85
 30
0
 11
6.064897192634843
 21
11.05
 31
0
  0
LINE
  8
0
 62
7
  6
DASHED
 10
6.077029226990806
 20
10.85
 30
0
 11
6.129999999999995
 21
10.90297077300919
 31
0
  0
LINE
  8
0
 62
7
 10
5.829999999999997
 20
10.92116882454314
 30
0
 11
5.95883117545686
 21
11.05
 31
0
  0
LINE
  8
0
 62
7
 10
5.970963209812825
 20
10.85
 30
0
 11
6.129999999999995
 21
11.00903679018717
 31
0
  0
ENDBLK
  8
0
  0
BLOCK
  8
0
  2
*X3
 70
1
 10
0
 20
0
 30
0
  0
LINE
  8
0
 62
7
  6
DASHED
 10
5.829999999999997
 20
8.269518395093582
 30
0
 11
5.86048160490641
 21
8.299999999999997
 31
0
  0
LINE
  8
0
 62
7
  6
DASHED
 10
5.872613639262374
 20
8.099999999999996
 30
0
 11
6.072613639262374
 21
8.299999999999997
 31
0
  0
LINE
  8
0
 62
7
  6
DASHED
 10
6.084745673618338
 20
8.099999999999996
 30
0
 11
6.129999999999995
 21
8.145254326381654
 31
0
  0
LINE
  8
0
 62
7
 10
5.829999999999997
 20
8.163452377915602
 30
0
 11
5.966547622084391
 21
8.299999999999997
 31
0
  0
LINE
  8
0
 62
7
 10
5.978679656440356
 20
8.099999999999998
 30
0
 11
6.129999999999995
 21
8.251320343559637
 31
0
  0
ENDBLK
  8
0
  0
BLOCK
  8
0
  2
*X4
 70
1
 10
0
 20
0
 30
0
  0
LINE
  8
0
 62
7
 10
7.974085501838521
 20
11.05
 30
0
 11
8.12408550183852
 21
11.2
 31
0
  0
LINE
  8
0
 62
7
 10
8.186217536194485
 20
11.05
 30
0
 11
8.199999999999998
 21
11.06378246380551
 31
0
  0
LINE
  8
0
 62
7
 10
7.959999999999998
 20
11.14198051533946
 30
0
 11
8.018019484660536
 21
11.2
 31
0
  0
LINE
  8
0
 62
7
 10
8.080151519016503
 20
11.05
 30
0
 11
8.199999999999996
 21
11.16984848098349
 31
0
  0
ENDBLK
  8
0
  0
BLOCK
  8
0
  2
*X5
 70
1
 10
0
 20
0
 30
0
  0
LINE
  8
0
 62
7
 10
7.959999999999997
 20
10.82378246380551
 30
0
 11
7.986217536194484
 21
10.85
 31
0
  0
LINE
  8
0
 62
7
 10
7.959999999999997
 20
10.61165042944955
 30
0
 11
8.198349570550448
 21
10.85
 31
0
  0
LINE
  8
0
 62
7
 10
7.959999999999997
 20
10.39951839509358
 30
0
 11
8.199999999999998
 21
10.63951839509358
 31
0
  0
LINE
  8
0
 62
7
 10
7.959999999999997
 20
10.18738636073762
 30
0
 11
8.199999999999998
 21
10.42738636073762
 31
0
  0
LINE
  8
0
 62
7
 10
7.959999999999997
 20
9.975254326381656
 30
0
 11
8.199999999999998
 21
10.21525432638166
 31
0
  0
LINE
  8
0
 62
7
 10
7.959999999999997
 20
9.763122292025692
 30
0
 11
8.199999999999998
 21
10.00312229202569
 31
0
  0
LINE
  8
0
 62
7
 10
7.959999999999997
 20
9.550990257669728
 30
0
 11
8.199999999999998
 21
9.790990257669728
 31
0
  0
LINE
  8
0
 62
7
 10
7.959999999999997
 20
9.338858223313764
 30
0
 11
8.199999999999998
 21
9.578858223313764
 31
0
  0
LINE
  8
0
 62
7
 10
7.959999999999997
 20
9.1267261889578
 30
0
 11
8.199999999999998
 21
9.3667261889578
 31
0
  0
LINE
  8
0
 62
7
 10
7.959999999999997
 20
8.914594154601836
 30
0
 11
8.199999999999998
 21
9.154594154601837
 31
0
  0
LINE
  8
0
 62
7
 10
7.959999999999997
 20
8.702462120245873
 30
0
 11
8.199999999999998
 21
8.942462120245873
 31
0
  0
LINE
  8
0
 62
7
 10
7.959999999999997
 20
8.490330085889909
 30
0
 11
8.199999999999998
 21
8.730330085889909
 31
0
  0
LINE
  8
0
 62
7
 10
7.98180194846605
 20
8.299999999999997
 30
0
 11
8.199999999999998
 21
8.518198051533945
 31
0
  0
LINE
  8
0
 62
7
 10
8.193933982822013
 20
8.299999999999997
 30
0
 11
8.199999999999998
 21
8.306066017177981
 31
0
  0
LINE
  8
0
 62
7
 10
7.959999999999999
 20
10.71771644662753
 30
0
 11
8.092283553372464
 21
10.85
 31
0
  0
LINE
  8
0
 62
7
 10
7.959999999999999
 20
10.50558441227156
 30
0
 11
8.199999999999998
 21
10.74558441227156
 31
0
  0
LINE
  8
0
 62
7
 10
7.959999999999999
 20
10.2934523779156
 30
0
 11
8.199999999999998
 21
10.5334523779156
 31
0
  0
LINE
  8
0
 62
7
 10
7.959999999999999
 20
10.08132034355964
 30
0
 11
8.199999999999998
 21
10.32132034355963
 31
0
  0
LINE
  8
0
 62
7
 10
7.959999999999999
 20
9.869188309203672
 30
0
 11
8.199999999999998
 21
10.10918830920367
 31
0
  0
LINE
  8
0
 62
7
 10
7.959999999999999
 20
9.657056274847708
 30
0
 11
8.199999999999998
 21
9.897056274847706
 31
0
  0
LINE
  8
0
 62
7
 10
7.959999999999999
 20
9.444924240491744
 30
0
 11
8.199999999999998
 21
9.684924240491743
 31
0
  0
LINE
  8
0
 62
7
 10
7.959999999999999
 20
9.23279220613578
 30
0
 11
8.199999999999998
 21
9.472792206135779
 31
0
  0
LINE
  8
0
 62
7
 10
7.959999999999999
 20
9.020660171779816
 30
0
 11
8.199999999999998
 21
9.260660171779815
 31
0
  0
LINE
  8
0
 62
7
 10
7.959999999999999
 20
8.808528137423853
 30
0
 11
8.199999999999998
 21
9.048528137423851
 31
0
  0
LINE
  8
0
 62
7
 10
7.959999999999999
 20
8.596396103067889
 30
0
 11
8.199999999999998
 21
8.836396103067887
 31
0
  0
LINE
  8
0
 62
7
 10
7.959999999999999
 20
8.384264068711925
 30
0
 11
8.199999999999998
 21
8.624264068711923
 31
0
  0
LINE
  8
0
 62
7
 10
8.087867965644033
 20
8.299999999999995
 30
0
 11
8.199999999999998
 21
8.41213203435596
 31
0
  0
ENDBLK
  8
0
  0
BLOCK
  8
0
  2
*X6
 70
1
 10
0
 20
0
 30
0
  0
LINE
  8
0
 62
7
 10
7.959999999999998
 20
8.066066017177979
 30
0
 11
7.993933982822015
 21
8.099999999999996
 31
0
  0
LINE
  8
0
 62
7
 10
8.056066017177979
 20
7.949999999999997
 30
0
 11
8.199999999999998
 21
8.093933982822012
 31
0
  0
LINE
  8
0
 62
7
 10
7.959999999999998
 20
7.959999999999997
 30
0
 11
8.099999999999998
 21
8.099999999999996
 31
0
  0
LINE
  8
0
 62
7
 10
8.162132034355961
 20
7.949999999999996
 30
0
 11
8.199999999999998
 21
7.987867965644032
 31
0
  0
ENDBLK
  8
0
  0
BLOCK
  8
0
  2
*X7
 70
1
 10
0
 20
0
 30
0
  0
LINE
  8
0
 62
7
  6
DASHED
 10
0.9500000000000002
 20
11.0262716319083
 30
0
 11
0.9737283680917002
 21
11.05
 31
0
  0
LINE
  8
0
 62
7
  6
DASHED
 10
0.9858604024476643
 20
10.85
 30
0
 11
1.185860402447664
 21
11.05
 31
0
  0
LINE
  8
0
 62
7
  6
DASHED
 10
1.197992436803629
 20
10.85
 30
0
 11
1.397992436803629
 21
11.05
 31
0
  0
LINE
  8
0
 62
7
  6
DASHED
 10
1.410124471159593
 20
10.85
 30
0
 11
1.610124471159593
 21
11.05
 31
0
  0
LINE
  8
0
 62
7
  6
DASHED
 10
1.622256505515557
 20
10.85
 30
0
 11
1.822256505515557
 21
11.05
 31
0
  0
LINE
  8
0
 62
7
  6
DASHED
 10
1.834388539871521
 20
10.85
 30
0
 11
2.034388539871522
 21
11.05
 31
0
  0
LINE
  8
0
 62
7
  6
DASHED
 10
2.046520574227486
 20
10.85
 30
0
 11
2.246520574227486
 21
11.05
 31
0
  0
LINE
  8
0
 62
7
  6
DASHED
 10
2.25865260858345
 20
10.85
 30
0
 11
2.45865260858345
 21
11.05
 31
0
  0
LINE
  8
0
 62
7
  6
DASHED
 10
2.470784642939414
 20
10.85
 30
0
 11
2.670784642939414
 21
11.05
 31
0
  0
LINE
  8
0
 62
7
  6
DASHED
 10
2.682916677295379
 20
10.85
 30
0
 11
2.882916677295379
 21
11.05
 31
0
  0
LINE
  8
0
 62
7
  6
DASHED
 10
2.895048711651343
 20
10.85
 30
0
 11
3.095048711651343
 21
11.05
 31
0
  0
LINE
  8
0
 62
7
  6
DASHED
 10
3.107180746007307
 20
10.85
 30
0
 11
3.307180746007307
 21
11.05
 31
0
  0
LINE
  8
0
 62
7
  6
DASHED
 10
3.319312780363271
 20
10.85
 30
0
 11
3.519312780363272
 21
11.05
 31
0
  0
LINE
  8
0
 62
7
  6
DASHED
 10
3.531444814719236
 20
10.85
 30
0
 11
3.731444814719236
 21
11.05
 31
0
  0
LINE
  8
0
 62
7
  6
DASHED
 10
3.7435768490752
 20
10.85
 30
0
 11
3.9435768490752
 21
11.05
 31
0
  0
LINE
  8
0
 62
7
  6
DASHED
 10
3.955708883431164
 20
10.85
 30
0
 11
3.984999999999997
 21
10.87929111656883
 31
0
  0
LINE
  8
0
 62
7
 10
0.9500000000000002
 20
10.92020561473032
 30
0
 11
1.079794385269682
 21
11.05
 31
0
  0
LINE
  8
0
 62
7
 10
1.091926419625646
 20
10.85
 30
0
 11
1.291926419625646
 21
11.05
 31
0
  0
LINE
  8
0
 62
7
 10
1.30405845398161
 20
10.85
 30
0
 11
1.50405845398161
 21
11.05
 31
0
  0
LINE
  8
0
 62
7
 10
1.516190488337574
 20
10.85
 30
0
 11
1.716190488337574
 21
11.05
 31
0
  0
LINE
  8
0
 62
7
 10
1.728322522693539
 20
10.85
 30
0
 11
1.928322522693539
 21
11.05
 31
0
  0
LINE
  8
0
 62
7
 10
1.940454557049503
 20
10.85
 30
0
 11
2.140454557049503
 21
11.05
 31
0
  0
LINE
  8
0
 62
7
 10
2.152586591405467
 20
10.85
 30
0
 11
2.352586591405467
 21
11.05
 31
0
  0
LINE
  8
0
 62
7
 10
2.364718625761431
 20
10.85
 30
0
 11
2.564718625761432
 21
11.05
 31
0
  0
LINE
  8
0
 62
7
 10
2.576850660117396
 20
10.85
 30
0
 11
2.776850660117396
 21
11.05
 31
0
  0
LINE
  8
0
 62
7
 10
2.78898269447336
 20
10.85
 30
0
 11
2.98898269447336
 21
11.05
 31
0
  0
LINE
  8
0
 62
7
 10
3.001114728829324
 20
10.85
 30
0
 11
3.201114728829324
 21
11.05
 31
0
  0
LINE
  8
0
 62
7
 10
3.213246763185289
 20
10.85
 30
0
 11
3.413246763185289
 21
11.05
 31
0
  0
LINE
  8
0
 62
7
 10
3.425378797541253
 20
10.85
 30
0
 11
3.625378797541253
 21
11.05
 31
0
  0
LINE
  8
0
 62
7
 10
3.637510831897217
 20
10.85
 30
0
 11
3.837510831897217
 21
11.05
 31
0
  0
LINE
  8
0
 62
7
 10
3.849642866253181
 20
10.85
 30
0
 11
3.984999999999998
 21
10.98535713374682
 31
0
  0
ENDBLK
  8
0
  0
BLOCK
  8
0
  2
*X8
 70
1
 10
0
 20
0
 30
0
  0
LINE
  8
0
 62
7
  6
DASHED
 10
0.9499999999999997
 20
8.268555185280764
 30
0
 11
0.9814448147192318
 21
8.299999999999997
 31
0
  0
LINE
  8
0
 62
7
  6
DASHED
 10
0.9935768490751951
 20
8.099999999999996
 30
0
 11
1.193576849075196
 21
8.299999999999997
 31
0
  0
LINE
  8
0
 62
7
  6
DASHED
 10
1.205708883431159
 20
8.099999999999996
 30
0
 11
1.40570888343116
 21
8.299999999999997
 31
0
  0
LINE
  8
0
 62
7
  6
DASHED
 10
1.417840917787124
 20
8.099999999999996
 30
0
 11
1.617840917787125
 21
8.299999999999997
 31
0
  0
LINE
  8
0
 62
7
  6
DASHED
 10
1.629972952143088
 20
8.099999999999996
 30
0
 11
1.829972952143089
 21
8.299999999999997
 31
0
  0
LINE
  8
0
 62
7
  6
DASHED
 10
1.842104986499052
 20
8.099999999999996
 30
0
 11
2.042104986499053
 21
8.299999999999997
 31
0
  0
LINE
  8
0
 62
7
  6
DASHED
 10
2.054237020855016
 20
8.099999999999996
 30
0
 11
2.254237020855018
 21
8.299999999999997
 31
0
  0
LINE
  8
0
 62
7
  6
DASHED
 10
2.266369055210981
 20
8.099999999999996
 30
0
 11
2.466369055210982
 21
8.299999999999997
 31
0
  0
LINE
  8
0
 62
7
  6
DASHED
 10
2.478501089566945
 20
8.099999999999996
 30
0
 11
2.678501089566946
 21
8.299999999999997
 31
0
  0
LINE
  8
0
 62
7
  6
DASHED
 10
2.690633123922909
 20
8.099999999999996
 30
0
 11
2.89063312392291
 21
8.299999999999997
 31
0
  0
LINE
  8
0
 62
7
  6
DASHED
 10
2.902765158278874
 20
8.099999999999996
 30
0
 11
3.102765158278875
 21
8.299999999999997
 31
0
  0
LINE
  8
0
 62
7
  6
DASHED
 10
3.114897192634838
 20
8.099999999999996
 30
0
 11
3.314897192634839
 21
8.299999999999997
 31
0
  0
LINE
  8
0
 62
7
  6
DASHED
 10
3.327029226990802
 20
8.099999999999996
 30
0
 11
3.527029226990803
 21
8.299999999999997
 31
0
  0
LINE
  8
0
 62
7
  6
DASHED
 10
3.539161261346766
 20
8.099999999999996
 30
0
 11
3.739161261346768
 21
8.299999999999997
 31
0
  0
LINE
  8
0
 62
7
  6
DASHED
 10
3.751293295702731
 20
8.099999999999996
 30
0
 11
3.951293295702732
 21
8.299999999999997
 31
0
  0
LINE
  8
0
 62
7
  6
DASHED
 10
3.963425330058695
 20
8.099999999999996
 30
0
 11
3.984999999999999
 21
8.1215746699413
 31
0
  0
LINE
  8
0
 62
7
 10
0.9499999999999988
 20
8.162489168102784
 30
0
 11
1.087510831897214
 21
8.299999999999997
 31
0
  0
LINE
  8
0
 62
7
 10
1.099642866253178
 20
8.099999999999998
 30
0
 11
1.299642866253178
 21
8.299999999999997
 31
0
  0
LINE
  8
0
 62
7
 10
1.311774900609143
 20
8.099999999999998
 30
0
 11
1.511774900609143
 21
8.299999999999997
 31
0
  0
LINE
  8
0
 62
7
 10
1.523906934965107
 20
8.099999999999998
 30
0
 11
1.723906934965107
 21
8.299999999999997
 31
0
  0
LINE
  8
0
 62
7
 10
1.736038969321071
 20
8.099999999999998
 30
0
 11
1.936038969321071
 21
8.299999999999997
 31
0
  0
LINE
  8
0
 62
7
 10
1.948171003677035
 20
8.099999999999998
 30
0
 11
2.148171003677036
 21
8.299999999999997
 31
0
  0
LINE
  8
0
 62
7
 10
2.160303038033
 20
8.099999999999998
 30
0
 11
2.360303038033
 21
8.299999999999997
 31
0
  0
LINE
  8
0
 62
7
 10
2.372435072388964
 20
8.099999999999998
 30
0
 11
2.572435072388964
 21
8.299999999999997
 31
0
  0
LINE
  8
0
 62
7
 10
2.584567106744928
 20
8.099999999999998
 30
0
 11
2.784567106744928
 21
8.299999999999997
 31
0
  0
LINE
  8
0
 62
7
 10
2.796699141100893
 20
8.099999999999998
 30
0
 11
2.996699141100893
 21
8.299999999999997
 31
0
  0
LINE
  8
0
 62
7
 10
3.008831175456857
 20
8.099999999999998
 30
0
 11
3.208831175456857
 21
8.299999999999997
 31
0
  0
LINE
  8
0
 62
7
 10
3.220963209812821
 20
8.099999999999998
 30
0
 11
3.420963209812821
 21
8.299999999999997
 31
0
  0
LINE
  8
0
 62
7
 10
3.433095244168785
 20
8.099999999999998
 30
0
 11
3.633095244168786
 21
8.299999999999997
 31
0
  0
LINE
  8
0
 62
7
 10
3.64522727852475
 20
8.099999999999998
 30
0
 11
3.84522727852475
 21
8.299999999999997
 31
0
  0
LINE
  8
0
 62
7
 10
3.857359312880714
 20
8.099999999999998
 30
0
 11
3.984999999999998
 21
8.227640687119282
 31
0
  0
ENDBLK
  8
0
  0
BLOCK
  8
0
  2
*X9
 70
1
 10
0
 20
0
 30
0
  0
LINE
  8
0
 62
7
 10
3.659999999999997
 20
11.19068721963673
 30
0
 11
3.669312780363268
 21
11.2
 31
0
  0
LINE
  8
0
 62
7
 10
3.731444814719235
 20
11.05
 30
0
 11
3.834999999999998
 21
11.15355518528076
 31
0
  0
LINE
  8
0
 62
7
 10
3.659999999999997
 20
11.08462120245875
 30
0
 11
3.775378797541253
 21
11.2
 31
0
  0
ENDBLK
  8
0
  0
BLOCK
  8
0
  2
*X10
 70
1
 10
0
 20
0
 30
0
  0
LINE
  8
0
 62
7
 10
3.659999999999997
 20
10.76642315092479
 30
0
 11
3.743576849075198
 21
10.85
 31
0
  0
LINE
  8
0
 62
7
 10
3.659999999999997
 20
10.55429111656883
 30
0
 11
3.834999999999998
 21
10.72929111656883
 31
0
  0
LINE
  8
0
 62
7
 10
3.659999999999997
 20
10.34215908221287
 30
0
 11
3.834999999999998
 21
10.51715908221287
 31
0
  0
LINE
  8
0
 62
7
 10
3.659999999999997
 20
10.1300270478569
 30
0
 11
3.834999999999998
 21
10.3050270478569
 31
0
  0
LINE
  8
0
 62
7
 10
3.659999999999997
 20
9.917895013500939
 30
0
 11
3.834999999999998
 21
10.09289501350094
 31
0
  0
LINE
  8
0
 62
7
 10
3.659999999999997
 20
9.705762979144975
 30
0
 11
3.834999999999998
 21
9.880762979144976
 31
0
  0
LINE
  8
0
 62
7
 10
3.659999999999997
 20
9.493630944789011
 30
0
 11
3.834999999999998
 21
9.668630944789012
 31
0
  0
LINE
  8
0
 62
7
 10
3.659999999999997
 20
9.281498910433047
 30
0
 11
3.834999999999998
 21
9.456498910433048
 31
0
  0
LINE
  8
0
 62
7
 10
3.659999999999997
 20
9.069366876077083
 30
0
 11
3.834999999999998
 21
9.244366876077084
 31
0
  0
LINE
  8
0
 62
7
 10
3.659999999999997
 20
8.85723484172112
 30
0
 11
3.834999999999998
 21
9.03223484172112
 31
0
  0
LINE
  8
0
 62
7
 10
3.659999999999997
 20
8.645102807365156
 30
0
 11
3.834999999999998
 21
8.820102807365156
 31
0
  0
LINE
  8
0
 62
7
 10
3.659999999999997
 20
8.432970773009192
 30
0
 11
3.834999999999998
 21
8.607970773009193
 31
0
  0
LINE
  8
0
 62
7
 10
3.739161261346767
 20
8.299999999999997
 30
0
 11
3.834999999999998
 21
8.395838738653229
 31
0
  0
LINE
  8
0
 62
7
 10
3.659999999999998
 20
10.66035713374681
 30
0
 11
3.834999999999998
 21
10.83535713374681
 31
0
  0
LINE
  8
0
 62
7
 10
3.659999999999998
 20
10.44822509939085
 30
0
 11
3.834999999999998
 21
10.62322509939085
 31
0
  0
LINE
  8
0
 62
7
 10
3.659999999999998
 20
10.23609306503488
 30
0
 11
3.834999999999998
 21
10.41109306503488
 31
0
  0
LINE
  8
0
 62
7
 10
3.659999999999998
 20
10.02396103067892
 30
0
 11
3.834999999999998
 21
10.19896103067892
 31
0
  0
LINE
  8
0
 62
7
 10
3.659999999999998
 20
9.811828996322957
 30
0
 11
3.834999999999998
 21
9.986828996322956
 31
0
  0
LINE
  8
0
 62
7
 10
3.659999999999998
 20
9.599696961966993
 30
0
 11
3.834999999999998
 21
9.774696961966992
 31
0
  0
LINE
  8
0
 62
7
 10
3.659999999999998
 20
9.387564927611029
 30
0
 11
3.834999999999998
 21
9.562564927611028
 31
0
  0
LINE
  8
0
 62
7
 10
3.659999999999998
 20
9.175432893255065
 30
0
 11
3.834999999999998
 21
9.350432893255064
 31
0
  0
LINE
  8
0
 62
7
 10
3.659999999999998
 20
8.963300858899101
 30
0
 11
3.834999999999998
 21
9.1383008588991
 31
0
  0
LINE
  8
0
 62
7
 10
3.659999999999998
 20
8.751168824543138
 30
0
 11
3.834999999999998
 21
8.926168824543137
 31
0
  0
LINE
  8
0
 62
7
 10
3.659999999999998
 20
8.539036790187174
 30
0
 11
3.834999999999998
 21
8.714036790187173
 31
0
  0
LINE
  8
0
 62
7
 10
3.659999999999998
 20
8.32690475583121
 30
0
 11
3.834999999999998
 21
8.501904755831209
 31
0
  0
ENDBLK
  8
0
  0
BLOCK
  8
0
  2
*X11
 70
1
 10
0
 20
0
 30
0
  0
LINE
  8
0
 62
7
 10
3.659999999999996
 20
8.008706704297262
 30
0
 11
3.751293295702729
 21
8.099999999999994
 31
0
  0
LINE
  8
0
 62
7
 10
3.813425330058693
 20
7.949999999999994
 30
0
 11
3.834999999999996
 21
7.971574669941297
 31
0
  0
LINE
  8
0
 62
7
 10
3.707359312880713
 20
7.949999999999996
 30
0
 11
3.834999999999997
 21
8.077640687119281
 31
0
  0
ENDBLK
  8
0
  0
BLOCK
  8
0
  2
*X12
 70
1
 10
0
 20
0
 30
0
  0
LINE
  8
0
 62
7
 10
1.100000000000001
 20
11.1762716319083
 30
0
 11
1.123728368091698
 21
11.2
 31
0
  0
LINE
  8
0
 62
7
 10
1.185860402447664
 20
11.05
 30
0
 11
1.274999999999999
 21
11.13913959755234
 31
0
  0
LINE
  8
0
 62
7
 10
1.1
 20
11.07020561473032
 30
0
 11
1.229794385269681
 21
11.2
 31
0
  0
ENDBLK
  8
0
  0
BLOCK
  8
0
  2
*X13
 70
1
 10
0
 20
0
 30
0
  0
LINE
  8
0
 62
7
 10
1.1
 20
10.75200756319637
 30
0
 11
1.197992436803626
 21
10.85
 31
0
  0
LINE
  8
0
 62
7
 10
1.1
 20
10.5398755288404
 30
0
 11
1.275
 21
10.7148755288404
 31
0
  0
LINE
  8
0
 62
7
 10
1.1
 20
10.32774349448444
 30
0
 11
1.275
 21
10.50274349448444
 31
0
  0
LINE
  8
0
 62
7
 10
1.1
 20
10.11561146012848
 30
0
 11
1.275
 21
10.29061146012848
 31
0
  0
LINE
  8
0
 62
7
 10
1.1
 20
9.903479425772513
 30
0
 11
1.275
 21
10.07847942577251
 31
0
  0
LINE
  8
0
 62
7
 10
1.1
 20
9.691347391416549
 30
0
 11
1.275
 21
9.866347391416548
 31
0
  0
LINE
  8
0
 62
7
 10
1.1
 20
9.479215357060585
 30
0
 11
1.275
 21
9.654215357060584
 31
0
  0
LINE
  8
0
 62
7
 10
1.1
 20
9.267083322704622
 30
0
 11
1.275
 21
9.442083322704621
 31
0
  0
LINE
  8
0
 62
7
 10
1.1
 20
9.054951288348658
 30
0
 11
1.275
 21
9.229951288348657
 31
0
  0
LINE
  8
0
 62
7
 10
1.1
 20
8.842819253992694
 30
0
 11
1.275
 21
9.017819253992693
 31
0
  0
LINE
  8
0
 62
7
 10
1.1
 20
8.63068721963673
 30
0
 11
1.275
 21
8.805687219636729
 31
0
  0
LINE
  8
0
 62
7
 10
1.1
 20
8.418555185280766
 30
0
 11
1.275
 21
8.593555185280765
 31
0
  0
LINE
  8
0
 62
7
 10
1.193576849075197
 20
8.299999999999997
 30
0
 11
1.275
 21
8.381423150924801
 31
0
  0
LINE
  8
0
 62
7
 10
1.100000000000001
 20
10.64594154601839
 30
0
 11
1.274999999999999
 21
10.82094154601838
 31
0
  0
LINE
  8
0
 62
7
 10
1.100000000000001
 20
10.43380951166242
 30
0
 11
1.274999999999999
 21
10.60880951166242
 31
0
  0
LINE
  8
0
 62
7
 10
1.100000000000001
 20
10.22167747730646
 30
0
 11
1.274999999999999
 21
10.39667747730646
 31
0
  0
LINE
  8
0
 62
7
 10
1.100000000000001
 20
10.0095454429505
 30
0
 11
1.274999999999999
 21
10.18454544295049
 31
0
  0
LINE
  8
0
 62
7
 10
1.100000000000001
 20
9.797413408594531
 30
0
 11
1.274999999999999
 21
9.972413408594528
 31
0
  0
LINE
  8
0
 62
7
 10
1.100000000000001
 20
9.585281374238567
 30
0
 11
1.274999999999999
 21
9.760281374238565
 31
0
  0
LINE
  8
0
 62
7
 10
1.100000000000001
 20
9.373149339882604
 30
0
 11
1.274999999999999
 21
9.548149339882601
 31
0
  0
LINE
  8
0
 62
7
 10
1.100000000000001
 20
9.16101730552664
 30
0
 11
1.274999999999999
 21
9.336017305526637
 31
0
  0
LINE
  8
0
 62
7
 10
1.100000000000001
 20
8.948885271170676
 30
0
 11
1.274999999999999
 21
9.123885271170673
 31
0
  0
LINE
  8
0
 62
7
 10
1.100000000000001
 20
8.736753236814712
 30
0
 11
1.274999999999999
 21
8.911753236814709
 31
0
  0
LINE
  8
0
 62
7
 10
1.100000000000001
 20
8.524621202458748
 30
0
 11
1.274999999999999
 21
8.699621202458745
 31
0
  0
LINE
  8
0
 62
7
 10
1.100000000000001
 20
8.312489168102784
 30
0
 11
1.274999999999999
 21
8.487489168102782
 31
0
  0
ENDBLK
  8
0
  0
BLOCK
  8
0
  2
*X14
 70
1
 10
0
 20
0
 30
0
  0
LINE
  8
0
 62
7
 10
1.099999999999999
 20
7.994291116568838
 30
0
 11
1.205708883431158
 21
8.099999999999996
 31
0
  0
LINE
  8
0
 62
7
 10
1.267840917787122
 20
7.949999999999996
 30
0
 11
1.275
 21
7.957159082212874
 31
0
  0
LINE
  8
0
 62
7
 10
1.16177490060914
 20
7.949999999999996
 30
0
 11
1.274999999999999
 21
8.063225099390854
 31
0
  0
ENDBLK
  8
0
  0
BLOCK
  8
0
  2
*X15
 70
1
 10
0
 20
0
 30
0
  0
LINE
  8
0
 62
7
 10
0.9349999999999996
 20
5.49583873865323
 30
0
 11
1.275
 21
5.835838738653231
 31
0
  0
LINE
  8
0
 62
7
 10
1.111293295702734
 20
5.460000000000001
 30
0
 11
1.351293295702733
 21
5.699999999999999
 31
0
  0
LINE
  8
0
 62
7
 10
1.323425330058698
 20
5.460000000000001
 30
0
 11
1.563425330058697
 21
5.699999999999999
 31
0
  0
LINE
  8
0
 62
7
 10
1.535557364414663
 20
5.460000000000001
 30
0
 11
1.775557364414661
 21
5.699999999999999
 31
0
  0
LINE
  8
0
 62
7
 10
1.747689398770627
 20
5.460000000000001
 30
0
 11
1.987689398770625
 21
5.699999999999999
 31
0
  0
LINE
  8
0
 62
7
 10
1.959821433126591
 20
5.460000000000001
 30
0
 11
2.19982143312659
 21
5.699999999999999
 31
0
  0
LINE
  8
0
 62
7
 10
2.171953467482556
 20
5.460000000000001
 30
0
 11
2.411953467482554
 21
5.699999999999999
 31
0
  0
LINE
  8
0
 62
7
 10
2.38408550183852
 20
5.460000000000001
 30
0
 11
2.624085501838518
 21
5.699999999999999
 31
0
  0
LINE
  8
0
 62
7
 10
2.596217536194484
 20
5.460000000000001
 30
0
 11
2.836217536194483
 21
5.699999999999999
 31
0
  0
LINE
  8
0
 62
7
 10
2.808349570550448
 20
5.460000000000001
 30
0
 11
3.048349570550447
 21
5.699999999999999
 31
0
  0
LINE
  8
0
 62
7
 10
3.020481604906413
 20
5.460000000000001
 30
0
 11
3.260481604906411
 21
5.699999999999999
 31
0
  0
LINE
  8
0
 62
7
 10
3.232613639262377
 20
5.460000000000001
 30
0
 11
3.472613639262375
 21
5.699999999999999
 31
0
  0
LINE
  8
0
 62
7
 10
3.444745673618341
 20
5.460000000000001
 30
0
 11
3.83474567361834
 21
5.849999999999999
 31
0
  0
LINE
  8
0
 62
7
 10
3.656877707974306
 20
5.460000000000001
 30
0
 11
3.896877707974304
 21
5.699999999999999
 31
0
  0
LINE
  8
0
 62
7
 10
3.86900974233027
 20
5.460000000000001
 30
0
 11
3.984999999999999
 21
5.57599025766973
 31
0
  0
LINE
  8
0
 62
7
 10
1.100000000000001
 20
5.766904755831213
 30
0
 11
1.183095244168786
 21
5.849999999999999
 31
0
  0
LINE
  8
0
 62
7
 10
0.9350000000000001
 20
5.601904755831213
 30
0
 11
1.033095244168786
 21
5.699999999999999
 31
0
  0
LINE
  8
0
 62
7
 10
1.005227278524752
 20
5.460000000000001
 30
0
 11
1.275
 21
5.729772721475249
 31
0
  0
LINE
  8
0
 62
7
 10
1.217359312880716
 20
5.460000000000001
 30
0
 11
1.457359312880715
 21
5.699999999999998
 31
0
  0
LINE
  8
0
 62
7
 10
1.42949134723668
 20
5.460000000000001
 30
0
 11
1.669491347236679
 21
5.699999999999998
 31
0
  0
LINE
  8
0
 62
7
 10
1.641623381592645
 20
5.460000000000001
 30
0
 11
1.881623381592643
 21
5.699999999999998
 31
0
  0
LINE
  8
0
 62
7
 10
1.853755415948609
 20
5.460000000000001
 30
0
 11
2.093755415948607
 21
5.699999999999998
 31
0
  0
LINE
  8
0
 62
7
 10
2.065887450304573
 20
5.460000000000001
 30
0
 11
2.305887450304572
 21
5.699999999999998
 31
0
  0
LINE
  8
0
 62
7
 10
2.278019484660537
 20
5.460000000000001
 30
0
 11
2.518019484660536
 21
5.699999999999998
 31
0
  0
LINE
  8
0
 62
7
 10
2.490151519016502
 20
5.460000000000001
 30
0
 11
2.7301515190165
 21
5.699999999999998
 31
0
  0
LINE
  8
0
 62
7
 10
2.702283553372466
 20
5.460000000000001
 30
0
 11
2.942283553372464
 21
5.699999999999998
 31
0
  0
LINE
  8
0
 62
7
 10
2.91441558772843
 20
5.460000000000001
 30
0
 11
3.154415587728429
 21
5.699999999999998
 31
0
  0
LINE
  8
0
 62
7
 10
3.126547622084395
 20
5.460000000000001
 30
0
 11
3.366547622084393
 21
5.699999999999998
 31
0
  0
LINE
  8
0
 62
7
 10
3.659999999999997
 20
5.781320343559639
 30
0
 11
3.728679656440357
 21
5.849999999999999
 31
0
  0
LINE
  8
0
 62
7
 10
3.338679656440359
 20
5.460000000000001
 30
0
 11
3.578679656440357
 21
5.699999999999998
 31
0
  0
LINE
  8
0
 62
7
 10
3.550811690796323
 20
5.460000000000001
 30
0
 11
3.834999999999996
 21
5.744188309203675
 31
0
  0
LINE
  8
0
 62
7
 10
3.762943725152287
 20
5.460000000000001
 30
0
 11
3.984999999999998
 21
5.682056274847711
 31
0
  0
LINE
  8
0
 62
7
 10
3.975075759508252
 20
5.460000000000001
 30
0
 11
3.984999999999998
 21
5.469924240491747
 31
0
  0
ENDBLK
  8
0
  0
BLOCK
  8
0
  2
*X16
 70
1
 10
0
 20
0
 30
0
  0
LINE
  8
0
 62
7
 10
0.9349999999999996
 20
5.283706704297265
 30
0
 11
1.071293295702733
 21
5.420000000000001
 31
0
  0
LINE
  8
0
 62
7
 10
1.043425330058699
 20
5.180000000000001
 30
0
 11
1.283425330058697
 21
5.420000000000001
 31
0
  0
LINE
  8
0
 62
7
 10
1.1
 20
5.024442635585337
 30
0
 11
1.495557364414661
 21
5.420000000000001
 31
0
  0
LINE
  8
0
 62
7
 10
1.467689398770625
 20
5.18
 30
0
 11
1.707689398770626
 21
5.420000000000001
 31
0
  0
LINE
  8
0
 62
7
 10
1.1
 20
4.812310601229373
 30
0
 11
1.275
 21
4.987310601229372
 31
0
  0
LINE
  8
0
 62
7
 10
1.67982143312659
 20
5.18
 30
0
 11
1.91982143312659
 21
5.420000000000001
 31
0
  0
LINE
  8
0
 62
7
 10
1.1
 20
4.600178566873409
 30
0
 11
1.275
 21
4.775178566873408
 31
0
  0
LINE
  8
0
 62
7
 10
1.891953467482554
 20
5.18
 30
0
 11
2.131953467482554
 21
5.420000000000001
 31
0
  0
LINE
  8
0
 62
7
 10
1.1
 20
4.388046532517445
 30
0
 11
1.275
 21
4.563046532517444
 31
0
  0
LINE
  8
0
 62
7
 10
2.104085501838518
 20
5.18
 30
0
 11
2.344085501838518
 21
5.420000000000001
 31
0
  0
LINE
  8
0
 62
7
 10
1.1
 20
4.175914498161482
 30
0
 11
1.275
 21
4.35091449816148
 31
0
  0
LINE
  8
0
 62
7
 10
2.316217536194483
 20
5.18
 30
0
 11
2.556217536194483
 21
5.420000000000001
 31
0
  0
LINE
  8
0
 62
7
 10
1.1
 20
3.963782463805517
 30
0
 11
1.275
 21
4.138782463805517
 31
0
  0
LINE
  8
0
 62
7
 10
2.528349570550447
 20
5.18
 30
0
 11
2.768349570550447
 21
5.420000000000001
 31
0
  0
LINE
  8
0
 62
7
 10
1.1
 20
3.751650429449553
 30
0
 11
1.275
 21
3.926650429449553
 31
0
  0
LINE
  8
0
 62
7
 10
2.740481604906411
 20
5.18
 30
0
 11
2.980481604906411
 21
5.420000000000001
 31
0
  0
LINE
  8
0
 62
7
 10
1.1
 20
3.539518395093589
 30
0
 11
1.275
 21
3.714518395093588
 31
0
  0
LINE
  8
0
 62
7
 10
2.952613639262375
 20
5.18
 30
0
 11
3.192613639262376
 21
5.420000000000001
 31
0
  0
LINE
  8
0
 62
7
 10
1.122613639262376
 20
3.350000000000001
 30
0
 11
1.275
 21
3.502386360737624
 31
0
  0
LINE
  8
0
 62
7
 10
3.16474567361834
 20
5.18
 30
0
 11
3.40474567361834
 21
5.420000000000001
 31
0
  0
LINE
  8
0
 62
7
 10
3.376877707974304
 20
5.18
 30
0
 11
3.616877707974304
 21
5.420000000000001
 31
0
  0
LINE
  8
0
 62
7
 10
3.589009742330268
 20
5.18
 30
0
 11
3.829009742330268
 21
5.420000000000001
 31
0
  0
LINE
  8
0
 62
7
 10
3.659999999999997
 20
5.038858223313762
 30
0
 11
3.984999999999997
 21
5.363858223313765
 31
0
  0
LINE
  8
0
 62
7
 10
3.659999999999997
 20
4.826726188957799
 30
0
 11
3.834999999999997
 21
5.001726188957798
 31
0
  0
LINE
  8
0
 62
7
 10
3.659999999999997
 20
4.614594154601835
 30
0
 11
3.834999999999997
 21
4.789594154601834
 31
0
  0
LINE
  8
0
 62
7
 10
3.659999999999997
 20
4.402462120245871
 30
0
 11
3.834999999999997
 21
4.57746212024587
 31
0
  0
LINE
  8
0
 62
7
 10
3.659999999999997
 20
4.190330085889907
 30
0
 11
3.834999999999997
 21
4.365330085889906
 31
0
  0
LINE
  8
0
 62
7
 10
3.659999999999997
 20
3.978198051533943
 30
0
 11
3.834999999999997
 21
4.153198051533942
 31
0
  0
LINE
  8
0
 62
7
 10
3.659999999999997
 20
3.766066017177979
 30
0
 11
3.834999999999997
 21
3.941066017177978
 31
0
  0
LINE
  8
0
 62
7
 10
3.659999999999997
 20
3.553933982822015
 30
0
 11
3.834999999999997
 21
3.728933982822014
 31
0
  0
LINE
  8
0
 62
7
 10
3.659999999999997
 20
3.34180194846605
 30
0
 11
3.834999999999997
 21
3.51680194846605
 31
0
  0
LINE
  8
0
 62
7
 10
3.78033008588991
 20
3.25
 30
0
 11
3.834999999999997
 21
3.304669914110085
 31
0
  0
LINE
  8
0
 62
7
 10
0.9350000000000001
 20
5.389772721475248
 30
0
 11
0.9652272785247518
 21
5.420000000000002
 31
0
  0
LINE
  8
0
 62
7
 10
0.9373593128807172
 20
5.180000000000001
 30
0
 11
1.177359312880716
 21
5.420000000000002
 31
0
  0
LINE
  8
0
 62
7
 10
1.1
 20
5.130508652763318
 30
0
 11
1.38949134723668
 21
5.420000000000002
 31
0
  0
LINE
  8
0
 62
7
 10
1.361623381592645
 20
5.180000000000001
 30
0
 11
1.601623381592645
 21
5.420000000000002
 31
0
  0
LINE
  8
0
 62
7
 10
1.1
 20
4.918376618407354
 30
0
 11
1.275
 21
5.093376618407354
 31
0
  0
LINE
  8
0
 62
7
 10
1.573755415948609
 20
5.180000000000001
 30
0
 11
1.813755415948609
 21
5.420000000000002
 31
0
  0
LINE
  8
0
 62
7
 10
1.1
 20
4.70624458405139
 30
0
 11
1.275
 21
4.88124458405139
 31
0
  0
LINE
  8
0
 62
7
 10
1.785887450304573
 20
5.180000000000001
 30
0
 11
2.025887450304573
 21
5.420000000000002
 31
0
  0
LINE
  8
0
 62
7
 10
1.1
 20
4.494112549695426
 30
0
 11
1.275
 21
4.669112549695426
 31
0
  0
LINE
  8
0
 62
7
 10
1.998019484660538
 20
5.180000000000001
 30
0
 11
2.238019484660537
 21
5.420000000000002
 31
0
  0
LINE
  8
0
 62
7
 10
1.1
 20
4.281980515339463
 30
0
 11
1.275
 21
4.456980515339462
 31
0
  0
LINE
  8
0
 62
7
 10
2.210151519016502
 20
5.180000000000001
 30
0
 11
2.450151519016502
 21
5.420000000000002
 31
0
  0
LINE
  8
0
 62
7
 10
1.1
 20
4.069848480983499
 30
0
 11
1.275
 21
4.244848480983499
 31
0
  0
LINE
  8
0
 62
7
 10
2.422283553372466
 20
5.180000000000001
 30
0
 11
2.662283553372466
 21
5.420000000000002
 31
0
  0
LINE
  8
0
 62
7
 10
1.1
 20
3.857716446627535
 30
0
 11
1.275
 21
4.032716446627535
 31
0
  0
LINE
  8
0
 62
7
 10
2.634415587728431
 20
5.180000000000001
 30
0
 11
2.87441558772843
 21
5.420000000000002
 31
0
  0
LINE
  8
0
 62
7
 10
1.1
 20
3.645584412271571
 30
0
 11
1.275
 21
3.82058441227157
 31
0
  0
LINE
  8
0
 62
7
 10
2.846547622084395
 20
5.180000000000001
 30
0
 11
3.086547622084395
 21
5.420000000000002
 31
0
  0
LINE
  8
0
 62
7
 10
1.1
 20
3.433452377915606
 30
0
 11
1.275
 21
3.608452377915606
 31
0
  0
LINE
  8
0
 62
7
 10
3.058679656440359
 20
5.180000000000001
 30
0
 11
3.298679656440359
 21
5.420000000000002
 31
0
  0
LINE
  8
0
 62
7
 10
1.228679656440357
 20
3.35
 30
0
 11
1.275
 21
3.396320343559642
 31
0
  0
LINE
  8
0
 62
7
 10
3.270811690796323
 20
5.180000000000001
 30
0
 11
3.510811690796323
 21
5.420000000000002
 31
0
  0
LINE
  8
0
 62
7
 10
3.482943725152288
 20
5.180000000000001
 30
0
 11
3.722943725152287
 21
5.420000000000002
 31
0
  0
LINE
  8
0
 62
7
 10
3.659999999999997
 20
5.144924240491743
 30
0
 11
3.935075759508252
 21
5.420000000000002
 31
0
  0
LINE
  8
0
 62
7
 10
3.907207793864216
 20
5.180000000000001
 30
0
 11
3.984999999999997
 21
5.257792206135782
 31
0
  0
LINE
  8
0
 62
7
 10
3.659999999999997
 20
4.93279220613578
 30
0
 11
3.834999999999996
 21
5.107792206135779
 31
0
  0
LINE
  8
0
 62
7
 10
3.659999999999997
 20
4.720660171779816
 30
0
 11
3.834999999999996
 21
4.895660171779816
 31
0
  0
LINE
  8
0
 62
7
 10
3.659999999999997
 20
4.508528137423852
 30
0
 11
3.834999999999996
 21
4.683528137423852
 31
0
  0
LINE
  8
0
 62
7
 10
3.659999999999997
 20
4.296396103067888
 30
0
 11
3.834999999999996
 21
4.471396103067888
 31
0
  0
LINE
  8
0
 62
7
 10
3.659999999999997
 20
4.084264068711924
 30
0
 11
3.834999999999996
 21
4.259264068711924
 31
0
  0
LINE
  8
0
 62
7
 10
3.659999999999997
 20
3.87213203435596
 30
0
 11
3.834999999999996
 21
4.04713203435596
 31
0
  0
LINE
  8
0
 62
7
 10
3.659999999999997
 20
3.659999999999996
 30
0
 11
3.834999999999996
 21
3.834999999999996
 31
0
  0
LINE
  8
0
 62
7
 10
3.659999999999997
 20
3.447867965644032
 30
0
 11
3.834999999999996
 21
3.622867965644032
 31
0
  0
LINE
  8
0
 62
7
 10
3.674264068711929
 20
3.25
 30
0
 11
3.834999999999996
 21
3.410735931288067
 31
0
  0
ENDBLK
  8
0
  0
BLOCK
  8
0
  2
*D0
 70
1
 10
0
 20
0
 30
0
  0
LINE
  8
0
 62
7
 10
0.7693437865497281
 20
4.69057193649576
 30
0
 11
0.7693437865497281
 21
5.180000000000001
 31
0
  0
LINE
  8
0
 62
7
 10
0.7693437865497281
 20
3.35
 30
0
 11
0.7693437865497281
 21
3.94557193649576
 31
0
  0
LINE
  8
0
 62
7
 10
1.1
 20
5.180000000000001
 30
0
 11
0.7193437865497281
 21
5.180000000000001
 31
0
  0
LINE
  8
0
 62
7
 10
1.1
 20
3.35
 30
0
 11
0.7193437865497281
 21
3.35
 31
0
  0
LINE
  8
0
 62
7
 10
0.8046991256090555
 20
5.144644660940673
 30
0
 11
0.7339884474904007
 21
5.215355339059328
 31
0
  0
LINE
  8
0
 62
7
 10
0.7339884474904007
 20
3.385355339059327
 30
0
 11
0.8046991256090555
 21
3.314644660940673
 31
0
  0
TEXT
  8
0
 62
7
 10
0.8143437865497282
 20
4.19557193649576
 30
0
 40
0.1
  1
1,83
 50
90
 41
0.9
  0
ENDBLK
  8
0
  0
BLOCK
  8
0
  2
*D1
 70
1
 10
0
 20
0
 30
0
  0
LINE
  8
0
 62
7
 10
2.85828489027992
 20
6.06677529310735
 30
0
 11
3.659999999999997
 21
6.06677529310735
 31
0
  0
LINE
  8
0
 62
7
 10
1.275
 20
6.06677529310735
 30
0
 11
2.08328489027992
 21
6.06677529310735
 31
0
  0
LINE
  8
0
 62
7
 10
3.659999999999997
 20
5.699999999999999
 30
0
 11
3.659999999999997
 21
6.11677529310735
 31
0
  0
LINE
  8
0
 62
7
 10
1.275
 20
5.699999999999999
 30
0
 11
1.275
 21
6.11677529310735
 31
0
  0
LINE
  8
0
 62
7
 10
3.62464466094067
 20
6.031419954048022
 30
0
 11
3.695355339059324
 21
6.102130632166677
 31
0
  0
LINE
  8
0
 62
7
 10
1.310355339059327
 20
6.102130632166677
 30
0
 11
1.239644660940673
 21
6.031419954048022
 31
0
  0
TEXT
  8
0
 62
7
 10
2.33328489027992
 20
6.02177529310735
 30
0
 40
0.1
  1
2,39
 41
0.9
  0
ENDBLK
  8
0
  0
BLOCK
  8
0
  2
*D2
 70
1
 10
0
 20
0
 30
0
  0
LINE
  8
0
 62
7
 10
4.19585712045081
 20
4.61967855717367
 30
0
 11
4.19585712045081
 21
5.180000000000001
 31
0
  0
LINE
  8
0
 62
7
 10
4.19585712045081
 20
3.25
 30
0
 11
4.19585712045081
 21
3.87467855717367
 31
0
  0
LINE
  8
0
 62
7
 10
3.834999999999997
 20
5.180000000000001
 30
0
 11
4.24585712045081
 21
5.180000000000001
 31
0
  0
LINE
  8
0
 62
7
 10
3.834999999999997
 20
3.25
 30
0
 11
4.24585712045081
 21
3.25
 31
0
  0
LINE
  8
0
 62
7
 10
4.160501781391483
 20
3.285355339059327
 30
0
 11
4.231212459510138
 21
3.214644660940673
 31
0
  0
LINE
  8
0
 62
7
 10
4.231212459510138
 20
5.144644660940673
 30
0
 11
4.160501781391483
 21
5.215355339059328
 31
0
  0
TEXT
  8
0
 62
7
 10
4.24085712045081
 20
4.12467855717367
 30
0
 40
0.1
  1
1,93
 50
90
 41
0.9
  0
ENDBLK
  8
0
  0
BLOCK
  8
0
  2
*D3
 70
1
 10
0
 20
0
 30
0
  0
LINE
  8
0
 62
7
 10
2.79646932705957
 20
11.4901188112473
 30
0
 11
3.659999999999997
 21
11.4901188112473
 31
0
  0
LINE
  8
0
 62
7
 10
1.275
 20
11.4901188112473
 30
0
 11
2.12146932705957
 21
11.4901188112473
 31
0
  0
LINE
  8
0
 62
7
 10
3.659999999999997
 20
11.2
 30
0
 11
3.659999999999997
 21
11.5401188112473
 31
0
  0
LINE
  8
0
 62
7
 10
1.275
 20
11.2
 30
0
 11
1.275
 21
11.5401188112473
 31
0
  0
LINE
  8
0
 62
7
 10
1.310355339059327
 20
11.52547415030663
 30
0
 11
1.239644660940673
 21
11.45476347218797
 31
0
  0
LINE
  8
0
 62
7
 10
3.624644660940669
 20
11.45476347218797
 30
0
 11
3.695355339059324
 21
11.52547415030663
 31
0
  0
TEXT
  8
0
 62
7
 10
2.32146932705957
 20
11.4451188112473
 30
0
 40
0.1
  1
2,39
 41
0.9
  0
ENDBLK
  8
0
  0
BLOCK
  8
0
  2
*D4
 70
1
 10
0
 20
0
 30
0
  0
LINE
  8
0
 62
7
 10
0.6386159025861521
 20
10.15569022187917
 30
0
 11
0.6386159025861521
 21
11.05
 31
0
  0
LINE
  8
0
 62
7
 10
0.6386159025861521
 20
8.299999999999997
 30
0
 11
0.6386159025861521
 21
9.075690221879169
 31
0
  0
LINE
  8
0
 62
7
 10
0.9500000000000001
 20
11.05
 30
0
 11
0.588615902586152
 21
11.05
 31
0
  0
LINE
  8
0
 62
7
 10
0.9500000000000001
 20
8.299999999999997
 30
0
 11
0.588615902586152
 21
8.299999999999997
 31
0
  0
LINE
  8
0
 62
7
 10
0.6032605635268247
 20
8.335355339059324
 30
0
 11
0.6739712416454795
 21
8.26464466094067
 31
0
  0
LINE
  8
0
 62
7
 10
0.6739712416454795
 20
11.01464466094067
 30
0
 11
0.6032605635268247
 21
11.08535533905933
 31
0
  0
TEXT
  8
0
 62
7
 10
0.6086159025861521
 20
9.478190221879171
 30
0
 40
0.1
  1
2,75
 50
90
 41
0.9
  0
TEXT
  8
0
 62
7
 10
0.7686159025861521
 20
9.27569022187917
 30
0
 40
0.1
  1
(260-280)
 50
90
 41
0.9
  0
ENDBLK
  8
0
  0
ENDSEC
  0
SECTION
  2
ENTITIES
  0
INSERT
  8
0
  2
*X0
 10
0
 20
0
 30
0
  0
INSERT
  8
0
  2
*X1
 10
0
 20
0
 30
0
  0
INSERT
  8
0
  2
*X2
 10
0
 20
0
 30
0
  0
INSERT
  8
0
  2
*X3
 10
0
 20
0
 30
0
  0
INSERT
  8
0
  2
*X4
 10
0
 20
0
 30
0
  0
INSERT
  8
0
  2
*X5
 10
0
 20
0
 30
0
  0
INSERT
  8
0
  2
*X6
 10
0
 20
0
 30
0
  0
INSERT
  8
0
  2
*X7
 10
0
 20
0
 30
0
  0
INSERT
  8
0
  2
*X8
 10
0
 20
0
 30
0
  0
INSERT
  8
0
  2
*X9
 10
0
 20
0
 30
0
  0
INSERT
  8
0
  2
*X10
 10
0
 20
0
 30
0
  0
INSERT
  8
0
  2
*X11
 10
0
 20
0
 30
0
  0
INSERT
  8
0
  2
*X12
 10
0
 20
0
 30
0
  0
INSERT
  8
0
  2
*X13
 10
0
 20
0
 30
0
  0
INSERT
  8
0
  2
*X14
 10
0
 20
0
 30
0
  0
INSERT
  8
0
  2
*X15
 10
0
 20
0
 30
0
  0
INSERT
  8
0
  2
*X16
 10
0
 20
0
 30
0
  0
LINE
  8
0
 62
7
 10
1.33
 20
3.69607878934291
 30
0
 11
1.33
 21
3.39
 31
0
  0
LINE
  8
0
 62
7
 10
2.28
 20
3.39
 30
0
 11
2.28
 21
3.61993443004392
 31
0
  0
LINE
  8
0
 62
7
 10
2.28
 20
3.61993443004392
 30
0
 11
1.33
 21
3.69607878934291
 31
0
  0
LINE
  8
0
 62
7
 10
1.33
 20
4.07894815161148
 30
0
 11
1.33
 21
3.60579015703788
 31
0
  0
LINE
  8
0
 62
7
 10
2.28
 20
3.529645797738901
 30
0
 11
2.28
 21
3.741390886941161
 31
0
  0
LINE
  8
0
 62
7
 10
2.28
 20
3.741390886941161
 30
0
 11
1.33
 21
4.07894815161148
 31
0
  0
LINE
  8
0
 62
7
 10
1.33
 20
4.45911322449244
 30
0
 11
1.33
 21
3.98343551668482
 31
0
  0
LINE
  8
0
 62
7
 10
2.28
 20
3.6458782520145
 30
0
 11
2.28
 21
3.86592683982592
 31
0
  0
LINE
  8
0
 62
7
 10
2.28
 20
3.86592683982592
 30
0
 11
1.33
 21
4.45911322449244
 31
0
  0
LINE
  8
0
 62
7
 10
1.33
 20
4.95736714051494
 30
0
 11
1.33
 21
4.353009226461531
 31
0
  0
LINE
  8
0
 62
7
 10
2.28
 20
3.759822841795003
 30
0
 11
2.28
 21
3.98816407747567
 31
0
  0
LINE
  8
0
 62
7
 10
2.28
 20
3.98816407747567
 30
0
 11
1.33
 21
4.95736714051494
 31
0
  0
LINE
  8
0
 62
7
 10
1.785765017543881
 20
5.125
 30
0
 11
1.33
 21
5.125
 31
0
  0
LINE
  8
0
 62
7
 10
1.33
 20
5.125
 30
0
 11
1.33
 21
4.828795089180051
 31
0
  0
LINE
  8
0
 62
7
 10
2.28
 20
3.85959202614078
 30
0
 11
2.28
 21
4.09550452120295
 31
0
  0
LINE
  8
0
 62
7
 10
2.28
 20
4.09550452120295
 30
0
 11
1.785765017543881
 21
5.125
 31
0
  0
LINE
  8
0
 62
7
 10
2.276793353044119
 20
4.102183992831553
 30
0
 11
2.34245395007184
 21
4.198609120495241
 31
0
  0
LINE
  8
0
 62
7
 10
2.228038875218012
 20
5.125
 30
0
 11
1.685931041384109
 21
5.125
 31
0
  0
LINE
  8
0
 62
7
 10
2.34245395007184
 20
4.198609120495241
 30
0
 11
2.228038875218012
 21
5.125
 31
0
  0
LINE
  8
0
 62
7
 10
2.326377342401447
 20
4.17500000000002
 30
0
 11
2.536460588062691
 21
4.17500000000002
 31
0
  0
LINE
  8
0
 62
7
 10
2.549152036618391
 20
5.125
 30
0
 11
2.13735505221699
 21
5.125
 31
0
  0
LINE
  8
0
 62
7
 10
2.536460588062691
 20
4.17500000000002
 30
0
 11
2.549152036618391
 21
5.125
 31
0
  0
LINE
  8
0
 62
7
 10
2.946040299575158
 20
5.125
 30
0
 11
2.45914400564264
 21
5.125
 31
0
  0
LINE
  8
0
 62
7
 10
2.44645255708695
 20
4.175
 30
0
 11
2.654445835681208
 21
4.175
 31
0
  0
LINE
  8
0
 62
7
 10
2.654445835681208
 20
4.175
 30
0
 11
2.946040299575158
 21
5.125
 31
0
  0
LINE
  8
0
 62
7
 10
2.599331770459386
 20
4.175000000000001
 30
0
 11
2.714969549458736
 21
4.052717832392051
 31
0
  0
LINE
  8
0
 62
7
 10
3.423035914282766
 20
5.125
 30
0
 11
2.851896121914515
 21
5.125
 31
0
  0
LINE
  8
0
 62
7
 10
2.714969549458736
 20
4.052717832392051
 30
0
 11
3.423035914282766
 21
5.125
 31
0
  0
LINE
  8
0
 62
7
 10
2.654999999999998
 20
4.116133150134601
 30
0
 11
2.654999999999998
 21
3.89644310646161
 31
0
  0
LINE
  8
0
 62
7
 10
3.604999999999998
 20
4.658285702029852
 30
0
 11
3.604999999999998
 21
5.125
 31
0
  0
LINE
  8
0
 62
7
 10
3.604999999999998
 20
5.125
 30
0
 11
3.315184387153977
 21
5.125
 31
0
  0
LINE
  8
0
 62
7
 10
2.654999999999998
 20
3.89644310646161
 30
0
 11
3.604999999999998
 21
4.658285702029852
 31
0
  0
LINE
  8
0
 62
7
 10
3.604999999999998
 20
4.24307059428664
 30
0
 11
3.604999999999998
 21
4.773651066652351
 31
0
  0
LINE
  8
0
 62
7
 10
2.654999999999998
 20
4.011808471084109
 30
0
 11
2.654999999999998
 21
3.78974844730653
 31
0
  0
LINE
  8
0
 62
7
 10
2.654999999999998
 20
3.78974844730653
 30
0
 11
3.604999999999998
 21
4.24307059428664
 31
0
  0
LINE
  8
0
 62
7
 10
3.604999999999998
 20
3.85223733095514
 30
0
 11
3.604999999999998
 21
4.342792133723361
 31
0
  0
LINE
  8
0
 62
7
 10
2.654999999999998
 20
3.889469986743251
 30
0
 11
2.654999999999998
 21
3.677271829238161
 31
0
  0
LINE
  8
0
 62
7
 10
2.654999999999998
 20
3.677271829238161
 30
0
 11
3.604999999999998
 21
3.85223733095514
 31
0
  0
LINE
  8
0
 62
7
 10
3.604999999999998
 20
3.51
 30
0
 11
3.604999999999998
 21
3.943751008282401
 31
0
  0
LINE
  8
0
 62
7
 10
2.654999999999998
 20
3.768785506565421
 30
0
 11
2.654999999999998
 21
3.51
 31
0
  0
LINE
  8
0
 62
7
 10
2.654999999999998
 20
3.51
 30
0
 11
3.604999999999998
 21
3.51
 31
0
  0
LINE
  8
0
 62
7
 10
3.604999999999998
 20
3.25
 30
0
 11
3.604999999999998
 21
3.6
 31
0
  0
LINE
  8
0
 62
7
 10
2.654999999999998
 20
3.6
 30
0
 11
2.654999999999998
 21
3.25
 31
0
  0
LINE
  8
0
 62
7
 10
2.654999999999998
 20
3.25
 30
0
 11
3.604999999999998
 21
3.25
 31
0
  0
LINE
  8
0
 62
7
 10
1.776519248884579
 20
3.4
 30
0
 11
1.776519248884579
 21
4.174999951724891
 31
0
  0
LINE
  8
0
 62
7
 10
1.776519248884579
 20
3.4
 30
0
 11
1.670864149622879
 21
3.461
 31
0
  0
LINE
  8
0
 62
7
 10
1.670864149622879
 20
3.461
 30
0
 11
1.882174348146282
 21
3.461
 31
0
  0
LINE
  8
0
 62
7
 10
1.882174348146282
 20
3.461
 30
0
 11
1.776519248884579
 21
3.4
 31
0
  0
LINE
  8
0
 62
7
 10
2.280000048262562
 20
4.678480751115422
 30
0
 11
2.654999951724227
 21
4.678480751115422
 31
0
  0
LINE
  8
0
 62
7
 10
3.158480751115427
 20
4.1749999517476
 30
0
 11
3.158480751115427
 21
3.25
 31
0
  0
LINE
  8
0
 62
7
 10
6.170000409999998
 20
10.96666666666666
 30
0
 11
6.476078909999997
 21
10.96666666666666
 31
0
  0
LINE
  8
0
 62
7
 10
6.476078909999997
 20
10.90166666666666
 30
0
 11
6.170000409999998
 21
10.90166666666666
 31
0
  0
LINE
  8
0
 62
7
 10
6.170000409999998
 20
10.90166666666666
 30
0
 11
6.170000409999998
 21
10.96666666666666
 31
0
  0
LINE
  8
0
 62
7
 10
6.476078909999997
 20
10.96666666666666
 30
0
 11
6.476078909999997
 21
10.90166666666666
 31
0
  0
LINE
  8
0
 62
7
 10
6.858948279999996
 20
10.71833322666666
 30
0
 11
6.309645919999996
 21
10.71833322666666
 31
0
  0
LINE
  8
0
 62
7
 10
6.309645919999996
 20
10.78333322666666
 30
0
 11
6.858948279999996
 21
10.78333322666666
 31
0
  0
LINE
  8
0
 62
7
 10
6.309645919999996
 20
10.71833322666666
 30
0
 11
6.309645919999996
 21
10.78333322666666
 31
0
  0
LINE
  8
0
 62
7
 10
6.858948279999996
 20
10.78333322666666
 30
0
 11
6.858948279999996
 21
10.71833322666666
 31
0
  0
LINE
  8
0
 62
7
 10
7.239113309999998
 20
10.53499994666666
 30
0
 11
6.425878409999996
 21
10.53499994666666
 31
0
  0
LINE
  8
0
 62
7
 10
6.425878409999996
 20
10.59999994666666
 30
0
 11
7.239113309999998
 21
10.59999994666666
 31
0
  0
LINE
  8
0
 62
7
 10
6.425878409999996
 20
10.53499994666666
 30
0
 11
6.425878409999996
 21
10.59999994666666
 31
0
  0
LINE
  8
0
 62
7
 10
7.239113309999998
 20
10.59999994666666
 30
0
 11
7.239113309999998
 21
10.53499994666666
 31
0
  0
LINE
  8
0
 62
7
 10
7.737367549999998
 20
10.35166666666666
 30
0
 11
6.539822989999998
 21
10.35166666666666
 31
0
  0
LINE
  8
0
 62
7
 10
6.539822989999998
 20
10.41666666666666
 30
0
 11
7.737367549999998
 21
10.41666666666666
 31
0
  0
LINE
  8
0
 62
7
 10
6.539822989999998
 20
10.35166666666666
 30
0
 11
6.539822989999998
 21
10.41666666666666
 31
0
  0
LINE
  8
0
 62
7
 10
7.737367549999998
 20
10.41666666666666
 30
0
 11
7.737367549999998
 21
10.35166666666666
 31
0
  0
LINE
  8
0
 62
7
 10
7.904999689999996
 20
10.16833322666666
 30
0
 11
6.639592199999997
 21
10.16833322666666
 31
0
  0
LINE
  8
0
 62
7
 10
6.639592199999997
 20
10.23333322666666
 30
0
 11
7.904999689999996
 21
10.23333322666666
 31
0
  0
LINE
  8
0
 62
7
 10
6.639592199999997
 20
10.16833322666666
 30
0
 11
6.639592199999997
 21
10.23333322666666
 31
0
  0
LINE
  8
0
 62
7
 10
7.904999689999996
 20
10.23333322666666
 30
0
 11
7.904999689999996
 21
10.16833322666666
 31
0
  0
LINE
  8
0
 62
7
 10
6.882184209999996
 20
10.04999994666666
 30
0
 11
7.904999999999998
 21
10.04999994666666
 31
0
  0
LINE
  8
0
 62
7
 10
7.904999999999998
 20
9.984999946666663
 30
0
 11
6.882184209999996
 21
9.984999946666663
 31
0
  0
LINE
  8
0
 62
7
 10
6.882184209999996
 20
9.984999946666663
 30
0
 11
6.882184209999996
 21
10.04999994666666
 31
0
  0
LINE
  8
0
 62
7
 10
7.904999999999998
 20
10.04999994666666
 30
0
 11
7.904999999999998
 21
9.984999946666663
 31
0
  0
LINE
  8
0
 62
7
 10
6.955000149999996
 20
9.866666666666664
 30
0
 11
7.905000149999998
 21
9.866666666666664
 31
0
  0
LINE
  8
0
 62
7
 10
6.955000149999996
 20
9.801666666666662
 30
0
 11
6.955000149999996
 21
9.866666666666664
 31
0
  0
LINE
  8
0
 62
7
 10
7.905000149999998
 20
9.866666666666664
 30
0
 11
7.905000149999998
 21
9.801666666666662
 31
0
  0
LINE
  8
0
 62
7
 10
7.905000149999998
 20
9.801666666666662
 30
0
 11
6.955000149999996
 21
9.801666666666662
 31
0
  0
LINE
  8
0
 62
7
 10
6.955000219999995
 20
9.683333226666662
 30
0
 11
7.904999999999998
 21
9.683333226666662
 31
0
  0
LINE
  8
0
 62
7
 10
6.955000219999995
 20
9.618333226666662
 30
0
 11
6.955000219999995
 21
9.683333226666662
 31
0
  0
LINE
  8
0
 62
7
 10
7.904999999999998
 20
9.683333226666662
 30
0
 11
7.904999999999998
 21
9.618333226666662
 31
0
  0
LINE
  8
0
 62
7
 10
7.904999999999998
 20
9.618333226666662
 30
0
 11
6.955000219999995
 21
9.618333226666662
 31
0
  0
LINE
  8
0
 62
7
 10
6.832718199999999
 20
9.499999946666664
 30
0
 11
7.904999999999998
 21
9.499999946666664
 31
0
  0
LINE
  8
0
 62
7
 10
7.904999999999998
 20
9.434999946666663
 30
0
 11
6.832718199999999
 21
9.434999946666663
 31
0
  0
LINE
  8
0
 62
7
 10
6.832718199999999
 20
9.434999946666663
 30
0
 11
6.832718199999999
 21
9.499999946666664
 31
0
  0
LINE
  8
0
 62
7
 10
7.904999999999998
 20
9.499999946666664
 30
0
 11
7.904999999999998
 21
9.434999946666663
 31
0
  0
LINE
  8
0
 62
7
 10
7.904999999999998
 20
9.251666586666662
 30
0
 11
6.676443709999997
 21
9.251666586666662
 31
0
  0
LINE
  8
0
 62
7
 10
6.676443709999997
 20
9.316666586666662
 30
0
 11
7.904999999999998
 21
9.316666586666662
 31
0
  0
LINE
  8
0
 62
7
 10
6.676443709999997
 20
9.251666586666662
 30
0
 11
6.676443709999997
 21
9.316666586666662
 31
0
  0
LINE
  8
0
 62
7
 10
7.904999999999998
 20
9.316666586666662
 30
0
 11
7.904999999999998
 21
9.251666586666662
 31
0
  0
LINE
  8
0
 62
7
 10
7.553651119999995
 20
9.068333226666661
 30
0
 11
6.569748529999997
 21
9.068333226666661
 31
0
  0
LINE
  8
0
 62
7
 10
6.569748529999997
 20
9.133333226666661
 30
0
 11
7.553651119999995
 21
9.133333226666661
 31
0
  0
LINE
  8
0
 62
7
 10
6.569748529999997
 20
9.068333226666661
 30
0
 11
6.569748529999997
 21
9.133333226666661
 31
0
  0
LINE
  8
0
 62
7
 10
7.553651119999995
 20
9.133333226666661
 30
0
 11
7.553651119999995
 21
9.068333226666661
 31
0
  0
LINE
  8
0
 62
7
 10
7.122792349999997
 20
8.884999906666662
 30
0
 11
6.457271949999996
 21
8.884999906666662
 31
0
  0
LINE
  8
0
 62
7
 10
6.457271949999996
 20
8.949999906666664
 30
0
 11
7.122792349999997
 21
8.949999906666664
 31
0
  0
LINE
  8
0
 62
7
 10
6.457271949999996
 20
8.884999906666662
 30
0
 11
6.457271949999996
 21
8.949999906666664
 31
0
  0
LINE
  8
0
 62
7
 10
7.122792349999997
 20
8.949999906666664
 30
0
 11
7.122792349999997
 21
8.884999906666662
 31
0
  0
LINE
  8
0
 62
7
 10
6.290000219999995
 20
8.766666566666663
 30
0
 11
6.723751289999997
 21
8.766666566666663
 31
0
  0
LINE
  8
0
 62
7
 10
6.723751289999997
 20
8.701666566666661
 30
0
 11
6.290000219999995
 21
8.701666566666661
 31
0
  0
LINE
  8
0
 62
7
 10
6.290000219999995
 20
8.701666566666661
 30
0
 11
6.290000219999995
 21
8.766666566666663
 31
0
  0
LINE
  8
0
 62
7
 10
6.723751289999997
 20
8.766666566666663
 30
0
 11
6.723751289999997
 21
8.701666566666661
 31
0
  0
LINE
  8
0
 62
7
 10
6.030000239999996
 20
8.58333322666666
 30
0
 11
6.380000299999999
 21
8.58333322666666
 31
0
  0
LINE
  8
0
 62
7
 10
6.030000239999996
 20
8.518333226666661
 30
0
 11
6.030000239999996
 21
8.58333322666666
 31
0
  0
LINE
  8
0
 62
7
 10
6.380000299999999
 20
8.58333322666666
 30
0
 11
6.380000299999999
 21
8.518333226666661
 31
0
  0
LINE
  8
0
 62
7
 10
6.380000299999999
 20
8.518333226666661
 30
0
 11
6.030000239999996
 21
8.518333226666661
 31
0
  0
LINE
  8
0
 62
7
  6
DASHED
 10
1.33
 20
10.96666666666666
 30
0
 11
2.27999984
 21
10.96666666666666
 31
0
  0
LINE
  8
0
 62
7
  6
DASHED
 10
2.27999984
 20
10.96666666666666
 30
0
 11
2.27999984
 21
10.90166666666666
 31
0
  0
LINE
  8
0
 62
7
  6
DASHED
 10
1.33
 20
10.90166666666666
 30
0
 11
1.33
 21
10.96666666666666
 31
0
  0
LINE
  8
0
 62
7
  6
DASHED
 10
2.27999984
 20
10.90166666666666
 30
0
 11
1.33
 21
10.90166666666666
 31
0
  0
LINE
  8
0
 62
7
 10
1.33
 20
10.78333322666666
 30
0
 11
2.280000300000002
 21
10.78333322666666
 31
0
  0
LINE
  8
0
 62
7
 10
2.280000300000002
 20
10.78333322666666
 30
0
 11
2.280000300000002
 21
10.71833322666666
 31
0
  0
LINE
  8
0
 62
7
 10
1.33
 20
10.71833322666666
 30
0
 11
1.33
 21
10.78333322666666
 31
0
  0
LINE
  8
0
 62
7
 10
2.280000300000002
 20
10.71833322666666
 30
0
 11
1.33
 21
10.71833322666666
 31
0
  0
LINE
  8
0
 62
7
 10
1.32999969
 20
10.59999994666666
 30
0
 11
2.280000150000002
 21
10.59999994666666
 31
0
  0
LINE
  8
0
 62
7
 10
2.280000150000002
 20
10.59999994666666
 30
0
 11
2.280000150000002
 21
10.53499994666666
 31
0
  0
LINE
  8
0
 62
7
 10
1.32999969
 20
10.53499994666666
 30
0
 11
1.32999969
 21
10.59999994666666
 31
0
  0
LINE
  8
0
 62
7
 10
2.280000150000002
 20
10.53499994666666
 30
0
 11
1.32999969
 21
10.53499994666666
 31
0
  0
LINE
  8
0
 62
7
 10
1.33
 20
10.41666666666666
 30
0
 11
2.28
 21
10.41666666666666
 31
0
  0
LINE
  8
0
 62
7
 10
2.28
 20
10.41666666666666
 30
0
 11
2.28
 21
10.35166666666666
 31
0
  0
LINE
  8
0
 62
7
 10
1.33
 20
10.35166666666666
 30
0
 11
1.33
 21
10.41666666666666
 31
0
  0
LINE
  8
0
 62
7
 10
2.28
 20
10.35166666666666
 30
0
 11
1.33
 21
10.35166666666666
 31
0
  0
LINE
  8
0
 62
7
 10
1.33
 20
10.23333322666666
 30
0
 11
2.28
 21
10.23333322666666
 31
0
  0
LINE
  8
0
 62
7
 10
2.28
 20
10.16833322666666
 30
0
 11
1.33
 21
10.16833322666666
 31
0
  0
LINE
  8
0
 62
7
 10
2.28
 20
10.23333322666666
 30
0
 11
2.28
 21
10.16833322666666
 31
0
  0
LINE
  8
0
 62
7
 10
1.33
 20
10.16833322666666
 30
0
 11
1.33
 21
10.23333322666666
 31
0
  0
LINE
  8
0
 62
7
 10
2.34245391
 20
9.984999946666662
 30
0
 11
1.685931240000002
 21
9.984999946666662
 31
0
  0
LINE
  8
0
 62
7
 10
1.685931240000002
 20
10.04999994666666
 30
0
 11
2.34245391
 21
10.04999994666666
 31
0
  0
LINE
  8
0
 62
7
 10
2.34245391
 20
10.04999994666666
 30
0
 11
2.34245391
 21
9.984999946666662
 31
0
  0
LINE
  8
0
 62
7
 10
1.685931240000002
 20
9.984999946666662
 30
0
 11
1.685931240000002
 21
10.04999994666666
 31
0
  0
LINE
  8
0
 62
7
 10
2.54915191
 20
9.801666666666662
 30
0
 11
2.13735504
 21
9.801666666666662
 31
0
  0
LINE
  8
0
 62
7
 10
2.13735504
 20
9.866666666666662
 30
0
 11
2.54915191
 21
9.866666666666662
 31
0
  0
LINE
  8
0
 62
7
 10
2.54915191
 20
9.866666666666662
 30
0
 11
2.54915191
 21
9.801666666666662
 31
0
  0
LINE
  8
0
 62
7
 10
2.13735504
 20
9.801666666666662
 30
0
 11
2.13735504
 21
9.866666666666662
 31
0
  0
LINE
  8
0
 62
7
 10
2.946040190000007
 20
9.618333226666662
 30
0
 11
2.446452790000001
 21
9.618333226666662
 31
0
  0
LINE
  8
0
 62
7
 10
2.446452790000001
 20
9.683333226666662
 30
0
 11
2.946040190000007
 21
9.683333226666662
 31
0
  0
LINE
  8
0
 62
7
 10
2.946040190000007
 20
9.683333226666662
 30
0
 11
2.946040190000007
 21
9.618333226666662
 31
0
  0
LINE
  8
0
 62
7
 10
2.446452790000001
 20
9.618333226666662
 30
0
 11
2.446452790000001
 21
9.683333226666662
 31
0
  0
LINE
  8
0
 62
7
 10
3.423035960000007
 20
9.434999946666661
 30
0
 11
2.599331659999996
 21
9.434999946666661
 31
0
  0
LINE
  8
0
 62
7
 10
2.599331659999996
 20
9.49999994666666
 30
0
 11
3.423035960000007
 21
9.49999994666666
 31
0
  0
LINE
  8
0
 62
7
 10
3.423035960000007
 20
9.49999994666666
 30
0
 11
3.423035960000007
 21
9.434999946666661
 31
0
  0
LINE
  8
0
 62
7
 10
2.599331659999996
 20
9.434999946666661
 30
0
 11
2.599331659999996
 21
9.49999994666666
 31
0
  0
LINE
  8
0
 62
7
 10
2.654999999999998
 20
9.316666586666662
 30
0
 11
3.605000070000006
 21
9.316666586666662
 31
0
  0
LINE
  8
0
 62
7
 10
3.605000070000006
 20
9.251666586666662
 30
0
 11
2.654999999999998
 21
9.251666586666662
 31
0
  0
LINE
  8
0
 62
7
 10
3.605000070000006
 20
9.316666586666662
 30
0
 11
3.605000070000006
 21
9.251666586666662
 31
0
  0
LINE
  8
0
 62
7
 10
2.654999999999998
 20
9.251666586666662
 30
0
 11
2.654999999999998
 21
9.316666586666662
 31
0
  0
LINE
  8
0
 62
7
 10
2.655000150000007
 20
9.133333226666661
 30
0
 11
3.605000000000007
 21
9.133333226666661
 31
0
  0
LINE
  8
0
 62
7
 10
3.605000000000007
 20
9.133333226666661
 30
0
 11
3.605000000000007
 21
9.068333226666661
 31
0
  0
LINE
  8
0
 62
7
 10
2.655000150000007
 20
9.068333226666661
 30
0
 11
2.655000150000007
 21
9.133333226666661
 31
0
  0
LINE
  8
0
 62
7
 10
3.605000000000007
 20
9.068333226666661
 30
0
 11
2.655000150000007
 21
9.068333226666661
 31
0
  0
LINE
  8
0
 62
7
 10
2.655000070000006
 20
8.94999990666666
 30
0
 11
3.605000070000006
 21
8.94999990666666
 31
0
  0
LINE
  8
0
 62
7
 10
3.605000070000006
 20
8.94999990666666
 30
0
 11
3.605000070000006
 21
8.884999906666659
 31
0
  0
LINE
  8
0
 62
7
 10
2.655000070000006
 20
8.884999906666659
 30
0
 11
2.655000070000006
 21
8.94999990666666
 31
0
  0
LINE
  8
0
 62
7
 10
3.605000070000006
 20
8.884999906666659
 30
0
 11
2.655000070000006
 21
8.884999906666659
 31
0
  0
LINE
  8
0
 62
7
 10
2.654999999999998
 20
8.766666566666661
 30
0
 11
3.605000240000007
 21
8.766666566666661
 31
0
  0
LINE
  8
0
 62
7
 10
3.605000240000007
 20
8.766666566666661
 30
0
 11
3.605000240000007
 21
8.70166656666666
 31
0
  0
LINE
  8
0
 62
7
 10
2.654999999999998
 20
8.70166656666666
 30
0
 11
2.654999999999998
 21
8.766666566666661
 31
0
  0
LINE
  8
0
 62
7
 10
3.605000240000007
 20
8.70166656666666
 30
0
 11
2.654999999999998
 21
8.70166656666666
 31
0
  0
LINE
  8
0
 62
7
 10
2.655000070000006
 20
8.58333322666666
 30
0
 11
3.605000450000007
 21
8.58333322666666
 31
0
  0
LINE
  8
0
 62
7
 10
3.605000450000007
 20
8.58333322666666
 30
0
 11
3.605000450000007
 21
8.518333226666661
 31
0
  0
LINE
  8
0
 62
7
 10
2.655000070000006
 20
8.518333226666661
 30
0
 11
2.655000070000006
 21
8.58333322666666
 31
0
  0
LINE
  8
0
 62
7
 10
3.605000450000007
 20
8.518333226666661
 30
0
 11
2.655000070000006
 21
8.518333226666661
 31
0
  0
LINE
  8
0
 62
7
  6
DASHDOT
 10
1.1
 20
5.849999999999999
 30
0
 11
1.275
 21
5.849999999999999
 31
0
  0
LINE
  8
0
 62
7
  6
DASHDOT
 10
1.05
 20
5.849999999999999
 30
0
 11
1.1
 21
5.849999999999999
 31
0
  0
LINE
  8
0
 62
7
  6
DASHDOT
 10
3.984999999999998
 20
5.180000000000001
 30
0
 11
3.984999999999998
 21
5.420000000000001
 31
0
  0
LINE
  8
0
 62
7
  6
DASHDOT
 10
0.9350000000000001
 20
5.180000000000001
 30
0
 11
0.9350000000000001
 21
5.420000000000001
 31
0
  0
LINE
  8
0
 62
7
  6
DASHDOT
 10
3.984999999999998
 20
5.420000000000001
 30
0
 11
3.984999999999998
 21
5.460000000000001
 31
0
  0
LINE
  8
0
 62
7
  6
DASHDOT
 10
0.9350000000000001
 20
5.420000000000001
 30
0
 11
0.9350000000000001
 21
5.460000000000001
 31
0
  0
LINE
  8
0
 62
7
  6
DASHDOT
 10
3.984999999999998
 20
5.130000000000001
 30
0
 11
3.984999999999998
 21
5.180000000000001
 31
0
  0
LINE
  8
0
 62
7
  6
DASHDOT
 10
3.984999999999998
 20
5.460000000000001
 30
0
 11
3.984999999999998
 21
5.699999999999999
 31
0
  0
LINE
  8
0
 62
7
  6
DASHDOT
 10
3.609999999999998
 20
5.849999999999999
 30
0
 11
3.659999999999997
 21
5.849999999999999
 31
0
  0
LINE
  8
0
 62
7
  6
DASHDOT
 10
3.659999999999997
 20
5.849999999999999
 30
0
 11
3.834999999999997
 21
5.849999999999999
 31
0
  0
LINE
  8
0
 62
7
  6
DASHDOT
 10
0.9350000000000001
 20
5.130000000000001
 30
0
 11
0.9350000000000001
 21
5.180000000000001
 31
0
  0
LINE
  8
0
 62
7
  6
DASHDOT
 10
0.9350000000000001
 20
5.460000000000001
 30
0
 11
0.9350000000000001
 21
5.699999999999999
 31
0
  0
LINE
  8
0
 62
7
  6
DASHDOT
 10
0.9350000000000001
 20
5.699999999999999
 30
0
 11
0.9350000000000001
 21
5.749999999999999
 31
0
  0
LINE
  8
0
 62
7
  6
DASHDOT
 10
3.984999999999998
 20
5.699999999999999
 30
0
 11
3.984999999999998
 21
5.749999999999999
 31
0
  0
LINE
  8
0
 62
7
  6
DASHDOT
 10
1.275
 20
5.849999999999999
 30
0
 11
1.325
 21
5.849999999999999
 31
0
  0
LINE
  8
0
 62
7
  6
DASHDOT
 10
3.834999999999997
 20
5.849999999999999
 30
0
 11
3.884999999999998
 21
5.849999999999999
 31
0
  0
LINE
  8
0
 62
7
 10
3.659999999999997
 20
3.4
 30
0
 11
3.659999999999997
 21
3.35
 31
0
  0
LINE
  8
0
 62
7
  6
DASHDOT
 10
3.659999999999997
 20
3.35
 30
0
 11
1.275
 21
3.35
 31
0
  0
LINE
  8
0
 62
7
 10
1.275
 20
3.35
 30
0
 11
1.275
 21
3.4
 31
0
  0
LINE
  8
0
 62
7
 10
3.659999999999997
 20
5.180000000000001
 30
0
 11
3.659999999999997
 21
3.4
 31
0
  0
LINE
  8
0
 62
7
 10
3.659999999999997
 20
3.4
 30
0
 11
1.275
 21
3.4
 31
0
  0
LINE
  8
0
 62
7
 10
1.1
 20
3.35
 30
0
 11
1.275
 21
3.35
 31
0
  0
LINE
  8
0
 62
7
 10
0.9350000000000001
 20
5.180000000000001
 30
0
 11
1.1
 21
5.180000000000001
 31
0
  0
LINE
  8
0
 62
7
 10
1.1
 20
5.180000000000001
 30
0
 11
1.1
 21
3.35
 31
0
  0
LINE
  8
0
 62
7
 10
1.275
 20
3.4
 30
0
 11
1.275
 21
5.180000000000001
 31
0
  0
LINE
  8
0
 62
7
 10
1.275
 20
5.180000000000001
 30
0
 11
3.659999999999997
 21
5.180000000000001
 31
0
  0
LINE
  8
0
 62
7
 10
3.834999999999997
 20
3.25
 30
0
 11
3.834999999999997
 21
5.180000000000001
 31
0
  0
LINE
  8
0
 62
7
 10
3.659999999999997
 20
3.25
 30
0
 11
3.834999999999997
 21
3.25
 31
0
  0
LINE
  8
0
 62
7
 10
3.659999999999997
 20
3.35
 30
0
 11
3.659999999999997
 21
3.25
 31
0
  0
LINE
  8
0
 62
7
 10
3.834999999999997
 20
5.180000000000001
 30
0
 11
3.984999999999998
 21
5.180000000000001
 31
0
  0
LINE
  8
0
 62
7
 10
0.9350000000000001
 20
5.420000000000001
 30
0
 11
3.984999999999998
 21
5.420000000000001
 31
0
  0
LINE
  8
0
 62
7
 10
0.9350000000000001
 20
5.460000000000001
 30
0
 11
3.984999999999998
 21
5.460000000000001
 31
0
  0
LINE
  8
0
 62
7
 10
0.9350000000000001
 20
5.699999999999999
 30
0
 11
1.1
 21
5.699999999999999
 31
0
  0
LINE
  8
0
 62
7
 10
1.1
 20
5.699999999999999
 30
0
 11
1.1
 21
5.849999999999999
 31
0
  0
LINE
  8
0
 62
7
 10
1.275
 20
5.849999999999999
 30
0
 11
1.275
 21
5.699999999999999
 31
0
  0
LINE
  8
0
 62
7
 10
1.275
 20
5.699999999999999
 30
0
 11
3.659999999999997
 21
5.699999999999999
 31
0
  0
LINE
  8
0
 62
7
 10
3.659999999999997
 20
5.699999999999999
 30
0
 11
3.659999999999997
 21
5.849999999999999
 31
0
  0
LINE
  8
0
 62
7
 10
3.834999999999997
 20
5.849999999999999
 30
0
 11
3.834999999999997
 21
5.699999999999999
 31
0
  0
LINE
  8
0
 62
7
 10
3.834999999999997
 20
5.699999999999999
 30
0
 11
3.984999999999998
 21
5.699999999999999
 31
0
  0
LINE
  8
0
 62
7
  6
DASHED
 10
6.129999999999996
 20
8.099999999999996
 30
0
 11
7.959999999999998
 21
8.099999999999996
 31
0
  0
LINE
  8
0
 62
7
  6
DASHED
 10
6.129999999999996
 20
8.299999999999997
 30
0
 11
7.959999999999998
 21
8.299999999999997
 31
0
  0
LINE
  8
0
 62
7
  6
DASHED
 10
6.129999999999996
 20
10.85
 30
0
 11
7.959999999999998
 21
10.85
 31
0
  0
LINE
  8
0
 62
7
  6
DASHED
 10
6.129999999999996
 20
11.05
 30
0
 11
7.959999999999998
 21
11.05
 31
0
  0
LINE
  8
0
 62
7
  6
DASHDOT
 10
5.829999999999997
 20
10.85
 30
0
 11
5.829999999999997
 21
11.05
 31
0
  0
LINE
  8
0
 62
7
  6
DASHDOT
 10
5.829999999999997
 20
10.8
 30
0
 11
5.829999999999997
 21
10.85
 31
0
  0
LINE
  8
0
 62
7
  6
DASHDOT
 10
7.959999999999998
 20
11.2
 30
0
 11
8.199999999999998
 21
11.2
 31
0
  0
LINE
  8
0
 62
7
  6
DASHDOT
 10
7.909999999999998
 20
11.2
 30
0
 11
7.959999999999998
 21
11.2
 31
0
  0
LINE
  8
0
 62
7
  6
DASHDOT
 10
7.909999999999998
 20
7.949999999999996
 30
0
 11
7.959999999999998
 21
7.949999999999996
 31
0
  0
LINE
  8
0
 62
7
  6
DASHDOT
 10
7.959999999999998
 20
7.949999999999996
 30
0
 11
8.199999999999998
 21
7.949999999999996
 31
0
  0
LINE
  8
0
 62
7
  6
DASHDOT
 10
5.829999999999997
 20
8.299999999999997
 30
0
 11
5.829999999999997
 21
8.099999999999996
 31
0
  0
LINE
  8
0
 62
7
  6
DASHDOT
 10
5.829999999999997
 20
8.399999999999997
 30
0
 11
5.829999999999997
 21
8.299999999999997
 31
0
  0
LINE
  8
0
 62
7
  6
DASHDOT
 10
5.829999999999997
 20
11.05
 30
0
 11
5.829999999999997
 21
11.15
 31
0
  0
LINE
  8
0
 62
7
 10
5.829999999999997
 20
11.15
 30
0
 11
6.129999999999996
 21
11.15
 31
0
  0
LINE
  8
0
 62
7
  6
DASHDOT
 10
5.829999999999997
 20
8.449999999999998
 30
0
 11
5.829999999999997
 21
8.399999999999997
 31
0
  0
LINE
  8
0
 62
7
 10
5.829999999999997
 20
8.399999999999997
 30
0
 11
6.129999999999996
 21
8.399999999999997
 31
0
  0
LINE
  8
0
 62
7
  6
DASHDOT
 10
8.199999999999998
 20
7.949999999999996
 30
0
 11
8.249999999999998
 21
7.949999999999996
 31
0
  0
LINE
  8
0
 62
7
  6
DASHDOT
 10
5.829999999999997
 20
8.099999999999996
 30
0
 11
5.829999999999997
 21
8.049999999999995
 31
0
  0
LINE
  8
0
 62
7
  6
DASHDOT
 10
5.829999999999997
 20
11.15
 30
0
 11
5.829999999999997
 21
11.2
 31
0
  0
LINE
  8
0
 62
7
  6
DASHDOT
 10
8.199999999999998
 20
11.2
 30
0
 11
8.249999999999998
 21
11.2
 31
0
  0
LINE
  8
0
 62
7
 10
5.829999999999997
 20
8.099999999999996
 30
0
 11
6.129999999999996
 21
8.099999999999996
 31
0
  0
LINE
  8
0
 62
7
 10
6.129999999999996
 20
8.099999999999996
 30
0
 11
6.129999999999996
 21
8.299999999999997
 31
0
  0
LINE
  8
0
 62
7
 10
5.829999999999997
 20
8.299999999999997
 30
0
 11
6.129999999999996
 21
8.299999999999997
 31
0
  0
LINE
  8
0
 62
7
 10
5.829999999999997
 20
11.05
 30
0
 11
6.129999999999996
 21
11.05
 31
0
  0
LINE
  8
0
 62
7
 10
5.829999999999997
 20
10.85
 30
0
 11
6.129999999999996
 21
10.85
 31
0
  0
LINE
  8
0
 62
7
 10
6.129999999999996
 20
10.85
 30
0
 11
6.129999999999996
 21
11.05
 31
0
  0
LINE
  8
0
 62
7
 10
7.959999999999998
 20
7.949999999999996
 30
0
 11
7.959999999999998
 21
8.099999999999996
 31
0
  0
LINE
  8
0
 62
7
 10
8.199999999999998
 20
8.299999999999997
 30
0
 11
8.199999999999998
 21
8.099999999999996
 31
0
  0
LINE
  8
0
 62
7
 10
7.959999999999998
 20
8.099999999999996
 30
0
 11
8.199999999999998
 21
8.099999999999996
 31
0
  0
LINE
  8
0
 62
7
 10
7.959999999999998
 20
8.099999999999996
 30
0
 11
7.959999999999998
 21
8.299999999999997
 31
0
  0
LINE
  8
0
 62
7
 10
8.199999999999998
 20
10.85
 30
0
 11
8.199999999999998
 21
8.299999999999997
 31
0
  0
LINE
  8
0
 62
7
 10
7.959999999999998
 20
8.299999999999997
 30
0
 11
8.199999999999998
 21
8.299999999999997
 31
0
  0
LINE
  8
0
 62
7
 10
7.959999999999998
 20
8.299999999999997
 30
0
 11
7.959999999999998
 21
10.85
 31
0
  0
LINE
  8
0
 62
7
 10
8.199999999999998
 20
11.05
 30
0
 11
8.199999999999998
 21
10.85
 31
0
  0
LINE
  8
0
 62
7
 10
7.959999999999998
 20
10.85
 30
0
 11
8.199999999999998
 21
10.85
 31
0
  0
LINE
  8
0
 62
7
 10
7.959999999999998
 20
10.85
 30
0
 11
7.959999999999998
 21
11.05
 31
0
  0
LINE
  8
0
 62
7
 10
8.199999999999998
 20
11.2
 30
0
 11
8.199999999999998
 21
11.05
 31
0
  0
LINE
  8
0
 62
7
 10
7.959999999999998
 20
11.05
 30
0
 11
8.199999999999998
 21
11.05
 31
0
  0
LINE
  8
0
 62
7
 10
7.959999999999998
 20
11.05
 30
0
 11
7.959999999999998
 21
11.2
 31
0
  0
LINE
  8
0
 62
7
 10
8.199999999999998
 20
8.099999999999996
 30
0
 11
8.199999999999998
 21
7.949999999999996
 31
0
  0
LINE
  8
0
 62
7
  6
DASHDOT
 10
3.834999999999997
 20
11.2
 30
0
 11
3.884999999999998
 21
11.2
 31
0
  0
LINE
  8
0
 62
7
  6
DASHDOT
 10
3.659999999999997
 20
11.2
 30
0
 11
3.834999999999997
 21
11.2
 31
0
  0
LINE
  8
0
 62
7
  6
DASHDOT
 10
3.984999999999998
 20
11.05
 30
0
 11
3.984999999999998
 21
11.15
 31
0
  0
LINE
  8
0
 62
7
  6
DASHDOT
 10
3.984999999999998
 20
10.85
 30
0
 11
3.984999999999998
 21
11.05
 31
0
  0
LINE
  8
0
 62
7
  6
DASHDOT
 10
1.275
 20
11.2
 30
0
 11
1.325
 21
11.2
 31
0
  0
LINE
  8
0
 62
7
  6
DASHDOT
 10
1.1
 20
11.2
 30
0
 11
1.275
 21
11.2
 31
0
  0
LINE
  8
0
 62
7
  6
DASHDOT
 10
0.9500000000000001
 20
11.05
 30
0
 11
0.9500000000000001
 21
11.15
 31
0
  0
LINE
  8
0
 62
7
  6
DASHDOT
 10
0.9500000000000001
 20
10.85
 30
0
 11
0.9500000000000001
 21
11.05
 31
0
  0
LINE
  8
0
 62
7
  6
DASHDOT
 10
1.275
 20
7.949999999999996
 30
0
 11
1.325
 21
7.949999999999996
 31
0
  0
LINE
  8
0
 62
7
  6
DASHDOT
 10
1.1
 20
7.949999999999996
 30
0
 11
1.275
 21
7.949999999999996
 31
0
  0
LINE
  8
0
 62
7
  6
DASHDOT
 10
0.9500000000000001
 20
8.299999999999997
 30
0
 11
0.9500000000000001
 21
8.399999999999997
 31
0
  0
LINE
  8
0
 62
7
  6
DASHDOT
 10
0.9500000000000001
 20
8.099999999999996
 30
0
 11
0.9500000000000001
 21
8.299999999999997
 31
0
  0
LINE
  8
0
 62
7
  6
DASHDOT
 10
3.834999999999997
 20
7.949999999999996
 30
0
 11
3.884999999999998
 21
7.949999999999996
 31
0
  0
LINE
  8
0
 62
7
  6
DASHDOT
 10
3.659999999999997
 20
7.949999999999996
 30
0
 11
3.834999999999997
 21
7.949999999999996
 31
0
  0
LINE
  8
0
 62
7
  6
DASHDOT
 10
3.984999999999998
 20
8.299999999999997
 30
0
 11
3.984999999999998
 21
8.399999999999997
 31
0
  0
LINE
  8
0
 62
7
  6
DASHDOT
 10
3.984999999999998
 20
8.099999999999996
 30
0
 11
3.984999999999998
 21
8.299999999999997
 31
0
  0
LINE
  8
0
 62
7
  6
DASHDOT
 10
3.984999999999998
 20
11.15
 30
0
 11
3.984999999999998
 21
11.2
 31
0
  0
LINE
  8
0
 62
7
 10
3.834999999999997
 20
11.15
 30
0
 11
3.834999999999997
 21
11.2
 31
0
  0
LINE
  8
0
 62
7
 10
3.834999999999997
 20
11.15
 30
0
 11
3.984999999999998
 21
11.15
 31
0
  0
LINE
  8
0
 62
7
 10
3.659999999999997
 20
11.15
 30
0
 11
3.659999999999997
 21
11.2
 31
0
  0
LINE
  8
0
 62
7
 10
1.275
 20
11.15
 30
0
 11
1.275
 21
11.2
 31
0
  0
LINE
  8
0
 62
7
 10
1.275
 20
11.15
 30
0
 11
3.659999999999997
 21
11.15
 31
0
  0
LINE
  8
0
 62
7
  6
DASHDOT
 10
0.9500000000000001
 20
11.15
 30
0
 11
0.9500000000000001
 21
11.2
 31
0
  0
LINE
  8
0
 62
7
 10
1.1
 20
11.15
 30
0
 11
1.1
 21
11.2
 31
0
  0
LINE
  8
0
 62
7
 10
0.9500000000000001
 20
11.15
 30
0
 11
1.1
 21
11.15
 31
0
  0
LINE
  8
0
 62
7
  6
DASHDOT
 10
3.984999999999998
 20
8.399999999999997
 30
0
 11
3.984999999999998
 21
8.449999999999998
 31
0
  0
LINE
  8
0
 62
7
 10
3.834999999999997
 20
8.399999999999997
 30
0
 11
3.834999999999997
 21
10.85
 31
0
  0
LINE
  8
0
 62
7
 10
3.834999999999997
 20
8.399999999999997
 30
0
 11
3.984999999999998
 21
8.399999999999997
 31
0
  0
LINE
  8
0
 62
7
 10
3.659999999999997
 20
8.399999999999997
 30
0
 11
3.659999999999997
 21
10.85
 31
0
  0
LINE
  8
0
 62
7
 10
1.275
 20
8.399999999999997
 30
0
 11
1.275
 21
10.85
 31
0
  0
LINE
  8
0
 62
7
 10
1.275
 20
8.399999999999997
 30
0
 11
3.659999999999997
 21
8.399999999999997
 31
0
  0
LINE
  8
0
 62
7
  6
DASHDOT
 10
0.9500000000000001
 20
8.399999999999997
 30
0
 11
0.9500000000000001
 21
8.449999999999998
 31
0
  0
LINE
  8
0
 62
7
 10
1.1
 20
8.399999999999997
 30
0
 11
1.1
 21
10.85
 31
0
  0
LINE
  8
0
 62
7
 10
0.9500000000000001
 20
8.399999999999997
 30
0
 11
1.1
 21
8.399999999999997
 31
0
  0
LINE
  8
0
 62
7
  6
DASHDOT
 10
3.609999999999998
 20
7.949999999999996
 30
0
 11
3.659999999999997
 21
7.949999999999996
 31
0
  0
LINE
  8
0
 62
7
  6
DASHDOT
 10
3.609999999999998
 20
11.2
 30
0
 11
3.659999999999997
 21
11.2
 31
0
  0
LINE
  8
0
 62
7
  6
DASHDOT
 10
1.05
 20
7.949999999999996
 30
0
 11
1.1
 21
7.949999999999996
 31
0
  0
LINE
  8
0
 62
7
  6
DASHDOT
 10
1.05
 20
11.2
 30
0
 11
1.1
 21
11.2
 31
0
  0
LINE
  8
0
 62
7
  6
DASHDOT
 10
3.984999999999998
 20
10.8
 30
0
 11
3.984999999999998
 21
10.85
 31
0
  0
LINE
  8
0
 62
7
  6
DASHDOT
 10
3.984999999999998
 20
8.049999999999995
 30
0
 11
3.984999999999998
 21
8.099999999999996
 31
0
  0
LINE
  8
0
 62
7
  6
DASHDOT
 10
0.9500000000000001
 20
10.8
 30
0
 11
0.9500000000000001
 21
10.85
 31
0
  0
LINE
  8
0
 62
7
  6
DASHDOT
 10
0.9500000000000001
 20
8.049999999999995
 30
0
 11
0.9500000000000001
 21
8.099999999999996
 31
0
  0
LINE
  8
0
 62
7
 10
3.834999999999997
 20
11.05
 30
0
 11
3.984999999999998
 21
11.05
 31
0
  0
LINE
  8
0
 62
7
 10
3.834999999999997
 20
11.05
 30
0
 11
3.834999999999997
 21
11.15
 31
0
  0
LINE
  8
0
 62
7
 10
3.834999999999997
 20
10.85
 30
0
 11
3.984999999999998
 21
10.85
 31
0
  0
LINE
  8
0
 62
7
 10
3.834999999999997
 20
8.299999999999997
 30
0
 11
3.984999999999998
 21
8.299999999999997
 31
0
  0
LINE
  8
0
 62
7
 10
3.834999999999997
 20
8.299999999999997
 30
0
 11
3.834999999999997
 21
8.399999999999997
 31
0
  0
LINE
  8
0
 62
7
 10
3.834999999999997
 20
8.099999999999996
 30
0
 11
3.984999999999998
 21
8.099999999999996
 31
0
  0
LINE
  8
0
 62
7
 10
3.834999999999997
 20
7.949999999999996
 30
0
 11
3.834999999999997
 21
8.099999999999996
 31
0
  0
LINE
  8
0
 62
7
 10
3.659999999999997
 20
11.05
 30
0
 11
3.834999999999997
 21
11.05
 31
0
  0
LINE
  8
0
 62
7
 10
3.659999999999997
 20
11.05
 30
0
 11
3.659999999999997
 21
11.15
 31
0
  0
LINE
  8
0
 62
7
 10
3.659999999999997
 20
10.85
 30
0
 11
3.834999999999997
 21
10.85
 31
0
  0
LINE
  8
0
 62
7
 10
3.659999999999997
 20
8.299999999999997
 30
0
 11
3.834999999999997
 21
8.299999999999997
 31
0
  0
LINE
  8
0
 62
7
 10
3.659999999999997
 20
8.299999999999997
 30
0
 11
3.659999999999997
 21
8.399999999999997
 31
0
  0
LINE
  8
0
 62
7
 10
3.659999999999997
 20
8.099999999999996
 30
0
 11
3.834999999999997
 21
8.099999999999996
 31
0
  0
LINE
  8
0
 62
7
 10
3.659999999999997
 20
7.949999999999996
 30
0
 11
3.659999999999997
 21
8.099999999999996
 31
0
  0
LINE
  8
0
 62
7
 10
1.275
 20
11.05
 30
0
 11
3.659999999999997
 21
11.05
 31
0
  0
LINE
  8
0
 62
7
 10
1.275
 20
11.05
 30
0
 11
1.275
 21
11.15
 31
0
  0
LINE
  8
0
 62
7
 10
1.275
 20
10.85
 30
0
 11
3.659999999999997
 21
10.85
 31
0
  0
LINE
  8
0
 62
7
 10
1.275
 20
8.299999999999997
 30
0
 11
3.659999999999997
 21
8.299999999999997
 31
0
  0
LINE
  8
0
 62
7
 10
1.275
 20
8.299999999999997
 30
0
 11
1.275
 21
8.399999999999997
 31
0
  0
LINE
  8
0
 62
7
 10
1.275
 20
8.099999999999996
 30
0
 11
3.659999999999997
 21
8.099999999999996
 31
0
  0
LINE
  8
0
 62
7
 10
1.275
 20
7.949999999999996
 30
0
 11
1.275
 21
8.099999999999996
 31
0
  0
LINE
  8
0
 62
7
 10
1.1
 20
11.05
 30
0
 11
1.275
 21
11.05
 31
0
  0
LINE
  8
0
 62
7
 10
1.1
 20
11.05
 30
0
 11
1.1
 21
11.15
 31
0
  0
LINE
  8
0
 62
7
 10
1.1
 20
10.85
 30
0
 11
1.275
 21
10.85
 31
0
  0
LINE
  8
0
 62
7
 10
1.1
 20
8.299999999999997
 30
0
 11
1.275
 21
8.299999999999997
 31
0
  0
LINE
  8
0
 62
7
 10
1.1
 20
8.299999999999997
 30
0
 11
1.1
 21
8.399999999999997
 31
0
  0
LINE
  8
0
 62
7
 10
1.1
 20
8.099999999999996
 30
0
 11
1.275
 21
8.099999999999996
 31
0
  0
LINE
  8
0
 62
7
 10
1.1
 20
7.949999999999996
 30
0
 11
1.1
 21
8.099999999999996
 31
0
  0
LINE
  8
0
 62
7
 10
0.9500000000000001
 20
11.05
 30
0
 11
1.1
 21
11.05
 31
0
  0
LINE
  8
0
 62
7
 10
0.9500000000000001
 20
10.85
 30
0
 11
1.1
 21
10.85
 31
0
  0
LINE
  8
0
 62
7
 10
0.9500000000000001
 20
8.299999999999997
 30
0
 11
1.1
 21
8.299999999999997
 31
0
  0
LINE
  8
0
 62
7
 10
0.9500000000000001
 20
8.099999999999996
 30
0
 11
1.1
 21
8.099999999999996
 31
0
  0
LINE
  8
0
 62
7
 10
1.62626937393886
 20
4.866351263834921
 30
0
 11
1.62626937393886
 21
4.986351263834921
 31
0
  0
LINE
  8
0
 62
7
 10
1.70186937393886
 20
4.986351263834921
 30
0
 11
1.64786937393886
 21
4.926351263834921
 31
0
  0
LINE
  8
0
 62
7
 10
1.64786937393886
 20
4.926351263834921
 30
0
 11
1.70186937393886
 21
4.866351263834921
 31
0
  0
LINE
  8
0
 62
7
 10
1.64786937393886
 20
4.926351263834921
 30
0
 11
1.62626937393886
 21
4.902351263834921
 31
0
  0
LINE
  8
0
 62
7
 10
1.80986937393886
 20
4.986351263834921
 30
0
 11
1.73426937393886
 21
4.986351263834921
 31
0
  0
LINE
  8
0
 62
7
 10
1.73426937393886
 20
4.986351263834921
 30
0
 11
1.73426937393886
 21
4.926351263834921
 31
0
  0
LINE
  8
0
 62
7
 10
1.73426937393886
 20
4.866351263834921
 30
0
 11
1.80986937393886
 21
4.866351263834921
 31
0
  0
LINE
  8
0
 62
7
 10
1.79906937393886
 20
4.926351263834921
 30
0
 11
1.73426937393886
 21
4.926351263834921
 31
0
  0
LINE
  8
0
 62
7
 10
1.73426937393886
 20
4.926351263834921
 30
0
 11
1.73426937393886
 21
4.866351263834921
 31
0
  0
LINE
  8
0
 62
7
 10
1.84226937393886
 20
4.866351263834921
 30
0
 11
1.84226937393886
 21
4.986351263834921
 31
0
  0
LINE
  8
0
 62
7
 10
1.84226937393886
 20
4.986351263834921
 30
0
 11
1.91786937393886
 21
4.866351263834921
 31
0
  0
LINE
  8
0
 62
7
 10
1.91786937393886
 20
4.866351263834921
 30
0
 11
1.91786937393886
 21
4.986351263834921
 31
0
  0
LINE
  8
0
 62
7
 10
1.95026937393886
 20
4.866351263834921
 30
0
 11
1.95026937393886
 21
4.986351263834921
 31
0
  0
LINE
  8
0
 62
7
 10
1.95026937393886
 20
4.986351263834921
 30
0
 11
2.02586937393886
 21
4.866351263834921
 31
0
  0
LINE
  8
0
 62
7
 10
2.02586937393886
 20
4.866351263834921
 30
0
 11
2.02586937393886
 21
4.986351263834921
 31
0
  0
LINE
  8
0
 62
7
 10
2.13386937393886
 20
4.950351263834921
 30
0
 11
2.13116937393886
 21
4.962351263834922
 31
0
  0
LINE
  8
0
 62
7
 10
2.13116937393886
 20
4.962351263834922
 30
0
 11
2.12576937393886
 21
4.97135126383492
 31
0
  0
LINE
  8
0
 62
7
 10
2.12576937393886
 20
4.97135126383492
 30
0
 11
2.12036937393886
 21
4.977351263834922
 31
0
  0
LINE
  8
0
 62
7
 10
2.12036937393886
 20
4.977351263834922
 30
0
 11
2.11226937393886
 21
4.983351263834921
 31
0
  0
LINE
  8
0
 62
7
 10
2.11226937393886
 20
4.983351263834921
 30
0
 11
2.10416937393886
 21
4.986351263834921
 31
0
  0
LINE
  8
0
 62
7
 10
2.10416937393886
 20
4.986351263834921
 30
0
 11
2.08796937393886
 21
4.986351263834921
 31
0
  0
LINE
  8
0
 62
7
 10
2.08796937393886
 20
4.986351263834921
 30
0
 11
2.07986937393886
 21
4.983351263834921
 31
0
  0
LINE
  8
0
 62
7
 10
2.07986937393886
 20
4.983351263834921
 30
0
 11
2.07176937393886
 21
4.977351263834922
 31
0
  0
LINE
  8
0
 62
7
 10
2.07176937393886
 20
4.977351263834922
 30
0
 11
2.06636937393886
 21
4.97135126383492
 31
0
  0
LINE
  8
0
 62
7
 10
2.06636937393886
 20
4.97135126383492
 30
0
 11
2.06096937393886
 21
4.962351263834922
 31
0
  0
LINE
  8
0
 62
7
 10
2.06096937393886
 20
4.962351263834922
 30
0
 11
2.05826937393886
 21
4.950351263834921
 31
0
  0
LINE
  8
0
 62
7
 10
2.05826937393886
 20
4.950351263834921
 30
0
 11
2.05826937393886
 21
4.902351263834921
 31
0
  0
LINE
  8
0
 62
7
 10
2.05826937393886
 20
4.902351263834921
 30
0
 11
2.06096937393886
 21
4.890351263834922
 31
0
  0
LINE
  8
0
 62
7
 10
2.06096937393886
 20
4.890351263834922
 30
0
 11
2.06636937393886
 21
4.881351263834921
 31
0
  0
LINE
  8
0
 62
7
 10
2.06636937393886
 20
4.881351263834921
 30
0
 11
2.07176937393886
 21
4.875351263834922
 31
0
  0
LINE
  8
0
 62
7
 10
2.07176937393886
 20
4.875351263834922
 30
0
 11
2.07986937393886
 21
4.869351263834921
 31
0
  0
LINE
  8
0
 62
7
 10
2.07986937393886
 20
4.869351263834921
 30
0
 11
2.08796937393886
 21
4.866351263834921
 31
0
  0
LINE
  8
0
 62
7
 10
2.08796937393886
 20
4.866351263834921
 30
0
 11
2.10416937393886
 21
4.866351263834921
 31
0
  0
LINE
  8
0
 62
7
 10
2.10416937393886
 20
4.866351263834921
 30
0
 11
2.11226937393886
 21
4.869351263834921
 31
0
  0
LINE
  8
0
 62
7
 10
2.11226937393886
 20
4.869351263834921
 30
0
 11
2.12036937393886
 21
4.875351263834922
 31
0
  0
LINE
  8
0
 62
7
 10
2.12036937393886
 20
4.875351263834922
 30
0
 11
2.12576937393886
 21
4.881351263834921
 31
0
  0
LINE
  8
0
 62
7
 10
2.12576937393886
 20
4.881351263834921
 30
0
 11
2.13116937393886
 21
4.890351263834922
 31
0
  0
LINE
  8
0
 62
7
 10
2.13116937393886
 20
4.890351263834922
 30
0
 11
2.13386937393886
 21
4.902351263834921
 31
0
  0
LINE
  8
0
 62
7
 10
2.13386937393886
 20
4.902351263834921
 30
0
 11
2.13386937393886
 21
4.926351263834921
 31
0
  0
LINE
  8
0
 62
7
 10
2.13386937393886
 20
4.926351263834921
 30
0
 11
2.10146937393886
 21
4.926351263834921
 31
0
  0
LINE
  8
0
 62
7
 10
2.21216937393886
 20
4.986351263834921
 30
0
 11
2.19596937393886
 21
4.986351263834921
 31
0
  0
LINE
  8
0
 62
7
 10
2.19596937393886
 20
4.986351263834921
 30
0
 11
2.18786937393886
 21
4.983351263834921
 31
0
  0
LINE
  8
0
 62
7
 10
2.18786937393886
 20
4.983351263834921
 30
0
 11
2.17976937393886
 21
4.977351263834922
 31
0
  0
LINE
  8
0
 62
7
 10
2.17976937393886
 20
4.977351263834922
 30
0
 11
2.17436937393886
 21
4.97135126383492
 31
0
  0
LINE
  8
0
 62
7
 10
2.17436937393886
 20
4.97135126383492
 30
0
 11
2.16896937393886
 21
4.962351263834922
 31
0
  0
LINE
  8
0
 62
7
 10
2.16896937393886
 20
4.962351263834922
 30
0
 11
2.16626937393886
 21
4.950351263834921
 31
0
  0
LINE
  8
0
 62
7
 10
2.16626937393886
 20
4.950351263834921
 30
0
 11
2.16626937393886
 21
4.902351263834921
 31
0
  0
LINE
  8
0
 62
7
 10
2.16626937393886
 20
4.902351263834921
 30
0
 11
2.16896937393886
 21
4.890351263834922
 31
0
  0
LINE
  8
0
 62
7
 10
2.16896937393886
 20
4.890351263834922
 30
0
 11
2.17436937393886
 21
4.881351263834921
 31
0
  0
LINE
  8
0
 62
7
 10
2.17436937393886
 20
4.881351263834921
 30
0
 11
2.17976937393886
 21
4.875351263834922
 31
0
  0
LINE
  8
0
 62
7
 10
2.17976937393886
 20
4.875351263834922
 30
0
 11
2.18786937393886
 21
4.869351263834921
 31
0
  0
LINE
  8
0
 62
7
 10
2.18786937393886
 20
4.869351263834921
 30
0
 11
2.19596937393886
 21
4.866351263834921
 31
0
  0
LINE
  8
0
 62
7
 10
2.19596937393886
 20
4.866351263834921
 30
0
 11
2.21216937393886
 21
4.866351263834921
 31
0
  0
LINE
  8
0
 62
7
 10
2.21216937393886
 20
4.866351263834921
 30
0
 11
2.22026937393886
 21
4.869351263834921
 31
0
  0
LINE
  8
0
 62
7
 10
2.22026937393886
 20
4.869351263834921
 30
0
 11
2.22836937393886
 21
4.875351263834922
 31
0
  0
LINE
  8
0
 62
7
 10
2.22836937393886
 20
4.875351263834922
 30
0
 11
2.23376937393886
 21
4.881351263834921
 31
0
  0
LINE
  8
0
 62
7
 10
2.23376937393886
 20
4.881351263834921
 30
0
 11
2.23916937393886
 21
4.890351263834922
 31
0
  0
LINE
  8
0
 62
7
 10
2.23916937393886
 20
4.890351263834922
 30
0
 11
2.24186937393886
 21
4.902351263834921
 31
0
  0
LINE
  8
0
 62
7
 10
2.24186937393886
 20
4.902351263834921
 30
0
 11
2.24186937393886
 21
4.950351263834921
 31
0
  0
LINE
  8
0
 62
7
 10
2.24186937393886
 20
4.950351263834921
 30
0
 11
2.23916937393886
 21
4.962351263834922
 31
0
  0
LINE
  8
0
 62
7
 10
2.23916937393886
 20
4.962351263834922
 30
0
 11
2.23376937393886
 21
4.97135126383492
 31
0
  0
LINE
  8
0
 62
7
 10
2.23376937393886
 20
4.97135126383492
 30
0
 11
2.22836937393886
 21
4.977351263834922
 31
0
  0
LINE
  8
0
 62
7
 10
2.22836937393886
 20
4.977351263834922
 30
0
 11
2.22026937393886
 21
4.983351263834921
 31
0
  0
LINE
  8
0
 62
7
 10
2.22026937393886
 20
4.983351263834921
 30
0
 11
2.21216937393886
 21
4.986351263834921
 31
0
  0
LINE
  8
0
 62
7
 10
2.26346937393886
 20
4.986351263834921
 30
0
 11
2.301269373938861
 21
4.986351263834921
 31
0
  0
LINE
  8
0
 62
7
 10
2.301269373938861
 20
4.986351263834921
 30
0
 11
2.301269373938861
 21
4.866351263834921
 31
0
  0
LINE
  8
0
 62
7
 10
2.301269373938861
 20
4.986351263834921
 30
0
 11
2.33906937393886
 21
4.986351263834921
 31
0
  0
LINE
  8
0
 62
7
 10
2.37146937393886
 20
4.986351263834921
 30
0
 11
2.409269373938861
 21
4.986351263834921
 31
0
  0
LINE
  8
0
 62
7
 10
2.409269373938861
 20
4.986351263834921
 30
0
 11
2.409269373938861
 21
4.866351263834921
 31
0
  0
LINE
  8
0
 62
7
 10
2.409269373938861
 20
4.986351263834921
 30
0
 11
2.447069373938861
 21
4.986351263834921
 31
0
  0
LINE
  8
0
 62
7
 10
2.56586937393886
 20
4.908351263834921
 30
0
 11
2.61986937393886
 21
4.908351263834921
 31
0
  0
LINE
  8
0
 62
7
 10
2.72786937393886
 20
4.986351263834921
 30
0
 11
2.76566937393886
 21
4.986351263834921
 31
0
  0
LINE
  8
0
 62
7
 10
2.76566937393886
 20
4.986351263834921
 30
0
 11
2.76566937393886
 21
4.866351263834921
 31
0
  0
LINE
  8
0
 62
7
 10
2.76566937393886
 20
4.986351263834921
 30
0
 11
2.80346937393886
 21
4.986351263834921
 31
0
  0
LINE
  8
0
 62
7
 10
2.83586937393886
 20
4.866351263834921
 30
0
 11
2.83586937393886
 21
4.986351263834921
 31
0
  0
LINE
  8
0
 62
7
 10
2.83586937393886
 20
4.986351263834921
 30
0
 11
2.88716937393886
 21
4.986351263834921
 31
0
  0
LINE
  8
0
 62
7
 10
2.88716937393886
 20
4.986351263834921
 30
0
 11
2.897969373938861
 21
4.983351263834921
 31
0
  0
LINE
  8
0
 62
7
 10
2.897969373938861
 20
4.983351263834921
 30
0
 11
2.906069373938861
 21
4.977351263834922
 31
0
  0
LINE
  8
0
 62
7
 10
2.906069373938861
 20
4.977351263834922
 30
0
 11
2.90876937393886
 21
4.97135126383492
 31
0
  0
LINE
  8
0
 62
7
 10
2.90876937393886
 20
4.97135126383492
 30
0
 11
2.91146937393886
 21
4.962351263834922
 31
0
  0
LINE
  8
0
 62
7
 10
2.91146937393886
 20
4.962351263834922
 30
0
 11
2.91146937393886
 21
4.950351263834921
 31
0
  0
LINE
  8
0
 62
7
 10
2.91146937393886
 20
4.950351263834921
 30
0
 11
2.90876937393886
 21
4.941351263834921
 31
0
  0
LINE
  8
0
 62
7
 10
2.90876937393886
 20
4.941351263834921
 30
0
 11
2.906069373938861
 21
4.935351263834922
 31
0
  0
LINE
  8
0
 62
7
 10
2.906069373938861
 20
4.935351263834922
 30
0
 11
2.897969373938861
 21
4.929351263834921
 31
0
  0
LINE
  8
0
 62
7
 10
2.897969373938861
 20
4.929351263834921
 30
0
 11
2.88716937393886
 21
4.926351263834921
 31
0
  0
LINE
  8
0
 62
7
 10
2.88716937393886
 20
4.926351263834921
 30
0
 11
2.87906937393886
 21
4.926351263834921
 31
0
  0
LINE
  8
0
 62
7
 10
2.87906937393886
 20
4.926351263834921
 30
0
 11
2.91146937393886
 21
4.866351263834921
 31
0
  0
LINE
  8
0
 62
7
 10
2.87906937393886
 20
4.926351263834921
 30
0
 11
2.83586937393886
 21
4.926351263834921
 31
0
  0
LINE
  8
0
 62
7
 10
3.008669373938861
 20
4.986351263834921
 30
0
 11
2.93306937393886
 21
4.986351263834921
 31
0
  0
LINE
  8
0
 62
7
 10
2.93306937393886
 20
4.986351263834921
 30
0
 11
2.93306937393886
 21
4.926351263834921
 31
0
  0
LINE
  8
0
 62
7
 10
2.93306937393886
 20
4.866351263834921
 30
0
 11
3.008669373938861
 21
4.866351263834921
 31
0
  0
LINE
  8
0
 62
7
 10
2.99786937393886
 20
4.926351263834921
 30
0
 11
2.93306937393886
 21
4.926351263834921
 31
0
  0
LINE
  8
0
 62
7
 10
2.93306937393886
 20
4.926351263834921
 30
0
 11
2.93306937393886
 21
4.866351263834921
 31
0
  0
LINE
  8
0
 62
7
 10
3.041069373938861
 20
4.866351263834921
 30
0
 11
3.041069373938861
 21
4.926351263834921
 31
0
  0
LINE
  8
0
 62
7
 10
3.041069373938861
 20
4.986351263834921
 30
0
 11
3.092369373938861
 21
4.986351263834921
 31
0
  0
LINE
  8
0
 62
7
 10
3.092369373938861
 20
4.986351263834921
 30
0
 11
3.103169373938861
 21
4.983351263834921
 31
0
  0
LINE
  8
0
 62
7
 10
3.103169373938861
 20
4.983351263834921
 30
0
 11
3.11126937393886
 21
4.977351263834922
 31
0
  0
LINE
  8
0
 62
7
 10
3.11126937393886
 20
4.977351263834922
 30
0
 11
3.11396937393886
 21
4.97135126383492
 31
0
  0
LINE
  8
0
 62
7
 10
3.11396937393886
 20
4.97135126383492
 30
0
 11
3.11666937393886
 21
4.962351263834922
 31
0
  0
LINE
  8
0
 62
7
 10
3.11666937393886
 20
4.962351263834922
 30
0
 11
3.11666937393886
 21
4.950351263834921
 31
0
  0
LINE
  8
0
 62
7
 10
3.11666937393886
 20
4.950351263834921
 30
0
 11
3.11396937393886
 21
4.941351263834921
 31
0
  0
LINE
  8
0
 62
7
 10
3.11396937393886
 20
4.941351263834921
 30
0
 11
3.11126937393886
 21
4.935351263834922
 31
0
  0
LINE
  8
0
 62
7
 10
3.11126937393886
 20
4.935351263834922
 30
0
 11
3.103169373938861
 21
4.929351263834921
 31
0
  0
LINE
  8
0
 62
7
 10
3.103169373938861
 20
4.929351263834921
 30
0
 11
3.092369373938861
 21
4.926351263834921
 31
0
  0
LINE
  8
0
 62
7
 10
3.092369373938861
 20
4.926351263834921
 30
0
 11
3.041069373938861
 21
4.926351263834921
 31
0
  0
LINE
  8
0
 62
7
 10
3.041069373938861
 20
4.926351263834921
 30
0
 11
3.041069373938861
 21
4.986351263834921
 31
0
  0
LINE
  8
0
 62
7
 10
3.138269373938861
 20
4.866351263834921
 30
0
 11
3.138269373938861
 21
4.926351263834921
 31
0
  0
LINE
  8
0
 62
7
 10
3.138269373938861
 20
4.986351263834921
 30
0
 11
3.189569373938861
 21
4.986351263834921
 31
0
  0
LINE
  8
0
 62
7
 10
3.189569373938861
 20
4.986351263834921
 30
0
 11
3.200369373938861
 21
4.983351263834921
 31
0
  0
LINE
  8
0
 62
7
 10
3.200369373938861
 20
4.983351263834921
 30
0
 11
3.20846937393886
 21
4.977351263834922
 31
0
  0
LINE
  8
0
 62
7
 10
3.20846937393886
 20
4.977351263834922
 30
0
 11
3.211169373938861
 21
4.97135126383492
 31
0
  0
LINE
  8
0
 62
7
 10
3.211169373938861
 20
4.97135126383492
 30
0
 11
3.213869373938861
 21
4.962351263834922
 31
0
  0
LINE
  8
0
 62
7
 10
3.213869373938861
 20
4.962351263834922
 30
0
 11
3.213869373938861
 21
4.950351263834921
 31
0
  0
LINE
  8
0
 62
7
 10
3.213869373938861
 20
4.950351263834921
 30
0
 11
3.211169373938861
 21
4.941351263834921
 31
0
  0
LINE
  8
0
 62
7
 10
3.211169373938861
 20
4.941351263834921
 30
0
 11
3.20846937393886
 21
4.935351263834922
 31
0
  0
LINE
  8
0
 62
7
 10
3.20846937393886
 20
4.935351263834922
 30
0
 11
3.200369373938861
 21
4.929351263834921
 31
0
  0
LINE
  8
0
 62
7
 10
3.200369373938861
 20
4.929351263834921
 30
0
 11
3.189569373938861
 21
4.926351263834921
 31
0
  0
LINE
  8
0
 62
7
 10
3.189569373938861
 20
4.926351263834921
 30
0
 11
3.138269373938861
 21
4.926351263834921
 31
0
  0
LINE
  8
0
 62
7
 10
3.138269373938861
 20
4.926351263834921
 30
0
 11
3.138269373938861
 21
4.986351263834921
 31
0
  0
LINE
  8
0
 62
7
 10
3.31106937393886
 20
4.986351263834921
 30
0
 11
3.235469373938861
 21
4.986351263834921
 31
0
  0
LINE
  8
0
 62
7
 10
3.235469373938861
 20
4.986351263834921
 30
0
 11
3.235469373938861
 21
4.926351263834921
 31
0
  0
LINE
  8
0
 62
7
 10
3.235469373938861
 20
4.866351263834921
 30
0
 11
3.31106937393886
 21
4.866351263834921
 31
0
  0
LINE
  8
0
 62
7
 10
3.300269373938861
 20
4.926351263834921
 30
0
 11
3.235469373938861
 21
4.926351263834921
 31
0
  0
LINE
  8
0
 62
7
 10
3.235469373938861
 20
4.926351263834921
 30
0
 11
3.235469373938861
 21
4.866351263834921
 31
0
  0
LINE
  8
0
 62
7
 10
0.525
 20
3.01
 30
0
 11
0.6006
 21
3.01
 31
0
  0
LINE
  8
0
 62
7
 10
0.6006
 20
3.01
 30
0
 11
0.525
 21
2.890000000000001
 31
0
  0
LINE
  8
0
 62
7
 10
0.525
 20
2.890000000000001
 30
0
 11
0.6006
 21
2.890000000000001
 31
0
  0
LINE
  8
0
 62
7
 10
0.633
 20
2.992
 30
0
 11
0.6384000000000002
 21
3.001
 31
0
  0
LINE
  8
0
 62
7
 10
0.6384000000000002
 20
3.001
 30
0
 11
0.6465000000000001
 21
3.007
 31
0
  0
LINE
  8
0
 62
7
 10
0.6465000000000001
 20
3.007
 30
0
 11
0.6573000000000001
 21
3.01
 31
0
  0
LINE
  8
0
 62
7
 10
0.6573000000000001
 20
3.01
 30
0
 11
0.6735000000000002
 21
3.01
 31
0
  0
LINE
  8
0
 62
7
 10
0.6735000000000002
 20
3.01
 30
0
 11
0.6843
 21
3.007
 31
0
  0
LINE
  8
0
 62
7
 10
0.6843
 20
3.007
 30
0
 11
0.6924
 21
3.001
 31
0
  0
LINE
  8
0
 62
7
 10
0.6924
 20
3.001
 30
0
 11
0.6978
 21
2.992
 31
0
  0
LINE
  8
0
 62
7
 10
0.6978
 20
2.992
 30
0
 11
0.6978
 21
2.98
 31
0
  0
LINE
  8
0
 62
7
 10
0.6978
 20
2.98
 30
0
 11
0.6924
 21
2.968
 31
0
  0
LINE
  8
0
 62
7
 10
0.6924
 20
2.968
 30
0
 11
0.633
 21
2.890000000000001
 31
0
  0
LINE
  8
0
 62
7
 10
0.633
 20
2.890000000000001
 30
0
 11
0.6978
 21
2.890000000000001
 31
0
  0
LINE
  8
0
 62
7
 10
0.7302000000000001
 20
3.01
 30
0
 11
0.7680000000000002
 21
2.890000000000001
 31
0
  0
LINE
  8
0
 62
7
 10
0.7680000000000002
 20
2.890000000000001
 30
0
 11
0.8058000000000002
 21
3.01
 31
0
  0
LINE
  8
0
 62
7
 10
0.8382000000000002
 20
2.992
 30
0
 11
0.8436000000000002
 21
3.001
 31
0
  0
LINE
  8
0
 62
7
 10
0.8436000000000002
 20
3.001
 30
0
 11
0.8517000000000001
 21
3.007
 31
0
  0
LINE
  8
0
 62
7
 10
0.8517000000000001
 20
3.007
 30
0
 11
0.8625
 21
3.01
 31
0
  0
LINE
  8
0
 62
7
 10
0.8625
 20
3.01
 30
0
 11
0.8787000000000001
 21
3.01
 31
0
  0
LINE
  8
0
 62
7
 10
0.8787000000000001
 20
3.01
 30
0
 11
0.8895
 21
3.007
 31
0
  0
LINE
  8
0
 62
7
 10
0.8895
 20
3.007
 30
0
 11
0.8976000000000002
 21
3.001
 31
0
  0
LINE
  8
0
 62
7
 10
0.8976000000000002
 20
3.001
 30
0
 11
0.9030000000000001
 21
2.992
 31
0
  0
LINE
  8
0
 62
7
 10
0.9030000000000001
 20
2.992
 30
0
 11
0.9030000000000001
 21
2.98
 31
0
  0
LINE
  8
0
 62
7
 10
0.9030000000000001
 20
2.98
 30
0
 11
0.8976000000000002
 21
2.968
 31
0
  0
LINE
  8
0
 62
7
 10
0.8976000000000002
 20
2.968
 30
0
 11
0.8382000000000002
 21
2.890000000000001
 31
0
  0
LINE
  8
0
 62
7
 10
0.8382000000000002
 20
2.890000000000001
 30
0
 11
0.9030000000000001
 21
2.890000000000001
 31
0
  0
LINE
  8
0
 62
7
 10
0.9354000000000001
 20
2.992
 30
0
 11
0.9408
 21
3.001
 31
0
  0
LINE
  8
0
 62
7
 10
0.9408
 20
3.001
 30
0
 11
0.9489000000000001
 21
3.007
 31
0
  0
LINE
  8
0
 62
7
 10
0.9489000000000001
 20
3.007
 30
0
 11
0.9597000000000002
 21
3.01
 31
0
  0
LINE
  8
0
 62
7
 10
0.9597000000000002
 20
3.01
 30
0
 11
0.9759000000000001
 21
3.01
 31
0
  0
LINE
  8
0
 62
7
 10
0.9759000000000001
 20
3.01
 30
0
 11
0.984
 21
3.007
 31
0
  0
LINE
  8
0
 62
7
 10
0.984
 20
3.007
 30
0
 11
0.9921000000000002
 21
3.001
 31
0
  0
LINE
  8
0
 62
7
 10
0.9921000000000002
 20
3.001
 30
0
 11
0.9975000000000001
 21
2.992
 31
0
  0
LINE
  8
0
 62
7
 10
0.9975000000000001
 20
2.992
 30
0
 11
1.0002
 21
2.98
 31
0
  0
LINE
  8
0
 62
7
 10
1.0002
 20
2.98
 30
0
 11
1.0002
 21
2.971
 31
0
  0
LINE
  8
0
 62
7
 10
1.0002
 20
2.971
 30
0
 11
0.9975000000000001
 21
2.962
 31
0
  0
LINE
  8
0
 62
7
 10
0.9975000000000001
 20
2.962
 30
0
 11
0.9921000000000002
 21
2.956
 31
0
  0
LINE
  8
0
 62
7
 10
0.9921000000000002
 20
2.956
 30
0
 11
0.9786000000000001
 21
2.95
 31
0
  0
LINE
  8
0
 62
7
 10
0.9597000000000002
 20
2.95
 30
0
 11
0.9786000000000001
 21
2.95
 31
0
  0
LINE
  8
0
 62
7
 10
0.9786000000000001
 20
2.95
 30
0
 11
0.9921000000000002
 21
2.944
 31
0
  0
LINE
  8
0
 62
7
 10
0.9921000000000002
 20
2.944
 30
0
 11
0.9975000000000001
 21
2.938
 31
0
  0
LINE
  8
0
 62
7
 10
0.9975000000000001
 20
2.938
 30
0
 11
1.0002
 21
2.929
 31
0
  0
LINE
  8
0
 62
7
 10
1.0002
 20
2.929
 30
0
 11
1.0002
 21
2.92
 31
0
  0
LINE
  8
0
 62
7
 10
1.0002
 20
2.92
 30
0
 11
0.9975000000000001
 21
2.908
 31
0
  0
LINE
  8
0
 62
7
 10
0.9975000000000001
 20
2.908
 30
0
 11
0.9921000000000002
 21
2.899
 31
0
  0
LINE
  8
0
 62
7
 10
0.9921000000000002
 20
2.899
 30
0
 11
0.984
 21
2.893
 31
0
  0
LINE
  8
0
 62
7
 10
0.984
 20
2.893
 30
0
 11
0.9759000000000001
 21
2.890000000000001
 31
0
  0
LINE
  8
0
 62
7
 10
0.9759000000000001
 20
2.890000000000001
 30
0
 11
0.9597000000000002
 21
2.890000000000001
 31
0
  0
LINE
  8
0
 62
7
 10
0.9597000000000002
 20
2.890000000000001
 30
0
 11
0.9489000000000001
 21
2.893
 31
0
  0
LINE
  8
0
 62
7
 10
0.9489000000000001
 20
2.893
 30
0
 11
0.9408
 21
2.899
 31
0
  0
LINE
  8
0
 62
7
 10
0.9408
 20
2.899
 30
0
 11
0.9354000000000001
 21
2.908
 31
0
  0
LINE
  8
0
 62
7
 10
1.0596
 20
3.01
 30
0
 11
1.0704
 21
3.01
 31
0
  0
LINE
  8
0
 62
7
 10
1.0704
 20
3.01
 30
0
 11
1.0785
 21
3.007
 31
0
  0
LINE
  8
0
 62
7
 10
1.0785
 20
3.007
 30
0
 11
1.0839
 21
3.001
 31
0
  0
LINE
  8
0
 62
7
 10
1.0839
 20
3.001
 30
0
 11
1.0893
 21
2.992
 31
0
  0
LINE
  8
0
 62
7
 10
1.0893
 20
2.992
 30
0
 11
1.0893
 21
2.98
 31
0
  0
LINE
  8
0
 62
7
 10
1.0893
 20
2.98
 30
0
 11
1.0866
 21
2.974
 31
0
  0
LINE
  8
0
 62
7
 10
1.0866
 20
2.974
 30
0
 11
1.0785
 21
2.965
 31
0
  0
LINE
  8
0
 62
7
 10
1.0785
 20
2.965
 30
0
 11
1.0704
 21
2.962
 31
0
  0
LINE
  8
0
 62
7
 10
1.0704
 20
2.962
 30
0
 11
1.0596
 21
2.962
 31
0
  0
LINE
  8
0
 62
7
 10
1.0596
 20
2.962
 30
0
 11
1.0515
 21
2.965
 31
0
  0
LINE
  8
0
 62
7
 10
1.0515
 20
2.965
 30
0
 11
1.0434
 21
2.974
 31
0
  0
LINE
  8
0
 62
7
 10
1.0434
 20
2.974
 30
0
 11
1.0407
 21
2.98
 31
0
  0
LINE
  8
0
 62
7
 10
1.0407
 20
2.98
 30
0
 11
1.0407
 21
2.992
 31
0
  0
LINE
  8
0
 62
7
 10
1.0407
 20
2.992
 30
0
 11
1.0461
 21
3.001
 31
0
  0
LINE
  8
0
 62
7
 10
1.0461
 20
3.001
 30
0
 11
1.0515
 21
3.007
 31
0
  0
LINE
  8
0
 62
7
 10
1.0515
 20
3.007
 30
0
 11
1.0596
 21
3.01
 31
0
  0
LINE
  8
0
 62
7
 10
1.0596
 20
2.962
 30
0
 11
1.0461
 21
2.956
 31
0
  0
LINE
  8
0
 62
7
 10
1.0461
 20
2.956
 30
0
 11
1.038
 21
2.947
 31
0
  0
LINE
  8
0
 62
7
 10
1.038
 20
2.947
 30
0
 11
1.0326
 21
2.935
 31
0
  0
LINE
  8
0
 62
7
 10
1.0326
 20
2.935
 30
0
 11
1.0326
 21
2.917
 31
0
  0
LINE
  8
0
 62
7
 10
1.0326
 20
2.917
 30
0
 11
1.038
 21
2.905
 31
0
  0
LINE
  8
0
 62
7
 10
1.038
 20
2.905
 30
0
 11
1.0461
 21
2.896
 31
0
  0
LINE
  8
0
 62
7
 10
1.0461
 20
2.896
 30
0
 11
1.0569
 21
2.890000000000001
 31
0
  0
LINE
  8
0
 62
7
 10
1.0569
 20
2.890000000000001
 30
0
 11
1.0731
 21
2.890000000000001
 31
0
  0
LINE
  8
0
 62
7
 10
1.0731
 20
2.890000000000001
 30
0
 11
1.0839
 21
2.896
 31
0
  0
LINE
  8
0
 62
7
 10
1.0839
 20
2.896
 30
0
 11
1.092
 21
2.905
 31
0
  0
LINE
  8
0
 62
7
 10
1.092
 20
2.905
 30
0
 11
1.0974
 21
2.917
 31
0
  0
LINE
  8
0
 62
7
 10
1.0974
 20
2.917
 30
0
 11
1.0974
 21
2.935
 31
0
  0
LINE
  8
0
 62
7
 10
1.0974
 20
2.935
 30
0
 11
1.092
 21
2.947
 31
0
  0
LINE
  8
0
 62
7
 10
1.092
 20
2.947
 30
0
 11
1.0839
 21
2.956
 31
0
  0
LINE
  8
0
 62
7
 10
1.0839
 20
2.956
 30
0
 11
1.0704
 21
2.962
 31
0
  0
LINE
  8
0
 62
7
 10
1.2054
 20
2.890000000000001
 30
0
 11
1.1406
 21
2.890000000000001
 31
0
  0
LINE
  8
0
 62
7
 10
1.1406
 20
2.890000000000001
 30
0
 11
1.1406
 21
3.01
 31
0
  0
LINE
  8
0
 62
7
 10
1.2378
 20
2.938
 30
0
 11
1.2405
 21
2.95
 31
0
  0
LINE
  8
0
 62
7
 10
1.2405
 20
2.95
 30
0
 11
1.2459
 21
2.959
 31
0
  0
LINE
  8
0
 62
7
 10
1.2459
 20
2.959
 30
0
 11
1.254
 21
2.965
 31
0
  0
LINE
  8
0
 62
7
 10
1.254
 20
2.965
 30
0
 11
1.2621
 21
2.968
 31
0
  0
LINE
  8
0
 62
7
 10
1.2621
 20
2.968
 30
0
 11
1.2783
 21
2.968
 31
0
  0
LINE
  8
0
 62
7
 10
1.2783
 20
2.968
 30
0
 11
1.2864
 21
2.965
 31
0
  0
LINE
  8
0
 62
7
 10
1.2864
 20
2.965
 30
0
 11
1.2945
 21
2.959
 31
0
  0
LINE
  8
0
 62
7
 10
1.2945
 20
2.959
 30
0
 11
1.2999
 21
2.95
 31
0
  0
LINE
  8
0
 62
7
 10
1.2999
 20
2.95
 30
0
 11
1.3026
 21
2.938
 31
0
  0
LINE
  8
0
 62
7
 10
1.3026
 20
2.938
 30
0
 11
1.3026
 21
2.92
 31
0
  0
LINE
  8
0
 62
7
 10
1.3026
 20
2.92
 30
0
 11
1.2999
 21
2.908
 31
0
  0
LINE
  8
0
 62
7
 10
1.2999
 20
2.908
 30
0
 11
1.2945
 21
2.899
 31
0
  0
LINE
  8
0
 62
7
 10
1.2945
 20
2.899
 30
0
 11
1.2864
 21
2.893
 31
0
  0
LINE
  8
0
 62
7
 10
1.2864
 20
2.893
 30
0
 11
1.2783
 21
2.890000000000001
 31
0
  0
LINE
  8
0
 62
7
 10
1.2783
 20
2.890000000000001
 30
0
 11
1.2621
 21
2.890000000000001
 31
0
  0
LINE
  8
0
 62
7
 10
1.2621
 20
2.890000000000001
 30
0
 11
1.254
 21
2.893
 31
0
  0
LINE
  8
0
 62
7
 10
1.254
 20
2.893
 30
0
 11
1.2459
 21
2.899
 31
0
  0
LINE
  8
0
 62
7
 10
1.2459
 20
2.899
 30
0
 11
1.2405
 21
2.908
 31
0
  0
LINE
  8
0
 62
7
 10
1.2405
 20
2.908
 30
0
 11
1.2378
 21
2.92
 31
0
  0
LINE
  8
0
 62
7
 10
1.2378
 20
2.92
 30
0
 11
1.2378
 21
2.938
 31
0
  0
LINE
  8
0
 62
7
 10
1.2378
 20
2.98
 30
0
 11
1.2405
 21
2.992
 31
0
  0
LINE
  8
0
 62
7
 10
1.2405
 20
2.992
 30
0
 11
1.2459
 21
3.001
 31
0
  0
LINE
  8
0
 62
7
 10
1.2459
 20
3.001
 30
0
 11
1.254
 21
3.007
 31
0
  0
LINE
  8
0
 62
7
 10
1.254
 20
3.007
 30
0
 11
1.2621
 21
3.01
 31
0
  0
LINE
  8
0
 62
7
 10
1.2621
 20
3.01
 30
0
 11
1.2783
 21
3.01
 31
0
  0
LINE
  8
0
 62
7
 10
1.2783
 20
3.01
 30
0
 11
1.2864
 21
3.007
 31
0
  0
LINE
  8
0
 62
7
 10
1.2864
 20
3.007
 30
0
 11
1.2945
 21
3.001
 31
0
  0
LINE
  8
0
 62
7
 10
1.2945
 20
3.001
 30
0
 11
1.2999
 21
2.992
 31
0
  0
LINE
  8
0
 62
7
 10
1.2378
 20
2.938
 30
0
 11
1.2378
 21
2.98
 31
0
  0
LINE
  8
0
 62
7
 10
3.025
 20
2.890000000000001
 30
0
 11
3.025
 21
2.99
 31
0
  0
LINE
  8
0
 62
7
 10
3.025
 20
2.99
 30
0
 11
3.088
 21
2.890000000000001
 31
0
  0
LINE
  8
0
 62
7
 10
3.088
 20
2.890000000000001
 30
0
 11
3.088
 21
2.99
 31
0
  0
LINE
  8
0
 62
7
 10
3.169
 20
2.890000000000001
 30
0
 11
3.115
 21
2.890000000000001
 31
0
  0
LINE
  8
0
 62
7
 10
3.115
 20
2.890000000000001
 30
0
 11
3.115
 21
2.99
 31
0
  0
LINE
  8
0
 62
7
 10
3.196
 20
2.94
 30
0
 11
3.232
 21
2.94
 31
0
  0
LINE
  8
0
 62
7
 10
3.232
 20
2.94
 30
0
 11
3.2365
 21
2.94
 31
0
  0
LINE
  8
0
 62
7
 10
3.2365
 20
2.94
 30
0
 11
3.2455
 21
2.935
 31
0
  0
LINE
  8
0
 62
7
 10
3.2455
 20
2.935
 30
0
 11
3.25
 21
2.93
 31
0
  0
LINE
  8
0
 62
7
 10
3.25
 20
2.93
 30
0
 11
3.2545
 21
2.92
 31
0
  0
LINE
  8
0
 62
7
 10
3.2545
 20
2.92
 30
0
 11
3.2545
 21
2.91
 31
0
  0
LINE
  8
0
 62
7
 10
3.2545
 20
2.91
 30
0
 11
3.25
 21
2.9
 31
0
  0
LINE
  8
0
 62
7
 10
3.25
 20
2.9
 30
0
 11
3.2455
 21
2.895
 31
0
  0
LINE
  8
0
 62
7
 10
3.2455
 20
2.895
 30
0
 11
3.2365
 21
2.890000000000001
 31
0
  0
LINE
  8
0
 62
7
 10
3.2365
 20
2.890000000000001
 30
0
 11
3.196
 21
2.890000000000001
 31
0
  0
LINE
  8
0
 62
7
 10
3.196
 20
2.890000000000001
 30
0
 11
3.196
 21
2.94
 31
0
  0
LINE
  8
0
 62
7
 10
3.196
 20
2.99
 30
0
 11
3.22975
 21
2.99
 31
0
  0
LINE
  8
0
 62
7
 10
3.22975
 20
2.99
 30
0
 11
3.241000000000001
 21
2.9875
 31
0
  0
LINE
  8
0
 62
7
 10
3.241000000000001
 20
2.9875
 30
0
 11
3.24775
 21
2.98
 31
0
  0
LINE
  8
0
 62
7
 10
3.24775
 20
2.98
 30
0
 11
3.25
 21
2.97
 31
0
  0
LINE
  8
0
 62
7
 10
3.25
 20
2.97
 30
0
 11
3.25
 21
2.96
 31
0
  0
LINE
  8
0
 62
7
 10
3.25
 20
2.96
 30
0
 11
3.2455
 21
2.95
 31
0
  0
LINE
  8
0
 62
7
 10
3.2455
 20
2.95
 30
0
 11
3.23875
 21
2.9425
 31
0
  0
LINE
  8
0
 62
7
 10
3.23875
 20
2.9425
 30
0
 11
3.232
 21
2.94
 31
0
  0
LINE
  8
0
 62
7
 10
3.196
 20
2.94
 30
0
 11
3.196
 21
2.99
 31
0
  0
LINE
  8
0
 62
7
 10
3.39625
 20
2.9425
 30
0
 11
3.3895
 21
2.952500000000001
 31
0
  0
LINE
  8
0
 62
7
 10
3.3895
 20
2.952500000000001
 30
0
 11
3.38275
 21
2.9575
 31
0
  0
LINE
  8
0
 62
7
 10
3.38275
 20
2.9575
 30
0
 11
3.376
 21
2.96
 31
0
  0
LINE
  8
0
 62
7
 10
3.376
 20
2.96
 30
0
 11
3.367
 21
2.96
 31
0
  0
LINE
  8
0
 62
7
 10
3.367
 20
2.96
 30
0
 11
3.36025
 21
2.9575
 31
0
  0
LINE
  8
0
 62
7
 10
3.36025
 20
2.9575
 30
0
 11
3.3535
 21
2.952500000000001
 31
0
  0
LINE
  8
0
 62
7
 10
3.3535
 20
2.952500000000001
 30
0
 11
3.34675
 21
2.9425
 31
0
  0
LINE
  8
0
 62
7
 10
3.34675
 20
2.9425
 30
0
 11
3.3445
 21
2.935
 31
0
  0
LINE
  8
0
 62
7
 10
3.3445
 20
2.935
 30
0
 11
3.3445
 21
2.915
 31
0
  0
LINE
  8
0
 62
7
 10
3.3445
 20
2.915
 30
0
 11
3.34675
 21
2.9075
 31
0
  0
LINE
  8
0
 62
7
 10
3.34675
 20
2.9075
 30
0
 11
3.3535
 21
2.8975
 31
0
  0
LINE
  8
0
 62
7
 10
3.3535
 20
2.8975
 30
0
 11
3.36025
 21
2.8925
 31
0
  0
LINE
  8
0
 62
7
 10
3.36025
 20
2.8925
 30
0
 11
3.367
 21
2.890000000000001
 31
0
  0
LINE
  8
0
 62
7
 10
3.367
 20
2.890000000000001
 30
0
 11
3.376
 21
2.890000000000001
 31
0
  0
LINE
  8
0
 62
7
 10
3.376
 20
2.890000000000001
 30
0
 11
3.38275
 21
2.8925
 31
0
  0
LINE
  8
0
 62
7
 10
3.38275
 20
2.8925
 30
0
 11
3.3895
 21
2.8975
 31
0
  0
LINE
  8
0
 62
7
 10
3.3895
 20
2.8975
 30
0
 11
3.39625
 21
2.9075
 31
0
  0
LINE
  8
0
 62
7
 10
3.46825
 20
2.935
 30
0
 11
3.466000000000001
 21
2.9425
 31
0
  0
LINE
  8
0
 62
7
 10
3.466000000000001
 20
2.9425
 30
0
 11
3.45925
 21
2.952500000000001
 31
0
  0
LINE
  8
0
 62
7
 10
3.45925
 20
2.952500000000001
 30
0
 11
3.4525
 21
2.9575
 31
0
  0
LINE
  8
0
 62
7
 10
3.4525
 20
2.9575
 30
0
 11
3.44575
 21
2.96
 31
0
  0
LINE
  8
0
 62
7
 10
3.44575
 20
2.96
 30
0
 11
3.43675
 21
2.96
 31
0
  0
LINE
  8
0
 62
7
 10
3.43675
 20
2.96
 30
0
 11
3.430000000000001
 21
2.9575
 31
0
  0
LINE
  8
0
 62
7
 10
3.430000000000001
 20
2.9575
 30
0
 11
3.42325
 21
2.952500000000001
 31
0
  0
LINE
  8
0
 62
7
 10
3.42325
 20
2.952500000000001
 30
0
 11
3.4165
 21
2.9425
 31
0
  0
LINE
  8
0
 62
7
 10
3.4165
 20
2.9425
 30
0
 11
3.41425
 21
2.935
 31
0
  0
LINE
  8
0
 62
7
 10
3.41425
 20
2.935
 30
0
 11
3.41425
 21
2.915
 31
0
  0
LINE
  8
0
 62
7
 10
3.41425
 20
2.915
 30
0
 11
3.4165
 21
2.9075
 31
0
  0
LINE
  8
0
 62
7
 10
3.4165
 20
2.9075
 30
0
 11
3.42325
 21
2.8975
 31
0
  0
LINE
  8
0
 62
7
 10
3.42325
 20
2.8975
 30
0
 11
3.430000000000001
 21
2.8925
 31
0
  0
LINE
  8
0
 62
7
 10
3.430000000000001
 20
2.8925
 30
0
 11
3.43675
 21
2.890000000000001
 31
0
  0
LINE
  8
0
 62
7
 10
3.43675
 20
2.890000000000001
 30
0
 11
3.44575
 21
2.890000000000001
 31
0
  0
LINE
  8
0
 62
7
 10
3.44575
 20
2.890000000000001
 30
0
 11
3.4525
 21
2.8925
 31
0
  0
LINE
  8
0
 62
7
 10
3.4525
 20
2.8925
 30
0
 11
3.45925
 21
2.8975
 31
0
  0
LINE
  8
0
 62
7
 10
3.45925
 20
2.8975
 30
0
 11
3.466000000000001
 21
2.9075
 31
0
  0
LINE
  8
0
 62
7
 10
3.466000000000001
 20
2.9075
 30
0
 11
3.46825
 21
2.915
 31
0
  0
LINE
  8
0
 62
7
 10
3.46825
 20
2.96
 30
0
 11
3.46825
 21
2.935
 31
0
  0
LINE
  8
0
 62
7
 10
3.46825
 20
2.8925
 30
0
 11
3.4705
 21
2.890000000000001
 31
0
  0
LINE
  8
0
 62
7
 10
3.4705
 20
2.890000000000001
 30
0
 11
3.47275
 21
2.890000000000001
 31
0
  0
LINE
  8
0
 62
7
 10
3.46825
 20
2.915
 30
0
 11
3.46825
 21
2.8925
 31
0
  0
LINE
  8
0
 62
7
 10
3.46825
 20
2.935
 30
0
 11
3.46825
 21
2.915
 31
0
  0
LINE
  8
0
 62
7
 10
3.49075
 20
2.890000000000001
 30
0
 11
3.49075
 21
2.8925
 31
0
  0
LINE
  8
0
 62
7
 10
3.49075
 20
2.8925
 30
0
 11
3.493
 21
2.8925
 31
0
  0
LINE
  8
0
 62
7
 10
3.493
 20
2.8925
 30
0
 11
3.493
 21
2.890000000000001
 31
0
  0
LINE
  8
0
 62
7
 10
3.493
 20
2.890000000000001
 30
0
 11
3.49075
 21
2.890000000000001
 31
0
  0
LINE
  8
0
 62
7
 10
3.616750000000001
 20
2.99
 30
0
 11
3.62575
 21
2.99
 31
0
  0
LINE
  8
0
 62
7
 10
3.62575
 20
2.99
 30
0
 11
3.6325
 21
2.9875
 31
0
  0
LINE
  8
0
 62
7
 10
3.6325
 20
2.9875
 30
0
 11
3.637
 21
2.9825
 31
0
  0
LINE
  8
0
 62
7
 10
3.637
 20
2.9825
 30
0
 11
3.6415
 21
2.975
 31
0
  0
LINE
  8
0
 62
7
 10
3.6415
 20
2.975
 30
0
 11
3.6415
 21
2.965
 31
0
  0
LINE
  8
0
 62
7
 10
3.6415
 20
2.965
 30
0
 11
3.63925
 21
2.96
 31
0
  0
LINE
  8
0
 62
7
 10
3.63925
 20
2.96
 30
0
 11
3.6325
 21
2.952500000000001
 31
0
  0
LINE
  8
0
 62
7
 10
3.6325
 20
2.952500000000001
 30
0
 11
3.62575
 21
2.95
 31
0
  0
LINE
  8
0
 62
7
 10
3.62575
 20
2.95
 30
0
 11
3.616750000000001
 21
2.95
 31
0
  0
LINE
  8
0
 62
7
 10
3.616750000000001
 20
2.95
 30
0
 11
3.61
 21
2.952500000000001
 31
0
  0
LINE
  8
0
 62
7
 10
3.61
 20
2.952500000000001
 30
0
 11
3.60325
 21
2.96
 31
0
  0
LINE
  8
0
 62
7
 10
3.60325
 20
2.96
 30
0
 11
3.601
 21
2.965
 31
0
  0
LINE
  8
0
 62
7
 10
3.601
 20
2.965
 30
0
 11
3.601
 21
2.975
 31
0
  0
LINE
  8
0
 62
7
 10
3.601
 20
2.975
 30
0
 11
3.6055
 21
2.9825
 31
0
  0
LINE
  8
0
 62
7
 10
3.6055
 20
2.9825
 30
0
 11
3.61
 21
2.9875
 31
0
  0
LINE
  8
0
 62
7
 10
3.61
 20
2.9875
 30
0
 11
3.616750000000001
 21
2.99
 31
0
  0
LINE
  8
0
 62
7
 10
3.616750000000001
 20
2.95
 30
0
 11
3.6055
 21
2.945
 31
0
  0
LINE
  8
0
 62
7
 10
3.6055
 20
2.945
 30
0
 11
3.598750000000001
 21
2.9375
 31
0
  0
LINE
  8
0
 62
7
 10
3.598750000000001
 20
2.9375
 30
0
 11
3.594250000000001
 21
2.9275
 31
0
  0
LINE
  8
0
 62
7
 10
3.594250000000001
 20
2.9275
 30
0
 11
3.594250000000001
 21
2.9125
 31
0
  0
LINE
  8
0
 62
7
 10
3.594250000000001
 20
2.9125
 30
0
 11
3.598750000000001
 21
2.9025
 31
0
  0
LINE
  8
0
 62
7
 10
3.598750000000001
 20
2.9025
 30
0
 11
3.6055
 21
2.895
 31
0
  0
LINE
  8
0
 62
7
 10
3.6055
 20
2.895
 30
0
 11
3.6145
 21
2.890000000000001
 31
0
  0
LINE
  8
0
 62
7
 10
3.6145
 20
2.890000000000001
 30
0
 11
3.628
 21
2.890000000000001
 31
0
  0
LINE
  8
0
 62
7
 10
3.628
 20
2.890000000000001
 30
0
 11
3.637
 21
2.895
 31
0
  0
LINE
  8
0
 62
7
 10
3.637
 20
2.895
 30
0
 11
3.64375
 21
2.9025
 31
0
  0
LINE
  8
0
 62
7
 10
3.64375
 20
2.9025
 30
0
 11
3.64825
 21
2.9125
 31
0
  0
LINE
  8
0
 62
7
 10
3.64825
 20
2.9125
 30
0
 11
3.64825
 21
2.9275
 31
0
  0
LINE
  8
0
 62
7
 10
3.64825
 20
2.9275
 30
0
 11
3.64375
 21
2.9375
 31
0
  0
LINE
  8
0
 62
7
 10
3.64375
 20
2.9375
 30
0
 11
3.637
 21
2.945
 31
0
  0
LINE
  8
0
 62
7
 10
3.637
 20
2.945
 30
0
 11
3.62575
 21
2.95
 31
0
  0
LINE
  8
0
 62
7
 10
3.73825
 20
2.95
 30
0
 11
3.736
 21
2.94
 31
0
  0
LINE
  8
0
 62
7
 10
3.736
 20
2.94
 30
0
 11
3.7315
 21
2.9325
 31
0
  0
LINE
  8
0
 62
7
 10
3.7315
 20
2.9325
 30
0
 11
3.72475
 21
2.9275
 31
0
  0
LINE
  8
0
 62
7
 10
3.72475
 20
2.9275
 30
0
 11
3.718
 21
2.925
 31
0
  0
LINE
  8
0
 62
7
 10
3.718
 20
2.925
 30
0
 11
3.7045
 21
2.925
 31
0
  0
LINE
  8
0
 62
7
 10
3.7045
 20
2.925
 30
0
 11
3.69775
 21
2.9275
 31
0
  0
LINE
  8
0
 62
7
 10
3.69775
 20
2.9275
 30
0
 11
3.691000000000001
 21
2.9325
 31
0
  0
LINE
  8
0
 62
7
 10
3.691000000000001
 20
2.9325
 30
0
 11
3.686500000000001
 21
2.94
 31
0
  0
LINE
  8
0
 62
7
 10
3.686500000000001
 20
2.94
 30
0
 11
3.68425
 21
2.95
 31
0
  0
LINE
  8
0
 62
7
 10
3.68425
 20
2.95
 30
0
 11
3.68425
 21
2.965
 31
0
  0
LINE
  8
0
 62
7
 10
3.68425
 20
2.965
 30
0
 11
3.686500000000001
 21
2.975
 31
0
  0
LINE
  8
0
 62
7
 10
3.686500000000001
 20
2.975
 30
0
 11
3.691000000000001
 21
2.9825
 31
0
  0
LINE
  8
0
 62
7
 10
3.691000000000001
 20
2.9825
 30
0
 11
3.69775
 21
2.9875
 31
0
  0
LINE
  8
0
 62
7
 10
3.69775
 20
2.9875
 30
0
 11
3.7045
 21
2.99
 31
0
  0
LINE
  8
0
 62
7
 10
3.7045
 20
2.99
 30
0
 11
3.718
 21
2.99
 31
0
  0
LINE
  8
0
 62
7
 10
3.718
 20
2.99
 30
0
 11
3.72475
 21
2.9875
 31
0
  0
LINE
  8
0
 62
7
 10
3.72475
 20
2.9875
 30
0
 11
3.7315
 21
2.9825
 31
0
  0
LINE
  8
0
 62
7
 10
3.7315
 20
2.9825
 30
0
 11
3.736
 21
2.975
 31
0
  0
LINE
  8
0
 62
7
 10
3.736
 20
2.975
 30
0
 11
3.73825
 21
2.965
 31
0
  0
LINE
  8
0
 62
7
 10
3.73825
 20
2.965
 30
0
 11
3.73825
 21
2.95
 31
0
  0
LINE
  8
0
 62
7
 10
3.73825
 20
2.915
 30
0
 11
3.736
 21
2.905
 31
0
  0
LINE
  8
0
 62
7
 10
3.736
 20
2.905
 30
0
 11
3.7315
 21
2.8975
 31
0
  0
LINE
  8
0
 62
7
 10
3.7315
 20
2.8975
 30
0
 11
3.72475
 21
2.8925
 31
0
  0
LINE
  8
0
 62
7
 10
3.72475
 20
2.8925
 30
0
 11
3.718
 21
2.890000000000001
 31
0
  0
LINE
  8
0
 62
7
 10
3.718
 20
2.890000000000001
 30
0
 11
3.7045
 21
2.890000000000001
 31
0
  0
LINE
  8
0
 62
7
 10
3.7045
 20
2.890000000000001
 30
0
 11
3.69775
 21
2.8925
 31
0
  0
LINE
  8
0
 62
7
 10
3.69775
 20
2.8925
 30
0
 11
3.691000000000001
 21
2.8975
 31
0
  0
LINE
  8
0
 62
7
 10
3.691000000000001
 20
2.8975
 30
0
 11
3.686500000000001
 21
2.905
 31
0
  0
LINE
  8
0
 62
7
 10
3.73825
 20
2.95
 30
0
 11
3.73825
 21
2.915
 31
0
  0
LINE
  8
0
 62
7
 10
3.889
 20
2.9425
 30
0
 11
3.88225
 21
2.952500000000001
 31
0
  0
LINE
  8
0
 62
7
 10
3.88225
 20
2.952500000000001
 30
0
 11
3.875500000000001
 21
2.9575
 31
0
  0
LINE
  8
0
 62
7
 10
3.875500000000001
 20
2.9575
 30
0
 11
3.86875
 21
2.96
 31
0
  0
LINE
  8
0
 62
7
 10
3.86875
 20
2.96
 30
0
 11
3.85975
 21
2.96
 31
0
  0
LINE
  8
0
 62
7
 10
3.85975
 20
2.96
 30
0
 11
3.853
 21
2.9575
 31
0
  0
LINE
  8
0
 62
7
 10
3.853
 20
2.9575
 30
0
 11
3.84625
 21
2.952500000000001
 31
0
  0
LINE
  8
0
 62
7
 10
3.84625
 20
2.952500000000001
 30
0
 11
3.839500000000001
 21
2.9425
 31
0
  0
LINE
  8
0
 62
7
 10
3.839500000000001
 20
2.9425
 30
0
 11
3.83725
 21
2.935
 31
0
  0
LINE
  8
0
 62
7
 10
3.83725
 20
2.935
 30
0
 11
3.83725
 21
2.915
 31
0
  0
LINE
  8
0
 62
7
 10
3.83725
 20
2.915
 30
0
 11
3.839500000000001
 21
2.9075
 31
0
  0
LINE
  8
0
 62
7
 10
3.839500000000001
 20
2.9075
 30
0
 11
3.84625
 21
2.8975
 31
0
  0
LINE
  8
0
 62
7
 10
3.84625
 20
2.8975
 30
0
 11
3.853
 21
2.8925
 31
0
  0
LINE
  8
0
 62
7
 10
3.853
 20
2.8925
 30
0
 11
3.85975
 21
2.890000000000001
 31
0
  0
LINE
  8
0
 62
7
 10
3.85975
 20
2.890000000000001
 30
0
 11
3.86875
 21
2.890000000000001
 31
0
  0
LINE
  8
0
 62
7
 10
3.86875
 20
2.890000000000001
 30
0
 11
3.875500000000001
 21
2.8925
 31
0
  0
LINE
  8
0
 62
7
 10
3.875500000000001
 20
2.8925
 30
0
 11
3.88225
 21
2.8975
 31
0
  0
LINE
  8
0
 62
7
 10
3.88225
 20
2.8975
 30
0
 11
3.889
 21
2.9075
 31
0
  0
LINE
  8
0
 62
7
 10
3.9475
 20
2.935
 30
0
 11
3.9475
 21
2.890000000000001
 31
0
  0
LINE
  8
0
 62
7
 10
3.907
 20
2.96
 30
0
 11
3.907
 21
2.935
 31
0
  0
LINE
  8
0
 62
7
 10
3.907
 20
2.890000000000001
 30
0
 11
3.907
 21
2.935
 31
0
  0
LINE
  8
0
 62
7
 10
3.907
 20
2.935
 30
0
 11
3.90925
 21
2.9475
 31
0
  0
LINE
  8
0
 62
7
 10
3.90925
 20
2.9475
 30
0
 11
3.9115
 21
2.952500000000001
 31
0
  0
LINE
  8
0
 62
7
 10
3.9115
 20
2.952500000000001
 30
0
 11
3.916
 21
2.9575
 31
0
  0
LINE
  8
0
 62
7
 10
3.916
 20
2.9575
 30
0
 11
3.92275
 21
2.96
 31
0
  0
LINE
  8
0
 62
7
 10
3.92275
 20
2.96
 30
0
 11
3.931750000000001
 21
2.96
 31
0
  0
LINE
  8
0
 62
7
 10
3.931750000000001
 20
2.96
 30
0
 11
3.9385
 21
2.9575
 31
0
  0
LINE
  8
0
 62
7
 10
3.9385
 20
2.9575
 30
0
 11
3.943
 21
2.952500000000001
 31
0
  0
LINE
  8
0
 62
7
 10
3.943
 20
2.952500000000001
 30
0
 11
3.94525
 21
2.9475
 31
0
  0
LINE
  8
0
 62
7
 10
3.94525
 20
2.9475
 30
0
 11
3.9475
 21
2.935
 31
0
  0
LINE
  8
0
 62
7
 10
3.9475
 20
2.935
 30
0
 11
3.94975
 21
2.9475
 31
0
  0
LINE
  8
0
 62
7
 10
3.94975
 20
2.9475
 30
0
 11
3.952
 21
2.952500000000001
 31
0
  0
LINE
  8
0
 62
7
 10
3.952
 20
2.952500000000001
 30
0
 11
3.9565
 21
2.9575
 31
0
  0
LINE
  8
0
 62
7
 10
3.9565
 20
2.9575
 30
0
 11
3.96325
 21
2.96
 31
0
  0
LINE
  8
0
 62
7
 10
3.96325
 20
2.96
 30
0
 11
3.972250000000001
 21
2.96
 31
0
  0
LINE
  8
0
 62
7
 10
3.972250000000001
 20
2.96
 30
0
 11
3.979
 21
2.9575
 31
0
  0
LINE
  8
0
 62
7
 10
3.9835
 20
2.952500000000001
 30
0
 11
3.979
 21
2.9575
 31
0
  0
LINE
  8
0
 62
7
 10
3.979
 20
2.9575
 30
0
 11
3.9835
 21
2.952500000000001
 31
0
  0
LINE
  8
0
 62
7
 10
3.9835
 20
2.952500000000001
 30
0
 11
3.98575
 21
2.9475
 31
0
  0
LINE
  8
0
 62
7
 10
3.98575
 20
2.9475
 30
0
 11
3.988
 21
2.935
 31
0
  0
LINE
  8
0
 62
7
 10
3.988
 20
2.935
 30
0
 11
3.988
 21
2.890000000000001
 31
0
  0
ARC
  8
0
 62
7
 10
2.279519018875301
 20
4.175480981124691
 30
0
 40
0.5029999999999993
 50
89.94520684311568
 51
180.0547931583126
  0
ARC
  8
0
 62
7
 10
2.655480981124685
 20
4.175480981124701
 30
0
 40
0.5030000000000012
 50
359.9452068442731
 51
90.05479315838751
  0
CIRCLE
  8
0
 62
7
 10
3.158480751115427
 20
3.25
 30
0
 40
0.06000000000000005
  0
DIMENSION
  8
0
  6
CONTINUOUS
 62
7
  2
*D0
  3
DMST_1
 10
0.7693437865497281
 20
5.180000000000001
 30
0
 11
0.7693437865497281
 21
4.31807193649576
 31
0
 12
0
 22
0
 32
0
 70
0
 13
1.1
 23
3.35
 33
0
 14
1.1
 24
5.180000000000001
 34
0
 50
90
 53
0
  0
DIMENSION
  8
0
  6
CONTINUOUS
 62
7
  2
*D1
  3
DMST_1
 10
3.659999999999997
 20
6.06677529310735
 30
0
 11
2.47078489027992
 21
6.06677529310735
 31
0
 12
0
 22
0
 32
0
 70
0
 13
1.275
 23
5.699999999999999
 33
0
 14
3.659999999999997
 24
5.699999999999999
 34
0
 53
0
  0
DIMENSION
  8
0
  6
CONTINUOUS
 62
7
  2
*D2
  3
DMST_1
 10
4.19585712045081
 20
5.180000000000001
 30
0
 11
4.19585712045081
 21
4.24717855717367
 31
0
 12
0
 22
0
 32
0
 70
0
 13
3.834999999999997
 23
3.25
 33
0
 14
3.834999999999997
 24
5.180000000000001
 34
0
 50
90
 53
0
  0
DIMENSION
  8
0
  6
CONTINUOUS
 62
7
  2
*D3
  3
DMST_2
 10
1.275
 20
11.4901188112473
 30
0
 11
2.45896932705957
 21
11.4901188112473
 31
0
 12
0
 22
0
 32
0
 70
0
 13
3.659999999999997
 23
11.2
 33
0
 14
1.275
 24
11.2
 34
0
 53
0
  0
INSERT
  8
0
  2
*D4
 10
0
 20
0
 30
0
  0
ENDSEC
  0
EOF
