  0
SECTION
  2
HEADER
  9
$ACADVER
  1
AC1009
  9
$INSBASE
 10
0
 20
0
  9
$EXTMIN
 10
0.45
 20
2.890000000000001
  9
$EXTMAX
 10
8.239636162067772
 20
11.5000255673367
  9
$LIMMIN
 10
0.45
 20
2.890000000000001
  9
$LIMMAX
 10
8.239636162067772
 20
11.5000255673367
  9
$VIEWCTR
 10
10
 20
10
  9
$VIEWSIZE
 40
10
  9
$SNAPMODE
 70
0
  9
$SNAPUNIT
 10
1
 20
1
  9
$SNAPBASE
 10
0
 20
0
  9
$SNAPANG
 50
0
  9
$SNAPSTYLE
 70
0
  9
$SNAPISOPAIR
 70
0
  9
$GRIDMODE
 70
0
  9
$GRIDUNIT
 10
0
 20
0
  9
$ORTHOMODE
 70
0
  9
$REGENMODE
 70
1
  9
$FILLMODE
 70
1
  9
$QTEXTMODE
 70
0
  9
$DRAGMODE
 70
2
  9
$LTSCALE
 40
1
  9
$OSMODE
 70
0
  9
$ATTMODE
 70
1
  9
$TEXTSIZE
 40
3.5
  9
$TRACEWID
 40
0.5
  9
$TEXTSTYLE
  7
STANDARD
  9
$CLAYER
  8
0
  9
$CELTYPE
  6
BYLAYER
  9
$CECOLOR
 62
256
  9
$DIMSCALE
 40
1
  9
$DIMASZ
 40
0.18
  9
$DIMEXO
 40
0.0625
  9
$DIMDLI
 40
0.38
  9
$DIMRND
 40
0
  9
$DIMDLE
 40
0
  9
$DIMEXE
 40
0.18
  9
$DIMTP
 40
0
  9
$DIMTM
 40
0
  9
$DIMTXT
 40
0.18
  9
$DIMCEN
 40
0.09
  9
$DIMTSZ
 40
0
  9
$DIMTOL
 70
0
  9
$DIMLIM
 70
0
  9
$DIMTIH
 70
1
  9
$DIMTOH
 70
1
  9
$DIMSE1
 70
0
  9
$DIMSE2
 70
0
  9
$DIMTAD
 70
0
  9
$DIMZIN
 70
0
  9
$DIMBLK
  1

  9
$DIMASO
 70
1
  9
$DIMSHO
 70
1
  9
$DIMPOST
  1

  9
$DIMAPOST
  1

  9
$DIMALT
 70
0
  9
$DIMALTD
 70
2
  9
$DIMALTF
 40
25.4
  9
$DIMLFAC
 40
1
  9
$DIMTOFL
 70
0
  9
$DIMTVP
 40
0
  9
$DIMTIX
 70
0
  9
$DIMSOXD
 70
0
  9
$DIMSAH
 70
0
  9
$DIMBLK1
  1

  9
$DIMBLK2
  1

  9
$DIMSTYLE
  2
*UNNAMED
  9
$DIMCLRD
 70
0
  9
$DIMCLRE
 70
0
  9
$DIMCLRT
 70
0
  9
$DIMTFAC
 40
1
  9
$DIMGAP
 40
0.09
  9
$LUNITS
 70
2
  9
$LUPREC
 70
4
  9
$AXISMODE
 70
0
  9
$AXISUNIT
 10
0
 20
0
  9
$SKETCHINC
 40
0.1
  9
$FILLETRAD
 40
2
  9
$AUNITS
 70
0
  9
$AUPREC
 70
0
  9
$MENU
  1
ACAD
  9
$ELEVATION
 40
0
  9
$THICKNESS
 40
0
  9
$VIEWDIR
 10
0
 20
0
 30
1
  9
$LIMCHECK
 70
0
  9
$BLIPMODE
 70
1
  9
$CHAMFERA
 40
0
  9
$CHAMFERB
 40
0
  9
$FASTZOOM
 70
1
  9
$SKPOLY
 70
0
  9
$ANGBASE
 50
0
  9
$ANGDIR
 70
0
  9
$PDMODE
 70
0
  9
$PDSIZE
 40
0
  9
$PLINEWID
 40
0
  9
$COORDS
 70
2
  0
ENDSEC
  0
SECTION
  2
TABLES
  0
TABLE
  2
DIMSTYLE
 70
2
  0
DIMSTYLE
  2
DMST_1
 70
0
  3

  4

  5

  6

  7

 40
1
 41
0.1
 42
0
 43
0.7
 44
0.2
 45
0
 46
0
 47
0
 48
0
140
0.1
141
0
142
0.1
143
25.4
144
1
145
0
146
1
147
0.25
 71
0
 72
0
 73
0
 74
0
 75
0
 76
0
 77
0
 78
9
170
0
171
2
172
0
173
0
174
0
175
0
176
7
177
7
178
7
  0
DIMSTYLE
  2
DMST_2
 70
0
  3

  4

  5

  6

  7

 40
1
 41
0.1
 42
0
 43
0.7
 44
0.2
 45
0
 46
0
 47
0
 48
0
140
0.1
141
0
142
0.1
143
25.4
144
1
145
0
146
1
147
0.2
 71
0
 72
0
 73
0
 74
0
 75
0
 76
0
 77
0
 78
9
170
0
171
2
172
0
173
0
174
0
175
0
176
7
177
7
178
7
  0
ENDTAB
  0
TABLE
  2
LTYPE
 70
9
  0
LTYPE
  2
CONTINUOUS
 70
64
  3
Solid line
 72
65
 73
0
 40
0
  0
LTYPE
  2
BORDER
 70
64
  3
__ __ . __ __ .
 72
65
 73
6
 40
0.3965143353378743
 49
0.1132898100965355
 49
-0.05664490504826775
 49
0.1132898100965355
 49
-0.05664490504826775
 49
0
 49
-0.05664490504826775
  0
LTYPE
  2
CENTER
 70
64
  3
____ _ ____ _
 72
65
 73
4
 40
0.453159240386142
 49
0.2832245252413388
 49
-0.05664490504826775
 49
0.05664490504826775
 49
-0.05664490504826775
  0
LTYPE
  2
DASHDOT
 70
64
  3
__ . __ . __ .
 72
65
 73
4
 40
0.226579620193071
 49
0.1132898100965355
 49
-0.05664490504826775
 49
0
 49
-0.05664490504826775
  0
LTYPE
  2
DASHED
 70
64
  3
__ __ __ __ __
 72
65
 73
2
 40
0.1699347151448033
 49
0.1132898100965355
 49
-0.05664490504826775
  0
LTYPE
  2
DIVIDE
 70
64
  3
__ . . __ . . 
 72
65
 73
6
 40
0.2832245252413388
 49
0.1132898100965355
 49
-0.05664490504826775
 49
0
 49
-0.05664490504826775
 49
0
 49
-0.05664490504826775
  0
LTYPE
  2
DOT
 70
64
  3
..............
 72
65
 73
4
 40
0.1132898100965355
 49
0
 49
-0.05664490504826775
 49
0
 49
-0.05664490504826775
  0
LTYPE
  2
HIDDEN
 70
64
  3
_ _ _ _ _ _ _
 72
65
 73
2
 40
0.08496735757240163
 49
0.05664490504826775
 49
-0.02832245252413388
  0
LTYPE
  2
PHANTOM
 70
64
  3
_____ _ _ _____ _ _ 
 72
65
 73
6
 40
0.5664490504826776
 49
0.2832245252413388
 49
-0.05664490504826775
 49
0.05664490504826775
 49
-0.05664490504826775
 49
0.05664490504826775
 49
-0.05664490504826775
  0
ENDTAB
  0
TABLE
  2
LAYER
 70
2
  0
LAYER
  2
0
 70
0
 62
7
  6
CONTINUOUS
  0
ENDTAB
  0
TABLE
  2
STYLE
 70
4
  0
STYLE
  2
STANDARD
 70
0
 40
0
 41
1
 50
0
 71
0
 42
3.5
  3
txt
  4

  0
STYLE
  2
SIMPLEX
 70
0
 40
0
 41
1
 50
0
 71
0
 42
3.5
  3
simplex
  4

  0
STYLE
  2
COMPLEX
 70
0
 40
0
 41
1
 50
0
 71
0
 42
3.5
  3
complex
  4

  0
STYLE
  2
ITALIC
 70
0
 40
0
 41
1
 50
0
 71
0
 42
3.5
  3
italic
  4

  0
ENDTAB
  0
TABLE
  2
VIEW
 70
0
  0
ENDTAB
  0
ENDSEC
  0
SECTION
  2
BLOCKS
  0
BLOCK
  8
0
  2
*X0
 70
1
 10
0
 20
0
 30
0
  0
LINE
  8
0
 62
7
  6
DASHED
 10
0.5
 20
8.242819253992694
 30
0
 11
0.5571807460073028
 21
8.299999999999997
 31
0
  0
LINE
  8
0
 62
7
  6
DASHED
 10
0.5693127803632669
 20
8.099999999999996
 30
0
 11
0.7399999999999998
 21
8.270687219636729
 31
0
  0
LINE
  8
0
 62
7
 10
0.4999999999999991
 20
8.136753236814712
 30
0
 11
0.6632467631852856
 21
8.299999999999997
 31
0
  0
LINE
  8
0
 62
7
 10
0.6753787975412489
 20
8.099999999999998
 30
0
 11
0.7399999999999989
 21
8.164621202458747
 31
0
  0
ENDBLK
  8
0
  0
BLOCK
  8
0
  2
*X1
 70
1
 10
0
 20
0
 30
0
  0
LINE
  8
0
 62
7
  6
DASHED
 10
0.4999999999999991
 20
11.00053570062023
 30
0
 11
0.5494642993797729
 21
11.05
 31
0
  0
LINE
  8
0
 62
7
  6
DASHED
 10
0.5615963337357357
 20
10.85
 30
0
 11
0.7399999999999993
 21
11.02840366626426
 31
0
  0
LINE
  8
0
 62
7
 10
0.5000000000000009
 20
10.89446968344225
 30
0
 11
0.655530316557754
 21
11.05
 31
0
  0
LINE
  8
0
 62
7
 10
0.6676623509137176
 20
10.85
 30
0
 11
0.7400000000000002
 21
10.92233764908628
 31
0
  0
ENDBLK
  8
0
  0
BLOCK
  8
0
  2
*X2
 70
1
 10
0
 20
0
 30
0
  0
LINE
  8
0
 62
7
  6
DASHED
 10
2.569999999999997
 20
10.94921535706058
 30
0
 11
2.670784642939415
 21
11.05
 31
0
  0
LINE
  8
0
 62
7
  6
DASHED
 10
2.682916677295378
 20
10.85
 30
0
 11
2.869999999999997
 21
11.03708332270462
 31
0
  0
LINE
  8
0
 62
7
 10
2.576850660117394
 20
10.85
 30
0
 11
2.776850660117397
 21
11.05
 31
0
  0
LINE
  8
0
 62
7
 10
2.788982694473359
 20
10.85
 30
0
 11
2.869999999999997
 21
10.93101730552664
 31
0
  0
ENDBLK
  8
0
  0
BLOCK
  8
0
  2
*X3
 70
1
 10
0
 20
0
 30
0
  0
LINE
  8
0
 62
7
  6
DASHED
 10
2.569999999999998
 20
8.191498910433049
 30
0
 11
2.678501089566945
 21
8.299999999999997
 31
0
  0
LINE
  8
0
 62
7
  6
DASHED
 10
2.690633123922909
 20
8.099999999999996
 30
0
 11
2.869999999999997
 21
8.279366876077084
 31
0
  0
LINE
  8
0
 62
7
 10
2.569999999999997
 20
8.297564927611031
 30
0
 11
2.572435072388964
 21
8.299999999999997
 31
0
  0
LINE
  8
0
 62
7
 10
2.584567106744926
 20
8.099999999999994
 30
0
 11
2.784567106744928
 21
8.299999999999997
 31
0
  0
LINE
  8
0
 62
7
 10
2.79669914110089
 20
8.099999999999994
 30
0
 11
2.869999999999998
 21
8.173300858899102
 31
0
  0
ENDBLK
  8
0
  0
BLOCK
  8
0
  2
*X4
 70
1
 10
0
 20
0
 30
0
  0
LINE
  8
0
 62
7
 10
0.549464299379772
 20
11.05
 30
0
 11
0.6994642993797706
 21
11.2
 31
0
  0
LINE
  8
0
 62
7
 10
0.5
 20
11.10660171779821
 30
0
 11
0.5933982822017896
 21
11.2
 31
0
  0
LINE
  8
0
 62
7
 10
0.655530316557754
 20
11.05
 30
0
 11
0.7400000000000002
 21
11.13446968344225
 31
0
  0
ENDBLK
  8
0
  0
BLOCK
  8
0
  2
*X5
 70
1
 10
0
 20
0
 30
0
  0
LINE
  8
0
 62
7
 10
0.5000000000000004
 20
10.78840366626426
 30
0
 11
0.5615963337357339
 21
10.85
 31
0
  0
LINE
  8
0
 62
7
 10
0.5000000000000004
 20
10.5762716319083
 30
0
 11
0.7400000000000002
 21
10.8162716319083
 31
0
  0
LINE
  8
0
 62
7
 10
0.5000000000000004
 20
10.36413959755233
 30
0
 11
0.7400000000000002
 21
10.60413959755233
 31
0
  0
LINE
  8
0
 62
7
 10
0.5000000000000004
 20
10.15200756319637
 30
0
 11
0.7400000000000002
 21
10.39200756319637
 31
0
  0
LINE
  8
0
 62
7
 10
0.5000000000000004
 20
9.939875528840407
 30
0
 11
0.7400000000000002
 21
10.17987552884041
 31
0
  0
LINE
  8
0
 62
7
 10
0.5000000000000004
 20
9.727743494484443
 30
0
 11
0.7400000000000002
 21
9.967743494484441
 31
0
  0
LINE
  8
0
 62
7
 10
0.5000000000000004
 20
9.515611460128479
 30
0
 11
0.7400000000000002
 21
9.755611460128478
 31
0
  0
LINE
  8
0
 62
7
 10
0.5000000000000004
 20
9.303479425772515
 30
0
 11
0.7400000000000002
 21
9.543479425772514
 31
0
  0
LINE
  8
0
 62
7
 10
0.5000000000000004
 20
9.091347391416551
 30
0
 11
0.7400000000000002
 21
9.33134739141655
 31
0
  0
LINE
  8
0
 62
7
 10
0.5000000000000004
 20
8.879215357060588
 30
0
 11
0.7400000000000002
 21
9.119215357060586
 31
0
  0
LINE
  8
0
 62
7
 10
0.5000000000000004
 20
8.667083322704624
 30
0
 11
0.7400000000000002
 21
8.907083322704622
 31
0
  0
LINE
  8
0
 62
7
 10
0.5000000000000004
 20
8.45495128834866
 30
0
 11
0.7400000000000002
 21
8.694951288348658
 31
0
  0
LINE
  8
0
 62
7
 10
0.5571807460073028
 20
8.299999999999997
 30
0
 11
0.7400000000000002
 21
8.482819253992695
 31
0
  0
LINE
  8
0
 62
7
 10
0.5
 20
10.68233764908628
 30
0
 11
0.6676623509137176
 21
10.85
 31
0
  0
LINE
  8
0
 62
7
 10
0.5
 20
10.47020561473031
 30
0
 11
0.7400000000000007
 21
10.71020561473031
 31
0
  0
LINE
  8
0
 62
7
 10
0.5
 20
10.25807358037435
 30
0
 11
0.7400000000000007
 21
10.49807358037435
 31
0
  0
LINE
  8
0
 62
7
 10
0.5
 20
10.04594154601839
 30
0
 11
0.7400000000000007
 21
10.28594154601839
 31
0
  0
LINE
  8
0
 62
7
 10
0.5
 20
9.833809511662423
 30
0
 11
0.7400000000000007
 21
10.07380951166242
 31
0
  0
LINE
  8
0
 62
7
 10
0.5
 20
9.621677477306459
 30
0
 11
0.7400000000000007
 21
9.861677477306458
 31
0
  0
LINE
  8
0
 62
7
 10
0.5
 20
9.409545442950495
 30
0
 11
0.7400000000000007
 21
9.649545442950494
 31
0
  0
LINE
  8
0
 62
7
 10
0.5
 20
9.197413408594532
 30
0
 11
0.7400000000000007
 21
9.43741340859453
 31
0
  0
LINE
  8
0
 62
7
 10
0.5
 20
8.985281374238568
 30
0
 11
0.7400000000000007
 21
9.225281374238566
 31
0
  0
LINE
  8
0
 62
7
 10
0.5
 20
8.773149339882604
 30
0
 11
0.7400000000000007
 21
9.013149339882602
 31
0
  0
LINE
  8
0
 62
7
 10
0.5
 20
8.56101730552664
 30
0
 11
0.7400000000000007
 21
8.801017305526639
 31
0
  0
LINE
  8
0
 62
7
 10
0.5
 20
8.348885271170676
 30
0
 11
0.7400000000000007
 21
8.588885271170675
 31
0
  0
LINE
  8
0
 62
7
 10
0.6632467631852861
 20
8.299999999999997
 30
0
 11
0.7400000000000007
 21
8.376753236814711
 31
0
  0
ENDBLK
  8
0
  0
BLOCK
  8
0
  2
*X6
 70
1
 10
0
 20
0
 30
0
  0
LINE
  8
0
 62
7
 10
0.4999999999999991
 20
8.030687219636729
 30
0
 11
0.5693127803632656
 21
8.099999999999996
 31
0
  0
LINE
  8
0
 62
7
 10
0.6314448147192295
 20
7.949999999999995
 30
0
 11
0.7399999999999989
 21
8.058555185280763
 31
0
  0
LINE
  8
0
 62
7
 10
0.5253787975412476
 20
7.949999999999996
 30
0
 11
0.6753787975412489
 21
8.099999999999998
 31
0
  0
LINE
  8
0
 62
7
 10
0.7375108318972119
 20
7.949999999999996
 30
0
 11
0.7400000000000002
 21
7.952489168102783
 31
0
  0
ENDBLK
  8
0
  0
BLOCK
  8
0
  2
*X7
 70
1
 10
0
 20
0
 30
0
  0
LINE
  8
0
 62
7
  6
DASHED
 10
4.714999999999998
 20
10.97289501350094
 30
0
 11
4.792104986499063
 21
11.05
 31
0
  0
LINE
  8
0
 62
7
  6
DASHED
 10
4.804237020855025
 20
10.85
 30
0
 11
5.004237020855027
 21
11.05
 31
0
  0
LINE
  8
0
 62
7
  6
DASHED
 10
5.016369055210989
 20
10.85
 30
0
 11
5.216369055210991
 21
11.05
 31
0
  0
LINE
  8
0
 62
7
  6
DASHED
 10
5.228501089566953
 20
10.85
 30
0
 11
5.428501089566955
 21
11.05
 31
0
  0
LINE
  8
0
 62
7
  6
DASHED
 10
5.440633123922916
 20
10.85
 30
0
 11
5.640633123922918
 21
11.05
 31
0
  0
LINE
  8
0
 62
7
  6
DASHED
 10
5.65276515827888
 20
10.85
 30
0
 11
5.852765158278882
 21
11.05
 31
0
  0
LINE
  8
0
 62
7
  6
DASHED
 10
5.864897192634844
 20
10.85
 30
0
 11
6.064897192634846
 21
11.05
 31
0
  0
LINE
  8
0
 62
7
  6
DASHED
 10
6.077029226990808
 20
10.85
 30
0
 11
6.27702922699081
 21
11.05
 31
0
  0
LINE
  8
0
 62
7
  6
DASHED
 10
6.289161261346772
 20
10.85
 30
0
 11
6.489161261346774
 21
11.05
 31
0
  0
LINE
  8
0
 62
7
  6
DASHED
 10
6.501293295702736
 20
10.85
 30
0
 11
6.701293295702738
 21
11.05
 31
0
  0
LINE
  8
0
 62
7
  6
DASHED
 10
6.713425330058699
 20
10.85
 30
0
 11
6.913425330058701
 21
11.05
 31
0
  0
LINE
  8
0
 62
7
  6
DASHED
 10
6.925557364414663
 20
10.85
 30
0
 11
7.125557364414665
 21
11.05
 31
0
  0
LINE
  8
0
 62
7
  6
DASHED
 10
7.137689398770627
 20
10.85
 30
0
 11
7.337689398770629
 21
11.05
 31
0
  0
LINE
  8
0
 62
7
  6
DASHED
 10
7.349821433126591
 20
10.85
 30
0
 11
7.549821433126593
 21
11.05
 31
0
  0
LINE
  8
0
 62
7
  6
DASHED
 10
7.561953467482555
 20
10.85
 30
0
 11
7.75
 21
11.03804653251744
 31
0
  0
LINE
  8
0
 62
7
 10
4.714999999999998
 20
10.86682899632296
 30
0
 11
4.898171003677042
 21
11.05
 31
0
  0
LINE
  8
0
 62
7
 10
4.910303038033008
 20
10.85
 30
0
 11
5.110303038033006
 21
11.05
 31
0
  0
LINE
  8
0
 62
7
 10
5.122435072388972
 20
10.85
 30
0
 11
5.32243507238897
 21
11.05
 31
0
  0
LINE
  8
0
 62
7
 10
5.334567106744935
 20
10.85
 30
0
 11
5.534567106744934
 21
11.05
 31
0
  0
LINE
  8
0
 62
7
 10
5.546699141100899
 20
10.85
 30
0
 11
5.746699141100898
 21
11.05
 31
0
  0
LINE
  8
0
 62
7
 10
5.758831175456863
 20
10.85
 30
0
 11
5.958831175456861
 21
11.05
 31
0
  0
LINE
  8
0
 62
7
 10
5.970963209812827
 20
10.85
 30
0
 11
6.170963209812825
 21
11.05
 31
0
  0
LINE
  8
0
 62
7
 10
6.183095244168791
 20
10.85
 30
0
 11
6.383095244168789
 21
11.05
 31
0
  0
LINE
  8
0
 62
7
 10
6.395227278524755
 20
10.85
 30
0
 11
6.595227278524753
 21
11.05
 31
0
  0
LINE
  8
0
 62
7
 10
6.607359312880718
 20
10.85
 30
0
 11
6.807359312880717
 21
11.05
 31
0
  0
LINE
  8
0
 62
7
 10
6.819491347236682
 20
10.85
 30
0
 11
7.019491347236681
 21
11.05
 31
0
  0
LINE
  8
0
 62
7
 10
7.031623381592646
 20
10.85
 30
0
 11
7.231623381592645
 21
11.05
 31
0
  0
LINE
  8
0
 62
7
 10
7.24375541594861
 20
10.85
 30
0
 11
7.443755415948608
 21
11.05
 31
0
  0
LINE
  8
0
 62
7
 10
7.455887450304574
 20
10.85
 30
0
 11
7.655887450304572
 21
11.05
 31
0
  0
LINE
  8
0
 62
7
 10
7.668019484660538
 20
10.85
 30
0
 11
7.749999999999999
 21
10.93198051533946
 31
0
  0
ENDBLK
  8
0
  0
BLOCK
  8
0
  2
*X8
 70
1
 10
0
 20
0
 30
0
  0
LINE
  8
0
 62
7
  6
DASHED
 10
4.714999999999999
 20
8.215178566873409
 30
0
 11
4.799821433126593
 21
8.299999999999995
 31
0
  0
LINE
  8
0
 62
7
  6
DASHED
 10
4.811953467482557
 20
8.099999999999996
 30
0
 11
5.011953467482557
 21
8.299999999999995
 31
0
  0
LINE
  8
0
 62
7
  6
DASHED
 10
5.02408550183852
 20
8.099999999999996
 30
0
 11
5.224085501838521
 21
8.299999999999995
 31
0
  0
LINE
  8
0
 62
7
  6
DASHED
 10
5.236217536194484
 20
8.099999999999996
 30
0
 11
5.436217536194484
 21
8.299999999999995
 31
0
  0
LINE
  8
0
 62
7
  6
DASHED
 10
5.448349570550448
 20
8.099999999999996
 30
0
 11
5.648349570550448
 21
8.299999999999995
 31
0
  0
LINE
  8
0
 62
7
  6
DASHED
 10
5.660481604906412
 20
8.099999999999996
 30
0
 11
5.860481604906412
 21
8.299999999999995
 31
0
  0
LINE
  8
0
 62
7
  6
DASHED
 10
5.872613639262376
 20
8.099999999999996
 30
0
 11
6.072613639262376
 21
8.299999999999995
 31
0
  0
LINE
  8
0
 62
7
  6
DASHED
 10
6.08474567361834
 20
8.099999999999996
 30
0
 11
6.28474567361834
 21
8.299999999999995
 31
0
  0
LINE
  8
0
 62
7
  6
DASHED
 10
6.296877707974303
 20
8.099999999999996
 30
0
 11
6.496877707974304
 21
8.299999999999995
 31
0
  0
LINE
  8
0
 62
7
  6
DASHED
 10
6.509009742330267
 20
8.099999999999996
 30
0
 11
6.709009742330267
 21
8.299999999999995
 31
0
  0
LINE
  8
0
 62
7
  6
DASHED
 10
6.721141776686231
 20
8.099999999999996
 30
0
 11
6.921141776686231
 21
8.299999999999995
 31
0
  0
LINE
  8
0
 62
7
  6
DASHED
 10
6.933273811042195
 20
8.099999999999996
 30
0
 11
7.133273811042195
 21
8.299999999999995
 31
0
  0
LINE
  8
0
 62
7
  6
DASHED
 10
7.145405845398159
 20
8.099999999999996
 30
0
 11
7.345405845398159
 21
8.299999999999995
 31
0
  0
LINE
  8
0
 62
7
  6
DASHED
 10
7.357537879754123
 20
8.099999999999996
 30
0
 11
7.557537879754123
 21
8.299999999999995
 31
0
  0
LINE
  8
0
 62
7
  6
DASHED
 10
7.569669914110086
 20
8.099999999999996
 30
0
 11
7.749999999999998
 21
8.280330085889908
 31
0
  0
LINE
  8
0
 62
7
 10
4.714999999999998
 20
8.109112549695425
 30
0
 11
4.905887450304574
 21
8.299999999999995
 31
0
  0
LINE
  8
0
 62
7
 10
4.918019484660539
 20
8.099999999999996
 30
0
 11
5.118019484660538
 21
8.299999999999995
 31
0
  0
LINE
  8
0
 62
7
 10
5.130151519016502
 20
8.099999999999996
 30
0
 11
5.330151519016502
 21
8.299999999999995
 31
0
  0
LINE
  8
0
 62
7
 10
5.342283553372466
 20
8.099999999999996
 30
0
 11
5.542283553372465
 21
8.299999999999995
 31
0
  0
LINE
  8
0
 62
7
 10
5.55441558772843
 20
8.099999999999996
 30
0
 11
5.754415587728429
 21
8.299999999999995
 31
0
  0
LINE
  8
0
 62
7
 10
5.766547622084394
 20
8.099999999999996
 30
0
 11
5.966547622084393
 21
8.299999999999995
 31
0
  0
LINE
  8
0
 62
7
 10
5.978679656440358
 20
8.099999999999996
 30
0
 11
6.178679656440357
 21
8.299999999999995
 31
0
  0
LINE
  8
0
 62
7
 10
6.190811690796322
 20
8.099999999999996
 30
0
 11
6.390811690796321
 21
8.299999999999995
 31
0
  0
LINE
  8
0
 62
7
 10
6.402943725152285
 20
8.099999999999996
 30
0
 11
6.602943725152285
 21
8.299999999999995
 31
0
  0
LINE
  8
0
 62
7
 10
6.615075759508249
 20
8.099999999999996
 30
0
 11
6.815075759508249
 21
8.299999999999995
 31
0
  0
LINE
  8
0
 62
7
 10
6.827207793864213
 20
8.099999999999996
 30
0
 11
7.027207793864212
 21
8.299999999999995
 31
0
  0
LINE
  8
0
 62
7
 10
7.039339828220177
 20
8.099999999999996
 30
0
 11
7.239339828220176
 21
8.299999999999995
 31
0
  0
LINE
  8
0
 62
7
 10
7.251471862576141
 20
8.099999999999996
 30
0
 11
7.45147186257614
 21
8.299999999999995
 31
0
  0
LINE
  8
0
 62
7
 10
7.463603896932105
 20
8.099999999999996
 30
0
 11
7.663603896932104
 21
8.299999999999995
 31
0
  0
LINE
  8
0
 62
7
 10
7.675735931288068
 20
8.099999999999996
 30
0
 11
7.749999999999999
 21
8.174264068711926
 31
0
  0
ENDBLK
  8
0
  0
BLOCK
  8
0
  2
*X9
 70
1
 10
0
 20
0
 30
0
  0
LINE
  8
0
 62
7
 10
4.865
 20
11.12289501350094
 30
0
 11
4.942104986499055
 21
11.2
 31
0
  0
LINE
  8
0
 62
7
 10
5.004237020855022
 20
11.05
 30
0
 11
5.04
 21
11.08576297914498
 31
0
  0
LINE
  8
0
 62
7
 10
4.898171003677041
 20
11.05
 30
0
 11
5.039999999999999
 21
11.19182899632296
 31
0
  0
ENDBLK
  8
0
  0
BLOCK
  8
0
  2
*X10
 70
1
 10
0
 20
0
 30
0
  0
LINE
  8
0
 62
7
 10
4.864999999999998
 20
10.69863094478901
 30
0
 11
5.016369055210983
 21
10.85
 31
0
  0
LINE
  8
0
 62
7
 10
4.864999999999998
 20
10.48649891043305
 30
0
 11
5.039999999999999
 21
10.66149891043305
 31
0
  0
LINE
  8
0
 62
7
 10
4.864999999999998
 20
10.27436687607708
 30
0
 11
5.039999999999999
 21
10.44936687607708
 31
0
  0
LINE
  8
0
 62
7
 10
4.864999999999998
 20
10.06223484172112
 30
0
 11
5.039999999999999
 21
10.23723484172112
 31
0
  0
LINE
  8
0
 62
7
 10
4.864999999999998
 20
9.850102807365154
 30
0
 11
5.039999999999999
 21
10.02510280736515
 31
0
  0
LINE
  8
0
 62
7
 10
4.864999999999998
 20
9.63797077300919
 30
0
 11
5.039999999999999
 21
9.812970773009191
 31
0
  0
LINE
  8
0
 62
7
 10
4.864999999999998
 20
9.425838738653226
 30
0
 11
5.039999999999999
 21
9.600838738653227
 31
0
  0
LINE
  8
0
 62
7
 10
4.864999999999998
 20
9.213706704297262
 30
0
 11
5.039999999999999
 21
9.388706704297263
 31
0
  0
LINE
  8
0
 62
7
 10
4.864999999999998
 20
9.001574669941299
 30
0
 11
5.039999999999999
 21
9.176574669941299
 31
0
  0
LINE
  8
0
 62
7
 10
4.864999999999998
 20
8.789442635585335
 30
0
 11
5.039999999999999
 21
8.964442635585335
 31
0
  0
LINE
  8
0
 62
7
 10
4.864999999999998
 20
8.577310601229371
 30
0
 11
5.039999999999999
 21
8.752310601229372
 31
0
  0
LINE
  8
0
 62
7
 10
4.864999999999998
 20
8.365178566873407
 30
0
 11
5.039999999999999
 21
8.540178566873408
 31
0
  0
LINE
  8
0
 62
7
 10
5.011953467482551
 20
8.299999999999995
 30
0
 11
5.039999999999999
 21
8.328046532517444
 31
0
  0
LINE
  8
0
 62
7
 10
4.864999999999999
 20
10.80469696196699
 30
0
 11
4.910303038033002
 21
10.85
 31
0
  0
LINE
  8
0
 62
7
 10
4.864999999999999
 20
10.59256492761103
 30
0
 11
5.040000000000001
 21
10.76756492761103
 31
0
  0
LINE
  8
0
 62
7
 10
4.864999999999999
 20
10.38043289325507
 30
0
 11
5.040000000000001
 21
10.55543289325506
 31
0
  0
LINE
  8
0
 62
7
 10
4.864999999999999
 20
10.1683008588991
 30
0
 11
5.040000000000001
 21
10.3433008588991
 31
0
  0
LINE
  8
0
 62
7
 10
4.864999999999999
 20
9.956168824543138
 30
0
 11
5.040000000000001
 21
10.13116882454314
 31
0
  0
LINE
  8
0
 62
7
 10
4.864999999999999
 20
9.744036790187174
 30
0
 11
5.040000000000001
 21
9.919036790187173
 31
0
  0
LINE
  8
0
 62
7
 10
4.864999999999999
 20
9.53190475583121
 30
0
 11
5.040000000000001
 21
9.706904755831209
 31
0
  0
LINE
  8
0
 62
7
 10
4.864999999999999
 20
9.319772721475246
 30
0
 11
5.040000000000001
 21
9.494772721475245
 31
0
  0
LINE
  8
0
 62
7
 10
4.864999999999999
 20
9.107640687119282
 30
0
 11
5.040000000000001
 21
9.282640687119281
 31
0
  0
LINE
  8
0
 62
7
 10
4.864999999999999
 20
8.895508652763318
 30
0
 11
5.040000000000001
 21
9.070508652763317
 31
0
  0
LINE
  8
0
 62
7
 10
4.864999999999999
 20
8.683376618407355
 30
0
 11
5.040000000000001
 21
8.858376618407354
 31
0
  0
LINE
  8
0
 62
7
 10
4.864999999999999
 20
8.471244584051391
 30
0
 11
5.040000000000001
 21
8.64624458405139
 31
0
  0
LINE
  8
0
 62
7
 10
4.90588745030457
 20
8.299999999999997
 30
0
 11
5.040000000000001
 21
8.434112549695426
 31
0
  0
ENDBLK
  8
0
  0
BLOCK
  8
0
  2
*X11
 70
1
 10
0
 20
0
 30
0
  0
LINE
  8
0
 62
7
 10
4.874085501838516
 20
7.949999999999996
 30
0
 11
5.024085501838516
 21
8.099999999999996
 31
0
  0
LINE
  8
0
 62
7
 10
4.864999999999998
 20
8.04698051533946
 30
0
 11
4.918019484660534
 21
8.099999999999996
 31
0
  0
LINE
  8
0
 62
7
 10
4.980151519016497
 20
7.949999999999995
 30
0
 11
5.039999999999999
 21
8.009848480983498
 31
0
  0
ENDBLK
  8
0
  0
BLOCK
  8
0
  2
*X12
 70
1
 10
0
 20
0
 30
0
  0
LINE
  8
0
 62
7
 10
7.424999999999998
 20
11.13731060122937
 30
0
 11
7.487689398770626
 21
11.2
 31
0
  0
LINE
  8
0
 62
7
 10
7.549821433126593
 20
11.05
 30
0
 11
7.599999999999997
 21
11.10017856687341
 31
0
  0
LINE
  8
0
 62
7
 10
7.44375541594861
 20
11.05
 30
0
 11
7.593755415948609
 21
11.2
 31
0
  0
ENDBLK
  8
0
  0
BLOCK
  8
0
  2
*X13
 70
1
 10
0
 20
0
 30
0
  0
LINE
  8
0
 62
7
 10
7.424999999999999
 20
10.71304653251744
 30
0
 11
7.561953467482555
 21
10.85
 31
0
  0
LINE
  8
0
 62
7
 10
7.424999999999999
 20
10.50091449816147
 30
0
 11
7.6
 21
10.67591449816148
 31
0
  0
LINE
  8
0
 62
7
 10
7.424999999999999
 20
10.28878246380551
 30
0
 11
7.6
 21
10.46378246380551
 31
0
  0
LINE
  8
0
 62
7
 10
7.424999999999999
 20
10.07665042944955
 30
0
 11
7.6
 21
10.25165042944955
 31
0
  0
LINE
  8
0
 62
7
 10
7.424999999999999
 20
9.864518395093583
 30
0
 11
7.6
 21
10.03951839509358
 31
0
  0
LINE
  8
0
 62
7
 10
7.424999999999999
 20
9.652386360737619
 30
0
 11
7.6
 21
9.82738636073762
 31
0
  0
LINE
  8
0
 62
7
 10
7.424999999999999
 20
9.440254326381655
 30
0
 11
7.6
 21
9.615254326381656
 31
0
  0
LINE
  8
0
 62
7
 10
7.424999999999999
 20
9.228122292025692
 30
0
 11
7.6
 21
9.403122292025692
 31
0
  0
LINE
  8
0
 62
7
 10
7.424999999999999
 20
9.015990257669728
 30
0
 11
7.6
 21
9.190990257669728
 31
0
  0
LINE
  8
0
 62
7
 10
7.424999999999999
 20
8.803858223313764
 30
0
 11
7.6
 21
8.978858223313765
 31
0
  0
LINE
  8
0
 62
7
 10
7.424999999999999
 20
8.5917261889578
 30
0
 11
7.6
 21
8.766726188957801
 31
0
  0
LINE
  8
0
 62
7
 10
7.424999999999999
 20
8.379594154601836
 30
0
 11
7.6
 21
8.554594154601837
 31
0
  0
LINE
  8
0
 62
7
 10
7.557537879754123
 20
8.299999999999995
 30
0
 11
7.6
 21
8.342462120245873
 31
0
  0
LINE
  8
0
 62
7
 10
7.425
 20
10.81911254969542
 30
0
 11
7.455887450304571
 21
10.85
 31
0
  0
LINE
  8
0
 62
7
 10
7.425
 20
10.60698051533946
 30
0
 11
7.600000000000001
 21
10.78198051533946
 31
0
  0
LINE
  8
0
 62
7
 10
7.425
 20
10.39484848098349
 30
0
 11
7.600000000000001
 21
10.56984848098349
 31
0
  0
LINE
  8
0
 62
7
 10
7.425
 20
10.18271644662753
 30
0
 11
7.600000000000001
 21
10.35771644662753
 31
0
  0
LINE
  8
0
 62
7
 10
7.425
 20
9.970584412271567
 30
0
 11
7.600000000000001
 21
10.14558441227157
 31
0
  0
LINE
  8
0
 62
7
 10
7.425
 20
9.758452377915603
 30
0
 11
7.600000000000001
 21
9.933452377915602
 31
0
  0
LINE
  8
0
 62
7
 10
7.425
 20
9.546320343559639
 30
0
 11
7.600000000000001
 21
9.721320343559638
 31
0
  0
LINE
  8
0
 62
7
 10
7.425
 20
9.334188309203675
 30
0
 11
7.600000000000001
 21
9.509188309203674
 31
0
  0
LINE
  8
0
 62
7
 10
7.425
 20
9.122056274847711
 30
0
 11
7.600000000000001
 21
9.29705627484771
 31
0
  0
LINE
  8
0
 62
7
 10
7.425
 20
8.909924240491748
 30
0
 11
7.600000000000001
 21
9.084924240491747
 31
0
  0
LINE
  8
0
 62
7
 10
7.425
 20
8.697792206135784
 30
0
 11
7.600000000000001
 21
8.872792206135783
 31
0
  0
LINE
  8
0
 62
7
 10
7.425
 20
8.48566017177982
 30
0
 11
7.600000000000001
 21
8.660660171779819
 31
0
  0
LINE
  8
0
 62
7
 10
7.451471862576141
 20
8.299999999999997
 30
0
 11
7.600000000000001
 21
8.448528137423855
 31
0
  0
ENDBLK
  8
0
  0
BLOCK
  8
0
  2
*X14
 70
1
 10
0
 20
0
 30
0
  0
LINE
  8
0
 62
7
 10
7.424999999999999
 20
7.955330085889909
 30
0
 11
7.569669914110086
 21
8.099999999999996
 31
0
  0
LINE
  8
0
 62
7
 10
7.424999999999999
 20
8.06139610306789
 30
0
 11
7.463603896932104
 21
8.099999999999994
 31
0
  0
LINE
  8
0
 62
7
 10
7.525735931288069
 20
7.949999999999995
 30
0
 11
7.599999999999999
 21
8.024264068711926
 31
0
  0
ENDBLK
  8
0
  0
BLOCK
  8
0
  2
*X15
 70
1
 10
0
 20
0
 30
0
  0
LINE
  8
0
 62
7
 10
4.864999999999998
 20
5.819594154601836
 30
0
 11
4.895405845398161
 21
5.85
 31
0
  0
LINE
  8
0
 62
7
 10
4.714999999999999
 20
5.669594154601837
 30
0
 11
4.745405845398161
 21
5.699999999999999
 31
0
  0
LINE
  8
0
 62
7
 10
4.717537879754132
 20
5.460000000000001
 30
0
 11
5.039999999999999
 21
5.782462120245873
 31
0
  0
LINE
  8
0
 62
7
 10
4.929669914110096
 20
5.460000000000001
 30
0
 11
5.169669914110093
 21
5.699999999999999
 31
0
  0
LINE
  8
0
 62
7
 10
5.14180194846606
 20
5.460000000000001
 30
0
 11
5.381801948466057
 21
5.699999999999999
 31
0
  0
LINE
  8
0
 62
7
 10
5.353933982822023
 20
5.460000000000001
 30
0
 11
5.593933982822021
 21
5.699999999999999
 31
0
  0
LINE
  8
0
 62
7
 10
5.566066017177987
 20
5.460000000000001
 30
0
 11
5.806066017177985
 21
5.699999999999999
 31
0
  0
LINE
  8
0
 62
7
 10
5.778198051533951
 20
5.460000000000001
 30
0
 11
6.018198051533949
 21
5.699999999999999
 31
0
  0
LINE
  8
0
 62
7
 10
5.990330085889915
 20
5.460000000000001
 30
0
 11
6.230330085889912
 21
5.699999999999999
 31
0
  0
LINE
  8
0
 62
7
 10
6.202462120245879
 20
5.460000000000001
 30
0
 11
6.442462120245876
 21
5.699999999999999
 31
0
  0
LINE
  8
0
 62
7
 10
6.414594154601843
 20
5.460000000000001
 30
0
 11
6.65459415460184
 21
5.699999999999999
 31
0
  0
LINE
  8
0
 62
7
 10
6.626726188957806
 20
5.460000000000001
 30
0
 11
6.866726188957804
 21
5.699999999999999
 31
0
  0
LINE
  8
0
 62
7
 10
6.83885822331377
 20
5.460000000000001
 30
0
 11
7.078858223313768
 21
5.699999999999999
 31
0
  0
LINE
  8
0
 62
7
 10
7.424999999999999
 20
5.834009742330265
 30
0
 11
7.440990257669732
 21
5.85
 31
0
  0
LINE
  8
0
 62
7
 10
7.050990257669734
 20
5.460000000000001
 30
0
 11
7.290990257669732
 21
5.699999999999999
 31
0
  0
LINE
  8
0
 62
7
 10
7.263122292025698
 20
5.460000000000001
 30
0
 11
7.599999999999998
 21
5.796877707974301
 31
0
  0
LINE
  8
0
 62
7
 10
7.475254326381662
 20
5.460000000000001
 30
0
 11
7.715254326381661
 21
5.7
 31
0
  0
LINE
  8
0
 62
7
 10
7.687386360737626
 20
5.460000000000001
 30
0
 11
7.765000000000001
 21
5.537613639262376
 31
0
  0
LINE
  8
0
 62
7
 10
4.864999999999998
 20
5.713528137423855
 30
0
 11
5.001471862576144
 21
5.850000000000001
 31
0
  0
LINE
  8
0
 62
7
 10
4.715
 20
5.563528137423856
 30
0
 11
4.851471862576143
 21
5.699999999999999
 31
0
  0
LINE
  8
0
 62
7
 10
4.823603896932115
 20
5.460000000000001
 30
0
 11
5.063603896932113
 21
5.7
 31
0
  0
LINE
  8
0
 62
7
 10
5.035735931288079
 20
5.460000000000001
 30
0
 11
5.275735931288077
 21
5.7
 31
0
  0
LINE
  8
0
 62
7
 10
5.247867965644042
 20
5.460000000000001
 30
0
 11
5.487867965644041
 21
5.7
 31
0
  0
LINE
  8
0
 62
7
 10
5.460000000000006
 20
5.460000000000001
 30
0
 11
5.700000000000005
 21
5.7
 31
0
  0
LINE
  8
0
 62
7
 10
5.67213203435597
 20
5.460000000000001
 30
0
 11
5.912132034355968
 21
5.7
 31
0
  0
LINE
  8
0
 62
7
 10
5.884264068711934
 20
5.460000000000001
 30
0
 11
6.124264068711932
 21
5.7
 31
0
  0
LINE
  8
0
 62
7
 10
6.096396103067898
 20
5.460000000000001
 30
0
 11
6.336396103067896
 21
5.7
 31
0
  0
LINE
  8
0
 62
7
 10
6.308528137423862
 20
5.460000000000001
 30
0
 11
6.54852813742386
 21
5.7
 31
0
  0
LINE
  8
0
 62
7
 10
6.520660171779825
 20
5.460000000000001
 30
0
 11
6.760660171779824
 21
5.7
 31
0
  0
LINE
  8
0
 62
7
 10
6.732792206135789
 20
5.460000000000001
 30
0
 11
6.972792206135788
 21
5.7
 31
0
  0
LINE
  8
0
 62
7
 10
6.944924240491753
 20
5.460000000000001
 30
0
 11
7.184924240491751
 21
5.7
 31
0
  0
LINE
  8
0
 62
7
 10
7.424999999999999
 20
5.727943725152284
 30
0
 11
7.547056274847715
 21
5.85
 31
0
  0
LINE
  8
0
 62
7
 10
7.157056274847717
 20
5.460000000000001
 30
0
 11
7.397056274847715
 21
5.7
 31
0
  0
LINE
  8
0
 62
7
 10
7.369188309203681
 20
5.460000000000001
 30
0
 11
7.609188309203678
 21
5.699999999999999
 31
0
  0
LINE
  8
0
 62
7
 10
7.581320343559645
 20
5.460000000000001
 30
0
 11
7.765000000000001
 21
5.643679656440357
 31
0
  0
ENDBLK
  8
0
  0
BLOCK
  8
0
  2
*X16
 70
1
 10
0
 20
0
 30
0
  0
LINE
  8
0
 62
7
 10
4.714999999999998
 20
5.245330085889908
 30
0
 11
4.889669914110096
 21
5.42
 31
0
  0
LINE
  8
0
 62
7
 10
4.861801948466056
 20
5.180000000000001
 30
0
 11
5.101801948466059
 21
5.42
 31
0
  0
LINE
  8
0
 62
7
 10
5.073933982822024
 20
5.18
 30
0
 11
5.313933982822023
 21
5.42
 31
0
  0
LINE
  8
0
 62
7
 10
4.864999999999998
 20
4.971066017177979
 30
0
 11
5.039999999999999
 21
5.146066017177979
 31
0
  0
LINE
  8
0
 62
7
 10
5.286066017177988
 20
5.18
 30
0
 11
5.526066017177987
 21
5.42
 31
0
  0
LINE
  8
0
 62
7
 10
4.864999999999998
 20
4.758933982822015
 30
0
 11
5.039999999999999
 21
4.933933982822015
 31
0
  0
LINE
  8
0
 62
7
 10
5.498198051533952
 20
5.18
 30
0
 11
5.738198051533951
 21
5.42
 31
0
  0
LINE
  8
0
 62
7
 10
4.864999999999998
 20
4.546801948466051
 30
0
 11
5.039999999999999
 21
4.721801948466052
 31
0
  0
LINE
  8
0
 62
7
 10
5.710330085889916
 20
5.18
 30
0
 11
5.950330085889915
 21
5.42
 31
0
  0
LINE
  8
0
 62
7
 10
4.864999999999998
 20
4.334669914110087
 30
0
 11
5.039999999999999
 21
4.509669914110088
 31
0
  0
LINE
  8
0
 62
7
 10
5.922462120245879
 20
5.18
 30
0
 11
6.162462120245879
 21
5.42
 31
0
  0
LINE
  8
0
 62
7
 10
4.864999999999998
 20
4.122537879754123
 30
0
 11
5.039999999999999
 21
4.297537879754124
 31
0
  0
LINE
  8
0
 62
7
 10
6.134594154601843
 20
5.18
 30
0
 11
6.374594154601843
 21
5.42
 31
0
  0
LINE
  8
0
 62
7
 10
4.864999999999998
 20
3.910405845398159
 30
0
 11
5.039999999999999
 21
4.08540584539816
 31
0
  0
LINE
  8
0
 62
7
 10
6.346726188957807
 20
5.18
 30
0
 11
6.586726188957806
 21
5.42
 31
0
  0
LINE
  8
0
 62
7
 10
4.864999999999998
 20
3.698273811042195
 30
0
 11
5.039999999999999
 21
3.873273811042196
 31
0
  0
LINE
  8
0
 62
7
 10
6.558858223313771
 20
5.18
 30
0
 11
6.79885822331377
 21
5.42
 31
0
  0
LINE
  8
0
 62
7
 10
4.864999999999998
 20
3.486141776686231
 30
0
 11
5.039999999999999
 21
3.661141776686232
 31
0
  0
LINE
  8
0
 62
7
 10
6.770990257669735
 20
5.18
 30
0
 11
7.010990257669734
 21
5.42
 31
0
  0
LINE
  8
0
 62
7
 10
4.864999999999998
 20
3.274009742330267
 30
0
 11
5.039999999999999
 21
3.449009742330267
 31
0
  0
LINE
  8
0
 62
7
 10
6.983122292025699
 20
5.18
 30
0
 11
7.223122292025698
 21
5.42
 31
0
  0
LINE
  8
0
 62
7
 10
7.195254326381662
 20
5.18
 30
0
 11
7.435254326381662
 21
5.42
 31
0
  0
LINE
  8
0
 62
7
 10
7.407386360737626
 20
5.18
 30
0
 11
7.647386360737626
 21
5.42
 31
0
  0
LINE
  8
0
 62
7
 10
7.61951839509359
 20
5.180000000000001
 30
0
 11
7.764999999999999
 21
5.325481604906409
 31
0
  0
LINE
  8
0
 62
7
 10
7.425
 20
4.985481604906409
 30
0
 11
7.599999999999999
 21
5.160481604906408
 31
0
  0
LINE
  8
0
 62
7
 10
7.425
 20
4.773349570550445
 30
0
 11
7.599999999999999
 21
4.948349570550444
 31
0
  0
LINE
  8
0
 62
7
 10
7.425
 20
4.561217536194481
 30
0
 11
7.599999999999999
 21
4.73621753619448
 31
0
  0
LINE
  8
0
 62
7
 10
7.425
 20
4.349085501838517
 30
0
 11
7.599999999999999
 21
4.524085501838516
 31
0
  0
LINE
  8
0
 62
7
 10
7.425
 20
4.136953467482553
 30
0
 11
7.599999999999999
 21
4.311953467482552
 31
0
  0
LINE
  8
0
 62
7
 10
7.425
 20
3.924821433126589
 30
0
 11
7.599999999999999
 21
4.099821433126588
 31
0
  0
LINE
  8
0
 62
7
 10
7.425
 20
3.712689398770625
 30
0
 11
7.599999999999999
 21
3.887689398770624
 31
0
  0
LINE
  8
0
 62
7
 10
7.425
 20
3.500557364414661
 30
0
 11
7.599999999999999
 21
3.67555736441466
 31
0
  0
LINE
  8
0
 62
7
 10
7.486574669941303
 20
3.35
 30
0
 11
7.599999999999999
 21
3.463425330058695
 31
0
  0
LINE
  8
0
 62
7
 10
4.715
 20
5.351396103067891
 30
0
 11
4.783603896932116
 21
5.420000000000002
 31
0
  0
LINE
  8
0
 62
7
 10
4.755735931288073
 20
5.18
 30
0
 11
4.995735931288079
 21
5.420000000000002
 31
0
  0
LINE
  8
0
 62
7
 10
4.864999999999998
 20
5.07713203435596
 30
0
 11
5.207867965644043
 21
5.420000000000002
 31
0
  0
LINE
  8
0
 62
7
 10
5.180000000000007
 20
5.180000000000001
 30
0
 11
5.420000000000007
 21
5.420000000000002
 31
0
  0
LINE
  8
0
 62
7
 10
4.864999999999998
 20
4.864999999999996
 30
0
 11
5.039999999999999
 21
5.039999999999997
 31
0
  0
LINE
  8
0
 62
7
 10
5.392132034355971
 20
5.180000000000001
 30
0
 11
5.632132034355971
 21
5.420000000000002
 31
0
  0
LINE
  8
0
 62
7
 10
4.864999999999998
 20
4.652867965644032
 30
0
 11
5.039999999999999
 21
4.827867965644034
 31
0
  0
LINE
  8
0
 62
7
 10
5.604264068711934
 20
5.180000000000001
 30
0
 11
5.844264068711935
 21
5.420000000000002
 31
0
  0
LINE
  8
0
 62
7
 10
4.864999999999998
 20
4.440735931288068
 30
0
 11
5.039999999999999
 21
4.61573593128807
 31
0
  0
LINE
  8
0
 62
7
 10
5.816396103067898
 20
5.180000000000001
 30
0
 11
6.056396103067899
 21
5.420000000000002
 31
0
  0
LINE
  8
0
 62
7
 10
4.864999999999998
 20
4.228603896932104
 30
0
 11
5.039999999999999
 21
4.403603896932106
 31
0
  0
LINE
  8
0
 62
7
 10
6.028528137423862
 20
5.180000000000001
 30
0
 11
6.268528137423862
 21
5.420000000000002
 31
0
  0
LINE
  8
0
 62
7
 10
4.864999999999998
 20
4.01647186257614
 30
0
 11
5.039999999999999
 21
4.191471862576142
 31
0
  0
LINE
  8
0
 62
7
 10
6.240660171779826
 20
5.180000000000001
 30
0
 11
6.480660171779826
 21
5.420000000000002
 31
0
  0
LINE
  8
0
 62
7
 10
4.864999999999998
 20
3.804339828220177
 30
0
 11
5.039999999999999
 21
3.979339828220178
 31
0
  0
LINE
  8
0
 62
7
 10
6.45279220613579
 20
5.180000000000001
 30
0
 11
6.69279220613579
 21
5.420000000000002
 31
0
  0
LINE
  8
0
 62
7
 10
4.864999999999998
 20
3.592207793864212
 30
0
 11
5.039999999999999
 21
3.767207793864214
 31
0
  0
LINE
  8
0
 62
7
 10
6.664924240491754
 20
5.180000000000001
 30
0
 11
6.904924240491754
 21
5.420000000000002
 31
0
  0
LINE
  8
0
 62
7
 10
4.864999999999998
 20
3.380075759508248
 30
0
 11
5.039999999999999
 21
3.55507575950825
 31
0
  0
LINE
  8
0
 62
7
 10
6.877056274847718
 20
5.180000000000001
 30
0
 11
7.117056274847718
 21
5.420000000000002
 31
0
  0
LINE
  8
0
 62
7
 10
4.947056274847715
 20
3.25
 30
0
 11
5.039999999999999
 21
3.342943725152285
 31
0
  0
LINE
  8
0
 62
7
 10
7.089188309203681
 20
5.180000000000001
 30
0
 11
7.329188309203682
 21
5.420000000000002
 31
0
  0
LINE
  8
0
 62
7
 10
7.301320343559645
 20
5.180000000000001
 30
0
 11
7.541320343559645
 21
5.420000000000002
 31
0
  0
LINE
  8
0
 62
7
 10
7.424999999999999
 20
5.09154762208439
 30
0
 11
7.753452377915609
 21
5.420000000000002
 31
0
  0
LINE
  8
0
 62
7
 10
7.725584412271574
 20
5.180000000000001
 30
0
 11
7.764999999999999
 21
5.219415587728427
 31
0
  0
LINE
  8
0
 62
7
 10
7.424999999999999
 20
4.879415587728426
 30
0
 11
7.599999999999998
 21
5.054415587728425
 31
0
  0
LINE
  8
0
 62
7
 10
7.424999999999999
 20
4.667283553372462
 30
0
 11
7.599999999999998
 21
4.842283553372461
 31
0
  0
LINE
  8
0
 62
7
 10
7.424999999999999
 20
4.455151519016498
 30
0
 11
7.599999999999998
 21
4.630151519016497
 31
0
  0
LINE
  8
0
 62
7
 10
7.424999999999999
 20
4.243019484660534
 30
0
 11
7.599999999999998
 21
4.418019484660533
 31
0
  0
LINE
  8
0
 62
7
 10
7.424999999999999
 20
4.03088745030457
 30
0
 11
7.599999999999998
 21
4.205887450304569
 31
0
  0
LINE
  8
0
 62
7
 10
7.424999999999999
 20
3.818755415948606
 30
0
 11
7.599999999999998
 21
3.993755415948606
 31
0
  0
LINE
  8
0
 62
7
 10
7.424999999999999
 20
3.606623381592642
 30
0
 11
7.599999999999998
 21
3.781623381592641
 31
0
  0
LINE
  8
0
 62
7
 10
7.424999999999999
 20
3.394491347236678
 30
0
 11
7.599999999999998
 21
3.569491347236677
 31
0
  0
LINE
  8
0
 62
7
 10
7.592640687119285
 20
3.35
 30
0
 11
7.599999999999998
 21
3.357359312880713
 31
0
  0
ENDBLK
  8
0
  0
BLOCK
  8
0
  2
*D0
 70
1
 10
0
 20
0
 30
0
  0
LINE
  8
0
 62
7
 10
8.00759341267811
 20
4.63080050317947
 30
0
 11
8.00759341267811
 21
5.180000000000001
 31
0
  0
LINE
  8
0
 62
7
 10
8.00759341267811
 20
3.35
 30
0
 11
8.00759341267811
 21
3.88580050317947
 31
0
  0
LINE
  8
0
 62
7
 10
7.599999999999998
 20
5.180000000000001
 30
0
 11
8.057593412678111
 21
5.180000000000001
 31
0
  0
LINE
  8
0
 62
7
 10
7.599999999999998
 20
3.35
 30
0
 11
8.057593412678111
 21
3.35
 31
0
  0
LINE
  8
0
 62
7
 10
8.042948751737438
 20
5.144644660940673
 30
0
 11
7.972238073618783
 21
5.215355339059328
 31
0
  0
LINE
  8
0
 62
7
 10
7.972238073618783
 20
3.385355339059327
 30
0
 11
8.042948751737438
 21
3.314644660940673
 31
0
  0
TEXT
  8
0
 62
7
 10
8.05259341267811
 20
4.13580050317947
 30
0
 40
0.1
  1
1,83
 50
90
 41
0.9
  0
ENDBLK
  8
0
  0
BLOCK
  8
0
  2
*D1
 70
1
 10
0
 20
0
 30
0
  0
LINE
  8
0
 62
7
 10
6.645789137426872
 20
6.109647527820371
 30
0
 11
7.424999999999999
 21
6.109647527820371
 31
0
  0
LINE
  8
0
 62
7
 10
5.039999999999999
 20
6.109647527820371
 30
0
 11
5.870789137426871
 21
6.109647527820371
 31
0
  0
LINE
  8
0
 62
7
 10
7.424999999999999
 20
5.699999999999999
 30
0
 11
7.424999999999999
 21
6.159647527820371
 31
0
  0
LINE
  8
0
 62
7
 10
5.039999999999999
 20
5.699999999999999
 30
0
 11
5.039999999999999
 21
6.159647527820371
 31
0
  0
LINE
  8
0
 62
7
 10
5.075355339059326
 20
6.145002866879699
 30
0
 11
5.004644660940672
 21
6.074292188761044
 31
0
  0
LINE
  8
0
 62
7
 10
7.389644660940672
 20
6.074292188761044
 30
0
 11
7.460355339059326
 21
6.145002866879699
 31
0
  0
TEXT
  8
0
 62
7
 10
6.120789137426871
 20
6.064647527820371
 30
0
 40
0.1
  1
2,39
 41
0.9
  0
ENDBLK
  8
0
  0
BLOCK
  8
0
  2
*D2
 70
1
 10
0
 20
0
 30
0
  0
LINE
  8
0
 62
7
 10
4.50898486217563
 20
4.52875775378982
 30
0
 11
4.50898486217563
 21
5.18
 31
0
  0
LINE
  8
0
 62
7
 10
4.50898486217563
 20
3.25
 30
0
 11
4.50898486217563
 21
3.78375775378982
 31
0
  0
LINE
  8
0
 62
7
 10
4.864999999999998
 20
5.18
 30
0
 11
4.458984862175631
 21
5.18
 31
0
  0
LINE
  8
0
 62
7
 10
4.864999999999998
 20
3.25
 30
0
 11
4.458984862175631
 21
3.25
 31
0
  0
LINE
  8
0
 62
7
 10
4.473629523116303
 20
3.285355339059327
 30
0
 11
4.544340201234958
 21
3.214644660940673
 31
0
  0
LINE
  8
0
 62
7
 10
4.544340201234958
 20
5.144644660940672
 30
0
 11
4.473629523116303
 21
5.215355339059327
 31
0
  0
TEXT
  8
0
 62
7
 10
4.55398486217563
 20
4.03375775378982
 30
0
 40
0.1
  1
1,93
 50
90
 41
0.9
  0
ENDBLK
  8
0
  0
BLOCK
  8
0
  2
*D3
 70
1
 10
0
 20
0
 30
0
  0
LINE
  8
0
 62
7
 10
6.58121160179978
 20
11.4450255673367
 30
0
 11
7.424999999999999
 21
11.4450255673367
 31
0
  0
LINE
  8
0
 62
7
 10
5.039999999999999
 20
11.4450255673367
 30
0
 11
5.906211601799781
 21
11.4450255673367
 31
0
  0
LINE
  8
0
 62
7
 10
7.424999999999999
 20
11.2
 30
0
 11
7.424999999999999
 21
11.4950255673367
 31
0
  0
LINE
  8
0
 62
7
 10
5.039999999999999
 20
11.2
 30
0
 11
5.039999999999999
 21
11.4950255673367
 31
0
  0
LINE
  8
0
 62
7
 10
7.389644660940672
 20
11.40967022827737
 30
0
 11
7.460355339059326
 21
11.48038090639603
 31
0
  0
LINE
  8
0
 62
7
 10
5.075355339059326
 20
11.48038090639603
 30
0
 11
5.004644660940672
 21
11.40967022827737
 31
0
  0
TEXT
  8
0
 62
7
 10
6.106211601799781
 20
11.4000255673367
 30
0
 40
0.1
  1
2,39
 41
0.9
  0
ENDBLK
  8
0
  0
BLOCK
  8
0
  2
*D4
 70
1
 10
0
 20
0
 30
0
  0
LINE
  8
0
 62
7
 10
8.109636162067771
 20
10.23572129208541
 30
0
 11
8.109636162067771
 21
11.05
 31
0
  0
LINE
  8
0
 62
7
 10
8.109636162067771
 20
8.299999999999997
 30
0
 11
8.109636162067771
 21
9.15572129208541
 31
0
  0
LINE
  8
0
 62
7
 10
7.749999999999998
 20
11.05
 30
0
 11
8.159636162067772
 21
11.05
 31
0
  0
LINE
  8
0
 62
7
 10
7.749999999999998
 20
8.299999999999997
 30
0
 11
8.159636162067772
 21
8.299999999999997
 31
0
  0
LINE
  8
0
 62
7
 10
8.074280823008444
 20
8.335355339059324
 30
0
 11
8.144991501127098
 21
8.26464466094067
 31
0
  0
LINE
  8
0
 62
7
 10
8.144991501127098
 20
11.01464466094067
 30
0
 11
8.074280823008444
 21
11.08535533905933
 31
0
  0
TEXT
  8
0
 62
7
 10
8.079636162067771
 20
9.558221292085411
 30
0
 40
0.1
  1
2,75
 50
90
 41
0.9
  0
TEXT
  8
0
 62
7
 10
8.239636162067772
 20
9.355721292085411
 30
0
 40
0.1
  1
(260-280)
 50
90
 41
0.9
  0
ENDBLK
  8
0
  0
ENDSEC
  0
SECTION
  2
ENTITIES
  0
INSERT
  8
0
  2
*X0
 10
0
 20
0
 30
0
  0
INSERT
  8
0
  2
*X1
 10
0
 20
0
 30
0
  0
INSERT
  8
0
  2
*X2
 10
0
 20
0
 30
0
  0
INSERT
  8
0
  2
*X3
 10
0
 20
0
 30
0
  0
INSERT
  8
0
  2
*X4
 10
0
 20
0
 30
0
  0
INSERT
  8
0
  2
*X5
 10
0
 20
0
 30
0
  0
INSERT
  8
0
  2
*X6
 10
0
 20
0
 30
0
  0
INSERT
  8
0
  2
*X7
 10
0
 20
0
 30
0
  0
INSERT
  8
0
  2
*X8
 10
0
 20
0
 30
0
  0
INSERT
  8
0
  2
*X9
 10
0
 20
0
 30
0
  0
INSERT
  8
0
  2
*X10
 10
0
 20
0
 30
0
  0
INSERT
  8
0
  2
*X11
 10
0
 20
0
 30
0
  0
INSERT
  8
0
  2
*X12
 10
0
 20
0
 30
0
  0
INSERT
  8
0
  2
*X13
 10
0
 20
0
 30
0
  0
INSERT
  8
0
  2
*X14
 10
0
 20
0
 30
0
  0
INSERT
  8
0
  2
*X15
 10
0
 20
0
 30
0
  0
INSERT
  8
0
  2
*X16
 10
0
 20
0
 30
0
  0
LINE
  8
0
 62
7
 10
7.369999999999999
 20
3.39
 30
0
 11
7.369999999999999
 21
3.69607878934291
 31
0
  0
LINE
  8
0
 62
7
 10
6.419999999999999
 20
3.61993443004392
 30
0
 11
6.419999999999999
 21
3.39
 31
0
  0
LINE
  8
0
 62
7
 10
7.369999999999999
 20
3.69607878934291
 30
0
 11
6.419999999999999
 21
3.61993443004392
 31
0
  0
LINE
  8
0
 62
7
 10
7.369999999999999
 20
3.60579015703788
 30
0
 11
7.369999999999999
 21
4.07894815161148
 31
0
  0
LINE
  8
0
 62
7
 10
6.419999999999999
 20
3.741390886941161
 30
0
 11
6.419999999999999
 21
3.529645797738901
 31
0
  0
LINE
  8
0
 62
7
 10
7.369999999999999
 20
4.07894815161148
 30
0
 11
6.419999999999999
 21
3.741390886941161
 31
0
  0
LINE
  8
0
 62
7
 10
7.369999999999999
 20
3.98343551668482
 30
0
 11
7.369999999999999
 21
4.45911322449244
 31
0
  0
LINE
  8
0
 62
7
 10
6.419999999999999
 20
3.86592683982592
 30
0
 11
6.419999999999999
 21
3.6458782520145
 31
0
  0
LINE
  8
0
 62
7
 10
7.369999999999999
 20
4.45911322449244
 30
0
 11
6.419999999999999
 21
3.86592683982592
 31
0
  0
LINE
  8
0
 62
7
 10
7.369999999999999
 20
4.353009226461531
 30
0
 11
7.369999999999999
 21
4.95736714051494
 31
0
  0
LINE
  8
0
 62
7
 10
6.419999999999999
 20
3.98816407747567
 30
0
 11
6.419999999999999
 21
3.759822841795003
 31
0
  0
LINE
  8
0
 62
7
 10
7.369999999999999
 20
4.95736714051494
 30
0
 11
6.419999999999999
 21
3.98816407747567
 31
0
  0
LINE
  8
0
 62
7
 10
7.369999999999999
 20
5.125
 30
0
 11
6.914234982456119
 21
5.125
 31
0
  0
LINE
  8
0
 62
7
 10
7.369999999999999
 20
4.828795089180051
 30
0
 11
7.369999999999999
 21
5.125
 31
0
  0
LINE
  8
0
 62
7
 10
6.419999999999999
 20
4.09550452120295
 30
0
 11
6.419999999999999
 21
3.85959202614078
 31
0
  0
LINE
  8
0
 62
7
 10
6.914234982456119
 20
5.125
 30
0
 11
6.419999999999999
 21
4.09550452120295
 31
0
  0
LINE
  8
0
 62
7
 10
6.35754604992816
 20
4.198609120495241
 30
0
 11
6.423206646955887
 21
4.102183992831553
 31
0
  0
LINE
  8
0
 62
7
 10
7.014068958615889
 20
5.125
 30
0
 11
6.471961124781989
 21
5.125
 31
0
  0
LINE
  8
0
 62
7
 10
6.471961124781989
 20
5.125
 30
0
 11
6.35754604992816
 21
4.198609120495241
 31
0
  0
LINE
  8
0
 62
7
 10
6.163539411937308
 20
4.17500000000002
 30
0
 11
6.373622657598558
 21
4.17500000000002
 31
0
  0
LINE
  8
0
 62
7
 10
6.56264494778301
 20
5.125
 30
0
 11
6.150847963381608
 21
5.125
 31
0
  0
LINE
  8
0
 62
7
 10
6.150847963381608
 20
5.125
 30
0
 11
6.163539411937308
 21
4.17500000000002
 31
0
  0
LINE
  8
0
 62
7
 10
6.240855994357357
 20
5.125
 30
0
 11
5.753959700424838
 21
5.125
 31
0
  0
LINE
  8
0
 62
7
 10
6.045554164318787
 20
4.175
 30
0
 11
6.25354744291305
 21
4.175
 31
0
  0
LINE
  8
0
 62
7
 10
5.753959700424838
 20
5.125
 30
0
 11
6.045554164318787
 21
4.175
 31
0
  0
LINE
  8
0
 62
7
 10
5.985030450541268
 20
4.052717832392051
 30
0
 11
6.100668229540617
 21
4.175000000000001
 31
0
  0
LINE
  8
0
 62
7
 10
5.848103878085478
 20
5.125
 30
0
 11
5.276964085717228
 21
5.125
 31
0
  0
LINE
  8
0
 62
7
 10
5.276964085717228
 20
5.125
 30
0
 11
5.985030450541268
 21
4.052717832392051
 31
0
  0
LINE
  8
0
 62
7
 10
6.044999999999999
 20
3.89644310646161
 30
0
 11
6.044999999999999
 21
4.116133150134601
 31
0
  0
LINE
  8
0
 62
7
 10
5.094999999999999
 20
5.125
 30
0
 11
5.094999999999999
 21
4.658285702029852
 31
0
  0
LINE
  8
0
 62
7
 10
5.38481561284603
 20
5.125
 30
0
 11
5.094999999999999
 21
5.125
 31
0
  0
LINE
  8
0
 62
7
 10
5.094999999999999
 20
4.658285702029852
 30
0
 11
6.044999999999999
 21
3.89644310646161
 31
0
  0
LINE
  8
0
 62
7
 10
5.094999999999999
 20
4.773651066652351
 30
0
 11
5.094999999999999
 21
4.24307059428664
 31
0
  0
LINE
  8
0
 62
7
 10
6.044999999999999
 20
3.78974844730653
 30
0
 11
6.044999999999999
 21
4.011808471084109
 31
0
  0
LINE
  8
0
 62
7
 10
5.094999999999999
 20
4.24307059428664
 30
0
 11
6.044999999999999
 21
3.78974844730653
 31
0
  0
LINE
  8
0
 62
7
 10
5.094999999999999
 20
4.342792133723361
 30
0
 11
5.094999999999999
 21
3.85223733095514
 31
0
  0
LINE
  8
0
 62
7
 10
6.044999999999999
 20
3.677271829238161
 30
0
 11
6.044999999999999
 21
3.889469986743251
 31
0
  0
LINE
  8
0
 62
7
 10
5.094999999999999
 20
3.85223733095514
 30
0
 11
6.044999999999999
 21
3.677271829238161
 31
0
  0
LINE
  8
0
 62
7
 10
5.094999999999999
 20
3.943751008282401
 30
0
 11
5.094999999999999
 21
3.51
 31
0
  0
LINE
  8
0
 62
7
 10
6.044999999999999
 20
3.51
 30
0
 11
6.044999999999999
 21
3.768785506565421
 31
0
  0
LINE
  8
0
 62
7
 10
5.094999999999999
 20
3.51
 30
0
 11
6.044999999999999
 21
3.51
 31
0
  0
LINE
  8
0
 62
7
 10
5.094999999999999
 20
3.6
 30
0
 11
5.094999999999999
 21
3.25
 31
0
  0
LINE
  8
0
 62
7
 10
6.044999999999999
 20
3.25
 30
0
 11
6.044999999999999
 21
3.6
 31
0
  0
LINE
  8
0
 62
7
 10
5.094999999999999
 20
3.25
 30
0
 11
6.044999999999999
 21
3.25
 31
0
  0
LINE
  8
0
 62
7
 10
6.923480751115417
 20
4.174999951724891
 30
0
 11
6.923480751115417
 21
3.4
 31
0
  0
LINE
  8
0
 62
7
 10
7.029135850377118
 20
3.461
 30
0
 11
6.923480751115417
 21
3.4
 31
0
  0
LINE
  8
0
 62
7
 10
6.817825651853719
 20
3.461
 30
0
 11
7.029135850377118
 21
3.461
 31
0
  0
LINE
  8
0
 62
7
 10
6.923480751115417
 20
3.4
 30
0
 11
6.817825651853719
 21
3.461
 31
0
  0
LINE
  8
0
 62
7
 10
6.045000048275778
 20
4.678480751115422
 30
0
 11
6.419999951737437
 21
4.678480751115422
 31
0
  0
LINE
  8
0
 62
7
 10
5.541519248884578
 20
3.25
 30
0
 11
5.541519248884578
 21
4.1749999517476
 31
0
  0
LINE
  8
0
 62
7
 10
2.223921090000002
 20
10.96666666666666
 30
0
 11
2.529999589999998
 21
10.96666666666666
 31
0
  0
LINE
  8
0
 62
7
 10
2.529999589999998
 20
10.90166666666666
 30
0
 11
2.223921090000002
 21
10.90166666666666
 31
0
  0
LINE
  8
0
 62
7
 10
2.529999589999998
 20
10.96666666666666
 30
0
 11
2.529999589999998
 21
10.90166666666666
 31
0
  0
LINE
  8
0
 62
7
 10
2.223921090000002
 20
10.90166666666666
 30
0
 11
2.223921090000002
 21
10.96666666666666
 31
0
  0
LINE
  8
0
 62
7
 10
2.390354079999997
 20
10.71833322666666
 30
0
 11
1.841051720000002
 21
10.71833322666666
 31
0
  0
LINE
  8
0
 62
7
 10
1.841051720000002
 20
10.78333322666666
 30
0
 11
2.390354079999997
 21
10.78333322666666
 31
0
  0
LINE
  8
0
 62
7
 10
2.390354079999997
 20
10.78333322666666
 30
0
 11
2.390354079999997
 21
10.71833322666666
 31
0
  0
LINE
  8
0
 62
7
 10
1.841051720000002
 20
10.71833322666666
 30
0
 11
1.841051720000002
 21
10.78333322666666
 31
0
  0
LINE
  8
0
 62
7
 10
2.274121590000008
 20
10.53499994666666
 30
0
 11
1.460886690000003
 21
10.53499994666666
 31
0
  0
LINE
  8
0
 62
7
 10
1.460886690000003
 20
10.59999994666666
 30
0
 11
2.274121590000008
 21
10.59999994666666
 31
0
  0
LINE
  8
0
 62
7
 10
2.274121590000008
 20
10.59999994666666
 30
0
 11
2.274121590000008
 21
10.53499994666666
 31
0
  0
LINE
  8
0
 62
7
 10
1.460886690000003
 20
10.53499994666666
 30
0
 11
1.460886690000003
 21
10.59999994666666
 31
0
  0
LINE
  8
0
 62
7
 10
2.160177010000003
 20
10.35166666666666
 30
0
 11
0.962632450000001
 21
10.35166666666666
 31
0
  0
LINE
  8
0
 62
7
 10
0.962632450000001
 20
10.41666666666666
 30
0
 11
2.160177010000003
 21
10.41666666666666
 31
0
  0
LINE
  8
0
 62
7
 10
2.160177010000003
 20
10.41666666666666
 30
0
 11
2.160177010000003
 21
10.35166666666666
 31
0
  0
LINE
  8
0
 62
7
 10
0.962632450000001
 20
10.35166666666666
 30
0
 11
0.962632450000001
 21
10.41666666666666
 31
0
  0
LINE
  8
0
 62
7
 10
2.060407800000001
 20
10.16833322666666
 30
0
 11
0.7950003100000015
 21
10.16833322666666
 31
0
  0
LINE
  8
0
 62
7
 10
0.7950003100000015
 20
10.23333322666666
 30
0
 11
2.060407800000001
 21
10.23333322666666
 31
0
  0
LINE
  8
0
 62
7
 10
2.060407800000001
 20
10.23333322666666
 30
0
 11
2.060407800000001
 21
10.16833322666666
 31
0
  0
LINE
  8
0
 62
7
 10
0.7950003100000015
 20
10.16833322666666
 30
0
 11
0.7950003100000015
 21
10.23333322666666
 31
0
  0
LINE
  8
0
 62
7
 10
0.7950000000000018
 20
10.04999994666666
 30
0
 11
1.817815790000002
 21
10.04999994666666
 31
0
  0
LINE
  8
0
 62
7
 10
1.817815790000002
 20
9.984999946666663
 30
0
 11
0.7950000000000018
 21
9.984999946666663
 31
0
  0
LINE
  8
0
 62
7
 10
1.817815790000002
 20
10.04999994666666
 30
0
 11
1.817815790000002
 21
9.984999946666663
 31
0
  0
LINE
  8
0
 62
7
 10
0.7950000000000018
 20
9.984999946666663
 30
0
 11
0.7950000000000018
 21
10.04999994666666
 31
0
  0
LINE
  8
0
 62
7
 10
0.7949998500000022
 20
9.866666666666664
 30
0
 11
1.744999850000002
 21
9.866666666666664
 31
0
  0
LINE
  8
0
 62
7
 10
1.744999850000002
 20
9.866666666666664
 30
0
 11
1.744999850000002
 21
9.801666666666662
 31
0
  0
LINE
  8
0
 62
7
 10
0.7949998500000022
 20
9.801666666666662
 30
0
 11
0.7949998500000022
 21
9.866666666666664
 31
0
  0
LINE
  8
0
 62
7
 10
1.744999850000002
 20
9.801666666666662
 30
0
 11
0.7949998500000022
 21
9.801666666666662
 31
0
  0
LINE
  8
0
 62
7
 10
0.7950000000000018
 20
9.683333226666662
 30
0
 11
1.744999780000002
 21
9.683333226666662
 31
0
  0
LINE
  8
0
 62
7
 10
1.744999780000002
 20
9.683333226666662
 30
0
 11
1.744999780000002
 21
9.618333226666662
 31
0
  0
LINE
  8
0
 62
7
 10
0.7950000000000018
 20
9.618333226666662
 30
0
 11
0.7950000000000018
 21
9.683333226666662
 31
0
  0
LINE
  8
0
 62
7
 10
1.744999780000002
 20
9.618333226666662
 30
0
 11
0.7950000000000018
 21
9.618333226666662
 31
0
  0
LINE
  8
0
 62
7
 10
0.7950000000000018
 20
9.499999946666664
 30
0
 11
1.867281800000001
 21
9.499999946666664
 31
0
  0
LINE
  8
0
 62
7
 10
1.867281800000001
 20
9.434999946666663
 30
0
 11
0.7950000000000018
 21
9.434999946666663
 31
0
  0
LINE
  8
0
 62
7
 10
1.867281800000001
 20
9.499999946666664
 30
0
 11
1.867281800000001
 21
9.434999946666663
 31
0
  0
LINE
  8
0
 62
7
 10
0.7950000000000018
 20
9.434999946666663
 30
0
 11
0.7950000000000018
 21
9.499999946666664
 31
0
  0
LINE
  8
0
 62
7
 10
2.023556290000002
 20
9.251666586666662
 30
0
 11
0.7950000000000018
 21
9.251666586666662
 31
0
  0
LINE
  8
0
 62
7
 10
0.7950000000000018
 20
9.316666586666662
 30
0
 11
2.023556290000002
 21
9.316666586666662
 31
0
  0
LINE
  8
0
 62
7
 10
2.023556290000002
 20
9.316666586666662
 30
0
 11
2.023556290000002
 21
9.251666586666662
 31
0
  0
LINE
  8
0
 62
7
 10
0.7950000000000018
 20
9.251666586666662
 30
0
 11
0.7950000000000018
 21
9.316666586666662
 31
0
  0
LINE
  8
0
 62
7
 10
2.130251470000001
 20
9.068333226666661
 30
0
 11
1.146348880000001
 21
9.068333226666661
 31
0
  0
LINE
  8
0
 62
7
 10
1.146348880000001
 20
9.133333226666661
 30
0
 11
2.130251470000001
 21
9.133333226666661
 31
0
  0
LINE
  8
0
 62
7
 10
2.130251470000001
 20
9.133333226666661
 30
0
 11
2.130251470000001
 21
9.068333226666661
 31
0
  0
LINE
  8
0
 62
7
 10
1.146348880000001
 20
9.068333226666661
 30
0
 11
1.146348880000001
 21
9.133333226666661
 31
0
  0
LINE
  8
0
 62
7
 10
2.242728050000002
 20
8.884999906666662
 30
0
 11
1.577207650000002
 21
8.884999906666662
 31
0
  0
LINE
  8
0
 62
7
 10
1.577207650000002
 20
8.949999906666664
 30
0
 11
2.242728050000002
 21
8.949999906666664
 31
0
  0
LINE
  8
0
 62
7
 10
2.242728050000002
 20
8.949999906666664
 30
0
 11
2.242728050000002
 21
8.884999906666662
 31
0
  0
LINE
  8
0
 62
7
 10
1.577207650000002
 20
8.884999906666662
 30
0
 11
1.577207650000002
 21
8.949999906666664
 31
0
  0
LINE
  8
0
 62
7
 10
1.976248710000002
 20
8.766666566666663
 30
0
 11
2.409999780000007
 21
8.766666566666663
 31
0
  0
LINE
  8
0
 62
7
 10
2.409999780000007
 20
8.701666566666661
 30
0
 11
1.976248710000002
 21
8.701666566666661
 31
0
  0
LINE
  8
0
 62
7
 10
2.409999780000007
 20
8.766666566666663
 30
0
 11
2.409999780000007
 21
8.701666566666661
 31
0
  0
LINE
  8
0
 62
7
 10
1.976248710000002
 20
8.701666566666661
 30
0
 11
1.976248710000002
 21
8.766666566666663
 31
0
  0
LINE
  8
0
 62
7
 10
2.319999700000008
 20
8.58333322666666
 30
0
 11
2.669999760000008
 21
8.58333322666666
 31
0
  0
LINE
  8
0
 62
7
 10
2.669999760000008
 20
8.58333322666666
 30
0
 11
2.669999760000008
 21
8.518333226666661
 31
0
  0
LINE
  8
0
 62
7
 10
2.319999700000008
 20
8.518333226666661
 30
0
 11
2.319999700000008
 21
8.58333322666666
 31
0
  0
LINE
  8
0
 62
7
 10
2.669999760000008
 20
8.518333226666661
 30
0
 11
2.319999700000008
 21
8.518333226666661
 31
0
  0
LINE
  8
0
 62
7
  6
DASHED
 10
6.42000016
 20
10.96666666666666
 30
0
 11
7.369999999999999
 21
10.96666666666666
 31
0
  0
LINE
  8
0
 62
7
  6
DASHED
 10
6.42000016
 20
10.90166666666666
 30
0
 11
6.42000016
 21
10.96666666666666
 31
0
  0
LINE
  8
0
 62
7
  6
DASHED
 10
7.369999999999999
 20
10.96666666666666
 30
0
 11
7.369999999999999
 21
10.90166666666666
 31
0
  0
LINE
  8
0
 62
7
  6
DASHED
 10
7.369999999999999
 20
10.90166666666666
 30
0
 11
6.42000016
 21
10.90166666666666
 31
0
  0
LINE
  8
0
 62
7
 10
6.419999699999998
 20
10.78333322666666
 30
0
 11
7.369999999999999
 21
10.78333322666666
 31
0
  0
LINE
  8
0
 62
7
 10
6.419999699999998
 20
10.71833322666666
 30
0
 11
6.419999699999998
 21
10.78333322666666
 31
0
  0
LINE
  8
0
 62
7
 10
7.369999999999999
 20
10.78333322666666
 30
0
 11
7.369999999999999
 21
10.71833322666666
 31
0
  0
LINE
  8
0
 62
7
 10
7.369999999999999
 20
10.71833322666666
 30
0
 11
6.419999699999998
 21
10.71833322666666
 31
0
  0
LINE
  8
0
 62
7
 10
6.419999849999996
 20
10.59999994666666
 30
0
 11
7.370000309999998
 21
10.59999994666666
 31
0
  0
LINE
  8
0
 62
7
 10
6.419999849999996
 20
10.53499994666666
 30
0
 11
6.419999849999996
 21
10.59999994666666
 31
0
  0
LINE
  8
0
 62
7
 10
7.370000309999998
 20
10.59999994666666
 30
0
 11
7.370000309999998
 21
10.53499994666666
 31
0
  0
LINE
  8
0
 62
7
 10
7.370000309999998
 20
10.53499994666666
 30
0
 11
6.419999849999996
 21
10.53499994666666
 31
0
  0
LINE
  8
0
 62
7
 10
6.419999999999999
 20
10.41666666666666
 30
0
 11
7.369999999999999
 21
10.41666666666666
 31
0
  0
LINE
  8
0
 62
7
 10
6.419999999999999
 20
10.35166666666666
 30
0
 11
6.419999999999999
 21
10.41666666666666
 31
0
  0
LINE
  8
0
 62
7
 10
7.369999999999999
 20
10.41666666666666
 30
0
 11
7.369999999999999
 21
10.35166666666666
 31
0
  0
LINE
  8
0
 62
7
 10
7.369999999999999
 20
10.35166666666666
 30
0
 11
6.419999999999999
 21
10.35166666666666
 31
0
  0
LINE
  8
0
 62
7
 10
6.419999999999999
 20
10.23333322666666
 30
0
 11
7.369999999999999
 21
10.23333322666666
 31
0
  0
LINE
  8
0
 62
7
 10
7.369999999999999
 20
10.16833322666666
 30
0
 11
6.419999999999999
 21
10.16833322666666
 31
0
  0
LINE
  8
0
 62
7
 10
6.419999999999999
 20
10.16833322666666
 30
0
 11
6.419999999999999
 21
10.23333322666666
 31
0
  0
LINE
  8
0
 62
7
 10
7.369999999999999
 20
10.23333322666666
 30
0
 11
7.369999999999999
 21
10.16833322666666
 31
0
  0
LINE
  8
0
 62
7
 10
7.01406876
 20
9.984999946666662
 30
0
 11
6.357546089999996
 21
9.984999946666662
 31
0
  0
LINE
  8
0
 62
7
 10
6.357546089999996
 20
10.04999994666666
 30
0
 11
7.01406876
 21
10.04999994666666
 31
0
  0
LINE
  8
0
 62
7
 10
6.357546089999996
 20
9.984999946666662
 30
0
 11
6.357546089999996
 21
10.04999994666666
 31
0
  0
LINE
  8
0
 62
7
 10
7.01406876
 20
10.04999994666666
 30
0
 11
7.01406876
 21
9.984999946666662
 31
0
  0
LINE
  8
0
 62
7
 10
6.562644959999997
 20
9.801666666666662
 30
0
 11
6.150848089999999
 21
9.801666666666662
 31
0
  0
LINE
  8
0
 62
7
 10
6.150848089999999
 20
9.866666666666662
 30
0
 11
6.562644959999997
 21
9.866666666666662
 31
0
  0
LINE
  8
0
 62
7
 10
6.150848089999999
 20
9.801666666666662
 30
0
 11
6.150848089999999
 21
9.866666666666662
 31
0
  0
LINE
  8
0
 62
7
 10
6.562644959999997
 20
9.866666666666662
 30
0
 11
6.562644959999997
 21
9.801666666666662
 31
0
  0
LINE
  8
0
 62
7
 10
6.253547209999997
 20
9.618333226666662
 30
0
 11
5.753959809999998
 21
9.618333226666662
 31
0
  0
LINE
  8
0
 62
7
 10
5.753959809999998
 20
9.683333226666662
 30
0
 11
6.253547209999997
 21
9.683333226666662
 31
0
  0
LINE
  8
0
 62
7
 10
5.753959809999998
 20
9.618333226666662
 30
0
 11
5.753959809999998
 21
9.683333226666662
 31
0
  0
LINE
  8
0
 62
7
 10
6.253547209999997
 20
9.683333226666662
 30
0
 11
6.253547209999997
 21
9.618333226666662
 31
0
  0
LINE
  8
0
 62
7
 10
6.100668339999997
 20
9.434999946666661
 30
0
 11
5.276964039999999
 21
9.434999946666661
 31
0
  0
LINE
  8
0
 62
7
 10
5.276964039999999
 20
9.49999994666666
 30
0
 11
6.100668339999997
 21
9.49999994666666
 31
0
  0
LINE
  8
0
 62
7
 10
5.276964039999999
 20
9.434999946666661
 30
0
 11
5.276964039999999
 21
9.49999994666666
 31
0
  0
LINE
  8
0
 62
7
 10
6.100668339999997
 20
9.49999994666666
 30
0
 11
6.100668339999997
 21
9.434999946666661
 31
0
  0
LINE
  8
0
 62
7
 10
5.094999929999997
 20
9.316666586666662
 30
0
 11
6.044999999999999
 21
9.316666586666662
 31
0
  0
LINE
  8
0
 62
7
 10
6.044999999999999
 20
9.251666586666662
 30
0
 11
5.094999929999997
 21
9.251666586666662
 31
0
  0
LINE
  8
0
 62
7
 10
5.094999929999997
 20
9.251666586666662
 30
0
 11
5.094999929999997
 21
9.316666586666662
 31
0
  0
LINE
  8
0
 62
7
 10
6.044999999999999
 20
9.316666586666662
 30
0
 11
6.044999999999999
 21
9.251666586666662
 31
0
  0
LINE
  8
0
 62
7
 10
5.094999999999999
 20
9.133333226666661
 30
0
 11
6.044999849999996
 21
9.133333226666661
 31
0
  0
LINE
  8
0
 62
7
 10
5.094999999999999
 20
9.068333226666661
 30
0
 11
5.094999999999999
 21
9.133333226666661
 31
0
  0
LINE
  8
0
 62
7
 10
6.044999849999996
 20
9.133333226666661
 30
0
 11
6.044999849999996
 21
9.068333226666661
 31
0
  0
LINE
  8
0
 62
7
 10
6.044999849999996
 20
9.068333226666661
 30
0
 11
5.094999999999999
 21
9.068333226666661
 31
0
  0
LINE
  8
0
 62
7
 10
5.094999929999997
 20
8.94999990666666
 30
0
 11
6.044999929999997
 21
8.94999990666666
 31
0
  0
LINE
  8
0
 62
7
 10
5.094999929999997
 20
8.884999906666659
 30
0
 11
5.094999929999997
 21
8.94999990666666
 31
0
  0
LINE
  8
0
 62
7
 10
6.044999929999997
 20
8.94999990666666
 30
0
 11
6.044999929999997
 21
8.884999906666659
 31
0
  0
LINE
  8
0
 62
7
 10
6.044999929999997
 20
8.884999906666659
 30
0
 11
5.094999929999997
 21
8.884999906666659
 31
0
  0
LINE
  8
0
 62
7
 10
5.094999759999996
 20
8.766666566666661
 30
0
 11
6.044999999999999
 21
8.766666566666661
 31
0
  0
LINE
  8
0
 62
7
 10
5.094999759999996
 20
8.70166656666666
 30
0
 11
5.094999759999996
 21
8.766666566666661
 31
0
  0
LINE
  8
0
 62
7
 10
6.044999999999999
 20
8.766666566666661
 30
0
 11
6.044999999999999
 21
8.70166656666666
 31
0
  0
LINE
  8
0
 62
7
 10
6.044999999999999
 20
8.70166656666666
 30
0
 11
5.094999759999996
 21
8.70166656666666
 31
0
  0
LINE
  8
0
 62
7
 10
5.094999549999997
 20
8.58333322666666
 30
0
 11
6.044999929999997
 21
8.58333322666666
 31
0
  0
LINE
  8
0
 62
7
 10
5.094999549999997
 20
8.518333226666661
 30
0
 11
5.094999549999997
 21
8.58333322666666
 31
0
  0
LINE
  8
0
 62
7
 10
6.044999929999997
 20
8.58333322666666
 30
0
 11
6.044999929999997
 21
8.518333226666661
 31
0
  0
LINE
  8
0
 62
7
 10
6.044999929999997
 20
8.518333226666661
 30
0
 11
5.094999549999997
 21
8.518333226666661
 31
0
  0
LINE
  8
0
 62
7
  6
DASHDOT
 10
7.424999999999999
 20
5.85
 30
0
 11
7.599999999999999
 21
5.85
 31
0
  0
LINE
  8
0
 62
7
  6
DASHDOT
 10
7.599999999999999
 20
5.85
 30
0
 11
7.649999999999999
 21
5.849999999999999
 31
0
  0
LINE
  8
0
 62
7
  6
DASHDOT
 10
4.714999999999999
 20
5.420000000000001
 30
0
 11
4.714999999999999
 21
5.180000000000001
 31
0
  0
LINE
  8
0
 62
7
  6
DASHDOT
 10
7.765
 20
5.420000000000001
 30
0
 11
7.765
 21
5.180000000000001
 31
0
  0
LINE
  8
0
 62
7
  6
DASHDOT
 10
4.714999999999999
 20
5.460000000000001
 30
0
 11
4.714999999999999
 21
5.420000000000001
 31
0
  0
LINE
  8
0
 62
7
  6
DASHDOT
 10
7.765
 20
5.460000000000001
 30
0
 11
7.765
 21
5.420000000000001
 31
0
  0
LINE
  8
0
 62
7
  6
DASHDOT
 10
4.714999999999999
 20
5.180000000000001
 30
0
 11
4.714999999999999
 21
5.130000000000001
 31
0
  0
LINE
  8
0
 62
7
  6
DASHDOT
 10
4.714999999999999
 20
5.699999999999999
 30
0
 11
4.714999999999999
 21
5.460000000000001
 31
0
  0
LINE
  8
0
 62
7
  6
DASHDOT
 10
5.039999999999999
 20
5.85
 30
0
 11
5.089999999999999
 21
5.849999999999999
 31
0
  0
LINE
  8
0
 62
7
  6
DASHDOT
 10
4.864999999999998
 20
5.85
 30
0
 11
5.039999999999999
 21
5.85
 31
0
  0
LINE
  8
0
 62
7
  6
DASHDOT
 10
7.765
 20
5.180000000000001
 30
0
 11
7.765
 21
5.130000000000001
 31
0
  0
LINE
  8
0
 62
7
  6
DASHDOT
 10
7.765
 20
5.699999999999999
 30
0
 11
7.765
 21
5.460000000000001
 31
0
  0
LINE
  8
0
 62
7
  6
DASHDOT
 10
7.765
 20
5.749999999999999
 30
0
 11
7.765
 21
5.699999999999999
 31
0
  0
LINE
  8
0
 62
7
  6
DASHDOT
 10
4.714999999999999
 20
5.749999999999999
 30
0
 11
4.714999999999999
 21
5.699999999999999
 31
0
  0
LINE
  8
0
 62
7
  6
DASHDOT
 10
7.374999999999999
 20
5.849999999999999
 30
0
 11
7.424999999999999
 21
5.85
 31
0
  0
LINE
  8
0
 62
7
  6
DASHDOT
 10
4.814999999999999
 20
5.849999999999999
 30
0
 11
4.864999999999998
 21
5.85
 31
0
  0
LINE
  8
0
 62
7
 10
5.039999999999999
 20
3.35
 30
0
 11
5.039999999999999
 21
3.400000000000001
 31
0
  0
LINE
  8
0
 62
7
  6
DASHDOT
 10
7.424999999999999
 20
3.35
 30
0
 11
5.039999999999999
 21
3.35
 31
0
  0
LINE
  8
0
 62
7
 10
7.424999999999999
 20
3.4
 30
0
 11
7.424999999999999
 21
3.35
 31
0
  0
LINE
  8
0
 62
7
 10
5.039999999999999
 20
3.400000000000001
 30
0
 11
5.039999999999999
 21
5.180000000000001
 31
0
  0
LINE
  8
0
 62
7
 10
7.424999999999999
 20
3.4
 30
0
 11
5.039999999999999
 21
3.400000000000001
 31
0
  0
LINE
  8
0
 62
7
 10
7.424999999999999
 20
3.35
 30
0
 11
7.599999999999999
 21
3.35
 31
0
  0
LINE
  8
0
 62
7
 10
7.599999999999999
 20
5.180000000000001
 30
0
 11
7.765
 21
5.180000000000001
 31
0
  0
LINE
  8
0
 62
7
 10
7.599999999999999
 20
3.35
 30
0
 11
7.599999999999999
 21
5.180000000000001
 31
0
  0
LINE
  8
0
 62
7
 10
7.424999999999999
 20
5.180000000000001
 30
0
 11
7.424999999999999
 21
3.4
 31
0
  0
LINE
  8
0
 62
7
 10
5.039999999999999
 20
5.180000000000001
 30
0
 11
7.424999999999999
 21
5.180000000000001
 31
0
  0
LINE
  8
0
 62
7
 10
4.864999999999998
 20
5.180000000000001
 30
0
 11
4.864999999999998
 21
3.25
 31
0
  0
LINE
  8
0
 62
7
 10
4.864999999999998
 20
3.25
 30
0
 11
5.039999999999999
 21
3.25
 31
0
  0
LINE
  8
0
 62
7
 10
5.039999999999999
 20
3.25
 30
0
 11
5.039999999999999
 21
3.35
 31
0
  0
LINE
  8
0
 62
7
 10
4.714999999999999
 20
5.180000000000001
 30
0
 11
4.864999999999998
 21
5.180000000000001
 31
0
  0
LINE
  8
0
 62
7
 10
4.714999999999999
 20
5.420000000000001
 30
0
 11
7.765
 21
5.420000000000001
 31
0
  0
LINE
  8
0
 62
7
 10
4.714999999999999
 20
5.460000000000001
 30
0
 11
7.765
 21
5.460000000000001
 31
0
  0
LINE
  8
0
 62
7
 10
7.599999999999999
 20
5.699999999999999
 30
0
 11
7.765
 21
5.699999999999999
 31
0
  0
LINE
  8
0
 62
7
 10
7.599999999999999
 20
5.85
 30
0
 11
7.599999999999999
 21
5.699999999999999
 31
0
  0
LINE
  8
0
 62
7
 10
7.424999999999999
 20
5.699999999999999
 30
0
 11
7.424999999999999
 21
5.85
 31
0
  0
LINE
  8
0
 62
7
 10
5.039999999999999
 20
5.699999999999999
 30
0
 11
7.424999999999999
 21
5.699999999999999
 31
0
  0
LINE
  8
0
 62
7
 10
5.039999999999999
 20
5.85
 30
0
 11
5.039999999999999
 21
5.699999999999999
 31
0
  0
LINE
  8
0
 62
7
 10
4.864999999999998
 20
5.699999999999999
 30
0
 11
4.864999999999998
 21
5.85
 31
0
  0
LINE
  8
0
 62
7
 10
4.714999999999999
 20
5.699999999999999
 30
0
 11
4.864999999999998
 21
5.699999999999999
 31
0
  0
LINE
  8
0
 62
7
  6
DASHED
 10
0.7399999999999992
 20
8.099999999999996
 30
0
 11
2.569999999999998
 21
8.099999999999996
 31
0
  0
LINE
  8
0
 62
7
  6
DASHED
 10
0.7400000000000001
 20
8.299999999999997
 30
0
 11
2.569999999999998
 21
8.299999999999997
 31
0
  0
LINE
  8
0
 62
7
  6
DASHED
 10
0.7400000000000001
 20
10.85
 30
0
 11
2.569999999999998
 21
10.85
 31
0
  0
LINE
  8
0
 62
7
  6
DASHED
 10
0.7400000000000001
 20
11.05
 30
0
 11
2.569999999999998
 21
11.05
 31
0
  0
LINE
  8
0
 62
7
  6
DASHDOT
 10
2.869999999999998
 20
11.05
 30
0
 11
2.869999999999998
 21
10.85
 31
0
  0
LINE
  8
0
 62
7
  6
DASHDOT
 10
2.869999999999998
 20
10.85
 30
0
 11
2.869999999999998
 21
10.8
 31
0
  0
LINE
  8
0
 62
7
  6
DASHDOT
 10
0.5
 20
11.2
 30
0
 11
0.7400000000000001
 21
11.2
 31
0
  0
LINE
  8
0
 62
7
  6
DASHDOT
 10
0.7400000000000001
 20
11.2
 30
0
 11
0.79
 21
11.2
 31
0
  0
LINE
  8
0
 62
7
  6
DASHDOT
 10
0.7400000000000001
 20
7.949999999999996
 30
0
 11
0.79
 21
7.949999999999996
 31
0
  0
LINE
  8
0
 62
7
  6
DASHDOT
 10
0.5
 20
7.949999999999996
 30
0
 11
0.7400000000000001
 21
7.949999999999996
 31
0
  0
LINE
  8
0
 62
7
  6
DASHDOT
 10
2.869999999999998
 20
8.099999999999996
 30
0
 11
2.869999999999998
 21
8.299999999999997
 31
0
  0
LINE
  8
0
 62
7
  6
DASHDOT
 10
2.869999999999998
 20
8.299999999999997
 30
0
 11
2.869999999999998
 21
8.399999999999997
 31
0
  0
LINE
  8
0
 62
7
  6
DASHDOT
 10
2.869999999999998
 20
11.15
 30
0
 11
2.869999999999998
 21
11.05
 31
0
  0
LINE
  8
0
 62
7
 10
2.569999999999998
 20
11.15
 30
0
 11
2.869999999999998
 21
11.15
 31
0
  0
LINE
  8
0
 62
7
  6
DASHDOT
 10
2.869999999999998
 20
8.399999999999997
 30
0
 11
2.869999999999998
 21
8.449999999999998
 31
0
  0
LINE
  8
0
 62
7
 10
2.569999999999998
 20
8.399999999999997
 30
0
 11
2.869999999999998
 21
8.399999999999997
 31
0
  0
LINE
  8
0
 62
7
  6
DASHDOT
 10
0.45
 20
7.949999999999996
 30
0
 11
0.5
 21
7.949999999999996
 31
0
  0
LINE
  8
0
 62
7
  6
DASHDOT
 10
2.869999999999998
 20
8.049999999999995
 30
0
 11
2.869999999999998
 21
8.099999999999996
 31
0
  0
LINE
  8
0
 62
7
  6
DASHDOT
 10
2.869999999999998
 20
11.2
 30
0
 11
2.869999999999998
 21
11.15
 31
0
  0
LINE
  8
0
 62
7
  6
DASHDOT
 10
0.45
 20
11.2
 30
0
 11
0.5
 21
11.2
 31
0
  0
LINE
  8
0
 62
7
 10
2.569999999999998
 20
8.099999999999996
 30
0
 11
2.869999999999998
 21
8.099999999999996
 31
0
  0
LINE
  8
0
 62
7
 10
2.569999999999998
 20
8.299999999999997
 30
0
 11
2.569999999999998
 21
8.099999999999996
 31
0
  0
LINE
  8
0
 62
7
 10
2.569999999999998
 20
8.299999999999997
 30
0
 11
2.869999999999998
 21
8.299999999999997
 31
0
  0
LINE
  8
0
 62
7
 10
2.569999999999998
 20
11.05
 30
0
 11
2.869999999999998
 21
11.05
 31
0
  0
LINE
  8
0
 62
7
 10
2.569999999999998
 20
10.85
 30
0
 11
2.869999999999998
 21
10.85
 31
0
  0
LINE
  8
0
 62
7
 10
2.569999999999998
 20
11.05
 30
0
 11
2.569999999999998
 21
10.85
 31
0
  0
LINE
  8
0
 62
7
 10
0.7399999999999992
 20
8.099999999999996
 30
0
 11
0.7400000000000001
 21
7.949999999999996
 31
0
  0
LINE
  8
0
 62
7
 10
0.4999999999999991
 20
8.099999999999996
 30
0
 11
0.5
 21
8.299999999999997
 31
0
  0
LINE
  8
0
 62
7
 10
0.4999999999999991
 20
8.099999999999996
 30
0
 11
0.7399999999999992
 21
8.099999999999996
 31
0
  0
LINE
  8
0
 62
7
 10
0.7400000000000001
 20
8.299999999999997
 30
0
 11
0.7399999999999992
 21
8.099999999999996
 31
0
  0
LINE
  8
0
 62
7
 10
0.5
 20
8.299999999999997
 30
0
 11
0.5
 21
10.85
 31
0
  0
LINE
  8
0
 62
7
 10
0.5
 20
8.299999999999997
 30
0
 11
0.7400000000000001
 21
8.299999999999997
 31
0
  0
LINE
  8
0
 62
7
 10
0.7400000000000001
 20
10.85
 30
0
 11
0.7400000000000001
 21
8.299999999999997
 31
0
  0
LINE
  8
0
 62
7
 10
0.5
 20
10.85
 30
0
 11
0.5
 21
11.05
 31
0
  0
LINE
  8
0
 62
7
 10
0.5
 20
10.85
 30
0
 11
0.7400000000000001
 21
10.85
 31
0
  0
LINE
  8
0
 62
7
 10
0.7400000000000001
 20
11.05
 30
0
 11
0.7400000000000001
 21
10.85
 31
0
  0
LINE
  8
0
 62
7
 10
0.5
 20
11.05
 30
0
 11
0.5
 21
11.2
 31
0
  0
LINE
  8
0
 62
7
 10
0.5
 20
11.05
 30
0
 11
0.7400000000000001
 21
11.05
 31
0
  0
LINE
  8
0
 62
7
 10
0.7400000000000001
 20
11.2
 30
0
 11
0.7400000000000001
 21
11.05
 31
0
  0
LINE
  8
0
 62
7
 10
0.5
 20
7.949999999999996
 30
0
 11
0.4999999999999991
 21
8.099999999999996
 31
0
  0
LINE
  8
0
 62
7
  6
DASHDOT
 10
4.814999999999999
 20
11.2
 30
0
 11
4.864999999999998
 21
11.2
 31
0
  0
LINE
  8
0
 62
7
  6
DASHDOT
 10
4.864999999999998
 20
11.2
 30
0
 11
5.039999999999999
 21
11.2
 31
0
  0
LINE
  8
0
 62
7
  6
DASHDOT
 10
4.714999999999999
 20
11.15
 30
0
 11
4.714999999999999
 21
11.05
 31
0
  0
LINE
  8
0
 62
7
  6
DASHDOT
 10
4.714999999999999
 20
11.05
 30
0
 11
4.714999999999999
 21
10.85
 31
0
  0
LINE
  8
0
 62
7
  6
DASHDOT
 10
7.374999999999999
 20
11.2
 30
0
 11
7.424999999999999
 21
11.2
 31
0
  0
LINE
  8
0
 62
7
  6
DASHDOT
 10
7.424999999999999
 20
11.2
 30
0
 11
7.599999999999999
 21
11.2
 31
0
  0
LINE
  8
0
 62
7
  6
DASHDOT
 10
7.749999999999999
 20
11.15
 30
0
 11
7.749999999999999
 21
11.05
 31
0
  0
LINE
  8
0
 62
7
  6
DASHDOT
 10
7.749999999999999
 20
11.05
 30
0
 11
7.749999999999999
 21
10.85
 31
0
  0
LINE
  8
0
 62
7
  6
DASHDOT
 10
7.374999999999999
 20
7.949999999999996
 30
0
 11
7.424999999999999
 21
7.949999999999996
 31
0
  0
LINE
  8
0
 62
7
  6
DASHDOT
 10
7.424999999999999
 20
7.949999999999996
 30
0
 11
7.599999999999999
 21
7.949999999999996
 31
0
  0
LINE
  8
0
 62
7
  6
DASHDOT
 10
7.749999999999999
 20
8.399999999999997
 30
0
 11
7.749999999999999
 21
8.299999999999997
 31
0
  0
LINE
  8
0
 62
7
  6
DASHDOT
 10
7.749999999999999
 20
8.299999999999997
 30
0
 11
7.749999999999999
 21
8.099999999999996
 31
0
  0
LINE
  8
0
 62
7
  6
DASHDOT
 10
4.814999999999999
 20
7.949999999999996
 30
0
 11
4.864999999999998
 21
7.949999999999996
 31
0
  0
LINE
  8
0
 62
7
  6
DASHDOT
 10
4.864999999999998
 20
7.949999999999996
 30
0
 11
5.039999999999999
 21
7.949999999999996
 31
0
  0
LINE
  8
0
 62
7
  6
DASHDOT
 10
4.714999999999999
 20
8.399999999999997
 30
0
 11
4.714999999999999
 21
8.299999999999997
 31
0
  0
LINE
  8
0
 62
7
  6
DASHDOT
 10
4.714999999999999
 20
8.299999999999997
 30
0
 11
4.714999999999999
 21
8.099999999999996
 31
0
  0
LINE
  8
0
 62
7
  6
DASHDOT
 10
4.714999999999999
 20
11.2
 30
0
 11
4.714999999999999
 21
11.15
 31
0
  0
LINE
  8
0
 62
7
 10
4.864999999999998
 20
11.2
 30
0
 11
4.864999999999998
 21
11.15
 31
0
  0
LINE
  8
0
 62
7
 10
4.714999999999999
 20
11.15
 30
0
 11
4.864999999999998
 21
11.15
 31
0
  0
LINE
  8
0
 62
7
 10
5.039999999999999
 20
11.2
 30
0
 11
5.039999999999999
 21
11.15
 31
0
  0
LINE
  8
0
 62
7
 10
7.424999999999999
 20
11.2
 30
0
 11
7.424999999999999
 21
11.15
 31
0
  0
LINE
  8
0
 62
7
 10
5.039999999999999
 20
11.15
 30
0
 11
7.424999999999999
 21
11.15
 31
0
  0
LINE
  8
0
 62
7
  6
DASHDOT
 10
7.749999999999999
 20
11.2
 30
0
 11
7.749999999999999
 21
11.15
 31
0
  0
LINE
  8
0
 62
7
 10
7.599999999999999
 20
11.2
 30
0
 11
7.599999999999999
 21
11.15
 31
0
  0
LINE
  8
0
 62
7
 10
7.599999999999999
 20
11.15
 30
0
 11
7.749999999999999
 21
11.15
 31
0
  0
LINE
  8
0
 62
7
  6
DASHDOT
 10
4.714999999999999
 20
8.449999999999998
 30
0
 11
4.714999999999999
 21
8.399999999999997
 31
0
  0
LINE
  8
0
 62
7
 10
4.864999999999998
 20
10.85
 30
0
 11
4.864999999999998
 21
8.399999999999997
 31
0
  0
LINE
  8
0
 62
7
 10
4.714999999999999
 20
8.399999999999997
 30
0
 11
4.864999999999998
 21
8.399999999999997
 31
0
  0
LINE
  8
0
 62
7
 10
5.039999999999999
 20
10.85
 30
0
 11
5.039999999999999
 21
8.399999999999997
 31
0
  0
LINE
  8
0
 62
7
 10
7.424999999999999
 20
10.85
 30
0
 11
7.424999999999999
 21
8.399999999999997
 31
0
  0
LINE
  8
0
 62
7
 10
5.039999999999999
 20
8.399999999999997
 30
0
 11
7.424999999999999
 21
8.399999999999997
 31
0
  0
LINE
  8
0
 62
7
  6
DASHDOT
 10
7.749999999999999
 20
8.449999999999998
 30
0
 11
7.749999999999999
 21
8.399999999999997
 31
0
  0
LINE
  8
0
 62
7
 10
7.599999999999999
 20
10.85
 30
0
 11
7.599999999999999
 21
8.399999999999997
 31
0
  0
LINE
  8
0
 62
7
 10
7.599999999999999
 20
8.399999999999997
 30
0
 11
7.749999999999999
 21
8.399999999999997
 31
0
  0
LINE
  8
0
 62
7
  6
DASHDOT
 10
5.039999999999999
 20
7.949999999999996
 30
0
 11
5.089999999999999
 21
7.949999999999996
 31
0
  0
LINE
  8
0
 62
7
  6
DASHDOT
 10
5.039999999999999
 20
11.2
 30
0
 11
5.089999999999999
 21
11.2
 31
0
  0
LINE
  8
0
 62
7
  6
DASHDOT
 10
7.599999999999999
 20
7.949999999999996
 30
0
 11
7.649999999999999
 21
7.949999999999996
 31
0
  0
LINE
  8
0
 62
7
  6
DASHDOT
 10
7.599999999999999
 20
11.2
 30
0
 11
7.649999999999999
 21
11.2
 31
0
  0
LINE
  8
0
 62
7
  6
DASHDOT
 10
4.714999999999999
 20
10.85
 30
0
 11
4.714999999999999
 21
10.8
 31
0
  0
LINE
  8
0
 62
7
  6
DASHDOT
 10
4.714999999999999
 20
8.099999999999996
 30
0
 11
4.714999999999999
 21
8.049999999999995
 31
0
  0
LINE
  8
0
 62
7
  6
DASHDOT
 10
7.749999999999999
 20
10.85
 30
0
 11
7.749999999999999
 21
10.8
 31
0
  0
LINE
  8
0
 62
7
  6
DASHDOT
 10
7.749999999999999
 20
8.099999999999996
 30
0
 11
7.749999999999999
 21
8.049999999999995
 31
0
  0
LINE
  8
0
 62
7
 10
4.714999999999999
 20
11.05
 30
0
 11
4.864999999999998
 21
11.05
 31
0
  0
LINE
  8
0
 62
7
 10
4.864999999999998
 20
11.15
 30
0
 11
4.864999999999998
 21
11.05
 31
0
  0
LINE
  8
0
 62
7
 10
4.714999999999999
 20
10.85
 30
0
 11
4.864999999999998
 21
10.85
 31
0
  0
LINE
  8
0
 62
7
 10
4.714999999999999
 20
8.299999999999997
 30
0
 11
4.864999999999998
 21
8.299999999999997
 31
0
  0
LINE
  8
0
 62
7
 10
4.864999999999998
 20
8.399999999999997
 30
0
 11
4.864999999999998
 21
8.299999999999997
 31
0
  0
LINE
  8
0
 62
7
 10
4.714999999999999
 20
8.099999999999996
 30
0
 11
4.864999999999998
 21
8.099999999999996
 31
0
  0
LINE
  8
0
 62
7
 10
4.864999999999998
 20
8.099999999999996
 30
0
 11
4.864999999999998
 21
7.949999999999996
 31
0
  0
LINE
  8
0
 62
7
 10
4.864999999999998
 20
11.05
 30
0
 11
5.039999999999999
 21
11.05
 31
0
  0
LINE
  8
0
 62
7
 10
5.039999999999999
 20
11.15
 30
0
 11
5.039999999999999
 21
11.05
 31
0
  0
LINE
  8
0
 62
7
 10
4.864999999999998
 20
10.85
 30
0
 11
5.039999999999999
 21
10.85
 31
0
  0
LINE
  8
0
 62
7
 10
4.864999999999998
 20
8.299999999999997
 30
0
 11
5.039999999999999
 21
8.299999999999997
 31
0
  0
LINE
  8
0
 62
7
 10
5.039999999999999
 20
8.399999999999997
 30
0
 11
5.039999999999999
 21
8.299999999999997
 31
0
  0
LINE
  8
0
 62
7
 10
4.864999999999998
 20
8.099999999999996
 30
0
 11
5.039999999999999
 21
8.099999999999996
 31
0
  0
LINE
  8
0
 62
7
 10
5.039999999999999
 20
8.099999999999996
 30
0
 11
5.039999999999999
 21
7.949999999999996
 31
0
  0
LINE
  8
0
 62
7
 10
5.039999999999999
 20
11.05
 30
0
 11
7.424999999999999
 21
11.05
 31
0
  0
LINE
  8
0
 62
7
 10
7.424999999999999
 20
11.15
 30
0
 11
7.424999999999999
 21
11.05
 31
0
  0
LINE
  8
0
 62
7
 10
5.039999999999999
 20
10.85
 30
0
 11
7.424999999999999
 21
10.85
 31
0
  0
LINE
  8
0
 62
7
 10
5.039999999999999
 20
8.299999999999997
 30
0
 11
7.424999999999999
 21
8.299999999999997
 31
0
  0
LINE
  8
0
 62
7
 10
7.424999999999999
 20
8.399999999999997
 30
0
 11
7.424999999999999
 21
8.299999999999997
 31
0
  0
LINE
  8
0
 62
7
 10
5.039999999999999
 20
8.099999999999996
 30
0
 11
7.424999999999999
 21
8.099999999999996
 31
0
  0
LINE
  8
0
 62
7
 10
7.424999999999999
 20
8.099999999999996
 30
0
 11
7.424999999999999
 21
7.949999999999996
 31
0
  0
LINE
  8
0
 62
7
 10
7.424999999999999
 20
11.05
 30
0
 11
7.599999999999999
 21
11.05
 31
0
  0
LINE
  8
0
 62
7
 10
7.599999999999999
 20
11.15
 30
0
 11
7.599999999999999
 21
11.05
 31
0
  0
LINE
  8
0
 62
7
 10
7.424999999999999
 20
10.85
 30
0
 11
7.599999999999999
 21
10.85
 31
0
  0
LINE
  8
0
 62
7
 10
7.424999999999999
 20
8.299999999999997
 30
0
 11
7.599999999999999
 21
8.299999999999997
 31
0
  0
LINE
  8
0
 62
7
 10
7.599999999999999
 20
8.399999999999997
 30
0
 11
7.599999999999999
 21
8.299999999999997
 31
0
  0
LINE
  8
0
 62
7
 10
7.424999999999999
 20
8.099999999999996
 30
0
 11
7.599999999999999
 21
8.099999999999996
 31
0
  0
LINE
  8
0
 62
7
 10
7.599999999999999
 20
8.099999999999996
 30
0
 11
7.599999999999999
 21
7.949999999999996
 31
0
  0
LINE
  8
0
 62
7
 10
7.599999999999999
 20
11.05
 30
0
 11
7.749999999999999
 21
11.05
 31
0
  0
LINE
  8
0
 62
7
 10
7.599999999999999
 20
10.85
 30
0
 11
7.749999999999999
 21
10.85
 31
0
  0
LINE
  8
0
 62
7
 10
7.599999999999999
 20
8.299999999999997
 30
0
 11
7.749999999999999
 21
8.299999999999997
 31
0
  0
LINE
  8
0
 62
7
 10
7.599999999999999
 20
8.099999999999996
 30
0
 11
7.749999999999999
 21
8.099999999999996
 31
0
  0
LINE
  8
0
 62
7
 10
5.406502909924493
 20
4.82167119741101
 30
0
 11
5.406502909924493
 21
4.94167119741101
 31
0
  0
LINE
  8
0
 62
7
 10
5.482102909924492
 20
4.94167119741101
 30
0
 11
5.428102909924492
 21
4.881671197411009
 31
0
  0
LINE
  8
0
 62
7
 10
5.428102909924492
 20
4.881671197411009
 30
0
 11
5.482102909924492
 21
4.82167119741101
 31
0
  0
LINE
  8
0
 62
7
 10
5.428102909924492
 20
4.881671197411009
 30
0
 11
5.406502909924493
 21
4.857671197411008
 31
0
  0
LINE
  8
0
 62
7
 10
5.590102909924492
 20
4.94167119741101
 30
0
 11
5.514502909924492
 21
4.94167119741101
 31
0
  0
LINE
  8
0
 62
7
 10
5.514502909924492
 20
4.94167119741101
 30
0
 11
5.514502909924492
 21
4.881671197411009
 31
0
  0
LINE
  8
0
 62
7
 10
5.514502909924492
 20
4.82167119741101
 30
0
 11
5.590102909924492
 21
4.82167119741101
 31
0
  0
LINE
  8
0
 62
7
 10
5.579302909924492
 20
4.881671197411009
 30
0
 11
5.514502909924492
 21
4.881671197411009
 31
0
  0
LINE
  8
0
 62
7
 10
5.514502909924492
 20
4.881671197411009
 30
0
 11
5.514502909924492
 21
4.82167119741101
 31
0
  0
LINE
  8
0
 62
7
 10
5.622502909924492
 20
4.82167119741101
 30
0
 11
5.622502909924492
 21
4.94167119741101
 31
0
  0
LINE
  8
0
 62
7
 10
5.622502909924492
 20
4.94167119741101
 30
0
 11
5.698102909924492
 21
4.82167119741101
 31
0
  0
LINE
  8
0
 62
7
 10
5.698102909924492
 20
4.82167119741101
 30
0
 11
5.698102909924492
 21
4.94167119741101
 31
0
  0
LINE
  8
0
 62
7
 10
5.730502909924492
 20
4.82167119741101
 30
0
 11
5.730502909924492
 21
4.94167119741101
 31
0
  0
LINE
  8
0
 62
7
 10
5.730502909924492
 20
4.94167119741101
 30
0
 11
5.806102909924493
 21
4.82167119741101
 31
0
  0
LINE
  8
0
 62
7
 10
5.806102909924493
 20
4.82167119741101
 30
0
 11
5.806102909924493
 21
4.94167119741101
 31
0
  0
LINE
  8
0
 62
7
 10
5.914102909924492
 20
4.90567119741101
 30
0
 11
5.911402909924491
 21
4.917671197411009
 31
0
  0
LINE
  8
0
 62
7
 10
5.911402909924491
 20
4.917671197411009
 30
0
 11
5.906002909924492
 21
4.92667119741101
 31
0
  0
LINE
  8
0
 62
7
 10
5.906002909924492
 20
4.92667119741101
 30
0
 11
5.900602909924492
 21
4.932671197411008
 31
0
  0
LINE
  8
0
 62
7
 10
5.900602909924492
 20
4.932671197411008
 30
0
 11
5.892502909924492
 21
4.938671197411011
 31
0
  0
LINE
  8
0
 62
7
 10
5.892502909924492
 20
4.938671197411011
 30
0
 11
5.884402909924493
 21
4.94167119741101
 31
0
  0
LINE
  8
0
 62
7
 10
5.884402909924493
 20
4.94167119741101
 30
0
 11
5.868202909924492
 21
4.94167119741101
 31
0
  0
LINE
  8
0
 62
7
 10
5.868202909924492
 20
4.94167119741101
 30
0
 11
5.860102909924493
 21
4.938671197411011
 31
0
  0
LINE
  8
0
 62
7
 10
5.860102909924493
 20
4.938671197411011
 30
0
 11
5.852002909924492
 21
4.932671197411008
 31
0
  0
LINE
  8
0
 62
7
 10
5.852002909924492
 20
4.932671197411008
 30
0
 11
5.846602909924492
 21
4.92667119741101
 31
0
  0
LINE
  8
0
 62
7
 10
5.846602909924492
 20
4.92667119741101
 30
0
 11
5.841202909924491
 21
4.917671197411009
 31
0
  0
LINE
  8
0
 62
7
 10
5.841202909924491
 20
4.917671197411009
 30
0
 11
5.838502909924491
 21
4.90567119741101
 31
0
  0
LINE
  8
0
 62
7
 10
5.838502909924491
 20
4.90567119741101
 30
0
 11
5.838502909924491
 21
4.857671197411008
 31
0
  0
LINE
  8
0
 62
7
 10
5.838502909924491
 20
4.857671197411008
 30
0
 11
5.841202909924491
 21
4.845671197411011
 31
0
  0
LINE
  8
0
 62
7
 10
5.841202909924491
 20
4.845671197411011
 30
0
 11
5.846602909924492
 21
4.83667119741101
 31
0
  0
LINE
  8
0
 62
7
 10
5.846602909924492
 20
4.83667119741101
 30
0
 11
5.852002909924492
 21
4.830671197411011
 31
0
  0
LINE
  8
0
 62
7
 10
5.852002909924492
 20
4.830671197411011
 30
0
 11
5.860102909924493
 21
4.824671197411011
 31
0
  0
LINE
  8
0
 62
7
 10
5.860102909924493
 20
4.824671197411011
 30
0
 11
5.868202909924492
 21
4.82167119741101
 31
0
  0
LINE
  8
0
 62
7
 10
5.868202909924492
 20
4.82167119741101
 30
0
 11
5.884402909924493
 21
4.82167119741101
 31
0
  0
LINE
  8
0
 62
7
 10
5.884402909924493
 20
4.82167119741101
 30
0
 11
5.892502909924492
 21
4.824671197411011
 31
0
  0
LINE
  8
0
 62
7
 10
5.892502909924492
 20
4.824671197411011
 30
0
 11
5.900602909924492
 21
4.830671197411011
 31
0
  0
LINE
  8
0
 62
7
 10
5.900602909924492
 20
4.830671197411011
 30
0
 11
5.906002909924492
 21
4.83667119741101
 31
0
  0
LINE
  8
0
 62
7
 10
5.906002909924492
 20
4.83667119741101
 30
0
 11
5.911402909924491
 21
4.845671197411011
 31
0
  0
LINE
  8
0
 62
7
 10
5.911402909924491
 20
4.845671197411011
 30
0
 11
5.914102909924492
 21
4.857671197411008
 31
0
  0
LINE
  8
0
 62
7
 10
5.914102909924492
 20
4.857671197411008
 30
0
 11
5.914102909924492
 21
4.881671197411009
 31
0
  0
LINE
  8
0
 62
7
 10
5.914102909924492
 20
4.881671197411009
 30
0
 11
5.881702909924492
 21
4.881671197411009
 31
0
  0
LINE
  8
0
 62
7
 10
5.992402909924492
 20
4.94167119741101
 30
0
 11
5.976202909924492
 21
4.94167119741101
 31
0
  0
LINE
  8
0
 62
7
 10
5.976202909924492
 20
4.94167119741101
 30
0
 11
5.968102909924492
 21
4.938671197411011
 31
0
  0
LINE
  8
0
 62
7
 10
5.968102909924492
 20
4.938671197411011
 30
0
 11
5.960002909924492
 21
4.932671197411008
 31
0
  0
LINE
  8
0
 62
7
 10
5.960002909924492
 20
4.932671197411008
 30
0
 11
5.954602909924493
 21
4.92667119741101
 31
0
  0
LINE
  8
0
 62
7
 10
5.954602909924493
 20
4.92667119741101
 30
0
 11
5.949202909924492
 21
4.917671197411009
 31
0
  0
LINE
  8
0
 62
7
 10
5.949202909924492
 20
4.917671197411009
 30
0
 11
5.946502909924493
 21
4.90567119741101
 31
0
  0
LINE
  8
0
 62
7
 10
5.946502909924493
 20
4.90567119741101
 30
0
 11
5.946502909924493
 21
4.857671197411008
 31
0
  0
LINE
  8
0
 62
7
 10
5.946502909924493
 20
4.857671197411008
 30
0
 11
5.949202909924492
 21
4.845671197411011
 31
0
  0
LINE
  8
0
 62
7
 10
5.949202909924492
 20
4.845671197411011
 30
0
 11
5.954602909924493
 21
4.83667119741101
 31
0
  0
LINE
  8
0
 62
7
 10
5.954602909924493
 20
4.83667119741101
 30
0
 11
5.960002909924492
 21
4.830671197411011
 31
0
  0
LINE
  8
0
 62
7
 10
5.960002909924492
 20
4.830671197411011
 30
0
 11
5.968102909924492
 21
4.824671197411011
 31
0
  0
LINE
  8
0
 62
7
 10
5.968102909924492
 20
4.824671197411011
 30
0
 11
5.976202909924492
 21
4.82167119741101
 31
0
  0
LINE
  8
0
 62
7
 10
5.976202909924492
 20
4.82167119741101
 30
0
 11
5.992402909924492
 21
4.82167119741101
 31
0
  0
LINE
  8
0
 62
7
 10
5.992402909924492
 20
4.82167119741101
 30
0
 11
6.000502909924492
 21
4.824671197411011
 31
0
  0
LINE
  8
0
 62
7
 10
6.000502909924492
 20
4.824671197411011
 30
0
 11
6.008602909924493
 21
4.830671197411011
 31
0
  0
LINE
  8
0
 62
7
 10
6.008602909924493
 20
4.830671197411011
 30
0
 11
6.014002909924493
 21
4.83667119741101
 31
0
  0
LINE
  8
0
 62
7
 10
6.014002909924493
 20
4.83667119741101
 30
0
 11
6.019402909924492
 21
4.845671197411011
 31
0
  0
LINE
  8
0
 62
7
 10
6.019402909924492
 20
4.845671197411011
 30
0
 11
6.022102909924492
 21
4.857671197411008
 31
0
  0
LINE
  8
0
 62
7
 10
6.022102909924492
 20
4.857671197411008
 30
0
 11
6.022102909924492
 21
4.90567119741101
 31
0
  0
LINE
  8
0
 62
7
 10
6.022102909924492
 20
4.90567119741101
 30
0
 11
6.019402909924492
 21
4.917671197411009
 31
0
  0
LINE
  8
0
 62
7
 10
6.019402909924492
 20
4.917671197411009
 30
0
 11
6.014002909924493
 21
4.92667119741101
 31
0
  0
LINE
  8
0
 62
7
 10
6.014002909924493
 20
4.92667119741101
 30
0
 11
6.008602909924493
 21
4.932671197411008
 31
0
  0
LINE
  8
0
 62
7
 10
6.008602909924493
 20
4.932671197411008
 30
0
 11
6.000502909924492
 21
4.938671197411011
 31
0
  0
LINE
  8
0
 62
7
 10
6.000502909924492
 20
4.938671197411011
 30
0
 11
5.992402909924492
 21
4.94167119741101
 31
0
  0
LINE
  8
0
 62
7
 10
6.043702909924491
 20
4.94167119741101
 30
0
 11
6.081502909924493
 21
4.94167119741101
 31
0
  0
LINE
  8
0
 62
7
 10
6.081502909924493
 20
4.94167119741101
 30
0
 11
6.081502909924493
 21
4.82167119741101
 31
0
  0
LINE
  8
0
 62
7
 10
6.081502909924493
 20
4.94167119741101
 30
0
 11
6.119302909924492
 21
4.94167119741101
 31
0
  0
LINE
  8
0
 62
7
 10
6.151702909924492
 20
4.94167119741101
 30
0
 11
6.189502909924492
 21
4.94167119741101
 31
0
  0
LINE
  8
0
 62
7
 10
6.189502909924492
 20
4.94167119741101
 30
0
 11
6.189502909924492
 21
4.82167119741101
 31
0
  0
LINE
  8
0
 62
7
 10
6.189502909924492
 20
4.94167119741101
 30
0
 11
6.227302909924493
 21
4.94167119741101
 31
0
  0
LINE
  8
0
 62
7
 10
6.346102909924492
 20
4.863671197411011
 30
0
 11
6.400102909924491
 21
4.863671197411011
 31
0
  0
LINE
  8
0
 62
7
 10
6.508102909924492
 20
4.94167119741101
 30
0
 11
6.545902909924492
 21
4.94167119741101
 31
0
  0
LINE
  8
0
 62
7
 10
6.545902909924492
 20
4.94167119741101
 30
0
 11
6.545902909924492
 21
4.82167119741101
 31
0
  0
LINE
  8
0
 62
7
 10
6.545902909924492
 20
4.94167119741101
 30
0
 11
6.583702909924492
 21
4.94167119741101
 31
0
  0
LINE
  8
0
 62
7
 10
6.616102909924492
 20
4.82167119741101
 30
0
 11
6.616102909924492
 21
4.94167119741101
 31
0
  0
LINE
  8
0
 62
7
 10
6.616102909924492
 20
4.94167119741101
 30
0
 11
6.66740290992449
 21
4.94167119741101
 31
0
  0
LINE
  8
0
 62
7
 10
6.66740290992449
 20
4.94167119741101
 30
0
 11
6.678202909924493
 21
4.938671197411011
 31
0
  0
LINE
  8
0
 62
7
 10
6.678202909924493
 20
4.938671197411011
 30
0
 11
6.686302909924492
 21
4.932671197411008
 31
0
  0
LINE
  8
0
 62
7
 10
6.686302909924492
 20
4.932671197411008
 30
0
 11
6.689002909924492
 21
4.92667119741101
 31
0
  0
LINE
  8
0
 62
7
 10
6.689002909924492
 20
4.92667119741101
 30
0
 11
6.691702909924492
 21
4.917671197411009
 31
0
  0
LINE
  8
0
 62
7
 10
6.691702909924492
 20
4.917671197411009
 30
0
 11
6.691702909924492
 21
4.90567119741101
 31
0
  0
LINE
  8
0
 62
7
 10
6.691702909924492
 20
4.90567119741101
 30
0
 11
6.689002909924492
 21
4.89667119741101
 31
0
  0
LINE
  8
0
 62
7
 10
6.689002909924492
 20
4.89667119741101
 30
0
 11
6.686302909924492
 21
4.89067119741101
 31
0
  0
LINE
  8
0
 62
7
 10
6.686302909924492
 20
4.89067119741101
 30
0
 11
6.678202909924493
 21
4.884671197411009
 31
0
  0
LINE
  8
0
 62
7
 10
6.678202909924493
 20
4.884671197411009
 30
0
 11
6.66740290992449
 21
4.881671197411009
 31
0
  0
LINE
  8
0
 62
7
 10
6.66740290992449
 20
4.881671197411009
 30
0
 11
6.659302909924491
 21
4.881671197411009
 31
0
  0
LINE
  8
0
 62
7
 10
6.659302909924491
 20
4.881671197411009
 30
0
 11
6.691702909924492
 21
4.82167119741101
 31
0
  0
LINE
  8
0
 62
7
 10
6.659302909924491
 20
4.881671197411009
 30
0
 11
6.616102909924492
 21
4.881671197411009
 31
0
  0
LINE
  8
0
 62
7
 10
6.788902909924492
 20
4.94167119741101
 30
0
 11
6.713302909924491
 21
4.94167119741101
 31
0
  0
LINE
  8
0
 62
7
 10
6.713302909924491
 20
4.94167119741101
 30
0
 11
6.713302909924491
 21
4.881671197411009
 31
0
  0
LINE
  8
0
 62
7
 10
6.713302909924491
 20
4.82167119741101
 30
0
 11
6.788902909924492
 21
4.82167119741101
 31
0
  0
LINE
  8
0
 62
7
 10
6.778102909924492
 20
4.881671197411009
 30
0
 11
6.713302909924491
 21
4.881671197411009
 31
0
  0
LINE
  8
0
 62
7
 10
6.713302909924491
 20
4.881671197411009
 30
0
 11
6.713302909924491
 21
4.82167119741101
 31
0
  0
LINE
  8
0
 62
7
 10
6.821302909924491
 20
4.82167119741101
 30
0
 11
6.821302909924491
 21
4.881671197411009
 31
0
  0
LINE
  8
0
 62
7
 10
6.821302909924491
 20
4.94167119741101
 30
0
 11
6.872602909924492
 21
4.94167119741101
 31
0
  0
LINE
  8
0
 62
7
 10
6.872602909924492
 20
4.94167119741101
 30
0
 11
6.883402909924492
 21
4.938671197411011
 31
0
  0
LINE
  8
0
 62
7
 10
6.883402909924492
 20
4.938671197411011
 30
0
 11
6.891502909924492
 21
4.932671197411008
 31
0
  0
LINE
  8
0
 62
7
 10
6.891502909924492
 20
4.932671197411008
 30
0
 11
6.894202909924491
 21
4.92667119741101
 31
0
  0
LINE
  8
0
 62
7
 10
6.894202909924491
 20
4.92667119741101
 30
0
 11
6.896902909924492
 21
4.917671197411009
 31
0
  0
LINE
  8
0
 62
7
 10
6.896902909924492
 20
4.917671197411009
 30
0
 11
6.896902909924492
 21
4.90567119741101
 31
0
  0
LINE
  8
0
 62
7
 10
6.896902909924492
 20
4.90567119741101
 30
0
 11
6.894202909924491
 21
4.89667119741101
 31
0
  0
LINE
  8
0
 62
7
 10
6.894202909924491
 20
4.89667119741101
 30
0
 11
6.891502909924492
 21
4.89067119741101
 31
0
  0
LINE
  8
0
 62
7
 10
6.891502909924492
 20
4.89067119741101
 30
0
 11
6.883402909924492
 21
4.884671197411009
 31
0
  0
LINE
  8
0
 62
7
 10
6.883402909924492
 20
4.884671197411009
 30
0
 11
6.872602909924492
 21
4.881671197411009
 31
0
  0
LINE
  8
0
 62
7
 10
6.872602909924492
 20
4.881671197411009
 30
0
 11
6.821302909924491
 21
4.881671197411009
 31
0
  0
LINE
  8
0
 62
7
 10
6.821302909924491
 20
4.881671197411009
 30
0
 11
6.821302909924491
 21
4.94167119741101
 31
0
  0
LINE
  8
0
 62
7
 10
6.918502909924491
 20
4.82167119741101
 30
0
 11
6.918502909924491
 21
4.881671197411009
 31
0
  0
LINE
  8
0
 62
7
 10
6.918502909924491
 20
4.94167119741101
 30
0
 11
6.969802909924493
 21
4.94167119741101
 31
0
  0
LINE
  8
0
 62
7
 10
6.969802909924493
 20
4.94167119741101
 30
0
 11
6.980602909924492
 21
4.938671197411011
 31
0
  0
LINE
  8
0
 62
7
 10
6.980602909924492
 20
4.938671197411011
 30
0
 11
6.988702909924491
 21
4.932671197411008
 31
0
  0
LINE
  8
0
 62
7
 10
6.988702909924491
 20
4.932671197411008
 30
0
 11
6.991402909924492
 21
4.92667119741101
 31
0
  0
LINE
  8
0
 62
7
 10
6.991402909924492
 20
4.92667119741101
 30
0
 11
6.994102909924492
 21
4.917671197411009
 31
0
  0
LINE
  8
0
 62
7
 10
6.994102909924492
 20
4.917671197411009
 30
0
 11
6.994102909924492
 21
4.90567119741101
 31
0
  0
LINE
  8
0
 62
7
 10
6.994102909924492
 20
4.90567119741101
 30
0
 11
6.991402909924492
 21
4.89667119741101
 31
0
  0
LINE
  8
0
 62
7
 10
6.991402909924492
 20
4.89667119741101
 30
0
 11
6.988702909924491
 21
4.89067119741101
 31
0
  0
LINE
  8
0
 62
7
 10
6.988702909924491
 20
4.89067119741101
 30
0
 11
6.980602909924492
 21
4.884671197411009
 31
0
  0
LINE
  8
0
 62
7
 10
6.980602909924492
 20
4.884671197411009
 30
0
 11
6.969802909924493
 21
4.881671197411009
 31
0
  0
LINE
  8
0
 62
7
 10
6.969802909924493
 20
4.881671197411009
 30
0
 11
6.918502909924491
 21
4.881671197411009
 31
0
  0
LINE
  8
0
 62
7
 10
6.918502909924491
 20
4.881671197411009
 30
0
 11
6.918502909924491
 21
4.94167119741101
 31
0
  0
LINE
  8
0
 62
7
 10
7.091302909924493
 20
4.94167119741101
 30
0
 11
7.015702909924492
 21
4.94167119741101
 31
0
  0
LINE
  8
0
 62
7
 10
7.015702909924492
 20
4.94167119741101
 30
0
 11
7.015702909924492
 21
4.881671197411009
 31
0
  0
LINE
  8
0
 62
7
 10
7.015702909924492
 20
4.82167119741101
 30
0
 11
7.091302909924493
 21
4.82167119741101
 31
0
  0
LINE
  8
0
 62
7
 10
7.080502909924492
 20
4.881671197411009
 30
0
 11
7.015702909924492
 21
4.881671197411009
 31
0
  0
LINE
  8
0
 62
7
 10
7.015702909924492
 20
4.881671197411009
 30
0
 11
7.015702909924492
 21
4.82167119741101
 31
0
  0
LINE
  8
0
 62
7
 10
4.674999999999999
 20
3.01
 30
0
 11
4.750599999999999
 21
3.01
 31
0
  0
LINE
  8
0
 62
7
 10
4.750599999999999
 20
3.01
 30
0
 11
4.674999999999999
 21
2.890000000000001
 31
0
  0
LINE
  8
0
 62
7
 10
4.674999999999999
 20
2.890000000000001
 30
0
 11
4.750599999999999
 21
2.890000000000001
 31
0
  0
LINE
  8
0
 62
7
 10
4.782999999999999
 20
2.992
 30
0
 11
4.788399999999998
 21
3.001
 31
0
  0
LINE
  8
0
 62
7
 10
4.788399999999998
 20
3.001
 30
0
 11
4.796499999999999
 21
3.007
 31
0
  0
LINE
  8
0
 62
7
 10
4.796499999999999
 20
3.007
 30
0
 11
4.807299999999998
 21
3.01
 31
0
  0
LINE
  8
0
 62
7
 10
4.807299999999998
 20
3.01
 30
0
 11
4.823499999999999
 21
3.01
 31
0
  0
LINE
  8
0
 62
7
 10
4.823499999999999
 20
3.01
 30
0
 11
4.834299999999998
 21
3.007
 31
0
  0
LINE
  8
0
 62
7
 10
4.834299999999998
 20
3.007
 30
0
 11
4.842399999999998
 21
3.001
 31
0
  0
LINE
  8
0
 62
7
 10
4.842399999999998
 20
3.001
 30
0
 11
4.847799999999999
 21
2.992
 31
0
  0
LINE
  8
0
 62
7
 10
4.847799999999999
 20
2.992
 30
0
 11
4.847799999999999
 21
2.98
 31
0
  0
LINE
  8
0
 62
7
 10
4.847799999999999
 20
2.98
 30
0
 11
4.842399999999998
 21
2.968
 31
0
  0
LINE
  8
0
 62
7
 10
4.842399999999998
 20
2.968
 30
0
 11
4.782999999999999
 21
2.890000000000001
 31
0
  0
LINE
  8
0
 62
7
 10
4.782999999999999
 20
2.890000000000001
 30
0
 11
4.847799999999999
 21
2.890000000000001
 31
0
  0
LINE
  8
0
 62
7
 10
4.880199999999999
 20
3.01
 30
0
 11
4.917999999999999
 21
2.890000000000001
 31
0
  0
LINE
  8
0
 62
7
 10
4.917999999999999
 20
2.890000000000001
 30
0
 11
4.9558
 21
3.01
 31
0
  0
LINE
  8
0
 62
7
 10
4.988199999999999
 20
2.992
 30
0
 11
4.993599999999998
 21
3.001
 31
0
  0
LINE
  8
0
 62
7
 10
4.993599999999998
 20
3.001
 30
0
 11
5.001699999999999
 21
3.007
 31
0
  0
LINE
  8
0
 62
7
 10
5.001699999999999
 20
3.007
 30
0
 11
5.012499999999999
 21
3.01
 31
0
  0
LINE
  8
0
 62
7
 10
5.012499999999999
 20
3.01
 30
0
 11
5.028699999999998
 21
3.01
 31
0
  0
LINE
  8
0
 62
7
 10
5.028699999999998
 20
3.01
 30
0
 11
5.039499999999999
 21
3.007
 31
0
  0
LINE
  8
0
 62
7
 10
5.039499999999999
 20
3.007
 30
0
 11
5.047599999999999
 21
3.001
 31
0
  0
LINE
  8
0
 62
7
 10
5.047599999999999
 20
3.001
 30
0
 11
5.052999999999998
 21
2.992
 31
0
  0
LINE
  8
0
 62
7
 10
5.052999999999998
 20
2.992
 30
0
 11
5.052999999999998
 21
2.98
 31
0
  0
LINE
  8
0
 62
7
 10
5.052999999999998
 20
2.98
 30
0
 11
5.047599999999999
 21
2.968
 31
0
  0
LINE
  8
0
 62
7
 10
5.047599999999999
 20
2.968
 30
0
 11
4.988199999999999
 21
2.890000000000001
 31
0
  0
LINE
  8
0
 62
7
 10
4.988199999999999
 20
2.890000000000001
 30
0
 11
5.052999999999998
 21
2.890000000000001
 31
0
  0
LINE
  8
0
 62
7
 10
5.085399999999998
 20
2.992
 30
0
 11
5.090799999999999
 21
3.001
 31
0
  0
LINE
  8
0
 62
7
 10
5.090799999999999
 20
3.001
 30
0
 11
5.098899999999998
 21
3.007
 31
0
  0
LINE
  8
0
 62
7
 10
5.098899999999998
 20
3.007
 30
0
 11
5.109699999999998
 21
3.01
 31
0
  0
LINE
  8
0
 62
7
 10
5.109699999999998
 20
3.01
 30
0
 11
5.125899999999998
 21
3.01
 31
0
  0
LINE
  8
0
 62
7
 10
5.125899999999998
 20
3.01
 30
0
 11
5.133999999999999
 21
3.007
 31
0
  0
LINE
  8
0
 62
7
 10
5.133999999999999
 20
3.007
 30
0
 11
5.142099999999999
 21
3.001
 31
0
  0
LINE
  8
0
 62
7
 10
5.142099999999999
 20
3.001
 30
0
 11
5.1475
 21
2.992
 31
0
  0
LINE
  8
0
 62
7
 10
5.1475
 20
2.992
 30
0
 11
5.150199999999999
 21
2.98
 31
0
  0
LINE
  8
0
 62
7
 10
5.150199999999999
 20
2.98
 30
0
 11
5.150199999999999
 21
2.971
 31
0
  0
LINE
  8
0
 62
7
 10
5.150199999999999
 20
2.971
 30
0
 11
5.1475
 21
2.962
 31
0
  0
LINE
  8
0
 62
7
 10
5.1475
 20
2.962
 30
0
 11
5.142099999999999
 21
2.956
 31
0
  0
LINE
  8
0
 62
7
 10
5.142099999999999
 20
2.956
 30
0
 11
5.128599999999999
 21
2.95
 31
0
  0
LINE
  8
0
 62
7
 10
5.109699999999998
 20
2.95
 30
0
 11
5.128599999999999
 21
2.95
 31
0
  0
LINE
  8
0
 62
7
 10
5.128599999999999
 20
2.95
 30
0
 11
5.142099999999999
 21
2.944
 31
0
  0
LINE
  8
0
 62
7
 10
5.142099999999999
 20
2.944
 30
0
 11
5.1475
 21
2.938
 31
0
  0
LINE
  8
0
 62
7
 10
5.1475
 20
2.938
 30
0
 11
5.150199999999999
 21
2.929
 31
0
  0
LINE
  8
0
 62
7
 10
5.150199999999999
 20
2.929
 30
0
 11
5.150199999999999
 21
2.92
 31
0
  0
LINE
  8
0
 62
7
 10
5.150199999999999
 20
2.92
 30
0
 11
5.1475
 21
2.908
 31
0
  0
LINE
  8
0
 62
7
 10
5.1475
 20
2.908
 30
0
 11
5.142099999999999
 21
2.899
 31
0
  0
LINE
  8
0
 62
7
 10
5.142099999999999
 20
2.899
 30
0
 11
5.133999999999999
 21
2.893
 31
0
  0
LINE
  8
0
 62
7
 10
5.133999999999999
 20
2.893
 30
0
 11
5.125899999999998
 21
2.890000000000001
 31
0
  0
LINE
  8
0
 62
7
 10
5.125899999999998
 20
2.890000000000001
 30
0
 11
5.109699999999998
 21
2.890000000000001
 31
0
  0
LINE
  8
0
 62
7
 10
5.109699999999998
 20
2.890000000000001
 30
0
 11
5.098899999999998
 21
2.893
 31
0
  0
LINE
  8
0
 62
7
 10
5.098899999999998
 20
2.893
 30
0
 11
5.090799999999999
 21
2.899
 31
0
  0
LINE
  8
0
 62
7
 10
5.090799999999999
 20
2.899
 30
0
 11
5.085399999999998
 21
2.908
 31
0
  0
LINE
  8
0
 62
7
 10
5.2096
 20
3.01
 30
0
 11
5.220399999999999
 21
3.01
 31
0
  0
LINE
  8
0
 62
7
 10
5.220399999999999
 20
3.01
 30
0
 11
5.228499999999999
 21
3.007
 31
0
  0
LINE
  8
0
 62
7
 10
5.228499999999999
 20
3.007
 30
0
 11
5.233899999999999
 21
3.001
 31
0
  0
LINE
  8
0
 62
7
 10
5.233899999999999
 20
3.001
 30
0
 11
5.239299999999999
 21
2.992
 31
0
  0
LINE
  8
0
 62
7
 10
5.239299999999999
 20
2.992
 30
0
 11
5.239299999999999
 21
2.98
 31
0
  0
LINE
  8
0
 62
7
 10
5.239299999999999
 20
2.98
 30
0
 11
5.236599999999999
 21
2.974
 31
0
  0
LINE
  8
0
 62
7
 10
5.236599999999999
 20
2.974
 30
0
 11
5.228499999999999
 21
2.965
 31
0
  0
LINE
  8
0
 62
7
 10
5.228499999999999
 20
2.965
 30
0
 11
5.220399999999999
 21
2.962
 31
0
  0
LINE
  8
0
 62
7
 10
5.220399999999999
 20
2.962
 30
0
 11
5.2096
 21
2.962
 31
0
  0
LINE
  8
0
 62
7
 10
5.2096
 20
2.962
 30
0
 11
5.201499999999999
 21
2.965
 31
0
  0
LINE
  8
0
 62
7
 10
5.201499999999999
 20
2.965
 30
0
 11
5.1934
 21
2.974
 31
0
  0
LINE
  8
0
 62
7
 10
5.1934
 20
2.974
 30
0
 11
5.1907
 21
2.98
 31
0
  0
LINE
  8
0
 62
7
 10
5.1907
 20
2.98
 30
0
 11
5.1907
 21
2.992
 31
0
  0
LINE
  8
0
 62
7
 10
5.1907
 20
2.992
 30
0
 11
5.196099999999999
 21
3.001
 31
0
  0
LINE
  8
0
 62
7
 10
5.196099999999999
 20
3.001
 30
0
 11
5.201499999999999
 21
3.007
 31
0
  0
LINE
  8
0
 62
7
 10
5.201499999999999
 20
3.007
 30
0
 11
5.2096
 21
3.01
 31
0
  0
LINE
  8
0
 62
7
 10
5.2096
 20
2.962
 30
0
 11
5.196099999999999
 21
2.956
 31
0
  0
LINE
  8
0
 62
7
 10
5.196099999999999
 20
2.956
 30
0
 11
5.187999999999999
 21
2.947
 31
0
  0
LINE
  8
0
 62
7
 10
5.187999999999999
 20
2.947
 30
0
 11
5.182599999999999
 21
2.935
 31
0
  0
LINE
  8
0
 62
7
 10
5.182599999999999
 20
2.935
 30
0
 11
5.182599999999999
 21
2.917
 31
0
  0
LINE
  8
0
 62
7
 10
5.182599999999999
 20
2.917
 30
0
 11
5.187999999999999
 21
2.905
 31
0
  0
LINE
  8
0
 62
7
 10
5.187999999999999
 20
2.905
 30
0
 11
5.196099999999999
 21
2.896
 31
0
  0
LINE
  8
0
 62
7
 10
5.196099999999999
 20
2.896
 30
0
 11
5.2069
 21
2.890000000000001
 31
0
  0
LINE
  8
0
 62
7
 10
5.2069
 20
2.890000000000001
 30
0
 11
5.223099999999999
 21
2.890000000000001
 31
0
  0
LINE
  8
0
 62
7
 10
5.223099999999999
 20
2.890000000000001
 30
0
 11
5.233899999999999
 21
2.896
 31
0
  0
LINE
  8
0
 62
7
 10
5.233899999999999
 20
2.896
 30
0
 11
5.241999999999998
 21
2.905
 31
0
  0
LINE
  8
0
 62
7
 10
5.241999999999998
 20
2.905
 30
0
 11
5.247399999999999
 21
2.917
 31
0
  0
LINE
  8
0
 62
7
 10
5.247399999999999
 20
2.917
 30
0
 11
5.247399999999999
 21
2.935
 31
0
  0
LINE
  8
0
 62
7
 10
5.247399999999999
 20
2.935
 30
0
 11
5.241999999999998
 21
2.947
 31
0
  0
LINE
  8
0
 62
7
 10
5.241999999999998
 20
2.947
 30
0
 11
5.233899999999999
 21
2.956
 31
0
  0
LINE
  8
0
 62
7
 10
5.233899999999999
 20
2.956
 30
0
 11
5.220399999999999
 21
2.962
 31
0
  0
LINE
  8
0
 62
7
 10
5.290599999999999
 20
2.890000000000001
 30
0
 11
5.290599999999999
 21
3.01
 31
0
  0
LINE
  8
0
 62
7
 10
5.290599999999999
 20
3.01
 30
0
 11
5.3419
 21
3.01
 31
0
  0
LINE
  8
0
 62
7
 10
5.3419
 20
3.01
 30
0
 11
5.352699999999999
 21
3.007
 31
0
  0
LINE
  8
0
 62
7
 10
5.352699999999999
 20
3.007
 30
0
 11
5.360799999999998
 21
3.001
 31
0
  0
LINE
  8
0
 62
7
 10
5.360799999999998
 20
3.001
 30
0
 11
5.363499999999998
 21
2.995
 31
0
  0
LINE
  8
0
 62
7
 10
5.363499999999998
 20
2.995
 30
0
 11
5.366199999999999
 21
2.986
 31
0
  0
LINE
  8
0
 62
7
 10
5.366199999999999
 20
2.986
 30
0
 11
5.366199999999999
 21
2.974
 31
0
  0
LINE
  8
0
 62
7
 10
5.366199999999999
 20
2.974
 30
0
 11
5.363499999999998
 21
2.965
 31
0
  0
LINE
  8
0
 62
7
 10
5.363499999999998
 20
2.965
 30
0
 11
5.360799999999998
 21
2.959
 31
0
  0
LINE
  8
0
 62
7
 10
5.360799999999998
 20
2.959
 30
0
 11
5.352699999999999
 21
2.953
 31
0
  0
LINE
  8
0
 62
7
 10
5.352699999999999
 20
2.953
 30
0
 11
5.3419
 21
2.95
 31
0
  0
LINE
  8
0
 62
7
 10
5.3419
 20
2.95
 30
0
 11
5.3338
 21
2.95
 31
0
  0
LINE
  8
0
 62
7
 10
5.3338
 20
2.95
 30
0
 11
5.366199999999999
 21
2.890000000000001
 31
0
  0
LINE
  8
0
 62
7
 10
5.3338
 20
2.95
 30
0
 11
5.290599999999999
 21
2.95
 31
0
  0
LINE
  8
0
 62
7
 10
5.387799999999999
 20
2.938
 30
0
 11
5.390499999999999
 21
2.95
 31
0
  0
LINE
  8
0
 62
7
 10
5.390499999999999
 20
2.95
 30
0
 11
5.3959
 21
2.959
 31
0
  0
LINE
  8
0
 62
7
 10
5.3959
 20
2.959
 30
0
 11
5.403999999999999
 21
2.965
 31
0
  0
LINE
  8
0
 62
7
 10
5.403999999999999
 20
2.965
 30
0
 11
5.4121
 21
2.968
 31
0
  0
LINE
  8
0
 62
7
 10
5.4121
 20
2.968
 30
0
 11
5.428299999999999
 21
2.968
 31
0
  0
LINE
  8
0
 62
7
 10
5.428299999999999
 20
2.968
 30
0
 11
5.436399999999999
 21
2.965
 31
0
  0
LINE
  8
0
 62
7
 10
5.436399999999999
 20
2.965
 30
0
 11
5.444499999999999
 21
2.959
 31
0
  0
LINE
  8
0
 62
7
 10
5.444499999999999
 20
2.959
 30
0
 11
5.4499
 21
2.95
 31
0
  0
LINE
  8
0
 62
7
 10
5.4499
 20
2.95
 30
0
 11
5.452599999999999
 21
2.938
 31
0
  0
LINE
  8
0
 62
7
 10
5.452599999999999
 20
2.938
 30
0
 11
5.452599999999999
 21
2.92
 31
0
  0
LINE
  8
0
 62
7
 10
5.452599999999999
 20
2.92
 30
0
 11
5.4499
 21
2.908
 31
0
  0
LINE
  8
0
 62
7
 10
5.4499
 20
2.908
 30
0
 11
5.444499999999999
 21
2.899
 31
0
  0
LINE
  8
0
 62
7
 10
5.444499999999999
 20
2.899
 30
0
 11
5.436399999999999
 21
2.893
 31
0
  0
LINE
  8
0
 62
7
 10
5.436399999999999
 20
2.893
 30
0
 11
5.428299999999999
 21
2.890000000000001
 31
0
  0
LINE
  8
0
 62
7
 10
5.428299999999999
 20
2.890000000000001
 30
0
 11
5.4121
 21
2.890000000000001
 31
0
  0
LINE
  8
0
 62
7
 10
5.4121
 20
2.890000000000001
 30
0
 11
5.403999999999999
 21
2.893
 31
0
  0
LINE
  8
0
 62
7
 10
5.403999999999999
 20
2.893
 30
0
 11
5.3959
 21
2.899
 31
0
  0
LINE
  8
0
 62
7
 10
5.3959
 20
2.899
 30
0
 11
5.390499999999999
 21
2.908
 31
0
  0
LINE
  8
0
 62
7
 10
5.390499999999999
 20
2.908
 30
0
 11
5.387799999999999
 21
2.92
 31
0
  0
LINE
  8
0
 62
7
 10
5.387799999999999
 20
2.92
 30
0
 11
5.387799999999999
 21
2.938
 31
0
  0
LINE
  8
0
 62
7
 10
5.387799999999999
 20
2.98
 30
0
 11
5.390499999999999
 21
2.992
 31
0
  0
LINE
  8
0
 62
7
 10
5.390499999999999
 20
2.992
 30
0
 11
5.3959
 21
3.001
 31
0
  0
LINE
  8
0
 62
7
 10
5.3959
 20
3.001
 30
0
 11
5.403999999999999
 21
3.007
 31
0
  0
LINE
  8
0
 62
7
 10
5.403999999999999
 20
3.007
 30
0
 11
5.4121
 21
3.01
 31
0
  0
LINE
  8
0
 62
7
 10
5.4121
 20
3.01
 30
0
 11
5.428299999999999
 21
3.01
 31
0
  0
LINE
  8
0
 62
7
 10
5.428299999999999
 20
3.01
 30
0
 11
5.436399999999999
 21
3.007
 31
0
  0
LINE
  8
0
 62
7
 10
5.436399999999999
 20
3.007
 30
0
 11
5.444499999999999
 21
3.001
 31
0
  0
LINE
  8
0
 62
7
 10
5.444499999999999
 20
3.001
 30
0
 11
5.4499
 21
2.992
 31
0
  0
LINE
  8
0
 62
7
 10
5.387799999999999
 20
2.938
 30
0
 11
5.387799999999999
 21
2.98
 31
0
  0
LINE
  8
0
 62
7
 10
7.174999999999999
 20
2.890000000000001
 30
0
 11
7.174999999999999
 21
2.99
 31
0
  0
LINE
  8
0
 62
7
 10
7.174999999999999
 20
2.99
 30
0
 11
7.237999999999999
 21
2.890000000000001
 31
0
  0
LINE
  8
0
 62
7
 10
7.237999999999999
 20
2.890000000000001
 30
0
 11
7.237999999999999
 21
2.99
 31
0
  0
LINE
  8
0
 62
7
 10
7.318999999999999
 20
2.890000000000001
 30
0
 11
7.265
 21
2.890000000000001
 31
0
  0
LINE
  8
0
 62
7
 10
7.265
 20
2.890000000000001
 30
0
 11
7.265
 21
2.99
 31
0
  0
LINE
  8
0
 62
7
 10
7.346
 20
2.94
 30
0
 11
7.381999999999998
 21
2.94
 31
0
  0
LINE
  8
0
 62
7
 10
7.381999999999998
 20
2.94
 30
0
 11
7.386499999999998
 21
2.94
 31
0
  0
LINE
  8
0
 62
7
 10
7.386499999999998
 20
2.94
 30
0
 11
7.395499999999998
 21
2.935
 31
0
  0
LINE
  8
0
 62
7
 10
7.395499999999998
 20
2.935
 30
0
 11
7.399999999999999
 21
2.93
 31
0
  0
LINE
  8
0
 62
7
 10
7.399999999999999
 20
2.93
 30
0
 11
7.404499999999999
 21
2.92
 31
0
  0
LINE
  8
0
 62
7
 10
7.404499999999999
 20
2.92
 30
0
 11
7.404499999999999
 21
2.91
 31
0
  0
LINE
  8
0
 62
7
 10
7.404499999999999
 20
2.91
 30
0
 11
7.399999999999999
 21
2.9
 31
0
  0
LINE
  8
0
 62
7
 10
7.399999999999999
 20
2.9
 30
0
 11
7.395499999999998
 21
2.895
 31
0
  0
LINE
  8
0
 62
7
 10
7.395499999999998
 20
2.895
 30
0
 11
7.386499999999998
 21
2.890000000000001
 31
0
  0
LINE
  8
0
 62
7
 10
7.386499999999998
 20
2.890000000000001
 30
0
 11
7.346
 21
2.890000000000001
 31
0
  0
LINE
  8
0
 62
7
 10
7.346
 20
2.890000000000001
 30
0
 11
7.346
 21
2.94
 31
0
  0
LINE
  8
0
 62
7
 10
7.346
 20
2.99
 30
0
 11
7.37975
 21
2.99
 31
0
  0
LINE
  8
0
 62
7
 10
7.37975
 20
2.99
 30
0
 11
7.391
 21
2.9875
 31
0
  0
LINE
  8
0
 62
7
 10
7.391
 20
2.9875
 30
0
 11
7.397749999999998
 21
2.98
 31
0
  0
LINE
  8
0
 62
7
 10
7.397749999999998
 20
2.98
 30
0
 11
7.399999999999999
 21
2.97
 31
0
  0
LINE
  8
0
 62
7
 10
7.399999999999999
 20
2.97
 30
0
 11
7.399999999999999
 21
2.96
 31
0
  0
LINE
  8
0
 62
7
 10
7.399999999999999
 20
2.96
 30
0
 11
7.395499999999998
 21
2.95
 31
0
  0
LINE
  8
0
 62
7
 10
7.395499999999998
 20
2.95
 30
0
 11
7.388749999999999
 21
2.9425
 31
0
  0
LINE
  8
0
 62
7
 10
7.388749999999999
 20
2.9425
 30
0
 11
7.381999999999998
 21
2.94
 31
0
  0
LINE
  8
0
 62
7
 10
7.346
 20
2.94
 30
0
 11
7.346
 21
2.99
 31
0
  0
LINE
  8
0
 62
7
 10
7.54625
 20
2.9425
 30
0
 11
7.539499999999999
 21
2.952500000000001
 31
0
  0
LINE
  8
0
 62
7
 10
7.539499999999999
 20
2.952500000000001
 30
0
 11
7.532749999999999
 21
2.9575
 31
0
  0
LINE
  8
0
 62
7
 10
7.532749999999999
 20
2.9575
 30
0
 11
7.526
 21
2.96
 31
0
  0
LINE
  8
0
 62
7
 10
7.526
 20
2.96
 30
0
 11
7.516999999999999
 21
2.96
 31
0
  0
LINE
  8
0
 62
7
 10
7.516999999999999
 20
2.96
 30
0
 11
7.510249999999998
 21
2.9575
 31
0
  0
LINE
  8
0
 62
7
 10
7.510249999999998
 20
2.9575
 30
0
 11
7.5035
 21
2.952500000000001
 31
0
  0
LINE
  8
0
 62
7
 10
7.5035
 20
2.952500000000001
 30
0
 11
7.496749999999999
 21
2.9425
 31
0
  0
LINE
  8
0
 62
7
 10
7.496749999999999
 20
2.9425
 30
0
 11
7.494499999999999
 21
2.935
 31
0
  0
LINE
  8
0
 62
7
 10
7.494499999999999
 20
2.935
 30
0
 11
7.494499999999999
 21
2.915
 31
0
  0
LINE
  8
0
 62
7
 10
7.494499999999999
 20
2.915
 30
0
 11
7.496749999999999
 21
2.9075
 31
0
  0
LINE
  8
0
 62
7
 10
7.496749999999999
 20
2.9075
 30
0
 11
7.5035
 21
2.8975
 31
0
  0
LINE
  8
0
 62
7
 10
7.5035
 20
2.8975
 30
0
 11
7.510249999999998
 21
2.8925
 31
0
  0
LINE
  8
0
 62
7
 10
7.510249999999998
 20
2.8925
 30
0
 11
7.516999999999999
 21
2.890000000000001
 31
0
  0
LINE
  8
0
 62
7
 10
7.516999999999999
 20
2.890000000000001
 30
0
 11
7.526
 21
2.890000000000001
 31
0
  0
LINE
  8
0
 62
7
 10
7.526
 20
2.890000000000001
 30
0
 11
7.532749999999999
 21
2.8925
 31
0
  0
LINE
  8
0
 62
7
 10
7.532749999999999
 20
2.8925
 30
0
 11
7.539499999999999
 21
2.8975
 31
0
  0
LINE
  8
0
 62
7
 10
7.539499999999999
 20
2.8975
 30
0
 11
7.54625
 21
2.9075
 31
0
  0
LINE
  8
0
 62
7
 10
7.61825
 20
2.935
 30
0
 11
7.616
 21
2.9425
 31
0
  0
LINE
  8
0
 62
7
 10
7.616
 20
2.9425
 30
0
 11
7.609249999999999
 21
2.952500000000001
 31
0
  0
LINE
  8
0
 62
7
 10
7.609249999999999
 20
2.952500000000001
 30
0
 11
7.602499999999999
 21
2.9575
 31
0
  0
LINE
  8
0
 62
7
 10
7.602499999999999
 20
2.9575
 30
0
 11
7.595749999999999
 21
2.96
 31
0
  0
LINE
  8
0
 62
7
 10
7.595749999999999
 20
2.96
 30
0
 11
7.586749999999999
 21
2.96
 31
0
  0
LINE
  8
0
 62
7
 10
7.586749999999999
 20
2.96
 30
0
 11
7.58
 21
2.9575
 31
0
  0
LINE
  8
0
 62
7
 10
7.58
 20
2.9575
 30
0
 11
7.573249999999999
 21
2.952500000000001
 31
0
  0
LINE
  8
0
 62
7
 10
7.573249999999999
 20
2.952500000000001
 30
0
 11
7.566499999999998
 21
2.9425
 31
0
  0
LINE
  8
0
 62
7
 10
7.566499999999998
 20
2.9425
 30
0
 11
7.564249999999999
 21
2.935
 31
0
  0
LINE
  8
0
 62
7
 10
7.564249999999999
 20
2.935
 30
0
 11
7.564249999999999
 21
2.915
 31
0
  0
LINE
  8
0
 62
7
 10
7.564249999999999
 20
2.915
 30
0
 11
7.566499999999998
 21
2.9075
 31
0
  0
LINE
  8
0
 62
7
 10
7.566499999999998
 20
2.9075
 30
0
 11
7.573249999999999
 21
2.8975
 31
0
  0
LINE
  8
0
 62
7
 10
7.573249999999999
 20
2.8975
 30
0
 11
7.58
 21
2.8925
 31
0
  0
LINE
  8
0
 62
7
 10
7.58
 20
2.8925
 30
0
 11
7.586749999999999
 21
2.890000000000001
 31
0
  0
LINE
  8
0
 62
7
 10
7.586749999999999
 20
2.890000000000001
 30
0
 11
7.595749999999999
 21
2.890000000000001
 31
0
  0
LINE
  8
0
 62
7
 10
7.595749999999999
 20
2.890000000000001
 30
0
 11
7.602499999999999
 21
2.8925
 31
0
  0
LINE
  8
0
 62
7
 10
7.602499999999999
 20
2.8925
 30
0
 11
7.609249999999999
 21
2.8975
 31
0
  0
LINE
  8
0
 62
7
 10
7.609249999999999
 20
2.8975
 30
0
 11
7.616
 21
2.9075
 31
0
  0
LINE
  8
0
 62
7
 10
7.616
 20
2.9075
 30
0
 11
7.61825
 21
2.915
 31
0
  0
LINE
  8
0
 62
7
 10
7.61825
 20
2.96
 30
0
 11
7.61825
 21
2.935
 31
0
  0
LINE
  8
0
 62
7
 10
7.61825
 20
2.8925
 30
0
 11
7.620499999999999
 21
2.890000000000001
 31
0
  0
LINE
  8
0
 62
7
 10
7.620499999999999
 20
2.890000000000001
 30
0
 11
7.622749999999998
 21
2.890000000000001
 31
0
  0
LINE
  8
0
 62
7
 10
7.61825
 20
2.915
 30
0
 11
7.61825
 21
2.8925
 31
0
  0
LINE
  8
0
 62
7
 10
7.61825
 20
2.935
 30
0
 11
7.61825
 21
2.915
 31
0
  0
LINE
  8
0
 62
7
 10
7.640749999999999
 20
2.890000000000001
 30
0
 11
7.640749999999999
 21
2.8925
 31
0
  0
LINE
  8
0
 62
7
 10
7.640749999999999
 20
2.8925
 30
0
 11
7.642999999999998
 21
2.8925
 31
0
  0
LINE
  8
0
 62
7
 10
7.642999999999998
 20
2.8925
 30
0
 11
7.642999999999998
 21
2.890000000000001
 31
0
  0
LINE
  8
0
 62
7
 10
7.642999999999998
 20
2.890000000000001
 30
0
 11
7.640749999999999
 21
2.890000000000001
 31
0
  0
LINE
  8
0
 62
7
 10
7.766749999999999
 20
2.99
 30
0
 11
7.775749999999999
 21
2.99
 31
0
  0
LINE
  8
0
 62
7
 10
7.775749999999999
 20
2.99
 30
0
 11
7.782499999999999
 21
2.9875
 31
0
  0
LINE
  8
0
 62
7
 10
7.782499999999999
 20
2.9875
 30
0
 11
7.786999999999999
 21
2.9825
 31
0
  0
LINE
  8
0
 62
7
 10
7.786999999999999
 20
2.9825
 30
0
 11
7.791499999999998
 21
2.975
 31
0
  0
LINE
  8
0
 62
7
 10
7.791499999999998
 20
2.975
 30
0
 11
7.791499999999998
 21
2.965
 31
0
  0
LINE
  8
0
 62
7
 10
7.791499999999998
 20
2.965
 30
0
 11
7.789249999999999
 21
2.96
 31
0
  0
LINE
  8
0
 62
7
 10
7.789249999999999
 20
2.96
 30
0
 11
7.782499999999999
 21
2.952500000000001
 31
0
  0
LINE
  8
0
 62
7
 10
7.782499999999999
 20
2.952500000000001
 30
0
 11
7.775749999999999
 21
2.95
 31
0
  0
LINE
  8
0
 62
7
 10
7.775749999999999
 20
2.95
 30
0
 11
7.766749999999999
 21
2.95
 31
0
  0
LINE
  8
0
 62
7
 10
7.766749999999999
 20
2.95
 30
0
 11
7.76
 21
2.952500000000001
 31
0
  0
LINE
  8
0
 62
7
 10
7.76
 20
2.952500000000001
 30
0
 11
7.753249999999999
 21
2.96
 31
0
  0
LINE
  8
0
 62
7
 10
7.753249999999999
 20
2.96
 30
0
 11
7.750999999999999
 21
2.965
 31
0
  0
LINE
  8
0
 62
7
 10
7.750999999999999
 20
2.965
 30
0
 11
7.750999999999999
 21
2.975
 31
0
  0
LINE
  8
0
 62
7
 10
7.750999999999999
 20
2.975
 30
0
 11
7.755499999999998
 21
2.9825
 31
0
  0
LINE
  8
0
 62
7
 10
7.755499999999998
 20
2.9825
 30
0
 11
7.76
 21
2.9875
 31
0
  0
LINE
  8
0
 62
7
 10
7.76
 20
2.9875
 30
0
 11
7.766749999999999
 21
2.99
 31
0
  0
LINE
  8
0
 62
7
 10
7.766749999999999
 20
2.95
 30
0
 11
7.755499999999998
 21
2.945
 31
0
  0
LINE
  8
0
 62
7
 10
7.755499999999998
 20
2.945
 30
0
 11
7.74875
 21
2.9375
 31
0
  0
LINE
  8
0
 62
7
 10
7.74875
 20
2.9375
 30
0
 11
7.744249999999998
 21
2.9275
 31
0
  0
LINE
  8
0
 62
7
 10
7.744249999999998
 20
2.9275
 30
0
 11
7.744249999999998
 21
2.9125
 31
0
  0
LINE
  8
0
 62
7
 10
7.744249999999998
 20
2.9125
 30
0
 11
7.74875
 21
2.9025
 31
0
  0
LINE
  8
0
 62
7
 10
7.74875
 20
2.9025
 30
0
 11
7.755499999999998
 21
2.895
 31
0
  0
LINE
  8
0
 62
7
 10
7.755499999999998
 20
2.895
 30
0
 11
7.764499999999998
 21
2.890000000000001
 31
0
  0
LINE
  8
0
 62
7
 10
7.764499999999998
 20
2.890000000000001
 30
0
 11
7.777999999999999
 21
2.890000000000001
 31
0
  0
LINE
  8
0
 62
7
 10
7.777999999999999
 20
2.890000000000001
 30
0
 11
7.786999999999999
 21
2.895
 31
0
  0
LINE
  8
0
 62
7
 10
7.786999999999999
 20
2.895
 30
0
 11
7.793749999999999
 21
2.9025
 31
0
  0
LINE
  8
0
 62
7
 10
7.793749999999999
 20
2.9025
 30
0
 11
7.798249999999999
 21
2.9125
 31
0
  0
LINE
  8
0
 62
7
 10
7.798249999999999
 20
2.9125
 30
0
 11
7.798249999999999
 21
2.9275
 31
0
  0
LINE
  8
0
 62
7
 10
7.798249999999999
 20
2.9275
 30
0
 11
7.793749999999999
 21
2.9375
 31
0
  0
LINE
  8
0
 62
7
 10
7.793749999999999
 20
2.9375
 30
0
 11
7.786999999999999
 21
2.945
 31
0
  0
LINE
  8
0
 62
7
 10
7.786999999999999
 20
2.945
 30
0
 11
7.775749999999999
 21
2.95
 31
0
  0
LINE
  8
0
 62
7
 10
7.888249999999998
 20
2.95
 30
0
 11
7.886
 21
2.94
 31
0
  0
LINE
  8
0
 62
7
 10
7.886
 20
2.94
 30
0
 11
7.881499999999999
 21
2.9325
 31
0
  0
LINE
  8
0
 62
7
 10
7.881499999999999
 20
2.9325
 30
0
 11
7.874749999999999
 21
2.9275
 31
0
  0
LINE
  8
0
 62
7
 10
7.874749999999999
 20
2.9275
 30
0
 11
7.867999999999999
 21
2.925
 31
0
  0
LINE
  8
0
 62
7
 10
7.867999999999999
 20
2.925
 30
0
 11
7.854499999999999
 21
2.925
 31
0
  0
LINE
  8
0
 62
7
 10
7.854499999999999
 20
2.925
 30
0
 11
7.847749999999998
 21
2.9275
 31
0
  0
LINE
  8
0
 62
7
 10
7.847749999999998
 20
2.9275
 30
0
 11
7.841
 21
2.9325
 31
0
  0
LINE
  8
0
 62
7
 10
7.841
 20
2.9325
 30
0
 11
7.836499999999998
 21
2.94
 31
0
  0
LINE
  8
0
 62
7
 10
7.836499999999998
 20
2.94
 30
0
 11
7.834249999999999
 21
2.95
 31
0
  0
LINE
  8
0
 62
7
 10
7.834249999999999
 20
2.95
 30
0
 11
7.834249999999999
 21
2.965
 31
0
  0
LINE
  8
0
 62
7
 10
7.834249999999999
 20
2.965
 30
0
 11
7.836499999999998
 21
2.975
 31
0
  0
LINE
  8
0
 62
7
 10
7.836499999999998
 20
2.975
 30
0
 11
7.841
 21
2.9825
 31
0
  0
LINE
  8
0
 62
7
 10
7.841
 20
2.9825
 30
0
 11
7.847749999999998
 21
2.9875
 31
0
  0
LINE
  8
0
 62
7
 10
7.847749999999998
 20
2.9875
 30
0
 11
7.854499999999999
 21
2.99
 31
0
  0
LINE
  8
0
 62
7
 10
7.854499999999999
 20
2.99
 30
0
 11
7.867999999999999
 21
2.99
 31
0
  0
LINE
  8
0
 62
7
 10
7.867999999999999
 20
2.99
 30
0
 11
7.874749999999999
 21
2.9875
 31
0
  0
LINE
  8
0
 62
7
 10
7.874749999999999
 20
2.9875
 30
0
 11
7.881499999999999
 21
2.9825
 31
0
  0
LINE
  8
0
 62
7
 10
7.881499999999999
 20
2.9825
 30
0
 11
7.886
 21
2.975
 31
0
  0
LINE
  8
0
 62
7
 10
7.886
 20
2.975
 30
0
 11
7.888249999999998
 21
2.965
 31
0
  0
LINE
  8
0
 62
7
 10
7.888249999999998
 20
2.965
 30
0
 11
7.888249999999998
 21
2.95
 31
0
  0
LINE
  8
0
 62
7
 10
7.888249999999998
 20
2.915
 30
0
 11
7.886
 21
2.905
 31
0
  0
LINE
  8
0
 62
7
 10
7.886
 20
2.905
 30
0
 11
7.881499999999999
 21
2.8975
 31
0
  0
LINE
  8
0
 62
7
 10
7.881499999999999
 20
2.8975
 30
0
 11
7.874749999999999
 21
2.8925
 31
0
  0
LINE
  8
0
 62
7
 10
7.874749999999999
 20
2.8925
 30
0
 11
7.867999999999999
 21
2.890000000000001
 31
0
  0
LINE
  8
0
 62
7
 10
7.867999999999999
 20
2.890000000000001
 30
0
 11
7.854499999999999
 21
2.890000000000001
 31
0
  0
LINE
  8
0
 62
7
 10
7.854499999999999
 20
2.890000000000001
 30
0
 11
7.847749999999998
 21
2.8925
 31
0
  0
LINE
  8
0
 62
7
 10
7.847749999999998
 20
2.8925
 30
0
 11
7.841
 21
2.8975
 31
0
  0
LINE
  8
0
 62
7
 10
7.841
 20
2.8975
 30
0
 11
7.836499999999998
 21
2.905
 31
0
  0
LINE
  8
0
 62
7
 10
7.888249999999998
 20
2.95
 30
0
 11
7.888249999999998
 21
2.915
 31
0
  0
LINE
  8
0
 62
7
 10
8.039
 20
2.9425
 30
0
 11
8.032249999999999
 21
2.952500000000001
 31
0
  0
LINE
  8
0
 62
7
 10
8.032249999999999
 20
2.952500000000001
 30
0
 11
8.025499999999999
 21
2.9575
 31
0
  0
LINE
  8
0
 62
7
 10
8.025499999999999
 20
2.9575
 30
0
 11
8.018749999999999
 21
2.96
 31
0
  0
LINE
  8
0
 62
7
 10
8.018749999999999
 20
2.96
 30
0
 11
8.00975
 21
2.96
 31
0
  0
LINE
  8
0
 62
7
 10
8.00975
 20
2.96
 30
0
 11
8.002999999999998
 21
2.9575
 31
0
  0
LINE
  8
0
 62
7
 10
8.002999999999998
 20
2.9575
 30
0
 11
7.99625
 21
2.952500000000001
 31
0
  0
LINE
  8
0
 62
7
 10
7.99625
 20
2.952500000000001
 30
0
 11
7.989499999999999
 21
2.9425
 31
0
  0
LINE
  8
0
 62
7
 10
7.989499999999999
 20
2.9425
 30
0
 11
7.98725
 21
2.935
 31
0
  0
LINE
  8
0
 62
7
 10
7.98725
 20
2.935
 30
0
 11
7.98725
 21
2.915
 31
0
  0
LINE
  8
0
 62
7
 10
7.98725
 20
2.915
 30
0
 11
7.989499999999999
 21
2.9075
 31
0
  0
LINE
  8
0
 62
7
 10
7.989499999999999
 20
2.9075
 30
0
 11
7.99625
 21
2.8975
 31
0
  0
LINE
  8
0
 62
7
 10
7.99625
 20
2.8975
 30
0
 11
8.002999999999998
 21
2.8925
 31
0
  0
LINE
  8
0
 62
7
 10
8.002999999999998
 20
2.8925
 30
0
 11
8.00975
 21
2.890000000000001
 31
0
  0
LINE
  8
0
 62
7
 10
8.00975
 20
2.890000000000001
 30
0
 11
8.018749999999999
 21
2.890000000000001
 31
0
  0
LINE
  8
0
 62
7
 10
8.018749999999999
 20
2.890000000000001
 30
0
 11
8.025499999999999
 21
2.8925
 31
0
  0
LINE
  8
0
 62
7
 10
8.025499999999999
 20
2.8925
 30
0
 11
8.032249999999999
 21
2.8975
 31
0
  0
LINE
  8
0
 62
7
 10
8.032249999999999
 20
2.8975
 30
0
 11
8.039
 21
2.9075
 31
0
  0
LINE
  8
0
 62
7
 10
8.0975
 20
2.935
 30
0
 11
8.0975
 21
2.890000000000001
 31
0
  0
LINE
  8
0
 62
7
 10
8.056999999999999
 20
2.96
 30
0
 11
8.056999999999999
 21
2.935
 31
0
  0
LINE
  8
0
 62
7
 10
8.056999999999999
 20
2.890000000000001
 30
0
 11
8.056999999999999
 21
2.935
 31
0
  0
LINE
  8
0
 62
7
 10
8.056999999999999
 20
2.935
 30
0
 11
8.059249999999999
 21
2.9475
 31
0
  0
LINE
  8
0
 62
7
 10
8.059249999999999
 20
2.9475
 30
0
 11
8.061499999999999
 21
2.952500000000001
 31
0
  0
LINE
  8
0
 62
7
 10
8.061499999999999
 20
2.952500000000001
 30
0
 11
8.066000000000001
 21
2.9575
 31
0
  0
LINE
  8
0
 62
7
 10
8.066000000000001
 20
2.9575
 30
0
 11
8.072749999999997
 21
2.96
 31
0
  0
LINE
  8
0
 62
7
 10
8.072749999999997
 20
2.96
 30
0
 11
8.081749999999998
 21
2.96
 31
0
  0
LINE
  8
0
 62
7
 10
8.081749999999998
 20
2.96
 30
0
 11
8.0885
 21
2.9575
 31
0
  0
LINE
  8
0
 62
7
 10
8.0885
 20
2.9575
 30
0
 11
8.092999999999998
 21
2.952500000000001
 31
0
  0
LINE
  8
0
 62
7
 10
8.092999999999998
 20
2.952500000000001
 30
0
 11
8.095249999999998
 21
2.9475
 31
0
  0
LINE
  8
0
 62
7
 10
8.095249999999998
 20
2.9475
 30
0
 11
8.0975
 21
2.935
 31
0
  0
LINE
  8
0
 62
7
 10
8.0975
 20
2.935
 30
0
 11
8.099749999999998
 21
2.9475
 31
0
  0
LINE
  8
0
 62
7
 10
8.099749999999998
 20
2.9475
 30
0
 11
8.101999999999999
 21
2.952500000000001
 31
0
  0
LINE
  8
0
 62
7
 10
8.101999999999999
 20
2.952500000000001
 30
0
 11
8.106499999999999
 21
2.9575
 31
0
  0
LINE
  8
0
 62
7
 10
8.106499999999999
 20
2.9575
 30
0
 11
8.113249999999999
 21
2.96
 31
0
  0
LINE
  8
0
 62
7
 10
8.113249999999999
 20
2.96
 30
0
 11
8.122249999999999
 21
2.96
 31
0
  0
LINE
  8
0
 62
7
 10
8.122249999999999
 20
2.96
 30
0
 11
8.128999999999998
 21
2.9575
 31
0
  0
LINE
  8
0
 62
7
 10
8.1335
 20
2.952500000000001
 30
0
 11
8.128999999999998
 21
2.9575
 31
0
  0
LINE
  8
0
 62
7
 10
8.128999999999998
 20
2.9575
 30
0
 11
8.1335
 21
2.952500000000001
 31
0
  0
LINE
  8
0
 62
7
 10
8.1335
 20
2.952500000000001
 30
0
 11
8.13575
 21
2.9475
 31
0
  0
LINE
  8
0
 62
7
 10
8.13575
 20
2.9475
 30
0
 11
8.137999999999998
 21
2.935
 31
0
  0
LINE
  8
0
 62
7
 10
8.137999999999998
 20
2.935
 30
0
 11
8.137999999999998
 21
2.890000000000001
 31
0
  0
ARC
  8
0
 62
7
 10
6.420480981124697
 20
4.175480981124691
 30
0
 40
0.5030000000000008
 50
359.9452068416874
 51
90.05479315688412
  0
ARC
  8
0
 62
7
 10
6.044519018875317
 20
4.175480981124701
 30
0
 40
0.5030000000000022
 50
89.94520684161209
 51
180.0547931557269
  0
CIRCLE
  8
0
 62
7
 10
5.541519248884578
 20
3.25
 30
0
 40
0.0600000000000005
  0
DIMENSION
  8
0
  6
CONTINUOUS
 62
7
  2
*D0
  3
DMST_1
 10
8.00759341267811
 20
3.35
 30
0
 11
8.00759341267811
 21
4.25830050317947
 31
0
 12
0
 22
0
 32
0
 70
0
 13
7.599999999999999
 23
5.180000000000001
 33
0
 14
7.599999999999999
 24
3.35
 34
0
 50
90
 53
0
  0
DIMENSION
  8
0
  6
CONTINUOUS
 62
7
  2
*D1
  3
DMST_1
 10
7.424999999999999
 20
6.109647527820371
 30
0
 11
6.258289137426871
 21
6.109647527820371
 31
0
 12
0
 22
0
 32
0
 70
0
 13
5.039999999999999
 23
5.699999999999999
 33
0
 14
7.424999999999999
 24
5.699999999999999
 34
0
 53
0
  0
DIMENSION
  8
0
  6
CONTINUOUS
 62
7
  2
*D2
  3
DMST_1
 10
4.50898486217563
 20
3.25
 30
0
 11
4.50898486217563
 21
4.15625775378982
 31
0
 12
0
 22
0
 32
0
 70
0
 13
4.864999999999998
 23
5.180000000000001
 33
0
 14
4.864999999999998
 24
3.25
 34
0
 50
90
 53
0
  0
DIMENSION
  8
0
  6
CONTINUOUS
 62
7
  2
*D3
  3
DMST_2
 10
7.424999999999999
 20
11.4450255673367
 30
0
 11
6.243711601799781
 21
11.4450255673367
 31
0
 12
0
 22
0
 32
0
 70
0
 13
5.039999999999999
 23
11.2
 33
0
 14
7.424999999999999
 24
11.2
 34
0
 53
0
  0
INSERT
  8
0
  2
*D4
 10
0
 20
0
 30
0
  0
ENDSEC
  0
EOF
