  0
SECTION
  2
HEADER
  9
$ACADVER
  1
AC1009
  9
$INSBASE
 10
0
 20
0
  9
$EXTMIN
 10
0.1000000000000001
 20
-0.2000000000000004
  9
$EXTMAX
 10
7.96306934934421
 20
8.481146574689079
  9
$LIMMIN
 10
0.1000000000000001
 20
-0.2000000000000004
  9
$LIMMAX
 10
7.96306934934421
 20
8.481146574689079
  9
$VIEWCTR
 10
10
 20
10
  9
$VIEWSIZE
 40
10
  9
$SNAPMODE
 70
0
  9
$SNAPUNIT
 10
1
 20
1
  9
$SNAPBASE
 10
0
 20
0
  9
$SNAPANG
 50
0
  9
$SNAPSTYLE
 70
0
  9
$SNAPISOPAIR
 70
0
  9
$GRIDMODE
 70
0
  9
$GRIDUNIT
 10
0
 20
0
  9
$ORTHOMODE
 70
0
  9
$REGENMODE
 70
1
  9
$FILLMODE
 70
1
  9
$QTEXTMODE
 70
0
  9
$DRAGMODE
 70
2
  9
$LTSCALE
 40
1
  9
$OSMODE
 70
0
  9
$ATTMODE
 70
1
  9
$TEXTSIZE
 40
3.5
  9
$TRACEWID
 40
0.5
  9
$TEXTSTYLE
  7
STANDARD
  9
$CLAYER
  8
0
  9
$CELTYPE
  6
BYLAYER
  9
$CECOLOR
 62
256
  9
$DIMSCALE
 40
1
  9
$DIMASZ
 40
0.18
  9
$DIMEXO
 40
0.0625
  9
$DIMDLI
 40
0.38
  9
$DIMRND
 40
0
  9
$DIMDLE
 40
0
  9
$DIMEXE
 40
0.18
  9
$DIMTP
 40
0
  9
$DIMTM
 40
0
  9
$DIMTXT
 40
0.18
  9
$DIMCEN
 40
0.09
  9
$DIMTSZ
 40
0
  9
$DIMTOL
 70
0
  9
$DIMLIM
 70
0
  9
$DIMTIH
 70
1
  9
$DIMTOH
 70
1
  9
$DIMSE1
 70
0
  9
$DIMSE2
 70
0
  9
$DIMTAD
 70
0
  9
$DIMZIN
 70
0
  9
$DIMBLK
  1

  9
$DIMASO
 70
1
  9
$DIMSHO
 70
1
  9
$DIMPOST
  1

  9
$DIMAPOST
  1

  9
$DIMALT
 70
0
  9
$DIMALTD
 70
2
  9
$DIMALTF
 40
25.4
  9
$DIMLFAC
 40
1
  9
$DIMTOFL
 70
0
  9
$DIMTVP
 40
0
  9
$DIMTIX
 70
0
  9
$DIMSOXD
 70
0
  9
$DIMSAH
 70
0
  9
$DIMBLK1
  1

  9
$DIMBLK2
  1

  9
$DIMSTYLE
  2
*UNNAMED
  9
$DIMCLRD
 70
0
  9
$DIMCLRE
 70
0
  9
$DIMCLRT
 70
0
  9
$DIMTFAC
 40
1
  9
$DIMGAP
 40
0.09
  9
$LUNITS
 70
2
  9
$LUPREC
 70
4
  9
$AXISMODE
 70
0
  9
$AXISUNIT
 10
0
 20
0
  9
$SKETCHINC
 40
0.1
  9
$FILLETRAD
 40
2
  9
$AUNITS
 70
0
  9
$AUPREC
 70
0
  9
$MENU
  1
ACAD
  9
$ELEVATION
 40
0
  9
$THICKNESS
 40
0
  9
$VIEWDIR
 10
0
 20
0
 30
1
  9
$LIMCHECK
 70
0
  9
$BLIPMODE
 70
1
  9
$CHAMFERA
 40
0
  9
$CHAMFERB
 40
0
  9
$FASTZOOM
 70
1
  9
$SKPOLY
 70
0
  9
$ANGBASE
 50
0
  9
$ANGDIR
 70
0
  9
$PDMODE
 70
0
  9
$PDSIZE
 40
0
  9
$PLINEWID
 40
0
  9
$COORDS
 70
2
  0
ENDSEC
  0
SECTION
  2
TABLES
  0
TABLE
  2
DIMSTYLE
 70
2
  0
DIMSTYLE
  2
DMST_1
 70
0
  3

  4

  5

  6

  7

 40
1
 41
0.1
 42
0
 43
0.7
 44
0.2
 45
0
 46
0
 47
0
 48
0
140
0.1
141
0
142
0.1
143
25.4
144
1
145
0
146
1
147
0.25
 71
0
 72
0
 73
0
 74
0
 75
0
 76
0
 77
0
 78
9
170
0
171
2
172
0
173
0
174
0
175
0
176
7
177
7
178
7
  0
DIMSTYLE
  2
DMST_2
 70
0
  3

  4

  5

  6

  7

 40
1
 41
0.1
 42
0
 43
0.7
 44
0.2
 45
0
 46
0
 47
0
 48
0
140
0.1
141
0
142
0.1
143
25.4
144
1
145
0
146
1
147
0.2
 71
0
 72
0
 73
0
 74
0
 75
0
 76
0
 77
0
 78
9
170
0
171
2
172
0
173
0
174
0
175
0
176
7
177
7
178
7
  0
ENDTAB
  0
TABLE
  2
LTYPE
 70
9
  0
LTYPE
  2
CONTINUOUS
 70
64
  3
Solid line
 72
65
 73
0
 40
0
  0
LTYPE
  2
BORDER
 70
64
  3
__ __ . __ __ .
 72
65
 73
6
 40
0.3997896448869971
 49
0.1142256128248563
 49
-0.05711280641242816
 49
0.1142256128248563
 49
-0.05711280641242816
 49
0
 49
-0.05711280641242816
  0
LTYPE
  2
CENTER
 70
64
  3
____ _ ____ _
 72
65
 73
4
 40
0.4569024512994253
 49
0.2855640320621408
 49
-0.05711280641242816
 49
0.05711280641242816
 49
-0.05711280641242816
  0
LTYPE
  2
DASHDOT
 70
64
  3
__ . __ . __ .
 72
65
 73
4
 40
0.2284512256497127
 49
0.1142256128248563
 49
-0.05711280641242816
 49
0
 49
-0.05711280641242816
  0
LTYPE
  2
DASHED
 70
64
  3
__ __ __ __ __
 72
65
 73
2
 40
0.1713384192372845
 49
0.1142256128248563
 49
-0.05711280641242816
  0
LTYPE
  2
DIVIDE
 70
64
  3
__ . . __ . . 
 72
65
 73
6
 40
0.2855640320621408
 49
0.1142256128248563
 49
-0.05711280641242816
 49
0
 49
-0.05711280641242816
 49
0
 49
-0.05711280641242816
  0
LTYPE
  2
DOT
 70
64
  3
..............
 72
65
 73
4
 40
0.1142256128248563
 49
0
 49
-0.05711280641242816
 49
0
 49
-0.05711280641242816
  0
LTYPE
  2
HIDDEN
 70
64
  3
_ _ _ _ _ _ _
 72
65
 73
2
 40
0.08566920961864224
 49
0.05711280641242816
 49
-0.02855640320621408
  0
LTYPE
  2
PHANTOM
 70
64
  3
_____ _ _ _____ _ _ 
 72
65
 73
6
 40
0.5711280641242816
 49
0.2855640320621408
 49
-0.05711280641242816
 49
0.05711280641242816
 49
-0.05711280641242816
 49
0.05711280641242816
 49
-0.05711280641242816
  0
ENDTAB
  0
TABLE
  2
LAYER
 70
2
  0
LAYER
  2
0
 70
0
 62
7
  6
CONTINUOUS
  0
ENDTAB
  0
TABLE
  2
STYLE
 70
4
  0
STYLE
  2
STANDARD
 70
0
 40
0
 41
1
 50
0
 71
0
 42
3.5
  3
txt
  4

  0
STYLE
  2
SIMPLEX
 70
0
 40
0
 41
1
 50
0
 71
0
 42
3.5
  3
simplex
  4

  0
STYLE
  2
COMPLEX
 70
0
 40
0
 41
1
 50
0
 71
0
 42
3.5
  3
complex
  4

  0
STYLE
  2
ITALIC
 70
0
 40
0
 41
1
 50
0
 71
0
 42
3.5
  3
italic
  4

  0
ENDTAB
  0
TABLE
  2
VIEW
 70
0
  0
ENDTAB
  0
ENDSEC
  0
SECTION
  2
BLOCKS
  0
BLOCK
  8
0
  2
*X0
 70
1
 10
0
 20
0
 30
0
  0
LINE
  8
0
 62
7
  6
DASHED
 10
0.149999999999999
 20
5.135102807365159
 30
0
 11
0.2248971926348351
 21
5.209999999999995
 31
0
  0
LINE
  8
0
 62
7
  6
DASHED
 10
0.2370292269907988
 20
5.009999999999994
 30
0
 11
0.3899999999999997
 21
5.162970773009194
 31
0
  0
LINE
  8
0
 62
7
 10
0.1499999999999986
 20
5.029036790187176
 30
0
 11
0.330963209812817
 21
5.209999999999994
 31
0
  0
LINE
  8
0
 62
7
 10
0.3430952441687807
 20
5.009999999999994
 30
0
 11
0.3899999999999992
 21
5.056904755831212
 31
0
  0
ENDBLK
  8
0
  0
BLOCK
  8
0
  2
*X1
 70
1
 10
0
 20
0
 30
0
  0
LINE
  8
0
 62
7
  6
DASHED
 10
0.1500000000000004
 20
7.892819253992695
 30
0
 11
0.2171807460073021
 21
7.959999999999996
 31
0
  0
LINE
  8
0
 62
7
  6
DASHED
 10
0.2293127803632657
 20
7.759999999999994
 30
0
 11
0.3900000000000001
 21
7.920687219636729
 31
0
  0
LINE
  8
0
 62
7
 10
0.1499999999999995
 20
7.786753236814711
 30
0
 11
0.323246763185284
 21
7.959999999999996
 31
0
  0
LINE
  8
0
 62
7
 10
0.3353787975412481
 20
7.759999999999995
 30
0
 11
0.3900000000000001
 21
7.814621202458747
 31
0
  0
ENDBLK
  8
0
  0
BLOCK
  8
0
  2
*X2
 70
1
 10
0
 20
0
 30
0
  0
LINE
  8
0
 62
7
  6
DASHED
 10
2.169999999999998
 20
7.791498910433051
 30
0
 11
2.338501089566945
 21
7.959999999999997
 31
0
  0
LINE
  8
0
 62
7
  6
DASHED
 10
2.350633123922908
 20
7.759999999999995
 30
0
 11
2.469999999999998
 21
7.879366876077086
 31
0
  0
LINE
  8
0
 62
7
 10
2.169999999999998
 20
7.897564927611031
 30
0
 11
2.232435072388963
 21
7.959999999999996
 31
0
  0
LINE
  8
0
 62
7
 10
2.244567106744927
 20
7.759999999999996
 30
0
 11
2.444567106744927
 21
7.959999999999996
 31
0
  0
LINE
  8
0
 62
7
 10
2.456699141100891
 20
7.759999999999996
 30
0
 11
2.469999999999998
 21
7.773300858899102
 31
0
  0
ENDBLK
  8
0
  0
BLOCK
  8
0
  2
*X3
 70
1
 10
0
 20
0
 30
0
  0
LINE
  8
0
 62
7
  6
DASHED
 10
2.169999999999998
 20
5.033782463805514
 30
0
 11
2.346217536194478
 21
5.209999999999996
 31
0
  0
LINE
  8
0
 62
7
  6
DASHED
 10
2.358349570550441
 20
5.009999999999994
 30
0
 11
2.469999999999998
 21
5.12165042944955
 31
0
  0
LINE
  8
0
 62
7
 10
2.169999999999997
 20
5.139848480983496
 30
0
 11
2.240151519016496
 21
5.209999999999996
 31
0
  0
LINE
  8
0
 62
7
 10
2.252283553372459
 20
5.009999999999994
 30
0
 11
2.452283553372461
 21
5.209999999999996
 31
0
  0
LINE
  8
0
 62
7
 10
2.464415587728423
 20
5.009999999999994
 30
0
 11
2.469999999999998
 21
5.015584412271568
 31
0
  0
ENDBLK
  8
0
  0
BLOCK
  8
0
  2
*X4
 70
1
 10
0
 20
0
 30
0
  0
LINE
  8
0
 62
7
 10
0.1499999999999999
 20
8.104951288348659
 30
0
 11
0.1550487116513364
 21
8.109999999999994
 31
0
  0
LINE
  8
0
 62
7
 10
0.2171807460073021
 20
7.959999999999996
 30
0
 11
0.3671807460073007
 21
8.109999999999994
 31
0
  0
LINE
  8
0
 62
7
 10
0.1499999999999995
 20
7.998885271170677
 30
0
 11
0.2611147288293196
 21
8.109999999999996
 31
0
  0
LINE
  8
0
 62
7
 10
0.3232467631852844
 20
7.959999999999996
 30
0
 11
0.3900000000000001
 21
8.026753236814711
 31
0
  0
ENDBLK
  8
0
  0
BLOCK
  8
0
  2
*X5
 70
1
 10
0
 20
0
 30
0
  0
LINE
  8
0
 62
7
 10
0.1499999999999999
 20
7.680687219636726
 30
0
 11
0.2293127803632644
 21
7.759999999999995
 31
0
  0
LINE
  8
0
 62
7
 10
0.1499999999999999
 20
7.468555185280762
 30
0
 11
0.3900000000000006
 21
7.708555185280762
 31
0
  0
LINE
  8
0
 62
7
 10
0.1499999999999999
 20
7.256423150924798
 30
0
 11
0.3900000000000006
 21
7.496423150924798
 31
0
  0
LINE
  8
0
 62
7
 10
0.1499999999999999
 20
7.044291116568834
 30
0
 11
0.3900000000000006
 21
7.284291116568834
 31
0
  0
LINE
  8
0
 62
7
 10
0.1499999999999999
 20
6.83215908221287
 30
0
 11
0.3900000000000006
 21
7.07215908221287
 31
0
  0
LINE
  8
0
 62
7
 10
0.1499999999999999
 20
6.620027047856906
 30
0
 11
0.3900000000000006
 21
6.860027047856907
 31
0
  0
LINE
  8
0
 62
7
 10
0.1499999999999999
 20
6.407895013500942
 30
0
 11
0.3900000000000006
 21
6.647895013500943
 31
0
  0
LINE
  8
0
 62
7
 10
0.1499999999999999
 20
6.195762979144979
 30
0
 11
0.3900000000000006
 21
6.435762979144979
 31
0
  0
LINE
  8
0
 62
7
 10
0.1499999999999999
 20
5.983630944789015
 30
0
 11
0.3900000000000006
 21
6.223630944789015
 31
0
  0
LINE
  8
0
 62
7
 10
0.1499999999999999
 20
5.771498910433051
 30
0
 11
0.3900000000000006
 21
6.011498910433051
 31
0
  0
LINE
  8
0
 62
7
 10
0.1499999999999999
 20
5.559366876077087
 30
0
 11
0.3900000000000006
 21
5.799366876077087
 31
0
  0
LINE
  8
0
 62
7
 10
0.1499999999999999
 20
5.347234841721123
 30
0
 11
0.3900000000000006
 21
5.587234841721124
 31
0
  0
LINE
  8
0
 62
7
 10
0.2248971926348355
 20
5.209999999999995
 30
0
 11
0.3900000000000006
 21
5.37510280736516
 31
0
  0
LINE
  8
0
 62
7
 10
0.1499999999999999
 20
7.574621202458744
 30
0
 11
0.3353787975412477
 21
7.759999999999995
 31
0
  0
LINE
  8
0
 62
7
 10
0.1499999999999999
 20
7.36248916810278
 30
0
 11
0.3900000000000001
 21
7.602489168102779
 31
0
  0
LINE
  8
0
 62
7
 10
0.1499999999999999
 20
7.150357133746816
 30
0
 11
0.3900000000000001
 21
7.390357133746815
 31
0
  0
LINE
  8
0
 62
7
 10
0.1499999999999999
 20
6.938225099390852
 30
0
 11
0.3900000000000001
 21
7.178225099390851
 31
0
  0
LINE
  8
0
 62
7
 10
0.1499999999999999
 20
6.726093065034888
 30
0
 11
0.3900000000000001
 21
6.966093065034888
 31
0
  0
LINE
  8
0
 62
7
 10
0.1499999999999999
 20
6.513961030678924
 30
0
 11
0.3900000000000001
 21
6.753961030678924
 31
0
  0
LINE
  8
0
 62
7
 10
0.1499999999999999
 20
6.301828996322961
 30
0
 11
0.3900000000000001
 21
6.54182899632296
 31
0
  0
LINE
  8
0
 62
7
 10
0.1499999999999999
 20
6.089696961966997
 30
0
 11
0.3900000000000001
 21
6.329696961966996
 31
0
  0
LINE
  8
0
 62
7
 10
0.1499999999999999
 20
5.877564927611033
 30
0
 11
0.3900000000000001
 21
6.117564927611032
 31
0
  0
LINE
  8
0
 62
7
 10
0.1499999999999999
 20
5.665432893255069
 30
0
 11
0.3900000000000001
 21
5.905432893255068
 31
0
  0
LINE
  8
0
 62
7
 10
0.1499999999999999
 20
5.453300858899105
 30
0
 11
0.3900000000000001
 21
5.693300858899105
 31
0
  0
LINE
  8
0
 62
7
 10
0.1499999999999999
 20
5.241168824543141
 30
0
 11
0.3900000000000001
 21
5.481168824543141
 31
0
  0
LINE
  8
0
 62
7
 10
0.3309632098128175
 20
5.209999999999994
 30
0
 11
0.3900000000000001
 21
5.269036790187177
 31
0
  0
ENDBLK
  8
0
  0
BLOCK
  8
0
  2
*X6
 70
1
 10
0
 20
0
 30
0
  0
LINE
  8
0
 62
7
 10
0.1499999999999999
 20
4.922970773009196
 30
0
 11
0.2370292269907979
 21
5.009999999999993
 31
0
  0
LINE
  8
0
 62
7
 10
0.2991612613467622
 20
4.859999999999992
 30
0
 11
0.3899999999999992
 21
4.95083873865323
 31
0
  0
LINE
  8
0
 62
7
 10
0.1930952441687808
 20
4.859999999999993
 30
0
 11
0.3430952441687807
 21
5.009999999999994
 31
0
  0
ENDBLK
  8
0
  0
BLOCK
  8
0
  2
*X7
 70
1
 10
0
 20
0
 30
0
  0
LINE
  8
0
 62
7
  6
DASHED
 10
4.239999999999998
 20
7.952310601229372
 30
0
 11
4.247689398770629
 21
7.959999999999997
 31
0
  0
LINE
  8
0
 62
7
  6
DASHED
 10
4.259821433126591
 20
7.759999999999995
 30
0
 11
4.459821433126593
 21
7.959999999999997
 31
0
  0
LINE
  8
0
 62
7
  6
DASHED
 10
4.471953467482555
 20
7.759999999999995
 30
0
 11
4.671953467482557
 21
7.959999999999997
 31
0
  0
LINE
  8
0
 62
7
  6
DASHED
 10
4.684085501838519
 20
7.759999999999995
 30
0
 11
4.884085501838521
 21
7.959999999999997
 31
0
  0
LINE
  8
0
 62
7
  6
DASHED
 10
4.896217536194483
 20
7.759999999999995
 30
0
 11
5.096217536194485
 21
7.959999999999997
 31
0
  0
LINE
  8
0
 62
7
  6
DASHED
 10
5.108349570550446
 20
7.759999999999995
 30
0
 11
5.308349570550448
 21
7.959999999999997
 31
0
  0
LINE
  8
0
 62
7
  6
DASHED
 10
5.32048160490641
 20
7.759999999999995
 30
0
 11
5.520481604906412
 21
7.959999999999997
 31
0
  0
LINE
  8
0
 62
7
  6
DASHED
 10
5.532613639262374
 20
7.759999999999995
 30
0
 11
5.732613639262376
 21
7.959999999999997
 31
0
  0
LINE
  8
0
 62
7
  6
DASHED
 10
5.744745673618338
 20
7.759999999999995
 30
0
 11
5.94474567361834
 21
7.959999999999997
 31
0
  0
LINE
  8
0
 62
7
  6
DASHED
 10
5.956877707974302
 20
7.759999999999995
 30
0
 11
6.156877707974304
 21
7.959999999999997
 31
0
  0
LINE
  8
0
 62
7
  6
DASHED
 10
6.169009742330266
 20
7.759999999999995
 30
0
 11
6.369009742330268
 21
7.959999999999997
 31
0
  0
LINE
  8
0
 62
7
  6
DASHED
 10
6.38114177668623
 20
7.759999999999995
 30
0
 11
6.581141776686231
 21
7.959999999999997
 31
0
  0
LINE
  8
0
 62
7
  6
DASHED
 10
6.593273811042193
 20
7.759999999999995
 30
0
 11
6.793273811042195
 21
7.959999999999997
 31
0
  0
LINE
  8
0
 62
7
  6
DASHED
 10
6.805405845398157
 20
7.759999999999995
 30
0
 11
7.005405845398159
 21
7.959999999999997
 31
0
  0
LINE
  8
0
 62
7
  6
DASHED
 10
7.017537879754121
 20
7.759999999999995
 30
0
 11
7.217537879754123
 21
7.959999999999997
 31
0
  0
LINE
  8
0
 62
7
  6
DASHED
 10
7.229669914110085
 20
7.759999999999995
 30
0
 11
7.399999999999997
 21
7.930330085889907
 31
0
  0
LINE
  8
0
 62
7
 10
4.239999999999998
 20
7.846244584051389
 30
0
 11
4.353755415948611
 21
7.959999999999996
 31
0
  0
LINE
  8
0
 62
7
 10
4.365887450304575
 20
7.759999999999995
 30
0
 11
4.565887450304575
 21
7.959999999999996
 31
0
  0
LINE
  8
0
 62
7
 10
4.578019484660539
 20
7.759999999999995
 30
0
 11
4.778019484660539
 21
7.959999999999996
 31
0
  0
LINE
  8
0
 62
7
 10
4.790151519016502
 20
7.759999999999995
 30
0
 11
4.990151519016503
 21
7.959999999999996
 31
0
  0
LINE
  8
0
 62
7
 10
5.002283553372466
 20
7.759999999999995
 30
0
 11
5.202283553372467
 21
7.959999999999996
 31
0
  0
LINE
  8
0
 62
7
 10
5.21441558772843
 20
7.759999999999995
 30
0
 11
5.41441558772843
 21
7.959999999999996
 31
0
  0
LINE
  8
0
 62
7
 10
5.426547622084394
 20
7.759999999999995
 30
0
 11
5.626547622084394
 21
7.959999999999996
 31
0
  0
LINE
  8
0
 62
7
 10
5.638679656440358
 20
7.759999999999995
 30
0
 11
5.838679656440358
 21
7.959999999999996
 31
0
  0
LINE
  8
0
 62
7
 10
5.850811690796322
 20
7.759999999999995
 30
0
 11
6.050811690796322
 21
7.959999999999996
 31
0
  0
LINE
  8
0
 62
7
 10
6.062943725152286
 20
7.759999999999995
 30
0
 11
6.262943725152286
 21
7.959999999999996
 31
0
  0
LINE
  8
0
 62
7
 10
6.275075759508249
 20
7.759999999999995
 30
0
 11
6.47507575950825
 21
7.959999999999996
 31
0
  0
LINE
  8
0
 62
7
 10
6.487207793864213
 20
7.759999999999995
 30
0
 11
6.687207793864213
 21
7.959999999999996
 31
0
  0
LINE
  8
0
 62
7
 10
6.699339828220177
 20
7.759999999999995
 30
0
 11
6.899339828220177
 21
7.959999999999996
 31
0
  0
LINE
  8
0
 62
7
 10
6.911471862576141
 20
7.759999999999995
 30
0
 11
7.111471862576141
 21
7.959999999999996
 31
0
  0
LINE
  8
0
 62
7
 10
7.123603896932105
 20
7.759999999999995
 30
0
 11
7.323603896932105
 21
7.959999999999996
 31
0
  0
LINE
  8
0
 62
7
 10
7.335735931288069
 20
7.759999999999995
 30
0
 11
7.399999999999999
 21
7.824264068711924
 31
0
  0
ENDBLK
  8
0
  0
BLOCK
  8
0
  2
*X8
 70
1
 10
0
 20
0
 30
0
  0
LINE
  8
0
 62
7
  6
DASHED
 10
4.239999999999998
 20
5.194594154601836
 30
0
 11
4.255405845398162
 21
5.209999999999995
 31
0
  0
LINE
  8
0
 62
7
  6
DASHED
 10
4.267537879754125
 20
5.009999999999994
 30
0
 11
4.467537879754126
 21
5.209999999999995
 31
0
  0
LINE
  8
0
 62
7
  6
DASHED
 10
4.479669914110089
 20
5.009999999999994
 30
0
 11
4.679669914110089
 21
5.209999999999995
 31
0
  0
LINE
  8
0
 62
7
  6
DASHED
 10
4.691801948466053
 20
5.009999999999994
 30
0
 11
4.891801948466053
 21
5.209999999999995
 31
0
  0
LINE
  8
0
 62
7
  6
DASHED
 10
4.903933982822017
 20
5.009999999999994
 30
0
 11
5.103933982822017
 21
5.209999999999995
 31
0
  0
LINE
  8
0
 62
7
  6
DASHED
 10
5.116066017177981
 20
5.009999999999994
 30
0
 11
5.316066017177981
 21
5.209999999999995
 31
0
  0
LINE
  8
0
 62
7
  6
DASHED
 10
5.328198051533945
 20
5.009999999999994
 30
0
 11
5.528198051533945
 21
5.209999999999995
 31
0
  0
LINE
  8
0
 62
7
  6
DASHED
 10
5.540330085889908
 20
5.009999999999994
 30
0
 11
5.740330085889909
 21
5.209999999999995
 31
0
  0
LINE
  8
0
 62
7
  6
DASHED
 10
5.752462120245872
 20
5.009999999999994
 30
0
 11
5.952462120245873
 21
5.209999999999995
 31
0
  0
LINE
  8
0
 62
7
  6
DASHED
 10
5.964594154601836
 20
5.009999999999994
 30
0
 11
6.164594154601836
 21
5.209999999999995
 31
0
  0
LINE
  8
0
 62
7
  6
DASHED
 10
6.1767261889578
 20
5.009999999999994
 30
0
 11
6.3767261889578
 21
5.209999999999995
 31
0
  0
LINE
  8
0
 62
7
  6
DASHED
 10
6.388858223313764
 20
5.009999999999994
 30
0
 11
6.588858223313764
 21
5.209999999999995
 31
0
  0
LINE
  8
0
 62
7
  6
DASHED
 10
6.600990257669728
 20
5.009999999999994
 30
0
 11
6.800990257669728
 21
5.209999999999995
 31
0
  0
LINE
  8
0
 62
7
  6
DASHED
 10
6.813122292025692
 20
5.009999999999994
 30
0
 11
7.013122292025692
 21
5.209999999999995
 31
0
  0
LINE
  8
0
 62
7
  6
DASHED
 10
7.025254326381655
 20
5.009999999999994
 30
0
 11
7.225254326381656
 21
5.209999999999995
 31
0
  0
LINE
  8
0
 62
7
  6
DASHED
 10
7.237386360737619
 20
5.009999999999994
 30
0
 11
7.399999999999997
 21
5.172613639262372
 31
0
  0
LINE
  8
0
 62
7
 10
4.239999999999998
 20
5.088528137423855
 30
0
 11
4.361471862576144
 21
5.209999999999995
 31
0
  0
LINE
  8
0
 62
7
 10
4.373603896932106
 20
5.009999999999993
 30
0
 11
4.573603896932108
 21
5.209999999999995
 31
0
  0
LINE
  8
0
 62
7
 10
4.58573593128807
 20
5.009999999999993
 30
0
 11
4.785735931288071
 21
5.209999999999995
 31
0
  0
LINE
  8
0
 62
7
 10
4.797867965644034
 20
5.009999999999993
 30
0
 11
4.997867965644035
 21
5.209999999999995
 31
0
  0
LINE
  8
0
 62
7
 10
5.009999999999998
 20
5.009999999999993
 30
0
 11
5.209999999999999
 21
5.209999999999995
 31
0
  0
LINE
  8
0
 62
7
 10
5.222132034355962
 20
5.009999999999993
 30
0
 11
5.422132034355963
 21
5.209999999999995
 31
0
  0
LINE
  8
0
 62
7
 10
5.434264068711926
 20
5.009999999999993
 30
0
 11
5.634264068711927
 21
5.209999999999995
 31
0
  0
LINE
  8
0
 62
7
 10
5.64639610306789
 20
5.009999999999993
 30
0
 11
5.846396103067891
 21
5.209999999999995
 31
0
  0
LINE
  8
0
 62
7
 10
5.858528137423853
 20
5.009999999999993
 30
0
 11
6.058528137423854
 21
5.209999999999995
 31
0
  0
LINE
  8
0
 62
7
 10
6.070660171779817
 20
5.009999999999993
 30
0
 11
6.270660171779818
 21
5.209999999999995
 31
0
  0
LINE
  8
0
 62
7
 10
6.282792206135781
 20
5.009999999999993
 30
0
 11
6.482792206135782
 21
5.209999999999995
 31
0
  0
LINE
  8
0
 62
7
 10
6.494924240491745
 20
5.009999999999993
 30
0
 11
6.694924240491746
 21
5.209999999999995
 31
0
  0
LINE
  8
0
 62
7
 10
6.707056274847709
 20
5.009999999999993
 30
0
 11
6.90705627484771
 21
5.209999999999995
 31
0
  0
LINE
  8
0
 62
7
 10
6.919188309203673
 20
5.009999999999993
 30
0
 11
7.119188309203674
 21
5.209999999999995
 31
0
  0
LINE
  8
0
 62
7
 10
7.131320343559636
 20
5.009999999999993
 30
0
 11
7.331320343559637
 21
5.209999999999995
 31
0
  0
LINE
  8
0
 62
7
 10
7.3434523779156
 20
5.009999999999993
 30
0
 11
7.399999999999999
 21
5.066547622084391
 31
0
  0
ENDBLK
  8
0
  0
BLOCK
  8
0
  2
*X9
 70
1
 10
0
 20
0
 30
0
  0
LINE
  8
0
 62
7
 10
4.389999999999999
 20
8.102310601229371
 30
0
 11
4.397689398770622
 21
8.109999999999996
 31
0
  0
LINE
  8
0
 62
7
 10
4.459821433126586
 20
7.959999999999996
 30
0
 11
4.564999999999999
 21
8.065178566873408
 31
0
  0
LINE
  8
0
 62
7
 10
4.389999999999999
 20
7.99624458405139
 30
0
 11
4.503755415948604
 21
8.109999999999996
 31
0
  0
ENDBLK
  8
0
  0
BLOCK
  8
0
  2
*X10
 70
1
 10
0
 20
0
 30
0
  0
LINE
  8
0
 62
7
 10
4.389999999999999
 20
7.678046532517439
 30
0
 11
4.47195346748255
 21
7.759999999999994
 31
0
  0
LINE
  8
0
 62
7
 10
4.389999999999999
 20
7.465914498161475
 30
0
 11
4.564999999999999
 21
7.640914498161475
 31
0
  0
LINE
  8
0
 62
7
 10
4.389999999999999
 20
7.253782463805512
 30
0
 11
4.564999999999999
 21
7.428782463805511
 31
0
  0
LINE
  8
0
 62
7
 10
4.389999999999999
 20
7.041650429449548
 30
0
 11
4.564999999999999
 21
7.216650429449547
 31
0
  0
LINE
  8
0
 62
7
 10
4.389999999999999
 20
6.829518395093584
 30
0
 11
4.564999999999999
 21
7.004518395093584
 31
0
  0
LINE
  8
0
 62
7
 10
4.389999999999999
 20
6.61738636073762
 30
0
 11
4.564999999999999
 21
6.79238636073762
 31
0
  0
LINE
  8
0
 62
7
 10
4.389999999999999
 20
6.405254326381656
 30
0
 11
4.564999999999999
 21
6.580254326381656
 31
0
  0
LINE
  8
0
 62
7
 10
4.389999999999999
 20
6.193122292025692
 30
0
 11
4.564999999999999
 21
6.368122292025692
 31
0
  0
LINE
  8
0
 62
7
 10
4.389999999999999
 20
5.980990257669728
 30
0
 11
4.564999999999999
 21
6.155990257669728
 31
0
  0
LINE
  8
0
 62
7
 10
4.389999999999999
 20
5.768858223313765
 30
0
 11
4.564999999999999
 21
5.943858223313764
 31
0
  0
LINE
  8
0
 62
7
 10
4.389999999999999
 20
5.556726188957801
 30
0
 11
4.564999999999999
 21
5.731726188957801
 31
0
  0
LINE
  8
0
 62
7
 10
4.389999999999999
 20
5.344594154601837
 30
0
 11
4.564999999999999
 21
5.519594154601837
 31
0
  0
LINE
  8
0
 62
7
 10
4.46753787975412
 20
5.209999999999995
 30
0
 11
4.564999999999999
 21
5.307462120245873
 31
0
  0
LINE
  8
0
 62
7
 10
4.389999999999999
 20
7.571980515339457
 30
0
 11
4.564999999999999
 21
7.746980515339457
 31
0
  0
LINE
  8
0
 62
7
 10
4.389999999999999
 20
7.359848480983493
 30
0
 11
4.564999999999999
 21
7.534848480983493
 31
0
  0
LINE
  8
0
 62
7
 10
4.389999999999999
 20
7.14771644662753
 30
0
 11
4.564999999999999
 21
7.322716446627529
 31
0
  0
LINE
  8
0
 62
7
 10
4.389999999999999
 20
6.935584412271566
 30
0
 11
4.564999999999999
 21
7.110584412271566
 31
0
  0
LINE
  8
0
 62
7
 10
4.389999999999999
 20
6.723452377915602
 30
0
 11
4.564999999999999
 21
6.898452377915602
 31
0
  0
LINE
  8
0
 62
7
 10
4.389999999999999
 20
6.511320343559638
 30
0
 11
4.564999999999999
 21
6.686320343559638
 31
0
  0
LINE
  8
0
 62
7
 10
4.389999999999999
 20
6.299188309203674
 30
0
 11
4.564999999999999
 21
6.474188309203674
 31
0
  0
LINE
  8
0
 62
7
 10
4.389999999999999
 20
6.08705627484771
 30
0
 11
4.564999999999999
 21
6.26205627484771
 31
0
  0
LINE
  8
0
 62
7
 10
4.389999999999999
 20
5.874924240491747
 30
0
 11
4.564999999999999
 21
6.049924240491746
 31
0
  0
LINE
  8
0
 62
7
 10
4.389999999999999
 20
5.662792206135783
 30
0
 11
4.564999999999999
 21
5.837792206135783
 31
0
  0
LINE
  8
0
 62
7
 10
4.389999999999999
 20
5.450660171779819
 30
0
 11
4.564999999999999
 21
5.625660171779819
 31
0
  0
LINE
  8
0
 62
7
 10
4.389999999999999
 20
5.238528137423855
 30
0
 11
4.564999999999999
 21
5.413528137423855
 31
0
  0
ENDBLK
  8
0
  0
BLOCK
  8
0
  2
*X11
 70
1
 10
0
 20
0
 30
0
  0
LINE
  8
0
 62
7
 10
4.389999999999999
 20
4.92033008588991
 30
0
 11
4.479669914110083
 21
5.009999999999994
 31
0
  0
LINE
  8
0
 62
7
 10
4.541801948466048
 20
4.859999999999993
 30
0
 11
4.564999999999999
 21
4.883198051533943
 31
0
  0
LINE
  8
0
 62
7
 10
4.435735931288066
 20
4.859999999999993
 30
0
 11
4.564999999999999
 21
4.989264068711925
 31
0
  0
ENDBLK
  8
0
  0
BLOCK
  8
0
  2
*X12
 70
1
 10
0
 20
0
 30
0
  0
LINE
  8
0
 62
7
 10
7.074999999999998
 20
8.029594154601837
 30
0
 11
7.155405845398159
 21
8.109999999999996
 31
0
  0
LINE
  8
0
 62
7
 10
7.217537879754122
 20
7.959999999999996
 30
0
 11
7.25
 21
7.992462120245874
 31
0
  0
LINE
  8
0
 62
7
 10
7.11147186257614
 20
7.959999999999996
 30
0
 11
7.25
 21
8.098528137423855
 31
0
  0
ENDBLK
  8
0
  0
BLOCK
  8
0
  2
*X13
 70
1
 10
0
 20
0
 30
0
  0
LINE
  8
0
 62
7
 10
7.074999999999998
 20
7.605330085889904
 30
0
 11
7.229669914110085
 21
7.759999999999995
 31
0
  0
LINE
  8
0
 62
7
 10
7.074999999999998
 20
7.39319805153394
 30
0
 11
7.249999999999999
 21
7.56819805153394
 31
0
  0
LINE
  8
0
 62
7
 10
7.074999999999998
 20
7.181066017177976
 30
0
 11
7.249999999999999
 21
7.356066017177977
 31
0
  0
LINE
  8
0
 62
7
 10
7.074999999999998
 20
6.968933982822012
 30
0
 11
7.249999999999999
 21
7.143933982822013
 31
0
  0
LINE
  8
0
 62
7
 10
7.074999999999998
 20
6.756801948466048
 30
0
 11
7.249999999999999
 21
6.931801948466049
 31
0
  0
LINE
  8
0
 62
7
 10
7.074999999999998
 20
6.544669914110084
 30
0
 11
7.249999999999999
 21
6.719669914110085
 31
0
  0
LINE
  8
0
 62
7
 10
7.074999999999998
 20
6.332537879754121
 30
0
 11
7.249999999999999
 21
6.507537879754121
 31
0
  0
LINE
  8
0
 62
7
 10
7.074999999999998
 20
6.120405845398157
 30
0
 11
7.249999999999999
 21
6.295405845398157
 31
0
  0
LINE
  8
0
 62
7
 10
7.074999999999998
 20
5.908273811042193
 30
0
 11
7.249999999999999
 21
6.083273811042194
 31
0
  0
LINE
  8
0
 62
7
 10
7.074999999999998
 20
5.696141776686229
 30
0
 11
7.249999999999999
 21
5.87114177668623
 31
0
  0
LINE
  8
0
 62
7
 10
7.074999999999998
 20
5.484009742330265
 30
0
 11
7.249999999999999
 21
5.659009742330266
 31
0
  0
LINE
  8
0
 62
7
 10
7.074999999999998
 20
5.271877707974301
 30
0
 11
7.249999999999999
 21
5.446877707974302
 31
0
  0
LINE
  8
0
 62
7
 10
7.225254326381656
 20
5.209999999999995
 30
0
 11
7.249999999999999
 21
5.234745673618338
 31
0
  0
LINE
  8
0
 62
7
 10
7.074999999999998
 20
7.711396103067885
 30
0
 11
7.123603896932102
 21
7.759999999999994
 31
0
  0
LINE
  8
0
 62
7
 10
7.074999999999998
 20
7.499264068711922
 30
0
 11
7.249999999999999
 21
7.674264068711922
 31
0
  0
LINE
  8
0
 62
7
 10
7.074999999999998
 20
7.287132034355958
 30
0
 11
7.249999999999999
 21
7.462132034355959
 31
0
  0
LINE
  8
0
 62
7
 10
7.074999999999998
 20
7.074999999999994
 30
0
 11
7.249999999999999
 21
7.249999999999995
 31
0
  0
LINE
  8
0
 62
7
 10
7.074999999999998
 20
6.86286796564403
 30
0
 11
7.249999999999999
 21
7.037867965644031
 31
0
  0
LINE
  8
0
 62
7
 10
7.074999999999998
 20
6.650735931288066
 30
0
 11
7.249999999999999
 21
6.825735931288067
 31
0
  0
LINE
  8
0
 62
7
 10
7.074999999999998
 20
6.438603896932102
 30
0
 11
7.249999999999999
 21
6.613603896932103
 31
0
  0
LINE
  8
0
 62
7
 10
7.074999999999998
 20
6.226471862576139
 30
0
 11
7.249999999999999
 21
6.401471862576139
 31
0
  0
LINE
  8
0
 62
7
 10
7.074999999999998
 20
6.014339828220175
 30
0
 11
7.249999999999999
 21
6.189339828220175
 31
0
  0
LINE
  8
0
 62
7
 10
7.074999999999998
 20
5.802207793864211
 30
0
 11
7.249999999999999
 21
5.977207793864212
 31
0
  0
LINE
  8
0
 62
7
 10
7.074999999999998
 20
5.590075759508247
 30
0
 11
7.249999999999999
 21
5.765075759508248
 31
0
  0
LINE
  8
0
 62
7
 10
7.074999999999998
 20
5.377943725152283
 30
0
 11
7.249999999999999
 21
5.552943725152284
 31
0
  0
LINE
  8
0
 62
7
 10
7.119188309203673
 20
5.209999999999994
 30
0
 11
7.249999999999999
 21
5.34081169079632
 31
0
  0
ENDBLK
  8
0
  0
BLOCK
  8
0
  2
*X14
 70
1
 10
0
 20
0
 30
0
  0
LINE
  8
0
 62
7
 10
7.087386360737617
 20
4.859999999999992
 30
0
 11
7.237386360737617
 21
5.009999999999993
 31
0
  0
LINE
  8
0
 62
7
 10
7.074999999999998
 20
4.953679656440356
 30
0
 11
7.131320343559636
 21
5.009999999999994
 31
0
  0
LINE
  8
0
 62
7
 10
7.1934523779156
 20
4.859999999999992
 30
0
 11
7.249999999999999
 21
4.916547622084392
 31
0
  0
ENDBLK
  8
0
  0
BLOCK
  8
0
  2
*X15
 70
1
 10
0
 20
0
 30
0
  0
LINE
  8
0
 62
7
 10
4.389999999999999
 20
2.586877707974303
 30
0
 11
4.51312229202569
 21
2.709999999999994
 31
0
  0
LINE
  8
0
 62
7
 10
4.239999999999998
 20
2.436877707974302
 30
0
 11
4.36312229202569
 21
2.559999999999993
 31
0
  0
LINE
  8
0
 62
7
 10
4.335254326381666
 20
2.319999999999999
 30
0
 11
4.575254326381659
 21
2.559999999999994
 31
0
  0
LINE
  8
0
 62
7
 10
4.547386360737629
 20
2.319999999999999
 30
0
 11
4.787386360737623
 21
2.559999999999994
 31
0
  0
LINE
  8
0
 62
7
 10
4.759518395093593
 20
2.319999999999999
 30
0
 11
4.999518395093586
 21
2.559999999999994
 31
0
  0
LINE
  8
0
 62
7
 10
4.971650429449557
 20
2.319999999999999
 30
0
 11
5.21165042944955
 21
2.559999999999994
 31
0
  0
LINE
  8
0
 62
7
 10
5.183782463805521
 20
2.319999999999999
 30
0
 11
5.423782463805514
 21
2.559999999999994
 31
0
  0
LINE
  8
0
 62
7
 10
5.395914498161485
 20
2.319999999999999
 30
0
 11
5.635914498161478
 21
2.559999999999994
 31
0
  0
LINE
  8
0
 62
7
 10
5.608046532517449
 20
2.319999999999999
 30
0
 11
5.848046532517442
 21
2.559999999999994
 31
0
  0
LINE
  8
0
 62
7
 10
5.820178566873413
 20
2.319999999999999
 30
0
 11
6.060178566873406
 21
2.559999999999994
 31
0
  0
LINE
  8
0
 62
7
 10
6.032310601229376
 20
2.319999999999999
 30
0
 11
6.272310601229369
 21
2.559999999999994
 31
0
  0
LINE
  8
0
 62
7
 10
6.24444263558534
 20
2.319999999999999
 30
0
 11
6.484442635585333
 21
2.559999999999994
 31
0
  0
LINE
  8
0
 62
7
 10
6.456574669941304
 20
2.319999999999999
 30
0
 11
6.696574669941297
 21
2.559999999999994
 31
0
  0
LINE
  8
0
 62
7
 10
6.668706704297268
 20
2.319999999999999
 30
0
 11
6.908706704297261
 21
2.559999999999994
 31
0
  0
LINE
  8
0
 62
7
 10
6.880838738653232
 20
2.319999999999999
 30
0
 11
7.249999999999998
 21
2.689161261346767
 31
0
  0
LINE
  8
0
 62
7
 10
7.092970773009196
 20
2.319999999999999
 30
0
 11
7.332970773009189
 21
2.559999999999993
 31
0
  0
LINE
  8
0
 62
7
 10
7.305102807365159
 20
2.319999999999999
 30
0
 11
7.414999999999999
 21
2.429897192634839
 31
0
  0
LINE
  8
0
 62
7
 10
4.389999999999999
 20
2.692943725152284
 30
0
 11
4.407056274847709
 21
2.709999999999994
 31
0
  0
LINE
  8
0
 62
7
 10
4.239999999999998
 20
2.542943725152284
 30
0
 11
4.257056274847709
 21
2.559999999999994
 31
0
  0
LINE
  8
0
 62
7
 10
4.239999999999998
 20
2.330811690796319
 30
0
 11
4.564999999999999
 21
2.65581169079632
 31
0
  0
LINE
  8
0
 62
7
 10
4.441320343559649
 20
2.32
 30
0
 11
4.681320343559642
 21
2.559999999999994
 31
0
  0
LINE
  8
0
 62
7
 10
4.653452377915613
 20
2.32
 30
0
 11
4.893452377915606
 21
2.559999999999994
 31
0
  0
LINE
  8
0
 62
7
 10
4.865584412271577
 20
2.32
 30
0
 11
5.10558441227157
 21
2.559999999999994
 31
0
  0
LINE
  8
0
 62
7
 10
5.077716446627541
 20
2.32
 30
0
 11
5.317716446627534
 21
2.559999999999994
 31
0
  0
LINE
  8
0
 62
7
 10
5.289848480983505
 20
2.32
 30
0
 11
5.529848480983498
 21
2.559999999999994
 31
0
  0
LINE
  8
0
 62
7
 10
5.501980515339469
 20
2.32
 30
0
 11
5.741980515339462
 21
2.559999999999994
 31
0
  0
LINE
  8
0
 62
7
 10
5.714112549695432
 20
2.32
 30
0
 11
5.954112549695425
 21
2.559999999999994
 31
0
  0
LINE
  8
0
 62
7
 10
5.926244584051396
 20
2.32
 30
0
 11
6.166244584051389
 21
2.559999999999994
 31
0
  0
LINE
  8
0
 62
7
 10
6.13837661840736
 20
2.32
 30
0
 11
6.378376618407353
 21
2.559999999999994
 31
0
  0
LINE
  8
0
 62
7
 10
6.350508652763324
 20
2.32
 30
0
 11
6.590508652763317
 21
2.559999999999994
 31
0
  0
LINE
  8
0
 62
7
 10
6.562640687119288
 20
2.32
 30
0
 11
6.802640687119281
 21
2.559999999999994
 31
0
  0
LINE
  8
0
 62
7
 10
7.074999999999999
 20
2.62022727852475
 30
0
 11
7.164772721475243
 21
2.709999999999994
 31
0
  0
LINE
  8
0
 62
7
 10
6.774772721475252
 20
2.32
 30
0
 11
7.014772721475245
 21
2.559999999999994
 31
0
  0
LINE
  8
0
 62
7
 10
6.986904755831215
 20
2.32
 30
0
 11
7.249999999999998
 21
2.583095244168784
 31
0
  0
LINE
  8
0
 62
7
 10
7.199036790187179
 20
2.32
 30
0
 11
7.414999999999999
 21
2.53596320981282
 31
0
  0
LINE
  8
0
 62
7
 10
7.411168824543143
 20
2.32
 30
0
 11
7.414999999999999
 21
2.323831175456855
 31
0
  0
ENDBLK
  8
0
  0
BLOCK
  8
0
  2
*X16
 70
1
 10
0
 20
0
 30
0
  0
LINE
  8
0
 62
7
 10
4.239999999999998
 20
2.224745673618338
 30
0
 11
4.295254326381666
 21
2.279999999999999
 31
0
  0
LINE
  8
0
 62
7
 10
4.267386360737625
 20
2.04
 30
0
 11
4.507386360737629
 21
2.279999999999999
 31
0
  0
LINE
  8
0
 62
7
 10
4.389999999999999
 20
1.95048160490641
 30
0
 11
4.719518395093593
 21
2.279999999999999
 31
0
  0
LINE
  8
0
 62
7
 10
4.691650429449559
 20
2.04
 30
0
 11
4.931650429449557
 21
2.279999999999999
 31
0
  0
LINE
  8
0
 62
7
 10
4.389999999999999
 20
1.738349570550446
 30
0
 11
4.564999999999999
 21
1.913349570550446
 31
0
  0
LINE
  8
0
 62
7
 10
4.903782463805523
 20
2.04
 30
0
 11
5.143782463805521
 21
2.279999999999999
 31
0
  0
LINE
  8
0
 62
7
 10
4.389999999999999
 20
1.526217536194482
 30
0
 11
4.564999999999999
 21
1.701217536194482
 31
0
  0
LINE
  8
0
 62
7
 10
5.115914498161486
 20
2.04
 30
0
 11
5.355914498161485
 21
2.279999999999999
 31
0
  0
LINE
  8
0
 62
7
 10
4.389999999999999
 20
1.314085501838518
 30
0
 11
4.564999999999999
 21
1.489085501838518
 31
0
  0
LINE
  8
0
 62
7
 10
5.32804653251745
 20
2.04
 30
0
 11
5.568046532517449
 21
2.279999999999999
 31
0
  0
LINE
  8
0
 62
7
 10
4.389999999999999
 20
1.101953467482553
 30
0
 11
4.564999999999999
 21
1.276953467482553
 31
0
  0
LINE
  8
0
 62
7
 10
5.540178566873414
 20
2.04
 30
0
 11
5.780178566873412
 21
2.279999999999999
 31
0
  0
LINE
  8
0
 62
7
 10
4.389999999999999
 20
0.889821433126589
 30
0
 11
4.564999999999999
 21
1.064821433126589
 31
0
  0
LINE
  8
0
 62
7
 10
5.752310601229378
 20
2.04
 30
0
 11
5.992310601229376
 21
2.279999999999999
 31
0
  0
LINE
  8
0
 62
7
 10
4.389999999999999
 20
0.6776893987706248
 30
0
 11
4.564999999999999
 21
0.8526893987706248
 31
0
  0
LINE
  8
0
 62
7
 10
5.964442635585342
 20
2.04
 30
0
 11
6.20444263558534
 21
2.279999999999999
 31
0
  0
LINE
  8
0
 62
7
 10
4.389999999999999
 20
0.4655573644146606
 30
0
 11
4.564999999999999
 21
0.6405573644146605
 31
0
  0
LINE
  8
0
 62
7
 10
6.176574669941306
 20
2.04
 30
0
 11
6.416574669941304
 21
2.279999999999999
 31
0
  0
LINE
  8
0
 62
7
 10
4.389999999999999
 20
0.2534253300586964
 30
0
 11
4.564999999999999
 21
0.4284253300586962
 31
0
  0
LINE
  8
0
 62
7
 10
6.388706704297269
 20
2.04
 30
0
 11
6.628706704297268
 21
2.279999999999999
 31
0
  0
LINE
  8
0
 62
7
 10
4.508706704297266
 20
0.1600000000000001
 30
0
 11
4.564999999999999
 21
0.2162932957027319
 31
0
  0
LINE
  8
0
 62
7
 10
6.600838738653233
 20
2.04
 30
0
 11
6.840838738653232
 21
2.279999999999999
 31
0
  0
LINE
  8
0
 62
7
 10
6.812970773009197
 20
2.04
 30
0
 11
7.052970773009196
 21
2.279999999999999
 31
0
  0
LINE
  8
0
 62
7
 10
7.025102807365161
 20
2.04
 30
0
 11
7.265102807365159
 21
2.279999999999999
 31
0
  0
LINE
  8
0
 62
7
 10
7.074999999999999
 20
1.877765158278875
 30
0
 11
7.414999999999999
 21
2.217765158278875
 31
0
  0
LINE
  8
0
 62
7
 10
7.074999999999999
 20
1.665633123922911
 30
0
 11
7.249999999999999
 21
1.840633123922911
 31
0
  0
LINE
  8
0
 62
7
 10
7.074999999999999
 20
1.453501089566946
 30
0
 11
7.249999999999999
 21
1.628501089566947
 31
0
  0
LINE
  8
0
 62
7
 10
7.074999999999999
 20
1.241369055210982
 30
0
 11
7.249999999999999
 21
1.416369055210982
 31
0
  0
LINE
  8
0
 62
7
 10
7.074999999999999
 20
1.029237020855018
 30
0
 11
7.249999999999999
 21
1.204237020855018
 31
0
  0
LINE
  8
0
 62
7
 10
7.074999999999999
 20
0.8171049864990536
 30
0
 11
7.249999999999999
 21
0.9921049864990539
 31
0
  0
LINE
  8
0
 62
7
 10
7.074999999999999
 20
0.6049729521430893
 30
0
 11
7.249999999999999
 21
0.7799729521430896
 31
0
  0
LINE
  8
0
 62
7
 10
7.074999999999999
 20
0.392840917787125
 30
0
 11
7.249999999999999
 21
0.5678409177871253
 31
0
  0
LINE
  8
0
 62
7
 10
7.154291116568839
 20
0.2600000000000002
 30
0
 11
7.249999999999999
 21
0.355708883431161
 31
0
  0
LINE
  8
0
 62
7
 10
4.239999999999998
 20
2.118679656440356
 30
0
 11
4.401320343559648
 21
2.28
 31
0
  0
LINE
  8
0
 62
7
 10
4.373452377915607
 20
2.04
 30
0
 11
4.613452377915612
 21
2.28
 31
0
  0
LINE
  8
0
 62
7
 10
4.585584412271576
 20
2.04
 30
0
 11
4.825584412271576
 21
2.28
 31
0
  0
LINE
  8
0
 62
7
 10
4.389999999999999
 20
1.844415587728428
 30
0
 11
4.564999999999999
 21
2.019415587728429
 31
0
  0
LINE
  8
0
 62
7
 10
4.79771644662754
 20
2.04
 30
0
 11
5.03771644662754
 21
2.28
 31
0
  0
LINE
  8
0
 62
7
 10
4.389999999999999
 20
1.632283553372464
 30
0
 11
4.564999999999999
 21
1.807283553372464
 31
0
  0
LINE
  8
0
 62
7
 10
5.009848480983504
 20
2.04
 30
0
 11
5.249848480983504
 21
2.28
 31
0
  0
LINE
  8
0
 62
7
 10
4.389999999999999
 20
1.4201515190165
 30
0
 11
4.564999999999999
 21
1.5951515190165
 31
0
  0
LINE
  8
0
 62
7
 10
5.221980515339467
 20
2.04
 30
0
 11
5.461980515339468
 21
2.28
 31
0
  0
LINE
  8
0
 62
7
 10
4.389999999999999
 20
1.208019484660535
 30
0
 11
4.564999999999999
 21
1.383019484660536
 31
0
  0
LINE
  8
0
 62
7
 10
5.434112549695431
 20
2.04
 30
0
 11
5.674112549695431
 21
2.28
 31
0
  0
LINE
  8
0
 62
7
 10
4.389999999999999
 20
0.9958874503045712
 30
0
 11
4.564999999999999
 21
1.170887450304571
 31
0
  0
LINE
  8
0
 62
7
 10
5.646244584051395
 20
2.04
 30
0
 11
5.886244584051395
 21
2.28
 31
0
  0
LINE
  8
0
 62
7
 10
4.389999999999999
 20
0.7837554159486069
 30
0
 11
4.564999999999999
 21
0.9587554159486071
 31
0
  0
LINE
  8
0
 62
7
 10
5.858376618407359
 20
2.04
 30
0
 11
6.098376618407359
 21
2.28
 31
0
  0
LINE
  8
0
 62
7
 10
4.389999999999999
 20
0.5716233815926426
 30
0
 11
4.564999999999999
 21
0.7466233815926429
 31
0
  0
LINE
  8
0
 62
7
 10
6.070508652763323
 20
2.04
 30
0
 11
6.310508652763323
 21
2.28
 31
0
  0
LINE
  8
0
 62
7
 10
4.389999999999999
 20
0.3594913472366783
 30
0
 11
4.564999999999999
 21
0.5344913472366786
 31
0
  0
LINE
  8
0
 62
7
 10
6.282640687119287
 20
2.04
 30
0
 11
6.522640687119287
 21
2.28
 31
0
  0
LINE
  8
0
 62
7
 10
4.402640687119284
 20
0.1600000000000001
 30
0
 11
4.564999999999999
 21
0.3223593128807143
 31
0
  0
LINE
  8
0
 62
7
 10
6.49477272147525
 20
2.04
 30
0
 11
6.734772721475251
 21
2.28
 31
0
  0
LINE
  8
0
 62
7
 10
6.706904755831214
 20
2.04
 30
0
 11
6.946904755831214
 21
2.28
 31
0
  0
LINE
  8
0
 62
7
 10
6.919036790187178
 20
2.04
 30
0
 11
7.159036790187178
 21
2.28
 31
0
  0
LINE
  8
0
 62
7
 10
7.074999999999999
 20
1.983831175456857
 30
0
 11
7.371168824543142
 21
2.28
 31
0
  0
LINE
  8
0
 62
7
 10
7.343300858899105
 20
2.04
 30
0
 11
7.415
 21
2.111699141100894
 31
0
  0
LINE
  8
0
 62
7
 10
7.074999999999999
 20
1.771699141100893
 30
0
 11
7.25
 21
1.946699141100893
 31
0
  0
LINE
  8
0
 62
7
 10
7.074999999999999
 20
1.559567106744929
 30
0
 11
7.25
 21
1.734567106744929
 31
0
  0
LINE
  8
0
 62
7
 10
7.074999999999999
 20
1.347435072388965
 30
0
 11
7.25
 21
1.522435072388964
 31
0
  0
LINE
  8
0
 62
7
 10
7.074999999999999
 20
1.135303038033
 30
0
 11
7.25
 21
1.310303038033
 31
0
  0
LINE
  8
0
 62
7
 10
7.074999999999999
 20
0.923171003677036
 30
0
 11
7.25
 21
1.098171003677036
 31
0
  0
LINE
  8
0
 62
7
 10
7.074999999999999
 20
0.7110389693210717
 30
0
 11
7.25
 21
0.8860389693210715
 31
0
  0
LINE
  8
0
 62
7
 10
7.074999999999999
 20
0.4989069349651074
 30
0
 11
7.25
 21
0.6739069349651072
 31
0
  0
LINE
  8
0
 62
7
 10
7.074999999999999
 20
0.2867749006091427
 30
0
 11
7.25
 21
0.4617749006091429
 31
0
  0
ENDBLK
  8
0
  0
BLOCK
  8
0
  2
*D0
 70
1
 10
0
 20
0
 30
0
  0
LINE
  8
0
 62
7
 10
7.625317477431421
 20
1.53955175608924
 30
0
 11
7.625317477431421
 21
2.04
 31
0
  0
LINE
  8
0
 62
7
 10
7.625317477431421
 20
0.2599999999999999
 30
0
 11
7.625317477431421
 21
0.7945517560892399
 31
0
  0
LINE
  8
0
 62
7
 10
7.25
 20
2.04
 30
0
 11
7.675317477431421
 21
2.04
 31
0
  0
LINE
  8
0
 62
7
 10
7.25
 20
0.2599999999999999
 30
0
 11
7.675317477431421
 21
0.2599999999999999
 31
0
  0
LINE
  8
0
 62
7
 10
7.660672816490749
 20
2.004644660940673
 30
0
 11
7.589962138372094
 21
2.075355339059327
 31
0
  0
LINE
  8
0
 62
7
 10
7.589962138372094
 20
0.2953553390593273
 30
0
 11
7.660672816490749
 21
0.2246446609406725
 31
0
  0
TEXT
  8
0
 62
7
 10
7.670317477431421
 20
1.04455175608924
 30
0
 40
0.1
  1
1,78
 50
90
 41
0.9
  0
ENDBLK
  8
0
  0
BLOCK
  8
0
  2
*D1
 70
1
 10
0
 20
0
 30
0
  0
LINE
  8
0
 62
7
 10
6.225816216998791
 20
3.02459790495654
 30
0
 11
7.074999999999999
 21
3.02459790495654
 31
0
  0
LINE
  8
0
 62
7
 10
4.564999999999999
 20
3.02459790495654
 30
0
 11
5.48081621699879
 21
3.02459790495654
 31
0
  0
LINE
  8
0
 62
7
 10
7.074999999999999
 20
2.559999999999994
 30
0
 11
7.074999999999999
 21
3.07459790495654
 31
0
  0
LINE
  8
0
 62
7
 10
4.564999999999999
 20
2.559999999999994
 30
0
 11
4.564999999999999
 21
3.07459790495654
 31
0
  0
LINE
  8
0
 62
7
 10
4.600355339059326
 20
3.059953244015867
 30
0
 11
4.529644660940671
 21
2.989242565897213
 31
0
  0
LINE
  8
0
 62
7
 10
7.039644660940672
 20
2.989242565897213
 30
0
 11
7.110355339059327
 21
3.059953244015867
 31
0
  0
TEXT
  8
0
 62
7
 10
5.730816216998791
 20
2.97959790495654
 30
0
 40
0.1
  1
2,51
 41
0.9
  0
ENDBLK
  8
0
  0
BLOCK
  8
0
  2
*D2
 70
1
 10
0
 20
0
 30
0
  0
LINE
  8
0
 62
7
 10
3.9957700681315
 20
1.51511035939362
 30
0
 11
3.9957700681315
 21
2.04
 31
0
  0
LINE
  8
0
 62
7
 10
3.9957700681315
 20
0.1599999999999999
 30
0
 11
3.9957700681315
 21
0.77011035939362
 31
0
  0
LINE
  8
0
 62
7
 10
4.389999999999999
 20
2.04
 30
0
 11
3.9457700681315
 21
2.04
 31
0
  0
LINE
  8
0
 62
7
 10
4.389999999999999
 20
0.1599999999999999
 30
0
 11
3.9457700681315
 21
0.1599999999999999
 31
0
  0
LINE
  8
0
 62
7
 10
3.960414729072173
 20
0.1953553390593273
 30
0
 11
4.031125407190827
 21
0.1246446609406726
 31
0
  0
LINE
  8
0
 62
7
 10
4.031125407190827
 20
2.004644660940673
 30
0
 11
3.960414729072173
 21
2.075355339059327
 31
0
  0
TEXT
  8
0
 62
7
 10
4.0407700681315
 20
1.02011035939362
 30
0
 40
0.1
  1
1,88
 50
90
 41
0.9
  0
ENDBLK
  8
0
  0
BLOCK
  8
0
  2
*D3
 70
1
 10
0
 20
0
 30
0
  0
LINE
  8
0
 62
7
 10
6.175816216998791
 20
8.42614657468908
 30
0
 11
7.074999999999999
 21
8.42614657468908
 31
0
  0
LINE
  8
0
 62
7
 10
4.564999999999999
 20
8.42614657468908
 30
0
 11
5.530816216998791
 21
8.42614657468908
 31
0
  0
LINE
  8
0
 62
7
 10
7.074999999999999
 20
8.109999999999996
 30
0
 11
7.074999999999999
 21
8.47614657468908
 31
0
  0
LINE
  8
0
 62
7
 10
4.564999999999999
 20
8.109999999999996
 30
0
 11
4.564999999999999
 21
8.47614657468908
 31
0
  0
LINE
  8
0
 62
7
 10
7.039644660940672
 20
8.390791235629752
 30
0
 11
7.110355339059327
 21
8.461501913748407
 31
0
  0
LINE
  8
0
 62
7
 10
4.600355339059326
 20
8.461501913748407
 30
0
 11
4.529644660940671
 21
8.390791235629752
 31
0
  0
TEXT
  8
0
 62
7
 10
5.730816216998791
 20
8.38114657468908
 30
0
 40
0.1
  1
2,51
 41
0.9
  0
ENDBLK
  8
0
  0
BLOCK
  8
0
  2
*D4
 70
1
 10
0
 20
0
 30
0
  0
LINE
  8
0
 62
7
 10
7.833069349344211
 20
7.169703917560842
 30
0
 11
7.833069349344211
 21
7.959999999999996
 31
0
  0
LINE
  8
0
 62
7
 10
7.833069349344211
 20
5.209999999999995
 30
0
 11
7.833069349344211
 21
6.089703917560841
 31
0
  0
LINE
  8
0
 62
7
 10
7.4
 20
7.959999999999996
 30
0
 11
7.883069349344211
 21
7.959999999999996
 31
0
  0
LINE
  8
0
 62
7
 10
7.4
 20
5.209999999999995
 30
0
 11
7.883069349344211
 21
5.209999999999995
 31
0
  0
LINE
  8
0
 62
7
 10
7.797714010284884
 20
5.245355339059322
 30
0
 11
7.868424688403539
 21
5.174644660940667
 31
0
  0
LINE
  8
0
 62
7
 10
7.868424688403539
 20
7.924644660940668
 30
0
 11
7.797714010284884
 21
7.995355339059323
 31
0
  0
TEXT
  8
0
 62
7
 10
7.803069349344211
 20
6.492203917560841
 30
0
 40
0.1
  1
2,75
 50
90
 41
0.9
  0
TEXT
  8
0
 62
7
 10
7.963069349344211
 20
6.289703917560841
 30
0
 40
0.1
  1
(260-280)
 50
90
 41
0.9
  0
ENDBLK
  8
0
  0
ENDSEC
  0
SECTION
  2
ENTITIES
  0
INSERT
  8
0
  2
*X0
 10
0
 20
0
 30
0
  0
INSERT
  8
0
  2
*X1
 10
0
 20
0
 30
0
  0
INSERT
  8
0
  2
*X2
 10
0
 20
0
 30
0
  0
INSERT
  8
0
  2
*X3
 10
0
 20
0
 30
0
  0
INSERT
  8
0
  2
*X4
 10
0
 20
0
 30
0
  0
INSERT
  8
0
  2
*X5
 10
0
 20
0
 30
0
  0
INSERT
  8
0
  2
*X6
 10
0
 20
0
 30
0
  0
INSERT
  8
0
  2
*X7
 10
0
 20
0
 30
0
  0
INSERT
  8
0
  2
*X8
 10
0
 20
0
 30
0
  0
INSERT
  8
0
  2
*X9
 10
0
 20
0
 30
0
  0
INSERT
  8
0
  2
*X10
 10
0
 20
0
 30
0
  0
INSERT
  8
0
  2
*X11
 10
0
 20
0
 30
0
  0
INSERT
  8
0
  2
*X12
 10
0
 20
0
 30
0
  0
INSERT
  8
0
  2
*X13
 10
0
 20
0
 30
0
  0
INSERT
  8
0
  2
*X14
 10
0
 20
0
 30
0
  0
INSERT
  8
0
  2
*X15
 10
0
 20
0
 30
0
  0
INSERT
  8
0
  2
*X16
 10
0
 20
0
 30
0
  0
LINE
  8
0
 62
7
 10
4.619999999999998
 20
0.1599999999999996
 30
0
 11
5.569999999999999
 21
0.1599999999999996
 31
0
  0
LINE
  8
0
 62
7
 10
5.569999999999999
 20
0.1599999999999996
 30
0
 11
5.569999999999999
 21
0.5099999999999996
 31
0
  0
LINE
  8
0
 62
7
 10
4.619999999999998
 20
0.5099999999999996
 30
0
 11
4.619999999999998
 21
0.1599999999999996
 31
0
  0
LINE
  8
0
 62
7
 10
4.619999999999998
 20
0.4199999999999996
 30
0
 11
5.569999999999999
 21
0.4199999999999996
 31
0
  0
LINE
  8
0
 62
7
 10
5.569999999999999
 20
0.4199999999999996
 30
0
 11
5.569999999999999
 21
0.7543442221158598
 31
0
  0
LINE
  8
0
 62
7
 10
4.619999999999998
 20
0.7844488946053194
 30
0
 11
4.619999999999998
 21
0.4199999999999996
 31
0
  0
LINE
  8
0
 62
7
 10
4.619999999999998
 20
0.6944037169041708
 30
0
 11
5.569999999999999
 21
0.6642990444147095
 31
0
  0
LINE
  8
0
 62
7
 10
5.569999999999999
 20
0.6642990444147095
 30
0
 11
5.569999999999999
 21
0.8746919502054908
 31
0
  0
LINE
  8
0
 62
7
 10
4.619999999999998
 20
1.181237700499639
 30
0
 11
4.619999999999998
 21
0.6944037169041708
 31
0
  0
LINE
  8
0
 62
7
 10
5.569999999999999
 20
0.7801224523564293
 30
0
 11
5.569999999999999
 21
0.9660629046003062
 31
0
  0
LINE
  8
0
 62
7
 10
4.619999999999998
 20
1.086668202650578
 30
0
 11
5.569999999999999
 21
0.7801224523564293
 31
0
  0
LINE
  8
0
 62
7
 10
4.619999999999998
 20
1.625674606084361
 30
0
 11
4.619999999999998
 21
1.086668202650578
 31
0
  0
LINE
  8
0
 62
7
 10
5.534151361715849
 20
0.91255977503112
 30
0
 11
5.616189840056888
 21
1.035000000000001
 31
0
  0
LINE
  8
0
 62
7
 10
4.619999999999998
 20
1.51773983187653
 30
0
 11
5.534151361715849
 21
0.91255977503112
 31
0
  0
LINE
  8
0
 62
7
 10
4.870347815832928
 20
1.985
 30
0
 11
4.619999999999998
 21
1.985
 31
0
  0
LINE
  8
0
 62
7
 10
4.619999999999998
 20
1.985
 30
0
 11
4.619999999999998
 21
1.51773983187653
 31
0
  0
LINE
  8
0
 62
7
 10
4.750995886435667
 20
1.985
 30
0
 11
5.578438544431148
 21
1.035
 31
0
  0
LINE
  8
0
 62
7
 10
5.578438544431148
 20
1.035
 30
0
 11
5.787649058703388
 21
1.035
 31
0
  0
LINE
  8
0
 62
7
 10
5.388174380156269
 20
1.985
 30
0
 11
4.750995886435667
 21
1.985
 31
0
  0
LINE
  8
0
 62
7
 10
5.290541180270267
 20
1.985
 30
0
 11
5.690015858817388
 21
1.035
 31
0
  0
LINE
  8
0
 62
7
 10
5.690015858817388
 20
1.035
 30
0
 11
5.894602859772516
 21
1.035
 31
0
  0
LINE
  8
0
 62
7
 10
5.780872410779157
 20
1.985
 30
0
 11
5.290541180270267
 21
1.985
 31
0
  0
LINE
  8
0
 62
7
 10
5.80396021492129
 20
1.035
 30
0
 11
6.001605384259038
 21
1.035000000000001
 31
0
  0
LINE
  8
0
 62
7
 10
5.690229765927928
 20
1.985
 30
0
 11
5.80396021492129
 21
1.035
 31
0
  0
LINE
  8
0
 62
7
 10
6.124658221574009
 20
1.985
 30
0
 11
5.690229765927928
 21
1.985
 31
0
  0
LINE
  8
0
 62
7
 10
5.973389107038539
 20
1.054057682495209
 30
0
 11
6.073264798551209
 21
0.9866001932253268
 31
0
  0
LINE
  8
0
 62
7
 10
6.034464741442128
 20
1.985
 30
0
 11
5.973389107038539
 21
1.054057682495209
 31
0
  0
LINE
  8
0
 62
7
 10
6.541775528158569
 20
1.985
 30
0
 11
6.034464741442128
 21
1.985
 31
0
  0
LINE
  8
0
 62
7
 10
6.445716994476918
 20
1.985
 30
0
 11
6.069999999999999
 21
0.97784853521836
 31
0
  0
LINE
  8
0
 62
7
 10
6.069999999999999
 20
0.97784853521836
 30
0
 11
6.069999999999999
 21
0.7440974263406502
 31
0
  0
LINE
  8
0
 62
7
 10
7.02
 20
1.825347483485538
 30
0
 11
7.02
 21
1.985
 31
0
  0
LINE
  8
0
 62
7
 10
7.02
 20
1.985
 30
0
 11
6.445716994476918
 21
1.985
 31
0
  0
LINE
  8
0
 62
7
 10
7.02
 20
1.96170278626197
 30
0
 11
6.069999999999999
 21
0.8804527291170698
 31
0
  0
LINE
  8
0
 62
7
 10
6.069999999999999
 20
0.8804527291170698
 30
0
 11
6.069999999999999
 21
0.65133904534335
 31
0
  0
LINE
  8
0
 62
7
 10
7.02
 20
1.28904749683109
 30
0
 11
7.02
 21
1.96170278626197
 31
0
  0
LINE
  8
0
 62
7
 10
7.02
 20
1.397444498556458
 30
0
 11
6.069999999999999
 21
0.7597360470687196
 31
0
  0
LINE
  8
0
 62
7
 10
6.069999999999999
 20
0.7597360470687196
 30
0
 11
6.069999999999999
 21
0.5380647755383893
 31
0
  0
LINE
  8
0
 62
7
 10
7.02
 20
0.9128721856354588
 30
0
 11
7.02
 21
1.397444498556458
 31
0
  0
LINE
  8
0
 62
7
 10
7.02
 20
1.009623532218751
 30
0
 11
6.069999999999999
 21
0.6348161221216793
 31
0
  0
LINE
  8
0
 62
7
 10
6.069999999999999
 20
0.6348161221216793
 30
0
 11
6.069999999999999
 21
0.4221486693412095
 31
0
  0
LINE
  8
0
 62
7
 10
7.02
 20
0.5324777896170896
 30
0
 11
7.02
 21
1.009623532218751
 31
0
  0
LINE
  8
0
 62
7
 10
7.02
 20
0.6230826965655011
 30
0
 11
6.069999999999999
 21
0.5127535762896201
 31
0
  0
LINE
  8
0
 62
7
 10
6.069999999999999
 20
0.5127535762896201
 30
0
 11
6.069999999999999
 21
0.2999999999999996
 31
0
  0
LINE
  8
0
 62
7
 10
7.02
 20
0.2999999999999996
 30
0
 11
7.02
 21
0.6230826965655011
 31
0
  0
LINE
  8
0
 62
7
 10
5.074531802787517
 20
0.1599999999999996
 30
0
 11
5.074531802787517
 21
1.034999952513031
 31
0
  0
LINE
  8
0
 62
7
 10
5.570000047487498
 20
1.530468197212479
 30
0
 11
6.069999952537689
 21
1.530468197212479
 31
0
  0
LINE
  8
0
 62
7
 10
6.565468197212478
 20
0.3099999999999996
 30
0
 11
6.459813097950778
 21
0.3709999999999996
 31
0
  0
LINE
  8
0
 62
7
 10
6.459813097950778
 20
0.3709999999999996
 30
0
 11
6.671123296474189
 21
0.3709999999999996
 31
0
  0
LINE
  8
0
 62
7
 10
6.671123296474189
 20
0.3709999999999996
 30
0
 11
6.565468197212478
 21
0.3099999999999996
 31
0
  0
LINE
  8
0
 62
7
 10
6.565468197212478
 20
1.03499995251186
 30
0
 11
6.565468197212478
 21
0.3099999999999996
 31
0
  0
LINE
  8
0
 62
7
 10
4.619998259999997
 20
5.49333322666666
 30
0
 11
5.569999389999998
 21
5.49333322666666
 31
0
  0
LINE
  8
0
 62
7
 10
4.619998259999997
 20
5.428333226666661
 30
0
 11
4.619998259999997
 21
5.49333322666666
 31
0
  0
LINE
  8
0
 62
7
 10
5.569999389999998
 20
5.49333322666666
 30
0
 11
5.569999389999998
 21
5.428333226666661
 31
0
  0
LINE
  8
0
 62
7
 10
5.569999389999998
 20
5.428333226666661
 30
0
 11
4.619998259999997
 21
5.428333226666661
 31
0
  0
LINE
  8
0
 62
7
 10
4.620000439999997
 20
5.676666566666663
 30
0
 11
5.569999459999998
 21
5.676666566666663
 31
0
  0
LINE
  8
0
 62
7
 10
4.620000439999997
 20
5.611666566666663
 30
0
 11
4.620000439999997
 21
5.676666566666663
 31
0
  0
LINE
  8
0
 62
7
 10
5.569999459999998
 20
5.676666566666663
 30
0
 11
5.569999459999998
 21
5.611666566666663
 31
0
  0
LINE
  8
0
 62
7
 10
5.569999459999998
 20
5.611666566666663
 30
0
 11
4.620000439999997
 21
5.611666566666663
 31
0
  0
LINE
  8
0
 62
7
 10
4.619999389999998
 20
5.859999906666662
 30
0
 11
5.569999539999998
 21
5.859999906666662
 31
0
  0
LINE
  8
0
 62
7
 10
4.619999389999998
 20
5.794999906666662
 30
0
 11
4.619999389999998
 21
5.859999906666662
 31
0
  0
LINE
  8
0
 62
7
 10
5.569999539999998
 20
5.859999906666662
 30
0
 11
5.569999539999998
 21
5.794999906666662
 31
0
  0
LINE
  8
0
 62
7
 10
5.569999539999998
 20
5.794999906666662
 30
0
 11
4.619999389999998
 21
5.794999906666662
 31
0
  0
LINE
  8
0
 62
7
 10
4.619998629999999
 20
6.043333226666661
 30
0
 11
5.569999539999998
 21
6.043333226666661
 31
0
  0
LINE
  8
0
 62
7
 10
4.619998629999999
 20
5.978333226666661
 30
0
 11
4.619998629999999
 21
6.043333226666661
 31
0
  0
LINE
  8
0
 62
7
 10
5.569999539999998
 20
6.043333226666661
 30
0
 11
5.569999539999998
 21
5.978333226666661
 31
0
  0
LINE
  8
0
 62
7
 10
5.569999539999998
 20
5.978333226666661
 30
0
 11
4.619998629999999
 21
5.978333226666661
 31
0
  0
LINE
  8
0
 62
7
 10
5.61618934
 20
6.161666586666661
 30
0
 11
4.619999509999999
 21
6.161666586666661
 31
0
  0
LINE
  8
0
 62
7
 10
4.619999509999999
 20
6.226666586666661
 30
0
 11
5.61618934
 21
6.226666586666661
 31
0
  0
LINE
  8
0
 62
7
 10
4.619999509999999
 20
6.161666586666661
 30
0
 11
4.619999509999999
 21
6.226666586666661
 31
0
  0
LINE
  8
0
 62
7
 10
5.61618934
 20
6.226666586666661
 30
0
 11
5.61618934
 21
6.161666586666661
 31
0
  0
LINE
  8
0
 62
7
 10
5.787648689999998
 20
6.344999946666663
 30
0
 11
4.750995349999998
 21
6.344999946666663
 31
0
  0
LINE
  8
0
 62
7
 10
4.750995349999998
 20
6.409999946666662
 30
0
 11
5.787648689999998
 21
6.409999946666662
 31
0
  0
LINE
  8
0
 62
7
 10
4.750995349999998
 20
6.344999946666663
 30
0
 11
4.750995349999998
 21
6.409999946666662
 31
0
  0
LINE
  8
0
 62
7
 10
5.787648689999998
 20
6.409999946666662
 30
0
 11
5.787648689999998
 21
6.344999946666663
 31
0
  0
LINE
  8
0
 62
7
 10
5.89460266
 20
6.52833322666666
 30
0
 11
5.290540689999998
 21
6.52833322666666
 31
0
  0
LINE
  8
0
 62
7
 10
5.290540689999998
 20
6.593333226666662
 30
0
 11
5.89460266
 21
6.593333226666662
 31
0
  0
LINE
  8
0
 62
7
 10
5.290540689999998
 20
6.52833322666666
 30
0
 11
5.290540689999998
 21
6.593333226666662
 31
0
  0
LINE
  8
0
 62
7
 10
5.89460266
 20
6.593333226666662
 30
0
 11
5.89460266
 21
6.52833322666666
 31
0
  0
LINE
  8
0
 62
7
 10
6.124657589999998
 20
6.711666666666661
 30
0
 11
5.690229409999997
 21
6.711666666666661
 31
0
  0
LINE
  8
0
 62
7
 10
5.690229409999997
 20
6.776666666666661
 30
0
 11
6.124657589999998
 21
6.776666666666661
 31
0
  0
LINE
  8
0
 62
7
 10
5.690229409999997
 20
6.711666666666661
 30
0
 11
5.690229409999997
 21
6.776666666666661
 31
0
  0
LINE
  8
0
 62
7
 10
6.124657589999998
 20
6.776666666666661
 30
0
 11
6.124657589999998
 21
6.711666666666661
 31
0
  0
LINE
  8
0
 62
7
 10
6.541775199999998
 20
6.894999946666663
 30
0
 11
5.973388669999998
 21
6.894999946666663
 31
0
  0
LINE
  8
0
 62
7
 10
5.973388669999998
 20
6.959999946666663
 30
0
 11
6.541775199999998
 21
6.959999946666663
 31
0
  0
LINE
  8
0
 62
7
 10
5.973388669999998
 20
6.894999946666663
 30
0
 11
5.973388669999998
 21
6.959999946666663
 31
0
  0
LINE
  8
0
 62
7
 10
6.541775199999998
 20
6.959999946666663
 30
0
 11
6.541775199999998
 21
6.894999946666663
 31
0
  0
LINE
  8
0
 62
7
 10
6.069999539999998
 20
7.143333226666662
 30
0
 11
7.019999689999998
 21
7.143333226666662
 31
0
  0
LINE
  8
0
 62
7
 10
7.019999689999998
 20
7.078333226666661
 30
0
 11
6.069999539999998
 21
7.078333226666661
 31
0
  0
LINE
  8
0
 62
7
 10
6.069999539999998
 20
7.078333226666661
 30
0
 11
6.069999539999998
 21
7.143333226666662
 31
0
  0
LINE
  8
0
 62
7
 10
7.019999689999998
 20
7.143333226666662
 30
0
 11
7.019999689999998
 21
7.078333226666661
 31
0
  0
LINE
  8
0
 62
7
 10
6.069999689999998
 20
7.326666666666661
 30
0
 11
7.019999689999998
 21
7.326666666666661
 31
0
  0
LINE
  8
0
 62
7
 10
6.069999689999998
 20
7.26166666666666
 30
0
 11
6.069999689999998
 21
7.326666666666661
 31
0
  0
LINE
  8
0
 62
7
 10
7.019999689999998
 20
7.326666666666661
 30
0
 11
7.019999689999998
 21
7.26166666666666
 31
0
  0
LINE
  8
0
 62
7
 10
7.019999689999998
 20
7.26166666666666
 30
0
 11
6.069999689999998
 21
7.26166666666666
 31
0
  0
LINE
  8
0
 62
7
 10
6.069999389999998
 20
7.509999946666664
 30
0
 11
7.019999689999998
 21
7.509999946666664
 31
0
  0
LINE
  8
0
 62
7
 10
6.069999389999998
 20
7.444999946666663
 30
0
 11
6.069999389999998
 21
7.509999946666664
 31
0
  0
LINE
  8
0
 62
7
 10
7.019999689999998
 20
7.509999946666664
 30
0
 11
7.019999689999998
 21
7.444999946666663
 31
0
  0
LINE
  8
0
 62
7
 10
7.019999689999998
 20
7.444999946666663
 30
0
 11
6.069999389999998
 21
7.444999946666663
 31
0
  0
LINE
  8
0
 62
7
 10
6.069999389999998
 20
7.693333226666661
 30
0
 11
7.019999689999998
 21
7.693333226666661
 31
0
  0
LINE
  8
0
 62
7
 10
6.069999389999998
 20
7.628333226666661
 30
0
 11
6.069999389999998
 21
7.693333226666661
 31
0
  0
LINE
  8
0
 62
7
 10
7.019999689999998
 20
7.693333226666661
 30
0
 11
7.019999689999998
 21
7.628333226666661
 31
0
  0
LINE
  8
0
 62
7
 10
7.019999689999998
 20
7.628333226666661
 30
0
 11
6.069999389999998
 21
7.628333226666661
 31
0
  0
LINE
  8
0
 62
7
  6
DASHED
 10
6.069999229999998
 20
7.876666666666662
 30
0
 11
7.02
 21
7.876666666666662
 31
0
  0
LINE
  8
0
 62
7
  6
DASHED
 10
6.069999229999998
 20
7.81166666666666
 30
0
 11
6.069999229999998
 21
7.876666666666662
 31
0
  0
LINE
  8
0
 62
7
  6
DASHED
 10
7.02
 20
7.876666666666662
 30
0
 11
7.02
 21
7.81166666666666
 31
0
  0
LINE
  8
0
 62
7
  6
DASHED
 10
7.02
 20
7.81166666666666
 30
0
 11
6.069999229999998
 21
7.81166666666666
 31
0
  0
LINE
  8
0
 62
7
 10
1.920000419999999
 20
5.49333322666666
 30
0
 11
2.270000439999996
 21
5.49333322666666
 31
0
  0
LINE
  8
0
 62
7
 10
2.270000439999996
 20
5.49333322666666
 30
0
 11
2.270000439999996
 21
5.428333226666661
 31
0
  0
LINE
  8
0
 62
7
 10
1.920000419999999
 20
5.428333226666661
 30
0
 11
1.920000419999999
 21
5.49333322666666
 31
0
  0
LINE
  8
0
 62
7
 10
2.270000439999996
 20
5.428333226666661
 30
0
 11
1.920000419999999
 21
5.428333226666661
 31
0
  0
LINE
  8
0
 62
7
 10
1.645551680000001
 20
5.676666566666663
 30
0
 11
2.010000109999999
 21
5.676666566666663
 31
0
  0
LINE
  8
0
 62
7
 10
2.010000529999998
 20
5.611666566666663
 30
0
 11
1.645551680000001
 21
5.611666566666663
 31
0
  0
LINE
  8
0
 62
7
 10
2.010000109999999
 20
5.676666566666663
 30
0
 11
2.010000529999998
 21
5.676666566666663
 31
0
  0
LINE
  8
0
 62
7
 10
2.010000529999998
 20
5.676666566666663
 30
0
 11
2.010000529999998
 21
5.611666566666663
 31
0
  0
LINE
  8
0
 62
7
 10
1.645551680000001
 20
5.611666566666663
 30
0
 11
1.645551680000001
 21
5.676666566666663
 31
0
  0
LINE
  8
0
 62
7
 10
1.765701369999999
 20
5.794999906666662
 30
0
 11
1.248762739999998
 21
5.794999906666662
 31
0
  0
LINE
  8
0
 62
7
 10
1.248762739999998
 20
5.859999906666662
 30
0
 11
1.765701369999999
 21
5.859999906666662
 31
0
  0
LINE
  8
0
 62
7
 10
1.765701369999999
 20
5.859999906666662
 30
0
 11
1.765701369999999
 21
5.794999906666662
 31
0
  0
LINE
  8
0
 62
7
 10
1.248762739999998
 20
5.794999906666662
 30
0
 11
1.248762739999998
 21
5.859999906666662
 31
0
  0
LINE
  8
0
 62
7
 10
1.649877549999999
 20
5.978333226666661
 30
0
 11
0.8043260200000004
 21
5.978333226666661
 31
0
  0
LINE
  8
0
 62
7
 10
0.8043260200000004
 20
6.043333226666661
 30
0
 11
1.649877549999999
 21
6.043333226666661
 31
0
  0
LINE
  8
0
 62
7
 10
1.649877549999999
 20
6.043333226666661
 30
0
 11
1.649877549999999
 21
5.978333226666661
 31
0
  0
LINE
  8
0
 62
7
 10
0.8043260200000004
 20
5.978333226666661
 30
0
 11
0.8043260200000004
 21
6.043333226666661
 31
0
  0
LINE
  8
0
 62
7
 10
1.517440409999999
 20
6.161666586666661
 30
0
 11
0.4450004599999995
 21
6.161666586666661
 31
0
  0
LINE
  8
0
 62
7
 10
0.4450004599999995
 20
6.226666586666661
 30
0
 11
1.517440409999999
 21
6.226666586666661
 31
0
  0
LINE
  8
0
 62
7
 10
1.517440409999999
 20
6.226666586666661
 30
0
 11
1.517440409999999
 21
6.161666586666661
 31
0
  0
LINE
  8
0
 62
7
 10
0.4450004599999995
 20
6.161666586666661
 30
0
 11
0.4450004599999995
 21
6.226666586666661
 31
0
  0
LINE
  8
0
 62
7
 10
0.4450004599999995
 20
6.409999946666662
 30
0
 11
1.395000230000001
 21
6.409999946666662
 31
0
  0
LINE
  8
0
 62
7
 10
1.395000230000001
 20
6.409999946666662
 30
0
 11
1.395000230000001
 21
6.344999946666663
 31
0
  0
LINE
  8
0
 62
7
 10
0.4450004599999995
 20
6.344999946666663
 30
0
 11
0.4450004599999995
 21
6.409999946666662
 31
0
  0
LINE
  8
0
 62
7
 10
1.395000230000001
 20
6.344999946666663
 30
0
 11
0.4450004599999995
 21
6.344999946666663
 31
0
  0
LINE
  8
0
 62
7
 10
0.4450002999999998
 20
6.593333226666662
 30
0
 11
1.395000609999999
 21
6.593333226666662
 31
0
  0
LINE
  8
0
 62
7
 10
1.395000609999999
 20
6.593333226666662
 30
0
 11
1.395000609999999
 21
6.52833322666666
 31
0
  0
LINE
  8
0
 62
7
 10
0.4450002999999998
 20
6.52833322666666
 30
0
 11
0.4450002999999998
 21
6.593333226666662
 31
0
  0
LINE
  8
0
 62
7
 10
1.395000609999999
 20
6.52833322666666
 30
0
 11
0.4450002999999998
 21
6.52833322666666
 31
0
  0
LINE
  8
0
 62
7
 10
0.4450002999999998
 20
6.776666666666661
 30
0
 11
1.395000609999999
 21
6.776666666666661
 31
0
  0
LINE
  8
0
 62
7
 10
1.395000609999999
 20
6.776666666666661
 30
0
 11
1.395000609999999
 21
6.711666666666661
 31
0
  0
LINE
  8
0
 62
7
 10
0.4450002999999998
 20
6.711666666666661
 30
0
 11
0.4450002999999998
 21
6.776666666666661
 31
0
  0
LINE
  8
0
 62
7
 10
1.395000609999999
 20
6.711666666666661
 30
0
 11
0.4450002999999998
 21
6.711666666666661
 31
0
  0
LINE
  8
0
 62
7
 10
0.4450002999999998
 20
6.959999946666663
 30
0
 11
1.443400269999998
 21
6.959999946666663
 31
0
  0
LINE
  8
0
 62
7
 10
1.443400269999998
 20
6.894999946666663
 30
0
 11
0.4450002999999998
 21
6.894999946666663
 31
0
  0
LINE
  8
0
 62
7
 10
1.443400269999998
 20
6.959999946666663
 30
0
 11
1.443400269999998
 21
6.894999946666663
 31
0
  0
LINE
  8
0
 62
7
 10
0.4450002999999998
 20
6.894999946666663
 30
0
 11
0.4450002999999998
 21
6.959999946666663
 31
0
  0
LINE
  8
0
 62
7
 10
1.68590294
 20
7.078333226666661
 30
0
 11
0.4450000000000001
 21
7.078333226666661
 31
0
  0
LINE
  8
0
 62
7
 10
0.4450000000000001
 20
7.143333226666662
 30
0
 11
1.68590294
 21
7.143333226666662
 31
0
  0
LINE
  8
0
 62
7
 10
1.68590294
 20
7.143333226666662
 30
0
 11
1.68590294
 21
7.078333226666661
 31
0
  0
LINE
  8
0
 62
7
 10
0.4450000000000001
 20
7.078333226666661
 30
0
 11
0.4450000000000001
 21
7.143333226666662
 31
0
  0
LINE
  8
0
 62
7
 10
1.778661339999997
 20
7.26166666666666
 30
0
 11
0.4682978800000001
 21
7.26166666666666
 31
0
  0
LINE
  8
0
 62
7
 10
0.4682978800000001
 20
7.326666666666661
 30
0
 11
1.778661339999997
 21
7.326666666666661
 31
0
  0
LINE
  8
0
 62
7
 10
1.778661339999997
 20
7.326666666666661
 30
0
 11
1.778661339999997
 21
7.26166666666666
 31
0
  0
LINE
  8
0
 62
7
 10
0.4682978800000001
 20
7.26166666666666
 30
0
 11
0.4682978800000001
 21
7.326666666666661
 31
0
  0
LINE
  8
0
 62
7
 10
1.891935539999997
 20
7.444999946666663
 30
0
 11
1.03255615
 21
7.444999946666663
 31
0
  0
LINE
  8
0
 62
7
 10
1.03255615
 20
7.509999946666664
 30
0
 11
1.891935539999997
 21
7.509999946666664
 31
0
  0
LINE
  8
0
 62
7
 10
1.891935539999997
 20
7.509999946666664
 30
0
 11
1.891935539999997
 21
7.444999946666663
 31
0
  0
LINE
  8
0
 62
7
 10
1.03255615
 20
7.444999946666663
 30
0
 11
1.03255615
 21
7.509999946666664
 31
0
  0
LINE
  8
0
 62
7
 10
2.007851939999999
 20
7.628333226666661
 30
0
 11
1.42037674
 21
7.628333226666661
 31
0
  0
LINE
  8
0
 62
7
 10
1.42037674
 20
7.693333226666661
 30
0
 11
2.007851939999999
 21
7.693333226666661
 31
0
  0
LINE
  8
0
 62
7
 10
2.007851939999999
 20
7.693333226666661
 30
0
 11
2.007851939999999
 21
7.628333226666661
 31
0
  0
LINE
  8
0
 62
7
 10
1.42037674
 20
7.628333226666661
 30
0
 11
1.42037674
 21
7.693333226666661
 31
0
  0
LINE
  8
0
 62
7
 10
1.806917649999998
 20
7.876666666666662
 30
0
 11
2.130000649999998
 21
7.876666666666662
 31
0
  0
LINE
  8
0
 62
7
 10
2.130000649999998
 20
7.81166666666666
 30
0
 11
1.806917649999998
 21
7.81166666666666
 31
0
  0
LINE
  8
0
 62
7
 10
2.130000649999998
 20
7.876666666666662
 30
0
 11
2.130000649999998
 21
7.81166666666666
 31
0
  0
LINE
  8
0
 62
7
 10
1.806917649999998
 20
7.81166666666666
 30
0
 11
1.806917649999998
 21
7.876666666666662
 31
0
  0
LINE
  8
0
 62
7
  6
DASHDOT
 10
7.074999999999999
 20
2.709999999999994
 30
0
 11
7.249999999999999
 21
2.709999999999994
 31
0
  0
LINE
  8
0
 62
7
  6
DASHDOT
 10
7.249999999999999
 20
2.709999999999994
 30
0
 11
7.299999999999999
 21
2.709999999999994
 31
0
  0
LINE
  8
0
 62
7
  6
DASHDOT
 10
4.239999999999998
 20
2.28
 30
0
 11
4.239999999999998
 21
2.04
 31
0
  0
LINE
  8
0
 62
7
  6
DASHDOT
 10
7.414999999999999
 20
2.28
 30
0
 11
7.414999999999999
 21
2.04
 31
0
  0
LINE
  8
0
 62
7
  6
DASHDOT
 10
4.239999999999998
 20
2.32
 30
0
 11
4.239999999999998
 21
2.28
 31
0
  0
LINE
  8
0
 62
7
  6
DASHDOT
 10
7.414999999999999
 20
2.32
 30
0
 11
7.414999999999999
 21
2.28
 31
0
  0
LINE
  8
0
 62
7
  6
DASHDOT
 10
4.239999999999998
 20
2.04
 30
0
 11
4.239999999999998
 21
1.99
 31
0
  0
LINE
  8
0
 62
7
  6
DASHDOT
 10
4.239999999999998
 20
2.559999999999994
 30
0
 11
4.239999999999998
 21
2.32
 31
0
  0
LINE
  8
0
 62
7
  6
DASHDOT
 10
4.564999999999999
 20
2.709999999999994
 30
0
 11
4.614999999999998
 21
2.709999999999994
 31
0
  0
LINE
  8
0
 62
7
  6
DASHDOT
 10
4.389999999999999
 20
2.709999999999994
 30
0
 11
4.564999999999999
 21
2.709999999999994
 31
0
  0
LINE
  8
0
 62
7
  6
DASHDOT
 10
7.414999999999999
 20
2.04
 30
0
 11
7.414999999999999
 21
1.99
 31
0
  0
LINE
  8
0
 62
7
  6
DASHDOT
 10
7.414999999999999
 20
2.559999999999994
 30
0
 11
7.414999999999999
 21
2.32
 31
0
  0
LINE
  8
0
 62
7
  6
DASHDOT
 10
7.414999999999999
 20
2.609999999999994
 30
0
 11
7.414999999999999
 21
2.559999999999994
 31
0
  0
LINE
  8
0
 62
7
  6
DASHDOT
 10
4.239999999999998
 20
2.609999999999994
 30
0
 11
4.239999999999998
 21
2.559999999999994
 31
0
  0
LINE
  8
0
 62
7
  6
DASHDOT
 10
7.024999999999999
 20
2.709999999999994
 30
0
 11
7.074999999999999
 21
2.709999999999994
 31
0
  0
LINE
  8
0
 62
7
  6
DASHDOT
 10
4.339999999999999
 20
2.709999999999994
 30
0
 11
4.389999999999999
 21
2.709999999999994
 31
0
  0
LINE
  8
0
 62
7
 10
4.564999999999999
 20
0.26
 30
0
 11
4.564999999999999
 21
0.3100000000000005
 31
0
  0
LINE
  8
0
 62
7
  6
DASHDOT
 10
7.074999999999999
 20
0.26
 30
0
 11
4.564999999999999
 21
0.26
 31
0
  0
LINE
  8
0
 62
7
 10
7.074999999999999
 20
0.3100000000000001
 30
0
 11
7.074999999999999
 21
0.26
 31
0
  0
LINE
  8
0
 62
7
 10
4.564999999999999
 20
0.3100000000000005
 30
0
 11
4.564999999999999
 21
2.04
 31
0
  0
LINE
  8
0
 62
7
 10
7.074999999999999
 20
0.3100000000000001
 30
0
 11
4.564999999999999
 21
0.3100000000000005
 31
0
  0
LINE
  8
0
 62
7
 10
7.074999999999999
 20
0.26
 30
0
 11
7.249999999999999
 21
0.26
 31
0
  0
LINE
  8
0
 62
7
 10
7.249999999999999
 20
2.04
 30
0
 11
7.414999999999999
 21
2.04
 31
0
  0
LINE
  8
0
 62
7
 10
7.249999999999999
 20
0.26
 30
0
 11
7.249999999999999
 21
2.04
 31
0
  0
LINE
  8
0
 62
7
 10
7.074999999999999
 20
2.04
 30
0
 11
7.074999999999999
 21
0.3100000000000001
 31
0
  0
LINE
  8
0
 62
7
 10
4.564999999999999
 20
2.04
 30
0
 11
7.074999999999999
 21
2.04
 31
0
  0
LINE
  8
0
 62
7
 10
4.389999999999999
 20
2.04
 30
0
 11
4.389999999999999
 21
0.16
 31
0
  0
LINE
  8
0
 62
7
 10
4.389999999999999
 20
0.16
 30
0
 11
4.564999999999999
 21
0.16
 31
0
  0
LINE
  8
0
 62
7
 10
4.564999999999999
 20
0.16
 30
0
 11
4.564999999999999
 21
0.26
 31
0
  0
LINE
  8
0
 62
7
 10
4.239999999999998
 20
2.04
 30
0
 11
4.389999999999999
 21
2.04
 31
0
  0
LINE
  8
0
 62
7
 10
4.239999999999998
 20
2.28
 30
0
 11
7.414999999999999
 21
2.28
 31
0
  0
LINE
  8
0
 62
7
 10
4.239999999999998
 20
2.32
 30
0
 11
7.414999999999999
 21
2.32
 31
0
  0
LINE
  8
0
 62
7
 10
7.249999999999999
 20
2.559999999999994
 30
0
 11
7.414999999999999
 21
2.559999999999994
 31
0
  0
LINE
  8
0
 62
7
 10
7.249999999999999
 20
2.709999999999994
 30
0
 11
7.249999999999999
 21
2.559999999999994
 31
0
  0
LINE
  8
0
 62
7
 10
7.074999999999999
 20
2.559999999999994
 30
0
 11
7.074999999999999
 21
2.709999999999994
 31
0
  0
LINE
  8
0
 62
7
 10
4.564999999999999
 20
2.559999999999994
 30
0
 11
7.074999999999999
 21
2.559999999999994
 31
0
  0
LINE
  8
0
 62
7
 10
4.564999999999999
 20
2.709999999999994
 30
0
 11
4.564999999999999
 21
2.559999999999994
 31
0
  0
LINE
  8
0
 62
7
 10
4.389999999999999
 20
2.559999999999994
 30
0
 11
4.389999999999999
 21
2.709999999999994
 31
0
  0
LINE
  8
0
 62
7
 10
4.239999999999998
 20
2.559999999999994
 30
0
 11
4.389999999999999
 21
2.559999999999994
 31
0
  0
LINE
  8
0
 62
7
  6
DASHED
 10
0.3899999999999991
 20
5.009999999999994
 30
0
 11
2.169999999999998
 21
5.009999999999994
 31
0
  0
LINE
  8
0
 62
7
  6
DASHED
 10
0.3900000000000001
 20
5.209999999999995
 30
0
 11
2.169999999999998
 21
5.209999999999995
 31
0
  0
LINE
  8
0
 62
7
  6
DASHED
 10
0.3900000000000001
 20
7.759999999999995
 30
0
 11
2.169999999999998
 21
7.759999999999995
 31
0
  0
LINE
  8
0
 62
7
  6
DASHED
 10
0.3900000000000001
 20
7.959999999999996
 30
0
 11
2.169999999999998
 21
7.959999999999996
 31
0
  0
LINE
  8
0
 62
7
  6
DASHDOT
 10
2.469999999999998
 20
7.959999999999996
 30
0
 11
2.469999999999998
 21
7.759999999999995
 31
0
  0
LINE
  8
0
 62
7
  6
DASHDOT
 10
2.469999999999998
 20
7.759999999999995
 30
0
 11
2.469999999999998
 21
7.709999999999996
 31
0
  0
LINE
  8
0
 62
7
  6
DASHDOT
 10
0.1499999999999991
 20
8.109999999999996
 30
0
 11
0.3899999999999991
 21
8.109999999999996
 31
0
  0
LINE
  8
0
 62
7
  6
DASHDOT
 10
0.3899999999999991
 20
8.109999999999996
 30
0
 11
0.4400000000000001
 21
8.109999999999996
 31
0
  0
LINE
  8
0
 62
7
  6
DASHDOT
 10
0.3900000000000001
 20
4.859999999999993
 30
0
 11
0.4400000000000001
 21
4.859999999999993
 31
0
  0
LINE
  8
0
 62
7
  6
DASHDOT
 10
0.1500000000000001
 20
4.859999999999993
 30
0
 11
0.3900000000000001
 21
4.859999999999993
 31
0
  0
LINE
  8
0
 62
7
  6
DASHDOT
 10
2.469999999999998
 20
5.009999999999994
 30
0
 11
2.469999999999998
 21
5.209999999999995
 31
0
  0
LINE
  8
0
 62
7
  6
DASHDOT
 10
2.469999999999998
 20
5.209999999999995
 30
0
 11
2.469999999999998
 21
5.309999999999995
 31
0
  0
LINE
  8
0
 62
7
  6
DASHDOT
 10
2.469999999999998
 20
8.059999999999995
 30
0
 11
2.469999999999998
 21
7.959999999999996
 31
0
  0
LINE
  8
0
 62
7
 10
2.169999999999998
 20
8.059999999999995
 30
0
 11
2.469999999999998
 21
8.059999999999995
 31
0
  0
LINE
  8
0
 62
7
  6
DASHDOT
 10
2.469999999999998
 20
5.309999999999995
 30
0
 11
2.469999999999997
 21
5.359999999999995
 31
0
  0
LINE
  8
0
 62
7
 10
2.169999999999998
 20
5.309999999999995
 30
0
 11
2.469999999999998
 21
5.309999999999995
 31
0
  0
LINE
  8
0
 62
7
  6
DASHDOT
 10
0.1000000000000001
 20
4.859999999999993
 30
0
 11
0.1500000000000001
 21
4.859999999999993
 31
0
  0
LINE
  8
0
 62
7
  6
DASHDOT
 10
2.469999999999998
 20
4.959999999999995
 30
0
 11
2.469999999999998
 21
5.009999999999994
 31
0
  0
LINE
  8
0
 62
7
  6
DASHDOT
 10
2.469999999999997
 20
8.109999999999996
 30
0
 11
2.469999999999998
 21
8.059999999999995
 31
0
  0
LINE
  8
0
 62
7
  6
DASHDOT
 10
0.1000000000000001
 20
8.109999999999996
 30
0
 11
0.1499999999999991
 21
8.109999999999996
 31
0
  0
LINE
  8
0
 62
7
 10
2.169999999999998
 20
5.009999999999994
 30
0
 11
2.469999999999998
 21
5.009999999999994
 31
0
  0
LINE
  8
0
 62
7
 10
2.169999999999998
 20
5.209999999999995
 30
0
 11
2.169999999999998
 21
5.009999999999994
 31
0
  0
LINE
  8
0
 62
7
 10
2.169999999999998
 20
5.209999999999995
 30
0
 11
2.469999999999998
 21
5.209999999999995
 31
0
  0
LINE
  8
0
 62
7
 10
2.169999999999998
 20
7.959999999999996
 30
0
 11
2.469999999999998
 21
7.959999999999996
 31
0
  0
LINE
  8
0
 62
7
 10
2.169999999999998
 20
7.759999999999995
 30
0
 11
2.469999999999998
 21
7.759999999999995
 31
0
  0
LINE
  8
0
 62
7
 10
2.169999999999998
 20
7.959999999999996
 30
0
 11
2.169999999999998
 21
7.759999999999995
 31
0
  0
LINE
  8
0
 62
7
 10
0.3899999999999991
 20
5.009999999999994
 30
0
 11
0.3900000000000001
 21
4.859999999999993
 31
0
  0
LINE
  8
0
 62
7
 10
0.1499999999999991
 20
5.009999999999994
 30
0
 11
0.1500000000000001
 21
5.209999999999995
 31
0
  0
LINE
  8
0
 62
7
 10
0.1499999999999991
 20
5.009999999999994
 30
0
 11
0.3899999999999991
 21
5.009999999999994
 31
0
  0
LINE
  8
0
 62
7
 10
0.3900000000000001
 20
5.209999999999995
 30
0
 11
0.3899999999999991
 21
5.009999999999994
 31
0
  0
LINE
  8
0
 62
7
 10
0.1500000000000001
 20
5.209999999999995
 30
0
 11
0.1500000000000001
 21
7.759999999999995
 31
0
  0
LINE
  8
0
 62
7
 10
0.1500000000000001
 20
5.209999999999995
 30
0
 11
0.3900000000000001
 21
5.209999999999995
 31
0
  0
LINE
  8
0
 62
7
 10
0.3900000000000001
 20
7.759999999999995
 30
0
 11
0.3900000000000001
 21
5.209999999999995
 31
0
  0
LINE
  8
0
 62
7
 10
0.1500000000000001
 20
7.759999999999995
 30
0
 11
0.1500000000000001
 21
7.959999999999996
 31
0
  0
LINE
  8
0
 62
7
 10
0.1500000000000001
 20
7.759999999999995
 30
0
 11
0.3900000000000001
 21
7.759999999999995
 31
0
  0
LINE
  8
0
 62
7
 10
0.3900000000000001
 20
7.959999999999996
 30
0
 11
0.3900000000000001
 21
7.759999999999995
 31
0
  0
LINE
  8
0
 62
7
 10
0.1500000000000001
 20
7.959999999999996
 30
0
 11
0.1499999999999991
 21
8.109999999999996
 31
0
  0
LINE
  8
0
 62
7
 10
0.1500000000000001
 20
7.959999999999996
 30
0
 11
0.3900000000000001
 21
7.959999999999996
 31
0
  0
LINE
  8
0
 62
7
 10
0.3899999999999991
 20
8.109999999999996
 30
0
 11
0.3900000000000001
 21
7.959999999999996
 31
0
  0
LINE
  8
0
 62
7
 10
0.1500000000000001
 20
4.859999999999993
 30
0
 11
0.1499999999999991
 21
5.009999999999994
 31
0
  0
LINE
  8
0
 62
7
  6
DASHDOT
 10
4.339999999999999
 20
8.109999999999996
 30
0
 11
4.389999999999999
 21
8.109999999999996
 31
0
  0
LINE
  8
0
 62
7
  6
DASHDOT
 10
4.389999999999999
 20
8.109999999999996
 30
0
 11
4.564999999999999
 21
8.109999999999996
 31
0
  0
LINE
  8
0
 62
7
  6
DASHDOT
 10
4.239999999999998
 20
8.059999999999995
 30
0
 11
4.239999999999998
 21
7.959999999999996
 31
0
  0
LINE
  8
0
 62
7
  6
DASHDOT
 10
4.239999999999998
 20
7.959999999999996
 30
0
 11
4.239999999999998
 21
7.759999999999995
 31
0
  0
LINE
  8
0
 62
7
  6
DASHDOT
 10
7.024999999999999
 20
8.109999999999996
 30
0
 11
7.074999999999999
 21
8.109999999999996
 31
0
  0
LINE
  8
0
 62
7
  6
DASHDOT
 10
7.074999999999999
 20
8.109999999999996
 30
0
 11
7.249999999999999
 21
8.109999999999996
 31
0
  0
LINE
  8
0
 62
7
  6
DASHDOT
 10
7.399999999999999
 20
8.059999999999995
 30
0
 11
7.399999999999999
 21
7.959999999999996
 31
0
  0
LINE
  8
0
 62
7
  6
DASHDOT
 10
7.399999999999999
 20
7.959999999999996
 30
0
 11
7.399999999999999
 21
7.759999999999995
 31
0
  0
LINE
  8
0
 62
7
  6
DASHDOT
 10
7.024999999999999
 20
4.859999999999993
 30
0
 11
7.074999999999999
 21
4.859999999999993
 31
0
  0
LINE
  8
0
 62
7
  6
DASHDOT
 10
7.074999999999999
 20
4.859999999999993
 30
0
 11
7.249999999999999
 21
4.859999999999993
 31
0
  0
LINE
  8
0
 62
7
  6
DASHDOT
 10
7.399999999999999
 20
5.309999999999995
 30
0
 11
7.399999999999999
 21
5.209999999999995
 31
0
  0
LINE
  8
0
 62
7
  6
DASHDOT
 10
7.399999999999999
 20
5.209999999999995
 30
0
 11
7.399999999999999
 21
5.009999999999994
 31
0
  0
LINE
  8
0
 62
7
  6
DASHDOT
 10
4.339999999999999
 20
4.859999999999993
 30
0
 11
4.389999999999999
 21
4.859999999999993
 31
0
  0
LINE
  8
0
 62
7
  6
DASHDOT
 10
4.389999999999999
 20
4.859999999999993
 30
0
 11
4.564999999999999
 21
4.859999999999993
 31
0
  0
LINE
  8
0
 62
7
  6
DASHDOT
 10
4.239999999999998
 20
5.309999999999995
 30
0
 11
4.239999999999998
 21
5.209999999999995
 31
0
  0
LINE
  8
0
 62
7
  6
DASHDOT
 10
4.239999999999998
 20
5.209999999999995
 30
0
 11
4.239999999999998
 21
5.009999999999994
 31
0
  0
LINE
  8
0
 62
7
  6
DASHDOT
 10
4.239999999999998
 20
8.109999999999996
 30
0
 11
4.239999999999998
 21
8.059999999999995
 31
0
  0
LINE
  8
0
 62
7
 10
4.389999999999999
 20
8.109999999999996
 30
0
 11
4.389999999999999
 21
8.059999999999995
 31
0
  0
LINE
  8
0
 62
7
 10
4.239999999999998
 20
8.059999999999995
 30
0
 11
4.389999999999999
 21
8.059999999999995
 31
0
  0
LINE
  8
0
 62
7
 10
4.564999999999999
 20
8.109999999999996
 30
0
 11
4.564999999999999
 21
8.059999999999995
 31
0
  0
LINE
  8
0
 62
7
 10
7.074999999999999
 20
8.109999999999996
 30
0
 11
7.074999999999999
 21
8.059999999999995
 31
0
  0
LINE
  8
0
 62
7
 10
4.564999999999999
 20
8.059999999999995
 30
0
 11
7.074999999999999
 21
8.059999999999995
 31
0
  0
LINE
  8
0
 62
7
  6
DASHDOT
 10
7.399999999999999
 20
8.109999999999996
 30
0
 11
7.399999999999999
 21
8.059999999999995
 31
0
  0
LINE
  8
0
 62
7
 10
7.249999999999999
 20
8.109999999999996
 30
0
 11
7.249999999999999
 21
8.059999999999995
 31
0
  0
LINE
  8
0
 62
7
 10
7.249999999999999
 20
8.059999999999995
 30
0
 11
7.399999999999999
 21
8.059999999999995
 31
0
  0
LINE
  8
0
 62
7
  6
DASHDOT
 10
4.239999999999998
 20
5.359999999999995
 30
0
 11
4.239999999999998
 21
5.309999999999995
 31
0
  0
LINE
  8
0
 62
7
 10
4.389999999999999
 20
7.759999999999995
 30
0
 11
4.389999999999999
 21
5.309999999999995
 31
0
  0
LINE
  8
0
 62
7
 10
4.239999999999998
 20
5.309999999999995
 30
0
 11
4.389999999999999
 21
5.309999999999995
 31
0
  0
LINE
  8
0
 62
7
 10
4.564999999999999
 20
7.759999999999995
 30
0
 11
4.564999999999999
 21
5.309999999999995
 31
0
  0
LINE
  8
0
 62
7
 10
7.074999999999999
 20
7.759999999999995
 30
0
 11
7.074999999999999
 21
5.309999999999995
 31
0
  0
LINE
  8
0
 62
7
 10
4.564999999999999
 20
5.309999999999995
 30
0
 11
7.074999999999999
 21
5.309999999999995
 31
0
  0
LINE
  8
0
 62
7
  6
DASHDOT
 10
7.399999999999999
 20
5.359999999999995
 30
0
 11
7.399999999999999
 21
5.309999999999995
 31
0
  0
LINE
  8
0
 62
7
 10
7.249999999999999
 20
7.759999999999995
 30
0
 11
7.249999999999999
 21
5.309999999999995
 31
0
  0
LINE
  8
0
 62
7
 10
7.249999999999999
 20
5.309999999999995
 30
0
 11
7.399999999999999
 21
5.309999999999995
 31
0
  0
LINE
  8
0
 62
7
  6
DASHDOT
 10
4.564999999999999
 20
4.859999999999993
 30
0
 11
4.614999999999998
 21
4.859999999999993
 31
0
  0
LINE
  8
0
 62
7
  6
DASHDOT
 10
4.564999999999999
 20
8.109999999999996
 30
0
 11
4.614999999999998
 21
8.109999999999996
 31
0
  0
LINE
  8
0
 62
7
  6
DASHDOT
 10
7.249999999999999
 20
4.859999999999993
 30
0
 11
7.299999999999999
 21
4.859999999999993
 31
0
  0
LINE
  8
0
 62
7
  6
DASHDOT
 10
7.249999999999999
 20
8.109999999999996
 30
0
 11
7.299999999999999
 21
8.109999999999996
 31
0
  0
LINE
  8
0
 62
7
  6
DASHDOT
 10
4.239999999999998
 20
7.759999999999995
 30
0
 11
4.239999999999998
 21
7.709999999999996
 31
0
  0
LINE
  8
0
 62
7
  6
DASHDOT
 10
4.239999999999998
 20
5.009999999999994
 30
0
 11
4.239999999999998
 21
4.959999999999995
 31
0
  0
LINE
  8
0
 62
7
  6
DASHDOT
 10
7.399999999999999
 20
7.759999999999995
 30
0
 11
7.399999999999999
 21
7.709999999999996
 31
0
  0
LINE
  8
0
 62
7
  6
DASHDOT
 10
7.399999999999999
 20
5.009999999999994
 30
0
 11
7.399999999999999
 21
4.959999999999995
 31
0
  0
LINE
  8
0
 62
7
 10
4.239999999999998
 20
7.959999999999996
 30
0
 11
4.389999999999999
 21
7.959999999999996
 31
0
  0
LINE
  8
0
 62
7
 10
4.389999999999999
 20
8.059999999999995
 30
0
 11
4.389999999999999
 21
7.959999999999996
 31
0
  0
LINE
  8
0
 62
7
 10
4.239999999999998
 20
7.759999999999995
 30
0
 11
4.389999999999999
 21
7.759999999999995
 31
0
  0
LINE
  8
0
 62
7
 10
4.239999999999998
 20
5.209999999999995
 30
0
 11
4.389999999999999
 21
5.209999999999995
 31
0
  0
LINE
  8
0
 62
7
 10
4.389999999999999
 20
5.309999999999995
 30
0
 11
4.389999999999999
 21
5.209999999999995
 31
0
  0
LINE
  8
0
 62
7
 10
4.239999999999998
 20
5.009999999999994
 30
0
 11
4.389999999999999
 21
5.009999999999994
 31
0
  0
LINE
  8
0
 62
7
 10
4.389999999999999
 20
5.009999999999994
 30
0
 11
4.389999999999999
 21
4.859999999999993
 31
0
  0
LINE
  8
0
 62
7
 10
4.389999999999999
 20
7.959999999999996
 30
0
 11
4.564999999999999
 21
7.959999999999996
 31
0
  0
LINE
  8
0
 62
7
 10
4.564999999999999
 20
8.059999999999995
 30
0
 11
4.564999999999999
 21
7.959999999999996
 31
0
  0
LINE
  8
0
 62
7
 10
4.389999999999999
 20
7.759999999999995
 30
0
 11
4.564999999999999
 21
7.759999999999995
 31
0
  0
LINE
  8
0
 62
7
 10
4.389999999999999
 20
5.209999999999995
 30
0
 11
4.564999999999999
 21
5.209999999999995
 31
0
  0
LINE
  8
0
 62
7
 10
4.564999999999999
 20
5.309999999999995
 30
0
 11
4.564999999999999
 21
5.209999999999995
 31
0
  0
LINE
  8
0
 62
7
 10
4.389999999999999
 20
5.009999999999994
 30
0
 11
4.564999999999999
 21
5.009999999999994
 31
0
  0
LINE
  8
0
 62
7
 10
4.564999999999999
 20
5.009999999999994
 30
0
 11
4.564999999999999
 21
4.859999999999993
 31
0
  0
LINE
  8
0
 62
7
 10
4.564999999999999
 20
7.959999999999996
 30
0
 11
7.074999999999999
 21
7.959999999999996
 31
0
  0
LINE
  8
0
 62
7
 10
7.074999999999999
 20
8.059999999999995
 30
0
 11
7.074999999999999
 21
7.959999999999996
 31
0
  0
LINE
  8
0
 62
7
 10
4.564999999999999
 20
7.759999999999995
 30
0
 11
7.074999999999999
 21
7.759999999999995
 31
0
  0
LINE
  8
0
 62
7
 10
4.564999999999999
 20
5.209999999999995
 30
0
 11
7.074999999999999
 21
5.209999999999995
 31
0
  0
LINE
  8
0
 62
7
 10
7.074999999999999
 20
5.309999999999995
 30
0
 11
7.074999999999999
 21
5.209999999999995
 31
0
  0
LINE
  8
0
 62
7
 10
4.564999999999999
 20
5.009999999999994
 30
0
 11
7.074999999999999
 21
5.009999999999994
 31
0
  0
LINE
  8
0
 62
7
 10
7.074999999999999
 20
5.009999999999994
 30
0
 11
7.074999999999999
 21
4.859999999999993
 31
0
  0
LINE
  8
0
 62
7
 10
7.074999999999999
 20
7.959999999999996
 30
0
 11
7.249999999999999
 21
7.959999999999996
 31
0
  0
LINE
  8
0
 62
7
 10
7.249999999999999
 20
8.059999999999995
 30
0
 11
7.249999999999999
 21
7.959999999999996
 31
0
  0
LINE
  8
0
 62
7
 10
7.074999999999999
 20
7.759999999999995
 30
0
 11
7.249999999999999
 21
7.759999999999995
 31
0
  0
LINE
  8
0
 62
7
 10
7.074999999999999
 20
5.209999999999995
 30
0
 11
7.249999999999999
 21
5.209999999999995
 31
0
  0
LINE
  8
0
 62
7
 10
7.249999999999999
 20
5.309999999999995
 30
0
 11
7.249999999999999
 21
5.209999999999995
 31
0
  0
LINE
  8
0
 62
7
 10
7.074999999999999
 20
5.009999999999994
 30
0
 11
7.249999999999999
 21
5.009999999999994
 31
0
  0
LINE
  8
0
 62
7
 10
7.249999999999999
 20
5.009999999999994
 30
0
 11
7.249999999999999
 21
4.859999999999993
 31
0
  0
LINE
  8
0
 62
7
 10
7.249999999999999
 20
7.959999999999996
 30
0
 11
7.399999999999999
 21
7.959999999999996
 31
0
  0
LINE
  8
0
 62
7
 10
7.249999999999999
 20
7.759999999999995
 30
0
 11
7.399999999999999
 21
7.759999999999995
 31
0
  0
LINE
  8
0
 62
7
 10
7.249999999999999
 20
5.209999999999995
 30
0
 11
7.399999999999999
 21
5.209999999999995
 31
0
  0
LINE
  8
0
 62
7
 10
7.249999999999999
 20
5.009999999999994
 30
0
 11
7.399999999999999
 21
5.009999999999994
 31
0
  0
LINE
  8
0
 62
7
 10
4.975631437006759
 20
1.69854920797138
 30
0
 11
4.975631437006759
 21
1.81854920797138
 31
0
  0
LINE
  8
0
 62
7
 10
5.05123143700676
 20
1.81854920797138
 30
0
 11
4.997231437006761
 21
1.75854920797138
 31
0
  0
LINE
  8
0
 62
7
 10
4.997231437006761
 20
1.75854920797138
 30
0
 11
5.05123143700676
 21
1.69854920797138
 31
0
  0
LINE
  8
0
 62
7
 10
4.997231437006761
 20
1.75854920797138
 30
0
 11
4.975631437006759
 21
1.73454920797138
 31
0
  0
LINE
  8
0
 62
7
 10
5.15923143700676
 20
1.81854920797138
 30
0
 11
5.08363143700676
 21
1.81854920797138
 31
0
  0
LINE
  8
0
 62
7
 10
5.08363143700676
 20
1.81854920797138
 30
0
 11
5.08363143700676
 21
1.75854920797138
 31
0
  0
LINE
  8
0
 62
7
 10
5.08363143700676
 20
1.69854920797138
 30
0
 11
5.15923143700676
 21
1.69854920797138
 31
0
  0
LINE
  8
0
 62
7
 10
5.148431437006761
 20
1.75854920797138
 30
0
 11
5.08363143700676
 21
1.75854920797138
 31
0
  0
LINE
  8
0
 62
7
 10
5.08363143700676
 20
1.75854920797138
 30
0
 11
5.08363143700676
 21
1.69854920797138
 31
0
  0
LINE
  8
0
 62
7
 10
5.19163143700676
 20
1.69854920797138
 30
0
 11
5.19163143700676
 21
1.81854920797138
 31
0
  0
LINE
  8
0
 62
7
 10
5.19163143700676
 20
1.81854920797138
 30
0
 11
5.26723143700676
 21
1.69854920797138
 31
0
  0
LINE
  8
0
 62
7
 10
5.26723143700676
 20
1.69854920797138
 30
0
 11
5.26723143700676
 21
1.81854920797138
 31
0
  0
LINE
  8
0
 62
7
 10
5.299631437006759
 20
1.69854920797138
 30
0
 11
5.299631437006759
 21
1.81854920797138
 31
0
  0
LINE
  8
0
 62
7
 10
5.299631437006759
 20
1.81854920797138
 30
0
 11
5.375231437006761
 21
1.69854920797138
 31
0
  0
LINE
  8
0
 62
7
 10
5.375231437006761
 20
1.69854920797138
 30
0
 11
5.375231437006761
 21
1.81854920797138
 31
0
  0
LINE
  8
0
 62
7
 10
5.483231437006761
 20
1.78254920797138
 30
0
 11
5.48053143700676
 21
1.79454920797138
 31
0
  0
LINE
  8
0
 62
7
 10
5.48053143700676
 20
1.79454920797138
 30
0
 11
5.47513143700676
 21
1.80354920797138
 31
0
  0
LINE
  8
0
 62
7
 10
5.47513143700676
 20
1.80354920797138
 30
0
 11
5.469731437006761
 21
1.80954920797138
 31
0
  0
LINE
  8
0
 62
7
 10
5.469731437006761
 20
1.80954920797138
 30
0
 11
5.461631437006759
 21
1.81554920797138
 31
0
  0
LINE
  8
0
 62
7
 10
5.461631437006759
 20
1.81554920797138
 30
0
 11
5.45353143700676
 21
1.81854920797138
 31
0
  0
LINE
  8
0
 62
7
 10
5.45353143700676
 20
1.81854920797138
 30
0
 11
5.437331437006759
 21
1.81854920797138
 31
0
  0
LINE
  8
0
 62
7
 10
5.437331437006759
 20
1.81854920797138
 30
0
 11
5.42923143700676
 21
1.81554920797138
 31
0
  0
LINE
  8
0
 62
7
 10
5.42923143700676
 20
1.81554920797138
 30
0
 11
5.42113143700676
 21
1.80954920797138
 31
0
  0
LINE
  8
0
 62
7
 10
5.42113143700676
 20
1.80954920797138
 30
0
 11
5.415731437006762
 21
1.80354920797138
 31
0
  0
LINE
  8
0
 62
7
 10
5.415731437006762
 20
1.80354920797138
 30
0
 11
5.410331437006761
 21
1.79454920797138
 31
0
  0
LINE
  8
0
 62
7
 10
5.410331437006761
 20
1.79454920797138
 30
0
 11
5.40763143700676
 21
1.78254920797138
 31
0
  0
LINE
  8
0
 62
7
 10
5.40763143700676
 20
1.78254920797138
 30
0
 11
5.40763143700676
 21
1.73454920797138
 31
0
  0
LINE
  8
0
 62
7
 10
5.40763143700676
 20
1.73454920797138
 30
0
 11
5.410331437006761
 21
1.72254920797138
 31
0
  0
LINE
  8
0
 62
7
 10
5.410331437006761
 20
1.72254920797138
 30
0
 11
5.415731437006762
 21
1.71354920797138
 31
0
  0
LINE
  8
0
 62
7
 10
5.415731437006762
 20
1.71354920797138
 30
0
 11
5.42113143700676
 21
1.70754920797138
 31
0
  0
LINE
  8
0
 62
7
 10
5.42113143700676
 20
1.70754920797138
 30
0
 11
5.42923143700676
 21
1.70154920797138
 31
0
  0
LINE
  8
0
 62
7
 10
5.42923143700676
 20
1.70154920797138
 30
0
 11
5.437331437006759
 21
1.69854920797138
 31
0
  0
LINE
  8
0
 62
7
 10
5.437331437006759
 20
1.69854920797138
 30
0
 11
5.45353143700676
 21
1.69854920797138
 31
0
  0
LINE
  8
0
 62
7
 10
5.45353143700676
 20
1.69854920797138
 30
0
 11
5.461631437006759
 21
1.70154920797138
 31
0
  0
LINE
  8
0
 62
7
 10
5.461631437006759
 20
1.70154920797138
 30
0
 11
5.469731437006761
 21
1.70754920797138
 31
0
  0
LINE
  8
0
 62
7
 10
5.469731437006761
 20
1.70754920797138
 30
0
 11
5.47513143700676
 21
1.71354920797138
 31
0
  0
LINE
  8
0
 62
7
 10
5.47513143700676
 20
1.71354920797138
 30
0
 11
5.48053143700676
 21
1.72254920797138
 31
0
  0
LINE
  8
0
 62
7
 10
5.48053143700676
 20
1.72254920797138
 30
0
 11
5.483231437006761
 21
1.73454920797138
 31
0
  0
LINE
  8
0
 62
7
 10
5.483231437006761
 20
1.73454920797138
 30
0
 11
5.483231437006761
 21
1.75854920797138
 31
0
  0
LINE
  8
0
 62
7
 10
5.483231437006761
 20
1.75854920797138
 30
0
 11
5.45083143700676
 21
1.75854920797138
 31
0
  0
LINE
  8
0
 62
7
 10
5.56153143700676
 20
1.81854920797138
 30
0
 11
5.545331437006761
 21
1.81854920797138
 31
0
  0
LINE
  8
0
 62
7
 10
5.545331437006761
 20
1.81854920797138
 30
0
 11
5.53723143700676
 21
1.81554920797138
 31
0
  0
LINE
  8
0
 62
7
 10
5.53723143700676
 20
1.81554920797138
 30
0
 11
5.52913143700676
 21
1.80954920797138
 31
0
  0
LINE
  8
0
 62
7
 10
5.52913143700676
 20
1.80954920797138
 30
0
 11
5.52373143700676
 21
1.80354920797138
 31
0
  0
LINE
  8
0
 62
7
 10
5.52373143700676
 20
1.80354920797138
 30
0
 11
5.51833143700676
 21
1.79454920797138
 31
0
  0
LINE
  8
0
 62
7
 10
5.51833143700676
 20
1.79454920797138
 30
0
 11
5.515631437006761
 21
1.78254920797138
 31
0
  0
LINE
  8
0
 62
7
 10
5.515631437006761
 20
1.78254920797138
 30
0
 11
5.515631437006761
 21
1.73454920797138
 31
0
  0
LINE
  8
0
 62
7
 10
5.515631437006761
 20
1.73454920797138
 30
0
 11
5.51833143700676
 21
1.72254920797138
 31
0
  0
LINE
  8
0
 62
7
 10
5.51833143700676
 20
1.72254920797138
 30
0
 11
5.52373143700676
 21
1.71354920797138
 31
0
  0
LINE
  8
0
 62
7
 10
5.52373143700676
 20
1.71354920797138
 30
0
 11
5.52913143700676
 21
1.70754920797138
 31
0
  0
LINE
  8
0
 62
7
 10
5.52913143700676
 20
1.70754920797138
 30
0
 11
5.53723143700676
 21
1.70154920797138
 31
0
  0
LINE
  8
0
 62
7
 10
5.53723143700676
 20
1.70154920797138
 30
0
 11
5.545331437006761
 21
1.69854920797138
 31
0
  0
LINE
  8
0
 62
7
 10
5.545331437006761
 20
1.69854920797138
 30
0
 11
5.56153143700676
 21
1.69854920797138
 31
0
  0
LINE
  8
0
 62
7
 10
5.56153143700676
 20
1.69854920797138
 30
0
 11
5.56963143700676
 21
1.70154920797138
 31
0
  0
LINE
  8
0
 62
7
 10
5.56963143700676
 20
1.70154920797138
 30
0
 11
5.577731437006761
 21
1.70754920797138
 31
0
  0
LINE
  8
0
 62
7
 10
5.577731437006761
 20
1.70754920797138
 30
0
 11
5.58313143700676
 21
1.71354920797138
 31
0
  0
LINE
  8
0
 62
7
 10
5.58313143700676
 20
1.71354920797138
 30
0
 11
5.588531437006759
 21
1.72254920797138
 31
0
  0
LINE
  8
0
 62
7
 10
5.588531437006759
 20
1.72254920797138
 30
0
 11
5.59123143700676
 21
1.73454920797138
 31
0
  0
LINE
  8
0
 62
7
 10
5.59123143700676
 20
1.73454920797138
 30
0
 11
5.59123143700676
 21
1.78254920797138
 31
0
  0
LINE
  8
0
 62
7
 10
5.59123143700676
 20
1.78254920797138
 30
0
 11
5.588531437006759
 21
1.79454920797138
 31
0
  0
LINE
  8
0
 62
7
 10
5.588531437006759
 20
1.79454920797138
 30
0
 11
5.58313143700676
 21
1.80354920797138
 31
0
  0
LINE
  8
0
 62
7
 10
5.58313143700676
 20
1.80354920797138
 30
0
 11
5.577731437006761
 21
1.80954920797138
 31
0
  0
LINE
  8
0
 62
7
 10
5.577731437006761
 20
1.80954920797138
 30
0
 11
5.56963143700676
 21
1.81554920797138
 31
0
  0
LINE
  8
0
 62
7
 10
5.56963143700676
 20
1.81554920797138
 30
0
 11
5.56153143700676
 21
1.81854920797138
 31
0
  0
LINE
  8
0
 62
7
 10
5.61283143700676
 20
1.81854920797138
 30
0
 11
5.650631437006759
 21
1.81854920797138
 31
0
  0
LINE
  8
0
 62
7
 10
5.650631437006759
 20
1.81854920797138
 30
0
 11
5.650631437006759
 21
1.69854920797138
 31
0
  0
LINE
  8
0
 62
7
 10
5.650631437006759
 20
1.81854920797138
 30
0
 11
5.688431437006761
 21
1.81854920797138
 31
0
  0
LINE
  8
0
 62
7
 10
5.720831437006759
 20
1.81854920797138
 30
0
 11
5.758631437006761
 21
1.81854920797138
 31
0
  0
LINE
  8
0
 62
7
 10
5.758631437006761
 20
1.81854920797138
 30
0
 11
5.758631437006761
 21
1.69854920797138
 31
0
  0
LINE
  8
0
 62
7
 10
5.758631437006761
 20
1.81854920797138
 30
0
 11
5.79643143700676
 21
1.81854920797138
 31
0
  0
LINE
  8
0
 62
7
 10
5.915231437006759
 20
1.74054920797138
 30
0
 11
5.96923143700676
 21
1.74054920797138
 31
0
  0
LINE
  8
0
 62
7
 10
6.077231437006759
 20
1.81854920797138
 30
0
 11
6.11503143700676
 21
1.81854920797138
 31
0
  0
LINE
  8
0
 62
7
 10
6.11503143700676
 20
1.81854920797138
 30
0
 11
6.11503143700676
 21
1.69854920797138
 31
0
  0
LINE
  8
0
 62
7
 10
6.11503143700676
 20
1.81854920797138
 30
0
 11
6.15283143700676
 21
1.81854920797138
 31
0
  0
LINE
  8
0
 62
7
 10
6.18523143700676
 20
1.69854920797138
 30
0
 11
6.18523143700676
 21
1.81854920797138
 31
0
  0
LINE
  8
0
 62
7
 10
6.18523143700676
 20
1.81854920797138
 30
0
 11
6.236531437006761
 21
1.81854920797138
 31
0
  0
LINE
  8
0
 62
7
 10
6.236531437006761
 20
1.81854920797138
 30
0
 11
6.247331437006761
 21
1.81554920797138
 31
0
  0
LINE
  8
0
 62
7
 10
6.247331437006761
 20
1.81554920797138
 30
0
 11
6.255431437006759
 21
1.80954920797138
 31
0
  0
LINE
  8
0
 62
7
 10
6.255431437006759
 20
1.80954920797138
 30
0
 11
6.25813143700676
 21
1.80354920797138
 31
0
  0
LINE
  8
0
 62
7
 10
6.25813143700676
 20
1.80354920797138
 30
0
 11
6.26083143700676
 21
1.79454920797138
 31
0
  0
LINE
  8
0
 62
7
 10
6.26083143700676
 20
1.79454920797138
 30
0
 11
6.26083143700676
 21
1.78254920797138
 31
0
  0
LINE
  8
0
 62
7
 10
6.26083143700676
 20
1.78254920797138
 30
0
 11
6.25813143700676
 21
1.77354920797138
 31
0
  0
LINE
  8
0
 62
7
 10
6.25813143700676
 20
1.77354920797138
 30
0
 11
6.255431437006759
 21
1.76754920797138
 31
0
  0
LINE
  8
0
 62
7
 10
6.255431437006759
 20
1.76754920797138
 30
0
 11
6.247331437006761
 21
1.76154920797138
 31
0
  0
LINE
  8
0
 62
7
 10
6.247331437006761
 20
1.76154920797138
 30
0
 11
6.236531437006761
 21
1.75854920797138
 31
0
  0
LINE
  8
0
 62
7
 10
6.236531437006761
 20
1.75854920797138
 30
0
 11
6.228431437006759
 21
1.75854920797138
 31
0
  0
LINE
  8
0
 62
7
 10
6.228431437006759
 20
1.75854920797138
 30
0
 11
6.26083143700676
 21
1.69854920797138
 31
0
  0
LINE
  8
0
 62
7
 10
6.228431437006759
 20
1.75854920797138
 30
0
 11
6.18523143700676
 21
1.75854920797138
 31
0
  0
LINE
  8
0
 62
7
 10
6.358031437006759
 20
1.81854920797138
 30
0
 11
6.28243143700676
 21
1.81854920797138
 31
0
  0
LINE
  8
0
 62
7
 10
6.28243143700676
 20
1.81854920797138
 30
0
 11
6.28243143700676
 21
1.75854920797138
 31
0
  0
LINE
  8
0
 62
7
 10
6.28243143700676
 20
1.69854920797138
 30
0
 11
6.358031437006759
 21
1.69854920797138
 31
0
  0
LINE
  8
0
 62
7
 10
6.347231437006759
 20
1.75854920797138
 30
0
 11
6.28243143700676
 21
1.75854920797138
 31
0
  0
LINE
  8
0
 62
7
 10
6.28243143700676
 20
1.75854920797138
 30
0
 11
6.28243143700676
 21
1.69854920797138
 31
0
  0
LINE
  8
0
 62
7
 10
6.39043143700676
 20
1.69854920797138
 30
0
 11
6.39043143700676
 21
1.75854920797138
 31
0
  0
LINE
  8
0
 62
7
 10
6.39043143700676
 20
1.81854920797138
 30
0
 11
6.44173143700676
 21
1.81854920797138
 31
0
  0
LINE
  8
0
 62
7
 10
6.44173143700676
 20
1.81854920797138
 30
0
 11
6.452531437006761
 21
1.81554920797138
 31
0
  0
LINE
  8
0
 62
7
 10
6.452531437006761
 20
1.81554920797138
 30
0
 11
6.46063143700676
 21
1.80954920797138
 31
0
  0
LINE
  8
0
 62
7
 10
6.46063143700676
 20
1.80954920797138
 30
0
 11
6.46333143700676
 21
1.80354920797138
 31
0
  0
LINE
  8
0
 62
7
 10
6.46333143700676
 20
1.80354920797138
 30
0
 11
6.46603143700676
 21
1.79454920797138
 31
0
  0
LINE
  8
0
 62
7
 10
6.46603143700676
 20
1.79454920797138
 30
0
 11
6.46603143700676
 21
1.78254920797138
 31
0
  0
LINE
  8
0
 62
7
 10
6.46603143700676
 20
1.78254920797138
 30
0
 11
6.46333143700676
 21
1.77354920797138
 31
0
  0
LINE
  8
0
 62
7
 10
6.46333143700676
 20
1.77354920797138
 30
0
 11
6.46063143700676
 21
1.76754920797138
 31
0
  0
LINE
  8
0
 62
7
 10
6.46063143700676
 20
1.76754920797138
 30
0
 11
6.452531437006761
 21
1.76154920797138
 31
0
  0
LINE
  8
0
 62
7
 10
6.452531437006761
 20
1.76154920797138
 30
0
 11
6.44173143700676
 21
1.75854920797138
 31
0
  0
LINE
  8
0
 62
7
 10
6.44173143700676
 20
1.75854920797138
 30
0
 11
6.39043143700676
 21
1.75854920797138
 31
0
  0
LINE
  8
0
 62
7
 10
6.39043143700676
 20
1.75854920797138
 30
0
 11
6.39043143700676
 21
1.81854920797138
 31
0
  0
LINE
  8
0
 62
7
 10
6.487631437006759
 20
1.69854920797138
 30
0
 11
6.487631437006759
 21
1.75854920797138
 31
0
  0
LINE
  8
0
 62
7
 10
6.487631437006759
 20
1.81854920797138
 30
0
 11
6.538931437006759
 21
1.81854920797138
 31
0
  0
LINE
  8
0
 62
7
 10
6.538931437006759
 20
1.81854920797138
 30
0
 11
6.54973143700676
 21
1.81554920797138
 31
0
  0
LINE
  8
0
 62
7
 10
6.54973143700676
 20
1.81554920797138
 30
0
 11
6.557831437006761
 21
1.80954920797138
 31
0
  0
LINE
  8
0
 62
7
 10
6.557831437006761
 20
1.80954920797138
 30
0
 11
6.560531437006759
 21
1.80354920797138
 31
0
  0
LINE
  8
0
 62
7
 10
6.560531437006759
 20
1.80354920797138
 30
0
 11
6.563231437006761
 21
1.79454920797138
 31
0
  0
LINE
  8
0
 62
7
 10
6.563231437006761
 20
1.79454920797138
 30
0
 11
6.563231437006761
 21
1.78254920797138
 31
0
  0
LINE
  8
0
 62
7
 10
6.563231437006761
 20
1.78254920797138
 30
0
 11
6.560531437006759
 21
1.77354920797138
 31
0
  0
LINE
  8
0
 62
7
 10
6.560531437006759
 20
1.77354920797138
 30
0
 11
6.557831437006761
 21
1.76754920797138
 31
0
  0
LINE
  8
0
 62
7
 10
6.557831437006761
 20
1.76754920797138
 30
0
 11
6.54973143700676
 21
1.76154920797138
 31
0
  0
LINE
  8
0
 62
7
 10
6.54973143700676
 20
1.76154920797138
 30
0
 11
6.538931437006759
 21
1.75854920797138
 31
0
  0
LINE
  8
0
 62
7
 10
6.538931437006759
 20
1.75854920797138
 30
0
 11
6.487631437006759
 21
1.75854920797138
 31
0
  0
LINE
  8
0
 62
7
 10
6.487631437006759
 20
1.75854920797138
 30
0
 11
6.487631437006759
 21
1.81854920797138
 31
0
  0
LINE
  8
0
 62
7
 10
6.660431437006761
 20
1.81854920797138
 30
0
 11
6.58483143700676
 21
1.81854920797138
 31
0
  0
LINE
  8
0
 62
7
 10
6.58483143700676
 20
1.81854920797138
 30
0
 11
6.58483143700676
 21
1.75854920797138
 31
0
  0
LINE
  8
0
 62
7
 10
6.58483143700676
 20
1.69854920797138
 30
0
 11
6.660431437006761
 21
1.69854920797138
 31
0
  0
LINE
  8
0
 62
7
 10
6.649631437006761
 20
1.75854920797138
 30
0
 11
6.58483143700676
 21
1.75854920797138
 31
0
  0
LINE
  8
0
 62
7
 10
6.58483143700676
 20
1.75854920797138
 30
0
 11
6.58483143700676
 21
1.69854920797138
 31
0
  0
LINE
  8
0
 62
7
 10
4.324999999999999
 20
-0.08000000000000043
 30
0
 11
4.400599999999999
 21
-0.08000000000000043
 31
0
  0
LINE
  8
0
 62
7
 10
4.400599999999999
 20
-0.08000000000000043
 30
0
 11
4.324999999999999
 21
-0.2000000000000004
 31
0
  0
LINE
  8
0
 62
7
 10
4.324999999999999
 20
-0.2000000000000004
 30
0
 11
4.400599999999999
 21
-0.2000000000000004
 31
0
  0
LINE
  8
0
 62
7
 10
4.433
 20
-0.09800000000000043
 30
0
 11
4.438400000000001
 21
-0.08900000000000043
 31
0
  0
LINE
  8
0
 62
7
 10
4.438400000000001
 20
-0.08900000000000043
 30
0
 11
4.446499999999999
 21
-0.08300000000000043
 31
0
  0
LINE
  8
0
 62
7
 10
4.446499999999999
 20
-0.08300000000000043
 30
0
 11
4.4573
 21
-0.08000000000000043
 31
0
  0
LINE
  8
0
 62
7
 10
4.4573
 20
-0.08000000000000043
 30
0
 11
4.4735
 21
-0.08000000000000043
 31
0
  0
LINE
  8
0
 62
7
 10
4.4735
 20
-0.08000000000000043
 30
0
 11
4.4843
 21
-0.08300000000000043
 31
0
  0
LINE
  8
0
 62
7
 10
4.4843
 20
-0.08300000000000043
 30
0
 11
4.492399999999999
 21
-0.08900000000000043
 31
0
  0
LINE
  8
0
 62
7
 10
4.492399999999999
 20
-0.08900000000000043
 30
0
 11
4.4978
 21
-0.09800000000000043
 31
0
  0
LINE
  8
0
 62
7
 10
4.4978
 20
-0.09800000000000043
 30
0
 11
4.4978
 21
-0.1100000000000004
 31
0
  0
LINE
  8
0
 62
7
 10
4.4978
 20
-0.1100000000000004
 30
0
 11
4.492399999999999
 21
-0.1220000000000004
 31
0
  0
LINE
  8
0
 62
7
 10
4.492399999999999
 20
-0.1220000000000004
 30
0
 11
4.433
 21
-0.2000000000000004
 31
0
  0
LINE
  8
0
 62
7
 10
4.433
 20
-0.2000000000000004
 30
0
 11
4.4978
 21
-0.2000000000000004
 31
0
  0
LINE
  8
0
 62
7
 10
4.5302
 20
-0.08000000000000043
 30
0
 11
4.568000000000001
 21
-0.2000000000000004
 31
0
  0
LINE
  8
0
 62
7
 10
4.568000000000001
 20
-0.2000000000000004
 30
0
 11
4.605799999999999
 21
-0.08000000000000043
 31
0
  0
LINE
  8
0
 62
7
 10
4.638199999999999
 20
-0.09800000000000043
 30
0
 11
4.643599999999998
 21
-0.08900000000000043
 31
0
  0
LINE
  8
0
 62
7
 10
4.643599999999998
 20
-0.08900000000000043
 30
0
 11
4.651699999999999
 21
-0.08300000000000043
 31
0
  0
LINE
  8
0
 62
7
 10
4.651699999999999
 20
-0.08300000000000043
 30
0
 11
4.6625
 21
-0.08000000000000043
 31
0
  0
LINE
  8
0
 62
7
 10
4.6625
 20
-0.08000000000000043
 30
0
 11
4.678699999999999
 21
-0.08000000000000043
 31
0
  0
LINE
  8
0
 62
7
 10
4.678699999999999
 20
-0.08000000000000043
 30
0
 11
4.689499999999999
 21
-0.08300000000000043
 31
0
  0
LINE
  8
0
 62
7
 10
4.689499999999999
 20
-0.08300000000000043
 30
0
 11
4.697599999999999
 21
-0.08900000000000043
 31
0
  0
LINE
  8
0
 62
7
 10
4.697599999999999
 20
-0.08900000000000043
 30
0
 11
4.703
 21
-0.09800000000000043
 31
0
  0
LINE
  8
0
 62
7
 10
4.703
 20
-0.09800000000000043
 30
0
 11
4.703
 21
-0.1100000000000004
 31
0
  0
LINE
  8
0
 62
7
 10
4.703
 20
-0.1100000000000004
 30
0
 11
4.697599999999999
 21
-0.1220000000000004
 31
0
  0
LINE
  8
0
 62
7
 10
4.697599999999999
 20
-0.1220000000000004
 30
0
 11
4.638199999999999
 21
-0.2000000000000004
 31
0
  0
LINE
  8
0
 62
7
 10
4.638199999999999
 20
-0.2000000000000004
 30
0
 11
4.703
 21
-0.2000000000000004
 31
0
  0
LINE
  8
0
 62
7
 10
4.794799999999998
 20
-0.08000000000000043
 30
0
 11
4.735399999999998
 21
-0.08000000000000043
 31
0
  0
LINE
  8
0
 62
7
 10
4.735399999999998
 20
-0.08000000000000043
 30
0
 11
4.735399999999998
 21
-0.1400000000000004
 31
0
  0
LINE
  8
0
 62
7
 10
4.735399999999998
 20
-0.1400000000000004
 30
0
 11
4.740799999999999
 21
-0.1310000000000004
 31
0
  0
LINE
  8
0
 62
7
 10
4.740799999999999
 20
-0.1310000000000004
 30
0
 11
4.748899999999999
 21
-0.1250000000000004
 31
0
  0
LINE
  8
0
 62
7
 10
4.748899999999999
 20
-0.1250000000000004
 30
0
 11
4.759699999999999
 21
-0.1220000000000004
 31
0
  0
LINE
  8
0
 62
7
 10
4.759699999999999
 20
-0.1220000000000004
 30
0
 11
4.7759
 21
-0.1220000000000004
 31
0
  0
LINE
  8
0
 62
7
 10
4.7759
 20
-0.1220000000000004
 30
0
 11
4.783999999999999
 21
-0.1250000000000004
 31
0
  0
LINE
  8
0
 62
7
 10
4.783999999999999
 20
-0.1250000000000004
 30
0
 11
4.7921
 21
-0.1310000000000004
 31
0
  0
LINE
  8
0
 62
7
 10
4.7921
 20
-0.1310000000000004
 30
0
 11
4.797499999999999
 21
-0.1400000000000004
 31
0
  0
LINE
  8
0
 62
7
 10
4.797499999999999
 20
-0.1400000000000004
 30
0
 11
4.800199999999999
 21
-0.1520000000000004
 31
0
  0
LINE
  8
0
 62
7
 10
4.800199999999999
 20
-0.1520000000000004
 30
0
 11
4.800199999999999
 21
-0.1700000000000004
 31
0
  0
LINE
  8
0
 62
7
 10
4.800199999999999
 20
-0.1700000000000004
 30
0
 11
4.797499999999999
 21
-0.1820000000000004
 31
0
  0
LINE
  8
0
 62
7
 10
4.797499999999999
 20
-0.1820000000000004
 30
0
 11
4.7921
 21
-0.1910000000000004
 31
0
  0
LINE
  8
0
 62
7
 10
4.7921
 20
-0.1910000000000004
 30
0
 11
4.783999999999999
 21
-0.1970000000000005
 31
0
  0
LINE
  8
0
 62
7
 10
4.783999999999999
 20
-0.1970000000000005
 30
0
 11
4.7759
 21
-0.2000000000000004
 31
0
  0
LINE
  8
0
 62
7
 10
4.7759
 20
-0.2000000000000004
 30
0
 11
4.759699999999999
 21
-0.2000000000000004
 31
0
  0
LINE
  8
0
 62
7
 10
4.759699999999999
 20
-0.2000000000000004
 30
0
 11
4.748899999999999
 21
-0.1970000000000005
 31
0
  0
LINE
  8
0
 62
7
 10
4.748899999999999
 20
-0.1970000000000005
 30
0
 11
4.740799999999999
 21
-0.1910000000000004
 31
0
  0
LINE
  8
0
 62
7
 10
4.740799999999999
 20
-0.1910000000000004
 30
0
 11
4.735399999999998
 21
-0.1820000000000004
 31
0
  0
LINE
  8
0
 62
7
 10
4.832600000000001
 20
-0.1160000000000004
 30
0
 11
4.864999999999999
 21
-0.08000000000000043
 31
0
  0
LINE
  8
0
 62
7
 10
4.864999999999999
 20
-0.08000000000000043
 30
0
 11
4.864999999999999
 21
-0.2000000000000004
 31
0
  0
LINE
  8
0
 62
7
 10
4.897399999999999
 20
-0.2000000000000004
 30
0
 11
4.897399999999999
 21
-0.08000000000000043
 31
0
  0
LINE
  8
0
 62
7
 10
4.897399999999999
 20
-0.08000000000000043
 30
0
 11
4.948699999999999
 21
-0.08000000000000043
 31
0
  0
LINE
  8
0
 62
7
 10
4.948699999999999
 20
-0.08000000000000043
 30
0
 11
4.959499999999999
 21
-0.08300000000000043
 31
0
  0
LINE
  8
0
 62
7
 10
4.959499999999999
 20
-0.08300000000000043
 30
0
 11
4.967599999999999
 21
-0.08900000000000043
 31
0
  0
LINE
  8
0
 62
7
 10
4.967599999999999
 20
-0.08900000000000043
 30
0
 11
4.9703
 21
-0.09500000000000043
 31
0
  0
LINE
  8
0
 62
7
 10
4.9703
 20
-0.09500000000000043
 30
0
 11
4.973000000000001
 21
-0.1040000000000004
 31
0
  0
LINE
  8
0
 62
7
 10
4.973000000000001
 20
-0.1040000000000004
 30
0
 11
4.973000000000001
 21
-0.1160000000000004
 31
0
  0
LINE
  8
0
 62
7
 10
4.973000000000001
 20
-0.1160000000000004
 30
0
 11
4.9703
 21
-0.1250000000000004
 31
0
  0
LINE
  8
0
 62
7
 10
4.9703
 20
-0.1250000000000004
 30
0
 11
4.967599999999999
 21
-0.1310000000000004
 31
0
  0
LINE
  8
0
 62
7
 10
4.967599999999999
 20
-0.1310000000000004
 30
0
 11
4.959499999999999
 21
-0.1370000000000004
 31
0
  0
LINE
  8
0
 62
7
 10
4.959499999999999
 20
-0.1370000000000004
 30
0
 11
4.948699999999999
 21
-0.1400000000000004
 31
0
  0
LINE
  8
0
 62
7
 10
4.948699999999999
 20
-0.1400000000000004
 30
0
 11
4.940599999999999
 21
-0.1400000000000004
 31
0
  0
LINE
  8
0
 62
7
 10
4.940599999999999
 20
-0.1400000000000004
 30
0
 11
4.973000000000001
 21
-0.2000000000000004
 31
0
  0
LINE
  8
0
 62
7
 10
4.940599999999999
 20
-0.1400000000000004
 30
0
 11
4.897399999999999
 21
-0.1400000000000004
 31
0
  0
LINE
  8
0
 62
7
 10
4.9946
 20
-0.1520000000000004
 30
0
 11
4.997300000000001
 21
-0.1400000000000004
 31
0
  0
LINE
  8
0
 62
7
 10
4.997300000000001
 20
-0.1400000000000004
 30
0
 11
5.002700000000001
 21
-0.1310000000000004
 31
0
  0
LINE
  8
0
 62
7
 10
5.002700000000001
 20
-0.1310000000000004
 30
0
 11
5.0108
 21
-0.1250000000000004
 31
0
  0
LINE
  8
0
 62
7
 10
5.0108
 20
-0.1250000000000004
 30
0
 11
5.0189
 21
-0.1220000000000004
 31
0
  0
LINE
  8
0
 62
7
 10
5.0189
 20
-0.1220000000000004
 30
0
 11
5.035100000000001
 21
-0.1220000000000004
 31
0
  0
LINE
  8
0
 62
7
 10
5.035100000000001
 20
-0.1220000000000004
 30
0
 11
5.043200000000001
 21
-0.1250000000000004
 31
0
  0
LINE
  8
0
 62
7
 10
5.043200000000001
 20
-0.1250000000000004
 30
0
 11
5.051299999999999
 21
-0.1310000000000004
 31
0
  0
LINE
  8
0
 62
7
 10
5.051299999999999
 20
-0.1310000000000004
 30
0
 11
5.0567
 21
-0.1400000000000004
 31
0
  0
LINE
  8
0
 62
7
 10
5.0567
 20
-0.1400000000000004
 30
0
 11
5.0594
 21
-0.1520000000000004
 31
0
  0
LINE
  8
0
 62
7
 10
5.0594
 20
-0.1520000000000004
 30
0
 11
5.0594
 21
-0.1700000000000004
 31
0
  0
LINE
  8
0
 62
7
 10
5.0594
 20
-0.1700000000000004
 30
0
 11
5.0567
 21
-0.1820000000000004
 31
0
  0
LINE
  8
0
 62
7
 10
5.0567
 20
-0.1820000000000004
 30
0
 11
5.051299999999999
 21
-0.1910000000000004
 31
0
  0
LINE
  8
0
 62
7
 10
5.051299999999999
 20
-0.1910000000000004
 30
0
 11
5.043200000000001
 21
-0.1970000000000005
 31
0
  0
LINE
  8
0
 62
7
 10
5.043200000000001
 20
-0.1970000000000005
 30
0
 11
5.035100000000001
 21
-0.2000000000000004
 31
0
  0
LINE
  8
0
 62
7
 10
5.035100000000001
 20
-0.2000000000000004
 30
0
 11
5.0189
 21
-0.2000000000000004
 31
0
  0
LINE
  8
0
 62
7
 10
5.0189
 20
-0.2000000000000004
 30
0
 11
5.0108
 21
-0.1970000000000005
 31
0
  0
LINE
  8
0
 62
7
 10
5.0108
 20
-0.1970000000000005
 30
0
 11
5.002700000000001
 21
-0.1910000000000004
 31
0
  0
LINE
  8
0
 62
7
 10
5.002700000000001
 20
-0.1910000000000004
 30
0
 11
4.997300000000001
 21
-0.1820000000000004
 31
0
  0
LINE
  8
0
 62
7
 10
4.997300000000001
 20
-0.1820000000000004
 30
0
 11
4.9946
 21
-0.1700000000000004
 31
0
  0
LINE
  8
0
 62
7
 10
4.9946
 20
-0.1700000000000004
 30
0
 11
4.9946
 21
-0.1520000000000004
 31
0
  0
LINE
  8
0
 62
7
 10
4.9946
 20
-0.1100000000000004
 30
0
 11
4.997300000000001
 21
-0.09800000000000043
 31
0
  0
LINE
  8
0
 62
7
 10
4.997300000000001
 20
-0.09800000000000043
 30
0
 11
5.002700000000001
 21
-0.08900000000000043
 31
0
  0
LINE
  8
0
 62
7
 10
5.002700000000001
 20
-0.08900000000000043
 30
0
 11
5.0108
 21
-0.08300000000000043
 31
0
  0
LINE
  8
0
 62
7
 10
5.0108
 20
-0.08300000000000043
 30
0
 11
5.0189
 21
-0.08000000000000043
 31
0
  0
LINE
  8
0
 62
7
 10
5.0189
 20
-0.08000000000000043
 30
0
 11
5.035100000000001
 21
-0.08000000000000043
 31
0
  0
LINE
  8
0
 62
7
 10
5.035100000000001
 20
-0.08000000000000043
 30
0
 11
5.043200000000001
 21
-0.08300000000000043
 31
0
  0
LINE
  8
0
 62
7
 10
5.043200000000001
 20
-0.08300000000000043
 30
0
 11
5.051299999999999
 21
-0.08900000000000043
 31
0
  0
LINE
  8
0
 62
7
 10
5.051299999999999
 20
-0.08900000000000043
 30
0
 11
5.0567
 21
-0.09800000000000043
 31
0
  0
LINE
  8
0
 62
7
 10
4.9946
 20
-0.1520000000000004
 30
0
 11
4.9946
 21
-0.1100000000000004
 31
0
  0
LINE
  8
0
 62
7
 10
6.825
 20
-0.2000000000000004
 30
0
 11
6.825
 21
-0.1000000000000004
 31
0
  0
LINE
  8
0
 62
7
 10
6.825
 20
-0.1000000000000004
 30
0
 11
6.888
 21
-0.2000000000000004
 31
0
  0
LINE
  8
0
 62
7
 10
6.888
 20
-0.2000000000000004
 30
0
 11
6.888
 21
-0.1000000000000004
 31
0
  0
LINE
  8
0
 62
7
 10
6.969
 20
-0.2000000000000004
 30
0
 11
6.915000000000001
 21
-0.2000000000000004
 31
0
  0
LINE
  8
0
 62
7
 10
6.915000000000001
 20
-0.2000000000000004
 30
0
 11
6.915000000000001
 21
-0.1000000000000004
 31
0
  0
LINE
  8
0
 62
7
 10
6.996
 20
-0.1500000000000004
 30
0
 11
7.032
 21
-0.1500000000000004
 31
0
  0
LINE
  8
0
 62
7
 10
7.032
 20
-0.1500000000000004
 30
0
 11
7.0365
 21
-0.1500000000000004
 31
0
  0
LINE
  8
0
 62
7
 10
7.0365
 20
-0.1500000000000004
 30
0
 11
7.045500000000001
 21
-0.1550000000000004
 31
0
  0
LINE
  8
0
 62
7
 10
7.045500000000001
 20
-0.1550000000000004
 30
0
 11
7.050000000000001
 21
-0.1600000000000004
 31
0
  0
LINE
  8
0
 62
7
 10
7.050000000000001
 20
-0.1600000000000004
 30
0
 11
7.054499999999999
 21
-0.1700000000000004
 31
0
  0
LINE
  8
0
 62
7
 10
7.054499999999999
 20
-0.1700000000000004
 30
0
 11
7.054499999999999
 21
-0.1800000000000004
 31
0
  0
LINE
  8
0
 62
7
 10
7.054499999999999
 20
-0.1800000000000004
 30
0
 11
7.050000000000001
 21
-0.1900000000000004
 31
0
  0
LINE
  8
0
 62
7
 10
7.050000000000001
 20
-0.1900000000000004
 30
0
 11
7.045500000000001
 21
-0.1950000000000004
 31
0
  0
LINE
  8
0
 62
7
 10
7.045500000000001
 20
-0.1950000000000004
 30
0
 11
7.0365
 21
-0.2000000000000004
 31
0
  0
LINE
  8
0
 62
7
 10
7.0365
 20
-0.2000000000000004
 30
0
 11
6.996
 21
-0.2000000000000004
 31
0
  0
LINE
  8
0
 62
7
 10
6.996
 20
-0.2000000000000004
 30
0
 11
6.996
 21
-0.1500000000000004
 31
0
  0
LINE
  8
0
 62
7
 10
6.996
 20
-0.1000000000000004
 30
0
 11
7.02975
 21
-0.1000000000000004
 31
0
  0
LINE
  8
0
 62
7
 10
7.02975
 20
-0.1000000000000004
 30
0
 11
7.041
 21
-0.1025000000000004
 31
0
  0
LINE
  8
0
 62
7
 10
7.041
 20
-0.1025000000000004
 30
0
 11
7.047750000000001
 21
-0.1100000000000004
 31
0
  0
LINE
  8
0
 62
7
 10
7.047750000000001
 20
-0.1100000000000004
 30
0
 11
7.050000000000001
 21
-0.1200000000000004
 31
0
  0
LINE
  8
0
 62
7
 10
7.050000000000001
 20
-0.1200000000000004
 30
0
 11
7.050000000000001
 21
-0.1300000000000004
 31
0
  0
LINE
  8
0
 62
7
 10
7.050000000000001
 20
-0.1300000000000004
 30
0
 11
7.045500000000001
 21
-0.1400000000000004
 31
0
  0
LINE
  8
0
 62
7
 10
7.045500000000001
 20
-0.1400000000000004
 30
0
 11
7.03875
 21
-0.1475000000000004
 31
0
  0
LINE
  8
0
 62
7
 10
7.03875
 20
-0.1475000000000004
 30
0
 11
7.032
 21
-0.1500000000000004
 31
0
  0
LINE
  8
0
 62
7
 10
6.996
 20
-0.1500000000000004
 30
0
 11
6.996
 21
-0.1000000000000004
 31
0
  0
LINE
  8
0
 62
7
 10
7.196250000000001
 20
-0.1475000000000004
 30
0
 11
7.1895
 21
-0.1375000000000004
 31
0
  0
LINE
  8
0
 62
7
 10
7.1895
 20
-0.1375000000000004
 30
0
 11
7.18275
 21
-0.1325000000000004
 31
0
  0
LINE
  8
0
 62
7
 10
7.18275
 20
-0.1325000000000004
 30
0
 11
7.175999999999999
 21
-0.1300000000000004
 31
0
  0
LINE
  8
0
 62
7
 10
7.175999999999999
 20
-0.1300000000000004
 30
0
 11
7.166999999999999
 21
-0.1300000000000004
 31
0
  0
LINE
  8
0
 62
7
 10
7.166999999999999
 20
-0.1300000000000004
 30
0
 11
7.160250000000001
 21
-0.1325000000000004
 31
0
  0
LINE
  8
0
 62
7
 10
7.160250000000001
 20
-0.1325000000000004
 30
0
 11
7.1535
 21
-0.1375000000000004
 31
0
  0
LINE
  8
0
 62
7
 10
7.1535
 20
-0.1375000000000004
 30
0
 11
7.146750000000001
 21
-0.1475000000000004
 31
0
  0
LINE
  8
0
 62
7
 10
7.146750000000001
 20
-0.1475000000000004
 30
0
 11
7.1445
 21
-0.1550000000000004
 31
0
  0
LINE
  8
0
 62
7
 10
7.1445
 20
-0.1550000000000004
 30
0
 11
7.1445
 21
-0.1750000000000004
 31
0
  0
LINE
  8
0
 62
7
 10
7.1445
 20
-0.1750000000000004
 30
0
 11
7.146750000000001
 21
-0.1825000000000004
 31
0
  0
LINE
  8
0
 62
7
 10
7.146750000000001
 20
-0.1825000000000004
 30
0
 11
7.1535
 21
-0.1925000000000004
 31
0
  0
LINE
  8
0
 62
7
 10
7.1535
 20
-0.1925000000000004
 30
0
 11
7.160250000000001
 21
-0.1975000000000004
 31
0
  0
LINE
  8
0
 62
7
 10
7.160250000000001
 20
-0.1975000000000004
 30
0
 11
7.166999999999999
 21
-0.2000000000000004
 31
0
  0
LINE
  8
0
 62
7
 10
7.166999999999999
 20
-0.2000000000000004
 30
0
 11
7.175999999999999
 21
-0.2000000000000004
 31
0
  0
LINE
  8
0
 62
7
 10
7.175999999999999
 20
-0.2000000000000004
 30
0
 11
7.18275
 21
-0.1975000000000004
 31
0
  0
LINE
  8
0
 62
7
 10
7.18275
 20
-0.1975000000000004
 30
0
 11
7.1895
 21
-0.1925000000000004
 31
0
  0
LINE
  8
0
 62
7
 10
7.1895
 20
-0.1925000000000004
 30
0
 11
7.196250000000001
 21
-0.1825000000000004
 31
0
  0
LINE
  8
0
 62
7
 10
7.268249999999999
 20
-0.1550000000000004
 30
0
 11
7.266
 21
-0.1475000000000004
 31
0
  0
LINE
  8
0
 62
7
 10
7.266
 20
-0.1475000000000004
 30
0
 11
7.259250000000001
 21
-0.1375000000000004
 31
0
  0
LINE
  8
0
 62
7
 10
7.259250000000001
 20
-0.1375000000000004
 30
0
 11
7.252500000000001
 21
-0.1325000000000004
 31
0
  0
LINE
  8
0
 62
7
 10
7.252500000000001
 20
-0.1325000000000004
 30
0
 11
7.24575
 21
-0.1300000000000004
 31
0
  0
LINE
  8
0
 62
7
 10
7.24575
 20
-0.1300000000000004
 30
0
 11
7.236750000000001
 21
-0.1300000000000004
 31
0
  0
LINE
  8
0
 62
7
 10
7.236750000000001
 20
-0.1300000000000004
 30
0
 11
7.23
 21
-0.1325000000000004
 31
0
  0
LINE
  8
0
 62
7
 10
7.23
 20
-0.1325000000000004
 30
0
 11
7.223249999999999
 21
-0.1375000000000004
 31
0
  0
LINE
  8
0
 62
7
 10
7.223249999999999
 20
-0.1375000000000004
 30
0
 11
7.216500000000001
 21
-0.1475000000000004
 31
0
  0
LINE
  8
0
 62
7
 10
7.216500000000001
 20
-0.1475000000000004
 30
0
 11
7.21425
 21
-0.1550000000000004
 31
0
  0
LINE
  8
0
 62
7
 10
7.21425
 20
-0.1550000000000004
 30
0
 11
7.21425
 21
-0.1750000000000004
 31
0
  0
LINE
  8
0
 62
7
 10
7.21425
 20
-0.1750000000000004
 30
0
 11
7.216500000000001
 21
-0.1825000000000004
 31
0
  0
LINE
  8
0
 62
7
 10
7.216500000000001
 20
-0.1825000000000004
 30
0
 11
7.223249999999999
 21
-0.1925000000000004
 31
0
  0
LINE
  8
0
 62
7
 10
7.223249999999999
 20
-0.1925000000000004
 30
0
 11
7.23
 21
-0.1975000000000004
 31
0
  0
LINE
  8
0
 62
7
 10
7.23
 20
-0.1975000000000004
 30
0
 11
7.236750000000001
 21
-0.2000000000000004
 31
0
  0
LINE
  8
0
 62
7
 10
7.236750000000001
 20
-0.2000000000000004
 30
0
 11
7.24575
 21
-0.2000000000000004
 31
0
  0
LINE
  8
0
 62
7
 10
7.24575
 20
-0.2000000000000004
 30
0
 11
7.252500000000001
 21
-0.1975000000000004
 31
0
  0
LINE
  8
0
 62
7
 10
7.252500000000001
 20
-0.1975000000000004
 30
0
 11
7.259250000000001
 21
-0.1925000000000004
 31
0
  0
LINE
  8
0
 62
7
 10
7.259250000000001
 20
-0.1925000000000004
 30
0
 11
7.266
 21
-0.1825000000000004
 31
0
  0
LINE
  8
0
 62
7
 10
7.266
 20
-0.1825000000000004
 30
0
 11
7.268249999999999
 21
-0.1750000000000004
 31
0
  0
LINE
  8
0
 62
7
 10
7.268249999999999
 20
-0.1300000000000004
 30
0
 11
7.268249999999999
 21
-0.1550000000000004
 31
0
  0
LINE
  8
0
 62
7
 10
7.268249999999999
 20
-0.1975000000000004
 30
0
 11
7.2705
 21
-0.2000000000000004
 31
0
  0
LINE
  8
0
 62
7
 10
7.2705
 20
-0.2000000000000004
 30
0
 11
7.272750000000001
 21
-0.2000000000000004
 31
0
  0
LINE
  8
0
 62
7
 10
7.268249999999999
 20
-0.1750000000000004
 30
0
 11
7.268249999999999
 21
-0.1975000000000004
 31
0
  0
LINE
  8
0
 62
7
 10
7.268249999999999
 20
-0.1550000000000004
 30
0
 11
7.268249999999999
 21
-0.1750000000000004
 31
0
  0
LINE
  8
0
 62
7
 10
7.29075
 20
-0.2000000000000004
 30
0
 11
7.29075
 21
-0.1975000000000004
 31
0
  0
LINE
  8
0
 62
7
 10
7.29075
 20
-0.1975000000000004
 30
0
 11
7.293000000000001
 21
-0.1975000000000004
 31
0
  0
LINE
  8
0
 62
7
 10
7.293000000000001
 20
-0.1975000000000004
 30
0
 11
7.293000000000001
 21
-0.2000000000000004
 31
0
  0
LINE
  8
0
 62
7
 10
7.293000000000001
 20
-0.2000000000000004
 30
0
 11
7.29075
 21
-0.2000000000000004
 31
0
  0
LINE
  8
0
 62
7
 10
7.41675
 20
-0.1000000000000004
 30
0
 11
7.42575
 21
-0.1000000000000004
 31
0
  0
LINE
  8
0
 62
7
 10
7.42575
 20
-0.1000000000000004
 30
0
 11
7.432500000000001
 21
-0.1025000000000004
 31
0
  0
LINE
  8
0
 62
7
 10
7.432500000000001
 20
-0.1025000000000004
 30
0
 11
7.436999999999999
 21
-0.1075000000000004
 31
0
  0
LINE
  8
0
 62
7
 10
7.436999999999999
 20
-0.1075000000000004
 30
0
 11
7.441500000000001
 21
-0.1150000000000004
 31
0
  0
LINE
  8
0
 62
7
 10
7.441500000000001
 20
-0.1150000000000004
 30
0
 11
7.441500000000001
 21
-0.1250000000000004
 31
0
  0
LINE
  8
0
 62
7
 10
7.441500000000001
 20
-0.1250000000000004
 30
0
 11
7.43925
 21
-0.1300000000000004
 31
0
  0
LINE
  8
0
 62
7
 10
7.43925
 20
-0.1300000000000004
 30
0
 11
7.432500000000001
 21
-0.1375000000000004
 31
0
  0
LINE
  8
0
 62
7
 10
7.432500000000001
 20
-0.1375000000000004
 30
0
 11
7.42575
 21
-0.1400000000000004
 31
0
  0
LINE
  8
0
 62
7
 10
7.42575
 20
-0.1400000000000004
 30
0
 11
7.41675
 21
-0.1400000000000004
 31
0
  0
LINE
  8
0
 62
7
 10
7.41675
 20
-0.1400000000000004
 30
0
 11
7.410000000000001
 21
-0.1375000000000004
 31
0
  0
LINE
  8
0
 62
7
 10
7.410000000000001
 20
-0.1375000000000004
 30
0
 11
7.40325
 21
-0.1300000000000004
 31
0
  0
LINE
  8
0
 62
7
 10
7.40325
 20
-0.1300000000000004
 30
0
 11
7.401
 21
-0.1250000000000004
 31
0
  0
LINE
  8
0
 62
7
 10
7.401
 20
-0.1250000000000004
 30
0
 11
7.401
 21
-0.1150000000000004
 31
0
  0
LINE
  8
0
 62
7
 10
7.401
 20
-0.1150000000000004
 30
0
 11
7.405500000000001
 21
-0.1075000000000004
 31
0
  0
LINE
  8
0
 62
7
 10
7.405500000000001
 20
-0.1075000000000004
 30
0
 11
7.410000000000001
 21
-0.1025000000000004
 31
0
  0
LINE
  8
0
 62
7
 10
7.410000000000001
 20
-0.1025000000000004
 30
0
 11
7.41675
 21
-0.1000000000000004
 31
0
  0
LINE
  8
0
 62
7
 10
7.41675
 20
-0.1400000000000004
 30
0
 11
7.405500000000001
 21
-0.1450000000000004
 31
0
  0
LINE
  8
0
 62
7
 10
7.405500000000001
 20
-0.1450000000000004
 30
0
 11
7.39875
 21
-0.1525000000000004
 31
0
  0
LINE
  8
0
 62
7
 10
7.39875
 20
-0.1525000000000004
 30
0
 11
7.39425
 21
-0.1625000000000004
 31
0
  0
LINE
  8
0
 62
7
 10
7.39425
 20
-0.1625000000000004
 30
0
 11
7.39425
 21
-0.1775000000000004
 31
0
  0
LINE
  8
0
 62
7
 10
7.39425
 20
-0.1775000000000004
 30
0
 11
7.39875
 21
-0.1875000000000004
 31
0
  0
LINE
  8
0
 62
7
 10
7.39875
 20
-0.1875000000000004
 30
0
 11
7.405500000000001
 21
-0.1950000000000004
 31
0
  0
LINE
  8
0
 62
7
 10
7.405500000000001
 20
-0.1950000000000004
 30
0
 11
7.4145
 21
-0.2000000000000004
 31
0
  0
LINE
  8
0
 62
7
 10
7.4145
 20
-0.2000000000000004
 30
0
 11
7.428000000000001
 21
-0.2000000000000004
 31
0
  0
LINE
  8
0
 62
7
 10
7.428000000000001
 20
-0.2000000000000004
 30
0
 11
7.436999999999999
 21
-0.1950000000000004
 31
0
  0
LINE
  8
0
 62
7
 10
7.436999999999999
 20
-0.1950000000000004
 30
0
 11
7.443750000000001
 21
-0.1875000000000004
 31
0
  0
LINE
  8
0
 62
7
 10
7.443750000000001
 20
-0.1875000000000004
 30
0
 11
7.448249999999999
 21
-0.1775000000000004
 31
0
  0
LINE
  8
0
 62
7
 10
7.448249999999999
 20
-0.1775000000000004
 30
0
 11
7.448249999999999
 21
-0.1625000000000004
 31
0
  0
LINE
  8
0
 62
7
 10
7.448249999999999
 20
-0.1625000000000004
 30
0
 11
7.443750000000001
 21
-0.1525000000000004
 31
0
  0
LINE
  8
0
 62
7
 10
7.443750000000001
 20
-0.1525000000000004
 30
0
 11
7.436999999999999
 21
-0.1450000000000004
 31
0
  0
LINE
  8
0
 62
7
 10
7.436999999999999
 20
-0.1450000000000004
 30
0
 11
7.42575
 21
-0.1400000000000004
 31
0
  0
LINE
  8
0
 62
7
 10
7.53825
 20
-0.1400000000000004
 30
0
 11
7.536
 21
-0.1500000000000004
 31
0
  0
LINE
  8
0
 62
7
 10
7.536
 20
-0.1500000000000004
 30
0
 11
7.5315
 21
-0.1575000000000004
 31
0
  0
LINE
  8
0
 62
7
 10
7.5315
 20
-0.1575000000000004
 30
0
 11
7.524749999999999
 21
-0.1625000000000004
 31
0
  0
LINE
  8
0
 62
7
 10
7.524749999999999
 20
-0.1625000000000004
 30
0
 11
7.518000000000001
 21
-0.1650000000000004
 31
0
  0
LINE
  8
0
 62
7
 10
7.518000000000001
 20
-0.1650000000000004
 30
0
 11
7.504499999999999
 21
-0.1650000000000004
 31
0
  0
LINE
  8
0
 62
7
 10
7.504499999999999
 20
-0.1650000000000004
 30
0
 11
7.497750000000001
 21
-0.1625000000000004
 31
0
  0
LINE
  8
0
 62
7
 10
7.497750000000001
 20
-0.1625000000000004
 30
0
 11
7.491
 21
-0.1575000000000004
 31
0
  0
LINE
  8
0
 62
7
 10
7.491
 20
-0.1575000000000004
 30
0
 11
7.486499999999999
 21
-0.1500000000000004
 31
0
  0
LINE
  8
0
 62
7
 10
7.486499999999999
 20
-0.1500000000000004
 30
0
 11
7.48425
 21
-0.1400000000000004
 31
0
  0
LINE
  8
0
 62
7
 10
7.48425
 20
-0.1400000000000004
 30
0
 11
7.48425
 21
-0.1250000000000004
 31
0
  0
LINE
  8
0
 62
7
 10
7.48425
 20
-0.1250000000000004
 30
0
 11
7.486499999999999
 21
-0.1150000000000004
 31
0
  0
LINE
  8
0
 62
7
 10
7.486499999999999
 20
-0.1150000000000004
 30
0
 11
7.491
 21
-0.1075000000000004
 31
0
  0
LINE
  8
0
 62
7
 10
7.491
 20
-0.1075000000000004
 30
0
 11
7.497750000000001
 21
-0.1025000000000004
 31
0
  0
LINE
  8
0
 62
7
 10
7.497750000000001
 20
-0.1025000000000004
 30
0
 11
7.504499999999999
 21
-0.1000000000000004
 31
0
  0
LINE
  8
0
 62
7
 10
7.504499999999999
 20
-0.1000000000000004
 30
0
 11
7.518000000000001
 21
-0.1000000000000004
 31
0
  0
LINE
  8
0
 62
7
 10
7.518000000000001
 20
-0.1000000000000004
 30
0
 11
7.524749999999999
 21
-0.1025000000000004
 31
0
  0
LINE
  8
0
 62
7
 10
7.524749999999999
 20
-0.1025000000000004
 30
0
 11
7.5315
 21
-0.1075000000000004
 31
0
  0
LINE
  8
0
 62
7
 10
7.5315
 20
-0.1075000000000004
 30
0
 11
7.536
 21
-0.1150000000000004
 31
0
  0
LINE
  8
0
 62
7
 10
7.536
 20
-0.1150000000000004
 30
0
 11
7.53825
 21
-0.1250000000000004
 31
0
  0
LINE
  8
0
 62
7
 10
7.53825
 20
-0.1250000000000004
 30
0
 11
7.53825
 21
-0.1400000000000004
 31
0
  0
LINE
  8
0
 62
7
 10
7.53825
 20
-0.1750000000000004
 30
0
 11
7.536
 21
-0.1850000000000004
 31
0
  0
LINE
  8
0
 62
7
 10
7.536
 20
-0.1850000000000004
 30
0
 11
7.5315
 21
-0.1925000000000004
 31
0
  0
LINE
  8
0
 62
7
 10
7.5315
 20
-0.1925000000000004
 30
0
 11
7.524749999999999
 21
-0.1975000000000004
 31
0
  0
LINE
  8
0
 62
7
 10
7.524749999999999
 20
-0.1975000000000004
 30
0
 11
7.518000000000001
 21
-0.2000000000000004
 31
0
  0
LINE
  8
0
 62
7
 10
7.518000000000001
 20
-0.2000000000000004
 30
0
 11
7.504499999999999
 21
-0.2000000000000004
 31
0
  0
LINE
  8
0
 62
7
 10
7.504499999999999
 20
-0.2000000000000004
 30
0
 11
7.497750000000001
 21
-0.1975000000000004
 31
0
  0
LINE
  8
0
 62
7
 10
7.497750000000001
 20
-0.1975000000000004
 30
0
 11
7.491
 21
-0.1925000000000004
 31
0
  0
LINE
  8
0
 62
7
 10
7.491
 20
-0.1925000000000004
 30
0
 11
7.486499999999999
 21
-0.1850000000000004
 31
0
  0
LINE
  8
0
 62
7
 10
7.53825
 20
-0.1400000000000004
 30
0
 11
7.53825
 21
-0.1750000000000004
 31
0
  0
LINE
  8
0
 62
7
 10
7.689
 20
-0.1475000000000004
 30
0
 11
7.68225
 21
-0.1375000000000004
 31
0
  0
LINE
  8
0
 62
7
 10
7.68225
 20
-0.1375000000000004
 30
0
 11
7.6755
 21
-0.1325000000000004
 31
0
  0
LINE
  8
0
 62
7
 10
7.6755
 20
-0.1325000000000004
 30
0
 11
7.66875
 21
-0.1300000000000004
 31
0
  0
LINE
  8
0
 62
7
 10
7.66875
 20
-0.1300000000000004
 30
0
 11
7.65975
 21
-0.1300000000000004
 31
0
  0
LINE
  8
0
 62
7
 10
7.65975
 20
-0.1300000000000004
 30
0
 11
7.653
 21
-0.1325000000000004
 31
0
  0
LINE
  8
0
 62
7
 10
7.653
 20
-0.1325000000000004
 30
0
 11
7.646250000000001
 21
-0.1375000000000004
 31
0
  0
LINE
  8
0
 62
7
 10
7.646250000000001
 20
-0.1375000000000004
 30
0
 11
7.6395
 21
-0.1475000000000004
 31
0
  0
LINE
  8
0
 62
7
 10
7.6395
 20
-0.1475000000000004
 30
0
 11
7.637249999999999
 21
-0.1550000000000004
 31
0
  0
LINE
  8
0
 62
7
 10
7.637249999999999
 20
-0.1550000000000004
 30
0
 11
7.637249999999999
 21
-0.1750000000000004
 31
0
  0
LINE
  8
0
 62
7
 10
7.637249999999999
 20
-0.1750000000000004
 30
0
 11
7.6395
 21
-0.1825000000000004
 31
0
  0
LINE
  8
0
 62
7
 10
7.6395
 20
-0.1825000000000004
 30
0
 11
7.646250000000001
 21
-0.1925000000000004
 31
0
  0
LINE
  8
0
 62
7
 10
7.646250000000001
 20
-0.1925000000000004
 30
0
 11
7.653
 21
-0.1975000000000004
 31
0
  0
LINE
  8
0
 62
7
 10
7.653
 20
-0.1975000000000004
 30
0
 11
7.65975
 21
-0.2000000000000004
 31
0
  0
LINE
  8
0
 62
7
 10
7.65975
 20
-0.2000000000000004
 30
0
 11
7.66875
 21
-0.2000000000000004
 31
0
  0
LINE
  8
0
 62
7
 10
7.66875
 20
-0.2000000000000004
 30
0
 11
7.6755
 21
-0.1975000000000004
 31
0
  0
LINE
  8
0
 62
7
 10
7.6755
 20
-0.1975000000000004
 30
0
 11
7.68225
 21
-0.1925000000000004
 31
0
  0
LINE
  8
0
 62
7
 10
7.68225
 20
-0.1925000000000004
 30
0
 11
7.689
 21
-0.1825000000000004
 31
0
  0
LINE
  8
0
 62
7
 10
7.747500000000001
 20
-0.1550000000000004
 30
0
 11
7.747500000000001
 21
-0.2000000000000004
 31
0
  0
LINE
  8
0
 62
7
 10
7.707
 20
-0.1300000000000004
 30
0
 11
7.707
 21
-0.1550000000000004
 31
0
  0
LINE
  8
0
 62
7
 10
7.707
 20
-0.2000000000000004
 30
0
 11
7.707
 21
-0.1550000000000004
 31
0
  0
LINE
  8
0
 62
7
 10
7.707
 20
-0.1550000000000004
 30
0
 11
7.709250000000001
 21
-0.1425000000000004
 31
0
  0
LINE
  8
0
 62
7
 10
7.709250000000001
 20
-0.1425000000000004
 30
0
 11
7.7115
 21
-0.1375000000000004
 31
0
  0
LINE
  8
0
 62
7
 10
7.7115
 20
-0.1375000000000004
 30
0
 11
7.716
 21
-0.1325000000000004
 31
0
  0
LINE
  8
0
 62
7
 10
7.716
 20
-0.1325000000000004
 30
0
 11
7.722750000000001
 21
-0.1300000000000004
 31
0
  0
LINE
  8
0
 62
7
 10
7.722750000000001
 20
-0.1300000000000004
 30
0
 11
7.73175
 21
-0.1300000000000004
 31
0
  0
LINE
  8
0
 62
7
 10
7.73175
 20
-0.1300000000000004
 30
0
 11
7.738499999999999
 21
-0.1325000000000004
 31
0
  0
LINE
  8
0
 62
7
 10
7.738499999999999
 20
-0.1325000000000004
 30
0
 11
7.743000000000001
 21
-0.1375000000000004
 31
0
  0
LINE
  8
0
 62
7
 10
7.743000000000001
 20
-0.1375000000000004
 30
0
 11
7.74525
 21
-0.1425000000000004
 31
0
  0
LINE
  8
0
 62
7
 10
7.74525
 20
-0.1425000000000004
 30
0
 11
7.747500000000001
 21
-0.1550000000000004
 31
0
  0
LINE
  8
0
 62
7
 10
7.747500000000001
 20
-0.1550000000000004
 30
0
 11
7.749749999999999
 21
-0.1425000000000004
 31
0
  0
LINE
  8
0
 62
7
 10
7.749749999999999
 20
-0.1425000000000004
 30
0
 11
7.752
 21
-0.1375000000000004
 31
0
  0
LINE
  8
0
 62
7
 10
7.752
 20
-0.1375000000000004
 30
0
 11
7.7565
 21
-0.1325000000000004
 31
0
  0
LINE
  8
0
 62
7
 10
7.7565
 20
-0.1325000000000004
 30
0
 11
7.763249999999999
 21
-0.1300000000000004
 31
0
  0
LINE
  8
0
 62
7
 10
7.763249999999999
 20
-0.1300000000000004
 30
0
 11
7.77225
 21
-0.1300000000000004
 31
0
  0
LINE
  8
0
 62
7
 10
7.77225
 20
-0.1300000000000004
 30
0
 11
7.779000000000001
 21
-0.1325000000000004
 31
0
  0
LINE
  8
0
 62
7
 10
7.7835
 20
-0.1375000000000004
 30
0
 11
7.779000000000001
 21
-0.1325000000000004
 31
0
  0
LINE
  8
0
 62
7
 10
7.779000000000001
 20
-0.1325000000000004
 30
0
 11
7.7835
 21
-0.1375000000000004
 31
0
  0
LINE
  8
0
 62
7
 10
7.7835
 20
-0.1375000000000004
 30
0
 11
7.785749999999999
 21
-0.1425000000000004
 31
0
  0
LINE
  8
0
 62
7
 10
7.785749999999999
 20
-0.1425000000000004
 30
0
 11
7.788
 21
-0.1550000000000004
 31
0
  0
LINE
  8
0
 62
7
 10
7.788
 20
-0.1550000000000004
 30
0
 11
7.788
 21
-0.2000000000000004
 31
0
  0
ARC
  8
0
 62
7
 10
5.569531581109949
 20
1.03546841889005
 30
0
 40
0.4950000000000007
 50
89.94577545397149
 51
180.0542245459672
  0
ARC
  8
0
 62
7
 10
6.07046841889005
 20
1.03546841889003
 30
0
 40
0.495000000000001
 50
359.9457754538996
 51
90.05422454311304
  0
CIRCLE
  8
0
 62
7
 10
5.074531802787517
 20
0.1599999999999996
 30
0
 40
0.0600000000000005
  0
DIMENSION
  8
0
  6
CONTINUOUS
 62
7
  2
*D0
  3
DMST_1
 10
7.625317477431421
 20
2.04
 30
0
 11
7.625317477431421
 21
1.16705175608924
 31
0
 12
0
 22
0
 32
0
 70
0
 13
7.249999999999999
 23
0.26
 33
0
 14
7.249999999999999
 24
2.04
 34
0
 50
90
 53
0
  0
DIMENSION
  8
0
  6
CONTINUOUS
 62
7
  2
*D1
  3
DMST_1
 10
7.074999999999999
 20
3.02459790495654
 30
0
 11
5.853316216998791
 21
3.02459790495654
 31
0
 12
0
 22
0
 32
0
 70
0
 13
4.564999999999999
 23
2.559999999999994
 33
0
 14
7.074999999999999
 24
2.559999999999994
 34
0
 53
0
  0
DIMENSION
  8
0
  6
CONTINUOUS
 62
7
  2
*D2
  3
DMST_1
 10
3.9957700681315
 20
2.04
 30
0
 11
3.9957700681315
 21
1.14261035939362
 31
0
 12
0
 22
0
 32
0
 70
0
 13
4.389999999999999
 23
0.16
 33
0
 14
4.389999999999999
 24
2.04
 34
0
 50
90
 53
0
  0
DIMENSION
  8
0
  6
CONTINUOUS
 62
7
  2
*D3
  3
DMST_2
 10
7.074999999999999
 20
8.42614657468908
 30
0
 11
5.853316216998791
 21
8.42614657468908
 31
0
 12
0
 22
0
 32
0
 70
0
 13
4.564999999999999
 23
8.109999999999996
 33
0
 14
7.074999999999999
 24
8.109999999999996
 34
0
 53
0
  0
INSERT
  8
0
  2
*D4
 10
0
 20
0
 30
0
  0
ENDSEC
  0
EOF
