  0
SECTION
  2
HEADER
  9
$ACADVER
  1
AC1009
  9
$INSBASE
 10
0
 20
0
  9
$EXTMIN
 10
0.3728692884517411
 20
2.889999999999999
  9
$EXTMAX
 10
8.249999999999998
 20
11.5139149674955
  9
$LIMMIN
 10
0.3728692884517411
 20
2.889999999999999
  9
$LIMMAX
 10
8.249999999999998
 20
11.5139149674955
  9
$VIEWCTR
 10
10
 20
10
  9
$VIEWSIZE
 40
10
  9
$SNAPMODE
 70
0
  9
$SNAPUNIT
 10
1
 20
1
  9
$SNAPBASE
 10
0
 20
0
  9
$SNAPANG
 50
0
  9
$SNAPSTYLE
 70
0
  9
$SNAPISOPAIR
 70
0
  9
$GRIDMODE
 70
0
  9
$GRIDUNIT
 10
0
 20
0
  9
$ORTHOMODE
 70
0
  9
$REGENMODE
 70
1
  9
$FILLMODE
 70
1
  9
$QTEXTMODE
 70
0
  9
$DRAGMODE
 70
2
  9
$LTSCALE
 40
1
  9
$OSMODE
 70
0
  9
$ATTMODE
 70
1
  9
$TEXTSIZE
 40
3.5
  9
$TRACEWID
 40
0.5
  9
$TEXTSTYLE
  7
STANDARD
  9
$CLAYER
  8
0
  9
$CELTYPE
  6
BYLAYER
  9
$CECOLOR
 62
256
  9
$DIMSCALE
 40
1
  9
$DIMASZ
 40
0.18
  9
$DIMEXO
 40
0.0625
  9
$DIMDLI
 40
0.38
  9
$DIMRND
 40
0
  9
$DIMDLE
 40
0
  9
$DIMEXE
 40
0.18
  9
$DIMTP
 40
0
  9
$DIMTM
 40
0
  9
$DIMTXT
 40
0.18
  9
$DIMCEN
 40
0.09
  9
$DIMTSZ
 40
0
  9
$DIMTOL
 70
0
  9
$DIMLIM
 70
0
  9
$DIMTIH
 70
1
  9
$DIMTOH
 70
1
  9
$DIMSE1
 70
0
  9
$DIMSE2
 70
0
  9
$DIMTAD
 70
0
  9
$DIMZIN
 70
0
  9
$DIMBLK
  1

  9
$DIMASO
 70
1
  9
$DIMSHO
 70
1
  9
$DIMPOST
  1

  9
$DIMAPOST
  1

  9
$DIMALT
 70
0
  9
$DIMALTD
 70
2
  9
$DIMALTF
 40
25.4
  9
$DIMLFAC
 40
1
  9
$DIMTOFL
 70
0
  9
$DIMTVP
 40
0
  9
$DIMTIX
 70
0
  9
$DIMSOXD
 70
0
  9
$DIMSAH
 70
0
  9
$DIMBLK1
  1

  9
$DIMBLK2
  1

  9
$DIMSTYLE
  2
*UNNAMED
  9
$DIMCLRD
 70
0
  9
$DIMCLRE
 70
0
  9
$DIMCLRT
 70
0
  9
$DIMTFAC
 40
1
  9
$DIMGAP
 40
0.09
  9
$LUNITS
 70
2
  9
$LUPREC
 70
4
  9
$AXISMODE
 70
0
  9
$AXISUNIT
 10
0
 20
0
  9
$SKETCHINC
 40
0.1
  9
$FILLETRAD
 40
2
  9
$AUNITS
 70
0
  9
$AUPREC
 70
0
  9
$MENU
  1
ACAD
  9
$ELEVATION
 40
0
  9
$THICKNESS
 40
0
  9
$VIEWDIR
 10
0
 20
0
 30
1
  9
$LIMCHECK
 70
0
  9
$BLIPMODE
 70
1
  9
$CHAMFERA
 40
0
  9
$CHAMFERB
 40
0
  9
$FASTZOOM
 70
1
  9
$SKPOLY
 70
0
  9
$ANGBASE
 50
0
  9
$ANGDIR
 70
0
  9
$PDMODE
 70
0
  9
$PDSIZE
 40
0
  9
$PLINEWID
 40
0
  9
$COORDS
 70
2
  0
ENDSEC
  0
SECTION
  2
TABLES
  0
TABLE
  2
DIMSTYLE
 70
2
  0
DIMSTYLE
  2
DMST_1
 70
0
  3

  4

  5

  6

  7

 40
1
 41
0.1
 42
0
 43
0.7
 44
0.2
 45
0
 46
0
 47
0
 48
0
140
0.1
141
0
142
0.1
143
25.4
144
1
145
0
146
1
147
0.25
 71
0
 72
0
 73
0
 74
0
 75
0
 76
0
 77
0
 78
9
170
0
171
2
172
0
173
0
174
0
175
0
176
7
177
7
178
7
  0
DIMSTYLE
  2
DMST_2
 70
0
  3

  4

  5

  6

  7

 40
1
 41
0.1
 42
0
 43
0.7
 44
0.2
 45
0
 46
0
 47
0
 48
0
140
0.1
141
0
142
0.1
143
25.4
144
1
145
0
146
1
147
0.2
 71
0
 72
0
 73
0
 74
0
 75
0
 76
0
 77
0
 78
9
170
0
171
2
172
0
173
0
174
0
175
0
176
7
177
7
178
7
  0
ENDTAB
  0
TABLE
  2
LTYPE
 70
9
  0
LTYPE
  2
CONTINUOUS
 70
64
  3
Solid line
 72
65
 73
0
 40
0
  0
LTYPE
  2
BORDER
 70
64
  3
__ __ . __ __ .
 72
65
 73
6
 40
0.3971539787662402
 49
0.1134725653617829
 49
-0.05673628268089146
 49
0.1134725653617829
 49
-0.05673628268089146
 49
0
 49
-0.05673628268089146
  0
LTYPE
  2
CENTER
 70
64
  3
____ _ ____ _
 72
65
 73
4
 40
0.4538902614471317
 49
0.2836814134044573
 49
-0.05673628268089146
 49
0.05673628268089146
 49
-0.05673628268089146
  0
LTYPE
  2
DASHDOT
 70
64
  3
__ . __ . __ .
 72
65
 73
4
 40
0.2269451307235658
 49
0.1134725653617829
 49
-0.05673628268089146
 49
0
 49
-0.05673628268089146
  0
LTYPE
  2
DASHED
 70
64
  3
__ __ __ __ __
 72
65
 73
2
 40
0.1702088480426744
 49
0.1134725653617829
 49
-0.05673628268089146
  0
LTYPE
  2
DIVIDE
 70
64
  3
__ . . __ . . 
 72
65
 73
6
 40
0.2836814134044573
 49
0.1134725653617829
 49
-0.05673628268089146
 49
0
 49
-0.05673628268089146
 49
0
 49
-0.05673628268089146
  0
LTYPE
  2
DOT
 70
64
  3
..............
 72
65
 73
4
 40
0.1134725653617829
 49
0
 49
-0.05673628268089146
 49
0
 49
-0.05673628268089146
  0
LTYPE
  2
HIDDEN
 70
64
  3
_ _ _ _ _ _ _
 72
65
 73
2
 40
0.08510442402133719
 49
0.05673628268089146
 49
-0.02836814134044573
  0
LTYPE
  2
PHANTOM
 70
64
  3
_____ _ _ _____ _ _ 
 72
65
 73
6
 40
0.5673628268089146
 49
0.2836814134044573
 49
-0.05673628268089146
 49
0.05673628268089146
 49
-0.05673628268089146
 49
0.05673628268089146
 49
-0.05673628268089146
  0
ENDTAB
  0
TABLE
  2
LAYER
 70
2
  0
LAYER
  2
0
 70
0
 62
7
  6
CONTINUOUS
  0
ENDTAB
  0
TABLE
  2
STYLE
 70
4
  0
STYLE
  2
STANDARD
 70
0
 40
0
 41
1
 50
0
 71
0
 42
3.5
  3
txt
  4

  0
STYLE
  2
SIMPLEX
 70
0
 40
0
 41
1
 50
0
 71
0
 42
3.5
  3
simplex
  4

  0
STYLE
  2
COMPLEX
 70
0
 40
0
 41
1
 50
0
 71
0
 42
3.5
  3
complex
  4

  0
STYLE
  2
ITALIC
 70
0
 40
0
 41
1
 50
0
 71
0
 42
3.5
  3
italic
  4

  0
ENDTAB
  0
TABLE
  2
VIEW
 70
0
  0
ENDTAB
  0
ENDSEC
  0
SECTION
  2
BLOCKS
  0
BLOCK
  8
0
  2
*X0
 70
1
 10
0
 20
0
 30
0
  0
LINE
  8
0
 62
7
  6
DASHED
 10
7.959999999999998
 20
8.278198051533943
 30
0
 11
7.981801948466051
 21
8.299999999999997
 31
0
  0
LINE
  8
0
 62
7
  6
DASHED
 10
7.993933982822019
 20
8.1
 30
0
 11
8.193933982822015
 21
8.299999999999997
 31
0
  0
LINE
  8
0
 62
7
 10
7.959999999999997
 20
8.172132034355959
 30
0
 11
8.087867965644037
 21
8.299999999999999
 31
0
  0
LINE
  8
0
 62
7
 10
8.100000000000001
 20
8.1
 30
0
 11
8.199999999999998
 21
8.199999999999998
 31
0
  0
ENDBLK
  8
0
  0
BLOCK
  8
0
  2
*X1
 70
1
 10
0
 20
0
 30
0
  0
LINE
  8
0
 62
7
  6
DASHED
 10
7.959999999999997
 20
11.03591449816148
 30
0
 11
7.97408550183852
 21
11.05
 31
0
  0
LINE
  8
0
 62
7
  6
DASHED
 10
7.986217536194484
 20
10.85
 30
0
 11
8.186217536194484
 21
11.05
 31
0
  0
LINE
  8
0
 62
7
  6
DASHED
 10
8.198349570550448
 20
10.85
 30
0
 11
8.199999999999996
 21
10.85165042944955
 31
0
  0
LINE
  8
0
 62
7
 10
7.959999999999996
 20
10.9298484809835
 30
0
 11
8.0801515190165
 21
11.05
 31
0
  0
LINE
  8
0
 62
7
 10
8.092283553372464
 20
10.85
 30
0
 11
8.199999999999996
 21
10.95771644662753
 31
0
  0
ENDBLK
  8
0
  0
BLOCK
  8
0
  2
*X2
 70
1
 10
0
 20
0
 30
0
  0
LINE
  8
0
 62
7
  6
DASHED
 10
5.949999999999999
 20
10.93510280736516
 30
0
 11
6.064897192634843
 21
11.05
 31
0
  0
LINE
  8
0
 62
7
  6
DASHED
 10
6.077029226990806
 20
10.85
 30
0
 11
6.249999999999996
 21
11.02297077300919
 31
0
  0
LINE
  8
0
 62
7
 10
5.949999999999998
 20
11.04116882454314
 30
0
 11
5.958831175456859
 21
11.05
 31
0
  0
LINE
  8
0
 62
7
 10
5.970963209812824
 20
10.85
 30
0
 11
6.170963209812823
 21
11.05
 31
0
  0
LINE
  8
0
 62
7
 10
6.183095244168788
 20
10.85
 30
0
 11
6.249999999999998
 21
10.91690475583121
 31
0
  0
ENDBLK
  8
0
  0
BLOCK
  8
0
  2
*X3
 70
1
 10
0
 20
0
 30
0
  0
LINE
  8
0
 62
7
  6
DASHED
 10
5.95
 20
8.177386360737623
 30
0
 11
6.072613639262375
 21
8.299999999999999
 31
0
  0
LINE
  8
0
 62
7
  6
DASHED
 10
6.084745673618341
 20
8.100000000000001
 30
0
 11
6.249999999999999
 21
8.265254326381658
 31
0
  0
LINE
  8
0
 62
7
 10
5.949999999999999
 20
8.283452377915605
 30
0
 11
5.966547622084394
 21
8.299999999999999
 31
0
  0
LINE
  8
0
 62
7
 10
5.978679656440359
 20
8.1
 30
0
 11
6.178679656440358
 21
8.299999999999999
 31
0
  0
LINE
  8
0
 62
7
 10
6.190811690796323
 20
8.1
 30
0
 11
6.249999999999999
 21
8.159188309203676
 31
0
  0
ENDBLK
  8
0
  0
BLOCK
  8
0
  2
*X4
 70
1
 10
0
 20
0
 30
0
  0
LINE
  8
0
 62
7
 10
7.97408550183852
 20
11.05
 30
0
 11
8.12408550183852
 21
11.2
 31
0
  0
LINE
  8
0
 62
7
 10
8.186217536194484
 20
11.05
 30
0
 11
8.199999999999998
 21
11.06378246380551
 31
0
  0
LINE
  8
0
 62
7
 10
7.959999999999998
 20
11.14198051533946
 30
0
 11
8.018019484660535
 21
11.2
 31
0
  0
LINE
  8
0
 62
7
 10
8.0801515190165
 20
11.05
 30
0
 11
8.199999999999996
 21
11.16984848098349
 31
0
  0
ENDBLK
  8
0
  0
BLOCK
  8
0
  2
*X5
 70
1
 10
0
 20
0
 30
0
  0
LINE
  8
0
 62
7
 10
7.959999999999997
 20
10.82378246380551
 30
0
 11
7.986217536194484
 21
10.85
 31
0
  0
LINE
  8
0
 62
7
 10
7.959999999999997
 20
10.61165042944955
 30
0
 11
8.198349570550448
 21
10.85
 31
0
  0
LINE
  8
0
 62
7
 10
7.959999999999997
 20
10.39951839509358
 30
0
 11
8.199999999999998
 21
10.63951839509358
 31
0
  0
LINE
  8
0
 62
7
 10
7.959999999999997
 20
10.18738636073762
 30
0
 11
8.199999999999998
 21
10.42738636073762
 31
0
  0
LINE
  8
0
 62
7
 10
7.959999999999997
 20
9.975254326381656
 30
0
 11
8.199999999999998
 21
10.21525432638165
 31
0
  0
LINE
  8
0
 62
7
 10
7.959999999999997
 20
9.763122292025692
 30
0
 11
8.199999999999998
 21
10.00312229202569
 31
0
  0
LINE
  8
0
 62
7
 10
7.959999999999997
 20
9.550990257669728
 30
0
 11
8.199999999999998
 21
9.790990257669726
 31
0
  0
LINE
  8
0
 62
7
 10
7.959999999999997
 20
9.338858223313764
 30
0
 11
8.199999999999998
 21
9.578858223313762
 31
0
  0
LINE
  8
0
 62
7
 10
7.959999999999997
 20
9.1267261889578
 30
0
 11
8.199999999999998
 21
9.366726188957799
 31
0
  0
LINE
  8
0
 62
7
 10
7.959999999999997
 20
8.914594154601836
 30
0
 11
8.199999999999998
 21
9.154594154601835
 31
0
  0
LINE
  8
0
 62
7
 10
7.959999999999997
 20
8.702462120245873
 30
0
 11
8.199999999999998
 21
8.942462120245871
 31
0
  0
LINE
  8
0
 62
7
 10
7.959999999999997
 20
8.490330085889909
 30
0
 11
8.199999999999998
 21
8.730330085889907
 31
0
  0
LINE
  8
0
 62
7
 10
7.981801948466051
 20
8.299999999999997
 30
0
 11
8.199999999999998
 21
8.518198051533943
 31
0
  0
LINE
  8
0
 62
7
 10
8.193933982822015
 20
8.299999999999997
 30
0
 11
8.199999999999998
 21
8.306066017177979
 31
0
  0
LINE
  8
0
 62
7
 10
7.959999999999997
 20
10.71771644662753
 30
0
 11
8.092283553372464
 21
10.85
 31
0
  0
LINE
  8
0
 62
7
 10
7.959999999999997
 20
10.50558441227156
 30
0
 11
8.199999999999998
 21
10.74558441227156
 31
0
  0
LINE
  8
0
 62
7
 10
7.959999999999997
 20
10.2934523779156
 30
0
 11
8.199999999999998
 21
10.5334523779156
 31
0
  0
LINE
  8
0
 62
7
 10
7.959999999999997
 20
10.08132034355963
 30
0
 11
8.199999999999998
 21
10.32132034355963
 31
0
  0
LINE
  8
0
 62
7
 10
7.959999999999997
 20
9.86918830920367
 30
0
 11
8.199999999999998
 21
10.10918830920367
 31
0
  0
LINE
  8
0
 62
7
 10
7.959999999999997
 20
9.657056274847706
 30
0
 11
8.199999999999998
 21
9.897056274847706
 31
0
  0
LINE
  8
0
 62
7
 10
7.959999999999997
 20
9.444924240491742
 30
0
 11
8.199999999999998
 21
9.684924240491743
 31
0
  0
LINE
  8
0
 62
7
 10
7.959999999999997
 20
9.232792206135779
 30
0
 11
8.199999999999998
 21
9.472792206135779
 31
0
  0
LINE
  8
0
 62
7
 10
7.959999999999997
 20
9.020660171779815
 30
0
 11
8.199999999999998
 21
9.260660171779815
 31
0
  0
LINE
  8
0
 62
7
 10
7.959999999999997
 20
8.808528137423851
 30
0
 11
8.199999999999998
 21
9.048528137423851
 31
0
  0
LINE
  8
0
 62
7
 10
7.959999999999997
 20
8.596396103067887
 30
0
 11
8.199999999999998
 21
8.836396103067887
 31
0
  0
LINE
  8
0
 62
7
 10
7.959999999999997
 20
8.384264068711923
 30
0
 11
8.199999999999998
 21
8.624264068711923
 31
0
  0
LINE
  8
0
 62
7
 10
8.087867965644037
 20
8.299999999999999
 30
0
 11
8.199999999999998
 21
8.41213203435596
 31
0
  0
ENDBLK
  8
0
  0
BLOCK
  8
0
  2
*X6
 70
1
 10
0
 20
0
 30
0
  0
LINE
  8
0
 62
7
 10
7.959999999999998
 20
8.066066017177979
 30
0
 11
7.993933982822019
 21
8.1
 31
0
  0
LINE
  8
0
 62
7
 10
8.056066017177983
 20
7.95
 30
0
 11
8.199999999999998
 21
8.093933982822012
 31
0
  0
LINE
  8
0
 62
7
 10
7.959999999999997
 20
7.959999999999996
 30
0
 11
8.100000000000001
 21
8.1
 31
0
  0
LINE
  8
0
 62
7
 10
8.162132034355965
 20
7.949999999999999
 30
0
 11
8.199999999999998
 21
7.987867965644032
 31
0
  0
ENDBLK
  8
0
  0
BLOCK
  8
0
  2
*X7
 70
1
 10
0
 20
0
 30
0
  0
LINE
  8
0
 62
7
  6
DASHED
 10
0.9499999999999984
 20
11.0262716319083
 30
0
 11
0.9737283680916993
 21
11.05
 31
0
  0
LINE
  8
0
 62
7
  6
DASHED
 10
0.9858604024476638
 20
10.85
 30
0
 11
1.185860402447664
 21
11.05
 31
0
  0
LINE
  8
0
 62
7
  6
DASHED
 10
1.197992436803628
 20
10.85
 30
0
 11
1.397992436803628
 21
11.05
 31
0
  0
LINE
  8
0
 62
7
  6
DASHED
 10
1.410124471159592
 20
10.85
 30
0
 11
1.610124471159592
 21
11.05
 31
0
  0
LINE
  8
0
 62
7
  6
DASHED
 10
1.622256505515557
 20
10.85
 30
0
 11
1.822256505515556
 21
11.05
 31
0
  0
LINE
  8
0
 62
7
  6
DASHED
 10
1.834388539871521
 20
10.85
 30
0
 11
2.034388539871521
 21
11.05
 31
0
  0
LINE
  8
0
 62
7
  6
DASHED
 10
2.046520574227485
 20
10.85
 30
0
 11
2.246520574227485
 21
11.05
 31
0
  0
LINE
  8
0
 62
7
  6
DASHED
 10
2.25865260858345
 20
10.85
 30
0
 11
2.458652608583449
 21
11.05
 31
0
  0
LINE
  8
0
 62
7
  6
DASHED
 10
2.470784642939414
 20
10.85
 30
0
 11
2.670784642939414
 21
11.05
 31
0
  0
LINE
  8
0
 62
7
  6
DASHED
 10
2.682916677295378
 20
10.85
 30
0
 11
2.882916677295378
 21
11.05
 31
0
  0
LINE
  8
0
 62
7
  6
DASHED
 10
2.895048711651342
 20
10.85
 30
0
 11
3.095048711651342
 21
11.05
 31
0
  0
LINE
  8
0
 62
7
  6
DASHED
 10
3.107180746007307
 20
10.85
 30
0
 11
3.307180746007306
 21
11.05
 31
0
  0
LINE
  8
0
 62
7
  6
DASHED
 10
3.319312780363271
 20
10.85
 30
0
 11
3.519312780363271
 21
11.05
 31
0
  0
LINE
  8
0
 62
7
  6
DASHED
 10
3.531444814719235
 20
10.85
 30
0
 11
3.731444814719235
 21
11.05
 31
0
  0
LINE
  8
0
 62
7
  6
DASHED
 10
3.743576849075199
 20
10.85
 30
0
 11
3.943576849075199
 21
11.05
 31
0
  0
LINE
  8
0
 62
7
  6
DASHED
 10
3.955708883431164
 20
10.85
 30
0
 11
4.155708883431164
 21
11.05
 31
0
  0
LINE
  8
0
 62
7
  6
DASHED
 10
4.167840917787128
 20
10.85
 30
0
 11
4.234999999999999
 21
10.91715908221287
 31
0
  0
LINE
  8
0
 62
7
 10
0.9499999999999984
 20
10.92020561473032
 30
0
 11
1.079794385269683
 21
11.05
 31
0
  0
LINE
  8
0
 62
7
 10
1.091926419625645
 20
10.85
 30
0
 11
1.291926419625648
 21
11.05
 31
0
  0
LINE
  8
0
 62
7
 10
1.30405845398161
 20
10.85
 30
0
 11
1.504058453981612
 21
11.05
 31
0
  0
LINE
  8
0
 62
7
 10
1.516190488337574
 20
10.85
 30
0
 11
1.716190488337576
 21
11.05
 31
0
  0
LINE
  8
0
 62
7
 10
1.728322522693538
 20
10.85
 30
0
 11
1.928322522693541
 21
11.05
 31
0
  0
LINE
  8
0
 62
7
 10
1.940454557049502
 20
10.85
 30
0
 11
2.140454557049505
 21
11.05
 31
0
  0
LINE
  8
0
 62
7
 10
2.152586591405467
 20
10.85
 30
0
 11
2.352586591405469
 21
11.05
 31
0
  0
LINE
  8
0
 62
7
 10
2.364718625761431
 20
10.85
 30
0
 11
2.564718625761433
 21
11.05
 31
0
  0
LINE
  8
0
 62
7
 10
2.576850660117395
 20
10.85
 30
0
 11
2.776850660117398
 21
11.05
 31
0
  0
LINE
  8
0
 62
7
 10
2.78898269447336
 20
10.85
 30
0
 11
2.988982694473362
 21
11.05
 31
0
  0
LINE
  8
0
 62
7
 10
3.001114728829324
 20
10.85
 30
0
 11
3.201114728829326
 21
11.05
 31
0
  0
LINE
  8
0
 62
7
 10
3.213246763185288
 20
10.85
 30
0
 11
3.413246763185291
 21
11.05
 31
0
  0
LINE
  8
0
 62
7
 10
3.425378797541252
 20
10.85
 30
0
 11
3.625378797541255
 21
11.05
 31
0
  0
LINE
  8
0
 62
7
 10
3.637510831897217
 20
10.85
 30
0
 11
3.837510831897219
 21
11.05
 31
0
  0
LINE
  8
0
 62
7
 10
3.849642866253181
 20
10.85
 30
0
 11
4.049642866253183
 21
11.05
 31
0
  0
LINE
  8
0
 62
7
 10
4.061774900609145
 20
10.85
 30
0
 11
4.234999999999999
 21
11.02322509939085
 31
0
  0
ENDBLK
  8
0
  0
BLOCK
  8
0
  2
*X8
 70
1
 10
0
 20
0
 30
0
  0
LINE
  8
0
 62
7
  6
DASHED
 10
0.9499999999999993
 20
8.268555185280766
 30
0
 11
0.9814448147192327
 21
8.299999999999999
 31
0
  0
LINE
  8
0
 62
7
  6
DASHED
 10
0.9935768490751982
 20
8.1
 30
0
 11
1.193576849075197
 21
8.299999999999999
 31
0
  0
LINE
  8
0
 62
7
  6
DASHED
 10
1.205708883431162
 20
8.1
 30
0
 11
1.405708883431161
 21
8.299999999999999
 31
0
  0
LINE
  8
0
 62
7
  6
DASHED
 10
1.417840917787127
 20
8.1
 30
0
 11
1.617840917787126
 21
8.299999999999999
 31
0
  0
LINE
  8
0
 62
7
  6
DASHED
 10
1.629972952143091
 20
8.1
 30
0
 11
1.82997295214309
 21
8.299999999999999
 31
0
  0
LINE
  8
0
 62
7
  6
DASHED
 10
1.842104986499055
 20
8.1
 30
0
 11
2.042104986499054
 21
8.299999999999999
 31
0
  0
LINE
  8
0
 62
7
  6
DASHED
 10
2.05423702085502
 20
8.1
 30
0
 11
2.254237020855018
 21
8.299999999999999
 31
0
  0
LINE
  8
0
 62
7
  6
DASHED
 10
2.266369055210984
 20
8.1
 30
0
 11
2.466369055210983
 21
8.299999999999999
 31
0
  0
LINE
  8
0
 62
7
  6
DASHED
 10
2.478501089566948
 20
8.1
 30
0
 11
2.678501089566947
 21
8.299999999999999
 31
0
  0
LINE
  8
0
 62
7
  6
DASHED
 10
2.690633123922912
 20
8.1
 30
0
 11
2.890633123922911
 21
8.299999999999999
 31
0
  0
LINE
  8
0
 62
7
  6
DASHED
 10
2.902765158278877
 20
8.1
 30
0
 11
3.102765158278876
 21
8.299999999999999
 31
0
  0
LINE
  8
0
 62
7
  6
DASHED
 10
3.114897192634841
 20
8.1
 30
0
 11
3.31489719263484
 21
8.299999999999999
 31
0
  0
LINE
  8
0
 62
7
  6
DASHED
 10
3.327029226990805
 20
8.1
 30
0
 11
3.527029226990804
 21
8.299999999999999
 31
0
  0
LINE
  8
0
 62
7
  6
DASHED
 10
3.53916126134677
 20
8.1
 30
0
 11
3.739161261346768
 21
8.299999999999999
 31
0
  0
LINE
  8
0
 62
7
  6
DASHED
 10
3.751293295702734
 20
8.1
 30
0
 11
3.951293295702733
 21
8.299999999999999
 31
0
  0
LINE
  8
0
 62
7
  6
DASHED
 10
3.963425330058698
 20
8.1
 30
0
 11
4.163425330058697
 21
8.299999999999999
 31
0
  0
LINE
  8
0
 62
7
  6
DASHED
 10
4.175557364414662
 20
8.1
 30
0
 11
4.235
 21
8.159442635585338
 31
0
  0
LINE
  8
0
 62
7
 10
0.9499999999999988
 20
8.162489168102782
 30
0
 11
1.087510831897215
 21
8.299999999999999
 31
0
  0
LINE
  8
0
 62
7
 10
1.099642866253181
 20
8.100000000000001
 30
0
 11
1.299642866253179
 21
8.299999999999999
 31
0
  0
LINE
  8
0
 62
7
 10
1.311774900609146
 20
8.100000000000001
 30
0
 11
1.511774900609144
 21
8.299999999999999
 31
0
  0
LINE
  8
0
 62
7
 10
1.52390693496511
 20
8.100000000000001
 30
0
 11
1.723906934965108
 21
8.299999999999999
 31
0
  0
LINE
  8
0
 62
7
 10
1.736038969321074
 20
8.100000000000001
 30
0
 11
1.936038969321072
 21
8.299999999999999
 31
0
  0
LINE
  8
0
 62
7
 10
1.948171003677039
 20
8.100000000000001
 30
0
 11
2.148171003677037
 21
8.299999999999999
 31
0
  0
LINE
  8
0
 62
7
 10
2.160303038033003
 20
8.100000000000001
 30
0
 11
2.360303038033001
 21
8.299999999999999
 31
0
  0
LINE
  8
0
 62
7
 10
2.372435072388967
 20
8.100000000000001
 30
0
 11
2.572435072388965
 21
8.299999999999999
 31
0
  0
LINE
  8
0
 62
7
 10
2.584567106744931
 20
8.100000000000001
 30
0
 11
2.784567106744929
 21
8.299999999999999
 31
0
  0
LINE
  8
0
 62
7
 10
2.796699141100896
 20
8.100000000000001
 30
0
 11
2.996699141100894
 21
8.299999999999999
 31
0
  0
LINE
  8
0
 62
7
 10
3.00883117545686
 20
8.100000000000001
 30
0
 11
3.208831175456858
 21
8.299999999999999
 31
0
  0
LINE
  8
0
 62
7
 10
3.220963209812824
 20
8.100000000000001
 30
0
 11
3.420963209812822
 21
8.299999999999999
 31
0
  0
LINE
  8
0
 62
7
 10
3.433095244168789
 20
8.100000000000001
 30
0
 11
3.633095244168786
 21
8.299999999999999
 31
0
  0
LINE
  8
0
 62
7
 10
3.645227278524753
 20
8.100000000000001
 30
0
 11
3.845227278524751
 21
8.299999999999999
 31
0
  0
LINE
  8
0
 62
7
 10
3.857359312880717
 20
8.100000000000001
 30
0
 11
4.057359312880715
 21
8.299999999999999
 31
0
  0
LINE
  8
0
 62
7
 10
4.069491347236681
 20
8.100000000000001
 30
0
 11
4.234999999999999
 21
8.265508652763319
 31
0
  0
ENDBLK
  8
0
  0
BLOCK
  8
0
  2
*X9
 70
1
 10
0
 20
0
 30
0
  0
LINE
  8
0
 62
7
 10
3.943576849075201
 20
11.05
 30
0
 11
4.085000000000001
 21
11.1914231509248
 31
0
  0
LINE
  8
0
 62
7
 10
3.910000000000001
 20
11.12248916810278
 30
0
 11
3.987510831897217
 21
11.2
 31
0
  0
LINE
  8
0
 62
7
 10
4.049642866253182
 20
11.05
 30
0
 11
4.085
 21
11.08535713374682
 31
0
  0
ENDBLK
  8
0
  0
BLOCK
  8
0
  2
*X10
 70
1
 10
0
 20
0
 30
0
  0
LINE
  8
0
 62
7
 10
3.91
 20
10.80429111656883
 30
0
 11
3.955708883431162
 21
10.85
 31
0
  0
LINE
  8
0
 62
7
 10
3.91
 20
10.59215908221287
 30
0
 11
4.084999999999999
 21
10.76715908221287
 31
0
  0
LINE
  8
0
 62
7
 10
3.91
 20
10.38002704785691
 30
0
 11
4.084999999999999
 21
10.5550270478569
 31
0
  0
LINE
  8
0
 62
7
 10
3.91
 20
10.16789501350094
 30
0
 11
4.084999999999999
 21
10.34289501350094
 31
0
  0
LINE
  8
0
 62
7
 10
3.91
 20
9.955762979144978
 30
0
 11
4.084999999999999
 21
10.13076297914498
 31
0
  0
LINE
  8
0
 62
7
 10
3.91
 20
9.743630944789015
 30
0
 11
4.084999999999999
 21
9.918630944789012
 31
0
  0
LINE
  8
0
 62
7
 10
3.91
 20
9.531498910433051
 30
0
 11
4.084999999999999
 21
9.706498910433048
 31
0
  0
LINE
  8
0
 62
7
 10
3.91
 20
9.319366876077087
 30
0
 11
4.084999999999999
 21
9.494366876077084
 31
0
  0
LINE
  8
0
 62
7
 10
3.91
 20
9.107234841721123
 30
0
 11
4.084999999999999
 21
9.28223484172112
 31
0
  0
LINE
  8
0
 62
7
 10
3.91
 20
8.895102807365159
 30
0
 11
4.084999999999999
 21
9.070102807365156
 31
0
  0
LINE
  8
0
 62
7
 10
3.91
 20
8.682970773009195
 30
0
 11
4.084999999999999
 21
8.857970773009193
 31
0
  0
LINE
  8
0
 62
7
 10
3.91
 20
8.470838738653232
 30
0
 11
4.084999999999999
 21
8.645838738653229
 31
0
  0
LINE
  8
0
 62
7
 10
3.951293295702733
 20
8.299999999999999
 30
0
 11
4.084999999999999
 21
8.433706704297265
 31
0
  0
LINE
  8
0
 62
7
 10
3.91
 20
10.69822509939085
 30
0
 11
4.061774900609144
 21
10.85
 31
0
  0
LINE
  8
0
 62
7
 10
3.91
 20
10.48609306503489
 30
0
 11
4.084999999999999
 21
10.66109306503489
 31
0
  0
LINE
  8
0
 62
7
 10
3.91
 20
10.27396103067892
 30
0
 11
4.084999999999999
 21
10.44896103067892
 31
0
  0
LINE
  8
0
 62
7
 10
3.91
 20
10.06182899632296
 30
0
 11
4.084999999999999
 21
10.23682899632296
 31
0
  0
LINE
  8
0
 62
7
 10
3.91
 20
9.849696961966995
 30
0
 11
4.084999999999999
 21
10.02469696196699
 31
0
  0
LINE
  8
0
 62
7
 10
3.91
 20
9.637564927611031
 30
0
 11
4.084999999999999
 21
9.81256492761103
 31
0
  0
LINE
  8
0
 62
7
 10
3.91
 20
9.425432893255067
 30
0
 11
4.084999999999999
 21
9.600432893255066
 31
0
  0
LINE
  8
0
 62
7
 10
3.91
 20
9.213300858899103
 30
0
 11
4.084999999999999
 21
9.388300858899102
 31
0
  0
LINE
  8
0
 62
7
 10
3.91
 20
9.001168824543139
 30
0
 11
4.084999999999999
 21
9.176168824543138
 31
0
  0
LINE
  8
0
 62
7
 10
3.91
 20
8.789036790187176
 30
0
 11
4.084999999999999
 21
8.964036790187174
 31
0
  0
LINE
  8
0
 62
7
 10
3.91
 20
8.576904755831212
 30
0
 11
4.084999999999999
 21
8.751904755831211
 31
0
  0
LINE
  8
0
 62
7
 10
3.91
 20
8.364772721475248
 30
0
 11
4.084999999999999
 21
8.539772721475247
 31
0
  0
LINE
  8
0
 62
7
 10
4.057359312880716
 20
8.299999999999999
 30
0
 11
4.084999999999999
 21
8.327640687119283
 31
0
  0
ENDBLK
  8
0
  0
BLOCK
  8
0
  2
*X11
 70
1
 10
0
 20
0
 30
0
  0
LINE
  8
0
 62
7
 10
3.910000000000001
 20
8.046574669941302
 30
0
 11
3.963425330058697
 21
8.1
 31
0
  0
LINE
  8
0
 62
7
 10
4.025557364414661
 20
7.949999999999999
 30
0
 11
4.085
 21
8.009442635585337
 31
0
  0
LINE
  8
0
 62
7
 10
3.919491347236679
 20
7.949999999999999
 30
0
 11
4.06949134723668
 21
8.1
 31
0
  0
ENDBLK
  8
0
  0
BLOCK
  8
0
  2
*X12
 70
1
 10
0
 20
0
 30
0
  0
LINE
  8
0
 62
7
 10
1.099999999999998
 20
11.1762716319083
 30
0
 11
1.1237283680917
 21
11.2
 31
0
  0
LINE
  8
0
 62
7
 10
1.185860402447664
 20
11.05
 30
0
 11
1.274999999999999
 21
11.13913959755234
 31
0
  0
LINE
  8
0
 62
7
 10
1.099999999999999
 20
11.07020561473032
 30
0
 11
1.229794385269681
 21
11.2
 31
0
  0
ENDBLK
  8
0
  0
BLOCK
  8
0
  2
*X13
 70
1
 10
0
 20
0
 30
0
  0
LINE
  8
0
 62
7
 10
1.099999999999999
 20
10.75200756319637
 30
0
 11
1.197992436803626
 21
10.85
 31
0
  0
LINE
  8
0
 62
7
 10
1.099999999999999
 20
10.5398755288404
 30
0
 11
1.274999999999999
 21
10.7148755288404
 31
0
  0
LINE
  8
0
 62
7
 10
1.099999999999999
 20
10.32774349448444
 30
0
 11
1.274999999999999
 21
10.50274349448444
 31
0
  0
LINE
  8
0
 62
7
 10
1.099999999999999
 20
10.11561146012848
 30
0
 11
1.274999999999999
 21
10.29061146012847
 31
0
  0
LINE
  8
0
 62
7
 10
1.099999999999999
 20
9.903479425772511
 30
0
 11
1.274999999999999
 21
10.07847942577251
 31
0
  0
LINE
  8
0
 62
7
 10
1.099999999999999
 20
9.691347391416548
 30
0
 11
1.274999999999999
 21
9.866347391416546
 31
0
  0
LINE
  8
0
 62
7
 10
1.099999999999999
 20
9.479215357060584
 30
0
 11
1.274999999999999
 21
9.654215357060583
 31
0
  0
LINE
  8
0
 62
7
 10
1.099999999999999
 20
9.26708332270462
 30
0
 11
1.274999999999999
 21
9.442083322704619
 31
0
  0
LINE
  8
0
 62
7
 10
1.099999999999999
 20
9.054951288348656
 30
0
 11
1.274999999999999
 21
9.229951288348655
 31
0
  0
LINE
  8
0
 62
7
 10
1.099999999999999
 20
8.842819253992692
 30
0
 11
1.274999999999999
 21
9.017819253992691
 31
0
  0
LINE
  8
0
 62
7
 10
1.099999999999999
 20
8.630687219636728
 30
0
 11
1.274999999999999
 21
8.805687219636727
 31
0
  0
LINE
  8
0
 62
7
 10
1.099999999999999
 20
8.418555185280765
 30
0
 11
1.274999999999999
 21
8.593555185280763
 31
0
  0
LINE
  8
0
 62
7
 10
1.193576849075199
 20
8.299999999999999
 30
0
 11
1.274999999999999
 21
8.3814231509248
 31
0
  0
LINE
  8
0
 62
7
 10
1.099999999999998
 20
10.64594154601838
 30
0
 11
1.274999999999999
 21
10.82094154601838
 31
0
  0
LINE
  8
0
 62
7
 10
1.099999999999998
 20
10.43380951166242
 30
0
 11
1.274999999999999
 21
10.60880951166242
 31
0
  0
LINE
  8
0
 62
7
 10
1.099999999999998
 20
10.22167747730646
 30
0
 11
1.274999999999999
 21
10.39667747730646
 31
0
  0
LINE
  8
0
 62
7
 10
1.099999999999998
 20
10.00954544295049
 30
0
 11
1.274999999999999
 21
10.18454544295049
 31
0
  0
LINE
  8
0
 62
7
 10
1.099999999999998
 20
9.797413408594528
 30
0
 11
1.274999999999999
 21
9.972413408594528
 31
0
  0
LINE
  8
0
 62
7
 10
1.099999999999998
 20
9.585281374238564
 30
0
 11
1.274999999999999
 21
9.760281374238565
 31
0
  0
LINE
  8
0
 62
7
 10
1.099999999999998
 20
9.3731493398826
 30
0
 11
1.274999999999999
 21
9.548149339882601
 31
0
  0
LINE
  8
0
 62
7
 10
1.099999999999998
 20
9.161017305526636
 30
0
 11
1.274999999999999
 21
9.336017305526637
 31
0
  0
LINE
  8
0
 62
7
 10
1.099999999999998
 20
8.948885271170672
 30
0
 11
1.274999999999999
 21
9.123885271170673
 31
0
  0
LINE
  8
0
 62
7
 10
1.099999999999998
 20
8.736753236814709
 30
0
 11
1.274999999999999
 21
8.911753236814709
 31
0
  0
LINE
  8
0
 62
7
 10
1.099999999999998
 20
8.524621202458745
 30
0
 11
1.274999999999999
 21
8.699621202458745
 31
0
  0
LINE
  8
0
 62
7
 10
1.099999999999998
 20
8.312489168102781
 30
0
 11
1.274999999999999
 21
8.487489168102782
 31
0
  0
ENDBLK
  8
0
  0
BLOCK
  8
0
  2
*X14
 70
1
 10
0
 20
0
 30
0
  0
LINE
  8
0
 62
7
 10
1.099999999999999
 20
7.994291116568837
 30
0
 11
1.205708883431162
 21
8.1
 31
0
  0
LINE
  8
0
 62
7
 10
1.267840917787126
 20
7.949999999999999
 30
0
 11
1.274999999999998
 21
7.95715908221287
 31
0
  0
LINE
  8
0
 62
7
 10
1.161774900609143
 20
7.949999999999999
 30
0
 11
1.274999999999999
 21
8.063225099390854
 31
0
  0
ENDBLK
  8
0
  0
BLOCK
  8
0
  2
*X15
 70
1
 10
0
 20
0
 30
0
  0
LINE
  8
0
 62
7
 10
1.099999999999998
 20
5.660838738653229
 30
0
 11
1.169161261346766
 21
5.729999999999997
 31
0
  0
LINE
  8
0
 62
7
 10
0.9349999999999992
 20
5.49583873865323
 30
0
 11
1.019161261346767
 21
5.579999999999998
 31
0
  0
LINE
  8
0
 62
7
 10
0.9912932957027336
 20
5.34
 30
0
 11
1.274999999999999
 21
5.623706704297265
 31
0
  0
LINE
  8
0
 62
7
 10
1.203425330058698
 20
5.34
 30
0
 11
1.443425330058696
 21
5.579999999999999
 31
0
  0
LINE
  8
0
 62
7
 10
1.415557364414662
 20
5.34
 30
0
 11
1.65555736441466
 21
5.579999999999999
 31
0
  0
LINE
  8
0
 62
7
 10
1.627689398770626
 20
5.34
 30
0
 11
1.867689398770624
 21
5.579999999999999
 31
0
  0
LINE
  8
0
 62
7
 10
1.839821433126591
 20
5.34
 30
0
 11
2.079821433126589
 21
5.579999999999999
 31
0
  0
LINE
  8
0
 62
7
 10
2.051953467482555
 20
5.34
 30
0
 11
2.291953467482553
 21
5.579999999999999
 31
0
  0
LINE
  8
0
 62
7
 10
2.264085501838519
 20
5.34
 30
0
 11
2.504085501838517
 21
5.579999999999999
 31
0
  0
LINE
  8
0
 62
7
 10
2.476217536194484
 20
5.34
 30
0
 11
2.716217536194482
 21
5.579999999999999
 31
0
  0
LINE
  8
0
 62
7
 10
2.688349570550448
 20
5.34
 30
0
 11
2.928349570550446
 21
5.579999999999999
 31
0
  0
LINE
  8
0
 62
7
 10
2.900481604906412
 20
5.34
 30
0
 11
3.14048160490641
 21
5.579999999999999
 31
0
  0
LINE
  8
0
 62
7
 10
3.112613639262376
 20
5.34
 30
0
 11
3.352613639262374
 21
5.579999999999999
 31
0
  0
LINE
  8
0
 62
7
 10
3.324745673618341
 20
5.34
 30
0
 11
3.564745673618339
 21
5.579999999999999
 31
0
  0
LINE
  8
0
 62
7
 10
3.91
 20
5.713122292025695
 30
0
 11
3.926877707974302
 21
5.729999999999997
 31
0
  0
LINE
  8
0
 62
7
 10
3.536877707974305
 20
5.34
 30
0
 11
3.776877707974303
 21
5.579999999999999
 31
0
  0
LINE
  8
0
 62
7
 10
3.749009742330269
 20
5.34
 30
0
 11
4.085
 21
5.675990257669731
 31
0
  0
LINE
  8
0
 62
7
 10
3.961141776686234
 20
5.34
 30
0
 11
4.201141776686232
 21
5.579999999999998
 31
0
  0
LINE
  8
0
 62
7
 10
4.173273811042198
 20
5.34
 30
0
 11
4.234999999999999
 21
5.401726188957801
 31
0
  0
LINE
  8
0
 62
7
 10
0.9349999999999987
 20
5.389772721475247
 30
0
 11
1.274999999999999
 21
5.729772721475248
 31
0
  0
LINE
  8
0
 62
7
 10
1.097359312880717
 20
5.340000000000001
 30
0
 11
1.337359312880714
 21
5.579999999999998
 31
0
  0
LINE
  8
0
 62
7
 10
1.309491347236681
 20
5.340000000000001
 30
0
 11
1.549491347236678
 21
5.579999999999998
 31
0
  0
LINE
  8
0
 62
7
 10
1.521623381592645
 20
5.340000000000001
 30
0
 11
1.761623381592642
 21
5.579999999999998
 31
0
  0
LINE
  8
0
 62
7
 10
1.73375541594861
 20
5.340000000000001
 30
0
 11
1.973755415948606
 21
5.579999999999998
 31
0
  0
LINE
  8
0
 62
7
 10
1.945887450304574
 20
5.340000000000001
 30
0
 11
2.185887450304571
 21
5.579999999999998
 31
0
  0
LINE
  8
0
 62
7
 10
2.158019484660538
 20
5.340000000000001
 30
0
 11
2.398019484660535
 21
5.579999999999998
 31
0
  0
LINE
  8
0
 62
7
 10
2.370151519016503
 20
5.340000000000001
 30
0
 11
2.610151519016499
 21
5.579999999999998
 31
0
  0
LINE
  8
0
 62
7
 10
2.582283553372467
 20
5.340000000000001
 30
0
 11
2.822283553372464
 21
5.579999999999998
 31
0
  0
LINE
  8
0
 62
7
 10
2.794415587728431
 20
5.340000000000001
 30
0
 11
3.034415587728428
 21
5.579999999999998
 31
0
  0
LINE
  8
0
 62
7
 10
3.006547622084395
 20
5.340000000000001
 30
0
 11
3.246547622084392
 21
5.579999999999998
 31
0
  0
LINE
  8
0
 62
7
 10
3.21867965644036
 20
5.340000000000001
 30
0
 11
3.458679656440356
 21
5.579999999999998
 31
0
  0
LINE
  8
0
 62
7
 10
3.430811690796324
 20
5.340000000000001
 30
0
 11
3.670811690796321
 21
5.579999999999998
 31
0
  0
LINE
  8
0
 62
7
 10
3.91
 20
5.607056274847714
 30
0
 11
4.032943725152283
 21
5.729999999999997
 31
0
  0
LINE
  8
0
 62
7
 10
3.642943725152288
 20
5.340000000000001
 30
0
 11
3.882943725152285
 21
5.579999999999998
 31
0
  0
LINE
  8
0
 62
7
 10
3.855075759508253
 20
5.340000000000001
 30
0
 11
4.09507575950825
 21
5.579999999999998
 31
0
  0
LINE
  8
0
 62
7
 10
4.067207793864217
 20
5.340000000000001
 30
0
 11
4.234999999999999
 21
5.507792206135783
 31
0
  0
ENDBLK
  8
0
  0
BLOCK
  8
0
  2
*X16
 70
1
 10
0
 20
0
 30
0
  0
LINE
  8
0
 62
7
 10
0.9349999999999992
 20
5.283706704297265
 30
0
 11
0.9512932957027345
 21
5.300000000000002
 31
0
  0
LINE
  8
0
 62
7
 10
0.9349999999999992
 20
5.071574669941302
 30
0
 11
1.163425330058699
 21
5.300000000000002
 31
0
  0
LINE
  8
0
 62
7
 10
1.099999999999999
 20
5.024442635585335
 30
0
 11
1.375557364414663
 21
5.300000000000002
 31
0
  0
LINE
  8
0
 62
7
 10
1.347689398770626
 20
5.06
 30
0
 11
1.587689398770627
 21
5.300000000000002
 31
0
  0
LINE
  8
0
 62
7
 10
1.099999999999999
 20
4.812310601229371
 30
0
 11
1.274999999999999
 21
4.987310601229371
 31
0
  0
LINE
  8
0
 62
7
 10
1.55982143312659
 20
5.06
 30
0
 11
1.799821433126592
 21
5.300000000000002
 31
0
  0
LINE
  8
0
 62
7
 10
1.099999999999999
 20
4.600178566873407
 30
0
 11
1.274999999999999
 21
4.775178566873407
 31
0
  0
LINE
  8
0
 62
7
 10
1.771953467482555
 20
5.06
 30
0
 11
2.011953467482556
 21
5.300000000000002
 31
0
  0
LINE
  8
0
 62
7
 10
1.099999999999999
 20
4.388046532517444
 30
0
 11
1.274999999999999
 21
4.563046532517443
 31
0
  0
LINE
  8
0
 62
7
 10
1.984085501838519
 20
5.06
 30
0
 11
2.22408550183852
 21
5.300000000000002
 31
0
  0
LINE
  8
0
 62
7
 10
1.099999999999999
 20
4.17591449816148
 30
0
 11
1.274999999999999
 21
4.35091449816148
 31
0
  0
LINE
  8
0
 62
7
 10
2.196217536194483
 20
5.06
 30
0
 11
2.436217536194484
 21
5.300000000000002
 31
0
  0
LINE
  8
0
 62
7
 10
1.099999999999999
 20
3.963782463805516
 30
0
 11
1.274999999999999
 21
4.138782463805516
 31
0
  0
LINE
  8
0
 62
7
 10
2.408349570550448
 20
5.06
 30
0
 11
2.648349570550449
 21
5.300000000000002
 31
0
  0
LINE
  8
0
 62
7
 10
1.099999999999999
 20
3.751650429449552
 30
0
 11
1.274999999999999
 21
3.926650429449551
 31
0
  0
LINE
  8
0
 62
7
 10
2.620481604906412
 20
5.06
 30
0
 11
2.860481604906413
 21
5.300000000000002
 31
0
  0
LINE
  8
0
 62
7
 10
1.099999999999999
 20
3.539518395093587
 30
0
 11
1.274999999999999
 21
3.714518395093587
 31
0
  0
LINE
  8
0
 62
7
 10
2.832613639262376
 20
5.06
 30
0
 11
3.072613639262377
 21
5.300000000000002
 31
0
  0
LINE
  8
0
 62
7
 10
1.122613639262376
 20
3.35
 30
0
 11
1.274999999999999
 21
3.502386360737623
 31
0
  0
LINE
  8
0
 62
7
 10
3.04474567361834
 20
5.06
 30
0
 11
3.284745673618342
 21
5.300000000000002
 31
0
  0
LINE
  8
0
 62
7
 10
3.256877707974305
 20
5.06
 30
0
 11
3.496877707974306
 21
5.300000000000002
 31
0
  0
LINE
  8
0
 62
7
 10
3.469009742330269
 20
5.06
 30
0
 11
3.70900974233027
 21
5.300000000000002
 31
0
  0
LINE
  8
0
 62
7
 10
3.681141776686233
 20
5.06
 30
0
 11
3.921141776686234
 21
5.300000000000002
 31
0
  0
LINE
  8
0
 62
7
 10
3.893273811042198
 20
5.06
 30
0
 11
4.133273811042199
 21
5.300000000000002
 31
0
  0
LINE
  8
0
 62
7
 10
4.105405845398161
 20
5.06
 30
0
 11
4.234999999999999
 21
5.189594154601838
 31
0
  0
LINE
  8
0
 62
7
 10
3.91
 20
4.864594154601836
 30
0
 11
4.085000000000001
 21
5.039594154601837
 31
0
  0
LINE
  8
0
 62
7
 10
3.91
 20
4.652462120245872
 30
0
 11
4.085000000000001
 21
4.827462120245873
 31
0
  0
LINE
  8
0
 62
7
 10
3.91
 20
4.440330085889908
 30
0
 11
4.085000000000001
 21
4.61533008588991
 31
0
  0
LINE
  8
0
 62
7
 10
3.91
 20
4.228198051533944
 30
0
 11
4.085000000000001
 21
4.403198051533946
 31
0
  0
LINE
  8
0
 62
7
 10
3.91
 20
4.01606601717798
 30
0
 11
4.085000000000001
 21
4.191066017177982
 31
0
  0
LINE
  8
0
 62
7
 10
3.91
 20
3.803933982822016
 30
0
 11
4.085000000000001
 21
3.978933982822018
 31
0
  0
LINE
  8
0
 62
7
 10
3.91
 20
3.591801948466052
 30
0
 11
4.085000000000001
 21
3.766801948466053
 31
0
  0
LINE
  8
0
 62
7
 10
3.910000000000001
 20
3.379669914110089
 30
0
 11
4.085000000000001
 21
3.554669914110089
 31
0
  0
LINE
  8
0
 62
7
 10
3.992462120245875
 20
3.25
 30
0
 11
4.085000000000001
 21
3.342537879754125
 31
0
  0
LINE
  8
0
 62
7
 10
0.9349999999999996
 20
5.177640687119284
 30
0
 11
1.057359312880717
 21
5.300000000000001
 31
0
  0
LINE
  8
0
 62
7
 10
1.029491347236681
 20
5.06
 30
0
 11
1.269491347236681
 21
5.300000000000001
 31
0
  0
LINE
  8
0
 62
7
 10
1.099999999999999
 20
4.918376618407353
 30
0
 11
1.481623381592645
 21
5.300000000000001
 31
0
  0
LINE
  8
0
 62
7
 10
1.453755415948608
 20
5.06
 30
0
 11
1.69375541594861
 21
5.300000000000001
 31
0
  0
LINE
  8
0
 62
7
 10
1.099999999999999
 20
4.706244584051389
 30
0
 11
1.274999999999999
 21
4.881244584051388
 31
0
  0
LINE
  8
0
 62
7
 10
1.665887450304572
 20
5.06
 30
0
 11
1.905887450304574
 21
5.300000000000001
 31
0
  0
LINE
  8
0
 62
7
 10
1.099999999999999
 20
4.494112549695426
 30
0
 11
1.274999999999999
 21
4.669112549695424
 31
0
  0
LINE
  8
0
 62
7
 10
1.878019484660537
 20
5.06
 30
0
 11
2.118019484660538
 21
5.300000000000001
 31
0
  0
LINE
  8
0
 62
7
 10
1.099999999999999
 20
4.281980515339462
 30
0
 11
1.274999999999999
 21
4.456980515339461
 31
0
  0
LINE
  8
0
 62
7
 10
2.090151519016501
 20
5.06
 30
0
 11
2.330151519016503
 21
5.300000000000001
 31
0
  0
LINE
  8
0
 62
7
 10
1.099999999999999
 20
4.069848480983498
 30
0
 11
1.274999999999999
 21
4.244848480983497
 31
0
  0
LINE
  8
0
 62
7
 10
2.302283553372465
 20
5.06
 30
0
 11
2.542283553372467
 21
5.300000000000001
 31
0
  0
LINE
  8
0
 62
7
 10
1.099999999999999
 20
3.857716446627534
 30
0
 11
1.274999999999999
 21
4.032716446627533
 31
0
  0
LINE
  8
0
 62
7
 10
2.51441558772843
 20
5.06
 30
0
 11
2.754415587728431
 21
5.300000000000001
 31
0
  0
LINE
  8
0
 62
7
 10
1.099999999999999
 20
3.64558441227157
 30
0
 11
1.274999999999999
 21
3.820584412271569
 31
0
  0
LINE
  8
0
 62
7
 10
2.726547622084394
 20
5.06
 30
0
 11
2.966547622084395
 21
5.300000000000001
 31
0
  0
LINE
  8
0
 62
7
 10
1.099999999999999
 20
3.433452377915605
 30
0
 11
1.274999999999999
 21
3.608452377915605
 31
0
  0
LINE
  8
0
 62
7
 10
2.938679656440358
 20
5.06
 30
0
 11
3.17867965644036
 21
5.300000000000001
 31
0
  0
LINE
  8
0
 62
7
 10
1.228679656440357
 20
3.35
 30
0
 11
1.274999999999999
 21
3.396320343559642
 31
0
  0
LINE
  8
0
 62
7
 10
3.150811690796322
 20
5.06
 30
0
 11
3.390811690796324
 21
5.300000000000001
 31
0
  0
LINE
  8
0
 62
7
 10
3.362943725152287
 20
5.06
 30
0
 11
3.602943725152288
 21
5.300000000000001
 31
0
  0
LINE
  8
0
 62
7
 10
3.575075759508251
 20
5.06
 30
0
 11
3.815075759508253
 21
5.300000000000001
 31
0
  0
LINE
  8
0
 62
7
 10
3.787207793864215
 20
5.06
 30
0
 11
4.027207793864217
 21
5.300000000000001
 31
0
  0
LINE
  8
0
 62
7
 10
3.91
 20
4.970660171779818
 30
0
 11
4.234999999999999
 21
5.29566017177982
 31
0
  0
LINE
  8
0
 62
7
 10
4.211471862576144
 20
5.06
 30
0
 11
4.234999999999999
 21
5.083528137423856
 31
0
  0
LINE
  8
0
 62
7
 10
3.91
 20
4.758528137423855
 30
0
 11
4.085000000000001
 21
4.933528137423855
 31
0
  0
LINE
  8
0
 62
7
 10
3.91
 20
4.546396103067891
 30
0
 11
4.085000000000001
 21
4.721396103067891
 31
0
  0
LINE
  8
0
 62
7
 10
3.91
 20
4.334264068711927
 30
0
 11
4.085000000000001
 21
4.509264068711928
 31
0
  0
LINE
  8
0
 62
7
 10
3.91
 20
4.122132034355963
 30
0
 11
4.085000000000001
 21
4.297132034355964
 31
0
  0
LINE
  8
0
 62
7
 10
3.91
 20
3.909999999999999
 30
0
 11
4.085000000000001
 21
4.085
 31
0
  0
LINE
  8
0
 62
7
 10
3.91
 20
3.697867965644035
 30
0
 11
4.085000000000001
 21
3.872867965644036
 31
0
  0
LINE
  8
0
 62
7
 10
3.91
 20
3.485735931288071
 30
0
 11
4.085000000000001
 21
3.660735931288072
 31
0
  0
LINE
  8
0
 62
7
 10
3.91
 20
3.273603896932107
 30
0
 11
4.085000000000001
 21
3.448603896932108
 31
0
  0
ENDBLK
  8
0
  0
BLOCK
  8
0
  2
*D0
 70
1
 10
0
 20
0
 30
0
  0
LINE
  8
0
 62
7
 10
0.748409120677936
 20
4.56714373034122
 30
0
 11
0.748409120677936
 21
5.060000000000002
 31
0
  0
LINE
  8
0
 62
7
 10
0.748409120677936
 20
3.35
 30
0
 11
0.748409120677936
 21
3.85214373034122
 31
0
  0
LINE
  8
0
 62
7
 10
1.099999999999999
 20
5.060000000000002
 30
0
 11
0.6984091206779359
 21
5.060000000000002
 31
0
  0
LINE
  8
0
 62
7
 10
1.099999999999999
 20
3.35
 30
0
 11
0.6984091206779359
 21
3.35
 31
0
  0
LINE
  8
0
 62
7
 10
0.7837644597372634
 20
5.024644660940675
 30
0
 11
0.7130537816186086
 21
5.09535533905933
 31
0
  0
LINE
  8
0
 62
7
 10
0.7130537816186086
 20
3.385355339059327
 30
0
 11
0.7837644597372634
 21
3.314644660940673
 31
0
  0
TEXT
  8
0
 62
7
 10
0.793409120677936
 20
4.10214373034122
 30
0
 40
0.1
  1
1,71
 50
90
 41
0.9
  0
ENDBLK
  8
0
  0
BLOCK
  8
0
  2
*D1
 70
1
 10
0
 20
0
 30
0
  0
LINE
  8
0
 62
7
 10
2.983304048855971
 20
6.11550052333501
 30
0
 11
3.91
 21
6.11550052333501
 31
0
  0
LINE
  8
0
 62
7
 10
1.275
 20
6.11550052333501
 30
0
 11
2.208304048855971
 21
6.11550052333501
 31
0
  0
LINE
  8
0
 62
7
 10
3.91
 20
5.579999999999998
 30
0
 11
3.91
 21
6.16550052333501
 31
0
  0
LINE
  8
0
 62
7
 10
1.275
 20
5.579999999999998
 30
0
 11
1.275
 21
6.16550052333501
 31
0
  0
LINE
  8
0
 62
7
 10
3.874644660940673
 20
6.080145184275683
 30
0
 11
3.945355339059327
 21
6.150855862394337
 31
0
  0
LINE
  8
0
 62
7
 10
1.310355339059327
 20
6.150855862394337
 30
0
 11
1.239644660940673
 21
6.080145184275683
 31
0
  0
TEXT
  8
0
 62
7
 10
2.458304048855971
 20
6.07050052333501
 30
0
 40
0.1
  1
2,64
 41
0.9
  0
ENDBLK
  8
0
  0
BLOCK
  8
0
  2
*D2
 70
1
 10
0
 20
0
 30
0
  0
LINE
  8
0
 62
7
 10
4.3730447392551
 20
4.56714373034122
 30
0
 11
4.3730447392551
 21
5.06
 31
0
  0
LINE
  8
0
 62
7
 10
4.3730447392551
 20
3.25
 30
0
 11
4.3730447392551
 21
3.85214373034122
 31
0
  0
LINE
  8
0
 62
7
 10
4.084999999999999
 20
5.06
 30
0
 11
4.4230447392551
 21
5.06
 31
0
  0
LINE
  8
0
 62
7
 10
4.084999999999999
 20
3.25
 30
0
 11
4.4230447392551
 21
3.25
 31
0
  0
LINE
  8
0
 62
7
 10
4.337689400195773
 20
3.285355339059327
 30
0
 11
4.408400078314427
 21
3.214644660940673
 31
0
  0
LINE
  8
0
 62
7
 10
4.408400078314427
 20
5.024644660940673
 30
0
 11
4.337689400195773
 21
5.095355339059328
 31
0
  0
TEXT
  8
0
 62
7
 10
4.4180447392551
 20
4.10214373034122
 30
0
 40
0.1
  1
1,81
 50
90
 41
0.9
  0
ENDBLK
  8
0
  0
BLOCK
  8
0
  2
*D3
 70
1
 10
0
 20
0
 30
0
  0
LINE
  8
0
 62
7
 10
2.92161167589282
 20
11.4589149674955
 30
0
 11
3.909999999999999
 21
11.4589149674955
 31
0
  0
LINE
  8
0
 62
7
 10
1.274999999999999
 20
11.4589149674955
 30
0
 11
2.24661167589282
 21
11.4589149674955
 31
0
  0
LINE
  8
0
 62
7
 10
3.909999999999999
 20
11.2
 30
0
 11
3.909999999999999
 21
11.5089149674955
 31
0
  0
LINE
  8
0
 62
7
 10
1.274999999999999
 20
11.2
 30
0
 11
1.274999999999999
 21
11.5089149674955
 31
0
  0
LINE
  8
0
 62
7
 10
1.310355339059326
 20
11.49427030655483
 30
0
 11
1.239644660940672
 21
11.42355962843617
 31
0
  0
LINE
  8
0
 62
7
 10
3.874644660940672
 20
11.42355962843617
 30
0
 11
3.945355339059327
 21
11.49427030655483
 31
0
  0
TEXT
  8
0
 62
7
 10
2.44661167589282
 20
11.4139149674955
 30
0
 40
0.1
  1
2,64
 41
0.9
  0
ENDBLK
  8
0
  0
BLOCK
  8
0
  2
*D4
 70
1
 10
0
 20
0
 30
0
  0
LINE
  8
0
 62
7
 10
0.5028692884517411
 20
10.13982766635435
 30
0
 11
0.5028692884517411
 21
11.05
 31
0
  0
LINE
  8
0
 62
7
 10
0.5028692884517411
 20
8.299999999999999
 30
0
 11
0.5028692884517411
 21
9.05982766635435
 31
0
  0
LINE
  8
0
 62
7
 10
0.9499999999999992
 20
11.05
 30
0
 11
0.4528692884517411
 21
11.05
 31
0
  0
LINE
  8
0
 62
7
 10
0.9499999999999992
 20
8.299999999999999
 30
0
 11
0.4528692884517411
 21
8.299999999999999
 31
0
  0
LINE
  8
0
 62
7
 10
0.4675139493924136
 20
8.335355339059326
 30
0
 11
0.5382246275110685
 21
8.264644660940672
 31
0
  0
LINE
  8
0
 62
7
 10
0.5382246275110685
 20
11.01464466094067
 30
0
 11
0.4675139493924137
 21
11.08535533905933
 31
0
  0
TEXT
  8
0
 62
7
 10
0.4728692884517411
 20
9.462327666354351
 30
0
 40
0.1
  1
2,75
 50
90
 41
0.9
  0
TEXT
  8
0
 62
7
 10
0.6328692884517411
 20
9.259827666354351
 30
0
 40
0.1
  1
(260-280)
 50
90
 41
0.9
  0
ENDBLK
  8
0
  0
ENDSEC
  0
SECTION
  2
ENTITIES
  0
INSERT
  8
0
  2
*X0
 10
0
 20
0
 30
0
  0
INSERT
  8
0
  2
*X1
 10
0
 20
0
 30
0
  0
INSERT
  8
0
  2
*X2
 10
0
 20
0
 30
0
  0
INSERT
  8
0
  2
*X3
 10
0
 20
0
 30
0
  0
INSERT
  8
0
  2
*X4
 10
0
 20
0
 30
0
  0
INSERT
  8
0
  2
*X5
 10
0
 20
0
 30
0
  0
INSERT
  8
0
  2
*X6
 10
0
 20
0
 30
0
  0
INSERT
  8
0
  2
*X7
 10
0
 20
0
 30
0
  0
INSERT
  8
0
  2
*X8
 10
0
 20
0
 30
0
  0
INSERT
  8
0
  2
*X9
 10
0
 20
0
 30
0
  0
INSERT
  8
0
  2
*X10
 10
0
 20
0
 30
0
  0
INSERT
  8
0
  2
*X11
 10
0
 20
0
 30
0
  0
INSERT
  8
0
  2
*X12
 10
0
 20
0
 30
0
  0
INSERT
  8
0
  2
*X13
 10
0
 20
0
 30
0
  0
INSERT
  8
0
  2
*X14
 10
0
 20
0
 30
0
  0
INSERT
  8
0
  2
*X15
 10
0
 20
0
 30
0
  0
INSERT
  8
0
  2
*X16
 10
0
 20
0
 30
0
  0
LINE
  8
0
 62
7
 10
2.279999999999999
 20
3.771446880536041
 30
0
 11
2.279999999999999
 21
3.984401802475583
 31
0
  0
LINE
  8
0
 62
7
 10
2.279999999999999
 20
3.984401802475583
 30
0
 11
2.321974721226538
 21
4.054999999999999
 31
0
  0
LINE
  8
0
 62
7
 10
2.36630502892166
 20
4.054999999999999
 30
0
 11
2.45675828683084
 21
4.054999999999999
 31
0
  0
LINE
  8
0
 62
7
 10
2.321974721226538
 20
4.054999999999999
 30
0
 11
2.45675828683084
 21
4.054999999999999
 31
0
  0
LINE
  8
0
 62
7
 10
2.710623036642033
 20
4.054999999999999
 30
0
 11
2.858808018154273
 21
4.054999999999999
 31
0
  0
LINE
  8
0
 62
7
 10
2.858808018154273
 20
4.054999999999999
 30
0
 11
2.904999999999999
 21
3.987811662769849
 31
0
  0
LINE
  8
0
 62
7
 10
2.904999999999999
 20
3.890210577310448
 30
0
 11
2.904999999999999
 21
3.79041268063724
 31
0
  0
LINE
  8
0
 62
7
 10
2.904999999999999
 20
3.987811662769849
 30
0
 11
2.904999999999999
 21
3.79041268063724
 31
0
  0
LINE
  8
0
 62
7
 10
2.904999999999999
 20
3.25
 30
0
 11
3.854999999999999
 21
3.25
 31
0
  0
LINE
  8
0
 62
7
 10
2.904999999999999
 20
3.6
 30
0
 11
2.904999999999999
 21
3.25
 31
0
  0
LINE
  8
0
 62
7
 10
3.854999999999999
 20
3.25
 30
0
 11
3.854999999999999
 21
3.6
 31
0
  0
LINE
  8
0
 62
7
 10
2.904999999999999
 20
3.51
 30
0
 11
3.854999999999999
 21
3.51
 31
0
  0
LINE
  8
0
 62
7
 10
2.904999999999999
 20
3.76870089456357
 30
0
 11
2.904999999999999
 21
3.51
 31
0
  0
LINE
  8
0
 62
7
 10
3.854999999999999
 20
3.51
 30
0
 11
3.854999999999999
 21
3.945081672509801
 31
0
  0
LINE
  8
0
 62
7
 10
2.904999999999999
 20
3.677162836852939
 30
0
 11
3.854999999999999
 21
3.853543614799171
 31
0
  0
LINE
  8
0
 62
7
 10
2.904999999999999
 20
3.79041268063724
 30
0
 11
2.904999999999999
 21
3.677162836852939
 31
0
  0
LINE
  8
0
 62
7
 10
3.854999999999999
 20
3.853543614799171
 30
0
 11
3.854999999999999
 21
4.34540111031194
 31
0
  0
LINE
  8
0
 62
7
 10
2.904999999999999
 20
3.79041268063724
 30
0
 11
3.854999999999999
 21
4.245603213638732
 31
0
  0
LINE
  8
0
 62
7
 10
3.854999999999999
 20
4.245603213638732
 30
0
 11
3.854999999999999
 21
4.851988869583271
 31
0
  0
LINE
  8
0
 62
7
 10
2.946660893200379
 20
3.927213999932931
 30
0
 11
3.854999999999999
 21
4.73176134232969
 31
0
  0
LINE
  8
0
 62
7
 10
2.904999999999999
 20
3.987811662769849
 30
0
 11
2.946660893200379
 21
3.927213999932931
 31
0
  0
LINE
  8
0
 62
7
 10
3.854999999999999
 20
5.004999999999999
 30
0
 11
3.40599044532953
 21
5.004999999999999
 31
0
  0
LINE
  8
0
 62
7
 10
3.854999999999999
 20
4.73176134232969
 30
0
 11
3.854999999999999
 21
5.004999999999999
 31
0
  0
LINE
  8
0
 62
7
 10
2.90482615508129
 20
4.054999999999999
 30
0
 11
3.512845344272329
 21
5.004999999999999
 31
0
  0
LINE
  8
0
 62
7
 10
2.858808018154273
 20
4.054999999999999
 30
0
 11
2.90482615508129
 21
4.054999999999999
 31
0
  0
LINE
  8
0
 62
7
 10
3.512845344272329
 20
5.004999999999999
 30
0
 11
2.94489175299065
 21
5.004999999999999
 31
0
  0
LINE
  8
0
 62
7
 10
2.803319143561521
 20
4.054999999999999
 30
0
 11
3.03758785991015
 21
5.004999999999999
 31
0
  0
LINE
  8
0
 62
7
 10
2.539036259850819
 20
4.054999999999999
 30
0
 11
2.803319143561521
 21
4.054999999999999
 31
0
  0
LINE
  8
0
 62
7
 10
3.03758785991015
 20
5.004999999999999
 30
0
 11
2.609762374290341
 21
5.004999999999999
 31
0
  0
LINE
  8
0
 62
7
 10
2.62928533154247
 20
4.054999999999999
 30
0
 11
2.70001144598199
 21
5.004999999999999
 31
0
  0
LINE
  8
0
 62
7
 10
2.45675828683084
 20
4.054999999999999
 30
0
 11
2.62928533154247
 21
4.054999999999999
 31
0
  0
LINE
  8
0
 62
7
 10
2.70001144598199
 20
5.004999999999999
 30
0
 11
2.270841792243459
 21
5.004999999999999
 31
0
  0
LINE
  8
0
 62
7
 10
2.45675828683084
 20
4.054999999999999
 30
0
 11
2.361295050152638
 21
5.004999999999999
 31
0
  0
LINE
  8
0
 62
7
 10
2.361295050152638
 20
5.004999999999999
 30
0
 11
1.83843653164299
 21
5.004999999999999
 31
0
  0
LINE
  8
0
 62
7
 10
2.345637164676259
 20
4.094798378828012
 30
0
 11
1.93708705637039
 21
5.004999999999999
 31
0
  0
LINE
  8
0
 62
7
 10
2.321974721226538
 20
4.054999999999999
 30
0
 11
2.345637164676259
 21
4.094798378828012
 31
0
  0
LINE
  8
0
 62
7
 10
1.329999999999999
 20
5.004999999999999
 30
0
 11
1.329999999999999
 21
4.947790639235048
 31
0
  0
LINE
  8
0
 62
7
 10
1.93708705637039
 20
5.004999999999999
 30
0
 11
1.329999999999999
 21
5.004999999999999
 31
0
  0
LINE
  8
0
 62
7
 10
2.279999999999999
 20
3.996227383924232
 30
0
 11
1.399526552001539
 21
5.004999999999999
 31
0
  0
LINE
  8
0
 62
7
 10
2.279999999999999
 20
3.984401802475583
 30
0
 11
2.279999999999999
 21
3.996227383924232
 31
0
  0
LINE
  8
0
 62
7
 10
1.329999999999999
 20
5.004999999999999
 30
0
 11
1.329999999999999
 21
4.362047830111571
 31
0
  0
LINE
  8
0
 62
7
 10
1.399526552001539
 20
5.004999999999999
 30
0
 11
1.329999999999999
 21
5.004999999999999
 31
0
  0
LINE
  8
0
 62
7
 10
2.279999999999999
 20
3.87742135507352
 30
0
 11
1.329999999999999
 21
4.468022304649051
 31
0
  0
LINE
  8
0
 62
7
 10
2.279999999999999
 20
3.658456499178799
 30
0
 11
2.279999999999999
 21
3.87742135507352
 31
0
  0
LINE
  8
0
 62
7
 10
1.329999999999999
 20
4.468022304649051
 30
0
 11
1.329999999999999
 21
3.973497312822881
 31
0
  0
LINE
  8
0
 62
7
 10
2.279999999999999
 20
3.753276233590021
 30
0
 11
1.329999999999999
 21
4.068317047234101
 31
0
  0
LINE
  8
0
 62
7
 10
2.279999999999999
 20
3.54134125186007
 30
0
 11
2.279999999999999
 21
3.753276233590021
 31
0
  0
LINE
  8
0
 62
7
 10
1.329999999999999
 20
4.068317047234101
 30
0
 11
1.329999999999999
 21
3.59381253306676
 31
0
  0
LINE
  8
0
 62
7
 10
2.279999999999999
 20
3.631478427752971
 30
0
 11
1.329999999999999
 21
3.683949708959661
 31
0
  0
LINE
  8
0
 62
7
 10
2.279999999999999
 20
3.389999999999999
 30
0
 11
2.279999999999999
 21
3.631478427752971
 31
0
  0
LINE
  8
0
 62
7
 10
1.329999999999999
 20
3.683949708959661
 30
0
 11
1.329999999999999
 21
3.389999999999999
 31
0
  0
LINE
  8
0
 62
7
 10
3.4050278716119
 20
4.05499999995437
 30
0
 11
3.4050278716119
 21
3.25
 31
0
  0
LINE
  8
0
 62
7
 10
2.27999999997616
 20
4.555027871611901
 30
0
 11
2.904999999990491
 21
4.555027871611901
 31
0
  0
LINE
  8
0
 62
7
 10
1.885627227649801
 20
3.461
 30
0
 11
1.7799721283881
 21
3.399999999999999
 31
0
  0
LINE
  8
0
 62
7
 10
1.6743170291264
 20
3.461
 30
0
 11
1.885627227649801
 21
3.461
 31
0
  0
LINE
  8
0
 62
7
 10
1.7799721283881
 20
3.399999999999999
 30
0
 11
1.6743170291264
 21
3.461
 31
0
  0
LINE
  8
0
 62
7
 10
1.7799721283881
 20
3.399999999999999
 30
0
 11
1.7799721283881
 21
4.05499999999048
 31
0
  0
LINE
  8
0
 62
7
 10
6.150000399999998
 20
8.58333322666666
 30
0
 11
6.500000609999998
 21
8.58333322666666
 31
0
  0
LINE
  8
0
 62
7
 10
6.150000399999998
 20
8.518333226666661
 30
0
 11
6.150000399999998
 21
8.58333322666666
 31
0
  0
LINE
  8
0
 62
7
 10
6.500000609999998
 20
8.58333322666666
 30
0
 11
6.500000609999998
 21
8.518333226666661
 31
0
  0
LINE
  8
0
 62
7
 10
6.500000609999998
 20
8.518333226666661
 30
0
 11
6.150000399999998
 21
8.518333226666661
 31
0
  0
LINE
  8
0
 62
7
 10
6.410000529999998
 20
8.766666566666661
 30
0
 11
6.845081789999997
 21
8.766666566666661
 31
0
  0
LINE
  8
0
 62
7
 10
6.845081789999997
 20
8.70166656666666
 30
0
 11
6.410000529999998
 21
8.70166656666666
 31
0
  0
LINE
  8
0
 62
7
 10
6.410000529999998
 20
8.70166656666666
 30
0
 11
6.410000529999998
 21
8.766666566666661
 31
0
  0
LINE
  8
0
 62
7
 10
6.845081789999997
 20
8.766666566666661
 30
0
 11
6.845081789999997
 21
8.70166656666666
 31
0
  0
LINE
  8
0
 62
7
 10
7.245401609999998
 20
8.884999906666659
 30
0
 11
6.577163119999998
 21
8.884999906666659
 31
0
  0
LINE
  8
0
 62
7
 10
6.577163119999998
 20
8.94999990666666
 30
0
 11
7.245401609999998
 21
8.94999990666666
 31
0
  0
LINE
  8
0
 62
7
 10
6.577163119999998
 20
8.884999906666659
 30
0
 11
6.577163119999998
 21
8.94999990666666
 31
0
  0
LINE
  8
0
 62
7
 10
7.245401609999998
 20
8.94999990666666
 30
0
 11
7.245401609999998
 21
8.884999906666659
 31
0
  0
LINE
  8
0
 62
7
 10
7.751989749999999
 20
9.068333226666661
 30
0
 11
6.690412519999999
 21
9.068333226666661
 31
0
  0
LINE
  8
0
 62
7
 10
6.690412519999999
 20
9.133333226666661
 30
0
 11
7.751989749999999
 21
9.133333226666661
 31
0
  0
LINE
  8
0
 62
7
 10
6.690412519999999
 20
9.068333226666661
 30
0
 11
6.690412519999999
 21
9.133333226666661
 31
0
  0
LINE
  8
0
 62
7
 10
7.751989749999999
 20
9.133333226666661
 30
0
 11
7.751989749999999
 21
9.068333226666661
 31
0
  0
LINE
  8
0
 62
7
 10
7.904999999999998
 20
9.251666586666659
 30
0
 11
6.827214349999996
 21
9.251666586666659
 31
0
  0
LINE
  8
0
 62
7
 10
6.827214349999996
 20
9.31666658666666
 30
0
 11
7.904999999999998
 21
9.31666658666666
 31
0
  0
LINE
  8
0
 62
7
 10
6.827214349999996
 20
9.251666586666659
 30
0
 11
6.827214349999996
 21
9.31666658666666
 31
0
  0
LINE
  8
0
 62
7
 10
7.904999999999998
 20
9.31666658666666
 30
0
 11
7.904999999999998
 21
9.251666586666659
 31
0
  0
LINE
  8
0
 62
7
 10
6.954999849999997
 20
9.499999946666659
 30
0
 11
7.904999999999998
 21
9.499999946666659
 31
0
  0
LINE
  8
0
 62
7
 10
6.954999849999997
 20
9.434999946666657
 30
0
 11
6.954999849999997
 21
9.499999946666659
 31
0
  0
LINE
  8
0
 62
7
 10
7.904999999999998
 20
9.499999946666659
 30
0
 11
7.904999999999998
 21
9.434999946666657
 31
0
  0
LINE
  8
0
 62
7
 10
7.904999999999998
 20
9.434999946666657
 30
0
 11
6.954999849999997
 21
9.434999946666657
 31
0
  0
LINE
  8
0
 62
7
 10
6.954999849999997
 20
9.683333226666662
 30
0
 11
7.904999999999998
 21
9.683333226666662
 31
0
  0
LINE
  8
0
 62
7
 10
6.954999849999997
 20
9.618333226666662
 30
0
 11
6.954999849999997
 21
9.683333226666662
 31
0
  0
LINE
  8
0
 62
7
 10
7.904999999999998
 20
9.683333226666662
 30
0
 11
7.904999999999998
 21
9.618333226666662
 31
0
  0
LINE
  8
0
 62
7
 10
7.904999999999998
 20
9.618333226666662
 30
0
 11
6.954999849999997
 21
9.618333226666662
 31
0
  0
LINE
  8
0
 62
7
 10
6.954999849999997
 20
9.86666666666666
 30
0
 11
7.905000299999998
 21
9.86666666666666
 31
0
  0
LINE
  8
0
 62
7
 10
6.954999849999997
 20
9.801666666666661
 30
0
 11
6.954999849999997
 21
9.86666666666666
 31
0
  0
LINE
  8
0
 62
7
 10
7.905000299999998
 20
9.86666666666666
 30
0
 11
7.905000299999998
 21
9.801666666666661
 31
0
  0
LINE
  8
0
 62
7
 10
7.905000299999998
 20
9.801666666666661
 30
0
 11
6.954999849999997
 21
9.801666666666661
 31
0
  0
LINE
  8
0
 62
7
 10
6.954999849999997
 20
10.04999994666666
 30
0
 11
7.905000299999998
 21
10.04999994666666
 31
0
  0
LINE
  8
0
 62
7
 10
6.954999849999997
 20
9.984999946666658
 30
0
 11
6.954999849999997
 21
10.04999994666666
 31
0
  0
LINE
  8
0
 62
7
 10
7.905000299999998
 20
10.04999994666666
 30
0
 11
7.905000299999998
 21
9.984999946666658
 31
0
  0
LINE
  8
0
 62
7
 10
7.905000299999998
 20
9.984999946666658
 30
0
 11
6.954999849999997
 21
9.984999946666658
 31
0
  0
LINE
  8
0
 62
7
 10
7.904999999999998
 20
10.16833322666666
 30
0
 11
6.810025559999996
 21
10.16833322666666
 31
0
  0
LINE
  8
0
 62
7
 10
6.810025559999996
 20
10.23333322666666
 30
0
 11
7.904999999999998
 21
10.23333322666666
 31
0
  0
LINE
  8
0
 62
7
 10
6.810025559999996
 20
10.16833322666666
 30
0
 11
6.810025559999996
 21
10.23333322666666
 31
0
  0
LINE
  8
0
 62
7
 10
7.904999999999998
 20
10.23333322666666
 30
0
 11
7.904999999999998
 21
10.16833322666666
 31
0
  0
LINE
  8
0
 62
7
 10
7.904999849999998
 20
10.35166666666666
 30
0
 11
6.671447519999997
 21
10.35166666666666
 31
0
  0
LINE
  8
0
 62
7
 10
6.671447519999997
 20
10.41666666666666
 30
0
 11
7.904999849999998
 21
10.41666666666666
 31
0
  0
LINE
  8
0
 62
7
 10
6.671447519999997
 20
10.35166666666666
 30
0
 11
6.671447519999997
 21
10.41666666666666
 31
0
  0
LINE
  8
0
 62
7
 10
7.904999849999998
 20
10.41666666666666
 30
0
 11
7.904999849999998
 21
10.35166666666666
 31
0
  0
LINE
  8
0
 62
7
 10
7.368022159999999
 20
10.53499994666666
 30
0
 11
6.558457029999999
 21
10.53499994666666
 31
0
  0
LINE
  8
0
 62
7
 10
6.558457029999999
 20
10.59999994666666
 30
0
 11
7.368022159999999
 21
10.59999994666666
 31
0
  0
LINE
  8
0
 62
7
 10
6.558457029999999
 20
10.53499994666666
 30
0
 11
6.558457029999999
 21
10.59999994666666
 31
0
  0
LINE
  8
0
 62
7
 10
7.368022159999999
 20
10.59999994666666
 30
0
 11
7.368022159999999
 21
10.53499994666666
 31
0
  0
LINE
  8
0
 62
7
 10
6.968317339999996
 20
10.71833322666666
 30
0
 11
6.441341359999997
 21
10.71833322666666
 31
0
  0
LINE
  8
0
 62
7
 10
6.441341359999997
 20
10.78333322666666
 30
0
 11
6.968317339999996
 21
10.78333322666666
 31
0
  0
LINE
  8
0
 62
7
 10
6.441341359999997
 20
10.71833322666666
 30
0
 11
6.441341359999997
 21
10.78333322666666
 31
0
  0
LINE
  8
0
 62
7
 10
6.968317339999996
 20
10.78333322666666
 30
0
 11
6.968317339999996
 21
10.71833322666666
 31
0
  0
LINE
  8
0
 62
7
 10
6.290000230000007
 20
10.96666666666666
 30
0
 11
6.583949509999998
 21
10.96666666666666
 31
0
  0
LINE
  8
0
 62
7
 10
6.583949509999998
 20
10.90166666666666
 30
0
 11
6.290000230000007
 21
10.90166666666666
 31
0
  0
LINE
  8
0
 62
7
 10
6.290000230000007
 20
10.90166666666666
 30
0
 11
6.290000230000007
 21
10.96666666666666
 31
0
  0
LINE
  8
0
 62
7
 10
6.583949509999998
 20
10.96666666666666
 30
0
 11
6.583949509999998
 21
10.90166666666666
 31
0
  0
LINE
  8
0
 62
7
 10
2.905000150000001
 20
8.583333226666671
 30
0
 11
3.855000500000001
 21
8.583333226666671
 31
0
  0
LINE
  8
0
 62
7
 10
3.855000500000001
 20
8.583333226666671
 30
0
 11
3.855000500000001
 21
8.51833322666667
 31
0
  0
LINE
  8
0
 62
7
 10
2.905000150000001
 20
8.51833322666667
 30
0
 11
2.905000150000001
 21
8.583333226666671
 31
0
  0
LINE
  8
0
 62
7
 10
3.855000500000001
 20
8.51833322666667
 30
0
 11
2.905000150000001
 21
8.51833322666667
 31
0
  0
LINE
  8
0
 62
7
 10
2.90500031
 20
8.76666656666667
 30
0
 11
3.855000500000001
 21
8.76666656666667
 31
0
  0
LINE
  8
0
 62
7
 10
3.855000500000001
 20
8.76666656666667
 30
0
 11
3.855000500000001
 21
8.701666566666669
 31
0
  0
LINE
  8
0
 62
7
 10
2.90500031
 20
8.701666566666669
 30
0
 11
2.90500031
 21
8.76666656666667
 31
0
  0
LINE
  8
0
 62
7
 10
3.855000500000001
 20
8.701666566666669
 30
0
 11
2.90500031
 21
8.701666566666669
 31
0
  0
LINE
  8
0
 62
7
 10
2.905000230000001
 20
8.949999906666671
 30
0
 11
3.85500031
 21
8.949999906666671
 31
0
  0
LINE
  8
0
 62
7
 10
3.85500031
 20
8.949999906666671
 30
0
 11
3.85500031
 21
8.884999906666669
 31
0
  0
LINE
  8
0
 62
7
 10
2.905000230000001
 20
8.884999906666669
 30
0
 11
2.905000230000001
 21
8.949999906666671
 31
0
  0
LINE
  8
0
 62
7
 10
3.85500031
 20
8.884999906666669
 30
0
 11
2.905000230000001
 21
8.884999906666669
 31
0
  0
LINE
  8
0
 62
7
 10
2.905000000000001
 20
9.13333322666667
 30
0
 11
3.855000380000001
 21
9.13333322666667
 31
0
  0
LINE
  8
0
 62
7
 10
3.855000380000001
 20
9.13333322666667
 30
0
 11
3.855000380000001
 21
9.06833322666667
 31
0
  0
LINE
  8
0
 62
7
 10
2.905000000000001
 20
9.06833322666667
 30
0
 11
2.905000000000001
 21
9.13333322666667
 31
0
  0
LINE
  8
0
 62
7
 10
3.855000380000001
 20
9.06833322666667
 30
0
 11
2.905000000000001
 21
9.06833322666667
 31
0
  0
LINE
  8
0
 62
7
 10
3.85500033
 20
9.251666586666669
 30
0
 11
2.827302100000002
 21
9.251666586666669
 31
0
  0
LINE
  8
0
 62
7
 10
2.827302100000002
 20
9.316666586666669
 30
0
 11
3.85500033
 21
9.316666586666669
 31
0
  0
LINE
  8
0
 62
7
 10
3.85500033
 20
9.316666586666669
 30
0
 11
3.85500033
 21
9.251666586666669
 31
0
  0
LINE
  8
0
 62
7
 10
2.827302100000002
 20
9.251666586666669
 30
0
 11
2.827302100000002
 21
9.316666586666669
 31
0
  0
LINE
  8
0
 62
7
 10
3.512845610000003
 20
9.43499994666667
 30
0
 11
2.710623020000001
 21
9.43499994666667
 31
0
  0
LINE
  8
0
 62
7
 10
2.710623020000001
 20
9.499999946666669
 30
0
 11
3.512845610000003
 21
9.499999946666669
 31
0
  0
LINE
  8
0
 62
7
 10
3.512845610000003
 20
9.499999946666669
 30
0
 11
3.512845610000003
 21
9.43499994666667
 31
0
  0
LINE
  8
0
 62
7
 10
2.710623020000001
 20
9.43499994666667
 30
0
 11
2.710623020000001
 21
9.499999946666669
 31
0
  0
LINE
  8
0
 62
7
 10
3.037588050000002
 20
9.618333226666671
 30
0
 11
2.539036710000001
 21
9.618333226666671
 31
0
  0
LINE
  8
0
 62
7
 10
2.539036710000001
 20
9.683333226666671
 30
0
 11
3.037588050000002
 21
9.683333226666671
 31
0
  0
LINE
  8
0
 62
7
 10
3.037588050000002
 20
9.683333226666671
 30
0
 11
3.037588050000002
 21
9.618333226666671
 31
0
  0
LINE
  8
0
 62
7
 10
2.539036710000001
 20
9.618333226666671
 30
0
 11
2.539036710000001
 21
9.683333226666671
 31
0
  0
LINE
  8
0
 62
7
 10
2.700011750000002
 20
9.801666666666661
 30
0
 11
2.27084198
 21
9.801666666666661
 31
0
  0
LINE
  8
0
 62
7
 10
2.27084198
 20
9.866666666666669
 30
0
 11
2.700011750000002
 21
9.866666666666669
 31
0
  0
LINE
  8
0
 62
7
 10
2.700011750000002
 20
9.866666666666669
 30
0
 11
2.700011750000002
 21
9.801666666666661
 31
0
  0
LINE
  8
0
 62
7
 10
2.27084198
 20
9.801666666666661
 30
0
 11
2.27084198
 21
9.866666666666669
 31
0
  0
LINE
  8
0
 62
7
 10
2.456758580000001
 20
9.984999946666669
 30
0
 11
1.838436740000001
 21
9.984999946666669
 31
0
  0
LINE
  8
0
 62
7
 10
1.838436740000001
 20
10.04999994666667
 30
0
 11
2.456758580000001
 21
10.04999994666667
 31
0
  0
LINE
  8
0
 62
7
 10
2.456758580000001
 20
10.04999994666667
 30
0
 11
2.456758580000001
 21
9.984999946666669
 31
0
  0
LINE
  8
0
 62
7
 10
1.838436740000001
 20
9.984999946666669
 30
0
 11
1.838436740000001
 21
10.04999994666667
 31
0
  0
LINE
  8
0
 62
7
 10
2.345637510000001
 20
10.16833322666667
 30
0
 11
1.33000031
 21
10.16833322666667
 31
0
  0
LINE
  8
0
 62
7
 10
1.33000031
 20
10.23333322666667
 30
0
 11
2.345637510000001
 21
10.23333322666667
 31
0
  0
LINE
  8
0
 62
7
 10
2.345637510000001
 20
10.23333322666667
 30
0
 11
2.345637510000001
 21
10.16833322666667
 31
0
  0
LINE
  8
0
 62
7
 10
1.33000031
 20
10.16833322666667
 30
0
 11
1.33000031
 21
10.23333322666667
 31
0
  0
LINE
  8
0
 62
7
 10
1.33000031
 20
10.41666666666666
 30
0
 11
2.28000031
 21
10.41666666666666
 31
0
  0
LINE
  8
0
 62
7
 10
2.28000031
 20
10.35166666666666
 30
0
 11
1.33000031
 21
10.35166666666666
 31
0
  0
LINE
  8
0
 62
7
 10
2.28000031
 20
10.41666666666666
 30
0
 11
2.28000031
 21
10.35166666666666
 31
0
  0
LINE
  8
0
 62
7
 10
1.33000031
 20
10.35166666666666
 30
0
 11
1.33000031
 21
10.41666666666666
 31
0
  0
LINE
  8
0
 62
7
 10
1.33000031
 20
10.59999994666667
 30
0
 11
2.28000046
 21
10.59999994666667
 31
0
  0
LINE
  8
0
 62
7
 10
2.28000046
 20
10.59999994666667
 30
0
 11
2.28000046
 21
10.53499994666667
 31
0
  0
LINE
  8
0
 62
7
 10
1.33000031
 20
10.53499994666667
 30
0
 11
1.33000031
 21
10.59999994666667
 31
0
  0
LINE
  8
0
 62
7
 10
2.28000046
 20
10.53499994666667
 30
0
 11
1.33000031
 21
10.53499994666667
 31
0
  0
LINE
  8
0
 62
7
 10
1.329999999999999
 20
10.78333322666667
 30
0
 11
2.28000046
 21
10.78333322666667
 31
0
  0
LINE
  8
0
 62
7
 10
2.28000046
 20
10.78333322666667
 30
0
 11
2.28000046
 21
10.71833322666667
 31
0
  0
LINE
  8
0
 62
7
 10
1.329999999999999
 20
10.71833322666667
 30
0
 11
1.329999999999999
 21
10.78333322666667
 31
0
  0
LINE
  8
0
 62
7
 10
2.28000046
 20
10.71833322666667
 30
0
 11
1.329999999999999
 21
10.71833322666667
 31
0
  0
LINE
  8
0
 62
7
  6
DASHED
 10
1.329999999999999
 20
10.96666666666666
 30
0
 11
2.280000150000001
 21
10.96666666666666
 31
0
  0
LINE
  8
0
 62
7
  6
DASHED
 10
2.280000150000001
 20
10.96666666666666
 30
0
 11
2.280000150000001
 21
10.90166666666666
 31
0
  0
LINE
  8
0
 62
7
  6
DASHED
 10
1.329999999999999
 20
10.90166666666666
 30
0
 11
1.329999999999999
 21
10.96666666666666
 31
0
  0
LINE
  8
0
 62
7
  6
DASHED
 10
2.280000150000001
 20
10.90166666666666
 30
0
 11
1.329999999999999
 21
10.90166666666666
 31
0
  0
LINE
  8
0
 62
7
  6
DASHDOT
 10
1.099999999999999
 20
5.729999999999997
 30
0
 11
1.274999999999999
 21
5.729999999999997
 31
0
  0
LINE
  8
0
 62
7
  6
DASHDOT
 10
1.049999999999999
 20
5.729999999999997
 30
0
 11
1.099999999999999
 21
5.729999999999997
 31
0
  0
LINE
  8
0
 62
7
  6
DASHDOT
 10
4.234999999999999
 20
5.06
 30
0
 11
4.234999999999999
 21
5.300000000000001
 31
0
  0
LINE
  8
0
 62
7
  6
DASHDOT
 10
0.9349999999999992
 20
5.06
 30
0
 11
0.9349999999999992
 21
5.300000000000001
 31
0
  0
LINE
  8
0
 62
7
  6
DASHDOT
 10
4.234999999999999
 20
5.300000000000001
 30
0
 11
4.234999999999999
 21
5.34
 31
0
  0
LINE
  8
0
 62
7
  6
DASHDOT
 10
0.9349999999999992
 20
5.300000000000001
 30
0
 11
0.9349999999999992
 21
5.34
 31
0
  0
LINE
  8
0
 62
7
  6
DASHDOT
 10
4.234999999999999
 20
5.010000000000001
 30
0
 11
4.234999999999999
 21
5.06
 31
0
  0
LINE
  8
0
 62
7
  6
DASHDOT
 10
4.234999999999999
 20
5.34
 30
0
 11
4.234999999999999
 21
5.579999999999998
 31
0
  0
LINE
  8
0
 62
7
  6
DASHDOT
 10
3.859999999999999
 20
5.729999999999997
 30
0
 11
3.91
 21
5.729999999999997
 31
0
  0
LINE
  8
0
 62
7
  6
DASHDOT
 10
3.91
 20
5.729999999999997
 30
0
 11
4.085
 21
5.729999999999997
 31
0
  0
LINE
  8
0
 62
7
  6
DASHDOT
 10
0.9349999999999992
 20
5.010000000000001
 30
0
 11
0.9349999999999992
 21
5.06
 31
0
  0
LINE
  8
0
 62
7
  6
DASHDOT
 10
0.9349999999999992
 20
5.34
 30
0
 11
0.9349999999999992
 21
5.579999999999998
 31
0
  0
LINE
  8
0
 62
7
  6
DASHDOT
 10
0.9349999999999992
 20
5.579999999999998
 30
0
 11
0.9349999999999992
 21
5.629999999999996
 31
0
  0
LINE
  8
0
 62
7
  6
DASHDOT
 10
4.234999999999999
 20
5.579999999999998
 30
0
 11
4.234999999999999
 21
5.629999999999996
 31
0
  0
LINE
  8
0
 62
7
  6
DASHDOT
 10
1.274999999999999
 20
5.729999999999997
 30
0
 11
1.324999999999999
 21
5.729999999999997
 31
0
  0
LINE
  8
0
 62
7
  6
DASHDOT
 10
4.085
 20
5.729999999999997
 30
0
 11
4.135
 21
5.729999999999997
 31
0
  0
LINE
  8
0
 62
7
 10
3.91
 20
3.4
 30
0
 11
3.91
 21
3.35
 31
0
  0
LINE
  8
0
 62
7
  6
DASHDOT
 10
3.91
 20
3.35
 30
0
 11
1.274999999999999
 21
3.35
 31
0
  0
LINE
  8
0
 62
7
 10
1.274999999999999
 20
3.35
 30
0
 11
1.274999999999999
 21
3.4
 31
0
  0
LINE
  8
0
 62
7
 10
3.91
 20
5.06
 30
0
 11
3.91
 21
3.4
 31
0
  0
LINE
  8
0
 62
7
 10
3.91
 20
3.4
 30
0
 11
1.274999999999999
 21
3.4
 31
0
  0
LINE
  8
0
 62
7
 10
1.099999999999999
 20
3.35
 30
0
 11
1.274999999999999
 21
3.35
 31
0
  0
LINE
  8
0
 62
7
 10
0.9349999999999992
 20
5.06
 30
0
 11
1.099999999999999
 21
5.060000000000002
 31
0
  0
LINE
  8
0
 62
7
 10
1.099999999999999
 20
5.060000000000002
 30
0
 11
1.099999999999999
 21
3.35
 31
0
  0
LINE
  8
0
 62
7
 10
1.274999999999999
 20
3.4
 30
0
 11
1.274999999999999
 21
5.06
 31
0
  0
LINE
  8
0
 62
7
 10
1.274999999999999
 20
5.06
 30
0
 11
3.91
 21
5.06
 31
0
  0
LINE
  8
0
 62
7
 10
4.085
 20
3.25
 30
0
 11
4.085
 21
5.06
 31
0
  0
LINE
  8
0
 62
7
 10
3.91
 20
3.25
 30
0
 11
4.085
 21
3.25
 31
0
  0
LINE
  8
0
 62
7
 10
3.91
 20
3.35
 30
0
 11
3.91
 21
3.25
 31
0
  0
LINE
  8
0
 62
7
 10
4.085
 20
5.06
 30
0
 11
4.234999999999999
 21
5.06
 31
0
  0
LINE
  8
0
 62
7
 10
0.9349999999999992
 20
5.300000000000001
 30
0
 11
4.234999999999999
 21
5.300000000000001
 31
0
  0
LINE
  8
0
 62
7
 10
0.9349999999999992
 20
5.34
 30
0
 11
4.234999999999999
 21
5.34
 31
0
  0
LINE
  8
0
 62
7
 10
0.9349999999999992
 20
5.579999999999998
 30
0
 11
1.099999999999999
 21
5.579999999999998
 31
0
  0
LINE
  8
0
 62
7
 10
1.099999999999999
 20
5.579999999999998
 30
0
 11
1.099999999999999
 21
5.729999999999997
 31
0
  0
LINE
  8
0
 62
7
 10
1.274999999999999
 20
5.729999999999997
 30
0
 11
1.274999999999999
 21
5.579999999999998
 31
0
  0
LINE
  8
0
 62
7
 10
1.274999999999999
 20
5.579999999999998
 30
0
 11
3.91
 21
5.579999999999998
 31
0
  0
LINE
  8
0
 62
7
 10
3.91
 20
5.579999999999998
 30
0
 11
3.91
 21
5.729999999999997
 31
0
  0
LINE
  8
0
 62
7
 10
4.085
 20
5.729999999999997
 30
0
 11
4.085
 21
5.579999999999998
 31
0
  0
LINE
  8
0
 62
7
 10
4.085
 20
5.579999999999998
 30
0
 11
4.234999999999999
 21
5.579999999999998
 31
0
  0
LINE
  8
0
 62
7
  6
DASHED
 10
6.249999999999999
 20
8.1
 30
0
 11
7.959999999999997
 21
8.1
 31
0
  0
LINE
  8
0
 62
7
  6
DASHED
 10
6.249999999999999
 20
8.299999999999999
 30
0
 11
7.959999999999997
 21
8.299999999999999
 31
0
  0
LINE
  8
0
 62
7
  6
DASHED
 10
6.249999999999999
 20
10.85
 30
0
 11
7.959999999999997
 21
10.85
 31
0
  0
LINE
  8
0
 62
7
  6
DASHED
 10
6.249999999999999
 20
11.05
 30
0
 11
7.959999999999997
 21
11.05
 31
0
  0
LINE
  8
0
 62
7
  6
DASHDOT
 10
5.949999999999999
 20
10.85
 30
0
 11
5.949999999999999
 21
11.05
 31
0
  0
LINE
  8
0
 62
7
  6
DASHDOT
 10
5.949999999999999
 20
10.8
 30
0
 11
5.949999999999999
 21
10.85
 31
0
  0
LINE
  8
0
 62
7
  6
DASHDOT
 10
7.959999999999997
 20
11.2
 30
0
 11
8.199999999999998
 21
11.2
 31
0
  0
LINE
  8
0
 62
7
  6
DASHDOT
 10
7.909999999999997
 20
11.2
 30
0
 11
7.959999999999997
 21
11.2
 31
0
  0
LINE
  8
0
 62
7
  6
DASHDOT
 10
7.909999999999997
 20
7.949999999999999
 30
0
 11
7.959999999999997
 21
7.949999999999999
 31
0
  0
LINE
  8
0
 62
7
  6
DASHDOT
 10
7.959999999999997
 20
7.949999999999999
 30
0
 11
8.199999999999998
 21
7.949999999999999
 31
0
  0
LINE
  8
0
 62
7
  6
DASHDOT
 10
5.949999999999999
 20
8.299999999999999
 30
0
 11
5.949999999999999
 21
8.1
 31
0
  0
LINE
  8
0
 62
7
  6
DASHDOT
 10
5.949999999999999
 20
8.399999999999999
 30
0
 11
5.949999999999999
 21
8.299999999999999
 31
0
  0
LINE
  8
0
 62
7
  6
DASHDOT
 10
5.949999999999999
 20
11.05
 30
0
 11
5.949999999999999
 21
11.15
 31
0
  0
LINE
  8
0
 62
7
 10
5.949999999999999
 20
11.15
 30
0
 11
6.249999999999999
 21
11.15
 31
0
  0
LINE
  8
0
 62
7
  6
DASHDOT
 10
5.949999999999999
 20
8.449999999999999
 30
0
 11
5.949999999999999
 21
8.399999999999999
 31
0
  0
LINE
  8
0
 62
7
 10
5.949999999999999
 20
8.399999999999999
 30
0
 11
6.249999999999999
 21
8.399999999999999
 31
0
  0
LINE
  8
0
 62
7
  6
DASHDOT
 10
8.199999999999998
 20
7.949999999999999
 30
0
 11
8.249999999999998
 21
7.949999999999999
 31
0
  0
LINE
  8
0
 62
7
  6
DASHDOT
 10
5.949999999999999
 20
8.1
 30
0
 11
5.949999999999999
 21
8.049999999999999
 31
0
  0
LINE
  8
0
 62
7
  6
DASHDOT
 10
5.949999999999999
 20
11.15
 30
0
 11
5.949999999999999
 21
11.2
 31
0
  0
LINE
  8
0
 62
7
  6
DASHDOT
 10
8.199999999999998
 20
11.2
 30
0
 11
8.249999999999998
 21
11.2
 31
0
  0
LINE
  8
0
 62
7
 10
5.949999999999999
 20
8.1
 30
0
 11
6.249999999999999
 21
8.1
 31
0
  0
LINE
  8
0
 62
7
 10
6.249999999999999
 20
8.1
 30
0
 11
6.249999999999999
 21
8.299999999999999
 31
0
  0
LINE
  8
0
 62
7
 10
5.949999999999999
 20
8.299999999999999
 30
0
 11
6.249999999999999
 21
8.299999999999999
 31
0
  0
LINE
  8
0
 62
7
 10
5.949999999999999
 20
11.05
 30
0
 11
6.249999999999999
 21
11.05
 31
0
  0
LINE
  8
0
 62
7
 10
5.949999999999999
 20
10.85
 30
0
 11
6.249999999999999
 21
10.85
 31
0
  0
LINE
  8
0
 62
7
 10
6.249999999999999
 20
10.85
 30
0
 11
6.249999999999999
 21
11.05
 31
0
  0
LINE
  8
0
 62
7
 10
7.959999999999997
 20
7.949999999999999
 30
0
 11
7.959999999999997
 21
8.1
 31
0
  0
LINE
  8
0
 62
7
 10
8.199999999999998
 20
8.299999999999999
 30
0
 11
8.199999999999998
 21
8.1
 31
0
  0
LINE
  8
0
 62
7
 10
7.959999999999997
 20
8.1
 30
0
 11
8.199999999999998
 21
8.1
 31
0
  0
LINE
  8
0
 62
7
 10
7.959999999999997
 20
8.1
 30
0
 11
7.959999999999997
 21
8.299999999999999
 31
0
  0
LINE
  8
0
 62
7
 10
8.199999999999998
 20
10.85
 30
0
 11
8.199999999999998
 21
8.299999999999999
 31
0
  0
LINE
  8
0
 62
7
 10
7.959999999999997
 20
8.299999999999999
 30
0
 11
8.199999999999998
 21
8.299999999999999
 31
0
  0
LINE
  8
0
 62
7
 10
7.959999999999997
 20
8.299999999999999
 30
0
 11
7.959999999999997
 21
10.85
 31
0
  0
LINE
  8
0
 62
7
 10
8.199999999999998
 20
11.05
 30
0
 11
8.199999999999998
 21
10.85
 31
0
  0
LINE
  8
0
 62
7
 10
7.959999999999997
 20
10.85
 30
0
 11
8.199999999999998
 21
10.85
 31
0
  0
LINE
  8
0
 62
7
 10
7.959999999999997
 20
10.85
 30
0
 11
7.959999999999997
 21
11.05
 31
0
  0
LINE
  8
0
 62
7
 10
8.199999999999998
 20
11.2
 30
0
 11
8.199999999999998
 21
11.05
 31
0
  0
LINE
  8
0
 62
7
 10
7.959999999999997
 20
11.05
 30
0
 11
8.199999999999998
 21
11.05
 31
0
  0
LINE
  8
0
 62
7
 10
7.959999999999997
 20
11.05
 30
0
 11
7.959999999999997
 21
11.2
 31
0
  0
LINE
  8
0
 62
7
 10
8.199999999999998
 20
8.1
 30
0
 11
8.199999999999998
 21
7.949999999999999
 31
0
  0
LINE
  8
0
 62
7
  6
DASHDOT
 10
4.085
 20
11.2
 30
0
 11
4.135
 21
11.2
 31
0
  0
LINE
  8
0
 62
7
  6
DASHDOT
 10
3.91
 20
11.2
 30
0
 11
4.085
 21
11.2
 31
0
  0
LINE
  8
0
 62
7
  6
DASHDOT
 10
4.234999999999999
 20
11.05
 30
0
 11
4.234999999999999
 21
11.15
 31
0
  0
LINE
  8
0
 62
7
  6
DASHDOT
 10
4.234999999999999
 20
10.85
 30
0
 11
4.234999999999999
 21
11.05
 31
0
  0
LINE
  8
0
 62
7
  6
DASHDOT
 10
1.274999999999999
 20
11.2
 30
0
 11
1.324999999999999
 21
11.2
 31
0
  0
LINE
  8
0
 62
7
  6
DASHDOT
 10
1.099999999999999
 20
11.2
 30
0
 11
1.274999999999999
 21
11.2
 31
0
  0
LINE
  8
0
 62
7
  6
DASHDOT
 10
0.9499999999999992
 20
11.05
 30
0
 11
0.9499999999999992
 21
11.15
 31
0
  0
LINE
  8
0
 62
7
  6
DASHDOT
 10
0.9499999999999992
 20
10.85
 30
0
 11
0.9499999999999992
 21
11.05
 31
0
  0
LINE
  8
0
 62
7
  6
DASHDOT
 10
1.274999999999999
 20
7.949999999999999
 30
0
 11
1.324999999999999
 21
7.949999999999999
 31
0
  0
LINE
  8
0
 62
7
  6
DASHDOT
 10
1.099999999999999
 20
7.949999999999999
 30
0
 11
1.274999999999999
 21
7.949999999999999
 31
0
  0
LINE
  8
0
 62
7
  6
DASHDOT
 10
0.9499999999999992
 20
8.299999999999999
 30
0
 11
0.9499999999999992
 21
8.399999999999999
 31
0
  0
LINE
  8
0
 62
7
  6
DASHDOT
 10
0.9499999999999992
 20
8.1
 30
0
 11
0.9499999999999992
 21
8.299999999999999
 31
0
  0
LINE
  8
0
 62
7
  6
DASHDOT
 10
4.085
 20
7.949999999999999
 30
0
 11
4.135
 21
7.949999999999999
 31
0
  0
LINE
  8
0
 62
7
  6
DASHDOT
 10
3.91
 20
7.949999999999999
 30
0
 11
4.085
 21
7.949999999999999
 31
0
  0
LINE
  8
0
 62
7
  6
DASHDOT
 10
4.234999999999999
 20
8.299999999999999
 30
0
 11
4.234999999999999
 21
8.399999999999999
 31
0
  0
LINE
  8
0
 62
7
  6
DASHDOT
 10
4.234999999999999
 20
8.1
 30
0
 11
4.234999999999999
 21
8.299999999999999
 31
0
  0
LINE
  8
0
 62
7
  6
DASHDOT
 10
4.234999999999999
 20
11.15
 30
0
 11
4.234999999999999
 21
11.2
 31
0
  0
LINE
  8
0
 62
7
 10
4.085
 20
11.15
 30
0
 11
4.085
 21
11.2
 31
0
  0
LINE
  8
0
 62
7
 10
4.085
 20
11.15
 30
0
 11
4.234999999999999
 21
11.15
 31
0
  0
LINE
  8
0
 62
7
 10
3.91
 20
11.15
 30
0
 11
3.91
 21
11.2
 31
0
  0
LINE
  8
0
 62
7
 10
1.274999999999999
 20
11.15
 30
0
 11
1.274999999999999
 21
11.2
 31
0
  0
LINE
  8
0
 62
7
 10
1.274999999999999
 20
11.15
 30
0
 11
3.91
 21
11.15
 31
0
  0
LINE
  8
0
 62
7
  6
DASHDOT
 10
0.9499999999999992
 20
11.15
 30
0
 11
0.9499999999999992
 21
11.2
 31
0
  0
LINE
  8
0
 62
7
 10
1.099999999999999
 20
11.15
 30
0
 11
1.099999999999999
 21
11.2
 31
0
  0
LINE
  8
0
 62
7
 10
0.9499999999999992
 20
11.15
 30
0
 11
1.099999999999999
 21
11.15
 31
0
  0
LINE
  8
0
 62
7
  6
DASHDOT
 10
4.234999999999999
 20
8.399999999999999
 30
0
 11
4.234999999999999
 21
8.449999999999999
 31
0
  0
LINE
  8
0
 62
7
 10
4.085
 20
8.399999999999999
 30
0
 11
4.085
 21
10.85
 31
0
  0
LINE
  8
0
 62
7
 10
4.085
 20
8.399999999999999
 30
0
 11
4.234999999999999
 21
8.399999999999999
 31
0
  0
LINE
  8
0
 62
7
 10
3.91
 20
8.399999999999999
 30
0
 11
3.91
 21
10.85
 31
0
  0
LINE
  8
0
 62
7
 10
1.274999999999999
 20
8.399999999999999
 30
0
 11
1.274999999999999
 21
10.85
 31
0
  0
LINE
  8
0
 62
7
 10
1.274999999999999
 20
8.399999999999999
 30
0
 11
3.91
 21
8.399999999999999
 31
0
  0
LINE
  8
0
 62
7
  6
DASHDOT
 10
0.9499999999999992
 20
8.399999999999999
 30
0
 11
0.9499999999999992
 21
8.449999999999999
 31
0
  0
LINE
  8
0
 62
7
 10
1.099999999999999
 20
8.399999999999999
 30
0
 11
1.099999999999999
 21
10.85
 31
0
  0
LINE
  8
0
 62
7
 10
0.9499999999999992
 20
8.399999999999999
 30
0
 11
1.099999999999999
 21
8.399999999999999
 31
0
  0
LINE
  8
0
 62
7
  6
DASHDOT
 10
3.859999999999999
 20
7.949999999999999
 30
0
 11
3.91
 21
7.949999999999999
 31
0
  0
LINE
  8
0
 62
7
  6
DASHDOT
 10
3.859999999999999
 20
11.2
 30
0
 11
3.91
 21
11.2
 31
0
  0
LINE
  8
0
 62
7
  6
DASHDOT
 10
1.049999999999999
 20
7.949999999999999
 30
0
 11
1.099999999999999
 21
7.949999999999999
 31
0
  0
LINE
  8
0
 62
7
  6
DASHDOT
 10
1.049999999999999
 20
11.2
 30
0
 11
1.099999999999999
 21
11.2
 31
0
  0
LINE
  8
0
 62
7
  6
DASHDOT
 10
4.234999999999999
 20
10.8
 30
0
 11
4.234999999999999
 21
10.85
 31
0
  0
LINE
  8
0
 62
7
  6
DASHDOT
 10
4.234999999999999
 20
8.049999999999999
 30
0
 11
4.234999999999999
 21
8.1
 31
0
  0
LINE
  8
0
 62
7
  6
DASHDOT
 10
0.9499999999999992
 20
10.8
 30
0
 11
0.9499999999999992
 21
10.85
 31
0
  0
LINE
  8
0
 62
7
  6
DASHDOT
 10
0.9499999999999992
 20
8.049999999999999
 30
0
 11
0.9499999999999992
 21
8.1
 31
0
  0
LINE
  8
0
 62
7
 10
4.085
 20
11.05
 30
0
 11
4.234999999999999
 21
11.05
 31
0
  0
LINE
  8
0
 62
7
 10
4.085
 20
11.05
 30
0
 11
4.085
 21
11.15
 31
0
  0
LINE
  8
0
 62
7
 10
4.085
 20
10.85
 30
0
 11
4.234999999999999
 21
10.85
 31
0
  0
LINE
  8
0
 62
7
 10
4.085
 20
8.299999999999999
 30
0
 11
4.234999999999999
 21
8.299999999999999
 31
0
  0
LINE
  8
0
 62
7
 10
4.085
 20
8.299999999999999
 30
0
 11
4.085
 21
8.399999999999999
 31
0
  0
LINE
  8
0
 62
7
 10
4.085
 20
8.1
 30
0
 11
4.234999999999999
 21
8.1
 31
0
  0
LINE
  8
0
 62
7
 10
4.085
 20
7.949999999999999
 30
0
 11
4.085
 21
8.1
 31
0
  0
LINE
  8
0
 62
7
 10
3.91
 20
11.05
 30
0
 11
4.085
 21
11.05
 31
0
  0
LINE
  8
0
 62
7
 10
3.91
 20
11.05
 30
0
 11
3.91
 21
11.15
 31
0
  0
LINE
  8
0
 62
7
 10
3.91
 20
10.85
 30
0
 11
4.085
 21
10.85
 31
0
  0
LINE
  8
0
 62
7
 10
3.91
 20
8.299999999999999
 30
0
 11
4.085
 21
8.299999999999999
 31
0
  0
LINE
  8
0
 62
7
 10
3.91
 20
8.299999999999999
 30
0
 11
3.91
 21
8.399999999999999
 31
0
  0
LINE
  8
0
 62
7
 10
3.91
 20
8.1
 30
0
 11
4.085
 21
8.1
 31
0
  0
LINE
  8
0
 62
7
 10
3.91
 20
7.949999999999999
 30
0
 11
3.91
 21
8.1
 31
0
  0
LINE
  8
0
 62
7
 10
1.274999999999999
 20
11.05
 30
0
 11
3.91
 21
11.05
 31
0
  0
LINE
  8
0
 62
7
 10
1.274999999999999
 20
11.05
 30
0
 11
1.274999999999999
 21
11.15
 31
0
  0
LINE
  8
0
 62
7
 10
1.274999999999999
 20
10.85
 30
0
 11
3.91
 21
10.85
 31
0
  0
LINE
  8
0
 62
7
 10
1.274999999999999
 20
8.299999999999999
 30
0
 11
3.91
 21
8.299999999999999
 31
0
  0
LINE
  8
0
 62
7
 10
1.274999999999999
 20
8.299999999999999
 30
0
 11
1.274999999999999
 21
8.399999999999999
 31
0
  0
LINE
  8
0
 62
7
 10
1.274999999999999
 20
8.1
 30
0
 11
3.91
 21
8.1
 31
0
  0
LINE
  8
0
 62
7
 10
1.274999999999999
 20
7.949999999999999
 30
0
 11
1.274999999999999
 21
8.1
 31
0
  0
LINE
  8
0
 62
7
 10
1.099999999999999
 20
11.05
 30
0
 11
1.274999999999999
 21
11.05
 31
0
  0
LINE
  8
0
 62
7
 10
1.099999999999999
 20
11.05
 30
0
 11
1.099999999999999
 21
11.15
 31
0
  0
LINE
  8
0
 62
7
 10
1.099999999999999
 20
10.85
 30
0
 11
1.274999999999999
 21
10.85
 31
0
  0
LINE
  8
0
 62
7
 10
1.099999999999999
 20
8.299999999999999
 30
0
 11
1.274999999999999
 21
8.299999999999999
 31
0
  0
LINE
  8
0
 62
7
 10
1.099999999999999
 20
8.299999999999999
 30
0
 11
1.099999999999999
 21
8.399999999999999
 31
0
  0
LINE
  8
0
 62
7
 10
1.099999999999999
 20
8.1
 30
0
 11
1.274999999999999
 21
8.1
 31
0
  0
LINE
  8
0
 62
7
 10
1.099999999999999
 20
7.949999999999999
 30
0
 11
1.099999999999999
 21
8.1
 31
0
  0
LINE
  8
0
 62
7
 10
0.9499999999999992
 20
11.05
 30
0
 11
1.099999999999999
 21
11.05
 31
0
  0
LINE
  8
0
 62
7
 10
0.9499999999999992
 20
10.85
 30
0
 11
1.099999999999999
 21
10.85
 31
0
  0
LINE
  8
0
 62
7
 10
0.9499999999999992
 20
8.299999999999999
 30
0
 11
1.099999999999999
 21
8.299999999999999
 31
0
  0
LINE
  8
0
 62
7
 10
0.9499999999999992
 20
8.1
 30
0
 11
1.099999999999999
 21
8.1
 31
0
  0
LINE
  8
0
 62
7
 10
1.77920772653721
 20
4.722400776699032
 30
0
 11
1.77920772653721
 21
4.842400776699031
 31
0
  0
LINE
  8
0
 62
7
 10
1.85480772653721
 20
4.842400776699031
 30
0
 11
1.80080772653721
 21
4.78240077669903
 31
0
  0
LINE
  8
0
 62
7
 10
1.80080772653721
 20
4.78240077669903
 30
0
 11
1.85480772653721
 21
4.722400776699032
 31
0
  0
LINE
  8
0
 62
7
 10
1.80080772653721
 20
4.78240077669903
 30
0
 11
1.77920772653721
 21
4.758400776699031
 31
0
  0
LINE
  8
0
 62
7
 10
1.96280772653721
 20
4.842400776699031
 30
0
 11
1.88720772653721
 21
4.842400776699031
 31
0
  0
LINE
  8
0
 62
7
 10
1.88720772653721
 20
4.842400776699031
 30
0
 11
1.88720772653721
 21
4.78240077669903
 31
0
  0
LINE
  8
0
 62
7
 10
1.88720772653721
 20
4.722400776699032
 30
0
 11
1.96280772653721
 21
4.722400776699032
 31
0
  0
LINE
  8
0
 62
7
 10
1.95200772653721
 20
4.78240077669903
 30
0
 11
1.88720772653721
 21
4.78240077669903
 31
0
  0
LINE
  8
0
 62
7
 10
1.88720772653721
 20
4.78240077669903
 30
0
 11
1.88720772653721
 21
4.722400776699032
 31
0
  0
LINE
  8
0
 62
7
 10
1.99520772653721
 20
4.722400776699032
 30
0
 11
1.99520772653721
 21
4.842400776699031
 31
0
  0
LINE
  8
0
 62
7
 10
1.99520772653721
 20
4.842400776699031
 30
0
 11
2.07080772653721
 21
4.722400776699032
 31
0
  0
LINE
  8
0
 62
7
 10
2.07080772653721
 20
4.722400776699032
 30
0
 11
2.07080772653721
 21
4.842400776699031
 31
0
  0
LINE
  8
0
 62
7
 10
2.10320772653721
 20
4.722400776699032
 30
0
 11
2.10320772653721
 21
4.842400776699031
 31
0
  0
LINE
  8
0
 62
7
 10
2.10320772653721
 20
4.842400776699031
 30
0
 11
2.17880772653721
 21
4.722400776699032
 31
0
  0
LINE
  8
0
 62
7
 10
2.17880772653721
 20
4.722400776699032
 30
0
 11
2.17880772653721
 21
4.842400776699031
 31
0
  0
LINE
  8
0
 62
7
 10
2.28680772653721
 20
4.806400776699031
 30
0
 11
2.28410772653721
 21
4.818400776699031
 31
0
  0
LINE
  8
0
 62
7
 10
2.28410772653721
 20
4.818400776699031
 30
0
 11
2.27870772653721
 21
4.827400776699031
 31
0
  0
LINE
  8
0
 62
7
 10
2.27870772653721
 20
4.827400776699031
 30
0
 11
2.27330772653721
 21
4.833400776699031
 31
0
  0
LINE
  8
0
 62
7
 10
2.27330772653721
 20
4.833400776699031
 30
0
 11
2.26520772653721
 21
4.839400776699031
 31
0
  0
LINE
  8
0
 62
7
 10
2.26520772653721
 20
4.839400776699031
 30
0
 11
2.25710772653721
 21
4.842400776699031
 31
0
  0
LINE
  8
0
 62
7
 10
2.25710772653721
 20
4.842400776699031
 30
0
 11
2.24090772653721
 21
4.842400776699031
 31
0
  0
LINE
  8
0
 62
7
 10
2.24090772653721
 20
4.842400776699031
 30
0
 11
2.23280772653721
 21
4.839400776699031
 31
0
  0
LINE
  8
0
 62
7
 10
2.23280772653721
 20
4.839400776699031
 30
0
 11
2.22470772653721
 21
4.833400776699031
 31
0
  0
LINE
  8
0
 62
7
 10
2.22470772653721
 20
4.833400776699031
 30
0
 11
2.21930772653721
 21
4.827400776699031
 31
0
  0
LINE
  8
0
 62
7
 10
2.21930772653721
 20
4.827400776699031
 30
0
 11
2.21390772653721
 21
4.818400776699031
 31
0
  0
LINE
  8
0
 62
7
 10
2.21390772653721
 20
4.818400776699031
 30
0
 11
2.21120772653721
 21
4.806400776699031
 31
0
  0
LINE
  8
0
 62
7
 10
2.21120772653721
 20
4.806400776699031
 30
0
 11
2.21120772653721
 21
4.758400776699031
 31
0
  0
LINE
  8
0
 62
7
 10
2.21120772653721
 20
4.758400776699031
 30
0
 11
2.21390772653721
 21
4.746400776699031
 31
0
  0
LINE
  8
0
 62
7
 10
2.21390772653721
 20
4.746400776699031
 30
0
 11
2.21930772653721
 21
4.737400776699031
 31
0
  0
LINE
  8
0
 62
7
 10
2.21930772653721
 20
4.737400776699031
 30
0
 11
2.22470772653721
 21
4.731400776699031
 31
0
  0
LINE
  8
0
 62
7
 10
2.22470772653721
 20
4.731400776699031
 30
0
 11
2.23280772653721
 21
4.725400776699031
 31
0
  0
LINE
  8
0
 62
7
 10
2.23280772653721
 20
4.725400776699031
 30
0
 11
2.24090772653721
 21
4.722400776699032
 31
0
  0
LINE
  8
0
 62
7
 10
2.24090772653721
 20
4.722400776699032
 30
0
 11
2.25710772653721
 21
4.722400776699032
 31
0
  0
LINE
  8
0
 62
7
 10
2.25710772653721
 20
4.722400776699032
 30
0
 11
2.26520772653721
 21
4.725400776699031
 31
0
  0
LINE
  8
0
 62
7
 10
2.26520772653721
 20
4.725400776699031
 30
0
 11
2.27330772653721
 21
4.731400776699031
 31
0
  0
LINE
  8
0
 62
7
 10
2.27330772653721
 20
4.731400776699031
 30
0
 11
2.27870772653721
 21
4.737400776699031
 31
0
  0
LINE
  8
0
 62
7
 10
2.27870772653721
 20
4.737400776699031
 30
0
 11
2.28410772653721
 21
4.746400776699031
 31
0
  0
LINE
  8
0
 62
7
 10
2.28410772653721
 20
4.746400776699031
 30
0
 11
2.28680772653721
 21
4.758400776699031
 31
0
  0
LINE
  8
0
 62
7
 10
2.28680772653721
 20
4.758400776699031
 30
0
 11
2.28680772653721
 21
4.78240077669903
 31
0
  0
LINE
  8
0
 62
7
 10
2.28680772653721
 20
4.78240077669903
 30
0
 11
2.25440772653721
 21
4.78240077669903
 31
0
  0
LINE
  8
0
 62
7
 10
2.36510772653721
 20
4.842400776699031
 30
0
 11
2.34890772653721
 21
4.842400776699031
 31
0
  0
LINE
  8
0
 62
7
 10
2.34890772653721
 20
4.842400776699031
 30
0
 11
2.34080772653721
 21
4.839400776699031
 31
0
  0
LINE
  8
0
 62
7
 10
2.34080772653721
 20
4.839400776699031
 30
0
 11
2.33270772653721
 21
4.833400776699031
 31
0
  0
LINE
  8
0
 62
7
 10
2.33270772653721
 20
4.833400776699031
 30
0
 11
2.32730772653721
 21
4.827400776699031
 31
0
  0
LINE
  8
0
 62
7
 10
2.32730772653721
 20
4.827400776699031
 30
0
 11
2.32190772653721
 21
4.818400776699031
 31
0
  0
LINE
  8
0
 62
7
 10
2.32190772653721
 20
4.818400776699031
 30
0
 11
2.31920772653721
 21
4.806400776699031
 31
0
  0
LINE
  8
0
 62
7
 10
2.31920772653721
 20
4.806400776699031
 30
0
 11
2.31920772653721
 21
4.758400776699031
 31
0
  0
LINE
  8
0
 62
7
 10
2.31920772653721
 20
4.758400776699031
 30
0
 11
2.32190772653721
 21
4.746400776699031
 31
0
  0
LINE
  8
0
 62
7
 10
2.32190772653721
 20
4.746400776699031
 30
0
 11
2.32730772653721
 21
4.737400776699031
 31
0
  0
LINE
  8
0
 62
7
 10
2.32730772653721
 20
4.737400776699031
 30
0
 11
2.33270772653721
 21
4.731400776699031
 31
0
  0
LINE
  8
0
 62
7
 10
2.33270772653721
 20
4.731400776699031
 30
0
 11
2.34080772653721
 21
4.725400776699031
 31
0
  0
LINE
  8
0
 62
7
 10
2.34080772653721
 20
4.725400776699031
 30
0
 11
2.34890772653721
 21
4.722400776699032
 31
0
  0
LINE
  8
0
 62
7
 10
2.34890772653721
 20
4.722400776699032
 30
0
 11
2.36510772653721
 21
4.722400776699032
 31
0
  0
LINE
  8
0
 62
7
 10
2.36510772653721
 20
4.722400776699032
 30
0
 11
2.37320772653721
 21
4.725400776699031
 31
0
  0
LINE
  8
0
 62
7
 10
2.37320772653721
 20
4.725400776699031
 30
0
 11
2.38130772653721
 21
4.731400776699031
 31
0
  0
LINE
  8
0
 62
7
 10
2.38130772653721
 20
4.731400776699031
 30
0
 11
2.38670772653721
 21
4.737400776699031
 31
0
  0
LINE
  8
0
 62
7
 10
2.38670772653721
 20
4.737400776699031
 30
0
 11
2.39210772653721
 21
4.746400776699031
 31
0
  0
LINE
  8
0
 62
7
 10
2.39210772653721
 20
4.746400776699031
 30
0
 11
2.39480772653721
 21
4.758400776699031
 31
0
  0
LINE
  8
0
 62
7
 10
2.39480772653721
 20
4.758400776699031
 30
0
 11
2.39480772653721
 21
4.806400776699031
 31
0
  0
LINE
  8
0
 62
7
 10
2.39480772653721
 20
4.806400776699031
 30
0
 11
2.39210772653721
 21
4.818400776699031
 31
0
  0
LINE
  8
0
 62
7
 10
2.39210772653721
 20
4.818400776699031
 30
0
 11
2.38670772653721
 21
4.827400776699031
 31
0
  0
LINE
  8
0
 62
7
 10
2.38670772653721
 20
4.827400776699031
 30
0
 11
2.38130772653721
 21
4.833400776699031
 31
0
  0
LINE
  8
0
 62
7
 10
2.38130772653721
 20
4.833400776699031
 30
0
 11
2.37320772653721
 21
4.839400776699031
 31
0
  0
LINE
  8
0
 62
7
 10
2.37320772653721
 20
4.839400776699031
 30
0
 11
2.36510772653721
 21
4.842400776699031
 31
0
  0
LINE
  8
0
 62
7
 10
2.41640772653721
 20
4.842400776699031
 30
0
 11
2.45420772653721
 21
4.842400776699031
 31
0
  0
LINE
  8
0
 62
7
 10
2.45420772653721
 20
4.842400776699031
 30
0
 11
2.45420772653721
 21
4.722400776699032
 31
0
  0
LINE
  8
0
 62
7
 10
2.45420772653721
 20
4.842400776699031
 30
0
 11
2.49200772653721
 21
4.842400776699031
 31
0
  0
LINE
  8
0
 62
7
 10
2.52440772653721
 20
4.842400776699031
 30
0
 11
2.56220772653721
 21
4.842400776699031
 31
0
  0
LINE
  8
0
 62
7
 10
2.56220772653721
 20
4.842400776699031
 30
0
 11
2.56220772653721
 21
4.722400776699032
 31
0
  0
LINE
  8
0
 62
7
 10
2.56220772653721
 20
4.842400776699031
 30
0
 11
2.600007726537211
 21
4.842400776699031
 31
0
  0
LINE
  8
0
 62
7
 10
2.718807726537211
 20
4.764400776699031
 30
0
 11
2.77280772653721
 21
4.764400776699031
 31
0
  0
LINE
  8
0
 62
7
 10
2.880807726537212
 20
4.842400776699031
 30
0
 11
2.918607726537211
 21
4.842400776699031
 31
0
  0
LINE
  8
0
 62
7
 10
2.918607726537211
 20
4.842400776699031
 30
0
 11
2.918607726537211
 21
4.722400776699032
 31
0
  0
LINE
  8
0
 62
7
 10
2.918607726537211
 20
4.842400776699031
 30
0
 11
2.956407726537211
 21
4.842400776699031
 31
0
  0
LINE
  8
0
 62
7
 10
2.988807726537212
 20
4.722400776699032
 30
0
 11
2.988807726537212
 21
4.842400776699031
 31
0
  0
LINE
  8
0
 62
7
 10
2.988807726537212
 20
4.842400776699031
 30
0
 11
3.040107726537212
 21
4.842400776699031
 31
0
  0
LINE
  8
0
 62
7
 10
3.040107726537212
 20
4.842400776699031
 30
0
 11
3.05090772653721
 21
4.839400776699031
 31
0
  0
LINE
  8
0
 62
7
 10
3.05090772653721
 20
4.839400776699031
 30
0
 11
3.05900772653721
 21
4.833400776699031
 31
0
  0
LINE
  8
0
 62
7
 10
3.05900772653721
 20
4.833400776699031
 30
0
 11
3.06170772653721
 21
4.827400776699031
 31
0
  0
LINE
  8
0
 62
7
 10
3.06170772653721
 20
4.827400776699031
 30
0
 11
3.06440772653721
 21
4.818400776699031
 31
0
  0
LINE
  8
0
 62
7
 10
3.06440772653721
 20
4.818400776699031
 30
0
 11
3.06440772653721
 21
4.806400776699031
 31
0
  0
LINE
  8
0
 62
7
 10
3.06440772653721
 20
4.806400776699031
 30
0
 11
3.06170772653721
 21
4.797400776699031
 31
0
  0
LINE
  8
0
 62
7
 10
3.06170772653721
 20
4.797400776699031
 30
0
 11
3.05900772653721
 21
4.791400776699031
 31
0
  0
LINE
  8
0
 62
7
 10
3.05900772653721
 20
4.791400776699031
 30
0
 11
3.05090772653721
 21
4.785400776699031
 31
0
  0
LINE
  8
0
 62
7
 10
3.05090772653721
 20
4.785400776699031
 30
0
 11
3.040107726537212
 21
4.78240077669903
 31
0
  0
LINE
  8
0
 62
7
 10
3.040107726537212
 20
4.78240077669903
 30
0
 11
3.032007726537211
 21
4.78240077669903
 31
0
  0
LINE
  8
0
 62
7
 10
3.032007726537211
 20
4.78240077669903
 30
0
 11
3.06440772653721
 21
4.722400776699032
 31
0
  0
LINE
  8
0
 62
7
 10
3.032007726537211
 20
4.78240077669903
 30
0
 11
2.988807726537212
 21
4.78240077669903
 31
0
  0
LINE
  8
0
 62
7
 10
3.16160772653721
 20
4.842400776699031
 30
0
 11
3.08600772653721
 21
4.842400776699031
 31
0
  0
LINE
  8
0
 62
7
 10
3.08600772653721
 20
4.842400776699031
 30
0
 11
3.08600772653721
 21
4.78240077669903
 31
0
  0
LINE
  8
0
 62
7
 10
3.08600772653721
 20
4.722400776699032
 30
0
 11
3.16160772653721
 21
4.722400776699032
 31
0
  0
LINE
  8
0
 62
7
 10
3.150807726537211
 20
4.78240077669903
 30
0
 11
3.08600772653721
 21
4.78240077669903
 31
0
  0
LINE
  8
0
 62
7
 10
3.08600772653721
 20
4.78240077669903
 30
0
 11
3.08600772653721
 21
4.722400776699032
 31
0
  0
LINE
  8
0
 62
7
 10
3.19400772653721
 20
4.722400776699032
 30
0
 11
3.19400772653721
 21
4.78240077669903
 31
0
  0
LINE
  8
0
 62
7
 10
3.19400772653721
 20
4.842400776699031
 30
0
 11
3.24530772653721
 21
4.842400776699031
 31
0
  0
LINE
  8
0
 62
7
 10
3.24530772653721
 20
4.842400776699031
 30
0
 11
3.256107726537211
 21
4.839400776699031
 31
0
  0
LINE
  8
0
 62
7
 10
3.256107726537211
 20
4.839400776699031
 30
0
 11
3.26420772653721
 21
4.833400776699031
 31
0
  0
LINE
  8
0
 62
7
 10
3.26420772653721
 20
4.833400776699031
 30
0
 11
3.266907726537211
 21
4.827400776699031
 31
0
  0
LINE
  8
0
 62
7
 10
3.266907726537211
 20
4.827400776699031
 30
0
 11
3.269607726537211
 21
4.818400776699031
 31
0
  0
LINE
  8
0
 62
7
 10
3.269607726537211
 20
4.818400776699031
 30
0
 11
3.269607726537211
 21
4.806400776699031
 31
0
  0
LINE
  8
0
 62
7
 10
3.269607726537211
 20
4.806400776699031
 30
0
 11
3.266907726537211
 21
4.797400776699031
 31
0
  0
LINE
  8
0
 62
7
 10
3.266907726537211
 20
4.797400776699031
 30
0
 11
3.26420772653721
 21
4.791400776699031
 31
0
  0
LINE
  8
0
 62
7
 10
3.26420772653721
 20
4.791400776699031
 30
0
 11
3.256107726537211
 21
4.785400776699031
 31
0
  0
LINE
  8
0
 62
7
 10
3.256107726537211
 20
4.785400776699031
 30
0
 11
3.24530772653721
 21
4.78240077669903
 31
0
  0
LINE
  8
0
 62
7
 10
3.24530772653721
 20
4.78240077669903
 30
0
 11
3.19400772653721
 21
4.78240077669903
 31
0
  0
LINE
  8
0
 62
7
 10
3.19400772653721
 20
4.78240077669903
 30
0
 11
3.19400772653721
 21
4.842400776699031
 31
0
  0
LINE
  8
0
 62
7
 10
3.29120772653721
 20
4.722400776699032
 30
0
 11
3.29120772653721
 21
4.78240077669903
 31
0
  0
LINE
  8
0
 62
7
 10
3.29120772653721
 20
4.842400776699031
 30
0
 11
3.34250772653721
 21
4.842400776699031
 31
0
  0
LINE
  8
0
 62
7
 10
3.34250772653721
 20
4.842400776699031
 30
0
 11
3.35330772653721
 21
4.839400776699031
 31
0
  0
LINE
  8
0
 62
7
 10
3.35330772653721
 20
4.839400776699031
 30
0
 11
3.36140772653721
 21
4.833400776699031
 31
0
  0
LINE
  8
0
 62
7
 10
3.36140772653721
 20
4.833400776699031
 30
0
 11
3.36410772653721
 21
4.827400776699031
 31
0
  0
LINE
  8
0
 62
7
 10
3.36410772653721
 20
4.827400776699031
 30
0
 11
3.36680772653721
 21
4.818400776699031
 31
0
  0
LINE
  8
0
 62
7
 10
3.36680772653721
 20
4.818400776699031
 30
0
 11
3.36680772653721
 21
4.806400776699031
 31
0
  0
LINE
  8
0
 62
7
 10
3.36680772653721
 20
4.806400776699031
 30
0
 11
3.36410772653721
 21
4.797400776699031
 31
0
  0
LINE
  8
0
 62
7
 10
3.36410772653721
 20
4.797400776699031
 30
0
 11
3.36140772653721
 21
4.791400776699031
 31
0
  0
LINE
  8
0
 62
7
 10
3.36140772653721
 20
4.791400776699031
 30
0
 11
3.35330772653721
 21
4.785400776699031
 31
0
  0
LINE
  8
0
 62
7
 10
3.35330772653721
 20
4.785400776699031
 30
0
 11
3.34250772653721
 21
4.78240077669903
 31
0
  0
LINE
  8
0
 62
7
 10
3.34250772653721
 20
4.78240077669903
 30
0
 11
3.29120772653721
 21
4.78240077669903
 31
0
  0
LINE
  8
0
 62
7
 10
3.29120772653721
 20
4.78240077669903
 30
0
 11
3.29120772653721
 21
4.842400776699031
 31
0
  0
LINE
  8
0
 62
7
 10
3.46400772653721
 20
4.842400776699031
 30
0
 11
3.38840772653721
 21
4.842400776699031
 31
0
  0
LINE
  8
0
 62
7
 10
3.38840772653721
 20
4.842400776699031
 30
0
 11
3.38840772653721
 21
4.78240077669903
 31
0
  0
LINE
  8
0
 62
7
 10
3.38840772653721
 20
4.722400776699032
 30
0
 11
3.46400772653721
 21
4.722400776699032
 31
0
  0
LINE
  8
0
 62
7
 10
3.453207726537212
 20
4.78240077669903
 30
0
 11
3.38840772653721
 21
4.78240077669903
 31
0
  0
LINE
  8
0
 62
7
 10
3.38840772653721
 20
4.78240077669903
 30
0
 11
3.38840772653721
 21
4.722400776699032
 31
0
  0
LINE
  8
0
 62
7
 10
0.5249999999999991
 20
3.009999999999999
 30
0
 11
0.6005999999999992
 21
3.009999999999999
 31
0
  0
LINE
  8
0
 62
7
 10
0.6005999999999992
 20
3.009999999999999
 30
0
 11
0.5249999999999991
 21
2.889999999999999
 31
0
  0
LINE
  8
0
 62
7
 10
0.5249999999999991
 20
2.889999999999999
 30
0
 11
0.6005999999999992
 21
2.889999999999999
 31
0
  0
LINE
  8
0
 62
7
 10
0.6329999999999991
 20
2.992
 30
0
 11
0.6383999999999991
 21
3.001
 31
0
  0
LINE
  8
0
 62
7
 10
0.6383999999999991
 20
3.001
 30
0
 11
0.6464999999999992
 21
3.007
 31
0
  0
LINE
  8
0
 62
7
 10
0.6464999999999992
 20
3.007
 30
0
 11
0.6572999999999991
 21
3.009999999999999
 31
0
  0
LINE
  8
0
 62
7
 10
0.6572999999999991
 20
3.009999999999999
 30
0
 11
0.6734999999999992
 21
3.009999999999999
 31
0
  0
LINE
  8
0
 62
7
 10
0.6734999999999992
 20
3.009999999999999
 30
0
 11
0.684299999999999
 21
3.007
 31
0
  0
LINE
  8
0
 62
7
 10
0.684299999999999
 20
3.007
 30
0
 11
0.6923999999999991
 21
3.001
 31
0
  0
LINE
  8
0
 62
7
 10
0.6923999999999991
 20
3.001
 30
0
 11
0.6977999999999991
 21
2.992
 31
0
  0
LINE
  8
0
 62
7
 10
0.6977999999999991
 20
2.992
 30
0
 11
0.6977999999999991
 21
2.979999999999999
 31
0
  0
LINE
  8
0
 62
7
 10
0.6977999999999991
 20
2.979999999999999
 30
0
 11
0.6923999999999991
 21
2.968
 31
0
  0
LINE
  8
0
 62
7
 10
0.6923999999999991
 20
2.968
 30
0
 11
0.6329999999999991
 21
2.889999999999999
 31
0
  0
LINE
  8
0
 62
7
 10
0.6329999999999991
 20
2.889999999999999
 30
0
 11
0.6977999999999991
 21
2.889999999999999
 31
0
  0
LINE
  8
0
 62
7
 10
0.7301999999999992
 20
3.009999999999999
 30
0
 11
0.7679999999999991
 21
2.889999999999999
 31
0
  0
LINE
  8
0
 62
7
 10
0.7679999999999991
 20
2.889999999999999
 30
0
 11
0.8057999999999993
 21
3.009999999999999
 31
0
  0
LINE
  8
0
 62
7
 10
0.8381999999999993
 20
2.992
 30
0
 11
0.8435999999999991
 21
3.001
 31
0
  0
LINE
  8
0
 62
7
 10
0.8435999999999991
 20
3.001
 30
0
 11
0.8516999999999992
 21
3.007
 31
0
  0
LINE
  8
0
 62
7
 10
0.8516999999999992
 20
3.007
 30
0
 11
0.8624999999999992
 21
3.009999999999999
 31
0
  0
LINE
  8
0
 62
7
 10
0.8624999999999992
 20
3.009999999999999
 30
0
 11
0.8786999999999993
 21
3.009999999999999
 31
0
  0
LINE
  8
0
 62
7
 10
0.8786999999999993
 20
3.009999999999999
 30
0
 11
0.8894999999999993
 21
3.007
 31
0
  0
LINE
  8
0
 62
7
 10
0.8894999999999993
 20
3.007
 30
0
 11
0.8975999999999993
 21
3.001
 31
0
  0
LINE
  8
0
 62
7
 10
0.8975999999999993
 20
3.001
 30
0
 11
0.9029999999999991
 21
2.992
 31
0
  0
LINE
  8
0
 62
7
 10
0.9029999999999991
 20
2.992
 30
0
 11
0.9029999999999991
 21
2.979999999999999
 31
0
  0
LINE
  8
0
 62
7
 10
0.9029999999999991
 20
2.979999999999999
 30
0
 11
0.8975999999999993
 21
2.968
 31
0
  0
LINE
  8
0
 62
7
 10
0.8975999999999993
 20
2.968
 30
0
 11
0.8381999999999993
 21
2.889999999999999
 31
0
  0
LINE
  8
0
 62
7
 10
0.8381999999999993
 20
2.889999999999999
 30
0
 11
0.9029999999999991
 21
2.889999999999999
 31
0
  0
LINE
  8
0
 62
7
 10
0.9353999999999991
 20
2.938
 30
0
 11
0.9380999999999994
 21
2.949999999999999
 31
0
  0
LINE
  8
0
 62
7
 10
0.9380999999999994
 20
2.949999999999999
 30
0
 11
0.9434999999999992
 21
2.959
 31
0
  0
LINE
  8
0
 62
7
 10
0.9434999999999992
 20
2.959
 30
0
 11
0.9515999999999991
 21
2.964999999999999
 31
0
  0
LINE
  8
0
 62
7
 10
0.9515999999999991
 20
2.964999999999999
 30
0
 11
0.9596999999999993
 21
2.968
 31
0
  0
LINE
  8
0
 62
7
 10
0.9596999999999993
 20
2.968
 30
0
 11
0.9758999999999992
 21
2.968
 31
0
  0
LINE
  8
0
 62
7
 10
0.9758999999999992
 20
2.968
 30
0
 11
0.9839999999999993
 21
2.964999999999999
 31
0
  0
LINE
  8
0
 62
7
 10
0.9839999999999993
 20
2.964999999999999
 30
0
 11
0.9920999999999993
 21
2.959
 31
0
  0
LINE
  8
0
 62
7
 10
0.9920999999999993
 20
2.959
 30
0
 11
0.9974999999999992
 21
2.949999999999999
 31
0
  0
LINE
  8
0
 62
7
 10
0.9974999999999992
 20
2.949999999999999
 30
0
 11
1.000199999999999
 21
2.938
 31
0
  0
LINE
  8
0
 62
7
 10
1.000199999999999
 20
2.938
 30
0
 11
1.000199999999999
 21
2.919999999999999
 31
0
  0
LINE
  8
0
 62
7
 10
1.000199999999999
 20
2.919999999999999
 30
0
 11
0.9974999999999992
 21
2.908
 31
0
  0
LINE
  8
0
 62
7
 10
0.9974999999999992
 20
2.908
 30
0
 11
0.9920999999999993
 21
2.899
 31
0
  0
LINE
  8
0
 62
7
 10
0.9920999999999993
 20
2.899
 30
0
 11
0.9839999999999993
 21
2.893
 31
0
  0
LINE
  8
0
 62
7
 10
0.9839999999999993
 20
2.893
 30
0
 11
0.9758999999999992
 21
2.889999999999999
 31
0
  0
LINE
  8
0
 62
7
 10
0.9758999999999992
 20
2.889999999999999
 30
0
 11
0.9596999999999993
 21
2.889999999999999
 31
0
  0
LINE
  8
0
 62
7
 10
0.9596999999999993
 20
2.889999999999999
 30
0
 11
0.9515999999999991
 21
2.893
 31
0
  0
LINE
  8
0
 62
7
 10
0.9515999999999991
 20
2.893
 30
0
 11
0.9434999999999992
 21
2.899
 31
0
  0
LINE
  8
0
 62
7
 10
0.9434999999999992
 20
2.899
 30
0
 11
0.9380999999999994
 21
2.908
 31
0
  0
LINE
  8
0
 62
7
 10
0.9380999999999994
 20
2.908
 30
0
 11
0.9353999999999991
 21
2.919999999999999
 31
0
  0
LINE
  8
0
 62
7
 10
0.9353999999999991
 20
2.919999999999999
 30
0
 11
0.9353999999999991
 21
2.938
 31
0
  0
LINE
  8
0
 62
7
 10
0.9353999999999991
 20
2.979999999999999
 30
0
 11
0.9380999999999994
 21
2.992
 31
0
  0
LINE
  8
0
 62
7
 10
0.9380999999999994
 20
2.992
 30
0
 11
0.9434999999999992
 21
3.001
 31
0
  0
LINE
  8
0
 62
7
 10
0.9434999999999992
 20
3.001
 30
0
 11
0.9515999999999991
 21
3.007
 31
0
  0
LINE
  8
0
 62
7
 10
0.9515999999999991
 20
3.007
 30
0
 11
0.9596999999999993
 21
3.009999999999999
 31
0
  0
LINE
  8
0
 62
7
 10
0.9596999999999993
 20
3.009999999999999
 30
0
 11
0.9758999999999992
 21
3.009999999999999
 31
0
  0
LINE
  8
0
 62
7
 10
0.9758999999999992
 20
3.009999999999999
 30
0
 11
0.9839999999999993
 21
3.007
 31
0
  0
LINE
  8
0
 62
7
 10
0.9839999999999993
 20
3.007
 30
0
 11
0.9920999999999993
 21
3.001
 31
0
  0
LINE
  8
0
 62
7
 10
0.9920999999999993
 20
3.001
 30
0
 11
0.9974999999999992
 21
2.992
 31
0
  0
LINE
  8
0
 62
7
 10
0.9353999999999991
 20
2.938
 30
0
 11
0.9353999999999991
 21
2.979999999999999
 31
0
  0
LINE
  8
0
 62
7
 10
1.032599999999999
 20
2.992
 30
0
 11
1.037999999999999
 21
3.001
 31
0
  0
LINE
  8
0
 62
7
 10
1.037999999999999
 20
3.001
 30
0
 11
1.046099999999999
 21
3.007
 31
0
  0
LINE
  8
0
 62
7
 10
1.046099999999999
 20
3.007
 30
0
 11
1.056899999999999
 21
3.009999999999999
 31
0
  0
LINE
  8
0
 62
7
 10
1.056899999999999
 20
3.009999999999999
 30
0
 11
1.073099999999999
 21
3.009999999999999
 31
0
  0
LINE
  8
0
 62
7
 10
1.073099999999999
 20
3.009999999999999
 30
0
 11
1.081199999999999
 21
3.007
 31
0
  0
LINE
  8
0
 62
7
 10
1.081199999999999
 20
3.007
 30
0
 11
1.089299999999999
 21
3.001
 31
0
  0
LINE
  8
0
 62
7
 10
1.089299999999999
 20
3.001
 30
0
 11
1.094699999999999
 21
2.992
 31
0
  0
LINE
  8
0
 62
7
 10
1.094699999999999
 20
2.992
 30
0
 11
1.097399999999999
 21
2.979999999999999
 31
0
  0
LINE
  8
0
 62
7
 10
1.097399999999999
 20
2.979999999999999
 30
0
 11
1.097399999999999
 21
2.971
 31
0
  0
LINE
  8
0
 62
7
 10
1.097399999999999
 20
2.971
 30
0
 11
1.094699999999999
 21
2.962
 31
0
  0
LINE
  8
0
 62
7
 10
1.094699999999999
 20
2.962
 30
0
 11
1.089299999999999
 21
2.956
 31
0
  0
LINE
  8
0
 62
7
 10
1.089299999999999
 20
2.956
 30
0
 11
1.075799999999999
 21
2.949999999999999
 31
0
  0
LINE
  8
0
 62
7
 10
1.056899999999999
 20
2.949999999999999
 30
0
 11
1.075799999999999
 21
2.949999999999999
 31
0
  0
LINE
  8
0
 62
7
 10
1.075799999999999
 20
2.949999999999999
 30
0
 11
1.089299999999999
 21
2.944
 31
0
  0
LINE
  8
0
 62
7
 10
1.089299999999999
 20
2.944
 30
0
 11
1.094699999999999
 21
2.938
 31
0
  0
LINE
  8
0
 62
7
 10
1.094699999999999
 20
2.938
 30
0
 11
1.097399999999999
 21
2.929
 31
0
  0
LINE
  8
0
 62
7
 10
1.097399999999999
 20
2.929
 30
0
 11
1.097399999999999
 21
2.919999999999999
 31
0
  0
LINE
  8
0
 62
7
 10
1.097399999999999
 20
2.919999999999999
 30
0
 11
1.094699999999999
 21
2.908
 31
0
  0
LINE
  8
0
 62
7
 10
1.094699999999999
 20
2.908
 30
0
 11
1.089299999999999
 21
2.899
 31
0
  0
LINE
  8
0
 62
7
 10
1.089299999999999
 20
2.899
 30
0
 11
1.081199999999999
 21
2.893
 31
0
  0
LINE
  8
0
 62
7
 10
1.081199999999999
 20
2.893
 30
0
 11
1.073099999999999
 21
2.889999999999999
 31
0
  0
LINE
  8
0
 62
7
 10
1.073099999999999
 20
2.889999999999999
 30
0
 11
1.056899999999999
 21
2.889999999999999
 31
0
  0
LINE
  8
0
 62
7
 10
1.056899999999999
 20
2.889999999999999
 30
0
 11
1.046099999999999
 21
2.893
 31
0
  0
LINE
  8
0
 62
7
 10
1.046099999999999
 20
2.893
 30
0
 11
1.037999999999999
 21
2.899
 31
0
  0
LINE
  8
0
 62
7
 10
1.037999999999999
 20
2.899
 30
0
 11
1.032599999999999
 21
2.908
 31
0
  0
LINE
  8
0
 62
7
 10
1.194599999999999
 20
2.889999999999999
 30
0
 11
1.129799999999999
 21
2.889999999999999
 31
0
  0
LINE
  8
0
 62
7
 10
1.129799999999999
 20
2.889999999999999
 30
0
 11
1.129799999999999
 21
3.009999999999999
 31
0
  0
LINE
  8
0
 62
7
 10
1.226999999999999
 20
2.938
 30
0
 11
1.229699999999999
 21
2.949999999999999
 31
0
  0
LINE
  8
0
 62
7
 10
1.229699999999999
 20
2.949999999999999
 30
0
 11
1.235099999999999
 21
2.959
 31
0
  0
LINE
  8
0
 62
7
 10
1.235099999999999
 20
2.959
 30
0
 11
1.243199999999999
 21
2.964999999999999
 31
0
  0
LINE
  8
0
 62
7
 10
1.243199999999999
 20
2.964999999999999
 30
0
 11
1.251299999999999
 21
2.968
 31
0
  0
LINE
  8
0
 62
7
 10
1.251299999999999
 20
2.968
 30
0
 11
1.267499999999999
 21
2.968
 31
0
  0
LINE
  8
0
 62
7
 10
1.267499999999999
 20
2.968
 30
0
 11
1.275599999999999
 21
2.964999999999999
 31
0
  0
LINE
  8
0
 62
7
 10
1.275599999999999
 20
2.964999999999999
 30
0
 11
1.283699999999999
 21
2.959
 31
0
  0
LINE
  8
0
 62
7
 10
1.283699999999999
 20
2.959
 30
0
 11
1.289099999999999
 21
2.949999999999999
 31
0
  0
LINE
  8
0
 62
7
 10
1.289099999999999
 20
2.949999999999999
 30
0
 11
1.291799999999999
 21
2.938
 31
0
  0
LINE
  8
0
 62
7
 10
1.291799999999999
 20
2.938
 30
0
 11
1.291799999999999
 21
2.919999999999999
 31
0
  0
LINE
  8
0
 62
7
 10
1.291799999999999
 20
2.919999999999999
 30
0
 11
1.289099999999999
 21
2.908
 31
0
  0
LINE
  8
0
 62
7
 10
1.289099999999999
 20
2.908
 30
0
 11
1.283699999999999
 21
2.899
 31
0
  0
LINE
  8
0
 62
7
 10
1.283699999999999
 20
2.899
 30
0
 11
1.275599999999999
 21
2.893
 31
0
  0
LINE
  8
0
 62
7
 10
1.275599999999999
 20
2.893
 30
0
 11
1.267499999999999
 21
2.889999999999999
 31
0
  0
LINE
  8
0
 62
7
 10
1.267499999999999
 20
2.889999999999999
 30
0
 11
1.251299999999999
 21
2.889999999999999
 31
0
  0
LINE
  8
0
 62
7
 10
1.251299999999999
 20
2.889999999999999
 30
0
 11
1.243199999999999
 21
2.893
 31
0
  0
LINE
  8
0
 62
7
 10
1.243199999999999
 20
2.893
 30
0
 11
1.235099999999999
 21
2.899
 31
0
  0
LINE
  8
0
 62
7
 10
1.235099999999999
 20
2.899
 30
0
 11
1.229699999999999
 21
2.908
 31
0
  0
LINE
  8
0
 62
7
 10
1.229699999999999
 20
2.908
 30
0
 11
1.226999999999999
 21
2.919999999999999
 31
0
  0
LINE
  8
0
 62
7
 10
1.226999999999999
 20
2.919999999999999
 30
0
 11
1.226999999999999
 21
2.938
 31
0
  0
LINE
  8
0
 62
7
 10
1.226999999999999
 20
2.979999999999999
 30
0
 11
1.229699999999999
 21
2.992
 31
0
  0
LINE
  8
0
 62
7
 10
1.229699999999999
 20
2.992
 30
0
 11
1.235099999999999
 21
3.001
 31
0
  0
LINE
  8
0
 62
7
 10
1.235099999999999
 20
3.001
 30
0
 11
1.243199999999999
 21
3.007
 31
0
  0
LINE
  8
0
 62
7
 10
1.243199999999999
 20
3.007
 30
0
 11
1.251299999999999
 21
3.009999999999999
 31
0
  0
LINE
  8
0
 62
7
 10
1.251299999999999
 20
3.009999999999999
 30
0
 11
1.267499999999999
 21
3.009999999999999
 31
0
  0
LINE
  8
0
 62
7
 10
1.267499999999999
 20
3.009999999999999
 30
0
 11
1.275599999999999
 21
3.007
 31
0
  0
LINE
  8
0
 62
7
 10
1.275599999999999
 20
3.007
 30
0
 11
1.283699999999999
 21
3.001
 31
0
  0
LINE
  8
0
 62
7
 10
1.283699999999999
 20
3.001
 30
0
 11
1.289099999999999
 21
2.992
 31
0
  0
LINE
  8
0
 62
7
 10
1.226999999999999
 20
2.938
 30
0
 11
1.226999999999999
 21
2.979999999999999
 31
0
  0
LINE
  8
0
 62
7
 10
3.024999999999999
 20
2.889999999999999
 30
0
 11
3.024999999999999
 21
2.989999999999999
 31
0
  0
LINE
  8
0
 62
7
 10
3.024999999999999
 20
2.989999999999999
 30
0
 11
3.088
 21
2.889999999999999
 31
0
  0
LINE
  8
0
 62
7
 10
3.088
 20
2.889999999999999
 30
0
 11
3.088
 21
2.989999999999999
 31
0
  0
LINE
  8
0
 62
7
 10
3.168999999999999
 20
2.889999999999999
 30
0
 11
3.114999999999999
 21
2.889999999999999
 31
0
  0
LINE
  8
0
 62
7
 10
3.114999999999999
 20
2.889999999999999
 30
0
 11
3.114999999999999
 21
2.989999999999999
 31
0
  0
LINE
  8
0
 62
7
 10
3.195999999999999
 20
2.94
 30
0
 11
3.231999999999999
 21
2.94
 31
0
  0
LINE
  8
0
 62
7
 10
3.231999999999999
 20
2.94
 30
0
 11
3.236499999999999
 21
2.94
 31
0
  0
LINE
  8
0
 62
7
 10
3.236499999999999
 20
2.94
 30
0
 11
3.2455
 21
2.934999999999999
 31
0
  0
LINE
  8
0
 62
7
 10
3.2455
 20
2.934999999999999
 30
0
 11
3.25
 21
2.929999999999999
 31
0
  0
LINE
  8
0
 62
7
 10
3.25
 20
2.929999999999999
 30
0
 11
3.254499999999999
 21
2.919999999999999
 31
0
  0
LINE
  8
0
 62
7
 10
3.254499999999999
 20
2.919999999999999
 30
0
 11
3.254499999999999
 21
2.909999999999999
 31
0
  0
LINE
  8
0
 62
7
 10
3.254499999999999
 20
2.909999999999999
 30
0
 11
3.25
 21
2.899999999999999
 31
0
  0
LINE
  8
0
 62
7
 10
3.25
 20
2.899999999999999
 30
0
 11
3.2455
 21
2.895
 31
0
  0
LINE
  8
0
 62
7
 10
3.2455
 20
2.895
 30
0
 11
3.236499999999999
 21
2.889999999999999
 31
0
  0
LINE
  8
0
 62
7
 10
3.236499999999999
 20
2.889999999999999
 30
0
 11
3.195999999999999
 21
2.889999999999999
 31
0
  0
LINE
  8
0
 62
7
 10
3.195999999999999
 20
2.889999999999999
 30
0
 11
3.195999999999999
 21
2.94
 31
0
  0
LINE
  8
0
 62
7
 10
3.195999999999999
 20
2.989999999999999
 30
0
 11
3.229749999999999
 21
2.989999999999999
 31
0
  0
LINE
  8
0
 62
7
 10
3.229749999999999
 20
2.989999999999999
 30
0
 11
3.240999999999999
 21
2.987499999999999
 31
0
  0
LINE
  8
0
 62
7
 10
3.240999999999999
 20
2.987499999999999
 30
0
 11
3.247749999999999
 21
2.979999999999999
 31
0
  0
LINE
  8
0
 62
7
 10
3.247749999999999
 20
2.979999999999999
 30
0
 11
3.25
 21
2.969999999999999
 31
0
  0
LINE
  8
0
 62
7
 10
3.25
 20
2.969999999999999
 30
0
 11
3.25
 21
2.959999999999999
 31
0
  0
LINE
  8
0
 62
7
 10
3.25
 20
2.959999999999999
 30
0
 11
3.2455
 21
2.949999999999999
 31
0
  0
LINE
  8
0
 62
7
 10
3.2455
 20
2.949999999999999
 30
0
 11
3.238749999999999
 21
2.942499999999999
 31
0
  0
LINE
  8
0
 62
7
 10
3.238749999999999
 20
2.942499999999999
 30
0
 11
3.231999999999999
 21
2.94
 31
0
  0
LINE
  8
0
 62
7
 10
3.195999999999999
 20
2.94
 30
0
 11
3.195999999999999
 21
2.989999999999999
 31
0
  0
LINE
  8
0
 62
7
 10
3.396249999999999
 20
2.942499999999999
 30
0
 11
3.389499999999999
 21
2.952499999999999
 31
0
  0
LINE
  8
0
 62
7
 10
3.389499999999999
 20
2.952499999999999
 30
0
 11
3.38275
 21
2.9575
 31
0
  0
LINE
  8
0
 62
7
 10
3.38275
 20
2.9575
 30
0
 11
3.375999999999999
 21
2.959999999999999
 31
0
  0
LINE
  8
0
 62
7
 10
3.375999999999999
 20
2.959999999999999
 30
0
 11
3.366999999999999
 21
2.959999999999999
 31
0
  0
LINE
  8
0
 62
7
 10
3.366999999999999
 20
2.959999999999999
 30
0
 11
3.360249999999999
 21
2.9575
 31
0
  0
LINE
  8
0
 62
7
 10
3.360249999999999
 20
2.9575
 30
0
 11
3.353499999999999
 21
2.952499999999999
 31
0
  0
LINE
  8
0
 62
7
 10
3.353499999999999
 20
2.952499999999999
 30
0
 11
3.34675
 21
2.942499999999999
 31
0
  0
LINE
  8
0
 62
7
 10
3.34675
 20
2.942499999999999
 30
0
 11
3.344499999999999
 21
2.934999999999999
 31
0
  0
LINE
  8
0
 62
7
 10
3.344499999999999
 20
2.934999999999999
 30
0
 11
3.344499999999999
 21
2.914999999999999
 31
0
  0
LINE
  8
0
 62
7
 10
3.344499999999999
 20
2.914999999999999
 30
0
 11
3.34675
 21
2.907499999999999
 31
0
  0
LINE
  8
0
 62
7
 10
3.34675
 20
2.907499999999999
 30
0
 11
3.353499999999999
 21
2.897499999999999
 31
0
  0
LINE
  8
0
 62
7
 10
3.353499999999999
 20
2.897499999999999
 30
0
 11
3.360249999999999
 21
2.892499999999999
 31
0
  0
LINE
  8
0
 62
7
 10
3.360249999999999
 20
2.892499999999999
 30
0
 11
3.366999999999999
 21
2.889999999999999
 31
0
  0
LINE
  8
0
 62
7
 10
3.366999999999999
 20
2.889999999999999
 30
0
 11
3.375999999999999
 21
2.889999999999999
 31
0
  0
LINE
  8
0
 62
7
 10
3.375999999999999
 20
2.889999999999999
 30
0
 11
3.38275
 21
2.892499999999999
 31
0
  0
LINE
  8
0
 62
7
 10
3.38275
 20
2.892499999999999
 30
0
 11
3.389499999999999
 21
2.897499999999999
 31
0
  0
LINE
  8
0
 62
7
 10
3.389499999999999
 20
2.897499999999999
 30
0
 11
3.396249999999999
 21
2.907499999999999
 31
0
  0
LINE
  8
0
 62
7
 10
3.468249999999999
 20
2.934999999999999
 30
0
 11
3.465999999999999
 21
2.942499999999999
 31
0
  0
LINE
  8
0
 62
7
 10
3.465999999999999
 20
2.942499999999999
 30
0
 11
3.45925
 21
2.952499999999999
 31
0
  0
LINE
  8
0
 62
7
 10
3.45925
 20
2.952499999999999
 30
0
 11
3.452499999999999
 21
2.9575
 31
0
  0
LINE
  8
0
 62
7
 10
3.452499999999999
 20
2.9575
 30
0
 11
3.445749999999999
 21
2.959999999999999
 31
0
  0
LINE
  8
0
 62
7
 10
3.445749999999999
 20
2.959999999999999
 30
0
 11
3.43675
 21
2.959999999999999
 31
0
  0
LINE
  8
0
 62
7
 10
3.43675
 20
2.959999999999999
 30
0
 11
3.429999999999999
 21
2.9575
 31
0
  0
LINE
  8
0
 62
7
 10
3.429999999999999
 20
2.9575
 30
0
 11
3.423249999999999
 21
2.952499999999999
 31
0
  0
LINE
  8
0
 62
7
 10
3.423249999999999
 20
2.952499999999999
 30
0
 11
3.416499999999999
 21
2.942499999999999
 31
0
  0
LINE
  8
0
 62
7
 10
3.416499999999999
 20
2.942499999999999
 30
0
 11
3.41425
 21
2.934999999999999
 31
0
  0
LINE
  8
0
 62
7
 10
3.41425
 20
2.934999999999999
 30
0
 11
3.41425
 21
2.914999999999999
 31
0
  0
LINE
  8
0
 62
7
 10
3.41425
 20
2.914999999999999
 30
0
 11
3.416499999999999
 21
2.907499999999999
 31
0
  0
LINE
  8
0
 62
7
 10
3.416499999999999
 20
2.907499999999999
 30
0
 11
3.423249999999999
 21
2.897499999999999
 31
0
  0
LINE
  8
0
 62
7
 10
3.423249999999999
 20
2.897499999999999
 30
0
 11
3.429999999999999
 21
2.892499999999999
 31
0
  0
LINE
  8
0
 62
7
 10
3.429999999999999
 20
2.892499999999999
 30
0
 11
3.43675
 21
2.889999999999999
 31
0
  0
LINE
  8
0
 62
7
 10
3.43675
 20
2.889999999999999
 30
0
 11
3.445749999999999
 21
2.889999999999999
 31
0
  0
LINE
  8
0
 62
7
 10
3.445749999999999
 20
2.889999999999999
 30
0
 11
3.452499999999999
 21
2.892499999999999
 31
0
  0
LINE
  8
0
 62
7
 10
3.452499999999999
 20
2.892499999999999
 30
0
 11
3.45925
 21
2.897499999999999
 31
0
  0
LINE
  8
0
 62
7
 10
3.45925
 20
2.897499999999999
 30
0
 11
3.465999999999999
 21
2.907499999999999
 31
0
  0
LINE
  8
0
 62
7
 10
3.465999999999999
 20
2.907499999999999
 30
0
 11
3.468249999999999
 21
2.914999999999999
 31
0
  0
LINE
  8
0
 62
7
 10
3.468249999999999
 20
2.959999999999999
 30
0
 11
3.468249999999999
 21
2.934999999999999
 31
0
  0
LINE
  8
0
 62
7
 10
3.468249999999999
 20
2.892499999999999
 30
0
 11
3.4705
 21
2.889999999999999
 31
0
  0
LINE
  8
0
 62
7
 10
3.4705
 20
2.889999999999999
 30
0
 11
3.47275
 21
2.889999999999999
 31
0
  0
LINE
  8
0
 62
7
 10
3.468249999999999
 20
2.914999999999999
 30
0
 11
3.468249999999999
 21
2.892499999999999
 31
0
  0
LINE
  8
0
 62
7
 10
3.468249999999999
 20
2.934999999999999
 30
0
 11
3.468249999999999
 21
2.914999999999999
 31
0
  0
LINE
  8
0
 62
7
 10
3.490749999999998
 20
2.889999999999999
 30
0
 11
3.490749999999998
 21
2.892499999999999
 31
0
  0
LINE
  8
0
 62
7
 10
3.490749999999998
 20
2.892499999999999
 30
0
 11
3.493
 21
2.892499999999999
 31
0
  0
LINE
  8
0
 62
7
 10
3.493
 20
2.892499999999999
 30
0
 11
3.493
 21
2.889999999999999
 31
0
  0
LINE
  8
0
 62
7
 10
3.493
 20
2.889999999999999
 30
0
 11
3.490749999999998
 21
2.889999999999999
 31
0
  0
LINE
  8
0
 62
7
 10
3.616750000000001
 20
2.989999999999999
 30
0
 11
3.625749999999999
 21
2.989999999999999
 31
0
  0
LINE
  8
0
 62
7
 10
3.625749999999999
 20
2.989999999999999
 30
0
 11
3.632499999999999
 21
2.987499999999999
 31
0
  0
LINE
  8
0
 62
7
 10
3.632499999999999
 20
2.987499999999999
 30
0
 11
3.636999999999999
 21
2.982499999999999
 31
0
  0
LINE
  8
0
 62
7
 10
3.636999999999999
 20
2.982499999999999
 30
0
 11
3.641499999999999
 21
2.975
 31
0
  0
LINE
  8
0
 62
7
 10
3.641499999999999
 20
2.975
 30
0
 11
3.641499999999999
 21
2.964999999999999
 31
0
  0
LINE
  8
0
 62
7
 10
3.641499999999999
 20
2.964999999999999
 30
0
 11
3.63925
 21
2.959999999999999
 31
0
  0
LINE
  8
0
 62
7
 10
3.63925
 20
2.959999999999999
 30
0
 11
3.632499999999999
 21
2.952499999999999
 31
0
  0
LINE
  8
0
 62
7
 10
3.632499999999999
 20
2.952499999999999
 30
0
 11
3.625749999999999
 21
2.949999999999999
 31
0
  0
LINE
  8
0
 62
7
 10
3.625749999999999
 20
2.949999999999999
 30
0
 11
3.616750000000001
 21
2.949999999999999
 31
0
  0
LINE
  8
0
 62
7
 10
3.616750000000001
 20
2.949999999999999
 30
0
 11
3.609999999999999
 21
2.952499999999999
 31
0
  0
LINE
  8
0
 62
7
 10
3.609999999999999
 20
2.952499999999999
 30
0
 11
3.603249999999999
 21
2.959999999999999
 31
0
  0
LINE
  8
0
 62
7
 10
3.603249999999999
 20
2.959999999999999
 30
0
 11
3.600999999999999
 21
2.964999999999999
 31
0
  0
LINE
  8
0
 62
7
 10
3.600999999999999
 20
2.964999999999999
 30
0
 11
3.600999999999999
 21
2.975
 31
0
  0
LINE
  8
0
 62
7
 10
3.600999999999999
 20
2.975
 30
0
 11
3.6055
 21
2.982499999999999
 31
0
  0
LINE
  8
0
 62
7
 10
3.6055
 20
2.982499999999999
 30
0
 11
3.609999999999999
 21
2.987499999999999
 31
0
  0
LINE
  8
0
 62
7
 10
3.609999999999999
 20
2.987499999999999
 30
0
 11
3.616750000000001
 21
2.989999999999999
 31
0
  0
LINE
  8
0
 62
7
 10
3.616750000000001
 20
2.949999999999999
 30
0
 11
3.6055
 21
2.944999999999999
 31
0
  0
LINE
  8
0
 62
7
 10
3.6055
 20
2.944999999999999
 30
0
 11
3.598749999999999
 21
2.9375
 31
0
  0
LINE
  8
0
 62
7
 10
3.598749999999999
 20
2.9375
 30
0
 11
3.594250000000001
 21
2.927499999999999
 31
0
  0
LINE
  8
0
 62
7
 10
3.594250000000001
 20
2.927499999999999
 30
0
 11
3.594250000000001
 21
2.9125
 31
0
  0
LINE
  8
0
 62
7
 10
3.594250000000001
 20
2.9125
 30
0
 11
3.598749999999999
 21
2.902499999999999
 31
0
  0
LINE
  8
0
 62
7
 10
3.598749999999999
 20
2.902499999999999
 30
0
 11
3.6055
 21
2.895
 31
0
  0
LINE
  8
0
 62
7
 10
3.6055
 20
2.895
 30
0
 11
3.614499999999999
 21
2.889999999999999
 31
0
  0
LINE
  8
0
 62
7
 10
3.614499999999999
 20
2.889999999999999
 30
0
 11
3.628
 21
2.889999999999999
 31
0
  0
LINE
  8
0
 62
7
 10
3.628
 20
2.889999999999999
 30
0
 11
3.636999999999999
 21
2.895
 31
0
  0
LINE
  8
0
 62
7
 10
3.636999999999999
 20
2.895
 30
0
 11
3.643749999999999
 21
2.902499999999999
 31
0
  0
LINE
  8
0
 62
7
 10
3.643749999999999
 20
2.902499999999999
 30
0
 11
3.648249999999999
 21
2.9125
 31
0
  0
LINE
  8
0
 62
7
 10
3.648249999999999
 20
2.9125
 30
0
 11
3.648249999999999
 21
2.927499999999999
 31
0
  0
LINE
  8
0
 62
7
 10
3.648249999999999
 20
2.927499999999999
 30
0
 11
3.643749999999999
 21
2.9375
 31
0
  0
LINE
  8
0
 62
7
 10
3.643749999999999
 20
2.9375
 30
0
 11
3.636999999999999
 21
2.944999999999999
 31
0
  0
LINE
  8
0
 62
7
 10
3.636999999999999
 20
2.944999999999999
 30
0
 11
3.625749999999999
 21
2.949999999999999
 31
0
  0
LINE
  8
0
 62
7
 10
3.738249999999999
 20
2.949999999999999
 30
0
 11
3.735999999999999
 21
2.94
 31
0
  0
LINE
  8
0
 62
7
 10
3.735999999999999
 20
2.94
 30
0
 11
3.731499999999999
 21
2.932499999999999
 31
0
  0
LINE
  8
0
 62
7
 10
3.731499999999999
 20
2.932499999999999
 30
0
 11
3.72475
 21
2.927499999999999
 31
0
  0
LINE
  8
0
 62
7
 10
3.72475
 20
2.927499999999999
 30
0
 11
3.718
 21
2.924999999999999
 31
0
  0
LINE
  8
0
 62
7
 10
3.718
 20
2.924999999999999
 30
0
 11
3.704499999999999
 21
2.924999999999999
 31
0
  0
LINE
  8
0
 62
7
 10
3.704499999999999
 20
2.924999999999999
 30
0
 11
3.697749999999999
 21
2.927499999999999
 31
0
  0
LINE
  8
0
 62
7
 10
3.697749999999999
 20
2.927499999999999
 30
0
 11
3.690999999999999
 21
2.932499999999999
 31
0
  0
LINE
  8
0
 62
7
 10
3.690999999999999
 20
2.932499999999999
 30
0
 11
3.6865
 21
2.94
 31
0
  0
LINE
  8
0
 62
7
 10
3.6865
 20
2.94
 30
0
 11
3.68425
 21
2.949999999999999
 31
0
  0
LINE
  8
0
 62
7
 10
3.68425
 20
2.949999999999999
 30
0
 11
3.68425
 21
2.964999999999999
 31
0
  0
LINE
  8
0
 62
7
 10
3.68425
 20
2.964999999999999
 30
0
 11
3.6865
 21
2.975
 31
0
  0
LINE
  8
0
 62
7
 10
3.6865
 20
2.975
 30
0
 11
3.690999999999999
 21
2.982499999999999
 31
0
  0
LINE
  8
0
 62
7
 10
3.690999999999999
 20
2.982499999999999
 30
0
 11
3.697749999999999
 21
2.987499999999999
 31
0
  0
LINE
  8
0
 62
7
 10
3.697749999999999
 20
2.987499999999999
 30
0
 11
3.704499999999999
 21
2.989999999999999
 31
0
  0
LINE
  8
0
 62
7
 10
3.704499999999999
 20
2.989999999999999
 30
0
 11
3.718
 21
2.989999999999999
 31
0
  0
LINE
  8
0
 62
7
 10
3.718
 20
2.989999999999999
 30
0
 11
3.72475
 21
2.987499999999999
 31
0
  0
LINE
  8
0
 62
7
 10
3.72475
 20
2.987499999999999
 30
0
 11
3.731499999999999
 21
2.982499999999999
 31
0
  0
LINE
  8
0
 62
7
 10
3.731499999999999
 20
2.982499999999999
 30
0
 11
3.735999999999999
 21
2.975
 31
0
  0
LINE
  8
0
 62
7
 10
3.735999999999999
 20
2.975
 30
0
 11
3.738249999999999
 21
2.964999999999999
 31
0
  0
LINE
  8
0
 62
7
 10
3.738249999999999
 20
2.964999999999999
 30
0
 11
3.738249999999999
 21
2.949999999999999
 31
0
  0
LINE
  8
0
 62
7
 10
3.738249999999999
 20
2.914999999999999
 30
0
 11
3.735999999999999
 21
2.904999999999999
 31
0
  0
LINE
  8
0
 62
7
 10
3.735999999999999
 20
2.904999999999999
 30
0
 11
3.731499999999999
 21
2.897499999999999
 31
0
  0
LINE
  8
0
 62
7
 10
3.731499999999999
 20
2.897499999999999
 30
0
 11
3.72475
 21
2.892499999999999
 31
0
  0
LINE
  8
0
 62
7
 10
3.72475
 20
2.892499999999999
 30
0
 11
3.718
 21
2.889999999999999
 31
0
  0
LINE
  8
0
 62
7
 10
3.718
 20
2.889999999999999
 30
0
 11
3.704499999999999
 21
2.889999999999999
 31
0
  0
LINE
  8
0
 62
7
 10
3.704499999999999
 20
2.889999999999999
 30
0
 11
3.697749999999999
 21
2.892499999999999
 31
0
  0
LINE
  8
0
 62
7
 10
3.697749999999999
 20
2.892499999999999
 30
0
 11
3.690999999999999
 21
2.897499999999999
 31
0
  0
LINE
  8
0
 62
7
 10
3.690999999999999
 20
2.897499999999999
 30
0
 11
3.6865
 21
2.904999999999999
 31
0
  0
LINE
  8
0
 62
7
 10
3.738249999999999
 20
2.949999999999999
 30
0
 11
3.738249999999999
 21
2.914999999999999
 31
0
  0
LINE
  8
0
 62
7
 10
3.888999999999999
 20
2.942499999999999
 30
0
 11
3.882249999999999
 21
2.952499999999999
 31
0
  0
LINE
  8
0
 62
7
 10
3.882249999999999
 20
2.952499999999999
 30
0
 11
3.875500000000001
 21
2.9575
 31
0
  0
LINE
  8
0
 62
7
 10
3.875500000000001
 20
2.9575
 30
0
 11
3.868749999999999
 21
2.959999999999999
 31
0
  0
LINE
  8
0
 62
7
 10
3.868749999999999
 20
2.959999999999999
 30
0
 11
3.859749999999999
 21
2.959999999999999
 31
0
  0
LINE
  8
0
 62
7
 10
3.859749999999999
 20
2.959999999999999
 30
0
 11
3.853
 21
2.9575
 31
0
  0
LINE
  8
0
 62
7
 10
3.853
 20
2.9575
 30
0
 11
3.84625
 21
2.952499999999999
 31
0
  0
LINE
  8
0
 62
7
 10
3.84625
 20
2.952499999999999
 30
0
 11
3.839499999999999
 21
2.942499999999999
 31
0
  0
LINE
  8
0
 62
7
 10
3.839499999999999
 20
2.942499999999999
 30
0
 11
3.83725
 21
2.934999999999999
 31
0
  0
LINE
  8
0
 62
7
 10
3.83725
 20
2.934999999999999
 30
0
 11
3.83725
 21
2.914999999999999
 31
0
  0
LINE
  8
0
 62
7
 10
3.83725
 20
2.914999999999999
 30
0
 11
3.839499999999999
 21
2.907499999999999
 31
0
  0
LINE
  8
0
 62
7
 10
3.839499999999999
 20
2.907499999999999
 30
0
 11
3.84625
 21
2.897499999999999
 31
0
  0
LINE
  8
0
 62
7
 10
3.84625
 20
2.897499999999999
 30
0
 11
3.853
 21
2.892499999999999
 31
0
  0
LINE
  8
0
 62
7
 10
3.853
 20
2.892499999999999
 30
0
 11
3.859749999999999
 21
2.889999999999999
 31
0
  0
LINE
  8
0
 62
7
 10
3.859749999999999
 20
2.889999999999999
 30
0
 11
3.868749999999999
 21
2.889999999999999
 31
0
  0
LINE
  8
0
 62
7
 10
3.868749999999999
 20
2.889999999999999
 30
0
 11
3.875500000000001
 21
2.892499999999999
 31
0
  0
LINE
  8
0
 62
7
 10
3.875500000000001
 20
2.892499999999999
 30
0
 11
3.882249999999999
 21
2.897499999999999
 31
0
  0
LINE
  8
0
 62
7
 10
3.882249999999999
 20
2.897499999999999
 30
0
 11
3.888999999999999
 21
2.907499999999999
 31
0
  0
LINE
  8
0
 62
7
 10
3.9475
 20
2.934999999999999
 30
0
 11
3.9475
 21
2.889999999999999
 31
0
  0
LINE
  8
0
 62
7
 10
3.906999999999999
 20
2.959999999999999
 30
0
 11
3.906999999999999
 21
2.934999999999999
 31
0
  0
LINE
  8
0
 62
7
 10
3.906999999999999
 20
2.889999999999999
 30
0
 11
3.906999999999999
 21
2.934999999999999
 31
0
  0
LINE
  8
0
 62
7
 10
3.906999999999999
 20
2.934999999999999
 30
0
 11
3.90925
 21
2.947499999999999
 31
0
  0
LINE
  8
0
 62
7
 10
3.90925
 20
2.947499999999999
 30
0
 11
3.9115
 21
2.952499999999999
 31
0
  0
LINE
  8
0
 62
7
 10
3.9115
 20
2.952499999999999
 30
0
 11
3.915999999999999
 21
2.9575
 31
0
  0
LINE
  8
0
 62
7
 10
3.915999999999999
 20
2.9575
 30
0
 11
3.922749999999999
 21
2.959999999999999
 31
0
  0
LINE
  8
0
 62
7
 10
3.922749999999999
 20
2.959999999999999
 30
0
 11
3.931750000000001
 21
2.959999999999999
 31
0
  0
LINE
  8
0
 62
7
 10
3.931750000000001
 20
2.959999999999999
 30
0
 11
3.938499999999999
 21
2.9575
 31
0
  0
LINE
  8
0
 62
7
 10
3.938499999999999
 20
2.9575
 30
0
 11
3.943
 21
2.952499999999999
 31
0
  0
LINE
  8
0
 62
7
 10
3.943
 20
2.952499999999999
 30
0
 11
3.94525
 21
2.947499999999999
 31
0
  0
LINE
  8
0
 62
7
 10
3.94525
 20
2.947499999999999
 30
0
 11
3.9475
 21
2.934999999999999
 31
0
  0
LINE
  8
0
 62
7
 10
3.9475
 20
2.934999999999999
 30
0
 11
3.94975
 21
2.947499999999999
 31
0
  0
LINE
  8
0
 62
7
 10
3.94975
 20
2.947499999999999
 30
0
 11
3.951999999999999
 21
2.952499999999999
 31
0
  0
LINE
  8
0
 62
7
 10
3.951999999999999
 20
2.952499999999999
 30
0
 11
3.956499999999999
 21
2.9575
 31
0
  0
LINE
  8
0
 62
7
 10
3.956499999999999
 20
2.9575
 30
0
 11
3.963249999999999
 21
2.959999999999999
 31
0
  0
LINE
  8
0
 62
7
 10
3.963249999999999
 20
2.959999999999999
 30
0
 11
3.972249999999999
 21
2.959999999999999
 31
0
  0
LINE
  8
0
 62
7
 10
3.972249999999999
 20
2.959999999999999
 30
0
 11
3.978999999999999
 21
2.9575
 31
0
  0
LINE
  8
0
 62
7
 10
3.983499999999999
 20
2.952499999999999
 30
0
 11
3.978999999999999
 21
2.9575
 31
0
  0
LINE
  8
0
 62
7
 10
3.978999999999999
 20
2.9575
 30
0
 11
3.983499999999999
 21
2.952499999999999
 31
0
  0
LINE
  8
0
 62
7
 10
3.983499999999999
 20
2.952499999999999
 30
0
 11
3.985749999999999
 21
2.947499999999999
 31
0
  0
LINE
  8
0
 62
7
 10
3.985749999999999
 20
2.947499999999999
 30
0
 11
3.988
 21
2.934999999999999
 31
0
  0
LINE
  8
0
 62
7
 10
3.988
 20
2.934999999999999
 30
0
 11
3.988
 21
2.889999999999999
 31
0
  0
ARC
  8
0
 62
7
 10
2.905027872388769
 20
4.055027872388771
 30
0
 40
0.5000000000000038
 50
359.9968060542865
 51
90.00319394157411
  0
ARC
  8
0
 62
7
 10
2.279972127611231
 20
4.055027872388771
 30
0
 40
0.4999999999999986
 50
89.99680606224734
 51
180.0031939415756
  0
CIRCLE
  8
0
 62
7
 10
3.4050278716119
 20
3.25
 30
0
 40
0.06000000000000005
  0
DIMENSION
  8
0
  6
CONTINUOUS
 62
7
  2
*D0
  3
DMST_1
 10
0.748409120677936
 20
5.060000000000002
 30
0
 11
0.748409120677936
 21
4.20964373034122
 31
0
 12
0
 22
0
 32
0
 70
0
 13
1.099999999999999
 23
3.35
 33
0
 14
1.099999999999999
 24
5.060000000000002
 34
0
 50
90
 53
0
  0
DIMENSION
  8
0
  6
CONTINUOUS
 62
7
  2
*D1
  3
DMST_1
 10
3.91
 20
6.11550052333501
 30
0
 11
2.595804048855971
 21
6.11550052333501
 31
0
 12
0
 22
0
 32
0
 70
0
 13
1.274999999999999
 23
5.579999999999998
 33
0
 14
3.91
 24
5.579999999999998
 34
0
 53
0
  0
DIMENSION
  8
0
  6
CONTINUOUS
 62
7
  2
*D2
  3
DMST_1
 10
4.3730447392551
 20
5.06
 30
0
 11
4.3730447392551
 21
4.20964373034122
 31
0
 12
0
 22
0
 32
0
 70
0
 13
4.085
 23
3.25
 33
0
 14
4.085
 24
5.06
 34
0
 50
90
 53
0
  0
DIMENSION
  8
0
  6
CONTINUOUS
 62
7
  2
*D3
  3
DMST_2
 10
1.274999999999999
 20
11.4589149674955
 30
0
 11
2.58411167589282
 21
11.4589149674955
 31
0
 12
0
 22
0
 32
0
 70
0
 13
3.91
 23
11.2
 33
0
 14
1.274999999999999
 24
11.2
 34
0
 53
0
  0
INSERT
  8
0
  2
*D4
 10
0
 20
0
 30
0
  0
ENDSEC
  0
EOF
