  0
SECTION
  2
HEADER
  9
$ACADVER
  1
AC1009
  9
$INSBASE
 10
0
 20
0
  9
$EXTMIN
 10
0.45
 20
2.889999999999999
  9
$EXTMAX
 10
8.214911013881771
 20
11.4916488754044
  9
$LIMMIN
 10
0.45
 20
2.889999999999999
  9
$LIMMAX
 10
8.214911013881771
 20
11.4916488754044
  9
$VIEWCTR
 10
10
 20
10
  9
$VIEWSIZE
 40
10
  9
$SNAPMODE
 70
0
  9
$SNAPUNIT
 10
1
 20
1
  9
$SNAPBASE
 10
0
 20
0
  9
$SNAPANG
 50
0
  9
$SNAPSTYLE
 70
0
  9
$SNAPISOPAIR
 70
0
  9
$GRIDMODE
 70
0
  9
$GRIDUNIT
 10
0
 20
0
  9
$ORTHOMODE
 70
0
  9
$REGENMODE
 70
1
  9
$FILLMODE
 70
1
  9
$QTEXTMODE
 70
0
  9
$DRAGMODE
 70
2
  9
$LTSCALE
 40
1
  9
$OSMODE
 70
0
  9
$ATTMODE
 70
1
  9
$TEXTSIZE
 40
3.5
  9
$TRACEWID
 40
0.5
  9
$TEXTSTYLE
  7
STANDARD
  9
$CLAYER
  8
0
  9
$CELTYPE
  6
BYLAYER
  9
$CECOLOR
 62
256
  9
$DIMSCALE
 40
1
  9
$DIMASZ
 40
0.18
  9
$DIMEXO
 40
0.0625
  9
$DIMDLI
 40
0.38
  9
$DIMRND
 40
0
  9
$DIMDLE
 40
0
  9
$DIMEXE
 40
0.18
  9
$DIMTP
 40
0
  9
$DIMTM
 40
0
  9
$DIMTXT
 40
0.18
  9
$DIMCEN
 40
0.09
  9
$DIMTSZ
 40
0
  9
$DIMTOL
 70
0
  9
$DIMLIM
 70
0
  9
$DIMTIH
 70
1
  9
$DIMTOH
 70
1
  9
$DIMSE1
 70
0
  9
$DIMSE2
 70
0
  9
$DIMTAD
 70
0
  9
$DIMZIN
 70
0
  9
$DIMBLK
  1

  9
$DIMASO
 70
1
  9
$DIMSHO
 70
1
  9
$DIMPOST
  1

  9
$DIMAPOST
  1

  9
$DIMALT
 70
0
  9
$DIMALTD
 70
2
  9
$DIMALTF
 40
25.4
  9
$DIMLFAC
 40
1
  9
$DIMTOFL
 70
0
  9
$DIMTVP
 40
0
  9
$DIMTIX
 70
0
  9
$DIMSOXD
 70
0
  9
$DIMSAH
 70
0
  9
$DIMBLK1
  1

  9
$DIMBLK2
  1

  9
$DIMSTYLE
  2
*UNNAMED
  9
$DIMCLRD
 70
0
  9
$DIMCLRE
 70
0
  9
$DIMCLRT
 70
0
  9
$DIMTFAC
 40
1
  9
$DIMGAP
 40
0.09
  9
$LUNITS
 70
2
  9
$LUPREC
 70
4
  9
$AXISMODE
 70
0
  9
$AXISUNIT
 10
0
 20
0
  9
$SKETCHINC
 40
0.1
  9
$FILLETRAD
 40
2
  9
$AUNITS
 70
0
  9
$AUPREC
 70
0
  9
$MENU
  1
ACAD
  9
$ELEVATION
 40
0
  9
$THICKNESS
 40
0
  9
$VIEWDIR
 10
0
 20
0
 30
1
  9
$LIMCHECK
 70
0
  9
$BLIPMODE
 70
1
  9
$CHAMFERA
 40
0
  9
$CHAMFERB
 40
0
  9
$FASTZOOM
 70
1
  9
$SKPOLY
 70
0
  9
$ANGBASE
 50
0
  9
$ANGDIR
 70
0
  9
$PDMODE
 70
0
  9
$PDSIZE
 40
0
  9
$PLINEWID
 40
0
  9
$COORDS
 70
2
  0
ENDSEC
  0
SECTION
  2
TABLES
  0
TABLE
  2
DIMSTYLE
 70
2
  0
DIMSTYLE
  2
DMST_1
 70
0
  3

  4

  5

  6

  7

 40
1
 41
0.1
 42
0
 43
0.7
 44
0.2
 45
0
 46
0
 47
0
 48
0
140
0.1
141
0
142
0.1
143
25.4
144
1
145
0
146
1
147
0.25
 71
0
 72
0
 73
0
 74
0
 75
0
 76
0
 77
0
 78
9
170
0
171
2
172
0
173
0
174
0
175
0
176
7
177
7
178
7
  0
DIMSTYLE
  2
DMST_2
 70
0
  3

  4

  5

  6

  7

 40
1
 41
0.1
 42
0
 43
0.7
 44
0.2
 45
0
 46
0
 47
0
 48
0
140
0.1
141
0
142
0.1
143
25.4
144
1
145
0
146
1
147
0.2
 71
0
 72
0
 73
0
 74
0
 75
0
 76
0
 77
0
 78
9
170
0
171
2
172
0
173
0
174
0
175
0
176
7
177
7
178
7
  0
ENDTAB
  0
TABLE
  2
LTYPE
 70
9
  0
LTYPE
  2
CONTINUOUS
 70
64
  3
Solid line
 72
65
 73
0
 40
0
  0
LTYPE
  2
BORDER
 70
64
  3
__ __ . __ __ .
 72
65
 73
6
 40
0.3961285666304658
 49
0.1131795904658474
 49
-0.05658979523292369
 49
0.1131795904658474
 49
-0.05658979523292369
 49
0
 49
-0.05658979523292369
  0
LTYPE
  2
CENTER
 70
64
  3
____ _ ____ _
 72
65
 73
4
 40
0.4527183618633895
 49
0.2829489761646184
 49
-0.05658979523292369
 49
0.05658979523292369
 49
-0.05658979523292369
  0
LTYPE
  2
DASHDOT
 70
64
  3
__ . __ . __ .
 72
65
 73
4
 40
0.2263591809316947
 49
0.1131795904658474
 49
-0.05658979523292369
 49
0
 49
-0.05658979523292369
  0
LTYPE
  2
DASHED
 70
64
  3
__ __ __ __ __
 72
65
 73
2
 40
0.1697693856987711
 49
0.1131795904658474
 49
-0.05658979523292369
  0
LTYPE
  2
DIVIDE
 70
64
  3
__ . . __ . . 
 72
65
 73
6
 40
0.2829489761646184
 49
0.1131795904658474
 49
-0.05658979523292369
 49
0
 49
-0.05658979523292369
 49
0
 49
-0.05658979523292369
  0
LTYPE
  2
DOT
 70
64
  3
..............
 72
65
 73
4
 40
0.1131795904658474
 49
0
 49
-0.05658979523292369
 49
0
 49
-0.05658979523292369
  0
LTYPE
  2
HIDDEN
 70
64
  3
_ _ _ _ _ _ _
 72
65
 73
2
 40
0.08488469284938553
 49
0.05658979523292369
 49
-0.02829489761646184
  0
LTYPE
  2
PHANTOM
 70
64
  3
_____ _ _ _____ _ _ 
 72
65
 73
6
 40
0.5658979523292369
 49
0.2829489761646184
 49
-0.05658979523292369
 49
0.05658979523292369
 49
-0.05658979523292369
 49
0.05658979523292369
 49
-0.05658979523292369
  0
ENDTAB
  0
TABLE
  2
LAYER
 70
2
  0
LAYER
  2
0
 70
0
 62
7
  6
CONTINUOUS
  0
ENDTAB
  0
TABLE
  2
STYLE
 70
4
  0
STYLE
  2
STANDARD
 70
0
 40
0
 41
1
 50
0
 71
0
 42
3.5
  3
txt
  4

  0
STYLE
  2
SIMPLEX
 70
0
 40
0
 41
1
 50
0
 71
0
 42
3.5
  3
simplex
  4

  0
STYLE
  2
COMPLEX
 70
0
 40
0
 41
1
 50
0
 71
0
 42
3.5
  3
complex
  4

  0
STYLE
  2
ITALIC
 70
0
 40
0
 41
1
 50
0
 71
0
 42
3.5
  3
italic
  4

  0
ENDTAB
  0
TABLE
  2
VIEW
 70
0
  0
ENDTAB
  0
ENDSEC
  0
SECTION
  2
BLOCKS
  0
BLOCK
  8
0
  2
*X0
 70
1
 10
0
 20
0
 30
0
  0
LINE
  8
0
 62
7
  6
DASHED
 10
0.5
 20
8.242819253992694
 30
0
 11
0.5571807460073046
 21
8.299999999999999
 31
0
  0
LINE
  8
0
 62
7
  6
DASHED
 10
0.5693127803632705
 20
8.100000000000001
 30
0
 11
0.7399999999999998
 21
8.270687219636729
 31
0
  0
LINE
  8
0
 62
7
 10
0.5
 20
8.136753236814712
 30
0
 11
0.6632467631852874
 21
8.299999999999999
 31
0
  0
LINE
  8
0
 62
7
 10
0.6753787975412515
 20
8.099999999999998
 30
0
 11
0.7400000000000007
 21
8.164621202458747
 31
0
  0
ENDBLK
  8
0
  0
BLOCK
  8
0
  2
*X1
 70
1
 10
0
 20
0
 30
0
  0
LINE
  8
0
 62
7
  6
DASHED
 10
0.4999999999999991
 20
11.00053570062023
 30
0
 11
0.5494642993797729
 21
11.05
 31
0
  0
LINE
  8
0
 62
7
  6
DASHED
 10
0.5615963337357357
 20
10.85
 30
0
 11
0.7399999999999993
 21
11.02840366626426
 31
0
  0
LINE
  8
0
 62
7
 10
0.5000000000000009
 20
10.89446968344225
 30
0
 11
0.655530316557754
 21
11.05
 31
0
  0
LINE
  8
0
 62
7
 10
0.6676623509137176
 20
10.85
 30
0
 11
0.7400000000000002
 21
10.92233764908628
 31
0
  0
ENDBLK
  8
0
  0
BLOCK
  8
0
  2
*X2
 70
1
 10
0
 20
0
 30
0
  0
LINE
  8
0
 62
7
  6
DASHED
 10
2.449999999999999
 20
11.04134739141655
 30
0
 11
2.458652608583451
 21
11.05
 31
0
  0
LINE
  8
0
 62
7
  6
DASHED
 10
2.470784642939413
 20
10.85
 30
0
 11
2.670784642939415
 21
11.05
 31
0
  0
LINE
  8
0
 62
7
  6
DASHED
 10
2.682916677295378
 20
10.85
 30
0
 11
2.749999999999999
 21
10.91708332270462
 31
0
  0
LINE
  8
0
 62
7
 10
2.449999999999999
 20
10.93528137423857
 30
0
 11
2.564718625761432
 21
11.05
 31
0
  0
LINE
  8
0
 62
7
 10
2.576850660117396
 20
10.85
 30
0
 11
2.75
 21
11.0231493398826
 31
0
  0
ENDBLK
  8
0
  0
BLOCK
  8
0
  2
*X3
 70
1
 10
0
 20
0
 30
0
  0
LINE
  8
0
 62
7
  6
DASHED
 10
2.450000000000001
 20
8.283630944789017
 30
0
 11
2.466369055210981
 21
8.299999999999999
 31
0
  0
LINE
  8
0
 62
7
  6
DASHED
 10
2.478501089566947
 20
8.099999999999998
 30
0
 11
2.678501089566946
 21
8.299999999999999
 31
0
  0
LINE
  8
0
 62
7
  6
DASHED
 10
2.690633123922912
 20
8.099999999999998
 30
0
 11
2.75
 21
8.159366876077087
 31
0
  0
LINE
  8
0
 62
7
 10
2.450000000000001
 20
8.177564927611035
 30
0
 11
2.572435072388966
 21
8.299999999999999
 31
0
  0
LINE
  8
0
 62
7
 10
2.584567106744931
 20
8.1
 30
0
 11
2.75
 21
8.26543289325507
 31
0
  0
ENDBLK
  8
0
  0
BLOCK
  8
0
  2
*X4
 70
1
 10
0
 20
0
 30
0
  0
LINE
  8
0
 62
7
 10
0.549464299379772
 20
11.05
 30
0
 11
0.6994642993797706
 21
11.2
 31
0
  0
LINE
  8
0
 62
7
 10
0.5
 20
11.10660171779821
 30
0
 11
0.5933982822017896
 21
11.2
 31
0
  0
LINE
  8
0
 62
7
 10
0.655530316557754
 20
11.05
 30
0
 11
0.7400000000000002
 21
11.13446968344225
 31
0
  0
ENDBLK
  8
0
  0
BLOCK
  8
0
  2
*X5
 70
1
 10
0
 20
0
 30
0
  0
LINE
  8
0
 62
7
 10
0.5000000000000004
 20
10.78840366626426
 30
0
 11
0.5615963337357339
 21
10.85
 31
0
  0
LINE
  8
0
 62
7
 10
0.5000000000000004
 20
10.5762716319083
 30
0
 11
0.7400000000000002
 21
10.8162716319083
 31
0
  0
LINE
  8
0
 62
7
 10
0.5000000000000004
 20
10.36413959755233
 30
0
 11
0.7400000000000002
 21
10.60413959755233
 31
0
  0
LINE
  8
0
 62
7
 10
0.5000000000000004
 20
10.15200756319637
 30
0
 11
0.7400000000000002
 21
10.39200756319637
 31
0
  0
LINE
  8
0
 62
7
 10
0.5000000000000004
 20
9.939875528840407
 30
0
 11
0.7400000000000002
 21
10.17987552884041
 31
0
  0
LINE
  8
0
 62
7
 10
0.5000000000000004
 20
9.727743494484443
 30
0
 11
0.7400000000000002
 21
9.967743494484441
 31
0
  0
LINE
  8
0
 62
7
 10
0.5000000000000004
 20
9.515611460128479
 30
0
 11
0.7400000000000002
 21
9.755611460128478
 31
0
  0
LINE
  8
0
 62
7
 10
0.5000000000000004
 20
9.303479425772515
 30
0
 11
0.7400000000000002
 21
9.543479425772514
 31
0
  0
LINE
  8
0
 62
7
 10
0.5000000000000004
 20
9.091347391416551
 30
0
 11
0.7400000000000002
 21
9.33134739141655
 31
0
  0
LINE
  8
0
 62
7
 10
0.5000000000000004
 20
8.879215357060588
 30
0
 11
0.7400000000000002
 21
9.119215357060586
 31
0
  0
LINE
  8
0
 62
7
 10
0.5000000000000004
 20
8.667083322704624
 30
0
 11
0.7400000000000002
 21
8.907083322704622
 31
0
  0
LINE
  8
0
 62
7
 10
0.5000000000000004
 20
8.45495128834866
 30
0
 11
0.7400000000000002
 21
8.694951288348658
 31
0
  0
LINE
  8
0
 62
7
 10
0.5571807460073046
 20
8.299999999999999
 30
0
 11
0.7400000000000002
 21
8.482819253992695
 31
0
  0
LINE
  8
0
 62
7
 10
0.5
 20
10.68233764908628
 30
0
 11
0.6676623509137176
 21
10.85
 31
0
  0
LINE
  8
0
 62
7
 10
0.5
 20
10.47020561473031
 30
0
 11
0.7399999999999998
 21
10.71020561473031
 31
0
  0
LINE
  8
0
 62
7
 10
0.5
 20
10.25807358037435
 30
0
 11
0.7399999999999998
 21
10.49807358037435
 31
0
  0
LINE
  8
0
 62
7
 10
0.5
 20
10.04594154601839
 30
0
 11
0.7399999999999998
 21
10.28594154601839
 31
0
  0
LINE
  8
0
 62
7
 10
0.5
 20
9.833809511662423
 30
0
 11
0.7399999999999998
 21
10.07380951166242
 31
0
  0
LINE
  8
0
 62
7
 10
0.5
 20
9.621677477306459
 30
0
 11
0.7399999999999998
 21
9.861677477306458
 31
0
  0
LINE
  8
0
 62
7
 10
0.5
 20
9.409545442950495
 30
0
 11
0.7399999999999998
 21
9.649545442950494
 31
0
  0
LINE
  8
0
 62
7
 10
0.5
 20
9.197413408594532
 30
0
 11
0.7399999999999998
 21
9.43741340859453
 31
0
  0
LINE
  8
0
 62
7
 10
0.5
 20
8.985281374238568
 30
0
 11
0.7399999999999998
 21
9.225281374238566
 31
0
  0
LINE
  8
0
 62
7
 10
0.5
 20
8.773149339882604
 30
0
 11
0.7399999999999998
 21
9.013149339882602
 31
0
  0
LINE
  8
0
 62
7
 10
0.5
 20
8.56101730552664
 30
0
 11
0.7399999999999998
 21
8.801017305526639
 31
0
  0
LINE
  8
0
 62
7
 10
0.5
 20
8.348885271170676
 30
0
 11
0.7399999999999998
 21
8.588885271170675
 31
0
  0
LINE
  8
0
 62
7
 10
0.6632467631852879
 20
8.299999999999999
 30
0
 11
0.7399999999999998
 21
8.376753236814711
 31
0
  0
ENDBLK
  8
0
  0
BLOCK
  8
0
  2
*X6
 70
1
 10
0
 20
0
 30
0
  0
LINE
  8
0
 62
7
 10
0.5
 20
8.03068721963673
 30
0
 11
0.5693127803632692
 21
8.1
 31
0
  0
LINE
  8
0
 62
7
 10
0.6314448147192331
 20
7.949999999999999
 30
0
 11
0.7399999999999998
 21
8.058555185280765
 31
0
  0
LINE
  8
0
 62
7
 10
0.5253787975412521
 20
7.949999999999999
 30
0
 11
0.6753787975412515
 21
8.099999999999998
 31
0
  0
LINE
  8
0
 62
7
 10
0.7375108318972163
 20
7.949999999999999
 30
0
 11
0.7399999999999993
 21
7.952489168102783
 31
0
  0
ENDBLK
  8
0
  0
BLOCK
  8
0
  2
*X7
 70
1
 10
0
 20
0
 30
0
  0
LINE
  8
0
 62
7
  6
DASHED
 10
4.464999999999999
 20
10.93502704785691
 30
0
 11
4.579972952143101
 21
11.05
 31
0
  0
LINE
  8
0
 62
7
  6
DASHED
 10
4.592104986499063
 20
10.85
 30
0
 11
4.792104986499065
 21
11.05
 31
0
  0
LINE
  8
0
 62
7
  6
DASHED
 10
4.804237020855027
 20
10.85
 30
0
 11
5.004237020855029
 21
11.05
 31
0
  0
LINE
  8
0
 62
7
  6
DASHED
 10
5.016369055210991
 20
10.85
 30
0
 11
5.216369055210992
 21
11.05
 31
0
  0
LINE
  8
0
 62
7
  6
DASHED
 10
5.228501089566954
 20
10.85
 30
0
 11
5.428501089566956
 21
11.05
 31
0
  0
LINE
  8
0
 62
7
  6
DASHED
 10
5.440633123922918
 20
10.85
 30
0
 11
5.64063312392292
 21
11.05
 31
0
  0
LINE
  8
0
 62
7
  6
DASHED
 10
5.652765158278882
 20
10.85
 30
0
 11
5.852765158278884
 21
11.05
 31
0
  0
LINE
  8
0
 62
7
  6
DASHED
 10
5.864897192634846
 20
10.85
 30
0
 11
6.064897192634848
 21
11.05
 31
0
  0
LINE
  8
0
 62
7
  6
DASHED
 10
6.07702922699081
 20
10.85
 30
0
 11
6.277029226990812
 21
11.05
 31
0
  0
LINE
  8
0
 62
7
  6
DASHED
 10
6.289161261346774
 20
10.85
 30
0
 11
6.489161261346776
 21
11.05
 31
0
  0
LINE
  8
0
 62
7
  6
DASHED
 10
6.501293295702737
 20
10.85
 30
0
 11
6.701293295702739
 21
11.05
 31
0
  0
LINE
  8
0
 62
7
  6
DASHED
 10
6.713425330058701
 20
10.85
 30
0
 11
6.913425330058703
 21
11.05
 31
0
  0
LINE
  8
0
 62
7
  6
DASHED
 10
6.925557364414665
 20
10.85
 30
0
 11
7.125557364414667
 21
11.05
 31
0
  0
LINE
  8
0
 62
7
  6
DASHED
 10
7.137689398770629
 20
10.85
 30
0
 11
7.337689398770631
 21
11.05
 31
0
  0
LINE
  8
0
 62
7
  6
DASHED
 10
7.349821433126593
 20
10.85
 30
0
 11
7.549821433126595
 21
11.05
 31
0
  0
LINE
  8
0
 62
7
  6
DASHED
 10
7.561953467482557
 20
10.85
 30
0
 11
7.75
 21
11.03804653251744
 31
0
  0
LINE
  8
0
 62
7
 10
4.464999999999999
 20
11.04109306503489
 30
0
 11
4.473906934965116
 21
11.05
 31
0
  0
LINE
  8
0
 62
7
 10
4.48603896932108
 20
10.85
 30
0
 11
4.68603896932108
 21
11.05
 31
0
  0
LINE
  8
0
 62
7
 10
4.698171003677044
 20
10.85
 30
0
 11
4.898171003677044
 21
11.05
 31
0
  0
LINE
  8
0
 62
7
 10
4.910303038033008
 20
10.85
 30
0
 11
5.110303038033008
 21
11.05
 31
0
  0
LINE
  8
0
 62
7
 10
5.122435072388972
 20
10.85
 30
0
 11
5.322435072388972
 21
11.05
 31
0
  0
LINE
  8
0
 62
7
 10
5.334567106744935
 20
10.85
 30
0
 11
5.534567106744936
 21
11.05
 31
0
  0
LINE
  8
0
 62
7
 10
5.546699141100899
 20
10.85
 30
0
 11
5.746699141100899
 21
11.05
 31
0
  0
LINE
  8
0
 62
7
 10
5.758831175456863
 20
10.85
 30
0
 11
5.958831175456863
 21
11.05
 31
0
  0
LINE
  8
0
 62
7
 10
5.970963209812827
 20
10.85
 30
0
 11
6.170963209812827
 21
11.05
 31
0
  0
LINE
  8
0
 62
7
 10
6.183095244168791
 20
10.85
 30
0
 11
6.383095244168791
 21
11.05
 31
0
  0
LINE
  8
0
 62
7
 10
6.395227278524755
 20
10.85
 30
0
 11
6.595227278524755
 21
11.05
 31
0
  0
LINE
  8
0
 62
7
 10
6.607359312880718
 20
10.85
 30
0
 11
6.807359312880719
 21
11.05
 31
0
  0
LINE
  8
0
 62
7
 10
6.819491347236682
 20
10.85
 30
0
 11
7.019491347236682
 21
11.05
 31
0
  0
LINE
  8
0
 62
7
 10
7.031623381592646
 20
10.85
 30
0
 11
7.231623381592646
 21
11.05
 31
0
  0
LINE
  8
0
 62
7
 10
7.24375541594861
 20
10.85
 30
0
 11
7.44375541594861
 21
11.05
 31
0
  0
LINE
  8
0
 62
7
 10
7.455887450304574
 20
10.85
 30
0
 11
7.655887450304574
 21
11.05
 31
0
  0
LINE
  8
0
 62
7
 10
7.668019484660538
 20
10.85
 30
0
 11
7.749999999999999
 21
10.93198051533946
 31
0
  0
ENDBLK
  8
0
  0
BLOCK
  8
0
  2
*X8
 70
1
 10
0
 20
0
 30
0
  0
LINE
  8
0
 62
7
  6
DASHED
 10
4.465000000000001
 20
8.177310601229374
 30
0
 11
4.587689398770632
 21
8.299999999999999
 31
0
  0
LINE
  8
0
 62
7
  6
DASHED
 10
4.599821433126596
 20
8.1
 30
0
 11
4.799821433126596
 21
8.299999999999999
 31
0
  0
LINE
  8
0
 62
7
  6
DASHED
 10
4.81195346748256
 20
8.1
 30
0
 11
5.011953467482559
 21
8.299999999999999
 31
0
  0
LINE
  8
0
 62
7
  6
DASHED
 10
5.024085501838524
 20
8.1
 30
0
 11
5.224085501838523
 21
8.299999999999999
 31
0
  0
LINE
  8
0
 62
7
  6
DASHED
 10
5.236217536194488
 20
8.1
 30
0
 11
5.436217536194487
 21
8.299999999999999
 31
0
  0
LINE
  8
0
 62
7
  6
DASHED
 10
5.448349570550452
 20
8.1
 30
0
 11
5.648349570550451
 21
8.299999999999999
 31
0
  0
LINE
  8
0
 62
7
  6
DASHED
 10
5.660481604906415
 20
8.1
 30
0
 11
5.860481604906415
 21
8.299999999999999
 31
0
  0
LINE
  8
0
 62
7
  6
DASHED
 10
5.872613639262379
 20
8.1
 30
0
 11
6.072613639262379
 21
8.299999999999999
 31
0
  0
LINE
  8
0
 62
7
  6
DASHED
 10
6.084745673618343
 20
8.1
 30
0
 11
6.284745673618342
 21
8.299999999999999
 31
0
  0
LINE
  8
0
 62
7
  6
DASHED
 10
6.296877707974307
 20
8.1
 30
0
 11
6.496877707974306
 21
8.299999999999999
 31
0
  0
LINE
  8
0
 62
7
  6
DASHED
 10
6.509009742330271
 20
8.1
 30
0
 11
6.70900974233027
 21
8.299999999999999
 31
0
  0
LINE
  8
0
 62
7
  6
DASHED
 10
6.721141776686235
 20
8.1
 30
0
 11
6.921141776686234
 21
8.299999999999999
 31
0
  0
LINE
  8
0
 62
7
  6
DASHED
 10
6.933273811042199
 20
8.1
 30
0
 11
7.133273811042198
 21
8.299999999999999
 31
0
  0
LINE
  8
0
 62
7
  6
DASHED
 10
7.145405845398162
 20
8.1
 30
0
 11
7.345405845398162
 21
8.299999999999999
 31
0
  0
LINE
  8
0
 62
7
  6
DASHED
 10
7.357537879754126
 20
8.1
 30
0
 11
7.557537879754125
 21
8.299999999999999
 31
0
  0
LINE
  8
0
 62
7
  6
DASHED
 10
7.56966991411009
 20
8.1
 30
0
 11
7.75
 21
8.28033008588991
 31
0
  0
LINE
  8
0
 62
7
 10
4.465000000000001
 20
8.283376618407356
 30
0
 11
4.481623381592651
 21
8.299999999999999
 31
0
  0
LINE
  8
0
 62
7
 10
4.493755415948616
 20
8.1
 30
0
 11
4.693755415948615
 21
8.299999999999999
 31
0
  0
LINE
  8
0
 62
7
 10
4.70588745030458
 20
8.1
 30
0
 11
4.905887450304578
 21
8.299999999999999
 31
0
  0
LINE
  8
0
 62
7
 10
4.918019484660544
 20
8.1
 30
0
 11
5.118019484660542
 21
8.299999999999999
 31
0
  0
LINE
  8
0
 62
7
 10
5.130151519016508
 20
8.1
 30
0
 11
5.330151519016506
 21
8.299999999999999
 31
0
  0
LINE
  8
0
 62
7
 10
5.342283553372472
 20
8.1
 30
0
 11
5.54228355337247
 21
8.299999999999999
 31
0
  0
LINE
  8
0
 62
7
 10
5.554415587728435
 20
8.1
 30
0
 11
5.754415587728434
 21
8.299999999999999
 31
0
  0
LINE
  8
0
 62
7
 10
5.766547622084399
 20
8.1
 30
0
 11
5.966547622084398
 21
8.299999999999999
 31
0
  0
LINE
  8
0
 62
7
 10
5.978679656440363
 20
8.1
 30
0
 11
6.178679656440361
 21
8.299999999999999
 31
0
  0
LINE
  8
0
 62
7
 10
6.190811690796327
 20
8.1
 30
0
 11
6.390811690796325
 21
8.299999999999999
 31
0
  0
LINE
  8
0
 62
7
 10
6.402943725152291
 20
8.1
 30
0
 11
6.602943725152289
 21
8.299999999999999
 31
0
  0
LINE
  8
0
 62
7
 10
6.615075759508255
 20
8.1
 30
0
 11
6.815075759508253
 21
8.299999999999999
 31
0
  0
LINE
  8
0
 62
7
 10
6.827207793864218
 20
8.1
 30
0
 11
7.027207793864217
 21
8.299999999999999
 31
0
  0
LINE
  8
0
 62
7
 10
7.039339828220182
 20
8.1
 30
0
 11
7.239339828220181
 21
8.299999999999999
 31
0
  0
LINE
  8
0
 62
7
 10
7.251471862576146
 20
8.1
 30
0
 11
7.451471862576144
 21
8.299999999999999
 31
0
  0
LINE
  8
0
 62
7
 10
7.46360389693211
 20
8.1
 30
0
 11
7.663603896932108
 21
8.299999999999999
 31
0
  0
LINE
  8
0
 62
7
 10
7.675735931288074
 20
8.1
 30
0
 11
7.75
 21
8.174264068711928
 31
0
  0
ENDBLK
  8
0
  0
BLOCK
  8
0
  2
*X9
 70
1
 10
0
 20
0
 30
0
  0
LINE
  8
0
 62
7
 10
4.615
 20
11.08502704785691
 30
0
 11
4.729972952143092
 21
11.2
 31
0
  0
LINE
  8
0
 62
7
 10
4.614999999999999
 20
11.19109306503489
 30
0
 11
4.623906934965108
 21
11.2
 31
0
  0
LINE
  8
0
 62
7
 10
4.686038969321075
 20
11.05
 30
0
 11
4.790000000000003
 21
11.15396103067893
 31
0
  0
ENDBLK
  8
0
  0
BLOCK
  8
0
  2
*X10
 70
1
 10
0
 20
0
 30
0
  0
LINE
  8
0
 62
7
 10
4.614999999999999
 20
10.66076297914497
 30
0
 11
4.789999999999999
 21
10.83576297914498
 31
0
  0
LINE
  8
0
 62
7
 10
4.614999999999999
 20
10.44863094478901
 30
0
 11
4.789999999999999
 21
10.62363094478901
 31
0
  0
LINE
  8
0
 62
7
 10
4.614999999999999
 20
10.23649891043305
 30
0
 11
4.789999999999999
 21
10.41149891043305
 31
0
  0
LINE
  8
0
 62
7
 10
4.614999999999999
 20
10.02436687607708
 30
0
 11
4.789999999999999
 21
10.19936687607708
 31
0
  0
LINE
  8
0
 62
7
 10
4.614999999999999
 20
9.81223484172112
 30
0
 11
4.789999999999999
 21
9.98723484172112
 31
0
  0
LINE
  8
0
 62
7
 10
4.614999999999999
 20
9.600102807365156
 30
0
 11
4.789999999999999
 21
9.775102807365156
 31
0
  0
LINE
  8
0
 62
7
 10
4.614999999999999
 20
9.387970773009192
 30
0
 11
4.789999999999999
 21
9.562970773009193
 31
0
  0
LINE
  8
0
 62
7
 10
4.614999999999999
 20
9.175838738653228
 30
0
 11
4.789999999999999
 21
9.350838738653229
 31
0
  0
LINE
  8
0
 62
7
 10
4.614999999999999
 20
8.963706704297264
 30
0
 11
4.789999999999999
 21
9.138706704297265
 31
0
  0
LINE
  8
0
 62
7
 10
4.614999999999999
 20
8.7515746699413
 30
0
 11
4.789999999999999
 21
8.926574669941301
 31
0
  0
LINE
  8
0
 62
7
 10
4.614999999999999
 20
8.539442635585337
 30
0
 11
4.789999999999999
 21
8.714442635585337
 31
0
  0
LINE
  8
0
 62
7
 10
4.614999999999999
 20
8.327310601229373
 30
0
 11
4.789999999999999
 21
8.502310601229373
 31
0
  0
LINE
  8
0
 62
7
 10
4.615
 20
10.76682899632296
 30
0
 11
4.698171003677036
 21
10.85
 31
0
  0
LINE
  8
0
 62
7
 10
4.615
 20
10.55469696196699
 30
0
 11
4.790000000000001
 21
10.72969696196699
 31
0
  0
LINE
  8
0
 62
7
 10
4.615
 20
10.34256492761103
 30
0
 11
4.790000000000001
 21
10.51756492761103
 31
0
  0
LINE
  8
0
 62
7
 10
4.615
 20
10.13043289325507
 30
0
 11
4.790000000000001
 21
10.30543289325507
 31
0
  0
LINE
  8
0
 62
7
 10
4.615
 20
9.918300858899103
 30
0
 11
4.790000000000001
 21
10.0933008588991
 31
0
  0
LINE
  8
0
 62
7
 10
4.615
 20
9.706168824543139
 30
0
 11
4.790000000000001
 21
9.881168824543138
 31
0
  0
LINE
  8
0
 62
7
 10
4.615
 20
9.494036790187176
 30
0
 11
4.790000000000001
 21
9.669036790187175
 31
0
  0
LINE
  8
0
 62
7
 10
4.615
 20
9.281904755831212
 30
0
 11
4.790000000000001
 21
9.456904755831211
 31
0
  0
LINE
  8
0
 62
7
 10
4.615
 20
9.069772721475248
 30
0
 11
4.790000000000001
 21
9.244772721475247
 31
0
  0
LINE
  8
0
 62
7
 10
4.615
 20
8.857640687119284
 30
0
 11
4.790000000000001
 21
9.032640687119283
 31
0
  0
LINE
  8
0
 62
7
 10
4.615
 20
8.64550865276332
 30
0
 11
4.790000000000001
 21
8.820508652763319
 31
0
  0
LINE
  8
0
 62
7
 10
4.615
 20
8.433376618407356
 30
0
 11
4.790000000000001
 21
8.608376618407355
 31
0
  0
LINE
  8
0
 62
7
 10
4.693755415948607
 20
8.299999999999997
 30
0
 11
4.790000000000001
 21
8.396244584051392
 31
0
  0
ENDBLK
  8
0
  0
BLOCK
  8
0
  2
*X11
 70
1
 10
0
 20
0
 30
0
  0
LINE
  8
0
 62
7
 10
4.661953467482554
 20
7.949999999999999
 30
0
 11
4.789999999999999
 21
8.078046532517444
 31
0
  0
LINE
  8
0
 62
7
 10
4.615
 20
8.009112549695427
 30
0
 11
4.705887450304573
 21
8.1
 31
0
  0
LINE
  8
0
 62
7
 10
4.768019484660536
 20
7.949999999999999
 30
0
 11
4.790000000000001
 21
7.971980515339462
 31
0
  0
ENDBLK
  8
0
  0
BLOCK
  8
0
  2
*X12
 70
1
 10
0
 20
0
 30
0
  0
LINE
  8
0
 62
7
 10
7.425000000000002
 20
11.13731060122938
 30
0
 11
7.487689398770626
 21
11.2
 31
0
  0
LINE
  8
0
 62
7
 10
7.549821433126593
 20
11.05
 30
0
 11
7.600000000000002
 21
11.10017856687341
 31
0
  0
LINE
  8
0
 62
7
 10
7.44375541594861
 20
11.05
 30
0
 11
7.593755415948609
 21
11.2
 31
0
  0
ENDBLK
  8
0
  0
BLOCK
  8
0
  2
*X13
 70
1
 10
0
 20
0
 30
0
  0
LINE
  8
0
 62
7
 10
7.425
 20
10.71304653251744
 30
0
 11
7.561953467482555
 21
10.85
 31
0
  0
LINE
  8
0
 62
7
 10
7.425
 20
10.50091449816148
 30
0
 11
7.600000000000002
 21
10.67591449816148
 31
0
  0
LINE
  8
0
 62
7
 10
7.425
 20
10.28878246380551
 30
0
 11
7.600000000000002
 21
10.46378246380551
 31
0
  0
LINE
  8
0
 62
7
 10
7.425
 20
10.07665042944955
 30
0
 11
7.600000000000002
 21
10.25165042944955
 31
0
  0
LINE
  8
0
 62
7
 10
7.425
 20
9.864518395093585
 30
0
 11
7.600000000000002
 21
10.03951839509359
 31
0
  0
LINE
  8
0
 62
7
 10
7.425
 20
9.652386360737621
 30
0
 11
7.600000000000002
 21
9.827386360737622
 31
0
  0
LINE
  8
0
 62
7
 10
7.425
 20
9.440254326381657
 30
0
 11
7.600000000000002
 21
9.615254326381658
 31
0
  0
LINE
  8
0
 62
7
 10
7.425
 20
9.228122292025693
 30
0
 11
7.600000000000002
 21
9.403122292025694
 31
0
  0
LINE
  8
0
 62
7
 10
7.425
 20
9.01599025766973
 30
0
 11
7.600000000000002
 21
9.19099025766973
 31
0
  0
LINE
  8
0
 62
7
 10
7.425
 20
8.803858223313766
 30
0
 11
7.600000000000002
 21
8.978858223313766
 31
0
  0
LINE
  8
0
 62
7
 10
7.425
 20
8.591726188957802
 30
0
 11
7.600000000000002
 21
8.766726188957803
 31
0
  0
LINE
  8
0
 62
7
 10
7.425
 20
8.379594154601838
 30
0
 11
7.600000000000002
 21
8.554594154601839
 31
0
  0
LINE
  8
0
 62
7
 10
7.557537879754125
 20
8.299999999999999
 30
0
 11
7.600000000000002
 21
8.342462120245875
 31
0
  0
LINE
  8
0
 62
7
 10
7.425
 20
10.81911254969542
 30
0
 11
7.455887450304573
 21
10.85
 31
0
  0
LINE
  8
0
 62
7
 10
7.425
 20
10.60698051533946
 30
0
 11
7.600000000000001
 21
10.78198051533946
 31
0
  0
LINE
  8
0
 62
7
 10
7.425
 20
10.39484848098349
 30
0
 11
7.600000000000001
 21
10.56984848098349
 31
0
  0
LINE
  8
0
 62
7
 10
7.425
 20
10.18271644662753
 30
0
 11
7.600000000000001
 21
10.35771644662753
 31
0
  0
LINE
  8
0
 62
7
 10
7.425
 20
9.970584412271567
 30
0
 11
7.600000000000001
 21
10.14558441227157
 31
0
  0
LINE
  8
0
 62
7
 10
7.425
 20
9.758452377915603
 30
0
 11
7.600000000000001
 21
9.933452377915602
 31
0
  0
LINE
  8
0
 62
7
 10
7.425
 20
9.546320343559639
 30
0
 11
7.600000000000001
 21
9.721320343559638
 31
0
  0
LINE
  8
0
 62
7
 10
7.425
 20
9.334188309203675
 30
0
 11
7.600000000000001
 21
9.509188309203674
 31
0
  0
LINE
  8
0
 62
7
 10
7.425
 20
9.122056274847711
 30
0
 11
7.600000000000001
 21
9.29705627484771
 31
0
  0
LINE
  8
0
 62
7
 10
7.425
 20
8.909924240491748
 30
0
 11
7.600000000000001
 21
9.084924240491747
 31
0
  0
LINE
  8
0
 62
7
 10
7.425
 20
8.697792206135784
 30
0
 11
7.600000000000001
 21
8.872792206135783
 31
0
  0
LINE
  8
0
 62
7
 10
7.425
 20
8.48566017177982
 30
0
 11
7.600000000000001
 21
8.660660171779819
 31
0
  0
LINE
  8
0
 62
7
 10
7.451471862576144
 20
8.299999999999999
 30
0
 11
7.600000000000001
 21
8.448528137423855
 31
0
  0
ENDBLK
  8
0
  0
BLOCK
  8
0
  2
*X14
 70
1
 10
0
 20
0
 30
0
  0
LINE
  8
0
 62
7
 10
7.425000000000001
 20
7.955330085889911
 30
0
 11
7.56966991411009
 21
8.1
 31
0
  0
LINE
  8
0
 62
7
 10
7.425
 20
8.061396103067892
 30
0
 11
7.463603896932107
 21
8.099999999999998
 31
0
  0
LINE
  8
0
 62
7
 10
7.525735931288073
 20
7.95
 30
0
 11
7.600000000000001
 21
8.024264068711927
 31
0
  0
ENDBLK
  8
0
  0
BLOCK
  8
0
  2
*X15
 70
1
 10
0
 20
0
 30
0
  0
LINE
  8
0
 62
7
 10
4.465
 20
5.419594154601838
 30
0
 11
4.77540584539816
 21
5.729999999999999
 31
0
  0
LINE
  8
0
 62
7
 10
4.597537879754132
 20
5.340000000000001
 30
0
 11
4.837537879754129
 21
5.579999999999998
 31
0
  0
LINE
  8
0
 62
7
 10
4.809669914110096
 20
5.340000000000001
 30
0
 11
5.049669914110093
 21
5.579999999999998
 31
0
  0
LINE
  8
0
 62
7
 10
5.021801948466059
 20
5.340000000000001
 30
0
 11
5.261801948466057
 21
5.579999999999998
 31
0
  0
LINE
  8
0
 62
7
 10
5.233933982822023
 20
5.340000000000001
 30
0
 11
5.473933982822021
 21
5.579999999999998
 31
0
  0
LINE
  8
0
 62
7
 10
5.446066017177987
 20
5.340000000000001
 30
0
 11
5.686066017177985
 21
5.579999999999998
 31
0
  0
LINE
  8
0
 62
7
 10
5.658198051533951
 20
5.340000000000001
 30
0
 11
5.898198051533948
 21
5.579999999999998
 31
0
  0
LINE
  8
0
 62
7
 10
5.870330085889915
 20
5.340000000000001
 30
0
 11
6.110330085889912
 21
5.579999999999998
 31
0
  0
LINE
  8
0
 62
7
 10
6.082462120245879
 20
5.340000000000001
 30
0
 11
6.322462120245876
 21
5.579999999999998
 31
0
  0
LINE
  8
0
 62
7
 10
6.294594154601842
 20
5.340000000000001
 30
0
 11
6.53459415460184
 21
5.579999999999998
 31
0
  0
LINE
  8
0
 62
7
 10
6.506726188957806
 20
5.340000000000001
 30
0
 11
6.746726188957804
 21
5.579999999999998
 31
0
  0
LINE
  8
0
 62
7
 10
6.71885822331377
 20
5.340000000000001
 30
0
 11
6.958858223313768
 21
5.579999999999998
 31
0
  0
LINE
  8
0
 62
7
 10
6.930990257669734
 20
5.340000000000001
 30
0
 11
7.170990257669732
 21
5.579999999999998
 31
0
  0
LINE
  8
0
 62
7
 10
7.425000000000001
 20
5.621877707974304
 30
0
 11
7.533122292025696
 21
5.729999999999999
 31
0
  0
LINE
  8
0
 62
7
 10
7.143122292025698
 20
5.340000000000001
 30
0
 11
7.383122292025695
 21
5.579999999999998
 31
0
  0
LINE
  8
0
 62
7
 10
7.355254326381662
 20
5.340000000000001
 30
0
 11
7.600000000000001
 21
5.58474567361834
 31
0
  0
LINE
  8
0
 62
7
 10
7.567386360737625
 20
5.340000000000001
 30
0
 11
7.765000000000001
 21
5.537613639262377
 31
0
  0
LINE
  8
0
 62
7
 10
4.615
 20
5.67566017177982
 30
0
 11
4.669339828220179
 21
5.729999999999999
 31
0
  0
LINE
  8
0
 62
7
 10
4.465000000000001
 20
5.525660171779821
 30
0
 11
4.519339828220178
 21
5.579999999999998
 31
0
  0
LINE
  8
0
 62
7
 10
4.491471862576149
 20
5.34
 30
0
 11
4.79
 21
5.638528137423856
 31
0
  0
LINE
  8
0
 62
7
 10
4.703603896932113
 20
5.34
 30
0
 11
4.94360389693211
 21
5.579999999999997
 31
0
  0
LINE
  8
0
 62
7
 10
4.915735931288077
 20
5.34
 30
0
 11
5.155735931288074
 21
5.579999999999997
 31
0
  0
LINE
  8
0
 62
7
 10
5.12786796564404
 20
5.34
 30
0
 11
5.367867965644038
 21
5.579999999999997
 31
0
  0
LINE
  8
0
 62
7
 10
5.340000000000004
 20
5.34
 30
0
 11
5.580000000000002
 21
5.579999999999997
 31
0
  0
LINE
  8
0
 62
7
 10
5.552132034355968
 20
5.34
 30
0
 11
5.792132034355966
 21
5.579999999999997
 31
0
  0
LINE
  8
0
 62
7
 10
5.764264068711932
 20
5.34
 30
0
 11
6.00426406871193
 21
5.579999999999997
 31
0
  0
LINE
  8
0
 62
7
 10
5.976396103067896
 20
5.34
 30
0
 11
6.216396103067893
 21
5.579999999999997
 31
0
  0
LINE
  8
0
 62
7
 10
6.18852813742386
 20
5.34
 30
0
 11
6.428528137423857
 21
5.579999999999997
 31
0
  0
LINE
  8
0
 62
7
 10
6.400660171779823
 20
5.34
 30
0
 11
6.640660171779821
 21
5.579999999999997
 31
0
  0
LINE
  8
0
 62
7
 10
6.612792206135787
 20
5.34
 30
0
 11
6.852792206135785
 21
5.579999999999997
 31
0
  0
LINE
  8
0
 62
7
 10
6.824924240491751
 20
5.34
 30
0
 11
7.064924240491749
 21
5.579999999999997
 31
0
  0
LINE
  8
0
 62
7
 10
7.425
 20
5.727943725152285
 30
0
 11
7.427056274847713
 21
5.729999999999998
 31
0
  0
LINE
  8
0
 62
7
 10
7.037056274847715
 20
5.34
 30
0
 11
7.277056274847713
 21
5.579999999999997
 31
0
  0
LINE
  8
0
 62
7
 10
7.249188309203679
 20
5.34
 30
0
 11
7.600000000000001
 21
5.690811690796322
 31
0
  0
LINE
  8
0
 62
7
 10
7.461320343559643
 20
5.34
 30
0
 11
7.701320343559641
 21
5.579999999999998
 31
0
  0
LINE
  8
0
 62
7
 10
7.673452377915607
 20
5.34
 30
0
 11
7.765000000000001
 21
5.431547622084393
 31
0
  0
ENDBLK
  8
0
  0
BLOCK
  8
0
  2
*X16
 70
1
 10
0
 20
0
 30
0
  0
LINE
  8
0
 62
7
 10
4.465
 20
5.207462120245874
 30
0
 11
4.557537879754133
 21
5.300000000000001
 31
0
  0
LINE
  8
0
 62
7
 10
4.529669914110091
 20
5.06
 30
0
 11
4.769669914110096
 21
5.300000000000001
 31
0
  0
LINE
  8
0
 62
7
 10
4.615
 20
4.933198051533945
 30
0
 11
4.98180194846606
 21
5.300000000000001
 31
0
  0
LINE
  8
0
 62
7
 10
4.953933982822022
 20
5.059999999999999
 30
0
 11
5.193933982822024
 21
5.300000000000001
 31
0
  0
LINE
  8
0
 62
7
 10
4.615
 20
4.721066017177981
 30
0
 11
4.79
 21
4.89606601717798
 31
0
  0
LINE
  8
0
 62
7
 10
5.166066017177986
 20
5.059999999999999
 30
0
 11
5.406066017177988
 21
5.300000000000001
 31
0
  0
LINE
  8
0
 62
7
 10
4.615
 20
4.508933982822017
 30
0
 11
4.79
 21
4.683933982822016
 31
0
  0
LINE
  8
0
 62
7
 10
5.37819805153395
 20
5.059999999999999
 30
0
 11
5.618198051533952
 21
5.300000000000001
 31
0
  0
LINE
  8
0
 62
7
 10
4.615
 20
4.296801948466054
 30
0
 11
4.79
 21
4.471801948466053
 31
0
  0
LINE
  8
0
 62
7
 10
5.590330085889914
 20
5.059999999999999
 30
0
 11
5.830330085889916
 21
5.300000000000001
 31
0
  0
LINE
  8
0
 62
7
 10
4.615
 20
4.08466991411009
 30
0
 11
4.79
 21
4.259669914110089
 31
0
  0
LINE
  8
0
 62
7
 10
5.802462120245877
 20
5.059999999999999
 30
0
 11
6.042462120245879
 21
5.300000000000001
 31
0
  0
LINE
  8
0
 62
7
 10
4.615
 20
3.872537879754126
 30
0
 11
4.79
 21
4.047537879754125
 31
0
  0
LINE
  8
0
 62
7
 10
6.014594154601841
 20
5.059999999999999
 30
0
 11
6.254594154601843
 21
5.300000000000001
 31
0
  0
LINE
  8
0
 62
7
 10
4.615
 20
3.660405845398162
 30
0
 11
4.79
 21
3.835405845398161
 31
0
  0
LINE
  8
0
 62
7
 10
6.226726188957805
 20
5.059999999999999
 30
0
 11
6.466726188957807
 21
5.300000000000001
 31
0
  0
LINE
  8
0
 62
7
 10
4.615
 20
3.448273811042197
 30
0
 11
4.79
 21
3.623273811042197
 31
0
  0
LINE
  8
0
 62
7
 10
6.438858223313769
 20
5.059999999999999
 30
0
 11
6.678858223313771
 21
5.300000000000001
 31
0
  0
LINE
  8
0
 62
7
 10
4.628858223313767
 20
3.249999999999999
 30
0
 11
4.79
 21
3.411141776686232
 31
0
  0
LINE
  8
0
 62
7
 10
6.650990257669733
 20
5.059999999999999
 30
0
 11
6.890990257669735
 21
5.300000000000001
 31
0
  0
LINE
  8
0
 62
7
 10
6.863122292025697
 20
5.059999999999999
 30
0
 11
7.103122292025699
 21
5.300000000000001
 31
0
  0
LINE
  8
0
 62
7
 10
7.075254326381661
 20
5.059999999999999
 30
0
 11
7.315254326381663
 21
5.300000000000001
 31
0
  0
LINE
  8
0
 62
7
 10
7.287386360737624
 20
5.059999999999999
 30
0
 11
7.527386360737626
 21
5.300000000000001
 31
0
  0
LINE
  8
0
 62
7
 10
7.425
 20
4.985481604906409
 30
0
 11
7.73951839509359
 21
5.300000000000001
 31
0
  0
LINE
  8
0
 62
7
 10
7.711650429449554
 20
5.06
 30
0
 11
7.765000000000001
 21
5.113349570550446
 31
0
  0
LINE
  8
0
 62
7
 10
7.425
 20
4.773349570550445
 30
0
 11
7.600000000000001
 21
4.948349570550446
 31
0
  0
LINE
  8
0
 62
7
 10
7.425
 20
4.561217536194481
 30
0
 11
7.600000000000001
 21
4.736217536194482
 31
0
  0
LINE
  8
0
 62
7
 10
7.425
 20
4.349085501838517
 30
0
 11
7.600000000000001
 21
4.524085501838519
 31
0
  0
LINE
  8
0
 62
7
 10
7.425
 20
4.136953467482553
 30
0
 11
7.600000000000001
 21
4.311953467482555
 31
0
  0
LINE
  8
0
 62
7
 10
7.425
 20
3.924821433126589
 30
0
 11
7.600000000000001
 21
4.099821433126591
 31
0
  0
LINE
  8
0
 62
7
 10
7.425
 20
3.712689398770625
 30
0
 11
7.600000000000001
 21
3.887689398770627
 31
0
  0
LINE
  8
0
 62
7
 10
7.425
 20
3.500557364414661
 30
0
 11
7.600000000000001
 21
3.675557364414662
 31
0
  0
LINE
  8
0
 62
7
 10
7.486574669941303
 20
3.35
 30
0
 11
7.600000000000001
 21
3.463425330058698
 31
0
  0
LINE
  8
0
 62
7
 10
4.465
 20
5.101396103067891
 30
0
 11
4.663603896932113
 21
5.299999999999999
 31
0
  0
LINE
  8
0
 62
7
 10
4.615
 20
5.039264068711927
 30
0
 11
4.875735931288077
 21
5.299999999999999
 31
0
  0
LINE
  8
0
 62
7
 10
4.847867965644042
 20
5.059999999999999
 30
0
 11
5.08786796564404
 21
5.299999999999999
 31
0
  0
LINE
  8
0
 62
7
 10
4.615
 20
4.827132034355963
 30
0
 11
4.790000000000001
 21
5.002132034355962
 31
0
  0
LINE
  8
0
 62
7
 10
5.060000000000006
 20
5.059999999999999
 30
0
 11
5.300000000000004
 21
5.299999999999999
 31
0
  0
LINE
  8
0
 62
7
 10
4.615
 20
4.614999999999999
 30
0
 11
4.790000000000001
 21
4.789999999999998
 31
0
  0
LINE
  8
0
 62
7
 10
5.27213203435597
 20
5.059999999999999
 30
0
 11
5.512132034355968
 21
5.299999999999999
 31
0
  0
LINE
  8
0
 62
7
 10
4.615
 20
4.402867965644035
 30
0
 11
4.790000000000001
 21
4.577867965644034
 31
0
  0
LINE
  8
0
 62
7
 10
5.484264068711934
 20
5.059999999999999
 30
0
 11
5.724264068711932
 21
5.299999999999999
 31
0
  0
LINE
  8
0
 62
7
 10
4.615
 20
4.190735931288072
 30
0
 11
4.790000000000001
 21
4.365735931288071
 31
0
  0
LINE
  8
0
 62
7
 10
5.696396103067897
 20
5.059999999999999
 30
0
 11
5.936396103067896
 21
5.299999999999999
 31
0
  0
LINE
  8
0
 62
7
 10
4.615
 20
3.978603896932107
 30
0
 11
4.790000000000001
 21
4.153603896932107
 31
0
  0
LINE
  8
0
 62
7
 10
5.908528137423861
 20
5.059999999999999
 30
0
 11
6.14852813742386
 21
5.299999999999999
 31
0
  0
LINE
  8
0
 62
7
 10
4.615
 20
3.766471862576143
 30
0
 11
4.790000000000001
 21
3.941471862576143
 31
0
  0
LINE
  8
0
 62
7
 10
6.120660171779825
 20
5.059999999999999
 30
0
 11
6.360660171779823
 21
5.299999999999999
 31
0
  0
LINE
  8
0
 62
7
 10
4.615
 20
3.554339828220179
 30
0
 11
4.790000000000001
 21
3.729339828220179
 31
0
  0
LINE
  8
0
 62
7
 10
6.332792206135789
 20
5.059999999999999
 30
0
 11
6.572792206135787
 21
5.299999999999999
 31
0
  0
LINE
  8
0
 62
7
 10
4.615
 20
3.342207793864215
 30
0
 11
4.790000000000001
 21
3.517207793864214
 31
0
  0
LINE
  8
0
 62
7
 10
6.544924240491753
 20
5.059999999999999
 30
0
 11
6.784924240491751
 21
5.299999999999999
 31
0
  0
LINE
  8
0
 62
7
 10
4.73492424049175
 20
3.25
 30
0
 11
4.790000000000001
 21
3.30507575950825
 31
0
  0
LINE
  8
0
 62
7
 10
6.757056274847717
 20
5.059999999999999
 30
0
 11
6.997056274847715
 21
5.299999999999999
 31
0
  0
LINE
  8
0
 62
7
 10
6.96918830920368
 20
5.059999999999999
 30
0
 11
7.209188309203679
 21
5.299999999999999
 31
0
  0
LINE
  8
0
 62
7
 10
7.181320343559644
 20
5.059999999999999
 30
0
 11
7.421320343559643
 21
5.299999999999999
 31
0
  0
LINE
  8
0
 62
7
 10
7.393452377915608
 20
5.059999999999999
 30
0
 11
7.633452377915606
 21
5.299999999999999
 31
0
  0
LINE
  8
0
 62
7
 10
7.605584412271575
 20
5.060000000000002
 30
0
 11
7.765
 21
5.219415587728427
 31
0
  0
LINE
  8
0
 62
7
 10
7.425000000000001
 20
4.879415587728428
 30
0
 11
7.600000000000001
 21
5.054415587728428
 31
0
  0
LINE
  8
0
 62
7
 10
7.425000000000001
 20
4.667283553372464
 30
0
 11
7.600000000000001
 21
4.842283553372464
 31
0
  0
LINE
  8
0
 62
7
 10
7.425000000000001
 20
4.4551515190165
 30
0
 11
7.600000000000001
 21
4.630151519016501
 31
0
  0
LINE
  8
0
 62
7
 10
7.425000000000001
 20
4.243019484660536
 30
0
 11
7.600000000000001
 21
4.418019484660537
 31
0
  0
LINE
  8
0
 62
7
 10
7.425000000000001
 20
4.030887450304572
 30
0
 11
7.600000000000001
 21
4.205887450304573
 31
0
  0
LINE
  8
0
 62
7
 10
7.425000000000001
 20
3.818755415948608
 30
0
 11
7.600000000000001
 21
3.993755415948609
 31
0
  0
LINE
  8
0
 62
7
 10
7.425000000000001
 20
3.606623381592644
 30
0
 11
7.600000000000001
 21
3.781623381592645
 31
0
  0
LINE
  8
0
 62
7
 10
7.425000000000001
 20
3.394491347236679
 30
0
 11
7.600000000000001
 21
3.56949134723668
 31
0
  0
LINE
  8
0
 62
7
 10
7.592640687119285
 20
3.35
 30
0
 11
7.600000000000001
 21
3.357359312880716
 31
0
  0
ENDBLK
  8
0
  0
BLOCK
  8
0
  2
*D0
 70
1
 10
0
 20
0
 30
0
  0
LINE
  8
0
 62
7
 10
7.96029952520863
 20
4.56668253236245
 30
0
 11
7.96029952520863
 21
5.060000000000002
 31
0
  0
LINE
  8
0
 62
7
 10
7.96029952520863
 20
3.35
 30
0
 11
7.96029952520863
 21
3.85168253236245
 31
0
  0
LINE
  8
0
 62
7
 10
7.600000000000001
 20
5.060000000000002
 30
0
 11
8.01029952520863
 21
5.060000000000002
 31
0
  0
LINE
  8
0
 62
7
 10
7.600000000000001
 20
3.35
 30
0
 11
8.01029952520863
 21
3.35
 31
0
  0
LINE
  8
0
 62
7
 10
7.995654864267958
 20
5.024644660940675
 30
0
 11
7.924944186149303
 21
5.09535533905933
 31
0
  0
LINE
  8
0
 62
7
 10
7.924944186149303
 20
3.385355339059327
 30
0
 11
7.995654864267958
 21
3.314644660940672
 31
0
  0
TEXT
  8
0
 62
7
 10
8.005299525208631
 20
4.10168253236245
 30
0
 40
0.1
  1
1,71
 50
90
 41
0.9
  0
ENDBLK
  8
0
  0
BLOCK
  8
0
  2
*D1
 70
1
 10
0
 20
0
 30
0
  0
LINE
  8
0
 62
7
 10
6.5160106417135
 20
5.96620452265369
 30
0
 11
7.425
 21
5.96620452265369
 31
0
  0
LINE
  8
0
 62
7
 10
4.789999999999999
 20
5.96620452265369
 30
0
 11
5.741010641713499
 21
5.96620452265369
 31
0
  0
LINE
  8
0
 62
7
 10
7.425
 20
5.579999999999998
 30
0
 11
7.425
 21
6.01620452265369
 31
0
  0
LINE
  8
0
 62
7
 10
4.789999999999999
 20
5.579999999999998
 30
0
 11
4.789999999999999
 21
6.01620452265369
 31
0
  0
LINE
  8
0
 62
7
 10
4.825355339059326
 20
6.001559861713018
 30
0
 11
4.754644660940672
 21
5.930849183594363
 31
0
  0
LINE
  8
0
 62
7
 10
7.389644660940673
 20
5.930849183594363
 30
0
 11
7.460355339059327
 21
6.001559861713018
 31
0
  0
TEXT
  8
0
 62
7
 10
5.991010641713499
 20
5.92120452265369
 30
0
 40
0.1
  1
2,64
 41
0.9
  0
ENDBLK
  8
0
  0
BLOCK
  8
0
  2
*D2
 70
1
 10
0
 20
0
 30
0
  0
LINE
  8
0
 62
7
 10
4.309182907085691
 20
4.49191563915856
 30
0
 11
4.309182907085691
 21
5.06
 31
0
  0
LINE
  8
0
 62
7
 10
4.309182907085691
 20
3.25
 30
0
 11
4.309182907085691
 21
3.776915639158559
 31
0
  0
LINE
  8
0
 62
7
 10
4.615
 20
5.06
 30
0
 11
4.259182907085691
 21
5.06
 31
0
  0
LINE
  8
0
 62
7
 10
4.615
 20
3.25
 30
0
 11
4.259182907085691
 21
3.25
 31
0
  0
LINE
  8
0
 62
7
 10
4.273827568026364
 20
3.285355339059327
 30
0
 11
4.344538246145018
 21
3.214644660940672
 31
0
  0
LINE
  8
0
 62
7
 10
4.344538246145018
 20
5.024644660940672
 30
0
 11
4.273827568026364
 21
5.095355339059327
 31
0
  0
TEXT
  8
0
 62
7
 10
4.354182907085691
 20
4.02691563915856
 30
0
 40
0.1
  1
1,81
 50
90
 41
0.9
  0
ENDBLK
  8
0
  0
BLOCK
  8
0
  2
*D3
 70
1
 10
0
 20
0
 30
0
  0
LINE
  8
0
 62
7
 10
6.490932939448131
 20
11.4366488754044
 30
0
 11
7.425000000000001
 21
11.4366488754044
 31
0
  0
LINE
  8
0
 62
7
 10
4.789999999999999
 20
11.4366488754044
 30
0
 11
5.81593293944813
 21
11.4366488754044
 31
0
  0
LINE
  8
0
 62
7
 10
7.425000000000001
 20
11.2
 30
0
 11
7.425000000000001
 21
11.4866488754044
 31
0
  0
LINE
  8
0
 62
7
 10
4.789999999999999
 20
11.2
 30
0
 11
4.789999999999999
 21
11.4866488754044
 31
0
  0
LINE
  8
0
 62
7
 10
7.389644660940673
 20
11.40129353634507
 30
0
 11
7.460355339059328
 21
11.47200421446373
 31
0
  0
LINE
  8
0
 62
7
 10
4.825355339059326
 20
11.47200421446373
 30
0
 11
4.754644660940672
 21
11.40129353634507
 31
0
  0
TEXT
  8
0
 62
7
 10
6.01593293944813
 20
11.3916488754044
 30
0
 40
0.1
  1
2,64
 41
0.9
  0
ENDBLK
  8
0
  0
BLOCK
  8
0
  2
*D4
 70
1
 10
0
 20
0
 30
0
  0
LINE
  8
0
 62
7
 10
8.08491101388177
 20
10.28193262944977
 30
0
 11
8.08491101388177
 21
11.05
 31
0
  0
LINE
  8
0
 62
7
 10
8.08491101388177
 20
8.299999999999999
 30
0
 11
8.08491101388177
 21
9.20193262944977
 31
0
  0
LINE
  8
0
 62
7
 10
7.75
 20
11.05
 30
0
 11
8.134911013881771
 21
11.05
 31
0
  0
LINE
  8
0
 62
7
 10
7.75
 20
8.299999999999999
 30
0
 11
8.134911013881771
 21
8.299999999999999
 31
0
  0
LINE
  8
0
 62
7
 10
8.049555674822443
 20
8.335355339059326
 30
0
 11
8.120266352941098
 21
8.264644660940672
 31
0
  0
LINE
  8
0
 62
7
 10
8.120266352941098
 20
11.01464466094067
 30
0
 11
8.049555674822443
 21
11.08535533905933
 31
0
  0
TEXT
  8
0
 62
7
 10
8.054911013881771
 20
9.604432629449771
 30
0
 40
0.1
  1
2,75
 50
90
 41
0.9
  0
TEXT
  8
0
 62
7
 10
8.214911013881771
 20
9.401932629449771
 30
0
 40
0.1
  1
(260-280)
 50
90
 41
0.9
  0
ENDBLK
  8
0
  0
ENDSEC
  0
SECTION
  2
ENTITIES
  0
INSERT
  8
0
  2
*X0
 10
0
 20
0
 30
0
  0
INSERT
  8
0
  2
*X1
 10
0
 20
0
 30
0
  0
INSERT
  8
0
  2
*X2
 10
0
 20
0
 30
0
  0
INSERT
  8
0
  2
*X3
 10
0
 20
0
 30
0
  0
INSERT
  8
0
  2
*X4
 10
0
 20
0
 30
0
  0
INSERT
  8
0
  2
*X5
 10
0
 20
0
 30
0
  0
INSERT
  8
0
  2
*X6
 10
0
 20
0
 30
0
  0
INSERT
  8
0
  2
*X7
 10
0
 20
0
 30
0
  0
INSERT
  8
0
  2
*X8
 10
0
 20
0
 30
0
  0
INSERT
  8
0
  2
*X9
 10
0
 20
0
 30
0
  0
INSERT
  8
0
  2
*X10
 10
0
 20
0
 30
0
  0
INSERT
  8
0
  2
*X11
 10
0
 20
0
 30
0
  0
INSERT
  8
0
  2
*X12
 10
0
 20
0
 30
0
  0
INSERT
  8
0
  2
*X13
 10
0
 20
0
 30
0
  0
INSERT
  8
0
  2
*X14
 10
0
 20
0
 30
0
  0
INSERT
  8
0
  2
*X15
 10
0
 20
0
 30
0
  0
INSERT
  8
0
  2
*X16
 10
0
 20
0
 30
0
  0
LINE
  8
0
 62
7
 10
6.420000000000001
 20
3.984401802475583
 30
0
 11
6.420000000000001
 21
3.771446880536041
 31
0
  0
LINE
  8
0
 62
7
 10
6.378025278773459
 20
4.054999999999999
 30
0
 11
6.420000000000001
 21
3.984401802475583
 31
0
  0
LINE
  8
0
 62
7
 10
6.24324171316916
 20
4.054999999999999
 30
0
 11
6.333694971078339
 21
4.054999999999999
 31
0
  0
LINE
  8
0
 62
7
 10
6.24324171316916
 20
4.054999999999999
 30
0
 11
6.378025278773459
 21
4.054999999999999
 31
0
  0
LINE
  8
0
 62
7
 10
5.841191981845729
 20
4.054999999999999
 30
0
 11
5.989376963357969
 21
4.054999999999999
 31
0
  0
LINE
  8
0
 62
7
 10
5.795000000000001
 20
3.987811662769849
 30
0
 11
5.841191981845729
 21
4.054999999999999
 31
0
  0
LINE
  8
0
 62
7
 10
5.795000000000001
 20
3.79041268063724
 30
0
 11
5.795000000000001
 21
3.890210577310448
 31
0
  0
LINE
  8
0
 62
7
 10
5.795000000000001
 20
3.79041268063724
 30
0
 11
5.795000000000001
 21
3.987811662769849
 31
0
  0
LINE
  8
0
 62
7
 10
4.845000000000001
 20
3.25
 30
0
 11
5.795000000000001
 21
3.25
 31
0
  0
LINE
  8
0
 62
7
 10
5.795000000000001
 20
3.25
 30
0
 11
5.795000000000001
 21
3.6
 31
0
  0
LINE
  8
0
 62
7
 10
4.845000000000001
 20
3.6
 30
0
 11
4.845000000000001
 21
3.25
 31
0
  0
LINE
  8
0
 62
7
 10
4.845000000000001
 20
3.51
 30
0
 11
5.795000000000001
 21
3.51
 31
0
  0
LINE
  8
0
 62
7
 10
5.795000000000001
 20
3.51
 30
0
 11
5.795000000000001
 21
3.76870089456357
 31
0
  0
LINE
  8
0
 62
7
 10
4.845000000000001
 20
3.945081672509801
 30
0
 11
4.845000000000001
 21
3.51
 31
0
  0
LINE
  8
0
 62
7
 10
4.845000000000001
 20
3.853543614799171
 30
0
 11
5.795000000000001
 21
3.677162836852939
 31
0
  0
LINE
  8
0
 62
7
 10
5.795000000000001
 20
3.677162836852939
 30
0
 11
5.795000000000001
 21
3.79041268063724
 31
0
  0
LINE
  8
0
 62
7
 10
4.845000000000001
 20
4.34540111031194
 30
0
 11
4.845000000000001
 21
3.853543614799171
 31
0
  0
LINE
  8
0
 62
7
 10
4.845000000000001
 20
4.245603213638732
 30
0
 11
5.795000000000001
 21
3.79041268063724
 31
0
  0
LINE
  8
0
 62
7
 10
4.845000000000001
 20
4.851988869583271
 30
0
 11
4.845000000000001
 21
4.245603213638732
 31
0
  0
LINE
  8
0
 62
7
 10
4.845000000000001
 20
4.73176134232969
 30
0
 11
5.753339106799618
 21
3.927213999932931
 31
0
  0
LINE
  8
0
 62
7
 10
5.753339106799618
 20
3.927213999932931
 30
0
 11
5.795000000000001
 21
3.987811662769849
 31
0
  0
LINE
  8
0
 62
7
 10
5.29400955467047
 20
5.004999999999999
 30
0
 11
4.845000000000001
 21
5.004999999999999
 31
0
  0
LINE
  8
0
 62
7
 10
4.845000000000001
 20
5.004999999999999
 30
0
 11
4.845000000000001
 21
4.73176134232969
 31
0
  0
LINE
  8
0
 62
7
 10
5.187154655727672
 20
5.004999999999999
 30
0
 11
5.795173844918708
 21
4.054999999999999
 31
0
  0
LINE
  8
0
 62
7
 10
5.795173844918708
 20
4.054999999999999
 30
0
 11
5.841191981845729
 21
4.054999999999999
 31
0
  0
LINE
  8
0
 62
7
 10
5.75510824700935
 20
5.004999999999999
 30
0
 11
5.187154655727672
 21
5.004999999999999
 31
0
  0
LINE
  8
0
 62
7
 10
5.66241214008985
 20
5.004999999999999
 30
0
 11
5.896680856438479
 21
4.054999999999999
 31
0
  0
LINE
  8
0
 62
7
 10
5.896680856438479
 20
4.054999999999999
 30
0
 11
6.160963740149178
 21
4.054999999999999
 31
0
  0
LINE
  8
0
 62
7
 10
6.090237625709659
 20
5.004999999999999
 30
0
 11
5.66241214008985
 21
5.004999999999999
 31
0
  0
LINE
  8
0
 62
7
 10
5.999988554018009
 20
5.004999999999999
 30
0
 11
6.070714668457527
 21
4.054999999999999
 31
0
  0
LINE
  8
0
 62
7
 10
6.070714668457527
 20
4.054999999999999
 30
0
 11
6.24324171316916
 21
4.054999999999999
 31
0
  0
LINE
  8
0
 62
7
 10
6.429158207756541
 20
5.004999999999999
 30
0
 11
5.999988554018009
 21
5.004999999999999
 31
0
  0
LINE
  8
0
 62
7
 10
6.338704949847362
 20
5.004999999999999
 30
0
 11
6.24324171316916
 21
4.054999999999999
 31
0
  0
LINE
  8
0
 62
7
 10
6.861563468357009
 20
5.004999999999999
 30
0
 11
6.338704949847362
 21
5.004999999999999
 31
0
  0
LINE
  8
0
 62
7
 10
6.76291294362961
 20
5.004999999999999
 30
0
 11
6.354362835323738
 21
4.094798378828012
 31
0
  0
LINE
  8
0
 62
7
 10
6.354362835323738
 20
4.094798378828012
 30
0
 11
6.378025278773459
 21
4.054999999999999
 31
0
  0
LINE
  8
0
 62
7
 10
7.370000000000001
 20
4.947790639235048
 30
0
 11
7.370000000000001
 21
5.004999999999999
 31
0
  0
LINE
  8
0
 62
7
 10
7.370000000000001
 20
5.004999999999999
 30
0
 11
6.76291294362961
 21
5.004999999999999
 31
0
  0
LINE
  8
0
 62
7
 10
7.300473447998461
 20
5.004999999999999
 30
0
 11
6.420000000000001
 21
3.996227383924232
 31
0
  0
LINE
  8
0
 62
7
 10
6.420000000000001
 20
3.996227383924232
 30
0
 11
6.420000000000001
 21
3.984401802475583
 31
0
  0
LINE
  8
0
 62
7
 10
7.370000000000001
 20
4.362047830111571
 30
0
 11
7.370000000000001
 21
5.004999999999999
 31
0
  0
LINE
  8
0
 62
7
 10
7.370000000000001
 20
5.004999999999999
 30
0
 11
7.300473447998461
 21
5.004999999999999
 31
0
  0
LINE
  8
0
 62
7
 10
7.370000000000001
 20
4.468022304649051
 30
0
 11
6.420000000000001
 21
3.87742135507352
 31
0
  0
LINE
  8
0
 62
7
 10
6.420000000000001
 20
3.87742135507352
 30
0
 11
6.420000000000001
 21
3.658456499178799
 31
0
  0
LINE
  8
0
 62
7
 10
7.370000000000001
 20
3.973497312822881
 30
0
 11
7.370000000000001
 21
4.468022304649051
 31
0
  0
LINE
  8
0
 62
7
 10
7.370000000000001
 20
4.068317047234101
 30
0
 11
6.420000000000001
 21
3.753276233590021
 31
0
  0
LINE
  8
0
 62
7
 10
6.420000000000001
 20
3.753276233590021
 30
0
 11
6.420000000000001
 21
3.54134125186007
 31
0
  0
LINE
  8
0
 62
7
 10
7.370000000000001
 20
3.59381253306676
 30
0
 11
7.370000000000001
 21
4.068317047234101
 31
0
  0
LINE
  8
0
 62
7
 10
7.370000000000001
 20
3.683949708959661
 30
0
 11
6.420000000000001
 21
3.631478427752971
 31
0
  0
LINE
  8
0
 62
7
 10
6.420000000000001
 20
3.631478427752971
 30
0
 11
6.420000000000001
 21
3.389999999999999
 31
0
  0
LINE
  8
0
 62
7
 10
7.370000000000001
 20
3.389999999999999
 30
0
 11
7.370000000000001
 21
3.683949708959661
 31
0
  0
LINE
  8
0
 62
7
 10
5.2949721283881
 20
3.25
 30
0
 11
5.2949721283881
 21
4.05499999995437
 31
0
  0
LINE
  8
0
 62
7
 10
5.795000000009509
 20
4.555027871611901
 30
0
 11
6.42000000002384
 21
4.555027871611901
 31
0
  0
LINE
  8
0
 62
7
 10
6.920027871611897
 20
3.399999999999999
 30
0
 11
6.8143727723502
 21
3.461
 31
0
  0
LINE
  8
0
 62
7
 10
6.8143727723502
 20
3.461
 30
0
 11
7.0256829708736
 21
3.461
 31
0
  0
LINE
  8
0
 62
7
 10
7.0256829708736
 20
3.461
 30
0
 11
6.920027871611897
 21
3.399999999999999
 31
0
  0
LINE
  8
0
 62
7
 10
6.920027871611897
 20
4.05499999999048
 30
0
 11
6.920027871611897
 21
3.399999999999999
 31
0
  0
LINE
  8
0
 62
7
 10
2.199999389999999
 20
8.58333322666666
 30
0
 11
2.5499996
 21
8.58333322666666
 31
0
  0
LINE
  8
0
 62
7
 10
2.5499996
 20
8.58333322666666
 30
0
 11
2.5499996
 21
8.518333226666661
 31
0
  0
LINE
  8
0
 62
7
 10
2.199999389999999
 20
8.518333226666661
 30
0
 11
2.199999389999999
 21
8.58333322666666
 31
0
  0
LINE
  8
0
 62
7
 10
2.5499996
 20
8.518333226666661
 30
0
 11
2.199999389999999
 21
8.518333226666661
 31
0
  0
LINE
  8
0
 62
7
 10
1.85491821
 20
8.766666566666661
 30
0
 11
2.289999469999999
 21
8.766666566666661
 31
0
  0
LINE
  8
0
 62
7
 10
2.289999469999999
 20
8.70166656666666
 30
0
 11
1.85491821
 21
8.70166656666666
 31
0
  0
LINE
  8
0
 62
7
 10
2.289999469999999
 20
8.766666566666661
 30
0
 11
2.289999469999999
 21
8.70166656666666
 31
0
  0
LINE
  8
0
 62
7
 10
1.85491821
 20
8.70166656666666
 30
0
 11
1.85491821
 21
8.766666566666661
 31
0
  0
LINE
  8
0
 62
7
 10
2.122836879999999
 20
8.884999906666659
 30
0
 11
1.454598389999999
 21
8.884999906666659
 31
0
  0
LINE
  8
0
 62
7
 10
1.454598389999999
 20
8.94999990666666
 30
0
 11
2.122836879999999
 21
8.94999990666666
 31
0
  0
LINE
  8
0
 62
7
 10
2.122836879999999
 20
8.94999990666666
 30
0
 11
2.122836879999999
 21
8.884999906666659
 31
0
  0
LINE
  8
0
 62
7
 10
1.454598389999999
 20
8.884999906666659
 30
0
 11
1.454598389999999
 21
8.94999990666666
 31
0
  0
LINE
  8
0
 62
7
 10
2.009587479999999
 20
9.068333226666661
 30
0
 11
0.9480102500000005
 21
9.068333226666661
 31
0
  0
LINE
  8
0
 62
7
 10
0.9480102500000005
 20
9.133333226666661
 30
0
 11
2.009587479999999
 21
9.133333226666661
 31
0
  0
LINE
  8
0
 62
7
 10
2.009587479999999
 20
9.133333226666661
 30
0
 11
2.009587479999999
 21
9.068333226666661
 31
0
  0
LINE
  8
0
 62
7
 10
0.9480102500000005
 20
9.068333226666661
 30
0
 11
0.9480102500000005
 21
9.133333226666661
 31
0
  0
LINE
  8
0
 62
7
 10
1.87278565
 20
9.251666586666659
 30
0
 11
0.795
 21
9.251666586666659
 31
0
  0
LINE
  8
0
 62
7
 10
0.795
 20
9.31666658666666
 30
0
 11
1.87278565
 21
9.31666658666666
 31
0
  0
LINE
  8
0
 62
7
 10
1.87278565
 20
9.31666658666666
 30
0
 11
1.87278565
 21
9.251666586666659
 31
0
  0
LINE
  8
0
 62
7
 10
0.795
 20
9.251666586666659
 30
0
 11
0.795
 21
9.31666658666666
 31
0
  0
LINE
  8
0
 62
7
 10
0.795
 20
9.499999946666659
 30
0
 11
1.74500015
 21
9.499999946666659
 31
0
  0
LINE
  8
0
 62
7
 10
1.74500015
 20
9.499999946666659
 30
0
 11
1.74500015
 21
9.434999946666657
 31
0
  0
LINE
  8
0
 62
7
 10
0.795
 20
9.434999946666657
 30
0
 11
0.795
 21
9.499999946666659
 31
0
  0
LINE
  8
0
 62
7
 10
1.74500015
 20
9.434999946666657
 30
0
 11
0.795
 21
9.434999946666657
 31
0
  0
LINE
  8
0
 62
7
 10
0.795
 20
9.683333226666662
 30
0
 11
1.74500015
 21
9.683333226666662
 31
0
  0
LINE
  8
0
 62
7
 10
1.74500015
 20
9.683333226666662
 30
0
 11
1.74500015
 21
9.618333226666662
 31
0
  0
LINE
  8
0
 62
7
 10
0.795
 20
9.618333226666662
 30
0
 11
0.795
 21
9.683333226666662
 31
0
  0
LINE
  8
0
 62
7
 10
1.74500015
 20
9.618333226666662
 30
0
 11
0.795
 21
9.618333226666662
 31
0
  0
LINE
  8
0
 62
7
 10
0.7949997000000004
 20
9.86666666666666
 30
0
 11
1.74500015
 21
9.86666666666666
 31
0
  0
LINE
  8
0
 62
7
 10
1.74500015
 20
9.86666666666666
 30
0
 11
1.74500015
 21
9.801666666666661
 31
0
  0
LINE
  8
0
 62
7
 10
0.7949997000000004
 20
9.801666666666661
 30
0
 11
0.7949997000000004
 21
9.86666666666666
 31
0
  0
LINE
  8
0
 62
7
 10
1.74500015
 20
9.801666666666661
 30
0
 11
0.7949997000000004
 21
9.801666666666661
 31
0
  0
LINE
  8
0
 62
7
 10
0.7949997000000004
 20
10.04999994666666
 30
0
 11
1.74500015
 21
10.04999994666666
 31
0
  0
LINE
  8
0
 62
7
 10
1.74500015
 20
10.04999994666666
 30
0
 11
1.74500015
 21
9.984999946666658
 31
0
  0
LINE
  8
0
 62
7
 10
0.7949997000000004
 20
9.984999946666658
 30
0
 11
0.7949997000000004
 21
10.04999994666666
 31
0
  0
LINE
  8
0
 62
7
 10
1.74500015
 20
9.984999946666658
 30
0
 11
0.7949997000000004
 21
9.984999946666658
 31
0
  0
LINE
  8
0
 62
7
 10
1.88997444
 20
10.16833322666666
 30
0
 11
0.795
 21
10.16833322666666
 31
0
  0
LINE
  8
0
 62
7
 10
0.795
 20
10.23333322666666
 30
0
 11
1.88997444
 21
10.23333322666666
 31
0
  0
LINE
  8
0
 62
7
 10
1.88997444
 20
10.23333322666666
 30
0
 11
1.88997444
 21
10.16833322666666
 31
0
  0
LINE
  8
0
 62
7
 10
0.795
 20
10.16833322666666
 30
0
 11
0.795
 21
10.23333322666666
 31
0
  0
LINE
  8
0
 62
7
 10
2.02855248
 20
10.35166666666666
 30
0
 11
0.7950001499999991
 21
10.35166666666666
 31
0
  0
LINE
  8
0
 62
7
 10
0.7950001499999991
 20
10.41666666666666
 30
0
 11
2.02855248
 21
10.41666666666666
 31
0
  0
LINE
  8
0
 62
7
 10
2.02855248
 20
10.41666666666666
 30
0
 11
2.02855248
 21
10.35166666666666
 31
0
  0
LINE
  8
0
 62
7
 10
0.7950001499999991
 20
10.35166666666666
 30
0
 11
0.7950001499999991
 21
10.41666666666666
 31
0
  0
LINE
  8
0
 62
7
 10
2.14154297
 20
10.53499994666666
 30
0
 11
1.33197784
 21
10.53499994666666
 31
0
  0
LINE
  8
0
 62
7
 10
1.33197784
 20
10.59999994666666
 30
0
 11
2.14154297
 21
10.59999994666666
 31
0
  0
LINE
  8
0
 62
7
 10
2.14154297
 20
10.59999994666666
 30
0
 11
2.14154297
 21
10.53499994666666
 31
0
  0
LINE
  8
0
 62
7
 10
1.33197784
 20
10.53499994666666
 30
0
 11
1.33197784
 21
10.59999994666666
 31
0
  0
LINE
  8
0
 62
7
 10
2.25865864
 20
10.71833322666666
 30
0
 11
1.73168266
 21
10.71833322666666
 31
0
  0
LINE
  8
0
 62
7
 10
1.73168266
 20
10.78333322666666
 30
0
 11
2.25865864
 21
10.78333322666666
 31
0
  0
LINE
  8
0
 62
7
 10
2.25865864
 20
10.78333322666666
 30
0
 11
2.25865864
 21
10.71833322666666
 31
0
  0
LINE
  8
0
 62
7
 10
1.73168266
 20
10.71833322666666
 30
0
 11
1.73168266
 21
10.78333322666666
 31
0
  0
LINE
  8
0
 62
7
 10
2.116050490000001
 20
10.96666666666666
 30
0
 11
2.409999769999999
 21
10.96666666666666
 31
0
  0
LINE
  8
0
 62
7
 10
2.409999769999999
 20
10.90166666666666
 30
0
 11
2.116050490000001
 21
10.90166666666666
 31
0
  0
LINE
  8
0
 62
7
 10
2.409999769999999
 20
10.96666666666666
 30
0
 11
2.409999769999999
 21
10.90166666666666
 31
0
  0
LINE
  8
0
 62
7
 10
2.116050490000001
 20
10.90166666666666
 30
0
 11
2.116050490000001
 21
10.96666666666666
 31
0
  0
LINE
  8
0
 62
7
 10
4.844999499999998
 20
8.583333226666671
 30
0
 11
5.794999849999999
 21
8.583333226666671
 31
0
  0
LINE
  8
0
 62
7
 10
4.844999499999998
 20
8.51833322666667
 30
0
 11
4.844999499999998
 21
8.583333226666671
 31
0
  0
LINE
  8
0
 62
7
 10
5.794999849999999
 20
8.583333226666671
 30
0
 11
5.794999849999999
 21
8.51833322666667
 31
0
  0
LINE
  8
0
 62
7
 10
5.794999849999999
 20
8.51833322666667
 30
0
 11
4.844999499999998
 21
8.51833322666667
 31
0
  0
LINE
  8
0
 62
7
 10
4.844999499999998
 20
8.76666656666667
 30
0
 11
5.794999689999999
 21
8.76666656666667
 31
0
  0
LINE
  8
0
 62
7
 10
4.844999499999998
 20
8.701666566666669
 30
0
 11
4.844999499999998
 21
8.76666656666667
 31
0
  0
LINE
  8
0
 62
7
 10
5.794999689999999
 20
8.76666656666667
 30
0
 11
5.794999689999999
 21
8.701666566666669
 31
0
  0
LINE
  8
0
 62
7
 10
5.794999689999999
 20
8.701666566666669
 30
0
 11
4.844999499999998
 21
8.701666566666669
 31
0
  0
LINE
  8
0
 62
7
 10
4.844999689999999
 20
8.949999906666671
 30
0
 11
5.794999769999999
 21
8.949999906666671
 31
0
  0
LINE
  8
0
 62
7
 10
4.844999689999999
 20
8.884999906666669
 30
0
 11
4.844999689999999
 21
8.949999906666671
 31
0
  0
LINE
  8
0
 62
7
 10
5.794999769999999
 20
8.949999906666671
 30
0
 11
5.794999769999999
 21
8.884999906666669
 31
0
  0
LINE
  8
0
 62
7
 10
5.794999769999999
 20
8.884999906666669
 30
0
 11
4.844999689999999
 21
8.884999906666669
 31
0
  0
LINE
  8
0
 62
7
 10
4.844999619999999
 20
9.13333322666667
 30
0
 11
5.795000000000001
 21
9.13333322666667
 31
0
  0
LINE
  8
0
 62
7
 10
4.844999619999999
 20
9.06833322666667
 30
0
 11
4.844999619999999
 21
9.13333322666667
 31
0
  0
LINE
  8
0
 62
7
 10
5.795000000000001
 20
9.13333322666667
 30
0
 11
5.795000000000001
 21
9.06833322666667
 31
0
  0
LINE
  8
0
 62
7
 10
5.795000000000001
 20
9.06833322666667
 30
0
 11
4.844999619999999
 21
9.06833322666667
 31
0
  0
LINE
  8
0
 62
7
 10
5.872697899999999
 20
9.251666586666669
 30
0
 11
4.84499967
 21
9.251666586666669
 31
0
  0
LINE
  8
0
 62
7
 10
4.84499967
 20
9.316666586666669
 30
0
 11
5.872697899999999
 21
9.316666586666669
 31
0
  0
LINE
  8
0
 62
7
 10
4.84499967
 20
9.251666586666669
 30
0
 11
4.84499967
 21
9.316666586666669
 31
0
  0
LINE
  8
0
 62
7
 10
5.872697899999999
 20
9.316666586666669
 30
0
 11
5.872697899999999
 21
9.251666586666669
 31
0
  0
LINE
  8
0
 62
7
 10
5.989376979999999
 20
9.43499994666667
 30
0
 11
5.187154389999998
 21
9.43499994666667
 31
0
  0
LINE
  8
0
 62
7
 10
5.187154389999998
 20
9.499999946666669
 30
0
 11
5.989376979999999
 21
9.499999946666669
 31
0
  0
LINE
  8
0
 62
7
 10
5.187154389999998
 20
9.43499994666667
 30
0
 11
5.187154389999998
 21
9.499999946666669
 31
0
  0
LINE
  8
0
 62
7
 10
5.989376979999999
 20
9.499999946666669
 30
0
 11
5.989376979999999
 21
9.43499994666667
 31
0
  0
LINE
  8
0
 62
7
 10
6.160963290000001
 20
9.618333226666671
 30
0
 11
5.66241195
 21
9.618333226666671
 31
0
  0
LINE
  8
0
 62
7
 10
5.66241195
 20
9.683333226666671
 30
0
 11
6.160963290000001
 21
9.683333226666671
 31
0
  0
LINE
  8
0
 62
7
 10
5.66241195
 20
9.618333226666671
 30
0
 11
5.66241195
 21
9.683333226666671
 31
0
  0
LINE
  8
0
 62
7
 10
6.160963290000001
 20
9.683333226666671
 30
0
 11
6.160963290000001
 21
9.618333226666671
 31
0
  0
LINE
  8
0
 62
7
 10
6.42915802
 20
9.801666666666661
 30
0
 11
5.999988249999999
 21
9.801666666666661
 31
0
  0
LINE
  8
0
 62
7
 10
5.999988249999999
 20
9.866666666666669
 30
0
 11
6.42915802
 21
9.866666666666669
 31
0
  0
LINE
  8
0
 62
7
 10
5.999988249999999
 20
9.801666666666661
 30
0
 11
5.999988249999999
 21
9.866666666666669
 31
0
  0
LINE
  8
0
 62
7
 10
6.42915802
 20
9.866666666666669
 30
0
 11
6.42915802
 21
9.801666666666661
 31
0
  0
LINE
  8
0
 62
7
 10
6.86156326
 20
9.984999946666669
 30
0
 11
6.24324142
 21
9.984999946666669
 31
0
  0
LINE
  8
0
 62
7
 10
6.24324142
 20
10.04999994666667
 30
0
 11
6.86156326
 21
10.04999994666667
 31
0
  0
LINE
  8
0
 62
7
 10
6.24324142
 20
9.984999946666669
 30
0
 11
6.24324142
 21
10.04999994666667
 31
0
  0
LINE
  8
0
 62
7
 10
6.86156326
 20
10.04999994666667
 30
0
 11
6.86156326
 21
9.984999946666669
 31
0
  0
LINE
  8
0
 62
7
 10
7.36999969
 20
10.16833322666667
 30
0
 11
6.35436249
 21
10.16833322666667
 31
0
  0
LINE
  8
0
 62
7
 10
6.35436249
 20
10.23333322666667
 30
0
 11
7.36999969
 21
10.23333322666667
 31
0
  0
LINE
  8
0
 62
7
 10
6.35436249
 20
10.16833322666667
 30
0
 11
6.35436249
 21
10.23333322666667
 31
0
  0
LINE
  8
0
 62
7
 10
7.36999969
 20
10.23333322666667
 30
0
 11
7.36999969
 21
10.16833322666667
 31
0
  0
LINE
  8
0
 62
7
 10
6.419999690000001
 20
10.41666666666666
 30
0
 11
7.36999969
 21
10.41666666666666
 31
0
  0
LINE
  8
0
 62
7
 10
7.36999969
 20
10.35166666666666
 30
0
 11
6.419999690000001
 21
10.35166666666666
 31
0
  0
LINE
  8
0
 62
7
 10
6.419999690000001
 20
10.35166666666666
 30
0
 11
6.419999690000001
 21
10.41666666666666
 31
0
  0
LINE
  8
0
 62
7
 10
7.36999969
 20
10.41666666666666
 30
0
 11
7.36999969
 21
10.35166666666666
 31
0
  0
LINE
  8
0
 62
7
 10
6.419999539999998
 20
10.59999994666667
 30
0
 11
7.36999969
 21
10.59999994666667
 31
0
  0
LINE
  8
0
 62
7
 10
6.419999539999998
 20
10.53499994666667
 30
0
 11
6.419999539999998
 21
10.59999994666667
 31
0
  0
LINE
  8
0
 62
7
 10
7.36999969
 20
10.59999994666667
 30
0
 11
7.36999969
 21
10.53499994666667
 31
0
  0
LINE
  8
0
 62
7
 10
7.36999969
 20
10.53499994666667
 30
0
 11
6.419999539999998
 21
10.53499994666667
 31
0
  0
LINE
  8
0
 62
7
 10
6.419999539999998
 20
10.78333322666667
 30
0
 11
7.370000000000001
 21
10.78333322666667
 31
0
  0
LINE
  8
0
 62
7
 10
6.419999539999998
 20
10.71833322666667
 30
0
 11
6.419999539999998
 21
10.78333322666667
 31
0
  0
LINE
  8
0
 62
7
 10
7.370000000000001
 20
10.78333322666667
 30
0
 11
7.370000000000001
 21
10.71833322666667
 31
0
  0
LINE
  8
0
 62
7
 10
7.370000000000001
 20
10.71833322666667
 30
0
 11
6.419999539999998
 21
10.71833322666667
 31
0
  0
LINE
  8
0
 62
7
  6
DASHED
 10
6.41999985
 20
10.96666666666666
 30
0
 11
7.370000000000001
 21
10.96666666666666
 31
0
  0
LINE
  8
0
 62
7
  6
DASHED
 10
6.41999985
 20
10.90166666666666
 30
0
 11
6.41999985
 21
10.96666666666666
 31
0
  0
LINE
  8
0
 62
7
  6
DASHED
 10
7.370000000000001
 20
10.96666666666666
 30
0
 11
7.370000000000001
 21
10.90166666666666
 31
0
  0
LINE
  8
0
 62
7
  6
DASHED
 10
7.370000000000001
 20
10.90166666666666
 30
0
 11
6.41999985
 21
10.90166666666666
 31
0
  0
LINE
  8
0
 62
7
  6
DASHDOT
 10
7.425000000000001
 20
5.729999999999999
 30
0
 11
7.600000000000001
 21
5.729999999999999
 31
0
  0
LINE
  8
0
 62
7
  6
DASHDOT
 10
7.600000000000001
 20
5.729999999999999
 30
0
 11
7.65
 21
5.729999999999997
 31
0
  0
LINE
  8
0
 62
7
  6
DASHDOT
 10
4.465
 20
5.300000000000001
 30
0
 11
4.465
 21
5.06
 31
0
  0
LINE
  8
0
 62
7
  6
DASHDOT
 10
7.765000000000001
 20
5.300000000000001
 30
0
 11
7.765000000000001
 21
5.06
 31
0
  0
LINE
  8
0
 62
7
  6
DASHDOT
 10
4.465
 20
5.34
 30
0
 11
4.465
 21
5.300000000000001
 31
0
  0
LINE
  8
0
 62
7
  6
DASHDOT
 10
7.765000000000001
 20
5.34
 30
0
 11
7.765000000000001
 21
5.300000000000001
 31
0
  0
LINE
  8
0
 62
7
  6
DASHDOT
 10
4.465
 20
5.06
 30
0
 11
4.465
 21
5.010000000000001
 31
0
  0
LINE
  8
0
 62
7
  6
DASHDOT
 10
4.465
 20
5.579999999999998
 30
0
 11
4.465
 21
5.34
 31
0
  0
LINE
  8
0
 62
7
  6
DASHDOT
 10
4.79
 20
5.729999999999999
 30
0
 11
4.84
 21
5.729999999999997
 31
0
  0
LINE
  8
0
 62
7
  6
DASHDOT
 10
4.615
 20
5.729999999999999
 30
0
 11
4.79
 21
5.729999999999999
 31
0
  0
LINE
  8
0
 62
7
  6
DASHDOT
 10
7.765000000000001
 20
5.06
 30
0
 11
7.765000000000001
 21
5.010000000000001
 31
0
  0
LINE
  8
0
 62
7
  6
DASHDOT
 10
7.765000000000001
 20
5.579999999999998
 30
0
 11
7.765000000000001
 21
5.34
 31
0
  0
LINE
  8
0
 62
7
  6
DASHDOT
 10
7.765000000000001
 20
5.629999999999996
 30
0
 11
7.765000000000001
 21
5.579999999999998
 31
0
  0
LINE
  8
0
 62
7
  6
DASHDOT
 10
4.465
 20
5.629999999999996
 30
0
 11
4.465
 21
5.579999999999998
 31
0
  0
LINE
  8
0
 62
7
  6
DASHDOT
 10
7.375
 20
5.729999999999997
 30
0
 11
7.425000000000001
 21
5.729999999999999
 31
0
  0
LINE
  8
0
 62
7
  6
DASHDOT
 10
4.565
 20
5.729999999999997
 30
0
 11
4.615
 21
5.729999999999999
 31
0
  0
LINE
  8
0
 62
7
 10
4.79
 20
3.35
 30
0
 11
4.79
 21
3.4
 31
0
  0
LINE
  8
0
 62
7
  6
DASHDOT
 10
7.425000000000001
 20
3.35
 30
0
 11
4.79
 21
3.35
 31
0
  0
LINE
  8
0
 62
7
 10
7.425000000000001
 20
3.4
 30
0
 11
7.425000000000001
 21
3.35
 31
0
  0
LINE
  8
0
 62
7
 10
4.79
 20
3.4
 30
0
 11
4.79
 21
5.06
 31
0
  0
LINE
  8
0
 62
7
 10
7.425000000000001
 20
3.4
 30
0
 11
4.79
 21
3.4
 31
0
  0
LINE
  8
0
 62
7
 10
7.425000000000001
 20
3.35
 30
0
 11
7.600000000000001
 21
3.35
 31
0
  0
LINE
  8
0
 62
7
 10
7.600000000000001
 20
5.060000000000002
 30
0
 11
7.765000000000001
 21
5.06
 31
0
  0
LINE
  8
0
 62
7
 10
7.600000000000001
 20
3.35
 30
0
 11
7.600000000000001
 21
5.060000000000002
 31
0
  0
LINE
  8
0
 62
7
 10
7.425000000000001
 20
5.06
 30
0
 11
7.425000000000001
 21
3.4
 31
0
  0
LINE
  8
0
 62
7
 10
4.79
 20
5.06
 30
0
 11
7.425000000000001
 21
5.06
 31
0
  0
LINE
  8
0
 62
7
 10
4.615
 20
5.06
 30
0
 11
4.615
 21
3.25
 31
0
  0
LINE
  8
0
 62
7
 10
4.615
 20
3.25
 30
0
 11
4.79
 21
3.25
 31
0
  0
LINE
  8
0
 62
7
 10
4.79
 20
3.25
 30
0
 11
4.79
 21
3.35
 31
0
  0
LINE
  8
0
 62
7
 10
4.465
 20
5.06
 30
0
 11
4.615
 21
5.06
 31
0
  0
LINE
  8
0
 62
7
 10
4.465
 20
5.300000000000001
 30
0
 11
7.765000000000001
 21
5.300000000000001
 31
0
  0
LINE
  8
0
 62
7
 10
4.465
 20
5.34
 30
0
 11
7.765000000000001
 21
5.34
 31
0
  0
LINE
  8
0
 62
7
 10
7.600000000000001
 20
5.579999999999998
 30
0
 11
7.765000000000001
 21
5.579999999999998
 31
0
  0
LINE
  8
0
 62
7
 10
7.600000000000001
 20
5.729999999999999
 30
0
 11
7.600000000000001
 21
5.579999999999998
 31
0
  0
LINE
  8
0
 62
7
 10
7.425000000000001
 20
5.579999999999998
 30
0
 11
7.425000000000001
 21
5.729999999999999
 31
0
  0
LINE
  8
0
 62
7
 10
4.79
 20
5.579999999999998
 30
0
 11
7.425000000000001
 21
5.579999999999998
 31
0
  0
LINE
  8
0
 62
7
 10
4.79
 20
5.729999999999999
 30
0
 11
4.79
 21
5.579999999999998
 31
0
  0
LINE
  8
0
 62
7
 10
4.615
 20
5.579999999999998
 30
0
 11
4.615
 21
5.729999999999999
 31
0
  0
LINE
  8
0
 62
7
 10
4.465
 20
5.579999999999998
 30
0
 11
4.615
 21
5.579999999999998
 31
0
  0
LINE
  8
0
 62
7
  6
DASHED
 10
0.7400000000000001
 20
8.1
 30
0
 11
2.45
 21
8.1
 31
0
  0
LINE
  8
0
 62
7
  6
DASHED
 10
0.7400000000000001
 20
8.299999999999999
 30
0
 11
2.45
 21
8.299999999999999
 31
0
  0
LINE
  8
0
 62
7
  6
DASHED
 10
0.7400000000000001
 20
10.85
 30
0
 11
2.45
 21
10.85
 31
0
  0
LINE
  8
0
 62
7
  6
DASHED
 10
0.7400000000000001
 20
11.05
 30
0
 11
2.45
 21
11.05
 31
0
  0
LINE
  8
0
 62
7
  6
DASHDOT
 10
2.75
 20
11.05
 30
0
 11
2.75
 21
10.85
 31
0
  0
LINE
  8
0
 62
7
  6
DASHDOT
 10
2.75
 20
10.85
 30
0
 11
2.75
 21
10.8
 31
0
  0
LINE
  8
0
 62
7
  6
DASHDOT
 10
0.5
 20
11.2
 30
0
 11
0.7400000000000001
 21
11.2
 31
0
  0
LINE
  8
0
 62
7
  6
DASHDOT
 10
0.7400000000000001
 20
11.2
 30
0
 11
0.79
 21
11.2
 31
0
  0
LINE
  8
0
 62
7
  6
DASHDOT
 10
0.7400000000000001
 20
7.949999999999999
 30
0
 11
0.79
 21
7.949999999999999
 31
0
  0
LINE
  8
0
 62
7
  6
DASHDOT
 10
0.5
 20
7.949999999999999
 30
0
 11
0.7400000000000001
 21
7.949999999999999
 31
0
  0
LINE
  8
0
 62
7
  6
DASHDOT
 10
2.75
 20
8.1
 30
0
 11
2.75
 21
8.299999999999999
 31
0
  0
LINE
  8
0
 62
7
  6
DASHDOT
 10
2.75
 20
8.299999999999999
 30
0
 11
2.75
 21
8.399999999999999
 31
0
  0
LINE
  8
0
 62
7
  6
DASHDOT
 10
2.75
 20
11.15
 30
0
 11
2.75
 21
11.05
 31
0
  0
LINE
  8
0
 62
7
 10
2.45
 20
11.15
 30
0
 11
2.75
 21
11.15
 31
0
  0
LINE
  8
0
 62
7
  6
DASHDOT
 10
2.75
 20
8.399999999999999
 30
0
 11
2.75
 21
8.449999999999999
 31
0
  0
LINE
  8
0
 62
7
 10
2.45
 20
8.399999999999999
 30
0
 11
2.75
 21
8.399999999999999
 31
0
  0
LINE
  8
0
 62
7
  6
DASHDOT
 10
0.45
 20
7.949999999999999
 30
0
 11
0.5
 21
7.949999999999999
 31
0
  0
LINE
  8
0
 62
7
  6
DASHDOT
 10
2.75
 20
8.049999999999999
 30
0
 11
2.75
 21
8.1
 31
0
  0
LINE
  8
0
 62
7
  6
DASHDOT
 10
2.75
 20
11.2
 30
0
 11
2.75
 21
11.15
 31
0
  0
LINE
  8
0
 62
7
  6
DASHDOT
 10
0.45
 20
11.2
 30
0
 11
0.5
 21
11.2
 31
0
  0
LINE
  8
0
 62
7
 10
2.45
 20
8.1
 30
0
 11
2.75
 21
8.1
 31
0
  0
LINE
  8
0
 62
7
 10
2.45
 20
8.299999999999999
 30
0
 11
2.45
 21
8.1
 31
0
  0
LINE
  8
0
 62
7
 10
2.45
 20
8.299999999999999
 30
0
 11
2.75
 21
8.299999999999999
 31
0
  0
LINE
  8
0
 62
7
 10
2.45
 20
11.05
 30
0
 11
2.75
 21
11.05
 31
0
  0
LINE
  8
0
 62
7
 10
2.45
 20
10.85
 30
0
 11
2.75
 21
10.85
 31
0
  0
LINE
  8
0
 62
7
 10
2.45
 20
11.05
 30
0
 11
2.45
 21
10.85
 31
0
  0
LINE
  8
0
 62
7
 10
0.7400000000000001
 20
8.1
 30
0
 11
0.7400000000000001
 21
7.949999999999999
 31
0
  0
LINE
  8
0
 62
7
 10
0.5
 20
8.1
 30
0
 11
0.5
 21
8.299999999999999
 31
0
  0
LINE
  8
0
 62
7
 10
0.5
 20
8.1
 30
0
 11
0.7400000000000001
 21
8.1
 31
0
  0
LINE
  8
0
 62
7
 10
0.7400000000000001
 20
8.299999999999999
 30
0
 11
0.7400000000000001
 21
8.1
 31
0
  0
LINE
  8
0
 62
7
 10
0.5
 20
8.299999999999999
 30
0
 11
0.5
 21
10.85
 31
0
  0
LINE
  8
0
 62
7
 10
0.5
 20
8.299999999999999
 30
0
 11
0.7400000000000001
 21
8.299999999999999
 31
0
  0
LINE
  8
0
 62
7
 10
0.7400000000000001
 20
10.85
 30
0
 11
0.7400000000000001
 21
8.299999999999999
 31
0
  0
LINE
  8
0
 62
7
 10
0.5
 20
10.85
 30
0
 11
0.5
 21
11.05
 31
0
  0
LINE
  8
0
 62
7
 10
0.5
 20
10.85
 30
0
 11
0.7400000000000001
 21
10.85
 31
0
  0
LINE
  8
0
 62
7
 10
0.7400000000000001
 20
11.05
 30
0
 11
0.7400000000000001
 21
10.85
 31
0
  0
LINE
  8
0
 62
7
 10
0.5
 20
11.05
 30
0
 11
0.5
 21
11.2
 31
0
  0
LINE
  8
0
 62
7
 10
0.5
 20
11.05
 30
0
 11
0.7400000000000001
 21
11.05
 31
0
  0
LINE
  8
0
 62
7
 10
0.7400000000000001
 20
11.2
 30
0
 11
0.7400000000000001
 21
11.05
 31
0
  0
LINE
  8
0
 62
7
 10
0.5
 20
7.949999999999999
 30
0
 11
0.5
 21
8.1
 31
0
  0
LINE
  8
0
 62
7
  6
DASHDOT
 10
4.565
 20
11.2
 30
0
 11
4.615
 21
11.2
 31
0
  0
LINE
  8
0
 62
7
  6
DASHDOT
 10
4.615
 20
11.2
 30
0
 11
4.79
 21
11.2
 31
0
  0
LINE
  8
0
 62
7
  6
DASHDOT
 10
4.465
 20
11.15
 30
0
 11
4.465
 21
11.05
 31
0
  0
LINE
  8
0
 62
7
  6
DASHDOT
 10
4.465
 20
11.05
 30
0
 11
4.465
 21
10.85
 31
0
  0
LINE
  8
0
 62
7
  6
DASHDOT
 10
7.375
 20
11.2
 30
0
 11
7.425000000000001
 21
11.2
 31
0
  0
LINE
  8
0
 62
7
  6
DASHDOT
 10
7.425000000000001
 20
11.2
 30
0
 11
7.600000000000001
 21
11.2
 31
0
  0
LINE
  8
0
 62
7
  6
DASHDOT
 10
7.75
 20
11.15
 30
0
 11
7.75
 21
11.05
 31
0
  0
LINE
  8
0
 62
7
  6
DASHDOT
 10
7.75
 20
11.05
 30
0
 11
7.75
 21
10.85
 31
0
  0
LINE
  8
0
 62
7
  6
DASHDOT
 10
7.375
 20
7.949999999999999
 30
0
 11
7.425000000000001
 21
7.949999999999999
 31
0
  0
LINE
  8
0
 62
7
  6
DASHDOT
 10
7.425000000000001
 20
7.949999999999999
 30
0
 11
7.600000000000001
 21
7.949999999999999
 31
0
  0
LINE
  8
0
 62
7
  6
DASHDOT
 10
7.75
 20
8.399999999999999
 30
0
 11
7.75
 21
8.299999999999999
 31
0
  0
LINE
  8
0
 62
7
  6
DASHDOT
 10
7.75
 20
8.299999999999999
 30
0
 11
7.75
 21
8.1
 31
0
  0
LINE
  8
0
 62
7
  6
DASHDOT
 10
4.565
 20
7.949999999999999
 30
0
 11
4.615
 21
7.949999999999999
 31
0
  0
LINE
  8
0
 62
7
  6
DASHDOT
 10
4.615
 20
7.949999999999999
 30
0
 11
4.79
 21
7.949999999999999
 31
0
  0
LINE
  8
0
 62
7
  6
DASHDOT
 10
4.465
 20
8.399999999999999
 30
0
 11
4.465
 21
8.299999999999999
 31
0
  0
LINE
  8
0
 62
7
  6
DASHDOT
 10
4.465
 20
8.299999999999999
 30
0
 11
4.465
 21
8.1
 31
0
  0
LINE
  8
0
 62
7
  6
DASHDOT
 10
4.465
 20
11.2
 30
0
 11
4.465
 21
11.15
 31
0
  0
LINE
  8
0
 62
7
 10
4.615
 20
11.2
 30
0
 11
4.615
 21
11.15
 31
0
  0
LINE
  8
0
 62
7
 10
4.465
 20
11.15
 30
0
 11
4.615
 21
11.15
 31
0
  0
LINE
  8
0
 62
7
 10
4.79
 20
11.2
 30
0
 11
4.79
 21
11.15
 31
0
  0
LINE
  8
0
 62
7
 10
7.425000000000001
 20
11.2
 30
0
 11
7.425000000000001
 21
11.15
 31
0
  0
LINE
  8
0
 62
7
 10
4.79
 20
11.15
 30
0
 11
7.425000000000001
 21
11.15
 31
0
  0
LINE
  8
0
 62
7
  6
DASHDOT
 10
7.75
 20
11.2
 30
0
 11
7.75
 21
11.15
 31
0
  0
LINE
  8
0
 62
7
 10
7.600000000000001
 20
11.2
 30
0
 11
7.600000000000001
 21
11.15
 31
0
  0
LINE
  8
0
 62
7
 10
7.600000000000001
 20
11.15
 30
0
 11
7.75
 21
11.15
 31
0
  0
LINE
  8
0
 62
7
  6
DASHDOT
 10
4.465
 20
8.449999999999999
 30
0
 11
4.465
 21
8.399999999999999
 31
0
  0
LINE
  8
0
 62
7
 10
4.615
 20
10.85
 30
0
 11
4.615
 21
8.399999999999999
 31
0
  0
LINE
  8
0
 62
7
 10
4.465
 20
8.399999999999999
 30
0
 11
4.615
 21
8.399999999999999
 31
0
  0
LINE
  8
0
 62
7
 10
4.79
 20
10.85
 30
0
 11
4.79
 21
8.399999999999999
 31
0
  0
LINE
  8
0
 62
7
 10
7.425000000000001
 20
10.85
 30
0
 11
7.425000000000001
 21
8.399999999999999
 31
0
  0
LINE
  8
0
 62
7
 10
4.79
 20
8.399999999999999
 30
0
 11
7.425000000000001
 21
8.399999999999999
 31
0
  0
LINE
  8
0
 62
7
  6
DASHDOT
 10
7.75
 20
8.449999999999999
 30
0
 11
7.75
 21
8.399999999999999
 31
0
  0
LINE
  8
0
 62
7
 10
7.600000000000001
 20
10.85
 30
0
 11
7.600000000000001
 21
8.399999999999999
 31
0
  0
LINE
  8
0
 62
7
 10
7.600000000000001
 20
8.399999999999999
 30
0
 11
7.75
 21
8.399999999999999
 31
0
  0
LINE
  8
0
 62
7
  6
DASHDOT
 10
4.79
 20
7.949999999999999
 30
0
 11
4.84
 21
7.949999999999999
 31
0
  0
LINE
  8
0
 62
7
  6
DASHDOT
 10
4.79
 20
11.2
 30
0
 11
4.84
 21
11.2
 31
0
  0
LINE
  8
0
 62
7
  6
DASHDOT
 10
7.600000000000001
 20
7.949999999999999
 30
0
 11
7.65
 21
7.949999999999999
 31
0
  0
LINE
  8
0
 62
7
  6
DASHDOT
 10
7.600000000000001
 20
11.2
 30
0
 11
7.65
 21
11.2
 31
0
  0
LINE
  8
0
 62
7
  6
DASHDOT
 10
4.465
 20
10.85
 30
0
 11
4.465
 21
10.8
 31
0
  0
LINE
  8
0
 62
7
  6
DASHDOT
 10
4.465
 20
8.1
 30
0
 11
4.465
 21
8.049999999999999
 31
0
  0
LINE
  8
0
 62
7
  6
DASHDOT
 10
7.75
 20
10.85
 30
0
 11
7.75
 21
10.8
 31
0
  0
LINE
  8
0
 62
7
  6
DASHDOT
 10
7.75
 20
8.1
 30
0
 11
7.75
 21
8.049999999999999
 31
0
  0
LINE
  8
0
 62
7
 10
4.465
 20
11.05
 30
0
 11
4.615
 21
11.05
 31
0
  0
LINE
  8
0
 62
7
 10
4.615
 20
11.15
 30
0
 11
4.615
 21
11.05
 31
0
  0
LINE
  8
0
 62
7
 10
4.465
 20
10.85
 30
0
 11
4.615
 21
10.85
 31
0
  0
LINE
  8
0
 62
7
 10
4.465
 20
8.299999999999999
 30
0
 11
4.615
 21
8.299999999999999
 31
0
  0
LINE
  8
0
 62
7
 10
4.615
 20
8.399999999999999
 30
0
 11
4.615
 21
8.299999999999999
 31
0
  0
LINE
  8
0
 62
7
 10
4.465
 20
8.1
 30
0
 11
4.615
 21
8.1
 31
0
  0
LINE
  8
0
 62
7
 10
4.615
 20
8.1
 30
0
 11
4.615
 21
7.949999999999999
 31
0
  0
LINE
  8
0
 62
7
 10
4.615
 20
11.05
 30
0
 11
4.79
 21
11.05
 31
0
  0
LINE
  8
0
 62
7
 10
4.79
 20
11.15
 30
0
 11
4.79
 21
11.05
 31
0
  0
LINE
  8
0
 62
7
 10
4.615
 20
10.85
 30
0
 11
4.79
 21
10.85
 31
0
  0
LINE
  8
0
 62
7
 10
4.615
 20
8.299999999999999
 30
0
 11
4.79
 21
8.299999999999999
 31
0
  0
LINE
  8
0
 62
7
 10
4.79
 20
8.399999999999999
 30
0
 11
4.79
 21
8.299999999999999
 31
0
  0
LINE
  8
0
 62
7
 10
4.615
 20
8.1
 30
0
 11
4.79
 21
8.1
 31
0
  0
LINE
  8
0
 62
7
 10
4.79
 20
8.1
 30
0
 11
4.79
 21
7.949999999999999
 31
0
  0
LINE
  8
0
 62
7
 10
4.79
 20
11.05
 30
0
 11
7.425000000000001
 21
11.05
 31
0
  0
LINE
  8
0
 62
7
 10
7.425000000000001
 20
11.15
 30
0
 11
7.425000000000001
 21
11.05
 31
0
  0
LINE
  8
0
 62
7
 10
4.79
 20
10.85
 30
0
 11
7.425000000000001
 21
10.85
 31
0
  0
LINE
  8
0
 62
7
 10
4.79
 20
8.299999999999999
 30
0
 11
7.425000000000001
 21
8.299999999999999
 31
0
  0
LINE
  8
0
 62
7
 10
7.425000000000001
 20
8.399999999999999
 30
0
 11
7.425000000000001
 21
8.299999999999999
 31
0
  0
LINE
  8
0
 62
7
 10
4.79
 20
8.1
 30
0
 11
7.425000000000001
 21
8.1
 31
0
  0
LINE
  8
0
 62
7
 10
7.425000000000001
 20
8.1
 30
0
 11
7.425000000000001
 21
7.949999999999999
 31
0
  0
LINE
  8
0
 62
7
 10
7.425000000000001
 20
11.05
 30
0
 11
7.600000000000001
 21
11.05
 31
0
  0
LINE
  8
0
 62
7
 10
7.600000000000001
 20
11.15
 30
0
 11
7.600000000000001
 21
11.05
 31
0
  0
LINE
  8
0
 62
7
 10
7.425000000000001
 20
10.85
 30
0
 11
7.600000000000001
 21
10.85
 31
0
  0
LINE
  8
0
 62
7
 10
7.425000000000001
 20
8.299999999999999
 30
0
 11
7.600000000000001
 21
8.299999999999999
 31
0
  0
LINE
  8
0
 62
7
 10
7.600000000000001
 20
8.399999999999999
 30
0
 11
7.600000000000001
 21
8.299999999999999
 31
0
  0
LINE
  8
0
 62
7
 10
7.425000000000001
 20
8.1
 30
0
 11
7.600000000000001
 21
8.1
 31
0
  0
LINE
  8
0
 62
7
 10
7.600000000000001
 20
8.1
 30
0
 11
7.600000000000001
 21
7.949999999999999
 31
0
  0
LINE
  8
0
 62
7
 10
7.600000000000001
 20
11.05
 30
0
 11
7.75
 21
11.05
 31
0
  0
LINE
  8
0
 62
7
 10
7.600000000000001
 20
10.85
 30
0
 11
7.75
 21
10.85
 31
0
  0
LINE
  8
0
 62
7
 10
7.600000000000001
 20
8.299999999999999
 30
0
 11
7.75
 21
8.299999999999999
 31
0
  0
LINE
  8
0
 62
7
 10
7.600000000000001
 20
8.1
 30
0
 11
7.75
 21
8.1
 31
0
  0
LINE
  8
0
 62
7
 10
5.279139457928801
 20
4.71354709816613
 30
0
 11
5.279139457928801
 21
4.833547098166131
 31
0
  0
LINE
  8
0
 62
7
 10
5.354739457928801
 20
4.833547098166131
 30
0
 11
5.300739457928803
 21
4.77354709816613
 31
0
  0
LINE
  8
0
 62
7
 10
5.300739457928803
 20
4.77354709816613
 30
0
 11
5.354739457928801
 21
4.71354709816613
 31
0
  0
LINE
  8
0
 62
7
 10
5.300739457928803
 20
4.77354709816613
 30
0
 11
5.279139457928801
 21
4.74954709816613
 31
0
  0
LINE
  8
0
 62
7
 10
5.462739457928802
 20
4.833547098166131
 30
0
 11
5.387139457928801
 21
4.833547098166131
 31
0
  0
LINE
  8
0
 62
7
 10
5.387139457928801
 20
4.833547098166131
 30
0
 11
5.387139457928801
 21
4.77354709816613
 31
0
  0
LINE
  8
0
 62
7
 10
5.387139457928801
 20
4.71354709816613
 30
0
 11
5.462739457928802
 21
4.71354709816613
 31
0
  0
LINE
  8
0
 62
7
 10
5.451939457928802
 20
4.77354709816613
 30
0
 11
5.387139457928801
 21
4.77354709816613
 31
0
  0
LINE
  8
0
 62
7
 10
5.387139457928801
 20
4.77354709816613
 30
0
 11
5.387139457928801
 21
4.71354709816613
 31
0
  0
LINE
  8
0
 62
7
 10
5.495139457928801
 20
4.71354709816613
 30
0
 11
5.495139457928801
 21
4.833547098166131
 31
0
  0
LINE
  8
0
 62
7
 10
5.495139457928801
 20
4.833547098166131
 30
0
 11
5.570739457928802
 21
4.71354709816613
 31
0
  0
LINE
  8
0
 62
7
 10
5.570739457928802
 20
4.71354709816613
 30
0
 11
5.570739457928802
 21
4.833547098166131
 31
0
  0
LINE
  8
0
 62
7
 10
5.603139457928801
 20
4.71354709816613
 30
0
 11
5.603139457928801
 21
4.833547098166131
 31
0
  0
LINE
  8
0
 62
7
 10
5.603139457928801
 20
4.833547098166131
 30
0
 11
5.678739457928802
 21
4.71354709816613
 31
0
  0
LINE
  8
0
 62
7
 10
5.678739457928802
 20
4.71354709816613
 30
0
 11
5.678739457928802
 21
4.833547098166131
 31
0
  0
LINE
  8
0
 62
7
 10
5.786739457928801
 20
4.797547098166131
 30
0
 11
5.784039457928802
 21
4.809547098166131
 31
0
  0
LINE
  8
0
 62
7
 10
5.784039457928802
 20
4.809547098166131
 30
0
 11
5.778639457928802
 21
4.818547098166131
 31
0
  0
LINE
  8
0
 62
7
 10
5.778639457928802
 20
4.818547098166131
 30
0
 11
5.773239457928803
 21
4.82454709816613
 31
0
  0
LINE
  8
0
 62
7
 10
5.773239457928803
 20
4.82454709816613
 30
0
 11
5.765139457928801
 21
4.83054709816613
 31
0
  0
LINE
  8
0
 62
7
 10
5.765139457928801
 20
4.83054709816613
 30
0
 11
5.757039457928801
 21
4.833547098166131
 31
0
  0
LINE
  8
0
 62
7
 10
5.757039457928801
 20
4.833547098166131
 30
0
 11
5.740839457928801
 21
4.833547098166131
 31
0
  0
LINE
  8
0
 62
7
 10
5.740839457928801
 20
4.833547098166131
 30
0
 11
5.732739457928801
 21
4.83054709816613
 31
0
  0
LINE
  8
0
 62
7
 10
5.732739457928801
 20
4.83054709816613
 30
0
 11
5.724639457928801
 21
4.82454709816613
 31
0
  0
LINE
  8
0
 62
7
 10
5.724639457928801
 20
4.82454709816613
 30
0
 11
5.719239457928802
 21
4.818547098166131
 31
0
  0
LINE
  8
0
 62
7
 10
5.719239457928802
 20
4.818547098166131
 30
0
 11
5.713839457928803
 21
4.809547098166131
 31
0
  0
LINE
  8
0
 62
7
 10
5.713839457928803
 20
4.809547098166131
 30
0
 11
5.711139457928802
 21
4.797547098166131
 31
0
  0
LINE
  8
0
 62
7
 10
5.711139457928802
 20
4.797547098166131
 30
0
 11
5.711139457928802
 21
4.74954709816613
 31
0
  0
LINE
  8
0
 62
7
 10
5.711139457928802
 20
4.74954709816613
 30
0
 11
5.713839457928803
 21
4.737547098166131
 31
0
  0
LINE
  8
0
 62
7
 10
5.713839457928803
 20
4.737547098166131
 30
0
 11
5.719239457928802
 21
4.728547098166131
 31
0
  0
LINE
  8
0
 62
7
 10
5.719239457928802
 20
4.728547098166131
 30
0
 11
5.724639457928801
 21
4.722547098166131
 31
0
  0
LINE
  8
0
 62
7
 10
5.724639457928801
 20
4.722547098166131
 30
0
 11
5.732739457928801
 21
4.716547098166131
 31
0
  0
LINE
  8
0
 62
7
 10
5.732739457928801
 20
4.716547098166131
 30
0
 11
5.740839457928801
 21
4.71354709816613
 31
0
  0
LINE
  8
0
 62
7
 10
5.740839457928801
 20
4.71354709816613
 30
0
 11
5.757039457928801
 21
4.71354709816613
 31
0
  0
LINE
  8
0
 62
7
 10
5.757039457928801
 20
4.71354709816613
 30
0
 11
5.765139457928801
 21
4.716547098166131
 31
0
  0
LINE
  8
0
 62
7
 10
5.765139457928801
 20
4.716547098166131
 30
0
 11
5.773239457928803
 21
4.722547098166131
 31
0
  0
LINE
  8
0
 62
7
 10
5.773239457928803
 20
4.722547098166131
 30
0
 11
5.778639457928802
 21
4.728547098166131
 31
0
  0
LINE
  8
0
 62
7
 10
5.778639457928802
 20
4.728547098166131
 30
0
 11
5.784039457928802
 21
4.737547098166131
 31
0
  0
LINE
  8
0
 62
7
 10
5.784039457928802
 20
4.737547098166131
 30
0
 11
5.786739457928801
 21
4.74954709816613
 31
0
  0
LINE
  8
0
 62
7
 10
5.786739457928801
 20
4.74954709816613
 30
0
 11
5.786739457928801
 21
4.77354709816613
 31
0
  0
LINE
  8
0
 62
7
 10
5.786739457928801
 20
4.77354709816613
 30
0
 11
5.754339457928801
 21
4.77354709816613
 31
0
  0
LINE
  8
0
 62
7
 10
5.865039457928801
 20
4.833547098166131
 30
0
 11
5.848839457928801
 21
4.833547098166131
 31
0
  0
LINE
  8
0
 62
7
 10
5.848839457928801
 20
4.833547098166131
 30
0
 11
5.840739457928803
 21
4.83054709816613
 31
0
  0
LINE
  8
0
 62
7
 10
5.840739457928803
 20
4.83054709816613
 30
0
 11
5.832639457928801
 21
4.82454709816613
 31
0
  0
LINE
  8
0
 62
7
 10
5.832639457928801
 20
4.82454709816613
 30
0
 11
5.827239457928801
 21
4.818547098166131
 31
0
  0
LINE
  8
0
 62
7
 10
5.827239457928801
 20
4.818547098166131
 30
0
 11
5.821839457928801
 21
4.809547098166131
 31
0
  0
LINE
  8
0
 62
7
 10
5.821839457928801
 20
4.809547098166131
 30
0
 11
5.819139457928801
 21
4.797547098166131
 31
0
  0
LINE
  8
0
 62
7
 10
5.819139457928801
 20
4.797547098166131
 30
0
 11
5.819139457928801
 21
4.74954709816613
 31
0
  0
LINE
  8
0
 62
7
 10
5.819139457928801
 20
4.74954709816613
 30
0
 11
5.821839457928801
 21
4.737547098166131
 31
0
  0
LINE
  8
0
 62
7
 10
5.821839457928801
 20
4.737547098166131
 30
0
 11
5.827239457928801
 21
4.728547098166131
 31
0
  0
LINE
  8
0
 62
7
 10
5.827239457928801
 20
4.728547098166131
 30
0
 11
5.832639457928801
 21
4.722547098166131
 31
0
  0
LINE
  8
0
 62
7
 10
5.832639457928801
 20
4.722547098166131
 30
0
 11
5.840739457928803
 21
4.716547098166131
 31
0
  0
LINE
  8
0
 62
7
 10
5.840739457928803
 20
4.716547098166131
 30
0
 11
5.848839457928801
 21
4.71354709816613
 31
0
  0
LINE
  8
0
 62
7
 10
5.848839457928801
 20
4.71354709816613
 30
0
 11
5.865039457928801
 21
4.71354709816613
 31
0
  0
LINE
  8
0
 62
7
 10
5.865039457928801
 20
4.71354709816613
 30
0
 11
5.873139457928801
 21
4.716547098166131
 31
0
  0
LINE
  8
0
 62
7
 10
5.873139457928801
 20
4.716547098166131
 30
0
 11
5.881239457928801
 21
4.722547098166131
 31
0
  0
LINE
  8
0
 62
7
 10
5.881239457928801
 20
4.722547098166131
 30
0
 11
5.886639457928801
 21
4.728547098166131
 31
0
  0
LINE
  8
0
 62
7
 10
5.886639457928801
 20
4.728547098166131
 30
0
 11
5.892039457928801
 21
4.737547098166131
 31
0
  0
LINE
  8
0
 62
7
 10
5.892039457928801
 20
4.737547098166131
 30
0
 11
5.894739457928802
 21
4.74954709816613
 31
0
  0
LINE
  8
0
 62
7
 10
5.894739457928802
 20
4.74954709816613
 30
0
 11
5.894739457928802
 21
4.797547098166131
 31
0
  0
LINE
  8
0
 62
7
 10
5.894739457928802
 20
4.797547098166131
 30
0
 11
5.892039457928801
 21
4.809547098166131
 31
0
  0
LINE
  8
0
 62
7
 10
5.892039457928801
 20
4.809547098166131
 30
0
 11
5.886639457928801
 21
4.818547098166131
 31
0
  0
LINE
  8
0
 62
7
 10
5.886639457928801
 20
4.818547098166131
 30
0
 11
5.881239457928801
 21
4.82454709816613
 31
0
  0
LINE
  8
0
 62
7
 10
5.881239457928801
 20
4.82454709816613
 30
0
 11
5.873139457928801
 21
4.83054709816613
 31
0
  0
LINE
  8
0
 62
7
 10
5.873139457928801
 20
4.83054709816613
 30
0
 11
5.865039457928801
 21
4.833547098166131
 31
0
  0
LINE
  8
0
 62
7
 10
5.916339457928802
 20
4.833547098166131
 30
0
 11
5.954139457928803
 21
4.833547098166131
 31
0
  0
LINE
  8
0
 62
7
 10
5.954139457928803
 20
4.833547098166131
 30
0
 11
5.954139457928803
 21
4.71354709816613
 31
0
  0
LINE
  8
0
 62
7
 10
5.954139457928803
 20
4.833547098166131
 30
0
 11
5.991939457928802
 21
4.833547098166131
 31
0
  0
LINE
  8
0
 62
7
 10
6.024339457928802
 20
4.833547098166131
 30
0
 11
6.062139457928802
 21
4.833547098166131
 31
0
  0
LINE
  8
0
 62
7
 10
6.062139457928802
 20
4.833547098166131
 30
0
 11
6.062139457928802
 21
4.71354709816613
 31
0
  0
LINE
  8
0
 62
7
 10
6.062139457928802
 20
4.833547098166131
 30
0
 11
6.099939457928803
 21
4.833547098166131
 31
0
  0
LINE
  8
0
 62
7
 10
6.218739457928802
 20
4.75554709816613
 30
0
 11
6.272739457928801
 21
4.75554709816613
 31
0
  0
LINE
  8
0
 62
7
 10
6.380739457928803
 20
4.833547098166131
 30
0
 11
6.418539457928802
 21
4.833547098166131
 31
0
  0
LINE
  8
0
 62
7
 10
6.418539457928802
 20
4.833547098166131
 30
0
 11
6.418539457928802
 21
4.71354709816613
 31
0
  0
LINE
  8
0
 62
7
 10
6.418539457928802
 20
4.833547098166131
 30
0
 11
6.456339457928803
 21
4.833547098166131
 31
0
  0
LINE
  8
0
 62
7
 10
6.488739457928801
 20
4.71354709816613
 30
0
 11
6.488739457928801
 21
4.833547098166131
 31
0
  0
LINE
  8
0
 62
7
 10
6.488739457928801
 20
4.833547098166131
 30
0
 11
6.540039457928803
 21
4.833547098166131
 31
0
  0
LINE
  8
0
 62
7
 10
6.540039457928803
 20
4.833547098166131
 30
0
 11
6.550839457928802
 21
4.83054709816613
 31
0
  0
LINE
  8
0
 62
7
 10
6.550839457928802
 20
4.83054709816613
 30
0
 11
6.558939457928801
 21
4.82454709816613
 31
0
  0
LINE
  8
0
 62
7
 10
6.558939457928801
 20
4.82454709816613
 30
0
 11
6.561639457928802
 21
4.818547098166131
 31
0
  0
LINE
  8
0
 62
7
 10
6.561639457928802
 20
4.818547098166131
 30
0
 11
6.564339457928802
 21
4.809547098166131
 31
0
  0
LINE
  8
0
 62
7
 10
6.564339457928802
 20
4.809547098166131
 30
0
 11
6.564339457928802
 21
4.797547098166131
 31
0
  0
LINE
  8
0
 62
7
 10
6.564339457928802
 20
4.797547098166131
 30
0
 11
6.561639457928802
 21
4.78854709816613
 31
0
  0
LINE
  8
0
 62
7
 10
6.561639457928802
 20
4.78854709816613
 30
0
 11
6.558939457928801
 21
4.782547098166131
 31
0
  0
LINE
  8
0
 62
7
 10
6.558939457928801
 20
4.782547098166131
 30
0
 11
6.550839457928802
 21
4.77654709816613
 31
0
  0
LINE
  8
0
 62
7
 10
6.550839457928802
 20
4.77654709816613
 30
0
 11
6.540039457928803
 21
4.77354709816613
 31
0
  0
LINE
  8
0
 62
7
 10
6.540039457928803
 20
4.77354709816613
 30
0
 11
6.531939457928802
 21
4.77354709816613
 31
0
  0
LINE
  8
0
 62
7
 10
6.531939457928802
 20
4.77354709816613
 30
0
 11
6.564339457928802
 21
4.71354709816613
 31
0
  0
LINE
  8
0
 62
7
 10
6.531939457928802
 20
4.77354709816613
 30
0
 11
6.488739457928801
 21
4.77354709816613
 31
0
  0
LINE
  8
0
 62
7
 10
6.661539457928803
 20
4.833547098166131
 30
0
 11
6.585939457928802
 21
4.833547098166131
 31
0
  0
LINE
  8
0
 62
7
 10
6.585939457928802
 20
4.833547098166131
 30
0
 11
6.585939457928802
 21
4.77354709816613
 31
0
  0
LINE
  8
0
 62
7
 10
6.585939457928802
 20
4.71354709816613
 30
0
 11
6.661539457928803
 21
4.71354709816613
 31
0
  0
LINE
  8
0
 62
7
 10
6.650739457928804
 20
4.77354709816613
 30
0
 11
6.585939457928802
 21
4.77354709816613
 31
0
  0
LINE
  8
0
 62
7
 10
6.585939457928802
 20
4.77354709816613
 30
0
 11
6.585939457928802
 21
4.71354709816613
 31
0
  0
LINE
  8
0
 62
7
 10
6.693939457928803
 20
4.71354709816613
 30
0
 11
6.693939457928803
 21
4.77354709816613
 31
0
  0
LINE
  8
0
 62
7
 10
6.693939457928803
 20
4.833547098166131
 30
0
 11
6.745239457928803
 21
4.833547098166131
 31
0
  0
LINE
  8
0
 62
7
 10
6.745239457928803
 20
4.833547098166131
 30
0
 11
6.756039457928804
 21
4.83054709816613
 31
0
  0
LINE
  8
0
 62
7
 10
6.756039457928804
 20
4.83054709816613
 30
0
 11
6.764139457928803
 21
4.82454709816613
 31
0
  0
LINE
  8
0
 62
7
 10
6.764139457928803
 20
4.82454709816613
 30
0
 11
6.766839457928802
 21
4.818547098166131
 31
0
  0
LINE
  8
0
 62
7
 10
6.766839457928802
 20
4.818547098166131
 30
0
 11
6.769539457928804
 21
4.809547098166131
 31
0
  0
LINE
  8
0
 62
7
 10
6.769539457928804
 20
4.809547098166131
 30
0
 11
6.769539457928804
 21
4.797547098166131
 31
0
  0
LINE
  8
0
 62
7
 10
6.769539457928804
 20
4.797547098166131
 30
0
 11
6.766839457928802
 21
4.78854709816613
 31
0
  0
LINE
  8
0
 62
7
 10
6.766839457928802
 20
4.78854709816613
 30
0
 11
6.764139457928803
 21
4.782547098166131
 31
0
  0
LINE
  8
0
 62
7
 10
6.764139457928803
 20
4.782547098166131
 30
0
 11
6.756039457928804
 21
4.77654709816613
 31
0
  0
LINE
  8
0
 62
7
 10
6.756039457928804
 20
4.77654709816613
 30
0
 11
6.745239457928803
 21
4.77354709816613
 31
0
  0
LINE
  8
0
 62
7
 10
6.745239457928803
 20
4.77354709816613
 30
0
 11
6.693939457928803
 21
4.77354709816613
 31
0
  0
LINE
  8
0
 62
7
 10
6.693939457928803
 20
4.77354709816613
 30
0
 11
6.693939457928803
 21
4.833547098166131
 31
0
  0
LINE
  8
0
 62
7
 10
6.791139457928804
 20
4.71354709816613
 30
0
 11
6.791139457928804
 21
4.77354709816613
 31
0
  0
LINE
  8
0
 62
7
 10
6.791139457928804
 20
4.833547098166131
 30
0
 11
6.842439457928804
 21
4.833547098166131
 31
0
  0
LINE
  8
0
 62
7
 10
6.842439457928804
 20
4.833547098166131
 30
0
 11
6.853239457928805
 21
4.83054709816613
 31
0
  0
LINE
  8
0
 62
7
 10
6.853239457928805
 20
4.83054709816613
 30
0
 11
6.861339457928803
 21
4.82454709816613
 31
0
  0
LINE
  8
0
 62
7
 10
6.861339457928803
 20
4.82454709816613
 30
0
 11
6.864039457928803
 21
4.818547098166131
 31
0
  0
LINE
  8
0
 62
7
 10
6.864039457928803
 20
4.818547098166131
 30
0
 11
6.866739457928803
 21
4.809547098166131
 31
0
  0
LINE
  8
0
 62
7
 10
6.866739457928803
 20
4.809547098166131
 30
0
 11
6.866739457928803
 21
4.797547098166131
 31
0
  0
LINE
  8
0
 62
7
 10
6.866739457928803
 20
4.797547098166131
 30
0
 11
6.864039457928803
 21
4.78854709816613
 31
0
  0
LINE
  8
0
 62
7
 10
6.864039457928803
 20
4.78854709816613
 30
0
 11
6.861339457928803
 21
4.782547098166131
 31
0
  0
LINE
  8
0
 62
7
 10
6.861339457928803
 20
4.782547098166131
 30
0
 11
6.853239457928805
 21
4.77654709816613
 31
0
  0
LINE
  8
0
 62
7
 10
6.853239457928805
 20
4.77654709816613
 30
0
 11
6.842439457928804
 21
4.77354709816613
 31
0
  0
LINE
  8
0
 62
7
 10
6.842439457928804
 20
4.77354709816613
 30
0
 11
6.791139457928804
 21
4.77354709816613
 31
0
  0
LINE
  8
0
 62
7
 10
6.791139457928804
 20
4.77354709816613
 30
0
 11
6.791139457928804
 21
4.833547098166131
 31
0
  0
LINE
  8
0
 62
7
 10
6.963939457928802
 20
4.833547098166131
 30
0
 11
6.888339457928803
 21
4.833547098166131
 31
0
  0
LINE
  8
0
 62
7
 10
6.888339457928803
 20
4.833547098166131
 30
0
 11
6.888339457928803
 21
4.77354709816613
 31
0
  0
LINE
  8
0
 62
7
 10
6.888339457928803
 20
4.71354709816613
 30
0
 11
6.963939457928802
 21
4.71354709816613
 31
0
  0
LINE
  8
0
 62
7
 10
6.953139457928803
 20
4.77354709816613
 30
0
 11
6.888339457928803
 21
4.77354709816613
 31
0
  0
LINE
  8
0
 62
7
 10
6.888339457928803
 20
4.77354709816613
 30
0
 11
6.888339457928803
 21
4.71354709816613
 31
0
  0
LINE
  8
0
 62
7
 10
4.675
 20
3.009999999999999
 30
0
 11
4.750599999999999
 21
3.009999999999999
 31
0
  0
LINE
  8
0
 62
7
 10
4.750599999999999
 20
3.009999999999999
 30
0
 11
4.675
 21
2.889999999999999
 31
0
  0
LINE
  8
0
 62
7
 10
4.675
 20
2.889999999999999
 30
0
 11
4.750599999999999
 21
2.889999999999999
 31
0
  0
LINE
  8
0
 62
7
 10
4.783
 20
2.992
 30
0
 11
4.7884
 21
3.001
 31
0
  0
LINE
  8
0
 62
7
 10
4.7884
 20
3.001
 30
0
 11
4.796499999999999
 21
3.007
 31
0
  0
LINE
  8
0
 62
7
 10
4.796499999999999
 20
3.007
 30
0
 11
4.807300000000001
 21
3.009999999999999
 31
0
  0
LINE
  8
0
 62
7
 10
4.807300000000001
 20
3.009999999999999
 30
0
 11
4.823499999999999
 21
3.009999999999999
 31
0
  0
LINE
  8
0
 62
7
 10
4.823499999999999
 20
3.009999999999999
 30
0
 11
4.8343
 21
3.007
 31
0
  0
LINE
  8
0
 62
7
 10
4.8343
 20
3.007
 30
0
 11
4.842399999999999
 21
3.001
 31
0
  0
LINE
  8
0
 62
7
 10
4.842399999999999
 20
3.001
 30
0
 11
4.847799999999999
 21
2.992
 31
0
  0
LINE
  8
0
 62
7
 10
4.847799999999999
 20
2.992
 30
0
 11
4.847799999999999
 21
2.979999999999999
 31
0
  0
LINE
  8
0
 62
7
 10
4.847799999999999
 20
2.979999999999999
 30
0
 11
4.842399999999999
 21
2.968
 31
0
  0
LINE
  8
0
 62
7
 10
4.842399999999999
 20
2.968
 30
0
 11
4.783
 21
2.889999999999999
 31
0
  0
LINE
  8
0
 62
7
 10
4.783
 20
2.889999999999999
 30
0
 11
4.847799999999999
 21
2.889999999999999
 31
0
  0
LINE
  8
0
 62
7
 10
4.880199999999999
 20
3.009999999999999
 30
0
 11
4.918
 21
2.889999999999999
 31
0
  0
LINE
  8
0
 62
7
 10
4.918
 20
2.889999999999999
 30
0
 11
4.9558
 21
3.009999999999999
 31
0
  0
LINE
  8
0
 62
7
 10
4.988199999999999
 20
2.992
 30
0
 11
4.993599999999999
 21
3.001
 31
0
  0
LINE
  8
0
 62
7
 10
4.993599999999999
 20
3.001
 30
0
 11
5.0017
 21
3.007
 31
0
  0
LINE
  8
0
 62
7
 10
5.0017
 20
3.007
 30
0
 11
5.012499999999999
 21
3.009999999999999
 31
0
  0
LINE
  8
0
 62
7
 10
5.012499999999999
 20
3.009999999999999
 30
0
 11
5.0287
 21
3.009999999999999
 31
0
  0
LINE
  8
0
 62
7
 10
5.0287
 20
3.009999999999999
 30
0
 11
5.039499999999999
 21
3.007
 31
0
  0
LINE
  8
0
 62
7
 10
5.039499999999999
 20
3.007
 30
0
 11
5.047599999999999
 21
3.001
 31
0
  0
LINE
  8
0
 62
7
 10
5.047599999999999
 20
3.001
 30
0
 11
5.053000000000001
 21
2.992
 31
0
  0
LINE
  8
0
 62
7
 10
5.053000000000001
 20
2.992
 30
0
 11
5.053000000000001
 21
2.979999999999999
 31
0
  0
LINE
  8
0
 62
7
 10
5.053000000000001
 20
2.979999999999999
 30
0
 11
5.047599999999999
 21
2.968
 31
0
  0
LINE
  8
0
 62
7
 10
5.047599999999999
 20
2.968
 30
0
 11
4.988199999999999
 21
2.889999999999999
 31
0
  0
LINE
  8
0
 62
7
 10
4.988199999999999
 20
2.889999999999999
 30
0
 11
5.053000000000001
 21
2.889999999999999
 31
0
  0
LINE
  8
0
 62
7
 10
5.085399999999999
 20
2.938
 30
0
 11
5.088099999999999
 21
2.949999999999999
 31
0
  0
LINE
  8
0
 62
7
 10
5.088099999999999
 20
2.949999999999999
 30
0
 11
5.0935
 21
2.959
 31
0
  0
LINE
  8
0
 62
7
 10
5.0935
 20
2.959
 30
0
 11
5.1016
 21
2.964999999999999
 31
0
  0
LINE
  8
0
 62
7
 10
5.1016
 20
2.964999999999999
 30
0
 11
5.109699999999999
 21
2.968
 31
0
  0
LINE
  8
0
 62
7
 10
5.109699999999999
 20
2.968
 30
0
 11
5.125900000000001
 21
2.968
 31
0
  0
LINE
  8
0
 62
7
 10
5.125900000000001
 20
2.968
 30
0
 11
5.134
 21
2.964999999999999
 31
0
  0
LINE
  8
0
 62
7
 10
5.134
 20
2.964999999999999
 30
0
 11
5.142099999999999
 21
2.959
 31
0
  0
LINE
  8
0
 62
7
 10
5.142099999999999
 20
2.959
 30
0
 11
5.1475
 21
2.949999999999999
 31
0
  0
LINE
  8
0
 62
7
 10
5.1475
 20
2.949999999999999
 30
0
 11
5.150199999999999
 21
2.938
 31
0
  0
LINE
  8
0
 62
7
 10
5.150199999999999
 20
2.938
 30
0
 11
5.150199999999999
 21
2.919999999999999
 31
0
  0
LINE
  8
0
 62
7
 10
5.150199999999999
 20
2.919999999999999
 30
0
 11
5.1475
 21
2.908
 31
0
  0
LINE
  8
0
 62
7
 10
5.1475
 20
2.908
 30
0
 11
5.142099999999999
 21
2.899
 31
0
  0
LINE
  8
0
 62
7
 10
5.142099999999999
 20
2.899
 30
0
 11
5.134
 21
2.893
 31
0
  0
LINE
  8
0
 62
7
 10
5.134
 20
2.893
 30
0
 11
5.125900000000001
 21
2.889999999999999
 31
0
  0
LINE
  8
0
 62
7
 10
5.125900000000001
 20
2.889999999999999
 30
0
 11
5.109699999999999
 21
2.889999999999999
 31
0
  0
LINE
  8
0
 62
7
 10
5.109699999999999
 20
2.889999999999999
 30
0
 11
5.1016
 21
2.893
 31
0
  0
LINE
  8
0
 62
7
 10
5.1016
 20
2.893
 30
0
 11
5.0935
 21
2.899
 31
0
  0
LINE
  8
0
 62
7
 10
5.0935
 20
2.899
 30
0
 11
5.088099999999999
 21
2.908
 31
0
  0
LINE
  8
0
 62
7
 10
5.088099999999999
 20
2.908
 30
0
 11
5.085399999999999
 21
2.919999999999999
 31
0
  0
LINE
  8
0
 62
7
 10
5.085399999999999
 20
2.919999999999999
 30
0
 11
5.085399999999999
 21
2.938
 31
0
  0
LINE
  8
0
 62
7
 10
5.085399999999999
 20
2.979999999999999
 30
0
 11
5.088099999999999
 21
2.992
 31
0
  0
LINE
  8
0
 62
7
 10
5.088099999999999
 20
2.992
 30
0
 11
5.0935
 21
3.001
 31
0
  0
LINE
  8
0
 62
7
 10
5.0935
 20
3.001
 30
0
 11
5.1016
 21
3.007
 31
0
  0
LINE
  8
0
 62
7
 10
5.1016
 20
3.007
 30
0
 11
5.109699999999999
 21
3.009999999999999
 31
0
  0
LINE
  8
0
 62
7
 10
5.109699999999999
 20
3.009999999999999
 30
0
 11
5.125900000000001
 21
3.009999999999999
 31
0
  0
LINE
  8
0
 62
7
 10
5.125900000000001
 20
3.009999999999999
 30
0
 11
5.134
 21
3.007
 31
0
  0
LINE
  8
0
 62
7
 10
5.134
 20
3.007
 30
0
 11
5.142099999999999
 21
3.001
 31
0
  0
LINE
  8
0
 62
7
 10
5.142099999999999
 20
3.001
 30
0
 11
5.1475
 21
2.992
 31
0
  0
LINE
  8
0
 62
7
 10
5.085399999999999
 20
2.938
 30
0
 11
5.085399999999999
 21
2.979999999999999
 31
0
  0
LINE
  8
0
 62
7
 10
5.182600000000001
 20
2.992
 30
0
 11
5.188000000000001
 21
3.001
 31
0
  0
LINE
  8
0
 62
7
 10
5.188000000000001
 20
3.001
 30
0
 11
5.196100000000001
 21
3.007
 31
0
  0
LINE
  8
0
 62
7
 10
5.196100000000001
 20
3.007
 30
0
 11
5.2069
 21
3.009999999999999
 31
0
  0
LINE
  8
0
 62
7
 10
5.2069
 20
3.009999999999999
 30
0
 11
5.2231
 21
3.009999999999999
 31
0
  0
LINE
  8
0
 62
7
 10
5.2231
 20
3.009999999999999
 30
0
 11
5.2312
 21
3.007
 31
0
  0
LINE
  8
0
 62
7
 10
5.2312
 20
3.007
 30
0
 11
5.2393
 21
3.001
 31
0
  0
LINE
  8
0
 62
7
 10
5.2393
 20
3.001
 30
0
 11
5.244700000000002
 21
2.992
 31
0
  0
LINE
  8
0
 62
7
 10
5.244700000000002
 20
2.992
 30
0
 11
5.2474
 21
2.979999999999999
 31
0
  0
LINE
  8
0
 62
7
 10
5.2474
 20
2.979999999999999
 30
0
 11
5.2474
 21
2.971
 31
0
  0
LINE
  8
0
 62
7
 10
5.2474
 20
2.971
 30
0
 11
5.244700000000002
 21
2.962
 31
0
  0
LINE
  8
0
 62
7
 10
5.244700000000002
 20
2.962
 30
0
 11
5.2393
 21
2.956
 31
0
  0
LINE
  8
0
 62
7
 10
5.2393
 20
2.956
 30
0
 11
5.2258
 21
2.949999999999999
 31
0
  0
LINE
  8
0
 62
7
 10
5.2069
 20
2.949999999999999
 30
0
 11
5.2258
 21
2.949999999999999
 31
0
  0
LINE
  8
0
 62
7
 10
5.2258
 20
2.949999999999999
 30
0
 11
5.2393
 21
2.944
 31
0
  0
LINE
  8
0
 62
7
 10
5.2393
 20
2.944
 30
0
 11
5.244700000000002
 21
2.938
 31
0
  0
LINE
  8
0
 62
7
 10
5.244700000000002
 20
2.938
 30
0
 11
5.2474
 21
2.929
 31
0
  0
LINE
  8
0
 62
7
 10
5.2474
 20
2.929
 30
0
 11
5.2474
 21
2.919999999999999
 31
0
  0
LINE
  8
0
 62
7
 10
5.2474
 20
2.919999999999999
 30
0
 11
5.244700000000002
 21
2.908
 31
0
  0
LINE
  8
0
 62
7
 10
5.244700000000002
 20
2.908
 30
0
 11
5.2393
 21
2.899
 31
0
  0
LINE
  8
0
 62
7
 10
5.2393
 20
2.899
 30
0
 11
5.2312
 21
2.893
 31
0
  0
LINE
  8
0
 62
7
 10
5.2312
 20
2.893
 30
0
 11
5.2231
 21
2.889999999999999
 31
0
  0
LINE
  8
0
 62
7
 10
5.2231
 20
2.889999999999999
 30
0
 11
5.2069
 21
2.889999999999999
 31
0
  0
LINE
  8
0
 62
7
 10
5.2069
 20
2.889999999999999
 30
0
 11
5.196100000000001
 21
2.893
 31
0
  0
LINE
  8
0
 62
7
 10
5.196100000000001
 20
2.893
 30
0
 11
5.188000000000001
 21
2.899
 31
0
  0
LINE
  8
0
 62
7
 10
5.188000000000001
 20
2.899
 30
0
 11
5.182600000000001
 21
2.908
 31
0
  0
LINE
  8
0
 62
7
 10
5.2798
 20
2.889999999999999
 30
0
 11
5.2798
 21
3.009999999999999
 31
0
  0
LINE
  8
0
 62
7
 10
5.2798
 20
3.009999999999999
 30
0
 11
5.331100000000001
 21
3.009999999999999
 31
0
  0
LINE
  8
0
 62
7
 10
5.331100000000001
 20
3.009999999999999
 30
0
 11
5.3419
 21
3.007
 31
0
  0
LINE
  8
0
 62
7
 10
5.3419
 20
3.007
 30
0
 11
5.35
 21
3.001
 31
0
  0
LINE
  8
0
 62
7
 10
5.35
 20
3.001
 30
0
 11
5.352699999999999
 21
2.994999999999999
 31
0
  0
LINE
  8
0
 62
7
 10
5.352699999999999
 20
2.994999999999999
 30
0
 11
5.355399999999999
 21
2.986
 31
0
  0
LINE
  8
0
 62
7
 10
5.355399999999999
 20
2.986
 30
0
 11
5.355399999999999
 21
2.974
 31
0
  0
LINE
  8
0
 62
7
 10
5.355399999999999
 20
2.974
 30
0
 11
5.352699999999999
 21
2.964999999999999
 31
0
  0
LINE
  8
0
 62
7
 10
5.352699999999999
 20
2.964999999999999
 30
0
 11
5.35
 21
2.959
 31
0
  0
LINE
  8
0
 62
7
 10
5.35
 20
2.959
 30
0
 11
5.3419
 21
2.953
 31
0
  0
LINE
  8
0
 62
7
 10
5.3419
 20
2.953
 30
0
 11
5.331100000000001
 21
2.949999999999999
 31
0
  0
LINE
  8
0
 62
7
 10
5.331100000000001
 20
2.949999999999999
 30
0
 11
5.323
 21
2.949999999999999
 31
0
  0
LINE
  8
0
 62
7
 10
5.323
 20
2.949999999999999
 30
0
 11
5.355399999999999
 21
2.889999999999999
 31
0
  0
LINE
  8
0
 62
7
 10
5.323
 20
2.949999999999999
 30
0
 11
5.2798
 21
2.949999999999999
 31
0
  0
LINE
  8
0
 62
7
 10
5.376999999999999
 20
2.938
 30
0
 11
5.3797
 21
2.949999999999999
 31
0
  0
LINE
  8
0
 62
7
 10
5.3797
 20
2.949999999999999
 30
0
 11
5.385100000000001
 21
2.959
 31
0
  0
LINE
  8
0
 62
7
 10
5.385100000000001
 20
2.959
 30
0
 11
5.393199999999999
 21
2.964999999999999
 31
0
  0
LINE
  8
0
 62
7
 10
5.393199999999999
 20
2.964999999999999
 30
0
 11
5.401300000000001
 21
2.968
 31
0
  0
LINE
  8
0
 62
7
 10
5.401300000000001
 20
2.968
 30
0
 11
5.4175
 21
2.968
 31
0
  0
LINE
  8
0
 62
7
 10
5.4175
 20
2.968
 30
0
 11
5.425599999999999
 21
2.964999999999999
 31
0
  0
LINE
  8
0
 62
7
 10
5.425599999999999
 20
2.964999999999999
 30
0
 11
5.433699999999999
 21
2.959
 31
0
  0
LINE
  8
0
 62
7
 10
5.433699999999999
 20
2.959
 30
0
 11
5.4391
 21
2.949999999999999
 31
0
  0
LINE
  8
0
 62
7
 10
5.4391
 20
2.949999999999999
 30
0
 11
5.4418
 21
2.938
 31
0
  0
LINE
  8
0
 62
7
 10
5.4418
 20
2.938
 30
0
 11
5.4418
 21
2.919999999999999
 31
0
  0
LINE
  8
0
 62
7
 10
5.4418
 20
2.919999999999999
 30
0
 11
5.4391
 21
2.908
 31
0
  0
LINE
  8
0
 62
7
 10
5.4391
 20
2.908
 30
0
 11
5.433699999999999
 21
2.899
 31
0
  0
LINE
  8
0
 62
7
 10
5.433699999999999
 20
2.899
 30
0
 11
5.425599999999999
 21
2.893
 31
0
  0
LINE
  8
0
 62
7
 10
5.425599999999999
 20
2.893
 30
0
 11
5.4175
 21
2.889999999999999
 31
0
  0
LINE
  8
0
 62
7
 10
5.4175
 20
2.889999999999999
 30
0
 11
5.401300000000001
 21
2.889999999999999
 31
0
  0
LINE
  8
0
 62
7
 10
5.401300000000001
 20
2.889999999999999
 30
0
 11
5.393199999999999
 21
2.893
 31
0
  0
LINE
  8
0
 62
7
 10
5.393199999999999
 20
2.893
 30
0
 11
5.385100000000001
 21
2.899
 31
0
  0
LINE
  8
0
 62
7
 10
5.385100000000001
 20
2.899
 30
0
 11
5.3797
 21
2.908
 31
0
  0
LINE
  8
0
 62
7
 10
5.3797
 20
2.908
 30
0
 11
5.376999999999999
 21
2.919999999999999
 31
0
  0
LINE
  8
0
 62
7
 10
5.376999999999999
 20
2.919999999999999
 30
0
 11
5.376999999999999
 21
2.938
 31
0
  0
LINE
  8
0
 62
7
 10
5.376999999999999
 20
2.979999999999999
 30
0
 11
5.3797
 21
2.992
 31
0
  0
LINE
  8
0
 62
7
 10
5.3797
 20
2.992
 30
0
 11
5.385100000000001
 21
3.001
 31
0
  0
LINE
  8
0
 62
7
 10
5.385100000000001
 20
3.001
 30
0
 11
5.393199999999999
 21
3.007
 31
0
  0
LINE
  8
0
 62
7
 10
5.393199999999999
 20
3.007
 30
0
 11
5.401300000000001
 21
3.009999999999999
 31
0
  0
LINE
  8
0
 62
7
 10
5.401300000000001
 20
3.009999999999999
 30
0
 11
5.4175
 21
3.009999999999999
 31
0
  0
LINE
  8
0
 62
7
 10
5.4175
 20
3.009999999999999
 30
0
 11
5.425599999999999
 21
3.007
 31
0
  0
LINE
  8
0
 62
7
 10
5.425599999999999
 20
3.007
 30
0
 11
5.433699999999999
 21
3.001
 31
0
  0
LINE
  8
0
 62
7
 10
5.433699999999999
 20
3.001
 30
0
 11
5.4391
 21
2.992
 31
0
  0
LINE
  8
0
 62
7
 10
5.376999999999999
 20
2.938
 30
0
 11
5.376999999999999
 21
2.979999999999999
 31
0
  0
LINE
  8
0
 62
7
 10
7.175000000000001
 20
2.889999999999999
 30
0
 11
7.175000000000001
 21
2.989999999999999
 31
0
  0
LINE
  8
0
 62
7
 10
7.175000000000001
 20
2.989999999999999
 30
0
 11
7.238
 21
2.889999999999999
 31
0
  0
LINE
  8
0
 62
7
 10
7.238
 20
2.889999999999999
 30
0
 11
7.238
 21
2.989999999999999
 31
0
  0
LINE
  8
0
 62
7
 10
7.319
 20
2.889999999999999
 30
0
 11
7.265000000000001
 21
2.889999999999999
 31
0
  0
LINE
  8
0
 62
7
 10
7.265000000000001
 20
2.889999999999999
 30
0
 11
7.265000000000001
 21
2.989999999999999
 31
0
  0
LINE
  8
0
 62
7
 10
7.346
 20
2.94
 30
0
 11
7.382
 21
2.94
 31
0
  0
LINE
  8
0
 62
7
 10
7.382
 20
2.94
 30
0
 11
7.3865
 21
2.94
 31
0
  0
LINE
  8
0
 62
7
 10
7.3865
 20
2.94
 30
0
 11
7.3955
 21
2.934999999999999
 31
0
  0
LINE
  8
0
 62
7
 10
7.3955
 20
2.934999999999999
 30
0
 11
7.4
 21
2.929999999999999
 31
0
  0
LINE
  8
0
 62
7
 10
7.4
 20
2.929999999999999
 30
0
 11
7.404499999999999
 21
2.919999999999999
 31
0
  0
LINE
  8
0
 62
7
 10
7.404499999999999
 20
2.919999999999999
 30
0
 11
7.404499999999999
 21
2.909999999999999
 31
0
  0
LINE
  8
0
 62
7
 10
7.404499999999999
 20
2.909999999999999
 30
0
 11
7.4
 21
2.899999999999999
 31
0
  0
LINE
  8
0
 62
7
 10
7.4
 20
2.899999999999999
 30
0
 11
7.3955
 21
2.895
 31
0
  0
LINE
  8
0
 62
7
 10
7.3955
 20
2.895
 30
0
 11
7.3865
 21
2.889999999999999
 31
0
  0
LINE
  8
0
 62
7
 10
7.3865
 20
2.889999999999999
 30
0
 11
7.346
 21
2.889999999999999
 31
0
  0
LINE
  8
0
 62
7
 10
7.346
 20
2.889999999999999
 30
0
 11
7.346
 21
2.94
 31
0
  0
LINE
  8
0
 62
7
 10
7.346
 20
2.989999999999999
 30
0
 11
7.37975
 21
2.989999999999999
 31
0
  0
LINE
  8
0
 62
7
 10
7.37975
 20
2.989999999999999
 30
0
 11
7.391
 21
2.987499999999999
 31
0
  0
LINE
  8
0
 62
7
 10
7.391
 20
2.987499999999999
 30
0
 11
7.397750000000001
 21
2.979999999999999
 31
0
  0
LINE
  8
0
 62
7
 10
7.397750000000001
 20
2.979999999999999
 30
0
 11
7.4
 21
2.969999999999999
 31
0
  0
LINE
  8
0
 62
7
 10
7.4
 20
2.969999999999999
 30
0
 11
7.4
 21
2.959999999999999
 31
0
  0
LINE
  8
0
 62
7
 10
7.4
 20
2.959999999999999
 30
0
 11
7.3955
 21
2.949999999999999
 31
0
  0
LINE
  8
0
 62
7
 10
7.3955
 20
2.949999999999999
 30
0
 11
7.388750000000001
 21
2.942499999999999
 31
0
  0
LINE
  8
0
 62
7
 10
7.388750000000001
 20
2.942499999999999
 30
0
 11
7.382
 21
2.94
 31
0
  0
LINE
  8
0
 62
7
 10
7.346
 20
2.94
 30
0
 11
7.346
 21
2.989999999999999
 31
0
  0
LINE
  8
0
 62
7
 10
7.546250000000001
 20
2.942499999999999
 30
0
 11
7.5395
 21
2.952499999999999
 31
0
  0
LINE
  8
0
 62
7
 10
7.5395
 20
2.952499999999999
 30
0
 11
7.53275
 21
2.9575
 31
0
  0
LINE
  8
0
 62
7
 10
7.53275
 20
2.9575
 30
0
 11
7.526
 21
2.959999999999999
 31
0
  0
LINE
  8
0
 62
7
 10
7.526
 20
2.959999999999999
 30
0
 11
7.516999999999999
 21
2.959999999999999
 31
0
  0
LINE
  8
0
 62
7
 10
7.516999999999999
 20
2.959999999999999
 30
0
 11
7.510250000000001
 21
2.9575
 31
0
  0
LINE
  8
0
 62
7
 10
7.510250000000001
 20
2.9575
 30
0
 11
7.5035
 21
2.952499999999999
 31
0
  0
LINE
  8
0
 62
7
 10
7.5035
 20
2.952499999999999
 30
0
 11
7.49675
 21
2.942499999999999
 31
0
  0
LINE
  8
0
 62
7
 10
7.49675
 20
2.942499999999999
 30
0
 11
7.494499999999999
 21
2.934999999999999
 31
0
  0
LINE
  8
0
 62
7
 10
7.494499999999999
 20
2.934999999999999
 30
0
 11
7.494499999999999
 21
2.914999999999999
 31
0
  0
LINE
  8
0
 62
7
 10
7.494499999999999
 20
2.914999999999999
 30
0
 11
7.49675
 21
2.907499999999999
 31
0
  0
LINE
  8
0
 62
7
 10
7.49675
 20
2.907499999999999
 30
0
 11
7.5035
 21
2.897499999999999
 31
0
  0
LINE
  8
0
 62
7
 10
7.5035
 20
2.897499999999999
 30
0
 11
7.510250000000001
 21
2.892499999999999
 31
0
  0
LINE
  8
0
 62
7
 10
7.510250000000001
 20
2.892499999999999
 30
0
 11
7.516999999999999
 21
2.889999999999999
 31
0
  0
LINE
  8
0
 62
7
 10
7.516999999999999
 20
2.889999999999999
 30
0
 11
7.526
 21
2.889999999999999
 31
0
  0
LINE
  8
0
 62
7
 10
7.526
 20
2.889999999999999
 30
0
 11
7.53275
 21
2.892499999999999
 31
0
  0
LINE
  8
0
 62
7
 10
7.53275
 20
2.892499999999999
 30
0
 11
7.5395
 21
2.897499999999999
 31
0
  0
LINE
  8
0
 62
7
 10
7.5395
 20
2.897499999999999
 30
0
 11
7.546250000000001
 21
2.907499999999999
 31
0
  0
LINE
  8
0
 62
7
 10
7.61825
 20
2.934999999999999
 30
0
 11
7.616
 21
2.942499999999999
 31
0
  0
LINE
  8
0
 62
7
 10
7.616
 20
2.942499999999999
 30
0
 11
7.60925
 21
2.952499999999999
 31
0
  0
LINE
  8
0
 62
7
 10
7.60925
 20
2.952499999999999
 30
0
 11
7.602500000000001
 21
2.9575
 31
0
  0
LINE
  8
0
 62
7
 10
7.602500000000001
 20
2.9575
 30
0
 11
7.59575
 21
2.959999999999999
 31
0
  0
LINE
  8
0
 62
7
 10
7.59575
 20
2.959999999999999
 30
0
 11
7.586750000000001
 21
2.959999999999999
 31
0
  0
LINE
  8
0
 62
7
 10
7.586750000000001
 20
2.959999999999999
 30
0
 11
7.58
 21
2.9575
 31
0
  0
LINE
  8
0
 62
7
 10
7.58
 20
2.9575
 30
0
 11
7.573249999999999
 21
2.952499999999999
 31
0
  0
LINE
  8
0
 62
7
 10
7.573249999999999
 20
2.952499999999999
 30
0
 11
7.566500000000001
 21
2.942499999999999
 31
0
  0
LINE
  8
0
 62
7
 10
7.566500000000001
 20
2.942499999999999
 30
0
 11
7.56425
 21
2.934999999999999
 31
0
  0
LINE
  8
0
 62
7
 10
7.56425
 20
2.934999999999999
 30
0
 11
7.56425
 21
2.914999999999999
 31
0
  0
LINE
  8
0
 62
7
 10
7.56425
 20
2.914999999999999
 30
0
 11
7.566500000000001
 21
2.907499999999999
 31
0
  0
LINE
  8
0
 62
7
 10
7.566500000000001
 20
2.907499999999999
 30
0
 11
7.573249999999999
 21
2.897499999999999
 31
0
  0
LINE
  8
0
 62
7
 10
7.573249999999999
 20
2.897499999999999
 30
0
 11
7.58
 21
2.892499999999999
 31
0
  0
LINE
  8
0
 62
7
 10
7.58
 20
2.892499999999999
 30
0
 11
7.586750000000001
 21
2.889999999999999
 31
0
  0
LINE
  8
0
 62
7
 10
7.586750000000001
 20
2.889999999999999
 30
0
 11
7.59575
 21
2.889999999999999
 31
0
  0
LINE
  8
0
 62
7
 10
7.59575
 20
2.889999999999999
 30
0
 11
7.602500000000001
 21
2.892499999999999
 31
0
  0
LINE
  8
0
 62
7
 10
7.602500000000001
 20
2.892499999999999
 30
0
 11
7.60925
 21
2.897499999999999
 31
0
  0
LINE
  8
0
 62
7
 10
7.60925
 20
2.897499999999999
 30
0
 11
7.616
 21
2.907499999999999
 31
0
  0
LINE
  8
0
 62
7
 10
7.616
 20
2.907499999999999
 30
0
 11
7.61825
 21
2.914999999999999
 31
0
  0
LINE
  8
0
 62
7
 10
7.61825
 20
2.959999999999999
 30
0
 11
7.61825
 21
2.934999999999999
 31
0
  0
LINE
  8
0
 62
7
 10
7.61825
 20
2.892499999999999
 30
0
 11
7.6205
 21
2.889999999999999
 31
0
  0
LINE
  8
0
 62
7
 10
7.6205
 20
2.889999999999999
 30
0
 11
7.622750000000001
 21
2.889999999999999
 31
0
  0
LINE
  8
0
 62
7
 10
7.61825
 20
2.914999999999999
 30
0
 11
7.61825
 21
2.892499999999999
 31
0
  0
LINE
  8
0
 62
7
 10
7.61825
 20
2.934999999999999
 30
0
 11
7.61825
 21
2.914999999999999
 31
0
  0
LINE
  8
0
 62
7
 10
7.640750000000001
 20
2.889999999999999
 30
0
 11
7.640750000000001
 21
2.892499999999999
 31
0
  0
LINE
  8
0
 62
7
 10
7.640750000000001
 20
2.892499999999999
 30
0
 11
7.643000000000001
 21
2.892499999999999
 31
0
  0
LINE
  8
0
 62
7
 10
7.643000000000001
 20
2.892499999999999
 30
0
 11
7.643000000000001
 21
2.889999999999999
 31
0
  0
LINE
  8
0
 62
7
 10
7.643000000000001
 20
2.889999999999999
 30
0
 11
7.640750000000001
 21
2.889999999999999
 31
0
  0
LINE
  8
0
 62
7
 10
7.766750000000001
 20
2.989999999999999
 30
0
 11
7.775749999999999
 21
2.989999999999999
 31
0
  0
LINE
  8
0
 62
7
 10
7.775749999999999
 20
2.989999999999999
 30
0
 11
7.782500000000001
 21
2.987499999999999
 31
0
  0
LINE
  8
0
 62
7
 10
7.782500000000001
 20
2.987499999999999
 30
0
 11
7.786999999999999
 21
2.982499999999999
 31
0
  0
LINE
  8
0
 62
7
 10
7.786999999999999
 20
2.982499999999999
 30
0
 11
7.791500000000001
 21
2.975
 31
0
  0
LINE
  8
0
 62
7
 10
7.791500000000001
 20
2.975
 30
0
 11
7.791500000000001
 21
2.964999999999999
 31
0
  0
LINE
  8
0
 62
7
 10
7.791500000000001
 20
2.964999999999999
 30
0
 11
7.78925
 21
2.959999999999999
 31
0
  0
LINE
  8
0
 62
7
 10
7.78925
 20
2.959999999999999
 30
0
 11
7.782500000000001
 21
2.952499999999999
 31
0
  0
LINE
  8
0
 62
7
 10
7.782500000000001
 20
2.952499999999999
 30
0
 11
7.775749999999999
 21
2.949999999999999
 31
0
  0
LINE
  8
0
 62
7
 10
7.775749999999999
 20
2.949999999999999
 30
0
 11
7.766750000000001
 21
2.949999999999999
 31
0
  0
LINE
  8
0
 62
7
 10
7.766750000000001
 20
2.949999999999999
 30
0
 11
7.760000000000002
 21
2.952499999999999
 31
0
  0
LINE
  8
0
 62
7
 10
7.760000000000002
 20
2.952499999999999
 30
0
 11
7.75325
 21
2.959999999999999
 31
0
  0
LINE
  8
0
 62
7
 10
7.75325
 20
2.959999999999999
 30
0
 11
7.750999999999999
 21
2.964999999999999
 31
0
  0
LINE
  8
0
 62
7
 10
7.750999999999999
 20
2.964999999999999
 30
0
 11
7.750999999999999
 21
2.975
 31
0
  0
LINE
  8
0
 62
7
 10
7.750999999999999
 20
2.975
 30
0
 11
7.755500000000001
 21
2.982499999999999
 31
0
  0
LINE
  8
0
 62
7
 10
7.755500000000001
 20
2.982499999999999
 30
0
 11
7.760000000000002
 21
2.987499999999999
 31
0
  0
LINE
  8
0
 62
7
 10
7.760000000000002
 20
2.987499999999999
 30
0
 11
7.766750000000001
 21
2.989999999999999
 31
0
  0
LINE
  8
0
 62
7
 10
7.766750000000001
 20
2.949999999999999
 30
0
 11
7.755500000000001
 21
2.944999999999999
 31
0
  0
LINE
  8
0
 62
7
 10
7.755500000000001
 20
2.944999999999999
 30
0
 11
7.74875
 21
2.9375
 31
0
  0
LINE
  8
0
 62
7
 10
7.74875
 20
2.9375
 30
0
 11
7.74425
 21
2.927499999999999
 31
0
  0
LINE
  8
0
 62
7
 10
7.74425
 20
2.927499999999999
 30
0
 11
7.74425
 21
2.9125
 31
0
  0
LINE
  8
0
 62
7
 10
7.74425
 20
2.9125
 30
0
 11
7.74875
 21
2.902499999999999
 31
0
  0
LINE
  8
0
 62
7
 10
7.74875
 20
2.902499999999999
 30
0
 11
7.755500000000001
 21
2.895
 31
0
  0
LINE
  8
0
 62
7
 10
7.755500000000001
 20
2.895
 30
0
 11
7.7645
 21
2.889999999999999
 31
0
  0
LINE
  8
0
 62
7
 10
7.7645
 20
2.889999999999999
 30
0
 11
7.778
 21
2.889999999999999
 31
0
  0
LINE
  8
0
 62
7
 10
7.778
 20
2.889999999999999
 30
0
 11
7.786999999999999
 21
2.895
 31
0
  0
LINE
  8
0
 62
7
 10
7.786999999999999
 20
2.895
 30
0
 11
7.79375
 21
2.902499999999999
 31
0
  0
LINE
  8
0
 62
7
 10
7.79375
 20
2.902499999999999
 30
0
 11
7.798249999999999
 21
2.9125
 31
0
  0
LINE
  8
0
 62
7
 10
7.798249999999999
 20
2.9125
 30
0
 11
7.798249999999999
 21
2.927499999999999
 31
0
  0
LINE
  8
0
 62
7
 10
7.798249999999999
 20
2.927499999999999
 30
0
 11
7.79375
 21
2.9375
 31
0
  0
LINE
  8
0
 62
7
 10
7.79375
 20
2.9375
 30
0
 11
7.786999999999999
 21
2.944999999999999
 31
0
  0
LINE
  8
0
 62
7
 10
7.786999999999999
 20
2.944999999999999
 30
0
 11
7.775749999999999
 21
2.949999999999999
 31
0
  0
LINE
  8
0
 62
7
 10
7.888249999999999
 20
2.949999999999999
 30
0
 11
7.886
 21
2.94
 31
0
  0
LINE
  8
0
 62
7
 10
7.886
 20
2.94
 30
0
 11
7.8815
 21
2.932499999999999
 31
0
  0
LINE
  8
0
 62
7
 10
7.8815
 20
2.932499999999999
 30
0
 11
7.874749999999999
 21
2.927499999999999
 31
0
  0
LINE
  8
0
 62
7
 10
7.874749999999999
 20
2.927499999999999
 30
0
 11
7.868000000000001
 21
2.924999999999999
 31
0
  0
LINE
  8
0
 62
7
 10
7.868000000000001
 20
2.924999999999999
 30
0
 11
7.854499999999999
 21
2.924999999999999
 31
0
  0
LINE
  8
0
 62
7
 10
7.854499999999999
 20
2.924999999999999
 30
0
 11
7.847750000000001
 21
2.927499999999999
 31
0
  0
LINE
  8
0
 62
7
 10
7.847750000000001
 20
2.927499999999999
 30
0
 11
7.841
 21
2.932499999999999
 31
0
  0
LINE
  8
0
 62
7
 10
7.841
 20
2.932499999999999
 30
0
 11
7.8365
 21
2.94
 31
0
  0
LINE
  8
0
 62
7
 10
7.8365
 20
2.94
 30
0
 11
7.834250000000001
 21
2.949999999999999
 31
0
  0
LINE
  8
0
 62
7
 10
7.834250000000001
 20
2.949999999999999
 30
0
 11
7.834250000000001
 21
2.964999999999999
 31
0
  0
LINE
  8
0
 62
7
 10
7.834250000000001
 20
2.964999999999999
 30
0
 11
7.8365
 21
2.975
 31
0
  0
LINE
  8
0
 62
7
 10
7.8365
 20
2.975
 30
0
 11
7.841
 21
2.982499999999999
 31
0
  0
LINE
  8
0
 62
7
 10
7.841
 20
2.982499999999999
 30
0
 11
7.847750000000001
 21
2.987499999999999
 31
0
  0
LINE
  8
0
 62
7
 10
7.847750000000001
 20
2.987499999999999
 30
0
 11
7.854499999999999
 21
2.989999999999999
 31
0
  0
LINE
  8
0
 62
7
 10
7.854499999999999
 20
2.989999999999999
 30
0
 11
7.868000000000001
 21
2.989999999999999
 31
0
  0
LINE
  8
0
 62
7
 10
7.868000000000001
 20
2.989999999999999
 30
0
 11
7.874749999999999
 21
2.987499999999999
 31
0
  0
LINE
  8
0
 62
7
 10
7.874749999999999
 20
2.987499999999999
 30
0
 11
7.8815
 21
2.982499999999999
 31
0
  0
LINE
  8
0
 62
7
 10
7.8815
 20
2.982499999999999
 30
0
 11
7.886
 21
2.975
 31
0
  0
LINE
  8
0
 62
7
 10
7.886
 20
2.975
 30
0
 11
7.888249999999999
 21
2.964999999999999
 31
0
  0
LINE
  8
0
 62
7
 10
7.888249999999999
 20
2.964999999999999
 30
0
 11
7.888249999999999
 21
2.949999999999999
 31
0
  0
LINE
  8
0
 62
7
 10
7.888249999999999
 20
2.914999999999999
 30
0
 11
7.886
 21
2.904999999999999
 31
0
  0
LINE
  8
0
 62
7
 10
7.886
 20
2.904999999999999
 30
0
 11
7.8815
 21
2.897499999999999
 31
0
  0
LINE
  8
0
 62
7
 10
7.8815
 20
2.897499999999999
 30
0
 11
7.874749999999999
 21
2.892499999999999
 31
0
  0
LINE
  8
0
 62
7
 10
7.874749999999999
 20
2.892499999999999
 30
0
 11
7.868000000000001
 21
2.889999999999999
 31
0
  0
LINE
  8
0
 62
7
 10
7.868000000000001
 20
2.889999999999999
 30
0
 11
7.854499999999999
 21
2.889999999999999
 31
0
  0
LINE
  8
0
 62
7
 10
7.854499999999999
 20
2.889999999999999
 30
0
 11
7.847750000000001
 21
2.892499999999999
 31
0
  0
LINE
  8
0
 62
7
 10
7.847750000000001
 20
2.892499999999999
 30
0
 11
7.841
 21
2.897499999999999
 31
0
  0
LINE
  8
0
 62
7
 10
7.841
 20
2.897499999999999
 30
0
 11
7.8365
 21
2.904999999999999
 31
0
  0
LINE
  8
0
 62
7
 10
7.888249999999999
 20
2.949999999999999
 30
0
 11
7.888249999999999
 21
2.914999999999999
 31
0
  0
LINE
  8
0
 62
7
 10
8.039
 20
2.942499999999999
 30
0
 11
8.032249999999999
 21
2.952499999999999
 31
0
  0
LINE
  8
0
 62
7
 10
8.032249999999999
 20
2.952499999999999
 30
0
 11
8.025499999999999
 21
2.9575
 31
0
  0
LINE
  8
0
 62
7
 10
8.025499999999999
 20
2.9575
 30
0
 11
8.018750000000001
 21
2.959999999999999
 31
0
  0
LINE
  8
0
 62
7
 10
8.018750000000001
 20
2.959999999999999
 30
0
 11
8.00975
 21
2.959999999999999
 31
0
  0
LINE
  8
0
 62
7
 10
8.00975
 20
2.959999999999999
 30
0
 11
8.003
 21
2.9575
 31
0
  0
LINE
  8
0
 62
7
 10
8.003
 20
2.9575
 30
0
 11
7.996250000000001
 21
2.952499999999999
 31
0
  0
LINE
  8
0
 62
7
 10
7.996250000000001
 20
2.952499999999999
 30
0
 11
7.9895
 21
2.942499999999999
 31
0
  0
LINE
  8
0
 62
7
 10
7.9895
 20
2.942499999999999
 30
0
 11
7.98725
 21
2.934999999999999
 31
0
  0
LINE
  8
0
 62
7
 10
7.98725
 20
2.934999999999999
 30
0
 11
7.98725
 21
2.914999999999999
 31
0
  0
LINE
  8
0
 62
7
 10
7.98725
 20
2.914999999999999
 30
0
 11
7.9895
 21
2.907499999999999
 31
0
  0
LINE
  8
0
 62
7
 10
7.9895
 20
2.907499999999999
 30
0
 11
7.996250000000001
 21
2.897499999999999
 31
0
  0
LINE
  8
0
 62
7
 10
7.996250000000001
 20
2.897499999999999
 30
0
 11
8.003
 21
2.892499999999999
 31
0
  0
LINE
  8
0
 62
7
 10
8.003
 20
2.892499999999999
 30
0
 11
8.00975
 21
2.889999999999999
 31
0
  0
LINE
  8
0
 62
7
 10
8.00975
 20
2.889999999999999
 30
0
 11
8.018750000000001
 21
2.889999999999999
 31
0
  0
LINE
  8
0
 62
7
 10
8.018750000000001
 20
2.889999999999999
 30
0
 11
8.025499999999999
 21
2.892499999999999
 31
0
  0
LINE
  8
0
 62
7
 10
8.025499999999999
 20
2.892499999999999
 30
0
 11
8.032249999999999
 21
2.897499999999999
 31
0
  0
LINE
  8
0
 62
7
 10
8.032249999999999
 20
2.897499999999999
 30
0
 11
8.039
 21
2.907499999999999
 31
0
  0
LINE
  8
0
 62
7
 10
8.097500000000002
 20
2.934999999999999
 30
0
 11
8.097500000000002
 21
2.889999999999999
 31
0
  0
LINE
  8
0
 62
7
 10
8.057
 20
2.959999999999999
 30
0
 11
8.057
 21
2.934999999999999
 31
0
  0
LINE
  8
0
 62
7
 10
8.057
 20
2.889999999999999
 30
0
 11
8.057
 21
2.934999999999999
 31
0
  0
LINE
  8
0
 62
7
 10
8.057
 20
2.934999999999999
 30
0
 11
8.05925
 21
2.947499999999999
 31
0
  0
LINE
  8
0
 62
7
 10
8.05925
 20
2.947499999999999
 30
0
 11
8.061500000000001
 21
2.952499999999999
 31
0
  0
LINE
  8
0
 62
7
 10
8.061500000000001
 20
2.952499999999999
 30
0
 11
8.066000000000001
 21
2.9575
 31
0
  0
LINE
  8
0
 62
7
 10
8.066000000000001
 20
2.9575
 30
0
 11
8.072750000000001
 21
2.959999999999999
 31
0
  0
LINE
  8
0
 62
7
 10
8.072750000000001
 20
2.959999999999999
 30
0
 11
8.08175
 21
2.959999999999999
 31
0
  0
LINE
  8
0
 62
7
 10
8.08175
 20
2.959999999999999
 30
0
 11
8.0885
 21
2.9575
 31
0
  0
LINE
  8
0
 62
7
 10
8.0885
 20
2.9575
 30
0
 11
8.093000000000002
 21
2.952499999999999
 31
0
  0
LINE
  8
0
 62
7
 10
8.093000000000002
 20
2.952499999999999
 30
0
 11
8.09525
 21
2.947499999999999
 31
0
  0
LINE
  8
0
 62
7
 10
8.09525
 20
2.947499999999999
 30
0
 11
8.097500000000002
 21
2.934999999999999
 31
0
  0
LINE
  8
0
 62
7
 10
8.097500000000002
 20
2.934999999999999
 30
0
 11
8.099749999999998
 21
2.947499999999999
 31
0
  0
LINE
  8
0
 62
7
 10
8.099749999999998
 20
2.947499999999999
 30
0
 11
8.102
 21
2.952499999999999
 31
0
  0
LINE
  8
0
 62
7
 10
8.102
 20
2.952499999999999
 30
0
 11
8.1065
 21
2.9575
 31
0
  0
LINE
  8
0
 62
7
 10
8.1065
 20
2.9575
 30
0
 11
8.113249999999999
 21
2.959999999999999
 31
0
  0
LINE
  8
0
 62
7
 10
8.113249999999999
 20
2.959999999999999
 30
0
 11
8.122249999999999
 21
2.959999999999999
 31
0
  0
LINE
  8
0
 62
7
 10
8.122249999999999
 20
2.959999999999999
 30
0
 11
8.129000000000001
 21
2.9575
 31
0
  0
LINE
  8
0
 62
7
 10
8.1335
 20
2.952499999999999
 30
0
 11
8.129000000000001
 21
2.9575
 31
0
  0
LINE
  8
0
 62
7
 10
8.129000000000001
 20
2.9575
 30
0
 11
8.1335
 21
2.952499999999999
 31
0
  0
LINE
  8
0
 62
7
 10
8.1335
 20
2.952499999999999
 30
0
 11
8.13575
 21
2.947499999999999
 31
0
  0
LINE
  8
0
 62
7
 10
8.13575
 20
2.947499999999999
 30
0
 11
8.138
 21
2.934999999999999
 31
0
  0
LINE
  8
0
 62
7
 10
8.138
 20
2.934999999999999
 30
0
 11
8.138
 21
2.889999999999999
 31
0
  0
ARC
  8
0
 62
7
 10
5.794972127611229
 20
4.055027872388771
 30
0
 40
0.5000000000000004
 50
89.99680605842565
 51
180.0031939457135
  0
ARC
  8
0
 62
7
 10
6.420027872388769
 20
4.055027872388771
 30
0
 40
0.4999999999999978
 50
359.9968060584244
 51
90.0031939377526
  0
CIRCLE
  8
0
 62
7
 10
5.2949721283881
 20
3.25
 30
0
 40
0.05999999999999961
  0
DIMENSION
  8
0
  6
CONTINUOUS
 62
7
  2
*D0
  3
DMST_1
 10
7.96029952520863
 20
5.060000000000002
 30
0
 11
7.96029952520863
 21
4.20918253236245
 31
0
 12
0
 22
0
 32
0
 70
0
 13
7.600000000000001
 23
3.35
 33
0
 14
7.600000000000001
 24
5.060000000000002
 34
0
 50
90
 53
0
  0
DIMENSION
  8
0
  6
CONTINUOUS
 62
7
  2
*D1
  3
DMST_1
 10
7.425
 20
5.96620452265369
 30
0
 11
6.1285106417135
 21
5.96620452265369
 31
0
 12
0
 22
0
 32
0
 70
0
 13
4.79
 23
5.579999999999998
 33
0
 14
7.425000000000001
 24
5.579999999999998
 34
0
 53
0
  0
DIMENSION
  8
0
  6
CONTINUOUS
 62
7
  2
*D2
  3
DMST_1
 10
4.309182907085691
 20
3.25
 30
0
 11
4.309182907085691
 21
4.13441563915856
 31
0
 12
0
 22
0
 32
0
 70
0
 13
4.615
 23
5.06
 33
0
 14
4.615
 24
3.25
 34
0
 50
90
 53
0
  0
DIMENSION
  8
0
  6
CONTINUOUS
 62
7
  2
*D3
  3
DMST_2
 10
7.425000000000001
 20
11.4366488754044
 30
0
 11
6.15343293944813
 21
11.4366488754044
 31
0
 12
0
 22
0
 32
0
 70
0
 13
4.79
 23
11.2
 33
0
 14
7.425000000000001
 24
11.2
 34
0
 53
0
  0
INSERT
  8
0
  2
*D4
 10
0
 20
0
 30
0
  0
ENDSEC
  0
EOF
