  0
SECTION
  2
HEADER
  9
$ACADVER
  1
AC1009
  9
$INSBASE
 10
0
 20
0
  9
$EXTMIN
 10
0.4975327306535051
 20
2.890000000000001
  9
$EXTMAX
 10
8.250000000000005
 20
11.519487143871
  9
$LIMMIN
 10
0.4975327306535051
 20
2.890000000000001
  9
$LIMMAX
 10
8.250000000000005
 20
11.519487143871
  9
$VIEWCTR
 10
10
 20
10
  9
$VIEWSIZE
 40
10
  9
$SNAPMODE
 70
0
  9
$SNAPUNIT
 10
1
 20
1
  9
$SNAPBASE
 10
0
 20
0
  9
$SNAPANG
 50
0
  9
$SNAPSTYLE
 70
0
  9
$SNAPISOPAIR
 70
0
  9
$GRIDMODE
 70
0
  9
$GRIDUNIT
 10
0
 20
0
  9
$ORTHOMODE
 70
0
  9
$REGENMODE
 70
1
  9
$FILLMODE
 70
1
  9
$QTEXTMODE
 70
0
  9
$DRAGMODE
 70
2
  9
$LTSCALE
 40
1
  9
$OSMODE
 70
0
  9
$ATTMODE
 70
1
  9
$TEXTSIZE
 40
3.5
  9
$TRACEWID
 40
0.5
  9
$TEXTSTYLE
  7
STANDARD
  9
$CLAYER
  8
0
  9
$CELTYPE
  6
BYLAYER
  9
$CECOLOR
 62
256
  9
$DIMSCALE
 40
1
  9
$DIMASZ
 40
0.18
  9
$DIMEXO
 40
0.0625
  9
$DIMDLI
 40
0.38
  9
$DIMRND
 40
0
  9
$DIMDLE
 40
0
  9
$DIMEXE
 40
0.18
  9
$DIMTP
 40
0
  9
$DIMTM
 40
0
  9
$DIMTXT
 40
0.18
  9
$DIMCEN
 40
0.09
  9
$DIMTSZ
 40
0
  9
$DIMTOL
 70
0
  9
$DIMLIM
 70
0
  9
$DIMTIH
 70
1
  9
$DIMTOH
 70
1
  9
$DIMSE1
 70
0
  9
$DIMSE2
 70
0
  9
$DIMTAD
 70
0
  9
$DIMZIN
 70
0
  9
$DIMBLK
  1

  9
$DIMASO
 70
1
  9
$DIMSHO
 70
1
  9
$DIMPOST
  1

  9
$DIMAPOST
  1

  9
$DIMALT
 70
0
  9
$DIMALTD
 70
2
  9
$DIMALTF
 40
25.4
  9
$DIMLFAC
 40
1
  9
$DIMTOFL
 70
0
  9
$DIMTVP
 40
0
  9
$DIMTIX
 70
0
  9
$DIMSOXD
 70
0
  9
$DIMSAH
 70
0
  9
$DIMBLK1
  1

  9
$DIMBLK2
  1

  9
$DIMSTYLE
  2
*UNNAMED
  9
$DIMCLRD
 70
0
  9
$DIMCLRE
 70
0
  9
$DIMCLRT
 70
0
  9
$DIMTFAC
 40
1
  9
$DIMGAP
 40
0.09
  9
$LUNITS
 70
2
  9
$LUPREC
 70
4
  9
$AXISMODE
 70
0
  9
$AXISUNIT
 10
0
 20
0
  9
$SKETCHINC
 40
0.1
  9
$FILLETRAD
 40
2
  9
$AUNITS
 70
0
  9
$AUPREC
 70
0
  9
$MENU
  1
ACAD
  9
$ELEVATION
 40
0
  9
$THICKNESS
 40
0
  9
$VIEWDIR
 10
0
 20
0
 30
1
  9
$LIMCHECK
 70
0
  9
$BLIPMODE
 70
1
  9
$CHAMFERA
 40
0
  9
$CHAMFERB
 40
0
  9
$FASTZOOM
 70
1
  9
$SKPOLY
 70
0
  9
$ANGBASE
 50
0
  9
$ANGDIR
 70
0
  9
$PDMODE
 70
0
  9
$PDSIZE
 40
0
  9
$PLINEWID
 40
0
  9
$COORDS
 70
2
  0
ENDSEC
  0
SECTION
  2
TABLES
  0
TABLE
  2
DIMSTYLE
 70
2
  0
DIMSTYLE
  2
DMST_1
 70
0
  3

  4

  5

  6

  7

 40
1
 41
0.1
 42
0
 43
0.7
 44
0.2
 45
0
 46
0
 47
0
 48
0
140
0.1
141
0
142
0.1
143
25.4
144
1
145
0
146
1
147
0.25
 71
0
 72
0
 73
0
 74
0
 75
0
 76
0
 77
0
 78
9
170
0
171
2
172
0
173
0
174
0
175
0
176
7
177
7
178
7
  0
DIMSTYLE
  2
DMST_2
 70
0
  3

  4

  5

  6

  7

 40
1
 41
0.1
 42
0
 43
0.7
 44
0.2
 45
0
 46
0
 47
0
 48
0
140
0.1
141
0
142
0.1
143
25.4
144
1
145
0
146
1
147
0.2
 71
0
 72
0
 73
0
 74
0
 75
0
 76
0
 77
0
 78
9
170
0
171
2
172
0
173
0
174
0
175
0
176
7
177
7
178
7
  0
ENDTAB
  0
TABLE
  2
LTYPE
 70
9
  0
LTYPE
  2
CONTINUOUS
 70
64
  3
Solid line
 72
65
 73
0
 40
0
  0
LTYPE
  2
BORDER
 70
64
  3
__ __ . __ __ .
 72
65
 73
6
 40
0.397410592151954
 49
0.1135458834719868
 49
-0.05677294173599342
 49
0.1135458834719868
 49
-0.05677294173599342
 49
0
 49
-0.05677294173599342
  0
LTYPE
  2
CENTER
 70
64
  3
____ _ ____ _
 72
65
 73
4
 40
0.4541835338879474
 49
0.2838647086799671
 49
-0.05677294173599342
 49
0.05677294173599342
 49
-0.05677294173599342
  0
LTYPE
  2
DASHDOT
 70
64
  3
__ . __ . __ .
 72
65
 73
4
 40
0.2270917669439737
 49
0.1135458834719868
 49
-0.05677294173599342
 49
0
 49
-0.05677294173599342
  0
LTYPE
  2
DASHED
 70
64
  3
__ __ __ __ __
 72
65
 73
2
 40
0.1703188252079803
 49
0.1135458834719868
 49
-0.05677294173599342
  0
LTYPE
  2
DIVIDE
 70
64
  3
__ . . __ . . 
 72
65
 73
6
 40
0.2838647086799671
 49
0.1135458834719868
 49
-0.05677294173599342
 49
0
 49
-0.05677294173599342
 49
0
 49
-0.05677294173599342
  0
LTYPE
  2
DOT
 70
64
  3
..............
 72
65
 73
4
 40
0.1135458834719868
 49
0
 49
-0.05677294173599342
 49
0
 49
-0.05677294173599342
  0
LTYPE
  2
HIDDEN
 70
64
  3
_ _ _ _ _ _ _
 72
65
 73
2
 40
0.08515941260399013
 49
0.05677294173599342
 49
-0.02838647086799671
  0
LTYPE
  2
PHANTOM
 70
64
  3
_____ _ _ _____ _ _ 
 72
65
 73
6
 40
0.5677294173599342
 49
0.2838647086799671
 49
-0.05677294173599342
 49
0.05677294173599342
 49
-0.05677294173599342
 49
0.05677294173599342
 49
-0.05677294173599342
  0
ENDTAB
  0
TABLE
  2
LAYER
 70
2
  0
LAYER
  2
0
 70
0
 62
7
  6
CONTINUOUS
  0
ENDTAB
  0
TABLE
  2
STYLE
 70
4
  0
STYLE
  2
STANDARD
 70
0
 40
0
 41
1
 50
0
 71
0
 42
3.5
  3
txt
  4

  0
STYLE
  2
SIMPLEX
 70
0
 40
0
 41
1
 50
0
 71
0
 42
3.5
  3
simplex
  4

  0
STYLE
  2
COMPLEX
 70
0
 40
0
 41
1
 50
0
 71
0
 42
3.5
  3
complex
  4

  0
STYLE
  2
ITALIC
 70
0
 40
0
 41
1
 50
0
 71
0
 42
3.5
  3
italic
  4

  0
ENDTAB
  0
TABLE
  2
VIEW
 70
0
  0
ENDTAB
  0
ENDSEC
  0
SECTION
  2
BLOCKS
  0
BLOCK
  8
0
  2
*X0
 70
1
 10
0
 20
0
 30
0
  0
LINE
  8
0
 62
7
  6
DASHED
 10
7.960000000000005
 20
8.27819805153395
 30
0
 11
7.98180194846605
 21
8.299999999999997
 31
0
  0
LINE
  8
0
 62
7
  6
DASHED
 10
7.993933982822015
 20
8.099999999999996
 30
0
 11
8.193933982822013
 21
8.299999999999997
 31
0
  0
LINE
  8
0
 62
7
 10
7.960000000000004
 20
8.172132034355966
 30
0
 11
8.087867965644033
 21
8.299999999999995
 31
0
  0
LINE
  8
0
 62
7
 10
8.099999999999998
 20
8.099999999999996
 30
0
 11
8.200000000000005
 21
8.200000000000003
 31
0
  0
ENDBLK
  8
0
  0
BLOCK
  8
0
  2
*X1
 70
1
 10
0
 20
0
 30
0
  0
LINE
  8
0
 62
7
  6
DASHED
 10
7.960000000000003
 20
11.03591449816148
 30
0
 11
7.97408550183852
 21
11.05
 31
0
  0
LINE
  8
0
 62
7
  6
DASHED
 10
7.986217536194484
 20
10.85
 30
0
 11
8.186217536194484
 21
11.05
 31
0
  0
LINE
  8
0
 62
7
  6
DASHED
 10
8.198349570550448
 20
10.85
 30
0
 11
8.200000000000005
 21
10.85165042944956
 31
0
  0
LINE
  8
0
 62
7
 10
7.960000000000005
 20
10.9298484809835
 30
0
 11
8.0801515190165
 21
11.05
 31
0
  0
LINE
  8
0
 62
7
 10
8.092283553372464
 20
10.85
 30
0
 11
8.200000000000005
 21
10.95771644662754
 31
0
  0
ENDBLK
  8
0
  0
BLOCK
  8
0
  2
*X2
 70
1
 10
0
 20
0
 30
0
  0
LINE
  8
0
 62
7
  6
DASHED
 10
5.990000000000004
 20
10.97510280736516
 30
0
 11
6.064897192634843
 21
11.05
 31
0
  0
LINE
  8
0
 62
7
  6
DASHED
 10
6.077029226990806
 20
10.85
 30
0
 11
6.277029226990807
 21
11.05
 31
0
  0
LINE
  8
0
 62
7
  6
DASHED
 10
6.28916126134677
 20
10.85
 30
0
 11
6.290000000000004
 21
10.85083873865323
 31
0
  0
LINE
  8
0
 62
7
 10
5.990000000000001
 20
10.86903679018718
 30
0
 11
6.170963209812824
 21
11.05
 31
0
  0
LINE
  8
0
 62
7
 10
6.183095244168788
 20
10.85
 30
0
 11
6.290000000000004
 21
10.95690475583122
 31
0
  0
ENDBLK
  8
0
  0
BLOCK
  8
0
  2
*X3
 70
1
 10
0
 20
0
 30
0
  0
LINE
  8
0
 62
7
  6
DASHED
 10
5.990000000000003
 20
8.217386360737626
 30
0
 11
6.072613639262374
 21
8.299999999999997
 31
0
  0
LINE
  8
0
 62
7
  6
DASHED
 10
6.084745673618338
 20
8.099999999999996
 30
0
 11
6.284745673618338
 21
8.299999999999997
 31
0
  0
LINE
  8
0
 62
7
 10
5.990000000000003
 20
8.111320343559644
 30
0
 11
6.178679656440356
 21
8.299999999999997
 31
0
  0
LINE
  8
0
 62
7
 10
6.190811690796319
 20
8.099999999999996
 30
0
 11
6.290000000000004
 21
8.199188309203683
 31
0
  0
ENDBLK
  8
0
  0
BLOCK
  8
0
  2
*X4
 70
1
 10
0
 20
0
 30
0
  0
LINE
  8
0
 62
7
 10
7.97408550183852
 20
11.05
 30
0
 11
8.12408550183852
 21
11.2
 31
0
  0
LINE
  8
0
 62
7
 10
8.186217536194484
 20
11.05
 30
0
 11
8.200000000000005
 21
11.06378246380552
 31
0
  0
LINE
  8
0
 62
7
 10
7.960000000000005
 20
11.14198051533947
 30
0
 11
8.018019484660535
 21
11.2
 31
0
  0
LINE
  8
0
 62
7
 10
8.0801515190165
 20
11.05
 30
0
 11
8.200000000000003
 21
11.1698484809835
 31
0
  0
ENDBLK
  8
0
  0
BLOCK
  8
0
  2
*X5
 70
1
 10
0
 20
0
 30
0
  0
LINE
  8
0
 62
7
 10
7.960000000000006
 20
10.82378246380552
 30
0
 11
7.986217536194484
 21
10.85
 31
0
  0
LINE
  8
0
 62
7
 10
7.960000000000006
 20
10.61165042944955
 30
0
 11
8.198349570550448
 21
10.85
 31
0
  0
LINE
  8
0
 62
7
 10
7.960000000000006
 20
10.39951839509359
 30
0
 11
8.200000000000005
 21
10.63951839509359
 31
0
  0
LINE
  8
0
 62
7
 10
7.960000000000006
 20
10.18738636073763
 30
0
 11
8.200000000000005
 21
10.42738636073762
 31
0
  0
LINE
  8
0
 62
7
 10
7.960000000000006
 20
9.975254326381663
 30
0
 11
8.200000000000005
 21
10.21525432638166
 31
0
  0
LINE
  8
0
 62
7
 10
7.960000000000006
 20
9.763122292025699
 30
0
 11
8.200000000000005
 21
10.0031222920257
 31
0
  0
LINE
  8
0
 62
7
 10
7.960000000000006
 20
9.550990257669735
 30
0
 11
8.200000000000005
 21
9.790990257669733
 31
0
  0
LINE
  8
0
 62
7
 10
7.960000000000006
 20
9.338858223313771
 30
0
 11
8.200000000000005
 21
9.57885822331377
 31
0
  0
LINE
  8
0
 62
7
 10
7.960000000000006
 20
9.126726188957807
 30
0
 11
8.200000000000005
 21
9.366726188957806
 31
0
  0
LINE
  8
0
 62
7
 10
7.960000000000006
 20
8.914594154601843
 30
0
 11
8.200000000000005
 21
9.154594154601842
 31
0
  0
LINE
  8
0
 62
7
 10
7.960000000000006
 20
8.70246212024588
 30
0
 11
8.200000000000005
 21
8.942462120245878
 31
0
  0
LINE
  8
0
 62
7
 10
7.960000000000006
 20
8.490330085889916
 30
0
 11
8.200000000000005
 21
8.730330085889914
 31
0
  0
LINE
  8
0
 62
7
 10
7.98180194846605
 20
8.299999999999997
 30
0
 11
8.200000000000005
 21
8.51819805153395
 31
0
  0
LINE
  8
0
 62
7
 10
8.193933982822013
 20
8.299999999999997
 30
0
 11
8.200000000000005
 21
8.306066017177987
 31
0
  0
LINE
  8
0
 62
7
 10
7.960000000000004
 20
10.71771644662753
 30
0
 11
8.092283553372464
 21
10.85
 31
0
  0
LINE
  8
0
 62
7
 10
7.960000000000004
 20
10.50558441227157
 30
0
 11
8.200000000000006
 21
10.74558441227157
 31
0
  0
LINE
  8
0
 62
7
 10
7.960000000000004
 20
10.2934523779156
 30
0
 11
8.200000000000006
 21
10.53345237791561
 31
0
  0
LINE
  8
0
 62
7
 10
7.960000000000004
 20
10.08132034355964
 30
0
 11
8.200000000000006
 21
10.32132034355964
 31
0
  0
LINE
  8
0
 62
7
 10
7.960000000000004
 20
9.869188309203677
 30
0
 11
8.200000000000006
 21
10.10918830920368
 31
0
  0
LINE
  8
0
 62
7
 10
7.960000000000004
 20
9.657056274847713
 30
0
 11
8.200000000000006
 21
9.897056274847715
 31
0
  0
LINE
  8
0
 62
7
 10
7.960000000000004
 20
9.44492424049175
 30
0
 11
8.200000000000006
 21
9.684924240491751
 31
0
  0
LINE
  8
0
 62
7
 10
7.960000000000004
 20
9.232792206135786
 30
0
 11
8.200000000000006
 21
9.472792206135788
 31
0
  0
LINE
  8
0
 62
7
 10
7.960000000000004
 20
9.020660171779822
 30
0
 11
8.200000000000006
 21
9.260660171779824
 31
0
  0
LINE
  8
0
 62
7
 10
7.960000000000004
 20
8.808528137423858
 30
0
 11
8.200000000000006
 21
9.04852813742386
 31
0
  0
LINE
  8
0
 62
7
 10
7.960000000000004
 20
8.596396103067894
 30
0
 11
8.200000000000006
 21
8.836396103067896
 31
0
  0
LINE
  8
0
 62
7
 10
7.960000000000004
 20
8.38426406871193
 30
0
 11
8.200000000000006
 21
8.624264068711932
 31
0
  0
LINE
  8
0
 62
7
 10
8.087867965644033
 20
8.299999999999995
 30
0
 11
8.200000000000006
 21
8.412132034355968
 31
0
  0
ENDBLK
  8
0
  0
BLOCK
  8
0
  2
*X6
 70
1
 10
0
 20
0
 30
0
  0
LINE
  8
0
 62
7
 10
7.960000000000005
 20
8.066066017177986
 30
0
 11
7.993933982822015
 21
8.099999999999996
 31
0
  0
LINE
  8
0
 62
7
 10
8.056066017177983
 20
7.949999999999998
 30
0
 11
8.200000000000003
 21
8.093933982822019
 31
0
  0
LINE
  8
0
 62
7
 10
7.960000000000004
 20
7.960000000000002
 30
0
 11
8.099999999999998
 21
8.099999999999996
 31
0
  0
LINE
  8
0
 62
7
 10
8.162132034355965
 20
7.949999999999999
 30
0
 11
8.200000000000005
 21
7.987867965644039
 31
0
  0
ENDBLK
  8
0
  0
BLOCK
  8
0
  2
*X7
 70
1
 10
0
 20
0
 30
0
  0
LINE
  8
0
 62
7
  6
DASHED
 10
0.9500000000000002
 20
11.0262716319083
 30
0
 11
0.9737283680916975
 21
11.05
 31
0
  0
LINE
  8
0
 62
7
  6
DASHED
 10
0.9858604024476629
 20
10.85
 30
0
 11
1.185860402447662
 21
11.05
 31
0
  0
LINE
  8
0
 62
7
  6
DASHED
 10
1.197992436803627
 20
10.85
 30
0
 11
1.397992436803626
 21
11.05
 31
0
  0
LINE
  8
0
 62
7
  6
DASHED
 10
1.410124471159591
 20
10.85
 30
0
 11
1.61012447115959
 21
11.05
 31
0
  0
LINE
  8
0
 62
7
  6
DASHED
 10
1.622256505515556
 20
10.85
 30
0
 11
1.822256505515555
 21
11.05
 31
0
  0
LINE
  8
0
 62
7
  6
DASHED
 10
1.83438853987152
 20
10.85
 30
0
 11
2.034388539871519
 21
11.05
 31
0
  0
LINE
  8
0
 62
7
  6
DASHED
 10
2.046520574227484
 20
10.85
 30
0
 11
2.246520574227483
 21
11.05
 31
0
  0
LINE
  8
0
 62
7
  6
DASHED
 10
2.258652608583449
 20
10.85
 30
0
 11
2.458652608583447
 21
11.05
 31
0
  0
LINE
  8
0
 62
7
  6
DASHED
 10
2.470784642939413
 20
10.85
 30
0
 11
2.670784642939412
 21
11.05
 31
0
  0
LINE
  8
0
 62
7
  6
DASHED
 10
2.682916677295377
 20
10.85
 30
0
 11
2.882916677295376
 21
11.05
 31
0
  0
LINE
  8
0
 62
7
  6
DASHED
 10
2.895048711651341
 20
10.85
 30
0
 11
3.09504871165134
 21
11.05
 31
0
  0
LINE
  8
0
 62
7
  6
DASHED
 10
3.107180746007306
 20
10.85
 30
0
 11
3.307180746007305
 21
11.05
 31
0
  0
LINE
  8
0
 62
7
  6
DASHED
 10
3.31931278036327
 20
10.85
 30
0
 11
3.519312780363269
 21
11.05
 31
0
  0
LINE
  8
0
 62
7
  6
DASHED
 10
3.531444814719234
 20
10.85
 30
0
 11
3.731444814719233
 21
11.05
 31
0
  0
LINE
  8
0
 62
7
  6
DASHED
 10
3.743576849075199
 20
10.85
 30
0
 11
3.943576849075197
 21
11.05
 31
0
  0
LINE
  8
0
 62
7
  6
DASHED
 10
3.955708883431163
 20
10.85
 30
0
 11
4.155708883431162
 21
11.05
 31
0
  0
LINE
  8
0
 62
7
  6
DASHED
 10
4.167840917787127
 20
10.85
 30
0
 11
4.360000000000003
 21
11.04215908221288
 31
0
  0
LINE
  8
0
 62
7
 10
0.9500000000000002
 20
10.92020561473032
 30
0
 11
1.079794385269682
 21
11.05
 31
0
  0
LINE
  8
0
 62
7
 10
1.091926419625644
 20
10.85
 30
0
 11
1.291926419625646
 21
11.05
 31
0
  0
LINE
  8
0
 62
7
 10
1.304058453981609
 20
10.85
 30
0
 11
1.50405845398161
 21
11.05
 31
0
  0
LINE
  8
0
 62
7
 10
1.516190488337573
 20
10.85
 30
0
 11
1.716190488337574
 21
11.05
 31
0
  0
LINE
  8
0
 62
7
 10
1.728322522693537
 20
10.85
 30
0
 11
1.928322522693539
 21
11.05
 31
0
  0
LINE
  8
0
 62
7
 10
1.940454557049502
 20
10.85
 30
0
 11
2.140454557049503
 21
11.05
 31
0
  0
LINE
  8
0
 62
7
 10
2.152586591405466
 20
10.85
 30
0
 11
2.352586591405467
 21
11.05
 31
0
  0
LINE
  8
0
 62
7
 10
2.36471862576143
 20
10.85
 30
0
 11
2.564718625761432
 21
11.05
 31
0
  0
LINE
  8
0
 62
7
 10
2.576850660117394
 20
10.85
 30
0
 11
2.776850660117396
 21
11.05
 31
0
  0
LINE
  8
0
 62
7
 10
2.788982694473359
 20
10.85
 30
0
 11
2.98898269447336
 21
11.05
 31
0
  0
LINE
  8
0
 62
7
 10
3.001114728829323
 20
10.85
 30
0
 11
3.201114728829324
 21
11.05
 31
0
  0
LINE
  8
0
 62
7
 10
3.213246763185287
 20
10.85
 30
0
 11
3.413246763185289
 21
11.05
 31
0
  0
LINE
  8
0
 62
7
 10
3.425378797541252
 20
10.85
 30
0
 11
3.625378797541253
 21
11.05
 31
0
  0
LINE
  8
0
 62
7
 10
3.637510831897216
 20
10.85
 30
0
 11
3.837510831897217
 21
11.05
 31
0
  0
LINE
  8
0
 62
7
 10
3.84964286625318
 20
10.85
 30
0
 11
4.049642866253182
 21
11.05
 31
0
  0
LINE
  8
0
 62
7
 10
4.061774900609144
 20
10.85
 30
0
 11
4.261774900609145
 21
11.05
 31
0
  0
LINE
  8
0
 62
7
 10
4.273906934965108
 20
10.85
 30
0
 11
4.360000000000005
 21
10.93609306503489
 31
0
  0
ENDBLK
  8
0
  0
BLOCK
  8
0
  2
*X8
 70
1
 10
0
 20
0
 30
0
  0
LINE
  8
0
 62
7
  6
DASHED
 10
0.9499999999999993
 20
8.268555185280766
 30
0
 11
0.981444814719231
 21
8.299999999999997
 31
0
  0
LINE
  8
0
 62
7
  6
DASHED
 10
0.9935768490751928
 20
8.099999999999994
 30
0
 11
1.193576849075195
 21
8.299999999999997
 31
0
  0
LINE
  8
0
 62
7
  6
DASHED
 10
1.205708883431157
 20
8.099999999999994
 30
0
 11
1.40570888343116
 21
8.299999999999997
 31
0
  0
LINE
  8
0
 62
7
  6
DASHED
 10
1.417840917787121
 20
8.099999999999994
 30
0
 11
1.617840917787124
 21
8.299999999999997
 31
0
  0
LINE
  8
0
 62
7
  6
DASHED
 10
1.629972952143086
 20
8.099999999999994
 30
0
 11
1.829972952143088
 21
8.299999999999997
 31
0
  0
LINE
  8
0
 62
7
  6
DASHED
 10
1.84210498649905
 20
8.099999999999994
 30
0
 11
2.042104986499052
 21
8.299999999999997
 31
0
  0
LINE
  8
0
 62
7
  6
DASHED
 10
2.054237020855014
 20
8.099999999999994
 30
0
 11
2.254237020855017
 21
8.299999999999997
 31
0
  0
LINE
  8
0
 62
7
  6
DASHED
 10
2.266369055210979
 20
8.099999999999994
 30
0
 11
2.466369055210981
 21
8.299999999999997
 31
0
  0
LINE
  8
0
 62
7
  6
DASHED
 10
2.478501089566943
 20
8.099999999999994
 30
0
 11
2.678501089566945
 21
8.299999999999997
 31
0
  0
LINE
  8
0
 62
7
  6
DASHED
 10
2.690633123922907
 20
8.099999999999994
 30
0
 11
2.890633123922909
 21
8.299999999999997
 31
0
  0
LINE
  8
0
 62
7
  6
DASHED
 10
2.902765158278871
 20
8.099999999999994
 30
0
 11
3.102765158278874
 21
8.299999999999997
 31
0
  0
LINE
  8
0
 62
7
  6
DASHED
 10
3.114897192634836
 20
8.099999999999994
 30
0
 11
3.314897192634838
 21
8.299999999999997
 31
0
  0
LINE
  8
0
 62
7
  6
DASHED
 10
3.3270292269908
 20
8.099999999999994
 30
0
 11
3.527029226990802
 21
8.299999999999997
 31
0
  0
LINE
  8
0
 62
7
  6
DASHED
 10
3.539161261346764
 20
8.099999999999994
 30
0
 11
3.739161261346767
 21
8.299999999999997
 31
0
  0
LINE
  8
0
 62
7
  6
DASHED
 10
3.751293295702729
 20
8.099999999999994
 30
0
 11
3.951293295702731
 21
8.299999999999997
 31
0
  0
LINE
  8
0
 62
7
  6
DASHED
 10
3.963425330058693
 20
8.099999999999994
 30
0
 11
4.163425330058695
 21
8.299999999999997
 31
0
  0
LINE
  8
0
 62
7
  6
DASHED
 10
4.175557364414657
 20
8.099999999999994
 30
0
 11
4.360000000000004
 21
8.284442635585341
 31
0
  0
LINE
  8
0
 62
7
 10
0.9499999999999988
 20
8.162489168102784
 30
0
 11
1.087510831897214
 21
8.299999999999997
 31
0
  0
LINE
  8
0
 62
7
 10
1.099642866253177
 20
8.099999999999996
 30
0
 11
1.299642866253178
 21
8.299999999999997
 31
0
  0
LINE
  8
0
 62
7
 10
1.311774900609141
 20
8.099999999999996
 30
0
 11
1.511774900609143
 21
8.299999999999997
 31
0
  0
LINE
  8
0
 62
7
 10
1.523906934965106
 20
8.099999999999996
 30
0
 11
1.723906934965107
 21
8.299999999999997
 31
0
  0
LINE
  8
0
 62
7
 10
1.73603896932107
 20
8.099999999999996
 30
0
 11
1.936038969321071
 21
8.299999999999997
 31
0
  0
LINE
  8
0
 62
7
 10
1.948171003677034
 20
8.099999999999996
 30
0
 11
2.148171003677036
 21
8.299999999999997
 31
0
  0
LINE
  8
0
 62
7
 10
2.160303038032998
 20
8.099999999999996
 30
0
 11
2.360303038033
 21
8.299999999999997
 31
0
  0
LINE
  8
0
 62
7
 10
2.372435072388963
 20
8.099999999999996
 30
0
 11
2.572435072388964
 21
8.299999999999997
 31
0
  0
LINE
  8
0
 62
7
 10
2.584567106744927
 20
8.099999999999996
 30
0
 11
2.784567106744928
 21
8.299999999999997
 31
0
  0
LINE
  8
0
 62
7
 10
2.796699141100891
 20
8.099999999999996
 30
0
 11
2.996699141100893
 21
8.299999999999997
 31
0
  0
LINE
  8
0
 62
7
 10
3.008831175456856
 20
8.099999999999996
 30
0
 11
3.208831175456857
 21
8.299999999999997
 31
0
  0
LINE
  8
0
 62
7
 10
3.22096320981282
 20
8.099999999999996
 30
0
 11
3.420963209812821
 21
8.299999999999997
 31
0
  0
LINE
  8
0
 62
7
 10
3.433095244168784
 20
8.099999999999996
 30
0
 11
3.633095244168786
 21
8.299999999999997
 31
0
  0
LINE
  8
0
 62
7
 10
3.645227278524748
 20
8.099999999999996
 30
0
 11
3.84522727852475
 21
8.299999999999997
 31
0
  0
LINE
  8
0
 62
7
 10
3.857359312880713
 20
8.099999999999996
 30
0
 11
4.057359312880714
 21
8.299999999999997
 31
0
  0
LINE
  8
0
 62
7
 10
4.069491347236677
 20
8.099999999999996
 30
0
 11
4.269491347236678
 21
8.299999999999997
 31
0
  0
LINE
  8
0
 62
7
 10
4.281623381592641
 20
8.099999999999996
 30
0
 11
4.360000000000003
 21
8.178376618407357
 31
0
  0
ENDBLK
  8
0
  0
BLOCK
  8
0
  2
*X9
 70
1
 10
0
 20
0
 30
0
  0
LINE
  8
0
 62
7
 10
4.035000000000005
 20
11.14142315092481
 30
0
 11
4.093576849075198
 21
11.2
 31
0
  0
LINE
  8
0
 62
7
 10
4.155708883431164
 20
11.05
 30
0
 11
4.210000000000004
 21
11.10429111656884
 31
0
  0
LINE
  8
0
 62
7
 10
4.049642866253182
 20
11.05
 30
0
 11
4.19964286625318
 21
11.2
 31
0
  0
ENDBLK
  8
0
  0
BLOCK
  8
0
  2
*X10
 70
1
 10
0
 20
0
 30
0
  0
LINE
  8
0
 62
7
 10
4.035000000000004
 20
10.71715908221287
 30
0
 11
4.167840917787125
 21
10.85
 31
0
  0
LINE
  8
0
 62
7
 10
4.035000000000004
 20
10.50502704785691
 30
0
 11
4.210000000000004
 21
10.68002704785691
 31
0
  0
LINE
  8
0
 62
7
 10
4.035000000000004
 20
10.29289501350095
 30
0
 11
4.210000000000004
 21
10.46789501350094
 31
0
  0
LINE
  8
0
 62
7
 10
4.035000000000004
 20
10.08076297914498
 30
0
 11
4.210000000000004
 21
10.25576297914498
 31
0
  0
LINE
  8
0
 62
7
 10
4.035000000000004
 20
9.868630944789018
 30
0
 11
4.210000000000004
 21
10.04363094478902
 31
0
  0
LINE
  8
0
 62
7
 10
4.035000000000004
 20
9.656498910433054
 30
0
 11
4.210000000000004
 21
9.831498910433053
 31
0
  0
LINE
  8
0
 62
7
 10
4.035000000000004
 20
9.44436687607709
 30
0
 11
4.210000000000004
 21
9.619366876077089
 31
0
  0
LINE
  8
0
 62
7
 10
4.035000000000004
 20
9.232234841721127
 30
0
 11
4.210000000000004
 21
9.407234841721126
 31
0
  0
LINE
  8
0
 62
7
 10
4.035000000000004
 20
9.020102807365163
 30
0
 11
4.210000000000004
 21
9.195102807365162
 31
0
  0
LINE
  8
0
 62
7
 10
4.035000000000004
 20
8.807970773009199
 30
0
 11
4.210000000000004
 21
8.982970773009198
 31
0
  0
LINE
  8
0
 62
7
 10
4.035000000000004
 20
8.595838738653235
 30
0
 11
4.210000000000004
 21
8.770838738653234
 31
0
  0
LINE
  8
0
 62
7
 10
4.035000000000004
 20
8.383706704297271
 30
0
 11
4.210000000000004
 21
8.55870670429727
 31
0
  0
LINE
  8
0
 62
7
 10
4.163425330058695
 20
8.299999999999997
 30
0
 11
4.210000000000004
 21
8.346574669941306
 31
0
  0
LINE
  8
0
 62
7
 10
4.035000000000005
 20
10.82322509939086
 30
0
 11
4.061774900609144
 21
10.85
 31
0
  0
LINE
  8
0
 62
7
 10
4.035000000000005
 20
10.61109306503489
 30
0
 11
4.210000000000005
 21
10.78609306503489
 31
0
  0
LINE
  8
0
 62
7
 10
4.035000000000005
 20
10.39896103067893
 30
0
 11
4.210000000000005
 21
10.57396103067893
 31
0
  0
LINE
  8
0
 62
7
 10
4.035000000000005
 20
10.18682899632296
 30
0
 11
4.210000000000005
 21
10.36182899632296
 31
0
  0
LINE
  8
0
 62
7
 10
4.035000000000005
 20
9.974696961967
 30
0
 11
4.210000000000005
 21
10.149696961967
 31
0
  0
LINE
  8
0
 62
7
 10
4.035000000000005
 20
9.762564927611036
 30
0
 11
4.210000000000005
 21
9.937564927611035
 31
0
  0
LINE
  8
0
 62
7
 10
4.035000000000005
 20
9.550432893255072
 30
0
 11
4.210000000000005
 21
9.725432893255071
 31
0
  0
LINE
  8
0
 62
7
 10
4.035000000000005
 20
9.338300858899109
 30
0
 11
4.210000000000005
 21
9.513300858899107
 31
0
  0
LINE
  8
0
 62
7
 10
4.035000000000005
 20
9.126168824543145
 30
0
 11
4.210000000000005
 21
9.301168824543144
 31
0
  0
LINE
  8
0
 62
7
 10
4.035000000000005
 20
8.914036790187181
 30
0
 11
4.210000000000005
 21
9.08903679018718
 31
0
  0
LINE
  8
0
 62
7
 10
4.035000000000005
 20
8.701904755831217
 30
0
 11
4.210000000000005
 21
8.876904755831216
 31
0
  0
LINE
  8
0
 62
7
 10
4.035000000000005
 20
8.489772721475253
 30
0
 11
4.210000000000005
 21
8.664772721475252
 31
0
  0
LINE
  8
0
 62
7
 10
4.057359312880713
 20
8.299999999999997
 30
0
 11
4.210000000000005
 21
8.452640687119288
 31
0
  0
ENDBLK
  8
0
  0
BLOCK
  8
0
  2
*X11
 70
1
 10
0
 20
0
 30
0
  0
LINE
  8
0
 62
7
 10
4.035000000000004
 20
7.959442635585342
 30
0
 11
4.175557364414657
 21
8.099999999999994
 31
0
  0
LINE
  8
0
 62
7
 10
4.035000000000005
 20
8.065508652763324
 30
0
 11
4.069491347236677
 21
8.099999999999996
 31
0
  0
LINE
  8
0
 62
7
 10
4.131623381592642
 20
7.949999999999998
 30
0
 11
4.210000000000004
 21
8.028376618407361
 31
0
  0
ENDBLK
  8
0
  0
BLOCK
  8
0
  2
*X12
 70
1
 10
0
 20
0
 30
0
  0
LINE
  8
0
 62
7
 10
1.100000000000001
 20
11.1762716319083
 30
0
 11
1.123728368091698
 21
11.2
 31
0
  0
LINE
  8
0
 62
7
 10
1.185860402447664
 20
11.05
 30
0
 11
1.274999999999999
 21
11.13913959755234
 31
0
  0
LINE
  8
0
 62
7
 10
1.1
 20
11.07020561473032
 30
0
 11
1.229794385269681
 21
11.2
 31
0
  0
ENDBLK
  8
0
  0
BLOCK
  8
0
  2
*X13
 70
1
 10
0
 20
0
 30
0
  0
LINE
  8
0
 62
7
 10
1.1
 20
10.75200756319637
 30
0
 11
1.197992436803626
 21
10.85
 31
0
  0
LINE
  8
0
 62
7
 10
1.1
 20
10.5398755288404
 30
0
 11
1.275
 21
10.7148755288404
 31
0
  0
LINE
  8
0
 62
7
 10
1.1
 20
10.32774349448444
 30
0
 11
1.275
 21
10.50274349448444
 31
0
  0
LINE
  8
0
 62
7
 10
1.1
 20
10.11561146012848
 30
0
 11
1.275
 21
10.29061146012848
 31
0
  0
LINE
  8
0
 62
7
 10
1.1
 20
9.903479425772513
 30
0
 11
1.275
 21
10.07847942577251
 31
0
  0
LINE
  8
0
 62
7
 10
1.1
 20
9.691347391416549
 30
0
 11
1.275
 21
9.866347391416548
 31
0
  0
LINE
  8
0
 62
7
 10
1.1
 20
9.479215357060585
 30
0
 11
1.275
 21
9.654215357060584
 31
0
  0
LINE
  8
0
 62
7
 10
1.1
 20
9.267083322704622
 30
0
 11
1.275
 21
9.442083322704621
 31
0
  0
LINE
  8
0
 62
7
 10
1.1
 20
9.054951288348658
 30
0
 11
1.275
 21
9.229951288348657
 31
0
  0
LINE
  8
0
 62
7
 10
1.1
 20
8.842819253992694
 30
0
 11
1.275
 21
9.017819253992693
 31
0
  0
LINE
  8
0
 62
7
 10
1.1
 20
8.63068721963673
 30
0
 11
1.275
 21
8.805687219636729
 31
0
  0
LINE
  8
0
 62
7
 10
1.1
 20
8.418555185280766
 30
0
 11
1.275
 21
8.593555185280765
 31
0
  0
LINE
  8
0
 62
7
 10
1.193576849075197
 20
8.299999999999997
 30
0
 11
1.275
 21
8.381423150924801
 31
0
  0
LINE
  8
0
 62
7
 10
1.100000000000001
 20
10.64594154601839
 30
0
 11
1.274999999999999
 21
10.82094154601838
 31
0
  0
LINE
  8
0
 62
7
 10
1.100000000000001
 20
10.43380951166242
 30
0
 11
1.274999999999999
 21
10.60880951166242
 31
0
  0
LINE
  8
0
 62
7
 10
1.100000000000001
 20
10.22167747730646
 30
0
 11
1.274999999999999
 21
10.39667747730646
 31
0
  0
LINE
  8
0
 62
7
 10
1.100000000000001
 20
10.0095454429505
 30
0
 11
1.274999999999999
 21
10.18454544295049
 31
0
  0
LINE
  8
0
 62
7
 10
1.100000000000001
 20
9.797413408594531
 30
0
 11
1.274999999999999
 21
9.972413408594528
 31
0
  0
LINE
  8
0
 62
7
 10
1.100000000000001
 20
9.585281374238567
 30
0
 11
1.274999999999999
 21
9.760281374238565
 31
0
  0
LINE
  8
0
 62
7
 10
1.100000000000001
 20
9.373149339882604
 30
0
 11
1.274999999999999
 21
9.548149339882601
 31
0
  0
LINE
  8
0
 62
7
 10
1.100000000000001
 20
9.16101730552664
 30
0
 11
1.274999999999999
 21
9.336017305526637
 31
0
  0
LINE
  8
0
 62
7
 10
1.100000000000001
 20
8.948885271170676
 30
0
 11
1.274999999999999
 21
9.123885271170673
 31
0
  0
LINE
  8
0
 62
7
 10
1.100000000000001
 20
8.736753236814712
 30
0
 11
1.274999999999999
 21
8.911753236814709
 31
0
  0
LINE
  8
0
 62
7
 10
1.100000000000001
 20
8.524621202458748
 30
0
 11
1.274999999999999
 21
8.699621202458745
 31
0
  0
LINE
  8
0
 62
7
 10
1.100000000000001
 20
8.312489168102784
 30
0
 11
1.274999999999999
 21
8.487489168102782
 31
0
  0
ENDBLK
  8
0
  0
BLOCK
  8
0
  2
*X14
 70
1
 10
0
 20
0
 30
0
  0
LINE
  8
0
 62
7
 10
1.1
 20
7.994291116568838
 30
0
 11
1.205708883431158
 21
8.099999999999996
 31
0
  0
LINE
  8
0
 62
7
 10
1.267840917787124
 20
7.949999999999998
 30
0
 11
1.275
 21
7.957159082212874
 31
0
  0
LINE
  8
0
 62
7
 10
1.161774900609143
 20
7.949999999999999
 30
0
 11
1.274999999999999
 21
8.063225099390854
 31
0
  0
ENDBLK
  8
0
  0
BLOCK
  8
0
  2
*X15
 70
1
 10
0
 20
0
 30
0
  0
LINE
  8
0
 62
7
 10
1.1
 20
5.660838738653231
 30
0
 11
1.129161261346768
 21
5.689999999999998
 31
0
  0
LINE
  8
0
 62
7
 10
0.9350000000000001
 20
5.49583873865323
 30
0
 11
0.9791612613467686
 21
5.539999999999999
 31
0
  0
LINE
  8
0
 62
7
 10
0.9512932957027345
 20
5.300000000000001
 30
0
 11
1.275
 21
5.623706704297266
 31
0
  0
LINE
  8
0
 62
7
 10
1.163425330058699
 20
5.300000000000001
 30
0
 11
1.403425330058697
 21
5.539999999999999
 31
0
  0
LINE
  8
0
 62
7
 10
1.375557364414663
 20
5.300000000000001
 30
0
 11
1.615557364414661
 21
5.539999999999999
 31
0
  0
LINE
  8
0
 62
7
 10
1.587689398770627
 20
5.300000000000001
 30
0
 11
1.827689398770625
 21
5.539999999999999
 31
0
  0
LINE
  8
0
 62
7
 10
1.799821433126592
 20
5.300000000000001
 30
0
 11
2.03982143312659
 21
5.539999999999999
 31
0
  0
LINE
  8
0
 62
7
 10
2.011953467482556
 20
5.300000000000001
 30
0
 11
2.251953467482554
 21
5.539999999999999
 31
0
  0
LINE
  8
0
 62
7
 10
2.22408550183852
 20
5.300000000000001
 30
0
 11
2.464085501838518
 21
5.539999999999999
 31
0
  0
LINE
  8
0
 62
7
 10
2.436217536194484
 20
5.300000000000001
 30
0
 11
2.676217536194482
 21
5.539999999999999
 31
0
  0
LINE
  8
0
 62
7
 10
2.648349570550449
 20
5.300000000000001
 30
0
 11
2.888349570550447
 21
5.539999999999999
 31
0
  0
LINE
  8
0
 62
7
 10
2.860481604906413
 20
5.300000000000001
 30
0
 11
3.100481604906411
 21
5.539999999999999
 31
0
  0
LINE
  8
0
 62
7
 10
3.072613639262377
 20
5.300000000000001
 30
0
 11
3.312613639262375
 21
5.539999999999999
 31
0
  0
LINE
  8
0
 62
7
 10
3.284745673618342
 20
5.300000000000001
 30
0
 11
3.52474567361834
 21
5.539999999999999
 31
0
  0
LINE
  8
0
 62
7
 10
3.496877707974306
 20
5.300000000000001
 30
0
 11
3.736877707974304
 21
5.539999999999999
 31
0
  0
LINE
  8
0
 62
7
 10
4.035000000000005
 20
5.625990257669737
 30
0
 11
4.099009742330266
 21
5.689999999999999
 31
0
  0
LINE
  8
0
 62
7
 10
3.70900974233027
 20
5.300000000000001
 30
0
 11
3.949009742330268
 21
5.539999999999999
 31
0
  0
LINE
  8
0
 62
7
 10
3.921141776686234
 20
5.300000000000001
 30
0
 11
4.210000000000004
 21
5.588858223313771
 31
0
  0
LINE
  8
0
 62
7
 10
4.133273811042199
 20
5.300000000000001
 30
0
 11
4.360000000000005
 21
5.526726188957807
 31
0
  0
LINE
  8
0
 62
7
 10
4.345405845398163
 20
5.300000000000001
 30
0
 11
4.360000000000005
 21
5.314594154601843
 31
0
  0
LINE
  8
0
 62
7
 10
1.100000000000001
 20
5.554772721475249
 30
0
 11
1.23522727852475
 21
5.689999999999999
 31
0
  0
LINE
  8
0
 62
7
 10
0.9350000000000001
 20
5.389772721475248
 30
0
 11
1.085227278524751
 21
5.539999999999999
 31
0
  0
LINE
  8
0
 62
7
 10
1.057359312880717
 20
5.300000000000001
 30
0
 11
1.297359312880714
 21
5.539999999999999
 31
0
  0
LINE
  8
0
 62
7
 10
1.269491347236681
 20
5.300000000000001
 30
0
 11
1.509491347236679
 21
5.539999999999999
 31
0
  0
LINE
  8
0
 62
7
 10
1.481623381592645
 20
5.300000000000001
 30
0
 11
1.721623381592643
 21
5.539999999999999
 31
0
  0
LINE
  8
0
 62
7
 10
1.69375541594861
 20
5.300000000000001
 30
0
 11
1.933755415948607
 21
5.539999999999999
 31
0
  0
LINE
  8
0
 62
7
 10
1.905887450304574
 20
5.300000000000001
 30
0
 11
2.145887450304572
 21
5.539999999999999
 31
0
  0
LINE
  8
0
 62
7
 10
2.118019484660538
 20
5.300000000000001
 30
0
 11
2.358019484660536
 21
5.539999999999999
 31
0
  0
LINE
  8
0
 62
7
 10
2.330151519016503
 20
5.300000000000001
 30
0
 11
2.5701515190165
 21
5.539999999999999
 31
0
  0
LINE
  8
0
 62
7
 10
2.542283553372467
 20
5.300000000000001
 30
0
 11
2.782283553372464
 21
5.539999999999999
 31
0
  0
LINE
  8
0
 62
7
 10
2.754415587728431
 20
5.300000000000001
 30
0
 11
2.994415587728429
 21
5.539999999999999
 31
0
  0
LINE
  8
0
 62
7
 10
2.966547622084395
 20
5.300000000000001
 30
0
 11
3.206547622084393
 21
5.539999999999999
 31
0
  0
LINE
  8
0
 62
7
 10
3.17867965644036
 20
5.300000000000001
 30
0
 11
3.418679656440357
 21
5.539999999999999
 31
0
  0
LINE
  8
0
 62
7
 10
3.390811690796324
 20
5.300000000000001
 30
0
 11
3.630811690796321
 21
5.539999999999999
 31
0
  0
LINE
  8
0
 62
7
 10
3.602943725152288
 20
5.300000000000001
 30
0
 11
3.842943725152286
 21
5.539999999999999
 31
0
  0
LINE
  8
0
 62
7
 10
3.815075759508253
 20
5.300000000000001
 30
0
 11
4.205075759508249
 21
5.689999999999999
 31
0
  0
LINE
  8
0
 62
7
 10
4.027207793864217
 20
5.300000000000001
 30
0
 11
4.267207793864215
 21
5.539999999999999
 31
0
  0
LINE
  8
0
 62
7
 10
4.239339828220181
 20
5.300000000000001
 30
0
 11
4.360000000000004
 21
5.420660171779825
 31
0
  0
ENDBLK
  8
0
  0
BLOCK
  8
0
  2
*X16
 70
1
 10
0
 20
0
 30
0
  0
LINE
  8
0
 62
7
 10
0.9350000000000005
 20
5.071574669941302
 30
0
 11
1.123425330058699
 21
5.260000000000001
 31
0
  0
LINE
  8
0
 62
7
 10
1.095557364414662
 20
5.02
 30
0
 11
1.335557364414663
 21
5.260000000000001
 31
0
  0
LINE
  8
0
 62
7
 10
1.307689398770626
 20
5.02
 30
0
 11
1.547689398770627
 21
5.260000000000001
 31
0
  0
LINE
  8
0
 62
7
 10
1.1
 20
4.812310601229372
 30
0
 11
1.275
 21
4.987310601229372
 31
0
  0
LINE
  8
0
 62
7
 10
1.51982143312659
 20
5.02
 30
0
 11
1.759821433126592
 21
5.260000000000001
 31
0
  0
LINE
  8
0
 62
7
 10
1.1
 20
4.600178566873408
 30
0
 11
1.275
 21
4.775178566873408
 31
0
  0
LINE
  8
0
 62
7
 10
1.731953467482555
 20
5.02
 30
0
 11
1.971953467482556
 21
5.260000000000001
 31
0
  0
LINE
  8
0
 62
7
 10
1.1
 20
4.388046532517444
 30
0
 11
1.275
 21
4.563046532517444
 31
0
  0
LINE
  8
0
 62
7
 10
1.944085501838519
 20
5.02
 30
0
 11
2.18408550183852
 21
5.260000000000001
 31
0
  0
LINE
  8
0
 62
7
 10
1.1
 20
4.175914498161481
 30
0
 11
1.275
 21
4.35091449816148
 31
0
  0
LINE
  8
0
 62
7
 10
2.156217536194483
 20
5.02
 30
0
 11
2.396217536194484
 21
5.260000000000001
 31
0
  0
LINE
  8
0
 62
7
 10
1.1
 20
3.963782463805517
 30
0
 11
1.275
 21
4.138782463805517
 31
0
  0
LINE
  8
0
 62
7
 10
2.368349570550448
 20
5.02
 30
0
 11
2.608349570550449
 21
5.260000000000001
 31
0
  0
LINE
  8
0
 62
7
 10
1.1
 20
3.751650429449553
 30
0
 11
1.275
 21
3.926650429449553
 31
0
  0
LINE
  8
0
 62
7
 10
2.580481604906412
 20
5.02
 30
0
 11
2.820481604906413
 21
5.260000000000001
 31
0
  0
LINE
  8
0
 62
7
 10
1.1
 20
3.539518395093588
 30
0
 11
1.275
 21
3.714518395093588
 31
0
  0
LINE
  8
0
 62
7
 10
2.792613639262376
 20
5.02
 30
0
 11
3.032613639262377
 21
5.260000000000001
 31
0
  0
LINE
  8
0
 62
7
 10
1.122613639262376
 20
3.35
 30
0
 11
1.275
 21
3.502386360737624
 31
0
  0
LINE
  8
0
 62
7
 10
3.00474567361834
 20
5.02
 30
0
 11
3.244745673618342
 21
5.260000000000001
 31
0
  0
LINE
  8
0
 62
7
 10
3.216877707974305
 20
5.02
 30
0
 11
3.456877707974306
 21
5.260000000000001
 31
0
  0
LINE
  8
0
 62
7
 10
3.429009742330269
 20
5.02
 30
0
 11
3.66900974233027
 21
5.260000000000001
 31
0
  0
LINE
  8
0
 62
7
 10
3.641141776686233
 20
5.02
 30
0
 11
3.881141776686234
 21
5.260000000000001
 31
0
  0
LINE
  8
0
 62
7
 10
3.853273811042198
 20
5.02
 30
0
 11
4.093273811042199
 21
5.260000000000001
 31
0
  0
LINE
  8
0
 62
7
 10
4.035000000000005
 20
4.989594154601842
 30
0
 11
4.305405845398163
 21
5.260000000000001
 31
0
  0
LINE
  8
0
 62
7
 10
4.277537879754125
 20
5.02
 30
0
 11
4.360000000000004
 21
5.102462120245878
 31
0
  0
LINE
  8
0
 62
7
 10
4.035000000000005
 20
4.777462120245878
 30
0
 11
4.210000000000004
 21
4.952462120245877
 31
0
  0
LINE
  8
0
 62
7
 10
4.035000000000005
 20
4.565330085889914
 30
0
 11
4.210000000000004
 21
4.740330085889913
 31
0
  0
LINE
  8
0
 62
7
 10
4.035000000000005
 20
4.35319805153395
 30
0
 11
4.210000000000004
 21
4.528198051533949
 31
0
  0
LINE
  8
0
 62
7
 10
4.035000000000005
 20
4.141066017177987
 30
0
 11
4.210000000000004
 21
4.316066017177985
 31
0
  0
LINE
  8
0
 62
7
 10
4.035000000000005
 20
3.928933982822023
 30
0
 11
4.210000000000004
 21
4.103933982822022
 31
0
  0
LINE
  8
0
 62
7
 10
4.035000000000005
 20
3.716801948466058
 30
0
 11
4.210000000000004
 21
3.891801948466058
 31
0
  0
LINE
  8
0
 62
7
 10
4.035000000000005
 20
3.504669914110094
 30
0
 11
4.210000000000004
 21
3.679669914110093
 31
0
  0
LINE
  8
0
 62
7
 10
4.035000000000005
 20
3.292537879754129
 30
0
 11
4.210000000000004
 21
3.467537879754129
 31
0
  0
LINE
  8
0
 62
7
 10
4.20459415460184
 20
3.25
 30
0
 11
4.210000000000004
 21
3.255405845398165
 31
0
  0
LINE
  8
0
 62
7
 10
0.9350000000000005
 20
5.177640687119286
 30
0
 11
1.017359312880716
 21
5.260000000000001
 31
0
  0
LINE
  8
0
 62
7
 10
0.9894913472366795
 20
5.02
 30
0
 11
1.229491347236681
 21
5.260000000000001
 31
0
  0
LINE
  8
0
 62
7
 10
1.1
 20
4.918376618407354
 30
0
 11
1.441623381592645
 21
5.260000000000001
 31
0
  0
LINE
  8
0
 62
7
 10
1.413755415948608
 20
5.02
 30
0
 11
1.653755415948609
 21
5.260000000000001
 31
0
  0
LINE
  8
0
 62
7
 10
1.1
 20
4.70624458405139
 30
0
 11
1.275
 21
4.88124458405139
 31
0
  0
LINE
  8
0
 62
7
 10
1.625887450304572
 20
5.02
 30
0
 11
1.865887450304573
 21
5.260000000000001
 31
0
  0
LINE
  8
0
 62
7
 10
1.1
 20
4.494112549695426
 30
0
 11
1.275
 21
4.669112549695426
 31
0
  0
LINE
  8
0
 62
7
 10
1.838019484660537
 20
5.02
 30
0
 11
2.078019484660538
 21
5.260000000000001
 31
0
  0
LINE
  8
0
 62
7
 10
1.1
 20
4.281980515339463
 30
0
 11
1.275
 21
4.456980515339462
 31
0
  0
LINE
  8
0
 62
7
 10
2.050151519016501
 20
5.02
 30
0
 11
2.290151519016502
 21
5.260000000000001
 31
0
  0
LINE
  8
0
 62
7
 10
1.1
 20
4.069848480983499
 30
0
 11
1.275
 21
4.244848480983499
 31
0
  0
LINE
  8
0
 62
7
 10
2.262283553372465
 20
5.02
 30
0
 11
2.502283553372466
 21
5.260000000000001
 31
0
  0
LINE
  8
0
 62
7
 10
1.1
 20
3.857716446627535
 30
0
 11
1.275
 21
4.032716446627535
 31
0
  0
LINE
  8
0
 62
7
 10
2.47441558772843
 20
5.02
 30
0
 11
2.714415587728431
 21
5.260000000000001
 31
0
  0
LINE
  8
0
 62
7
 10
1.1
 20
3.645584412271571
 30
0
 11
1.275
 21
3.82058441227157
 31
0
  0
LINE
  8
0
 62
7
 10
2.686547622084394
 20
5.02
 30
0
 11
2.926547622084395
 21
5.260000000000001
 31
0
  0
LINE
  8
0
 62
7
 10
1.1
 20
3.433452377915606
 30
0
 11
1.275
 21
3.608452377915606
 31
0
  0
LINE
  8
0
 62
7
 10
2.898679656440358
 20
5.02
 30
0
 11
3.138679656440359
 21
5.260000000000001
 31
0
  0
LINE
  8
0
 62
7
 10
1.228679656440357
 20
3.35
 30
0
 11
1.275
 21
3.396320343559642
 31
0
  0
LINE
  8
0
 62
7
 10
3.110811690796322
 20
5.02
 30
0
 11
3.350811690796323
 21
5.260000000000001
 31
0
  0
LINE
  8
0
 62
7
 10
3.322943725152287
 20
5.02
 30
0
 11
3.562943725152288
 21
5.260000000000001
 31
0
  0
LINE
  8
0
 62
7
 10
3.535075759508251
 20
5.02
 30
0
 11
3.775075759508252
 21
5.260000000000001
 31
0
  0
LINE
  8
0
 62
7
 10
3.747207793864215
 20
5.02
 30
0
 11
3.987207793864216
 21
5.260000000000001
 31
0
  0
LINE
  8
0
 62
7
 10
3.959339828220179
 20
5.02
 30
0
 11
4.199339828220181
 21
5.260000000000001
 31
0
  0
LINE
  8
0
 62
7
 10
4.035000000000004
 20
4.883528137423859
 30
0
 11
4.360000000000005
 21
5.208528137423861
 31
0
  0
LINE
  8
0
 62
7
 10
4.035000000000004
 20
4.671396103067895
 30
0
 11
4.210000000000004
 21
4.846396103067895
 31
0
  0
LINE
  8
0
 62
7
 10
4.035000000000004
 20
4.459264068711931
 30
0
 11
4.210000000000004
 21
4.634264068711931
 31
0
  0
LINE
  8
0
 62
7
 10
4.035000000000004
 20
4.247132034355968
 30
0
 11
4.210000000000004
 21
4.422132034355967
 31
0
  0
LINE
  8
0
 62
7
 10
4.035000000000004
 20
4.035000000000004
 30
0
 11
4.210000000000004
 21
4.210000000000004
 31
0
  0
LINE
  8
0
 62
7
 10
4.035000000000004
 20
3.822867965644039
 30
0
 11
4.210000000000004
 21
3.99786796564404
 31
0
  0
LINE
  8
0
 62
7
 10
4.035000000000004
 20
3.610735931288075
 30
0
 11
4.210000000000004
 21
3.785735931288075
 31
0
  0
LINE
  8
0
 62
7
 10
4.035000000000005
 20
3.398603896932112
 30
0
 11
4.210000000000004
 21
3.573603896932111
 31
0
  0
LINE
  8
0
 62
7
 10
4.098528137423858
 20
3.25
 30
0
 11
4.210000000000004
 21
3.361471862576147
 31
0
  0
ENDBLK
  8
0
  0
BLOCK
  8
0
  2
*D0
 70
1
 10
0
 20
0
 30
0
  0
LINE
  8
0
 62
7
 10
0.7572948398910001
 20
4.61749524811219
 30
0
 11
0.7572948398910001
 21
5.02
 31
0
  0
LINE
  8
0
 62
7
 10
0.7572948398910001
 20
3.35
 30
0
 11
0.7572948398910001
 21
3.87249524811219
 31
0
  0
LINE
  8
0
 62
7
 10
1.1
 20
5.02
 30
0
 11
0.7072948398910001
 21
5.02
 31
0
  0
LINE
  8
0
 62
7
 10
1.1
 20
3.35
 30
0
 11
0.7072948398910001
 21
3.35
 31
0
  0
LINE
  8
0
 62
7
 10
0.7926501789503275
 20
4.984644660940673
 30
0
 11
0.7219395008316727
 21
5.055355339059328
 31
0
  0
LINE
  8
0
 62
7
 10
0.7219395008316727
 20
3.385355339059327
 30
0
 11
0.7926501789503275
 21
3.314644660940673
 31
0
  0
TEXT
  8
0
 62
7
 10
0.8022948398910001
 20
4.12249524811219
 30
0
 40
0.1
  1
1,67
 50
90
 41
0.9
  0
ENDBLK
  8
0
  0
BLOCK
  8
0
  2
*D1
 70
1
 10
0
 20
0
 30
0
  0
LINE
  8
0
 62
7
 10
3.0794299230682
 20
5.90830955742917
 30
0
 11
4.035000000000004
 21
5.90830955742917
 31
0
  0
LINE
  8
0
 62
7
 10
1.275
 20
5.90830955742917
 30
0
 11
2.3044299230682
 21
5.90830955742917
 31
0
  0
LINE
  8
0
 62
7
 10
4.035000000000004
 20
5.539999999999998
 30
0
 11
4.035000000000004
 21
5.95830955742917
 31
0
  0
LINE
  8
0
 62
7
 10
1.275
 20
5.539999999999998
 30
0
 11
1.275
 21
5.95830955742917
 31
0
  0
LINE
  8
0
 62
7
 10
3.999644660940676
 20
5.872954218369843
 30
0
 11
4.070355339059331
 21
5.943664896488498
 31
0
  0
LINE
  8
0
 62
7
 10
1.310355339059327
 20
5.943664896488498
 30
0
 11
1.239644660940673
 21
5.872954218369843
 31
0
  0
TEXT
  8
0
 62
7
 10
2.5544299230682
 20
5.86330955742917
 30
0
 40
0.1
  1
2,76
 41
0.9
  0
ENDBLK
  8
0
  0
BLOCK
  8
0
  2
*D2
 70
1
 10
0
 20
0
 30
0
  0
LINE
  8
0
 62
7
 10
4.59117534008971
 20
4.52312280503037
 30
0
 11
4.59117534008971
 21
5.02
 31
0
  0
LINE
  8
0
 62
7
 10
4.59117534008971
 20
3.25
 30
0
 11
4.59117534008971
 21
3.77812280503037
 31
0
  0
LINE
  8
0
 62
7
 10
4.210000000000004
 20
5.02
 30
0
 11
4.64117534008971
 21
5.02
 31
0
  0
LINE
  8
0
 62
7
 10
4.210000000000004
 20
3.25
 30
0
 11
4.64117534008971
 21
3.25
 31
0
  0
LINE
  8
0
 62
7
 10
4.555820001030383
 20
3.285355339059327
 30
0
 11
4.626530679149037
 21
3.214644660940673
 31
0
  0
LINE
  8
0
 62
7
 10
4.626530679149037
 20
4.984644660940673
 30
0
 11
4.555820001030383
 21
5.055355339059328
 31
0
  0
TEXT
  8
0
 62
7
 10
4.63617534008971
 20
4.02812280503037
 30
0
 40
0.1
  1
1,77
 50
90
 41
0.9
  0
ENDBLK
  8
0
  0
BLOCK
  8
0
  2
*D3
 70
1
 10
0
 20
0
 30
0
  0
LINE
  8
0
 62
7
 10
3.05302303383865
 20
11.464487143871
 30
0
 11
4.035000000000005
 21
11.464487143871
 31
0
  0
LINE
  8
0
 62
7
 10
1.275
 20
11.464487143871
 30
0
 11
2.37802303383865
 21
11.464487143871
 31
0
  0
LINE
  8
0
 62
7
 10
4.035000000000005
 20
11.2
 30
0
 11
4.035000000000005
 21
11.514487143871
 31
0
  0
LINE
  8
0
 62
7
 10
1.275
 20
11.2
 30
0
 11
1.275
 21
11.514487143871
 31
0
  0
LINE
  8
0
 62
7
 10
1.310355339059327
 20
11.49984248293033
 30
0
 11
1.239644660940672
 21
11.42913180481167
 31
0
  0
LINE
  8
0
 62
7
 10
3.999644660940677
 20
11.42913180481167
 30
0
 11
4.070355339059332
 21
11.49984248293033
 31
0
  0
TEXT
  8
0
 62
7
 10
2.57802303383865
 20
11.419487143871
 30
0
 40
0.1
  1
2,76
 41
0.9
  0
ENDBLK
  8
0
  0
BLOCK
  8
0
  2
*D4
 70
1
 10
0
 20
0
 30
0
  0
LINE
  8
0
 62
7
 10
0.6275327306535051
 20
10.17602105916083
 30
0
 11
0.6275327306535051
 21
11.05
 31
0
  0
LINE
  8
0
 62
7
 10
0.6275327306535051
 20
8.299999999999999
 30
0
 11
0.6275327306535051
 21
9.096021059160831
 31
0
  0
LINE
  8
0
 62
7
 10
0.95
 20
11.05
 30
0
 11
0.5775327306535051
 21
11.05
 31
0
  0
LINE
  8
0
 62
7
 10
0.95
 20
8.299999999999999
 30
0
 11
0.5775327306535051
 21
8.299999999999999
 31
0
  0
LINE
  8
0
 62
7
 10
0.5921773915941777
 20
8.335355339059326
 30
0
 11
0.6628880697128325
 21
8.264644660940672
 31
0
  0
LINE
  8
0
 62
7
 10
0.6628880697128325
 20
11.01464466094067
 30
0
 11
0.5921773915941777
 21
11.08535533905933
 31
0
  0
TEXT
  8
0
 62
7
 10
0.5975327306535051
 20
9.498521059160833
 30
0
 40
0.1
  1
2,75
 50
90
 41
0.9
  0
TEXT
  8
0
 62
7
 10
0.7575327306535051
 20
9.296021059160832
 30
0
 40
0.1
  1
(260-280)
 50
90
 41
0.9
  0
ENDBLK
  8
0
  0
ENDSEC
  0
SECTION
  2
ENTITIES
  0
INSERT
  8
0
  2
*X0
 10
0
 20
0
 30
0
  0
INSERT
  8
0
  2
*X1
 10
0
 20
0
 30
0
  0
INSERT
  8
0
  2
*X2
 10
0
 20
0
 30
0
  0
INSERT
  8
0
  2
*X3
 10
0
 20
0
 30
0
  0
INSERT
  8
0
  2
*X4
 10
0
 20
0
 30
0
  0
INSERT
  8
0
  2
*X5
 10
0
 20
0
 30
0
  0
INSERT
  8
0
  2
*X6
 10
0
 20
0
 30
0
  0
INSERT
  8
0
  2
*X7
 10
0
 20
0
 30
0
  0
INSERT
  8
0
  2
*X8
 10
0
 20
0
 30
0
  0
INSERT
  8
0
  2
*X9
 10
0
 20
0
 30
0
  0
INSERT
  8
0
  2
*X10
 10
0
 20
0
 30
0
  0
INSERT
  8
0
  2
*X11
 10
0
 20
0
 30
0
  0
INSERT
  8
0
  2
*X12
 10
0
 20
0
 30
0
  0
INSERT
  8
0
  2
*X13
 10
0
 20
0
 30
0
  0
INSERT
  8
0
  2
*X14
 10
0
 20
0
 30
0
  0
INSERT
  8
0
  2
*X15
 10
0
 20
0
 30
0
  0
INSERT
  8
0
  2
*X16
 10
0
 20
0
 30
0
  0
LINE
  8
0
 62
7
 10
2.279999999999995
 20
3.743746276770681
 30
0
 11
2.279999999999995
 21
3.954851965481138
 31
0
  0
LINE
  8
0
 62
7
 10
2.279999999999995
 20
3.954851965481138
 30
0
 11
2.334734711412167
 21
4.015000000000001
 31
0
  0
LINE
  8
0
 62
7
 10
2.398088064046977
 20
4.015
 30
0
 11
2.488153153902294
 21
4.015
 31
0
  0
LINE
  8
0
 62
7
 10
2.334734711412167
 20
4.015000000000001
 30
0
 11
2.488153153902294
 21
4.015
 31
0
  0
LINE
  8
0
 62
7
 10
2.783121828560325
 20
4.015
 30
0
 11
2.961429207984465
 21
4.015000000000001
 31
0
  0
LINE
  8
0
 62
7
 10
2.961429207984465
 20
4.015000000000001
 30
0
 11
3.029999999999995
 21
3.973404998152001
 31
0
  0
LINE
  8
0
 62
7
 10
3.029999999999995
 20
3.90173848161609
 30
0
 11
3.029999999999995
 21
3.80234862166642
 31
0
  0
LINE
  8
0
 62
7
 10
3.029999999999995
 20
3.973404998152001
 30
0
 11
3.029999999999995
 21
3.80234862166642
 31
0
  0
LINE
  8
0
 62
7
 10
3.029999999999995
 20
3.25
 30
0
 11
3.979999999999995
 21
3.25
 31
0
  0
LINE
  8
0
 62
7
 10
3.029999999999995
 20
3.6
 30
0
 11
3.029999999999995
 21
3.25
 31
0
  0
LINE
  8
0
 62
7
 10
3.979999999999995
 20
3.25
 30
0
 11
3.979999999999995
 21
3.6
 31
0
  0
LINE
  8
0
 62
7
 10
3.029999999999995
 20
3.51
 30
0
 11
3.979999999999995
 21
3.51
 31
0
  0
LINE
  8
0
 62
7
 10
3.029999999999995
 20
3.79112804167914
 30
0
 11
3.029999999999995
 21
3.51
 31
0
  0
LINE
  8
0
 62
7
 10
3.979999999999995
 20
3.51
 30
0
 11
3.979999999999995
 21
3.927540583488371
 31
0
  0
LINE
  8
0
 62
7
 10
3.029999999999995
 20
3.7002049339826
 30
0
 11
3.979999999999995
 21
3.836617475791842
 31
0
  0
LINE
  8
0
 62
7
 10
3.029999999999995
 20
3.80234862166642
 30
0
 11
3.029999999999995
 21
3.7002049339826
 31
0
  0
LINE
  8
0
 62
7
 10
3.979999999999995
 20
3.836617475791842
 30
0
 11
3.979999999999995
 21
4.346870684947452
 31
0
  0
LINE
  8
0
 62
7
 10
3.029999999999995
 20
3.80234862166642
 30
0
 11
3.979999999999995
 21
4.24748082499778
 31
0
  0
LINE
  8
0
 62
7
 10
3.979999999999995
 20
4.24748082499778
 30
0
 11
3.979999999999995
 21
4.923489263955552
 31
0
  0
LINE
  8
0
 62
7
 10
3.086332473963566
 20
3.93923375279018
 30
0
 11
3.979999999999995
 21
4.79862692223609
 31
0
  0
LINE
  8
0
 62
7
 10
3.029999999999995
 20
3.973404998152001
 30
0
 11
3.086332473963566
 21
3.93923375279018
 31
0
  0
LINE
  8
0
 62
7
 10
3.979999999999995
 20
4.965
 30
0
 11
3.436269879299975
 21
4.965
 31
0
  0
LINE
  8
0
 62
7
 10
3.979999999999995
 20
4.79862692223609
 30
0
 11
3.979999999999995
 21
4.965
 31
0
  0
LINE
  8
0
 62
7
 10
2.994151080888474
 20
4.015
 30
0
 11
3.540071780012324
 21
4.965
 31
0
  0
LINE
  8
0
 62
7
 10
2.961429207984465
 20
4.015000000000001
 30
0
 11
2.994151080888474
 21
4.015
 31
0
  0
LINE
  8
0
 62
7
 10
3.540071780012324
 20
4.965
 30
0
 11
3.006118691616855
 21
4.965
 31
0
  0
LINE
  8
0
 62
7
 10
2.875568075980727
 20
4.015
 30
0
 11
3.098564939037255
 21
4.965
 31
0
  0
LINE
  8
0
 62
7
 10
2.590948663505625
 20
4.015
 30
0
 11
2.875568075980727
 21
4.015
 31
0
  0
LINE
  8
0
 62
7
 10
3.098564939037255
 20
4.965
 30
0
 11
2.685295627754494
 21
4.965
 31
0
  0
LINE
  8
0
 62
7
 10
2.681391409094545
 20
4.015
 30
0
 11
2.775738373343415
 21
4.965
 31
0
  0
LINE
  8
0
 62
7
 10
2.488153153902294
 20
4.015
 30
0
 11
2.681391409094545
 21
4.015
 31
0
  0
LINE
  8
0
 62
7
 10
2.775738373343415
 20
4.965
 30
0
 11
2.361951029576305
 21
4.965
 31
0
  0
LINE
  8
0
 62
7
 10
2.488153153902294
 20
4.015
 30
0
 11
2.452016119431605
 21
4.965000000000011
 31
0
  0
LINE
  8
0
 62
7
 10
2.452016119431605
 20
4.965000000000011
 30
0
 11
1.952314712917536
 21
4.965
 31
0
  0
LINE
  8
0
 62
7
 10
2.364704863157725
 20
4.047934232687431
 30
0
 11
2.047545033716236
 21
4.965
 31
0
  0
LINE
  8
0
 62
7
 10
2.334734711412167
 20
4.015000000000001
 30
0
 11
2.364704863157725
 21
4.047934232687431
 31
0
  0
LINE
  8
0
 62
7
 10
2.047545033716236
 20
4.965
 30
0
 11
1.443723766362757
 21
4.965
 31
0
  0
LINE
  8
0
 62
7
 10
2.279999999999995
 20
3.96709429994145
 30
0
 11
1.55497034677105
 21
4.965
 31
0
  0
LINE
  8
0
 62
7
 10
2.279999999999995
 20
3.954851965481138
 30
0
 11
2.279999999999995
 21
3.96709429994145
 31
0
  0
LINE
  8
0
 62
7
 10
1.329999999999998
 20
4.965
 30
0
 11
1.329999999999998
 21
4.41735912544383
 31
0
  0
LINE
  8
0
 62
7
 10
1.55497034677105
 20
4.965
 30
0
 11
1.329999999999998
 21
4.965
 31
0
  0
LINE
  8
0
 62
7
 10
2.279999999999995
 20
3.854075221276451
 30
0
 11
1.329999999999998
 21
4.52768806994959
 31
0
  0
LINE
  8
0
 62
7
 10
2.279999999999995
 20
3.636758244306371
 30
0
 11
2.279999999999995
 21
3.854075221276451
 31
0
  0
LINE
  8
0
 62
7
 10
1.329999999999998
 20
4.52768806994959
 30
0
 11
1.329999999999998
 21
4.00247220494306
 31
0
  0
LINE
  8
0
 62
7
 10
2.279999999999995
 20
3.733196752713301
 30
0
 11
1.329999999999998
 21
4.09891071334999
 31
0
  0
LINE
  8
0
 62
7
 10
2.279999999999995
 20
3.5236045486662
 30
0
 11
2.279999999999995
 21
3.733196752713301
 31
0
  0
LINE
  8
0
 62
7
 10
1.329999999999998
 20
4.09891071334999
 30
0
 11
1.329999999999998
 21
3.614099059228991
 31
0
  0
LINE
  8
0
 62
7
 10
2.279999999999995
 20
3.614011955130991
 30
0
 11
1.329999999999998
 21
3.704506465693781
 31
0
  0
LINE
  8
0
 62
7
 10
2.279999999999995
 20
3.39
 30
0
 11
2.279999999999995
 21
3.614011955130991
 31
0
  0
LINE
  8
0
 62
7
 10
1.329999999999998
 20
3.704506465693781
 30
0
 11
1.329999999999998
 21
3.39
 31
0
  0
LINE
  8
0
 62
7
 10
3.516064637731406
 20
4.014999728198891
 30
0
 11
3.516064637731406
 21
3.25
 31
0
  0
LINE
  8
0
 62
7
 10
2.280000271834815
 20
4.501064637731409
 30
0
 11
3.029999728143176
 21
4.501064637731409
 31
0
  0
LINE
  8
0
 62
7
 10
1.899590461530286
 20
3.461
 30
0
 11
1.793935362268585
 21
3.4
 31
0
  0
LINE
  8
0
 62
7
 10
1.688280263006887
 20
3.461
 30
0
 11
1.899590461530286
 21
3.461
 31
0
  0
LINE
  8
0
 62
7
 10
1.793935362268585
 20
3.4
 30
0
 11
1.688280263006887
 21
3.461
 31
0
  0
LINE
  8
0
 62
7
 10
1.793935362268585
 20
3.4
 30
0
 11
1.793935362268585
 21
4.014999728142871
 31
0
  0
LINE
  8
0
 62
7
 10
6.189999560000007
 20
8.58333322666666
 30
0
 11
6.539999850000005
 21
8.58333322666666
 31
0
  0
LINE
  8
0
 62
7
 10
6.189999560000007
 20
8.518333226666661
 30
0
 11
6.189999560000007
 21
8.58333322666666
 31
0
  0
LINE
  8
0
 62
7
 10
6.539999850000005
 20
8.58333322666666
 30
0
 11
6.539999850000005
 21
8.518333226666661
 31
0
  0
LINE
  8
0
 62
7
 10
6.539999850000005
 20
8.518333226666661
 30
0
 11
6.189999560000007
 21
8.518333226666661
 31
0
  0
LINE
  8
0
 62
7
 10
6.449999740000006
 20
8.766666566666663
 30
0
 11
6.867540439999996
 21
8.766666566666663
 31
0
  0
LINE
  8
0
 62
7
 10
6.867540439999996
 20
8.701666566666661
 30
0
 11
6.449999740000006
 21
8.701666566666661
 31
0
  0
LINE
  8
0
 62
7
 10
6.449999740000006
 20
8.701666566666661
 30
0
 11
6.449999740000006
 21
8.766666566666663
 31
0
  0
LINE
  8
0
 62
7
 10
6.867540439999996
 20
8.766666566666663
 30
0
 11
6.867540439999996
 21
8.701666566666661
 31
0
  0
LINE
  8
0
 62
7
 10
7.286870579999996
 20
8.884999906666662
 30
0
 11
6.640204930000005
 21
8.884999906666662
 31
0
  0
LINE
  8
0
 62
7
 10
6.640204930000005
 20
8.949999906666664
 30
0
 11
7.286870579999996
 21
8.949999906666664
 31
0
  0
LINE
  8
0
 62
7
 10
6.640204930000005
 20
8.884999906666662
 30
0
 11
6.640204930000005
 21
8.949999906666664
 31
0
  0
LINE
  8
0
 62
7
 10
7.286870579999996
 20
8.949999906666664
 30
0
 11
7.286870579999996
 21
8.884999906666662
 31
0
  0
LINE
  8
0
 62
7
 10
7.863489080000007
 20
9.068333226666661
 30
0
 11
6.742348410000007
 21
9.068333226666661
 31
0
  0
LINE
  8
0
 62
7
 10
6.742348410000007
 20
9.133333226666661
 30
0
 11
7.863489080000007
 21
9.133333226666661
 31
0
  0
LINE
  8
0
 62
7
 10
6.742348410000007
 20
9.068333226666661
 30
0
 11
6.742348410000007
 21
9.133333226666661
 31
0
  0
LINE
  8
0
 62
7
 10
7.863489080000007
 20
9.133333226666661
 30
0
 11
7.863489080000007
 21
9.068333226666661
 31
0
  0
LINE
  8
0
 62
7
 10
7.904999850000007
 20
9.251666586666662
 30
0
 11
6.879233710000005
 21
9.251666586666662
 31
0
  0
LINE
  8
0
 62
7
 10
6.879233710000005
 20
9.316666586666662
 30
0
 11
7.904999850000007
 21
9.316666586666662
 31
0
  0
LINE
  8
0
 62
7
 10
6.879233710000005
 20
9.251666586666662
 30
0
 11
6.879233710000005
 21
9.316666586666662
 31
0
  0
LINE
  8
0
 62
7
 10
7.904999850000007
 20
9.316666586666662
 30
0
 11
7.904999850000007
 21
9.251666586666662
 31
0
  0
LINE
  8
0
 62
7
 10
6.954999770000007
 20
9.499999946666664
 30
0
 11
7.904999850000007
 21
9.499999946666664
 31
0
  0
LINE
  8
0
 62
7
 10
6.954999770000007
 20
9.434999946666663
 30
0
 11
6.954999770000007
 21
9.499999946666664
 31
0
  0
LINE
  8
0
 62
7
 10
7.904999850000007
 20
9.499999946666664
 30
0
 11
7.904999850000007
 21
9.434999946666663
 31
0
  0
LINE
  8
0
 62
7
 10
7.904999850000007
 20
9.434999946666663
 30
0
 11
6.954999770000007
 21
9.434999946666663
 31
0
  0
LINE
  8
0
 62
7
 10
6.954999700000005
 20
9.683333226666662
 30
0
 11
7.904999850000007
 21
9.683333226666662
 31
0
  0
LINE
  8
0
 62
7
 10
6.954999700000005
 20
9.618333226666662
 30
0
 11
6.954999700000005
 21
9.683333226666662
 31
0
  0
LINE
  8
0
 62
7
 10
7.904999850000007
 20
9.683333226666662
 30
0
 11
7.904999850000007
 21
9.618333226666662
 31
0
  0
LINE
  8
0
 62
7
 10
7.904999850000007
 20
9.618333226666662
 30
0
 11
6.954999700000005
 21
9.618333226666662
 31
0
  0
LINE
  8
0
 62
7
 10
6.954999620000007
 20
9.866666666666664
 30
0
 11
7.905000000000005
 21
9.866666666666664
 31
0
  0
LINE
  8
0
 62
7
 10
6.954999620000007
 20
9.801666666666662
 30
0
 11
6.954999620000007
 21
9.866666666666664
 31
0
  0
LINE
  8
0
 62
7
 10
7.905000000000005
 20
9.866666666666664
 30
0
 11
7.905000000000005
 21
9.801666666666662
 31
0
  0
LINE
  8
0
 62
7
 10
7.905000000000005
 20
9.801666666666662
 30
0
 11
6.954999620000007
 21
9.801666666666662
 31
0
  0
LINE
  8
0
 62
7
 10
6.955000000000005
 20
10.04999994666666
 30
0
 11
7.905000160000007
 21
10.04999994666666
 31
0
  0
LINE
  8
0
 62
7
 10
6.955000000000005
 20
9.984999946666663
 30
0
 11
6.955000000000005
 21
10.04999994666666
 31
0
  0
LINE
  8
0
 62
7
 10
7.905000160000007
 20
10.04999994666666
 30
0
 11
7.905000160000007
 21
9.984999946666663
 31
0
  0
LINE
  8
0
 62
7
 10
7.905000160000007
 20
9.984999946666663
 30
0
 11
6.955000000000005
 21
9.984999946666663
 31
0
  0
LINE
  8
0
 62
7
 10
6.832310790000007
 20
10.23333322666666
 30
0
 11
7.904999850000007
 21
10.23333322666666
 31
0
  0
LINE
  8
0
 62
7
 10
7.904999850000007
 20
10.16833322666666
 30
0
 11
6.832310790000007
 21
10.16833322666666
 31
0
  0
LINE
  8
0
 62
7
 10
6.832310790000007
 20
10.16833322666666
 30
0
 11
6.832310790000007
 21
10.23333322666666
 31
0
  0
LINE
  8
0
 62
7
 10
7.904999850000007
 20
10.23333322666666
 30
0
 11
7.904999850000007
 21
10.16833322666666
 31
0
  0
LINE
  8
0
 62
7
 10
7.904999700000004
 20
10.35166666666666
 30
0
 11
6.683746040000006
 21
10.35166666666666
 31
0
  0
LINE
  8
0
 62
7
 10
6.683746040000006
 20
10.41666666666666
 30
0
 11
7.904999700000004
 21
10.41666666666666
 31
0
  0
LINE
  8
0
 62
7
 10
6.683746040000006
 20
10.35166666666666
 30
0
 11
6.683746040000006
 21
10.41666666666666
 31
0
  0
LINE
  8
0
 62
7
 10
7.904999700000004
 20
10.41666666666666
 30
0
 11
7.904999700000004
 21
10.35166666666666
 31
0
  0
LINE
  8
0
 62
7
 10
7.467687990000006
 20
10.53499994666666
 30
0
 11
6.576758010000005
 21
10.53499994666666
 31
0
  0
LINE
  8
0
 62
7
 10
6.576758010000005
 20
10.59999994666666
 30
0
 11
7.467687990000006
 21
10.59999994666666
 31
0
  0
LINE
  8
0
 62
7
 10
6.576758010000005
 20
10.53499994666666
 30
0
 11
6.576758010000005
 21
10.59999994666666
 31
0
  0
LINE
  8
0
 62
7
 10
7.467687990000006
 20
10.59999994666666
 30
0
 11
7.467687990000006
 21
10.53499994666666
 31
0
  0
LINE
  8
0
 62
7
 10
7.038910450000005
 20
10.71833322666666
 30
0
 11
6.463604589999996
 21
10.71833322666666
 31
0
  0
LINE
  8
0
 62
7
 10
6.463604589999996
 20
10.78333322666666
 30
0
 11
7.038910450000005
 21
10.78333322666666
 31
0
  0
LINE
  8
0
 62
7
 10
6.463604589999996
 20
10.71833322666666
 30
0
 11
6.463604589999996
 21
10.78333322666666
 31
0
  0
LINE
  8
0
 62
7
 10
7.038910450000005
 20
10.78333322666666
 30
0
 11
7.038910450000005
 21
10.71833322666666
 31
0
  0
LINE
  8
0
 62
7
 10
6.329999580000006
 20
10.96666666666666
 30
0
 11
6.644506379999996
 21
10.96666666666666
 31
0
  0
LINE
  8
0
 62
7
 10
6.644506379999996
 20
10.90166666666666
 30
0
 11
6.329999580000006
 21
10.90166666666666
 31
0
  0
LINE
  8
0
 62
7
 10
6.329999580000006
 20
10.90166666666666
 30
0
 11
6.329999580000006
 21
10.96666666666666
 31
0
  0
LINE
  8
0
 62
7
 10
6.644506379999996
 20
10.96666666666666
 30
0
 11
6.644506379999996
 21
10.90166666666666
 31
0
  0
LINE
  8
0
 62
7
 10
3.029999930000005
 20
8.58333322666666
 30
0
 11
3.980000750000008
 21
8.58333322666666
 31
0
  0
LINE
  8
0
 62
7
 10
3.980000750000008
 20
8.58333322666666
 30
0
 11
3.980000750000008
 21
8.518333226666661
 31
0
  0
LINE
  8
0
 62
7
 10
3.029999930000005
 20
8.518333226666661
 30
0
 11
3.029999930000005
 21
8.58333322666666
 31
0
  0
LINE
  8
0
 62
7
 10
3.980000750000008
 20
8.518333226666661
 30
0
 11
3.029999930000005
 21
8.518333226666661
 31
0
  0
LINE
  8
0
 62
7
 10
3.029999850000005
 20
8.766666566666663
 30
0
 11
3.980000100000005
 21
8.766666566666663
 31
0
  0
LINE
  8
0
 62
7
 10
3.980000100000005
 20
8.766666566666663
 30
0
 11
3.980000100000005
 21
8.701666566666661
 31
0
  0
LINE
  8
0
 62
7
 10
3.029999850000005
 20
8.701666566666661
 30
0
 11
3.029999850000005
 21
8.766666566666663
 31
0
  0
LINE
  8
0
 62
7
 10
3.980000100000005
 20
8.701666566666661
 30
0
 11
3.029999850000005
 21
8.701666566666661
 31
0
  0
LINE
  8
0
 62
7
 10
3.029999770000007
 20
8.94999990666666
 30
0
 11
3.979999960000005
 21
8.94999990666666
 31
0
  0
LINE
  8
0
 62
7
 10
3.979999960000005
 20
8.94999990666666
 30
0
 11
3.979999960000005
 21
8.884999906666659
 31
0
  0
LINE
  8
0
 62
7
 10
3.029999770000007
 20
8.884999906666659
 30
0
 11
3.029999770000007
 21
8.94999990666666
 31
0
  0
LINE
  8
0
 62
7
 10
3.979999960000005
 20
8.884999906666659
 30
0
 11
3.029999770000007
 21
8.884999906666659
 31
0
  0
LINE
  8
0
 62
7
 10
3.029999850000005
 20
9.133333226666661
 30
0
 11
3.979999930000006
 21
9.133333226666661
 31
0
  0
LINE
  8
0
 62
7
 10
3.979999930000006
 20
9.133333226666661
 30
0
 11
3.979999930000006
 21
9.068333226666661
 31
0
  0
LINE
  8
0
 62
7
 10
3.029999850000005
 20
9.068333226666661
 30
0
 11
3.029999850000005
 21
9.133333226666661
 31
0
  0
LINE
  8
0
 62
7
 10
3.979999930000006
 20
9.068333226666661
 30
0
 11
3.029999850000005
 21
9.068333226666661
 31
0
  0
LINE
  8
0
 62
7
 10
3.979999960000005
 20
9.251666586666662
 30
0
 11
2.908721770000006
 21
9.251666586666662
 31
0
  0
LINE
  8
0
 62
7
 10
2.908721770000006
 20
9.316666586666662
 30
0
 11
3.979999960000005
 21
9.316666586666662
 31
0
  0
LINE
  8
0
 62
7
 10
3.979999960000005
 20
9.316666586666662
 30
0
 11
3.979999960000005
 21
9.251666586666662
 31
0
  0
LINE
  8
0
 62
7
 10
2.908721770000006
 20
9.251666586666662
 30
0
 11
2.908721770000006
 21
9.316666586666662
 31
0
  0
LINE
  8
0
 62
7
 10
3.540071569999995
 20
9.434999946666661
 30
0
 11
2.783121490000005
 21
9.434999946666661
 31
0
  0
LINE
  8
0
 62
7
 10
2.783121490000005
 20
9.49999994666666
 30
0
 11
3.540071569999995
 21
9.49999994666666
 31
0
  0
LINE
  8
0
 62
7
 10
3.540071569999995
 20
9.49999994666666
 30
0
 11
3.540071569999995
 21
9.434999946666661
 31
0
  0
LINE
  8
0
 62
7
 10
2.783121490000005
 20
9.434999946666661
 30
0
 11
2.783121490000005
 21
9.49999994666666
 31
0
  0
LINE
  8
0
 62
7
 10
3.098564840000006
 20
9.618333226666662
 30
0
 11
2.590948340000004
 21
9.618333226666662
 31
0
  0
LINE
  8
0
 62
7
 10
2.590948340000004
 20
9.683333226666662
 30
0
 11
3.098564840000006
 21
9.683333226666662
 31
0
  0
LINE
  8
0
 62
7
 10
3.098564840000006
 20
9.683333226666662
 30
0
 11
3.098564840000006
 21
9.618333226666662
 31
0
  0
LINE
  8
0
 62
7
 10
2.590948340000004
 20
9.618333226666662
 30
0
 11
2.590948340000004
 21
9.683333226666662
 31
0
  0
LINE
  8
0
 62
7
 10
2.775738220000005
 20
9.801666666666662
 30
0
 11
2.361950990000005
 21
9.801666666666662
 31
0
  0
LINE
  8
0
 62
7
 10
2.361950990000005
 20
9.866666666666662
 30
0
 11
2.775738220000005
 21
9.866666666666662
 31
0
  0
LINE
  8
0
 62
7
 10
2.775738220000005
 20
9.866666666666662
 30
0
 11
2.775738220000005
 21
9.801666666666662
 31
0
  0
LINE
  8
0
 62
7
 10
2.361950990000005
 20
9.801666666666662
 30
0
 11
2.361950990000005
 21
9.866666666666662
 31
0
  0
LINE
  8
0
 62
7
 10
2.488153080000006
 20
9.984999946666662
 30
0
 11
1.952314760000005
 21
9.984999946666662
 31
0
  0
LINE
  8
0
 62
7
 10
1.952314760000005
 20
10.04999994666666
 30
0
 11
2.488153080000006
 21
10.04999994666666
 31
0
  0
LINE
  8
0
 62
7
 10
2.488153080000006
 20
10.04999994666666
 30
0
 11
2.488153080000006
 21
9.984999946666662
 31
0
  0
LINE
  8
0
 62
7
 10
1.952314760000005
 20
9.984999946666662
 30
0
 11
1.952314760000005
 21
10.04999994666666
 31
0
  0
LINE
  8
0
 62
7
 10
2.364704900000006
 20
10.16833322666666
 30
0
 11
1.443723760000001
 21
10.16833322666666
 31
0
  0
LINE
  8
0
 62
7
 10
1.443723760000001
 20
10.23333322666666
 30
0
 11
2.364704900000006
 21
10.23333322666666
 31
0
  0
LINE
  8
0
 62
7
 10
2.364704900000006
 20
10.23333322666666
 30
0
 11
2.364704900000006
 21
10.16833322666666
 31
0
  0
LINE
  8
0
 62
7
 10
1.443723760000001
 20
10.16833322666666
 30
0
 11
1.443723760000001
 21
10.23333322666666
 31
0
  0
LINE
  8
0
 62
7
 10
1.3299997
 20
10.41666666666666
 30
0
 11
2.280000000000004
 21
10.41666666666666
 31
0
  0
LINE
  8
0
 62
7
 10
2.280000000000004
 20
10.35166666666666
 30
0
 11
1.3299997
 21
10.35166666666666
 31
0
  0
LINE
  8
0
 62
7
 10
2.280000000000004
 20
10.41666666666666
 30
0
 11
2.280000000000004
 21
10.35166666666666
 31
0
  0
LINE
  8
0
 62
7
 10
1.3299997
 20
10.35166666666666
 30
0
 11
1.3299997
 21
10.41666666666666
 31
0
  0
LINE
  8
0
 62
7
 10
1.330000000000004
 20
10.59999994666666
 30
0
 11
2.280000150000005
 21
10.59999994666666
 31
0
  0
LINE
  8
0
 62
7
 10
2.280000150000005
 20
10.59999994666666
 30
0
 11
2.280000150000005
 21
10.53499994666666
 31
0
  0
LINE
  8
0
 62
7
 10
1.330000000000004
 20
10.53499994666666
 30
0
 11
1.330000000000004
 21
10.59999994666666
 31
0
  0
LINE
  8
0
 62
7
 10
2.280000150000005
 20
10.53499994666666
 30
0
 11
1.330000000000004
 21
10.53499994666666
 31
0
  0
LINE
  8
0
 62
7
 10
1.330000000000004
 20
10.78333322666666
 30
0
 11
2.280000150000005
 21
10.78333322666666
 31
0
  0
LINE
  8
0
 62
7
 10
2.280000150000005
 20
10.78333322666666
 30
0
 11
2.280000150000005
 21
10.71833322666666
 31
0
  0
LINE
  8
0
 62
7
 10
1.330000000000004
 20
10.71833322666666
 30
0
 11
1.330000000000004
 21
10.78333322666666
 31
0
  0
LINE
  8
0
 62
7
 10
2.280000150000005
 20
10.71833322666666
 30
0
 11
1.330000000000004
 21
10.71833322666666
 31
0
  0
LINE
  8
0
 62
7
  6
DASHED
 10
1.330000000000004
 20
10.96666666666666
 30
0
 11
2.280000150000005
 21
10.96666666666666
 31
0
  0
LINE
  8
0
 62
7
  6
DASHED
 10
2.280000150000005
 20
10.96666666666666
 30
0
 11
2.280000150000005
 21
10.90166666666666
 31
0
  0
LINE
  8
0
 62
7
  6
DASHED
 10
1.330000000000004
 20
10.90166666666666
 30
0
 11
1.330000000000004
 21
10.96666666666666
 31
0
  0
LINE
  8
0
 62
7
  6
DASHED
 10
2.280000150000005
 20
10.90166666666666
 30
0
 11
1.330000000000004
 21
10.90166666666666
 31
0
  0
LINE
  8
0
 62
7
  6
DASHDOT
 10
1.1
 20
5.689999999999999
 30
0
 11
1.275
 21
5.689999999999999
 31
0
  0
LINE
  8
0
 62
7
  6
DASHDOT
 10
1.05
 20
5.689999999999999
 30
0
 11
1.1
 21
5.689999999999999
 31
0
  0
LINE
  8
0
 62
7
  6
DASHDOT
 10
4.360000000000004
 20
5.02
 30
0
 11
4.360000000000004
 21
5.260000000000001
 31
0
  0
LINE
  8
0
 62
7
  6
DASHDOT
 10
0.9350000000000001
 20
5.02
 30
0
 11
0.9350000000000001
 21
5.260000000000001
 31
0
  0
LINE
  8
0
 62
7
  6
DASHDOT
 10
4.360000000000004
 20
5.260000000000001
 30
0
 11
4.360000000000004
 21
5.300000000000001
 31
0
  0
LINE
  8
0
 62
7
  6
DASHDOT
 10
0.9350000000000001
 20
5.260000000000001
 30
0
 11
0.9350000000000001
 21
5.300000000000001
 31
0
  0
LINE
  8
0
 62
7
  6
DASHDOT
 10
4.360000000000004
 20
4.970000000000001
 30
0
 11
4.360000000000004
 21
5.02
 31
0
  0
LINE
  8
0
 62
7
  6
DASHDOT
 10
4.360000000000004
 20
5.300000000000001
 30
0
 11
4.360000000000004
 21
5.539999999999999
 31
0
  0
LINE
  8
0
 62
7
  6
DASHDOT
 10
3.984999999999995
 20
5.689999999999999
 30
0
 11
4.035000000000005
 21
5.689999999999999
 31
0
  0
LINE
  8
0
 62
7
  6
DASHDOT
 10
4.035000000000005
 20
5.689999999999999
 30
0
 11
4.210000000000004
 21
5.689999999999999
 31
0
  0
LINE
  8
0
 62
7
  6
DASHDOT
 10
0.9350000000000001
 20
4.970000000000001
 30
0
 11
0.9350000000000001
 21
5.02
 31
0
  0
LINE
  8
0
 62
7
  6
DASHDOT
 10
0.9350000000000001
 20
5.300000000000001
 30
0
 11
0.9350000000000001
 21
5.539999999999999
 31
0
  0
LINE
  8
0
 62
7
  6
DASHDOT
 10
0.9350000000000001
 20
5.539999999999999
 30
0
 11
0.9350000000000001
 21
5.589999999999999
 31
0
  0
LINE
  8
0
 62
7
  6
DASHDOT
 10
4.360000000000004
 20
5.539999999999999
 30
0
 11
4.360000000000004
 21
5.589999999999999
 31
0
  0
LINE
  8
0
 62
7
  6
DASHDOT
 10
1.275
 20
5.689999999999999
 30
0
 11
1.325
 21
5.689999999999999
 31
0
  0
LINE
  8
0
 62
7
  6
DASHDOT
 10
4.210000000000004
 20
5.689999999999999
 30
0
 11
4.260000000000004
 21
5.689999999999999
 31
0
  0
LINE
  8
0
 62
7
 10
4.035000000000005
 20
3.4
 30
0
 11
4.035000000000005
 21
3.35
 31
0
  0
LINE
  8
0
 62
7
  6
DASHDOT
 10
4.035000000000005
 20
3.35
 30
0
 11
1.275
 21
3.35
 31
0
  0
LINE
  8
0
 62
7
 10
1.275
 20
3.35
 30
0
 11
1.275
 21
3.4
 31
0
  0
LINE
  8
0
 62
7
 10
4.035000000000005
 20
5.02
 30
0
 11
4.035000000000005
 21
3.4
 31
0
  0
LINE
  8
0
 62
7
 10
4.035000000000005
 20
3.4
 30
0
 11
1.275
 21
3.4
 31
0
  0
LINE
  8
0
 62
7
 10
1.1
 20
3.35
 30
0
 11
1.275
 21
3.35
 31
0
  0
LINE
  8
0
 62
7
 10
0.9350000000000001
 20
5.02
 30
0
 11
1.1
 21
5.02
 31
0
  0
LINE
  8
0
 62
7
 10
1.1
 20
5.02
 30
0
 11
1.1
 21
3.35
 31
0
  0
LINE
  8
0
 62
7
 10
1.275
 20
3.4
 30
0
 11
1.275
 21
5.02
 31
0
  0
LINE
  8
0
 62
7
 10
1.275
 20
5.02
 30
0
 11
4.035000000000005
 21
5.02
 31
0
  0
LINE
  8
0
 62
7
 10
4.210000000000004
 20
3.25
 30
0
 11
4.210000000000004
 21
5.02
 31
0
  0
LINE
  8
0
 62
7
 10
4.035000000000005
 20
3.25
 30
0
 11
4.210000000000004
 21
3.25
 31
0
  0
LINE
  8
0
 62
7
 10
4.035000000000005
 20
3.35
 30
0
 11
4.035000000000005
 21
3.25
 31
0
  0
LINE
  8
0
 62
7
 10
4.210000000000004
 20
5.02
 30
0
 11
4.360000000000004
 21
5.02
 31
0
  0
LINE
  8
0
 62
7
 10
0.9350000000000001
 20
5.260000000000001
 30
0
 11
4.360000000000004
 21
5.260000000000001
 31
0
  0
LINE
  8
0
 62
7
 10
0.9350000000000001
 20
5.300000000000001
 30
0
 11
4.360000000000004
 21
5.300000000000001
 31
0
  0
LINE
  8
0
 62
7
 10
0.9350000000000001
 20
5.539999999999999
 30
0
 11
1.1
 21
5.539999999999999
 31
0
  0
LINE
  8
0
 62
7
 10
1.1
 20
5.539999999999999
 30
0
 11
1.1
 21
5.689999999999999
 31
0
  0
LINE
  8
0
 62
7
 10
1.275
 20
5.689999999999999
 30
0
 11
1.275
 21
5.539999999999999
 31
0
  0
LINE
  8
0
 62
7
 10
1.275
 20
5.539999999999999
 30
0
 11
4.035000000000005
 21
5.539999999999999
 31
0
  0
LINE
  8
0
 62
7
 10
4.035000000000005
 20
5.539999999999999
 30
0
 11
4.035000000000005
 21
5.689999999999999
 31
0
  0
LINE
  8
0
 62
7
 10
4.210000000000004
 20
5.689999999999999
 30
0
 11
4.210000000000004
 21
5.539999999999999
 31
0
  0
LINE
  8
0
 62
7
 10
4.210000000000004
 20
5.539999999999999
 30
0
 11
4.360000000000004
 21
5.539999999999999
 31
0
  0
LINE
  8
0
 62
7
  6
DASHED
 10
6.290000000000005
 20
8.099999999999996
 30
0
 11
7.960000000000004
 21
8.099999999999996
 31
0
  0
LINE
  8
0
 62
7
  6
DASHED
 10
6.290000000000005
 20
8.299999999999997
 30
0
 11
7.960000000000004
 21
8.299999999999997
 31
0
  0
LINE
  8
0
 62
7
  6
DASHED
 10
6.290000000000005
 20
10.85
 30
0
 11
7.960000000000004
 21
10.85
 31
0
  0
LINE
  8
0
 62
7
  6
DASHED
 10
6.290000000000005
 20
11.05
 30
0
 11
7.960000000000004
 21
11.05
 31
0
  0
LINE
  8
0
 62
7
  6
DASHDOT
 10
5.990000000000004
 20
10.85
 30
0
 11
5.990000000000004
 21
11.05
 31
0
  0
LINE
  8
0
 62
7
  6
DASHDOT
 10
5.990000000000004
 20
10.8
 30
0
 11
5.990000000000004
 21
10.85
 31
0
  0
LINE
  8
0
 62
7
  6
DASHDOT
 10
7.960000000000004
 20
11.2
 30
0
 11
8.200000000000005
 21
11.2
 31
0
  0
LINE
  8
0
 62
7
  6
DASHDOT
 10
7.910000000000004
 20
11.2
 30
0
 11
7.960000000000004
 21
11.2
 31
0
  0
LINE
  8
0
 62
7
  6
DASHDOT
 10
7.910000000000004
 20
7.949999999999998
 30
0
 11
7.960000000000004
 21
7.949999999999998
 31
0
  0
LINE
  8
0
 62
7
  6
DASHDOT
 10
7.960000000000004
 20
7.949999999999998
 30
0
 11
8.200000000000005
 21
7.949999999999998
 31
0
  0
LINE
  8
0
 62
7
  6
DASHDOT
 10
5.990000000000004
 20
8.299999999999997
 30
0
 11
5.990000000000004
 21
8.099999999999996
 31
0
  0
LINE
  8
0
 62
7
  6
DASHDOT
 10
5.990000000000004
 20
8.399999999999997
 30
0
 11
5.990000000000004
 21
8.299999999999997
 31
0
  0
LINE
  8
0
 62
7
  6
DASHDOT
 10
5.990000000000004
 20
11.05
 30
0
 11
5.990000000000004
 21
11.15
 31
0
  0
LINE
  8
0
 62
7
 10
5.990000000000004
 20
11.15
 30
0
 11
6.290000000000005
 21
11.15
 31
0
  0
LINE
  8
0
 62
7
  6
DASHDOT
 10
5.990000000000004
 20
8.449999999999998
 30
0
 11
5.990000000000004
 21
8.399999999999997
 31
0
  0
LINE
  8
0
 62
7
 10
5.990000000000004
 20
8.399999999999997
 30
0
 11
6.290000000000005
 21
8.399999999999997
 31
0
  0
LINE
  8
0
 62
7
  6
DASHDOT
 10
8.200000000000005
 20
7.949999999999998
 30
0
 11
8.250000000000005
 21
7.949999999999998
 31
0
  0
LINE
  8
0
 62
7
  6
DASHDOT
 10
5.990000000000004
 20
8.099999999999996
 30
0
 11
5.990000000000004
 21
8.049999999999995
 31
0
  0
LINE
  8
0
 62
7
  6
DASHDOT
 10
5.990000000000004
 20
11.15
 30
0
 11
5.990000000000004
 21
11.2
 31
0
  0
LINE
  8
0
 62
7
  6
DASHDOT
 10
8.200000000000005
 20
11.2
 30
0
 11
8.250000000000005
 21
11.2
 31
0
  0
LINE
  8
0
 62
7
 10
5.990000000000004
 20
8.099999999999996
 30
0
 11
6.290000000000005
 21
8.099999999999996
 31
0
  0
LINE
  8
0
 62
7
 10
6.290000000000005
 20
8.099999999999996
 30
0
 11
6.290000000000005
 21
8.299999999999997
 31
0
  0
LINE
  8
0
 62
7
 10
5.990000000000004
 20
8.299999999999997
 30
0
 11
6.290000000000005
 21
8.299999999999997
 31
0
  0
LINE
  8
0
 62
7
 10
5.990000000000004
 20
11.05
 30
0
 11
6.290000000000005
 21
11.05
 31
0
  0
LINE
  8
0
 62
7
 10
5.990000000000004
 20
10.85
 30
0
 11
6.290000000000005
 21
10.85
 31
0
  0
LINE
  8
0
 62
7
 10
6.290000000000005
 20
10.85
 30
0
 11
6.290000000000005
 21
11.05
 31
0
  0
LINE
  8
0
 62
7
 10
7.960000000000004
 20
7.949999999999998
 30
0
 11
7.960000000000004
 21
8.099999999999996
 31
0
  0
LINE
  8
0
 62
7
 10
8.200000000000005
 20
8.299999999999997
 30
0
 11
8.200000000000005
 21
8.099999999999996
 31
0
  0
LINE
  8
0
 62
7
 10
7.960000000000004
 20
8.099999999999996
 30
0
 11
8.200000000000005
 21
8.099999999999996
 31
0
  0
LINE
  8
0
 62
7
 10
7.960000000000004
 20
8.099999999999996
 30
0
 11
7.960000000000004
 21
8.299999999999997
 31
0
  0
LINE
  8
0
 62
7
 10
8.200000000000005
 20
10.85
 30
0
 11
8.200000000000005
 21
8.299999999999997
 31
0
  0
LINE
  8
0
 62
7
 10
7.960000000000004
 20
8.299999999999997
 30
0
 11
8.200000000000005
 21
8.299999999999997
 31
0
  0
LINE
  8
0
 62
7
 10
7.960000000000004
 20
8.299999999999997
 30
0
 11
7.960000000000004
 21
10.85
 31
0
  0
LINE
  8
0
 62
7
 10
8.200000000000005
 20
11.05
 30
0
 11
8.200000000000005
 21
10.85
 31
0
  0
LINE
  8
0
 62
7
 10
7.960000000000004
 20
10.85
 30
0
 11
8.200000000000005
 21
10.85
 31
0
  0
LINE
  8
0
 62
7
 10
7.960000000000004
 20
10.85
 30
0
 11
7.960000000000004
 21
11.05
 31
0
  0
LINE
  8
0
 62
7
 10
8.200000000000005
 20
11.2
 30
0
 11
8.200000000000005
 21
11.05
 31
0
  0
LINE
  8
0
 62
7
 10
7.960000000000004
 20
11.05
 30
0
 11
8.200000000000005
 21
11.05
 31
0
  0
LINE
  8
0
 62
7
 10
7.960000000000004
 20
11.05
 30
0
 11
7.960000000000004
 21
11.2
 31
0
  0
LINE
  8
0
 62
7
 10
8.200000000000005
 20
8.099999999999996
 30
0
 11
8.200000000000005
 21
7.949999999999998
 31
0
  0
LINE
  8
0
 62
7
  6
DASHDOT
 10
4.210000000000004
 20
11.2
 30
0
 11
4.260000000000004
 21
11.2
 31
0
  0
LINE
  8
0
 62
7
  6
DASHDOT
 10
4.035000000000005
 20
11.2
 30
0
 11
4.210000000000004
 21
11.2
 31
0
  0
LINE
  8
0
 62
7
  6
DASHDOT
 10
4.360000000000004
 20
11.05
 30
0
 11
4.360000000000004
 21
11.15
 31
0
  0
LINE
  8
0
 62
7
  6
DASHDOT
 10
4.360000000000004
 20
10.85
 30
0
 11
4.360000000000004
 21
11.05
 31
0
  0
LINE
  8
0
 62
7
  6
DASHDOT
 10
1.275
 20
11.2
 30
0
 11
1.325
 21
11.2
 31
0
  0
LINE
  8
0
 62
7
  6
DASHDOT
 10
1.1
 20
11.2
 30
0
 11
1.275
 21
11.2
 31
0
  0
LINE
  8
0
 62
7
  6
DASHDOT
 10
0.9500000000000001
 20
11.05
 30
0
 11
0.9500000000000001
 21
11.15
 31
0
  0
LINE
  8
0
 62
7
  6
DASHDOT
 10
0.9500000000000001
 20
10.85
 30
0
 11
0.9500000000000001
 21
11.05
 31
0
  0
LINE
  8
0
 62
7
  6
DASHDOT
 10
1.275
 20
7.949999999999998
 30
0
 11
1.325
 21
7.949999999999998
 31
0
  0
LINE
  8
0
 62
7
  6
DASHDOT
 10
1.1
 20
7.949999999999998
 30
0
 11
1.275
 21
7.949999999999998
 31
0
  0
LINE
  8
0
 62
7
  6
DASHDOT
 10
0.9500000000000001
 20
8.299999999999997
 30
0
 11
0.9500000000000001
 21
8.399999999999997
 31
0
  0
LINE
  8
0
 62
7
  6
DASHDOT
 10
0.9500000000000001
 20
8.099999999999996
 30
0
 11
0.9500000000000001
 21
8.299999999999997
 31
0
  0
LINE
  8
0
 62
7
  6
DASHDOT
 10
4.210000000000004
 20
7.949999999999998
 30
0
 11
4.260000000000004
 21
7.949999999999998
 31
0
  0
LINE
  8
0
 62
7
  6
DASHDOT
 10
4.035000000000005
 20
7.949999999999998
 30
0
 11
4.210000000000004
 21
7.949999999999998
 31
0
  0
LINE
  8
0
 62
7
  6
DASHDOT
 10
4.360000000000004
 20
8.299999999999997
 30
0
 11
4.360000000000004
 21
8.399999999999997
 31
0
  0
LINE
  8
0
 62
7
  6
DASHDOT
 10
4.360000000000004
 20
8.099999999999996
 30
0
 11
4.360000000000004
 21
8.299999999999997
 31
0
  0
LINE
  8
0
 62
7
  6
DASHDOT
 10
4.360000000000004
 20
11.15
 30
0
 11
4.360000000000004
 21
11.2
 31
0
  0
LINE
  8
0
 62
7
 10
4.210000000000004
 20
11.15
 30
0
 11
4.210000000000004
 21
11.2
 31
0
  0
LINE
  8
0
 62
7
 10
4.210000000000004
 20
11.15
 30
0
 11
4.360000000000004
 21
11.15
 31
0
  0
LINE
  8
0
 62
7
 10
4.035000000000005
 20
11.15
 30
0
 11
4.035000000000005
 21
11.2
 31
0
  0
LINE
  8
0
 62
7
 10
1.275
 20
11.15
 30
0
 11
1.275
 21
11.2
 31
0
  0
LINE
  8
0
 62
7
 10
1.275
 20
11.15
 30
0
 11
4.035000000000005
 21
11.15
 31
0
  0
LINE
  8
0
 62
7
  6
DASHDOT
 10
0.9500000000000001
 20
11.15
 30
0
 11
0.9500000000000001
 21
11.2
 31
0
  0
LINE
  8
0
 62
7
 10
1.1
 20
11.15
 30
0
 11
1.1
 21
11.2
 31
0
  0
LINE
  8
0
 62
7
 10
0.9500000000000001
 20
11.15
 30
0
 11
1.1
 21
11.15
 31
0
  0
LINE
  8
0
 62
7
  6
DASHDOT
 10
4.360000000000004
 20
8.399999999999997
 30
0
 11
4.360000000000004
 21
8.449999999999998
 31
0
  0
LINE
  8
0
 62
7
 10
4.210000000000004
 20
8.399999999999997
 30
0
 11
4.210000000000004
 21
10.85
 31
0
  0
LINE
  8
0
 62
7
 10
4.210000000000004
 20
8.399999999999997
 30
0
 11
4.360000000000004
 21
8.399999999999997
 31
0
  0
LINE
  8
0
 62
7
 10
4.035000000000005
 20
8.399999999999997
 30
0
 11
4.035000000000005
 21
10.85
 31
0
  0
LINE
  8
0
 62
7
 10
1.275
 20
8.399999999999997
 30
0
 11
1.275
 21
10.85
 31
0
  0
LINE
  8
0
 62
7
 10
1.275
 20
8.399999999999997
 30
0
 11
4.035000000000005
 21
8.399999999999997
 31
0
  0
LINE
  8
0
 62
7
  6
DASHDOT
 10
0.9500000000000001
 20
8.399999999999997
 30
0
 11
0.9500000000000001
 21
8.449999999999998
 31
0
  0
LINE
  8
0
 62
7
 10
1.1
 20
8.399999999999997
 30
0
 11
1.1
 21
10.85
 31
0
  0
LINE
  8
0
 62
7
 10
0.9500000000000001
 20
8.399999999999997
 30
0
 11
1.1
 21
8.399999999999997
 31
0
  0
LINE
  8
0
 62
7
  6
DASHDOT
 10
3.984999999999995
 20
7.949999999999998
 30
0
 11
4.035000000000005
 21
7.949999999999998
 31
0
  0
LINE
  8
0
 62
7
  6
DASHDOT
 10
3.984999999999995
 20
11.2
 30
0
 11
4.035000000000005
 21
11.2
 31
0
  0
LINE
  8
0
 62
7
  6
DASHDOT
 10
1.05
 20
7.949999999999998
 30
0
 11
1.1
 21
7.949999999999998
 31
0
  0
LINE
  8
0
 62
7
  6
DASHDOT
 10
1.05
 20
11.2
 30
0
 11
1.1
 21
11.2
 31
0
  0
LINE
  8
0
 62
7
  6
DASHDOT
 10
4.360000000000004
 20
10.8
 30
0
 11
4.360000000000004
 21
10.85
 31
0
  0
LINE
  8
0
 62
7
  6
DASHDOT
 10
4.360000000000004
 20
8.049999999999995
 30
0
 11
4.360000000000004
 21
8.099999999999996
 31
0
  0
LINE
  8
0
 62
7
  6
DASHDOT
 10
0.9500000000000001
 20
10.8
 30
0
 11
0.9500000000000001
 21
10.85
 31
0
  0
LINE
  8
0
 62
7
  6
DASHDOT
 10
0.9500000000000001
 20
8.049999999999995
 30
0
 11
0.9500000000000001
 21
8.099999999999996
 31
0
  0
LINE
  8
0
 62
7
 10
4.210000000000004
 20
11.05
 30
0
 11
4.360000000000004
 21
11.05
 31
0
  0
LINE
  8
0
 62
7
 10
4.210000000000004
 20
11.05
 30
0
 11
4.210000000000004
 21
11.15
 31
0
  0
LINE
  8
0
 62
7
 10
4.210000000000004
 20
10.85
 30
0
 11
4.360000000000004
 21
10.85
 31
0
  0
LINE
  8
0
 62
7
 10
4.210000000000004
 20
8.299999999999997
 30
0
 11
4.360000000000004
 21
8.299999999999997
 31
0
  0
LINE
  8
0
 62
7
 10
4.210000000000004
 20
8.299999999999997
 30
0
 11
4.210000000000004
 21
8.399999999999997
 31
0
  0
LINE
  8
0
 62
7
 10
4.210000000000004
 20
8.099999999999996
 30
0
 11
4.360000000000004
 21
8.099999999999996
 31
0
  0
LINE
  8
0
 62
7
 10
4.210000000000004
 20
7.949999999999998
 30
0
 11
4.210000000000004
 21
8.099999999999996
 31
0
  0
LINE
  8
0
 62
7
 10
4.035000000000005
 20
11.05
 30
0
 11
4.210000000000004
 21
11.05
 31
0
  0
LINE
  8
0
 62
7
 10
4.035000000000005
 20
11.05
 30
0
 11
4.035000000000005
 21
11.15
 31
0
  0
LINE
  8
0
 62
7
 10
4.035000000000005
 20
10.85
 30
0
 11
4.210000000000004
 21
10.85
 31
0
  0
LINE
  8
0
 62
7
 10
4.035000000000005
 20
8.299999999999997
 30
0
 11
4.210000000000004
 21
8.299999999999997
 31
0
  0
LINE
  8
0
 62
7
 10
4.035000000000005
 20
8.299999999999997
 30
0
 11
4.035000000000005
 21
8.399999999999997
 31
0
  0
LINE
  8
0
 62
7
 10
4.035000000000005
 20
8.099999999999996
 30
0
 11
4.210000000000004
 21
8.099999999999996
 31
0
  0
LINE
  8
0
 62
7
 10
4.035000000000005
 20
7.949999999999998
 30
0
 11
4.035000000000005
 21
8.099999999999996
 31
0
  0
LINE
  8
0
 62
7
 10
1.275
 20
11.05
 30
0
 11
4.035000000000005
 21
11.05
 31
0
  0
LINE
  8
0
 62
7
 10
1.275
 20
11.05
 30
0
 11
1.275
 21
11.15
 31
0
  0
LINE
  8
0
 62
7
 10
1.275
 20
10.85
 30
0
 11
4.035000000000005
 21
10.85
 31
0
  0
LINE
  8
0
 62
7
 10
1.275
 20
8.299999999999997
 30
0
 11
4.035000000000005
 21
8.299999999999997
 31
0
  0
LINE
  8
0
 62
7
 10
1.275
 20
8.299999999999997
 30
0
 11
1.275
 21
8.399999999999997
 31
0
  0
LINE
  8
0
 62
7
 10
1.275
 20
8.099999999999996
 30
0
 11
4.035000000000005
 21
8.099999999999996
 31
0
  0
LINE
  8
0
 62
7
 10
1.275
 20
7.949999999999998
 30
0
 11
1.275
 21
8.099999999999996
 31
0
  0
LINE
  8
0
 62
7
 10
1.1
 20
11.05
 30
0
 11
1.275
 21
11.05
 31
0
  0
LINE
  8
0
 62
7
 10
1.1
 20
11.05
 30
0
 11
1.1
 21
11.15
 31
0
  0
LINE
  8
0
 62
7
 10
1.1
 20
10.85
 30
0
 11
1.275
 21
10.85
 31
0
  0
LINE
  8
0
 62
7
 10
1.1
 20
8.299999999999997
 30
0
 11
1.275
 21
8.299999999999997
 31
0
  0
LINE
  8
0
 62
7
 10
1.1
 20
8.299999999999997
 30
0
 11
1.1
 21
8.399999999999997
 31
0
  0
LINE
  8
0
 62
7
 10
1.1
 20
8.099999999999996
 30
0
 11
1.275
 21
8.099999999999996
 31
0
  0
LINE
  8
0
 62
7
 10
1.1
 20
7.949999999999998
 30
0
 11
1.1
 21
8.099999999999996
 31
0
  0
LINE
  8
0
 62
7
 10
0.9500000000000001
 20
11.05
 30
0
 11
1.1
 21
11.05
 31
0
  0
LINE
  8
0
 62
7
 10
0.9500000000000001
 20
10.85
 30
0
 11
1.1
 21
10.85
 31
0
  0
LINE
  8
0
 62
7
 10
0.9500000000000001
 20
8.299999999999997
 30
0
 11
1.1
 21
8.299999999999997
 31
0
  0
LINE
  8
0
 62
7
 10
0.9500000000000001
 20
8.099999999999996
 30
0
 11
1.1
 21
8.099999999999996
 31
0
  0
LINE
  8
0
 62
7
 10
1.77532587732697
 20
4.68003063459979
 30
0
 11
1.77532587732697
 21
4.80003063459979
 31
0
  0
LINE
  8
0
 62
7
 10
1.85092587732697
 20
4.80003063459979
 30
0
 11
1.79692587732697
 21
4.74003063459979
 31
0
  0
LINE
  8
0
 62
7
 10
1.79692587732697
 20
4.74003063459979
 30
0
 11
1.85092587732697
 21
4.68003063459979
 31
0
  0
LINE
  8
0
 62
7
 10
1.79692587732697
 20
4.74003063459979
 30
0
 11
1.77532587732697
 21
4.716030634599791
 31
0
  0
LINE
  8
0
 62
7
 10
1.958925877326971
 20
4.80003063459979
 30
0
 11
1.88332587732697
 21
4.80003063459979
 31
0
  0
LINE
  8
0
 62
7
 10
1.88332587732697
 20
4.80003063459979
 30
0
 11
1.88332587732697
 21
4.74003063459979
 31
0
  0
LINE
  8
0
 62
7
 10
1.88332587732697
 20
4.68003063459979
 30
0
 11
1.958925877326971
 21
4.68003063459979
 31
0
  0
LINE
  8
0
 62
7
 10
1.94812587732697
 20
4.74003063459979
 30
0
 11
1.88332587732697
 21
4.74003063459979
 31
0
  0
LINE
  8
0
 62
7
 10
1.88332587732697
 20
4.74003063459979
 30
0
 11
1.88332587732697
 21
4.68003063459979
 31
0
  0
LINE
  8
0
 62
7
 10
1.991325877326971
 20
4.68003063459979
 30
0
 11
1.991325877326971
 21
4.80003063459979
 31
0
  0
LINE
  8
0
 62
7
 10
1.991325877326971
 20
4.80003063459979
 30
0
 11
2.066925877326971
 21
4.68003063459979
 31
0
  0
LINE
  8
0
 62
7
 10
2.066925877326971
 20
4.68003063459979
 30
0
 11
2.066925877326971
 21
4.80003063459979
 31
0
  0
LINE
  8
0
 62
7
 10
2.09932587732697
 20
4.68003063459979
 30
0
 11
2.09932587732697
 21
4.80003063459979
 31
0
  0
LINE
  8
0
 62
7
 10
2.09932587732697
 20
4.80003063459979
 30
0
 11
2.17492587732697
 21
4.68003063459979
 31
0
  0
LINE
  8
0
 62
7
 10
2.17492587732697
 20
4.68003063459979
 30
0
 11
2.17492587732697
 21
4.80003063459979
 31
0
  0
LINE
  8
0
 62
7
 10
2.28292587732697
 20
4.76403063459979
 30
0
 11
2.28022587732697
 21
4.776030634599791
 31
0
  0
LINE
  8
0
 62
7
 10
2.28022587732697
 20
4.776030634599791
 30
0
 11
2.274825877326971
 21
4.78503063459979
 31
0
  0
LINE
  8
0
 62
7
 10
2.274825877326971
 20
4.78503063459979
 30
0
 11
2.26942587732697
 21
4.791030634599792
 31
0
  0
LINE
  8
0
 62
7
 10
2.26942587732697
 20
4.791030634599792
 30
0
 11
2.261325877326971
 21
4.79703063459979
 31
0
  0
LINE
  8
0
 62
7
 10
2.261325877326971
 20
4.79703063459979
 30
0
 11
2.253225877326971
 21
4.80003063459979
 31
0
  0
LINE
  8
0
 62
7
 10
2.253225877326971
 20
4.80003063459979
 30
0
 11
2.23702587732697
 21
4.80003063459979
 31
0
  0
LINE
  8
0
 62
7
 10
2.23702587732697
 20
4.80003063459979
 30
0
 11
2.228925877326971
 21
4.79703063459979
 31
0
  0
LINE
  8
0
 62
7
 10
2.228925877326971
 20
4.79703063459979
 30
0
 11
2.22082587732697
 21
4.791030634599792
 31
0
  0
LINE
  8
0
 62
7
 10
2.22082587732697
 20
4.791030634599792
 30
0
 11
2.21542587732697
 21
4.78503063459979
 31
0
  0
LINE
  8
0
 62
7
 10
2.21542587732697
 20
4.78503063459979
 30
0
 11
2.21002587732697
 21
4.776030634599791
 31
0
  0
LINE
  8
0
 62
7
 10
2.21002587732697
 20
4.776030634599791
 30
0
 11
2.207325877326971
 21
4.76403063459979
 31
0
  0
LINE
  8
0
 62
7
 10
2.207325877326971
 20
4.76403063459979
 30
0
 11
2.207325877326971
 21
4.716030634599791
 31
0
  0
LINE
  8
0
 62
7
 10
2.207325877326971
 20
4.716030634599791
 30
0
 11
2.21002587732697
 21
4.704030634599791
 31
0
  0
LINE
  8
0
 62
7
 10
2.21002587732697
 20
4.704030634599791
 30
0
 11
2.21542587732697
 21
4.69503063459979
 31
0
  0
LINE
  8
0
 62
7
 10
2.21542587732697
 20
4.69503063459979
 30
0
 11
2.22082587732697
 21
4.689030634599791
 31
0
  0
LINE
  8
0
 62
7
 10
2.22082587732697
 20
4.689030634599791
 30
0
 11
2.228925877326971
 21
4.68303063459979
 31
0
  0
LINE
  8
0
 62
7
 10
2.228925877326971
 20
4.68303063459979
 30
0
 11
2.23702587732697
 21
4.68003063459979
 31
0
  0
LINE
  8
0
 62
7
 10
2.23702587732697
 20
4.68003063459979
 30
0
 11
2.253225877326971
 21
4.68003063459979
 31
0
  0
LINE
  8
0
 62
7
 10
2.253225877326971
 20
4.68003063459979
 30
0
 11
2.261325877326971
 21
4.68303063459979
 31
0
  0
LINE
  8
0
 62
7
 10
2.261325877326971
 20
4.68303063459979
 30
0
 11
2.26942587732697
 21
4.689030634599791
 31
0
  0
LINE
  8
0
 62
7
 10
2.26942587732697
 20
4.689030634599791
 30
0
 11
2.274825877326971
 21
4.69503063459979
 31
0
  0
LINE
  8
0
 62
7
 10
2.274825877326971
 20
4.69503063459979
 30
0
 11
2.28022587732697
 21
4.704030634599791
 31
0
  0
LINE
  8
0
 62
7
 10
2.28022587732697
 20
4.704030634599791
 30
0
 11
2.28292587732697
 21
4.716030634599791
 31
0
  0
LINE
  8
0
 62
7
 10
2.28292587732697
 20
4.716030634599791
 30
0
 11
2.28292587732697
 21
4.74003063459979
 31
0
  0
LINE
  8
0
 62
7
 10
2.28292587732697
 20
4.74003063459979
 30
0
 11
2.25052587732697
 21
4.74003063459979
 31
0
  0
LINE
  8
0
 62
7
 10
2.361225877326971
 20
4.80003063459979
 30
0
 11
2.34502587732697
 21
4.80003063459979
 31
0
  0
LINE
  8
0
 62
7
 10
2.34502587732697
 20
4.80003063459979
 30
0
 11
2.336925877326971
 21
4.79703063459979
 31
0
  0
LINE
  8
0
 62
7
 10
2.336925877326971
 20
4.79703063459979
 30
0
 11
2.328825877326971
 21
4.791030634599792
 31
0
  0
LINE
  8
0
 62
7
 10
2.328825877326971
 20
4.791030634599792
 30
0
 11
2.32342587732697
 21
4.78503063459979
 31
0
  0
LINE
  8
0
 62
7
 10
2.32342587732697
 20
4.78503063459979
 30
0
 11
2.31802587732697
 21
4.776030634599791
 31
0
  0
LINE
  8
0
 62
7
 10
2.31802587732697
 20
4.776030634599791
 30
0
 11
2.31532587732697
 21
4.76403063459979
 31
0
  0
LINE
  8
0
 62
7
 10
2.31532587732697
 20
4.76403063459979
 30
0
 11
2.31532587732697
 21
4.716030634599791
 31
0
  0
LINE
  8
0
 62
7
 10
2.31532587732697
 20
4.716030634599791
 30
0
 11
2.31802587732697
 21
4.704030634599791
 31
0
  0
LINE
  8
0
 62
7
 10
2.31802587732697
 20
4.704030634599791
 30
0
 11
2.32342587732697
 21
4.69503063459979
 31
0
  0
LINE
  8
0
 62
7
 10
2.32342587732697
 20
4.69503063459979
 30
0
 11
2.328825877326971
 21
4.689030634599791
 31
0
  0
LINE
  8
0
 62
7
 10
2.328825877326971
 20
4.689030634599791
 30
0
 11
2.336925877326971
 21
4.68303063459979
 31
0
  0
LINE
  8
0
 62
7
 10
2.336925877326971
 20
4.68303063459979
 30
0
 11
2.34502587732697
 21
4.68003063459979
 31
0
  0
LINE
  8
0
 62
7
 10
2.34502587732697
 20
4.68003063459979
 30
0
 11
2.361225877326971
 21
4.68003063459979
 31
0
  0
LINE
  8
0
 62
7
 10
2.361225877326971
 20
4.68003063459979
 30
0
 11
2.36932587732697
 21
4.68303063459979
 31
0
  0
LINE
  8
0
 62
7
 10
2.36932587732697
 20
4.68303063459979
 30
0
 11
2.37742587732697
 21
4.689030634599791
 31
0
  0
LINE
  8
0
 62
7
 10
2.37742587732697
 20
4.689030634599791
 30
0
 11
2.38282587732697
 21
4.69503063459979
 31
0
  0
LINE
  8
0
 62
7
 10
2.38282587732697
 20
4.69503063459979
 30
0
 11
2.388225877326971
 21
4.704030634599791
 31
0
  0
LINE
  8
0
 62
7
 10
2.388225877326971
 20
4.704030634599791
 30
0
 11
2.39092587732697
 21
4.716030634599791
 31
0
  0
LINE
  8
0
 62
7
 10
2.39092587732697
 20
4.716030634599791
 30
0
 11
2.39092587732697
 21
4.76403063459979
 31
0
  0
LINE
  8
0
 62
7
 10
2.39092587732697
 20
4.76403063459979
 30
0
 11
2.388225877326971
 21
4.776030634599791
 31
0
  0
LINE
  8
0
 62
7
 10
2.388225877326971
 20
4.776030634599791
 30
0
 11
2.38282587732697
 21
4.78503063459979
 31
0
  0
LINE
  8
0
 62
7
 10
2.38282587732697
 20
4.78503063459979
 30
0
 11
2.37742587732697
 21
4.791030634599792
 31
0
  0
LINE
  8
0
 62
7
 10
2.37742587732697
 20
4.791030634599792
 30
0
 11
2.36932587732697
 21
4.79703063459979
 31
0
  0
LINE
  8
0
 62
7
 10
2.36932587732697
 20
4.79703063459979
 30
0
 11
2.361225877326971
 21
4.80003063459979
 31
0
  0
LINE
  8
0
 62
7
 10
2.412525877326971
 20
4.80003063459979
 30
0
 11
2.450325877326971
 21
4.80003063459979
 31
0
  0
LINE
  8
0
 62
7
 10
2.450325877326971
 20
4.80003063459979
 30
0
 11
2.450325877326971
 21
4.68003063459979
 31
0
  0
LINE
  8
0
 62
7
 10
2.450325877326971
 20
4.80003063459979
 30
0
 11
2.488125877326971
 21
4.80003063459979
 31
0
  0
LINE
  8
0
 62
7
 10
2.520525877326971
 20
4.80003063459979
 30
0
 11
2.558325877326971
 21
4.80003063459979
 31
0
  0
LINE
  8
0
 62
7
 10
2.558325877326971
 20
4.80003063459979
 30
0
 11
2.558325877326971
 21
4.68003063459979
 31
0
  0
LINE
  8
0
 62
7
 10
2.558325877326971
 20
4.80003063459979
 30
0
 11
2.596125877326971
 21
4.80003063459979
 31
0
  0
LINE
  8
0
 62
7
 10
2.714925877326971
 20
4.72203063459979
 30
0
 11
2.768925877326971
 21
4.72203063459979
 31
0
  0
LINE
  8
0
 62
7
 10
2.876925877326971
 20
4.80003063459979
 30
0
 11
2.91472587732697
 21
4.80003063459979
 31
0
  0
LINE
  8
0
 62
7
 10
2.91472587732697
 20
4.80003063459979
 30
0
 11
2.91472587732697
 21
4.68003063459979
 31
0
  0
LINE
  8
0
 62
7
 10
2.91472587732697
 20
4.80003063459979
 30
0
 11
2.95252587732697
 21
4.80003063459979
 31
0
  0
LINE
  8
0
 62
7
 10
2.984925877326971
 20
4.68003063459979
 30
0
 11
2.984925877326971
 21
4.80003063459979
 31
0
  0
LINE
  8
0
 62
7
 10
2.984925877326971
 20
4.80003063459979
 30
0
 11
3.036225877326972
 21
4.80003063459979
 31
0
  0
LINE
  8
0
 62
7
 10
3.036225877326972
 20
4.80003063459979
 30
0
 11
3.047025877326972
 21
4.79703063459979
 31
0
  0
LINE
  8
0
 62
7
 10
3.047025877326972
 20
4.79703063459979
 30
0
 11
3.05512587732697
 21
4.791030634599792
 31
0
  0
LINE
  8
0
 62
7
 10
3.05512587732697
 20
4.791030634599792
 30
0
 11
3.05782587732697
 21
4.78503063459979
 31
0
  0
LINE
  8
0
 62
7
 10
3.05782587732697
 20
4.78503063459979
 30
0
 11
3.06052587732697
 21
4.776030634599791
 31
0
  0
LINE
  8
0
 62
7
 10
3.06052587732697
 20
4.776030634599791
 30
0
 11
3.06052587732697
 21
4.76403063459979
 31
0
  0
LINE
  8
0
 62
7
 10
3.06052587732697
 20
4.76403063459979
 30
0
 11
3.05782587732697
 21
4.75503063459979
 31
0
  0
LINE
  8
0
 62
7
 10
3.05782587732697
 20
4.75503063459979
 30
0
 11
3.05512587732697
 21
4.749030634599791
 31
0
  0
LINE
  8
0
 62
7
 10
3.05512587732697
 20
4.749030634599791
 30
0
 11
3.047025877326972
 21
4.74303063459979
 31
0
  0
LINE
  8
0
 62
7
 10
3.047025877326972
 20
4.74303063459979
 30
0
 11
3.036225877326972
 21
4.74003063459979
 31
0
  0
LINE
  8
0
 62
7
 10
3.036225877326972
 20
4.74003063459979
 30
0
 11
3.02812587732697
 21
4.74003063459979
 31
0
  0
LINE
  8
0
 62
7
 10
3.02812587732697
 20
4.74003063459979
 30
0
 11
3.06052587732697
 21
4.68003063459979
 31
0
  0
LINE
  8
0
 62
7
 10
3.02812587732697
 20
4.74003063459979
 30
0
 11
2.984925877326971
 21
4.74003063459979
 31
0
  0
LINE
  8
0
 62
7
 10
3.15772587732697
 20
4.80003063459979
 30
0
 11
3.082125877326972
 21
4.80003063459979
 31
0
  0
LINE
  8
0
 62
7
 10
3.082125877326972
 20
4.80003063459979
 30
0
 11
3.082125877326972
 21
4.74003063459979
 31
0
  0
LINE
  8
0
 62
7
 10
3.082125877326972
 20
4.68003063459979
 30
0
 11
3.15772587732697
 21
4.68003063459979
 31
0
  0
LINE
  8
0
 62
7
 10
3.146925877326971
 20
4.74003063459979
 30
0
 11
3.082125877326972
 21
4.74003063459979
 31
0
  0
LINE
  8
0
 62
7
 10
3.082125877326972
 20
4.74003063459979
 30
0
 11
3.082125877326972
 21
4.68003063459979
 31
0
  0
LINE
  8
0
 62
7
 10
3.190125877326971
 20
4.68003063459979
 30
0
 11
3.190125877326971
 21
4.74003063459979
 31
0
  0
LINE
  8
0
 62
7
 10
3.190125877326971
 20
4.80003063459979
 30
0
 11
3.241425877326972
 21
4.80003063459979
 31
0
  0
LINE
  8
0
 62
7
 10
3.241425877326972
 20
4.80003063459979
 30
0
 11
3.252225877326971
 21
4.79703063459979
 31
0
  0
LINE
  8
0
 62
7
 10
3.252225877326971
 20
4.79703063459979
 30
0
 11
3.26032587732697
 21
4.791030634599792
 31
0
  0
LINE
  8
0
 62
7
 10
3.26032587732697
 20
4.791030634599792
 30
0
 11
3.263025877326971
 21
4.78503063459979
 31
0
  0
LINE
  8
0
 62
7
 10
3.263025877326971
 20
4.78503063459979
 30
0
 11
3.265725877326972
 21
4.776030634599791
 31
0
  0
LINE
  8
0
 62
7
 10
3.265725877326972
 20
4.776030634599791
 30
0
 11
3.265725877326972
 21
4.76403063459979
 31
0
  0
LINE
  8
0
 62
7
 10
3.265725877326972
 20
4.76403063459979
 30
0
 11
3.263025877326971
 21
4.75503063459979
 31
0
  0
LINE
  8
0
 62
7
 10
3.263025877326971
 20
4.75503063459979
 30
0
 11
3.26032587732697
 21
4.749030634599791
 31
0
  0
LINE
  8
0
 62
7
 10
3.26032587732697
 20
4.749030634599791
 30
0
 11
3.252225877326971
 21
4.74303063459979
 31
0
  0
LINE
  8
0
 62
7
 10
3.252225877326971
 20
4.74303063459979
 30
0
 11
3.241425877326972
 21
4.74003063459979
 31
0
  0
LINE
  8
0
 62
7
 10
3.241425877326972
 20
4.74003063459979
 30
0
 11
3.190125877326971
 21
4.74003063459979
 31
0
  0
LINE
  8
0
 62
7
 10
3.190125877326971
 20
4.74003063459979
 30
0
 11
3.190125877326971
 21
4.80003063459979
 31
0
  0
LINE
  8
0
 62
7
 10
3.287325877326971
 20
4.68003063459979
 30
0
 11
3.287325877326971
 21
4.74003063459979
 31
0
  0
LINE
  8
0
 62
7
 10
3.287325877326971
 20
4.80003063459979
 30
0
 11
3.338625877326971
 21
4.80003063459979
 31
0
  0
LINE
  8
0
 62
7
 10
3.338625877326971
 20
4.80003063459979
 30
0
 11
3.349425877326972
 21
4.79703063459979
 31
0
  0
LINE
  8
0
 62
7
 10
3.349425877326972
 20
4.79703063459979
 30
0
 11
3.357525877326971
 21
4.791030634599792
 31
0
  0
LINE
  8
0
 62
7
 10
3.357525877326971
 20
4.791030634599792
 30
0
 11
3.360225877326971
 21
4.78503063459979
 31
0
  0
LINE
  8
0
 62
7
 10
3.360225877326971
 20
4.78503063459979
 30
0
 11
3.362925877326971
 21
4.776030634599791
 31
0
  0
LINE
  8
0
 62
7
 10
3.362925877326971
 20
4.776030634599791
 30
0
 11
3.362925877326971
 21
4.76403063459979
 31
0
  0
LINE
  8
0
 62
7
 10
3.362925877326971
 20
4.76403063459979
 30
0
 11
3.360225877326971
 21
4.75503063459979
 31
0
  0
LINE
  8
0
 62
7
 10
3.360225877326971
 20
4.75503063459979
 30
0
 11
3.357525877326971
 21
4.749030634599791
 31
0
  0
LINE
  8
0
 62
7
 10
3.357525877326971
 20
4.749030634599791
 30
0
 11
3.349425877326972
 21
4.74303063459979
 31
0
  0
LINE
  8
0
 62
7
 10
3.349425877326972
 20
4.74303063459979
 30
0
 11
3.338625877326971
 21
4.74003063459979
 31
0
  0
LINE
  8
0
 62
7
 10
3.338625877326971
 20
4.74003063459979
 30
0
 11
3.287325877326971
 21
4.74003063459979
 31
0
  0
LINE
  8
0
 62
7
 10
3.287325877326971
 20
4.74003063459979
 30
0
 11
3.287325877326971
 21
4.80003063459979
 31
0
  0
LINE
  8
0
 62
7
 10
3.460125877326972
 20
4.80003063459979
 30
0
 11
3.384525877326972
 21
4.80003063459979
 31
0
  0
LINE
  8
0
 62
7
 10
3.384525877326972
 20
4.80003063459979
 30
0
 11
3.384525877326972
 21
4.74003063459979
 31
0
  0
LINE
  8
0
 62
7
 10
3.384525877326972
 20
4.68003063459979
 30
0
 11
3.460125877326972
 21
4.68003063459979
 31
0
  0
LINE
  8
0
 62
7
 10
3.449325877326971
 20
4.74003063459979
 30
0
 11
3.384525877326972
 21
4.74003063459979
 31
0
  0
LINE
  8
0
 62
7
 10
3.384525877326972
 20
4.74003063459979
 30
0
 11
3.384525877326972
 21
4.68003063459979
 31
0
  0
LINE
  8
0
 62
7
 10
0.525
 20
3.01
 30
0
 11
0.6006
 21
3.01
 31
0
  0
LINE
  8
0
 62
7
 10
0.6006
 20
3.01
 30
0
 11
0.525
 21
2.890000000000001
 31
0
  0
LINE
  8
0
 62
7
 10
0.525
 20
2.890000000000001
 30
0
 11
0.6006
 21
2.890000000000001
 31
0
  0
LINE
  8
0
 62
7
 10
0.633
 20
2.992
 30
0
 11
0.6384000000000002
 21
3.001
 31
0
  0
LINE
  8
0
 62
7
 10
0.6384000000000002
 20
3.001
 30
0
 11
0.6465000000000001
 21
3.007
 31
0
  0
LINE
  8
0
 62
7
 10
0.6465000000000001
 20
3.007
 30
0
 11
0.6573000000000001
 21
3.01
 31
0
  0
LINE
  8
0
 62
7
 10
0.6573000000000001
 20
3.01
 30
0
 11
0.6735000000000002
 21
3.01
 31
0
  0
LINE
  8
0
 62
7
 10
0.6735000000000002
 20
3.01
 30
0
 11
0.6843
 21
3.007
 31
0
  0
LINE
  8
0
 62
7
 10
0.6843
 20
3.007
 30
0
 11
0.6924
 21
3.001
 31
0
  0
LINE
  8
0
 62
7
 10
0.6924
 20
3.001
 30
0
 11
0.6978
 21
2.992
 31
0
  0
LINE
  8
0
 62
7
 10
0.6978
 20
2.992
 30
0
 11
0.6978
 21
2.98
 31
0
  0
LINE
  8
0
 62
7
 10
0.6978
 20
2.98
 30
0
 11
0.6924
 21
2.968
 31
0
  0
LINE
  8
0
 62
7
 10
0.6924
 20
2.968
 30
0
 11
0.633
 21
2.890000000000001
 31
0
  0
LINE
  8
0
 62
7
 10
0.633
 20
2.890000000000001
 30
0
 11
0.6978
 21
2.890000000000001
 31
0
  0
LINE
  8
0
 62
7
 10
0.7302000000000001
 20
3.01
 30
0
 11
0.7680000000000002
 21
2.890000000000001
 31
0
  0
LINE
  8
0
 62
7
 10
0.7680000000000002
 20
2.890000000000001
 30
0
 11
0.8058000000000002
 21
3.01
 31
0
  0
LINE
  8
0
 62
7
 10
0.8382000000000002
 20
2.992
 30
0
 11
0.8436000000000002
 21
3.001
 31
0
  0
LINE
  8
0
 62
7
 10
0.8436000000000002
 20
3.001
 30
0
 11
0.8517000000000001
 21
3.007
 31
0
  0
LINE
  8
0
 62
7
 10
0.8517000000000001
 20
3.007
 30
0
 11
0.8625
 21
3.01
 31
0
  0
LINE
  8
0
 62
7
 10
0.8625
 20
3.01
 30
0
 11
0.8787000000000001
 21
3.01
 31
0
  0
LINE
  8
0
 62
7
 10
0.8787000000000001
 20
3.01
 30
0
 11
0.8895
 21
3.007
 31
0
  0
LINE
  8
0
 62
7
 10
0.8895
 20
3.007
 30
0
 11
0.8976000000000002
 21
3.001
 31
0
  0
LINE
  8
0
 62
7
 10
0.8976000000000002
 20
3.001
 30
0
 11
0.9030000000000001
 21
2.992
 31
0
  0
LINE
  8
0
 62
7
 10
0.9030000000000001
 20
2.992
 30
0
 11
0.9030000000000001
 21
2.98
 31
0
  0
LINE
  8
0
 62
7
 10
0.9030000000000001
 20
2.98
 30
0
 11
0.8976000000000002
 21
2.968
 31
0
  0
LINE
  8
0
 62
7
 10
0.8976000000000002
 20
2.968
 30
0
 11
0.8382000000000002
 21
2.890000000000001
 31
0
  0
LINE
  8
0
 62
7
 10
0.8382000000000002
 20
2.890000000000001
 30
0
 11
0.9030000000000001
 21
2.890000000000001
 31
0
  0
LINE
  8
0
 62
7
 10
0.9354000000000001
 20
2.998
 30
0
 11
0.9354000000000001
 21
3.01
 31
0
  0
LINE
  8
0
 62
7
 10
0.9354000000000001
 20
3.01
 30
0
 11
1.0002
 21
3.01
 31
0
  0
LINE
  8
0
 62
7
 10
1.0002
 20
3.01
 30
0
 11
0.9462000000000002
 21
2.890000000000001
 31
0
  0
LINE
  8
0
 62
7
 10
1.0326
 20
2.938
 30
0
 11
1.0353
 21
2.95
 31
0
  0
LINE
  8
0
 62
7
 10
1.0353
 20
2.95
 30
0
 11
1.0407
 21
2.959
 31
0
  0
LINE
  8
0
 62
7
 10
1.0407
 20
2.959
 30
0
 11
1.0488
 21
2.965
 31
0
  0
LINE
  8
0
 62
7
 10
1.0488
 20
2.965
 30
0
 11
1.0569
 21
2.968
 31
0
  0
LINE
  8
0
 62
7
 10
1.0569
 20
2.968
 30
0
 11
1.0731
 21
2.968
 31
0
  0
LINE
  8
0
 62
7
 10
1.0731
 20
2.968
 30
0
 11
1.0812
 21
2.965
 31
0
  0
LINE
  8
0
 62
7
 10
1.0812
 20
2.965
 30
0
 11
1.0893
 21
2.959
 31
0
  0
LINE
  8
0
 62
7
 10
1.0893
 20
2.959
 30
0
 11
1.0947
 21
2.95
 31
0
  0
LINE
  8
0
 62
7
 10
1.0947
 20
2.95
 30
0
 11
1.0974
 21
2.938
 31
0
  0
LINE
  8
0
 62
7
 10
1.0974
 20
2.938
 30
0
 11
1.0974
 21
2.92
 31
0
  0
LINE
  8
0
 62
7
 10
1.0974
 20
2.92
 30
0
 11
1.0947
 21
2.908
 31
0
  0
LINE
  8
0
 62
7
 10
1.0947
 20
2.908
 30
0
 11
1.0893
 21
2.899
 31
0
  0
LINE
  8
0
 62
7
 10
1.0893
 20
2.899
 30
0
 11
1.0812
 21
2.893
 31
0
  0
LINE
  8
0
 62
7
 10
1.0812
 20
2.893
 30
0
 11
1.0731
 21
2.890000000000001
 31
0
  0
LINE
  8
0
 62
7
 10
1.0731
 20
2.890000000000001
 30
0
 11
1.0569
 21
2.890000000000001
 31
0
  0
LINE
  8
0
 62
7
 10
1.0569
 20
2.890000000000001
 30
0
 11
1.0488
 21
2.893
 31
0
  0
LINE
  8
0
 62
7
 10
1.0488
 20
2.893
 30
0
 11
1.0407
 21
2.899
 31
0
  0
LINE
  8
0
 62
7
 10
1.0407
 20
2.899
 30
0
 11
1.0353
 21
2.908
 31
0
  0
LINE
  8
0
 62
7
 10
1.0353
 20
2.908
 30
0
 11
1.0326
 21
2.92
 31
0
  0
LINE
  8
0
 62
7
 10
1.0326
 20
2.92
 30
0
 11
1.0326
 21
2.938
 31
0
  0
LINE
  8
0
 62
7
 10
1.0326
 20
2.98
 30
0
 11
1.0353
 21
2.992
 31
0
  0
LINE
  8
0
 62
7
 10
1.0353
 20
2.992
 30
0
 11
1.0407
 21
3.001
 31
0
  0
LINE
  8
0
 62
7
 10
1.0407
 20
3.001
 30
0
 11
1.0488
 21
3.007
 31
0
  0
LINE
  8
0
 62
7
 10
1.0488
 20
3.007
 30
0
 11
1.0569
 21
3.01
 31
0
  0
LINE
  8
0
 62
7
 10
1.0569
 20
3.01
 30
0
 11
1.0731
 21
3.01
 31
0
  0
LINE
  8
0
 62
7
 10
1.0731
 20
3.01
 30
0
 11
1.0812
 21
3.007
 31
0
  0
LINE
  8
0
 62
7
 10
1.0812
 20
3.007
 30
0
 11
1.0893
 21
3.001
 31
0
  0
LINE
  8
0
 62
7
 10
1.0893
 20
3.001
 30
0
 11
1.0947
 21
2.992
 31
0
  0
LINE
  8
0
 62
7
 10
1.0326
 20
2.938
 30
0
 11
1.0326
 21
2.98
 31
0
  0
LINE
  8
0
 62
7
 10
1.1946
 20
2.890000000000001
 30
0
 11
1.1298
 21
2.890000000000001
 31
0
  0
LINE
  8
0
 62
7
 10
1.1298
 20
2.890000000000001
 30
0
 11
1.1298
 21
3.01
 31
0
  0
LINE
  8
0
 62
7
 10
1.227
 20
2.938
 30
0
 11
1.2297
 21
2.95
 31
0
  0
LINE
  8
0
 62
7
 10
1.2297
 20
2.95
 30
0
 11
1.2351
 21
2.959
 31
0
  0
LINE
  8
0
 62
7
 10
1.2351
 20
2.959
 30
0
 11
1.2432
 21
2.965
 31
0
  0
LINE
  8
0
 62
7
 10
1.2432
 20
2.965
 30
0
 11
1.2513
 21
2.968
 31
0
  0
LINE
  8
0
 62
7
 10
1.2513
 20
2.968
 30
0
 11
1.2675
 21
2.968
 31
0
  0
LINE
  8
0
 62
7
 10
1.2675
 20
2.968
 30
0
 11
1.2756
 21
2.965
 31
0
  0
LINE
  8
0
 62
7
 10
1.2756
 20
2.965
 30
0
 11
1.2837
 21
2.959
 31
0
  0
LINE
  8
0
 62
7
 10
1.2837
 20
2.959
 30
0
 11
1.2891
 21
2.95
 31
0
  0
LINE
  8
0
 62
7
 10
1.2891
 20
2.95
 30
0
 11
1.2918
 21
2.938
 31
0
  0
LINE
  8
0
 62
7
 10
1.2918
 20
2.938
 30
0
 11
1.2918
 21
2.92
 31
0
  0
LINE
  8
0
 62
7
 10
1.2918
 20
2.92
 30
0
 11
1.2891
 21
2.908
 31
0
  0
LINE
  8
0
 62
7
 10
1.2891
 20
2.908
 30
0
 11
1.2837
 21
2.899
 31
0
  0
LINE
  8
0
 62
7
 10
1.2837
 20
2.899
 30
0
 11
1.2756
 21
2.893
 31
0
  0
LINE
  8
0
 62
7
 10
1.2756
 20
2.893
 30
0
 11
1.2675
 21
2.890000000000001
 31
0
  0
LINE
  8
0
 62
7
 10
1.2675
 20
2.890000000000001
 30
0
 11
1.2513
 21
2.890000000000001
 31
0
  0
LINE
  8
0
 62
7
 10
1.2513
 20
2.890000000000001
 30
0
 11
1.2432
 21
2.893
 31
0
  0
LINE
  8
0
 62
7
 10
1.2432
 20
2.893
 30
0
 11
1.2351
 21
2.899
 31
0
  0
LINE
  8
0
 62
7
 10
1.2351
 20
2.899
 30
0
 11
1.2297
 21
2.908
 31
0
  0
LINE
  8
0
 62
7
 10
1.2297
 20
2.908
 30
0
 11
1.227
 21
2.92
 31
0
  0
LINE
  8
0
 62
7
 10
1.227
 20
2.92
 30
0
 11
1.227
 21
2.938
 31
0
  0
LINE
  8
0
 62
7
 10
1.227
 20
2.98
 30
0
 11
1.2297
 21
2.992
 31
0
  0
LINE
  8
0
 62
7
 10
1.2297
 20
2.992
 30
0
 11
1.2351
 21
3.001
 31
0
  0
LINE
  8
0
 62
7
 10
1.2351
 20
3.001
 30
0
 11
1.2432
 21
3.007
 31
0
  0
LINE
  8
0
 62
7
 10
1.2432
 20
3.007
 30
0
 11
1.2513
 21
3.01
 31
0
  0
LINE
  8
0
 62
7
 10
1.2513
 20
3.01
 30
0
 11
1.2675
 21
3.01
 31
0
  0
LINE
  8
0
 62
7
 10
1.2675
 20
3.01
 30
0
 11
1.2756
 21
3.007
 31
0
  0
LINE
  8
0
 62
7
 10
1.2756
 20
3.007
 30
0
 11
1.2837
 21
3.001
 31
0
  0
LINE
  8
0
 62
7
 10
1.2837
 20
3.001
 30
0
 11
1.2891
 21
2.992
 31
0
  0
LINE
  8
0
 62
7
 10
1.227
 20
2.938
 30
0
 11
1.227
 21
2.98
 31
0
  0
LINE
  8
0
 62
7
 10
3.025
 20
2.890000000000001
 30
0
 11
3.025
 21
2.99
 31
0
  0
LINE
  8
0
 62
7
 10
3.025
 20
2.99
 30
0
 11
3.088
 21
2.890000000000001
 31
0
  0
LINE
  8
0
 62
7
 10
3.088
 20
2.890000000000001
 30
0
 11
3.088
 21
2.99
 31
0
  0
LINE
  8
0
 62
7
 10
3.169
 20
2.890000000000001
 30
0
 11
3.115
 21
2.890000000000001
 31
0
  0
LINE
  8
0
 62
7
 10
3.115
 20
2.890000000000001
 30
0
 11
3.115
 21
2.99
 31
0
  0
LINE
  8
0
 62
7
 10
3.196
 20
2.94
 30
0
 11
3.232
 21
2.94
 31
0
  0
LINE
  8
0
 62
7
 10
3.232
 20
2.94
 30
0
 11
3.2365
 21
2.94
 31
0
  0
LINE
  8
0
 62
7
 10
3.2365
 20
2.94
 30
0
 11
3.2455
 21
2.935
 31
0
  0
LINE
  8
0
 62
7
 10
3.2455
 20
2.935
 30
0
 11
3.25
 21
2.93
 31
0
  0
LINE
  8
0
 62
7
 10
3.25
 20
2.93
 30
0
 11
3.2545
 21
2.92
 31
0
  0
LINE
  8
0
 62
7
 10
3.2545
 20
2.92
 30
0
 11
3.2545
 21
2.91
 31
0
  0
LINE
  8
0
 62
7
 10
3.2545
 20
2.91
 30
0
 11
3.25
 21
2.9
 31
0
  0
LINE
  8
0
 62
7
 10
3.25
 20
2.9
 30
0
 11
3.2455
 21
2.895
 31
0
  0
LINE
  8
0
 62
7
 10
3.2455
 20
2.895
 30
0
 11
3.2365
 21
2.890000000000001
 31
0
  0
LINE
  8
0
 62
7
 10
3.2365
 20
2.890000000000001
 30
0
 11
3.196
 21
2.890000000000001
 31
0
  0
LINE
  8
0
 62
7
 10
3.196
 20
2.890000000000001
 30
0
 11
3.196
 21
2.94
 31
0
  0
LINE
  8
0
 62
7
 10
3.196
 20
2.99
 30
0
 11
3.22975
 21
2.99
 31
0
  0
LINE
  8
0
 62
7
 10
3.22975
 20
2.99
 30
0
 11
3.241000000000001
 21
2.9875
 31
0
  0
LINE
  8
0
 62
7
 10
3.241000000000001
 20
2.9875
 30
0
 11
3.24775
 21
2.98
 31
0
  0
LINE
  8
0
 62
7
 10
3.24775
 20
2.98
 30
0
 11
3.25
 21
2.97
 31
0
  0
LINE
  8
0
 62
7
 10
3.25
 20
2.97
 30
0
 11
3.25
 21
2.96
 31
0
  0
LINE
  8
0
 62
7
 10
3.25
 20
2.96
 30
0
 11
3.2455
 21
2.95
 31
0
  0
LINE
  8
0
 62
7
 10
3.2455
 20
2.95
 30
0
 11
3.23875
 21
2.9425
 31
0
  0
LINE
  8
0
 62
7
 10
3.23875
 20
2.9425
 30
0
 11
3.232
 21
2.94
 31
0
  0
LINE
  8
0
 62
7
 10
3.196
 20
2.94
 30
0
 11
3.196
 21
2.99
 31
0
  0
LINE
  8
0
 62
7
 10
3.39625
 20
2.9425
 30
0
 11
3.3895
 21
2.952500000000001
 31
0
  0
LINE
  8
0
 62
7
 10
3.3895
 20
2.952500000000001
 30
0
 11
3.38275
 21
2.9575
 31
0
  0
LINE
  8
0
 62
7
 10
3.38275
 20
2.9575
 30
0
 11
3.376
 21
2.96
 31
0
  0
LINE
  8
0
 62
7
 10
3.376
 20
2.96
 30
0
 11
3.367
 21
2.96
 31
0
  0
LINE
  8
0
 62
7
 10
3.367
 20
2.96
 30
0
 11
3.36025
 21
2.9575
 31
0
  0
LINE
  8
0
 62
7
 10
3.36025
 20
2.9575
 30
0
 11
3.3535
 21
2.952500000000001
 31
0
  0
LINE
  8
0
 62
7
 10
3.3535
 20
2.952500000000001
 30
0
 11
3.34675
 21
2.9425
 31
0
  0
LINE
  8
0
 62
7
 10
3.34675
 20
2.9425
 30
0
 11
3.3445
 21
2.935
 31
0
  0
LINE
  8
0
 62
7
 10
3.3445
 20
2.935
 30
0
 11
3.3445
 21
2.915
 31
0
  0
LINE
  8
0
 62
7
 10
3.3445
 20
2.915
 30
0
 11
3.34675
 21
2.9075
 31
0
  0
LINE
  8
0
 62
7
 10
3.34675
 20
2.9075
 30
0
 11
3.3535
 21
2.8975
 31
0
  0
LINE
  8
0
 62
7
 10
3.3535
 20
2.8975
 30
0
 11
3.36025
 21
2.8925
 31
0
  0
LINE
  8
0
 62
7
 10
3.36025
 20
2.8925
 30
0
 11
3.367
 21
2.890000000000001
 31
0
  0
LINE
  8
0
 62
7
 10
3.367
 20
2.890000000000001
 30
0
 11
3.376
 21
2.890000000000001
 31
0
  0
LINE
  8
0
 62
7
 10
3.376
 20
2.890000000000001
 30
0
 11
3.38275
 21
2.8925
 31
0
  0
LINE
  8
0
 62
7
 10
3.38275
 20
2.8925
 30
0
 11
3.3895
 21
2.8975
 31
0
  0
LINE
  8
0
 62
7
 10
3.3895
 20
2.8975
 30
0
 11
3.39625
 21
2.9075
 31
0
  0
LINE
  8
0
 62
7
 10
3.46825
 20
2.935
 30
0
 11
3.466000000000001
 21
2.9425
 31
0
  0
LINE
  8
0
 62
7
 10
3.466000000000001
 20
2.9425
 30
0
 11
3.45925
 21
2.952500000000001
 31
0
  0
LINE
  8
0
 62
7
 10
3.45925
 20
2.952500000000001
 30
0
 11
3.4525
 21
2.9575
 31
0
  0
LINE
  8
0
 62
7
 10
3.4525
 20
2.9575
 30
0
 11
3.44575
 21
2.96
 31
0
  0
LINE
  8
0
 62
7
 10
3.44575
 20
2.96
 30
0
 11
3.43675
 21
2.96
 31
0
  0
LINE
  8
0
 62
7
 10
3.43675
 20
2.96
 30
0
 11
3.430000000000001
 21
2.9575
 31
0
  0
LINE
  8
0
 62
7
 10
3.430000000000001
 20
2.9575
 30
0
 11
3.42325
 21
2.952500000000001
 31
0
  0
LINE
  8
0
 62
7
 10
3.42325
 20
2.952500000000001
 30
0
 11
3.4165
 21
2.9425
 31
0
  0
LINE
  8
0
 62
7
 10
3.4165
 20
2.9425
 30
0
 11
3.41425
 21
2.935
 31
0
  0
LINE
  8
0
 62
7
 10
3.41425
 20
2.935
 30
0
 11
3.41425
 21
2.915
 31
0
  0
LINE
  8
0
 62
7
 10
3.41425
 20
2.915
 30
0
 11
3.4165
 21
2.9075
 31
0
  0
LINE
  8
0
 62
7
 10
3.4165
 20
2.9075
 30
0
 11
3.42325
 21
2.8975
 31
0
  0
LINE
  8
0
 62
7
 10
3.42325
 20
2.8975
 30
0
 11
3.430000000000001
 21
2.8925
 31
0
  0
LINE
  8
0
 62
7
 10
3.430000000000001
 20
2.8925
 30
0
 11
3.43675
 21
2.890000000000001
 31
0
  0
LINE
  8
0
 62
7
 10
3.43675
 20
2.890000000000001
 30
0
 11
3.44575
 21
2.890000000000001
 31
0
  0
LINE
  8
0
 62
7
 10
3.44575
 20
2.890000000000001
 30
0
 11
3.4525
 21
2.8925
 31
0
  0
LINE
  8
0
 62
7
 10
3.4525
 20
2.8925
 30
0
 11
3.45925
 21
2.8975
 31
0
  0
LINE
  8
0
 62
7
 10
3.45925
 20
2.8975
 30
0
 11
3.466000000000001
 21
2.9075
 31
0
  0
LINE
  8
0
 62
7
 10
3.466000000000001
 20
2.9075
 30
0
 11
3.46825
 21
2.915
 31
0
  0
LINE
  8
0
 62
7
 10
3.46825
 20
2.96
 30
0
 11
3.46825
 21
2.935
 31
0
  0
LINE
  8
0
 62
7
 10
3.46825
 20
2.8925
 30
0
 11
3.4705
 21
2.890000000000001
 31
0
  0
LINE
  8
0
 62
7
 10
3.4705
 20
2.890000000000001
 30
0
 11
3.47275
 21
2.890000000000001
 31
0
  0
LINE
  8
0
 62
7
 10
3.46825
 20
2.915
 30
0
 11
3.46825
 21
2.8925
 31
0
  0
LINE
  8
0
 62
7
 10
3.46825
 20
2.935
 30
0
 11
3.46825
 21
2.915
 31
0
  0
LINE
  8
0
 62
7
 10
3.49075
 20
2.890000000000001
 30
0
 11
3.49075
 21
2.8925
 31
0
  0
LINE
  8
0
 62
7
 10
3.49075
 20
2.8925
 30
0
 11
3.493
 21
2.8925
 31
0
  0
LINE
  8
0
 62
7
 10
3.493
 20
2.8925
 30
0
 11
3.493
 21
2.890000000000001
 31
0
  0
LINE
  8
0
 62
7
 10
3.493
 20
2.890000000000001
 30
0
 11
3.49075
 21
2.890000000000001
 31
0
  0
LINE
  8
0
 62
7
 10
3.616750000000001
 20
2.99
 30
0
 11
3.62575
 21
2.99
 31
0
  0
LINE
  8
0
 62
7
 10
3.62575
 20
2.99
 30
0
 11
3.6325
 21
2.9875
 31
0
  0
LINE
  8
0
 62
7
 10
3.6325
 20
2.9875
 30
0
 11
3.637
 21
2.9825
 31
0
  0
LINE
  8
0
 62
7
 10
3.637
 20
2.9825
 30
0
 11
3.6415
 21
2.975
 31
0
  0
LINE
  8
0
 62
7
 10
3.6415
 20
2.975
 30
0
 11
3.6415
 21
2.965
 31
0
  0
LINE
  8
0
 62
7
 10
3.6415
 20
2.965
 30
0
 11
3.63925
 21
2.96
 31
0
  0
LINE
  8
0
 62
7
 10
3.63925
 20
2.96
 30
0
 11
3.6325
 21
2.952500000000001
 31
0
  0
LINE
  8
0
 62
7
 10
3.6325
 20
2.952500000000001
 30
0
 11
3.62575
 21
2.95
 31
0
  0
LINE
  8
0
 62
7
 10
3.62575
 20
2.95
 30
0
 11
3.616750000000001
 21
2.95
 31
0
  0
LINE
  8
0
 62
7
 10
3.616750000000001
 20
2.95
 30
0
 11
3.61
 21
2.952500000000001
 31
0
  0
LINE
  8
0
 62
7
 10
3.61
 20
2.952500000000001
 30
0
 11
3.60325
 21
2.96
 31
0
  0
LINE
  8
0
 62
7
 10
3.60325
 20
2.96
 30
0
 11
3.601
 21
2.965
 31
0
  0
LINE
  8
0
 62
7
 10
3.601
 20
2.965
 30
0
 11
3.601
 21
2.975
 31
0
  0
LINE
  8
0
 62
7
 10
3.601
 20
2.975
 30
0
 11
3.6055
 21
2.9825
 31
0
  0
LINE
  8
0
 62
7
 10
3.6055
 20
2.9825
 30
0
 11
3.61
 21
2.9875
 31
0
  0
LINE
  8
0
 62
7
 10
3.61
 20
2.9875
 30
0
 11
3.616750000000001
 21
2.99
 31
0
  0
LINE
  8
0
 62
7
 10
3.616750000000001
 20
2.95
 30
0
 11
3.6055
 21
2.945
 31
0
  0
LINE
  8
0
 62
7
 10
3.6055
 20
2.945
 30
0
 11
3.598750000000001
 21
2.9375
 31
0
  0
LINE
  8
0
 62
7
 10
3.598750000000001
 20
2.9375
 30
0
 11
3.594250000000001
 21
2.9275
 31
0
  0
LINE
  8
0
 62
7
 10
3.594250000000001
 20
2.9275
 30
0
 11
3.594250000000001
 21
2.9125
 31
0
  0
LINE
  8
0
 62
7
 10
3.594250000000001
 20
2.9125
 30
0
 11
3.598750000000001
 21
2.9025
 31
0
  0
LINE
  8
0
 62
7
 10
3.598750000000001
 20
2.9025
 30
0
 11
3.6055
 21
2.895
 31
0
  0
LINE
  8
0
 62
7
 10
3.6055
 20
2.895
 30
0
 11
3.6145
 21
2.890000000000001
 31
0
  0
LINE
  8
0
 62
7
 10
3.6145
 20
2.890000000000001
 30
0
 11
3.628
 21
2.890000000000001
 31
0
  0
LINE
  8
0
 62
7
 10
3.628
 20
2.890000000000001
 30
0
 11
3.637
 21
2.895
 31
0
  0
LINE
  8
0
 62
7
 10
3.637
 20
2.895
 30
0
 11
3.64375
 21
2.9025
 31
0
  0
LINE
  8
0
 62
7
 10
3.64375
 20
2.9025
 30
0
 11
3.64825
 21
2.9125
 31
0
  0
LINE
  8
0
 62
7
 10
3.64825
 20
2.9125
 30
0
 11
3.64825
 21
2.9275
 31
0
  0
LINE
  8
0
 62
7
 10
3.64825
 20
2.9275
 30
0
 11
3.64375
 21
2.9375
 31
0
  0
LINE
  8
0
 62
7
 10
3.64375
 20
2.9375
 30
0
 11
3.637
 21
2.945
 31
0
  0
LINE
  8
0
 62
7
 10
3.637
 20
2.945
 30
0
 11
3.62575
 21
2.95
 31
0
  0
LINE
  8
0
 62
7
 10
3.73825
 20
2.95
 30
0
 11
3.736
 21
2.94
 31
0
  0
LINE
  8
0
 62
7
 10
3.736
 20
2.94
 30
0
 11
3.7315
 21
2.9325
 31
0
  0
LINE
  8
0
 62
7
 10
3.7315
 20
2.9325
 30
0
 11
3.72475
 21
2.9275
 31
0
  0
LINE
  8
0
 62
7
 10
3.72475
 20
2.9275
 30
0
 11
3.718
 21
2.925
 31
0
  0
LINE
  8
0
 62
7
 10
3.718
 20
2.925
 30
0
 11
3.7045
 21
2.925
 31
0
  0
LINE
  8
0
 62
7
 10
3.7045
 20
2.925
 30
0
 11
3.69775
 21
2.9275
 31
0
  0
LINE
  8
0
 62
7
 10
3.69775
 20
2.9275
 30
0
 11
3.691000000000001
 21
2.9325
 31
0
  0
LINE
  8
0
 62
7
 10
3.691000000000001
 20
2.9325
 30
0
 11
3.686500000000001
 21
2.94
 31
0
  0
LINE
  8
0
 62
7
 10
3.686500000000001
 20
2.94
 30
0
 11
3.68425
 21
2.95
 31
0
  0
LINE
  8
0
 62
7
 10
3.68425
 20
2.95
 30
0
 11
3.68425
 21
2.965
 31
0
  0
LINE
  8
0
 62
7
 10
3.68425
 20
2.965
 30
0
 11
3.686500000000001
 21
2.975
 31
0
  0
LINE
  8
0
 62
7
 10
3.686500000000001
 20
2.975
 30
0
 11
3.691000000000001
 21
2.9825
 31
0
  0
LINE
  8
0
 62
7
 10
3.691000000000001
 20
2.9825
 30
0
 11
3.69775
 21
2.9875
 31
0
  0
LINE
  8
0
 62
7
 10
3.69775
 20
2.9875
 30
0
 11
3.7045
 21
2.99
 31
0
  0
LINE
  8
0
 62
7
 10
3.7045
 20
2.99
 30
0
 11
3.718
 21
2.99
 31
0
  0
LINE
  8
0
 62
7
 10
3.718
 20
2.99
 30
0
 11
3.72475
 21
2.9875
 31
0
  0
LINE
  8
0
 62
7
 10
3.72475
 20
2.9875
 30
0
 11
3.7315
 21
2.9825
 31
0
  0
LINE
  8
0
 62
7
 10
3.7315
 20
2.9825
 30
0
 11
3.736
 21
2.975
 31
0
  0
LINE
  8
0
 62
7
 10
3.736
 20
2.975
 30
0
 11
3.73825
 21
2.965
 31
0
  0
LINE
  8
0
 62
7
 10
3.73825
 20
2.965
 30
0
 11
3.73825
 21
2.95
 31
0
  0
LINE
  8
0
 62
7
 10
3.73825
 20
2.915
 30
0
 11
3.736
 21
2.905
 31
0
  0
LINE
  8
0
 62
7
 10
3.736
 20
2.905
 30
0
 11
3.7315
 21
2.8975
 31
0
  0
LINE
  8
0
 62
7
 10
3.7315
 20
2.8975
 30
0
 11
3.72475
 21
2.8925
 31
0
  0
LINE
  8
0
 62
7
 10
3.72475
 20
2.8925
 30
0
 11
3.718
 21
2.890000000000001
 31
0
  0
LINE
  8
0
 62
7
 10
3.718
 20
2.890000000000001
 30
0
 11
3.7045
 21
2.890000000000001
 31
0
  0
LINE
  8
0
 62
7
 10
3.7045
 20
2.890000000000001
 30
0
 11
3.69775
 21
2.8925
 31
0
  0
LINE
  8
0
 62
7
 10
3.69775
 20
2.8925
 30
0
 11
3.691000000000001
 21
2.8975
 31
0
  0
LINE
  8
0
 62
7
 10
3.691000000000001
 20
2.8975
 30
0
 11
3.686500000000001
 21
2.905
 31
0
  0
LINE
  8
0
 62
7
 10
3.73825
 20
2.95
 30
0
 11
3.73825
 21
2.915
 31
0
  0
LINE
  8
0
 62
7
 10
3.889
 20
2.9425
 30
0
 11
3.88225
 21
2.952500000000001
 31
0
  0
LINE
  8
0
 62
7
 10
3.88225
 20
2.952500000000001
 30
0
 11
3.875500000000001
 21
2.9575
 31
0
  0
LINE
  8
0
 62
7
 10
3.875500000000001
 20
2.9575
 30
0
 11
3.86875
 21
2.96
 31
0
  0
LINE
  8
0
 62
7
 10
3.86875
 20
2.96
 30
0
 11
3.85975
 21
2.96
 31
0
  0
LINE
  8
0
 62
7
 10
3.85975
 20
2.96
 30
0
 11
3.853
 21
2.9575
 31
0
  0
LINE
  8
0
 62
7
 10
3.853
 20
2.9575
 30
0
 11
3.84625
 21
2.952500000000001
 31
0
  0
LINE
  8
0
 62
7
 10
3.84625
 20
2.952500000000001
 30
0
 11
3.839500000000001
 21
2.9425
 31
0
  0
LINE
  8
0
 62
7
 10
3.839500000000001
 20
2.9425
 30
0
 11
3.83725
 21
2.935
 31
0
  0
LINE
  8
0
 62
7
 10
3.83725
 20
2.935
 30
0
 11
3.83725
 21
2.915
 31
0
  0
LINE
  8
0
 62
7
 10
3.83725
 20
2.915
 30
0
 11
3.839500000000001
 21
2.9075
 31
0
  0
LINE
  8
0
 62
7
 10
3.839500000000001
 20
2.9075
 30
0
 11
3.84625
 21
2.8975
 31
0
  0
LINE
  8
0
 62
7
 10
3.84625
 20
2.8975
 30
0
 11
3.853
 21
2.8925
 31
0
  0
LINE
  8
0
 62
7
 10
3.853
 20
2.8925
 30
0
 11
3.85975
 21
2.890000000000001
 31
0
  0
LINE
  8
0
 62
7
 10
3.85975
 20
2.890000000000001
 30
0
 11
3.86875
 21
2.890000000000001
 31
0
  0
LINE
  8
0
 62
7
 10
3.86875
 20
2.890000000000001
 30
0
 11
3.875500000000001
 21
2.8925
 31
0
  0
LINE
  8
0
 62
7
 10
3.875500000000001
 20
2.8925
 30
0
 11
3.88225
 21
2.8975
 31
0
  0
LINE
  8
0
 62
7
 10
3.88225
 20
2.8975
 30
0
 11
3.889
 21
2.9075
 31
0
  0
LINE
  8
0
 62
7
 10
3.9475
 20
2.935
 30
0
 11
3.9475
 21
2.890000000000001
 31
0
  0
LINE
  8
0
 62
7
 10
3.907
 20
2.96
 30
0
 11
3.907
 21
2.935
 31
0
  0
LINE
  8
0
 62
7
 10
3.907
 20
2.890000000000001
 30
0
 11
3.907
 21
2.935
 31
0
  0
LINE
  8
0
 62
7
 10
3.907
 20
2.935
 30
0
 11
3.90925
 21
2.9475
 31
0
  0
LINE
  8
0
 62
7
 10
3.90925
 20
2.9475
 30
0
 11
3.9115
 21
2.952500000000001
 31
0
  0
LINE
  8
0
 62
7
 10
3.9115
 20
2.952500000000001
 30
0
 11
3.916
 21
2.9575
 31
0
  0
LINE
  8
0
 62
7
 10
3.916
 20
2.9575
 30
0
 11
3.92275
 21
2.96
 31
0
  0
LINE
  8
0
 62
7
 10
3.92275
 20
2.96
 30
0
 11
3.931750000000001
 21
2.96
 31
0
  0
LINE
  8
0
 62
7
 10
3.931750000000001
 20
2.96
 30
0
 11
3.9385
 21
2.9575
 31
0
  0
LINE
  8
0
 62
7
 10
3.9385
 20
2.9575
 30
0
 11
3.943
 21
2.952500000000001
 31
0
  0
LINE
  8
0
 62
7
 10
3.943
 20
2.952500000000001
 30
0
 11
3.94525
 21
2.9475
 31
0
  0
LINE
  8
0
 62
7
 10
3.94525
 20
2.9475
 30
0
 11
3.9475
 21
2.935
 31
0
  0
LINE
  8
0
 62
7
 10
3.9475
 20
2.935
 30
0
 11
3.94975
 21
2.9475
 31
0
  0
LINE
  8
0
 62
7
 10
3.94975
 20
2.9475
 30
0
 11
3.952
 21
2.952500000000001
 31
0
  0
LINE
  8
0
 62
7
 10
3.952
 20
2.952500000000001
 30
0
 11
3.9565
 21
2.9575
 31
0
  0
LINE
  8
0
 62
7
 10
3.9565
 20
2.9575
 30
0
 11
3.96325
 21
2.96
 31
0
  0
LINE
  8
0
 62
7
 10
3.96325
 20
2.96
 30
0
 11
3.972250000000001
 21
2.96
 31
0
  0
LINE
  8
0
 62
7
 10
3.972250000000001
 20
2.96
 30
0
 11
3.979
 21
2.9575
 31
0
  0
LINE
  8
0
 62
7
 10
3.9835
 20
2.952500000000001
 30
0
 11
3.979
 21
2.9575
 31
0
  0
LINE
  8
0
 62
7
 10
3.979
 20
2.9575
 30
0
 11
3.9835
 21
2.952500000000001
 31
0
  0
LINE
  8
0
 62
7
 10
3.9835
 20
2.952500000000001
 30
0
 11
3.98575
 21
2.9475
 31
0
  0
LINE
  8
0
 62
7
 10
3.98575
 20
2.9475
 30
0
 11
3.988
 21
2.935
 31
0
  0
LINE
  8
0
 62
7
 10
3.988
 20
2.935
 30
0
 11
3.988
 21
2.890000000000001
 31
0
  0
ARC
  8
0
 62
7
 10
3.031065809412354
 20
4.016065809412489
 30
0
 40
0.4850000000000076
 50
359.874057725061
 51
90.12594228150496
  0
ARC
  8
0
 62
7
 10
2.278934190587506
 20
4.01606580941244
 30
0
 40
0.4849999999999987
 50
89.87405772107851
 51
180.1259422815513
  0
CIRCLE
  8
0
 62
7
 10
3.516064637731406
 20
3.25
 30
0
 40
0.05999999999999917
  0
DIMENSION
  8
0
  6
CONTINUOUS
 62
7
  2
*D0
  3
DMST_1
 10
0.7572948398910001
 20
5.02
 30
0
 11
0.7572948398910001
 21
4.24499524811219
 31
0
 12
0
 22
0
 32
0
 70
0
 13
1.1
 23
3.35
 33
0
 14
1.1
 24
5.02
 34
0
 50
90
 53
0
  0
DIMENSION
  8
0
  6
CONTINUOUS
 62
7
  2
*D1
  3
DMST_1
 10
4.035000000000004
 20
5.90830955742917
 30
0
 11
2.6919299230682
 21
5.90830955742917
 31
0
 12
0
 22
0
 32
0
 70
0
 13
1.275
 23
5.539999999999999
 33
0
 14
4.035000000000005
 24
5.539999999999999
 34
0
 53
0
  0
DIMENSION
  8
0
  6
CONTINUOUS
 62
7
  2
*D2
  3
DMST_1
 10
4.59117534008971
 20
5.02
 30
0
 11
4.59117534008971
 21
4.15062280503037
 31
0
 12
0
 22
0
 32
0
 70
0
 13
4.210000000000004
 23
3.25
 33
0
 14
4.210000000000004
 24
5.02
 34
0
 50
90
 53
0
  0
DIMENSION
  8
0
  6
CONTINUOUS
 62
7
  2
*D3
  3
DMST_2
 10
4.035000000000005
 20
11.464487143871
 30
0
 11
2.71552303383865
 21
11.464487143871
 31
0
 12
0
 22
0
 32
0
 70
0
 13
1.275
 23
11.2
 33
0
 14
4.035000000000005
 24
11.2
 34
0
 53
0
  0
INSERT
  8
0
  2
*D4
 10
0
 20
0
 30
0
  0
ENDSEC
  0
EOF
