  0
SECTION
  2
HEADER
  9
$ACADVER
  1
AC1009
  9
$INSBASE
 10
0
 20
0
  9
$EXTMIN
 10
0.45
 20
2.890000000000001
  9
$EXTMAX
 10
8.283506834440479
 20
11.5301588375064
  9
$LIMMIN
 10
0.45
 20
2.890000000000001
  9
$LIMMAX
 10
8.283506834440479
 20
11.5301588375064
  9
$VIEWCTR
 10
10
 20
10
  9
$VIEWSIZE
 40
10
  9
$SNAPMODE
 70
0
  9
$SNAPUNIT
 10
1
 20
1
  9
$SNAPBASE
 10
0
 20
0
  9
$SNAPANG
 50
0
  9
$SNAPSTYLE
 70
0
  9
$SNAPISOPAIR
 70
0
  9
$GRIDMODE
 70
0
  9
$GRIDUNIT
 10
0
 20
0
  9
$ORTHOMODE
 70
0
  9
$REGENMODE
 70
1
  9
$FILLMODE
 70
1
  9
$QTEXTMODE
 70
0
  9
$DRAGMODE
 70
2
  9
$LTSCALE
 40
1
  9
$OSMODE
 70
0
  9
$ATTMODE
 70
1
  9
$TEXTSIZE
 40
3.5
  9
$TRACEWID
 40
0.5
  9
$TEXTSTYLE
  7
STANDARD
  9
$CLAYER
  8
0
  9
$CELTYPE
  6
BYLAYER
  9
$CECOLOR
 62
256
  9
$DIMSCALE
 40
1
  9
$DIMASZ
 40
0.18
  9
$DIMEXO
 40
0.0625
  9
$DIMDLI
 40
0.38
  9
$DIMRND
 40
0
  9
$DIMDLE
 40
0
  9
$DIMEXE
 40
0.18
  9
$DIMTP
 40
0
  9
$DIMTM
 40
0
  9
$DIMTXT
 40
0.18
  9
$DIMCEN
 40
0.09
  9
$DIMTSZ
 40
0
  9
$DIMTOL
 70
0
  9
$DIMLIM
 70
0
  9
$DIMTIH
 70
1
  9
$DIMTOH
 70
1
  9
$DIMSE1
 70
0
  9
$DIMSE2
 70
0
  9
$DIMTAD
 70
0
  9
$DIMZIN
 70
0
  9
$DIMBLK
  1

  9
$DIMASO
 70
1
  9
$DIMSHO
 70
1
  9
$DIMPOST
  1

  9
$DIMAPOST
  1

  9
$DIMALT
 70
0
  9
$DIMALTD
 70
2
  9
$DIMALTF
 40
25.4
  9
$DIMLFAC
 40
1
  9
$DIMTOFL
 70
0
  9
$DIMTVP
 40
0
  9
$DIMTIX
 70
0
  9
$DIMSOXD
 70
0
  9
$DIMSAH
 70
0
  9
$DIMBLK1
  1

  9
$DIMBLK2
  1

  9
$DIMSTYLE
  2
*UNNAMED
  9
$DIMCLRD
 70
0
  9
$DIMCLRE
 70
0
  9
$DIMCLRT
 70
0
  9
$DIMTFAC
 40
1
  9
$DIMGAP
 40
0.09
  9
$LUNITS
 70
2
  9
$LUPREC
 70
4
  9
$AXISMODE
 70
0
  9
$AXISUNIT
 10
0
 20
0
  9
$SKETCHINC
 40
0.1
  9
$FILLETRAD
 40
2
  9
$AUNITS
 70
0
  9
$AUPREC
 70
0
  9
$MENU
  1
ACAD
  9
$ELEVATION
 40
0
  9
$THICKNESS
 40
0
  9
$VIEWDIR
 10
0
 20
0
 30
1
  9
$LIMCHECK
 70
0
  9
$BLIPMODE
 70
1
  9
$CHAMFERA
 40
0
  9
$CHAMFERB
 40
0
  9
$FASTZOOM
 70
1
  9
$SKPOLY
 70
0
  9
$ANGBASE
 50
0
  9
$ANGDIR
 70
0
  9
$PDMODE
 70
0
  9
$PDSIZE
 40
0
  9
$PLINEWID
 40
0
  9
$COORDS
 70
2
  0
ENDSEC
  0
SECTION
  2
TABLES
  0
TABLE
  2
DIMSTYLE
 70
2
  0
DIMSTYLE
  2
DMST_1
 70
0
  3

  4

  5

  6

  7

 40
1
 41
0.1
 42
0
 43
0.7
 44
0.2
 45
0
 46
0
 47
0
 48
0
140
0.1
141
0
142
0.1
143
25.4
144
1
145
0
146
1
147
0.25
 71
0
 72
0
 73
0
 74
0
 75
0
 76
0
 77
0
 78
9
170
0
171
2
172
0
173
0
174
0
175
0
176
7
177
7
178
7
  0
DIMSTYLE
  2
DMST_2
 70
0
  3

  4

  5

  6

  7

 40
1
 41
0.1
 42
0
 43
0.7
 44
0.2
 45
0
 46
0
 47
0
 48
0
140
0.1
141
0
142
0.1
143
25.4
144
1
145
0
146
1
147
0.2
 71
0
 72
0
 73
0
 74
0
 75
0
 76
0
 77
0
 78
9
170
0
171
2
172
0
173
0
174
0
175
0
176
7
177
7
178
7
  0
ENDTAB
  0
TABLE
  2
LTYPE
 70
9
  0
LTYPE
  2
CONTINUOUS
 70
64
  3
Solid line
 72
65
 73
0
 40
0
  0
LTYPE
  2
BORDER
 70
64
  3
__ __ . __ __ .
 72
65
 73
6
 40
0.3979020517272684
 49
0.1136863004935053
 49
-0.05684315024675263
 49
0.1136863004935053
 49
-0.05684315024675263
 49
0
 49
-0.05684315024675263
  0
LTYPE
  2
CENTER
 70
64
  3
____ _ ____ _
 72
65
 73
4
 40
0.454745201974021
 49
0.2842157512337631
 49
-0.05684315024675263
 49
0.05684315024675263
 49
-0.05684315024675263
  0
LTYPE
  2
DASHDOT
 70
64
  3
__ . __ . __ .
 72
65
 73
4
 40
0.2273726009870105
 49
0.1136863004935053
 49
-0.05684315024675263
 49
0
 49
-0.05684315024675263
  0
LTYPE
  2
DASHED
 70
64
  3
__ __ __ __ __
 72
65
 73
2
 40
0.1705294507402579
 49
0.1136863004935053
 49
-0.05684315024675263
  0
LTYPE
  2
DIVIDE
 70
64
  3
__ . . __ . . 
 72
65
 73
6
 40
0.2842157512337631
 49
0.1136863004935053
 49
-0.05684315024675263
 49
0
 49
-0.05684315024675263
 49
0
 49
-0.05684315024675263
  0
LTYPE
  2
DOT
 70
64
  3
..............
 72
65
 73
4
 40
0.1136863004935053
 49
0
 49
-0.05684315024675263
 49
0
 49
-0.05684315024675263
  0
LTYPE
  2
HIDDEN
 70
64
  3
_ _ _ _ _ _ _
 72
65
 73
2
 40
0.08526472537012894
 49
0.05684315024675263
 49
-0.02842157512337631
  0
LTYPE
  2
PHANTOM
 70
64
  3
_____ _ _ _____ _ _ 
 72
65
 73
6
 40
0.5684315024675263
 49
0.2842157512337631
 49
-0.05684315024675263
 49
0.05684315024675263
 49
-0.05684315024675263
 49
0.05684315024675263
 49
-0.05684315024675263
  0
ENDTAB
  0
TABLE
  2
LAYER
 70
2
  0
LAYER
  2
0
 70
0
 62
7
  6
CONTINUOUS
  0
ENDTAB
  0
TABLE
  2
STYLE
 70
4
  0
STYLE
  2
STANDARD
 70
0
 40
0
 41
1
 50
0
 71
0
 42
3.5
  3
txt
  4

  0
STYLE
  2
SIMPLEX
 70
0
 40
0
 41
1
 50
0
 71
0
 42
3.5
  3
simplex
  4

  0
STYLE
  2
COMPLEX
 70
0
 40
0
 41
1
 50
0
 71
0
 42
3.5
  3
complex
  4

  0
STYLE
  2
ITALIC
 70
0
 40
0
 41
1
 50
0
 71
0
 42
3.5
  3
italic
  4

  0
ENDTAB
  0
TABLE
  2
VIEW
 70
0
  0
ENDTAB
  0
ENDSEC
  0
SECTION
  2
BLOCKS
  0
BLOCK
  8
0
  2
*X0
 70
1
 10
0
 20
0
 30
0
  0
LINE
  8
0
 62
7
  6
DASHED
 10
0.5
 20
8.242819253992694
 30
0
 11
0.5571807460073028
 21
8.299999999999997
 31
0
  0
LINE
  8
0
 62
7
  6
DASHED
 10
0.5693127803632669
 20
8.099999999999996
 30
0
 11
0.7399999999999998
 21
8.270687219636729
 31
0
  0
LINE
  8
0
 62
7
 10
0.4999999999999991
 20
8.136753236814712
 30
0
 11
0.6632467631852856
 21
8.299999999999997
 31
0
  0
LINE
  8
0
 62
7
 10
0.6753787975412489
 20
8.099999999999998
 30
0
 11
0.7399999999999989
 21
8.164621202458747
 31
0
  0
ENDBLK
  8
0
  0
BLOCK
  8
0
  2
*X1
 70
1
 10
0
 20
0
 30
0
  0
LINE
  8
0
 62
7
  6
DASHED
 10
0.4999999999999991
 20
11.00053570062023
 30
0
 11
0.5494642993797729
 21
11.05
 31
0
  0
LINE
  8
0
 62
7
  6
DASHED
 10
0.5615963337357357
 20
10.85
 30
0
 11
0.7399999999999993
 21
11.02840366626426
 31
0
  0
LINE
  8
0
 62
7
 10
0.5000000000000009
 20
10.89446968344225
 30
0
 11
0.655530316557754
 21
11.05
 31
0
  0
LINE
  8
0
 62
7
 10
0.6676623509137176
 20
10.85
 30
0
 11
0.7400000000000002
 21
10.92233764908628
 31
0
  0
ENDBLK
  8
0
  0
BLOCK
  8
0
  2
*X2
 70
1
 10
0
 20
0
 30
0
  0
LINE
  8
0
 62
7
  6
DASHED
 10
2.409999999999999
 20
11.00134739141655
 30
0
 11
2.458652608583451
 21
11.05
 31
0
  0
LINE
  8
0
 62
7
  6
DASHED
 10
2.470784642939413
 20
10.85
 30
0
 11
2.670784642939415
 21
11.05
 31
0
  0
LINE
  8
0
 62
7
  6
DASHED
 10
2.682916677295378
 20
10.85
 30
0
 11
2.709999999999998
 21
10.87708332270462
 31
0
  0
LINE
  8
0
 62
7
 10
2.41
 20
10.89528137423857
 30
0
 11
2.564718625761432
 21
11.05
 31
0
  0
LINE
  8
0
 62
7
 10
2.576850660117396
 20
10.85
 30
0
 11
2.709999999999999
 21
10.9831493398826
 31
0
  0
ENDBLK
  8
0
  0
BLOCK
  8
0
  2
*X3
 70
1
 10
0
 20
0
 30
0
  0
LINE
  8
0
 62
7
  6
DASHED
 10
2.41
 20
8.243630944789016
 30
0
 11
2.46636905521098
 21
8.299999999999997
 31
0
  0
LINE
  8
0
 62
7
  6
DASHED
 10
2.478501089566945
 20
8.099999999999996
 30
0
 11
2.678501089566945
 21
8.299999999999997
 31
0
  0
LINE
  8
0
 62
7
  6
DASHED
 10
2.690633123922909
 20
8.099999999999996
 30
0
 11
2.71
 21
8.119366876077088
 31
0
  0
LINE
  8
0
 62
7
 10
2.409999999999999
 20
8.137564927611033
 30
0
 11
2.572435072388964
 21
8.299999999999997
 31
0
  0
LINE
  8
0
 62
7
 10
2.584567106744927
 20
8.099999999999996
 30
0
 11
2.709999999999999
 21
8.225432893255068
 31
0
  0
ENDBLK
  8
0
  0
BLOCK
  8
0
  2
*X4
 70
1
 10
0
 20
0
 30
0
  0
LINE
  8
0
 62
7
 10
0.549464299379772
 20
11.05
 30
0
 11
0.6994642993797706
 21
11.2
 31
0
  0
LINE
  8
0
 62
7
 10
0.5
 20
11.10660171779821
 30
0
 11
0.5933982822017896
 21
11.2
 31
0
  0
LINE
  8
0
 62
7
 10
0.655530316557754
 20
11.05
 30
0
 11
0.7400000000000002
 21
11.13446968344225
 31
0
  0
ENDBLK
  8
0
  0
BLOCK
  8
0
  2
*X5
 70
1
 10
0
 20
0
 30
0
  0
LINE
  8
0
 62
7
 10
0.5000000000000004
 20
10.78840366626426
 30
0
 11
0.5615963337357339
 21
10.85
 31
0
  0
LINE
  8
0
 62
7
 10
0.5000000000000004
 20
10.5762716319083
 30
0
 11
0.7400000000000002
 21
10.8162716319083
 31
0
  0
LINE
  8
0
 62
7
 10
0.5000000000000004
 20
10.36413959755233
 30
0
 11
0.7400000000000002
 21
10.60413959755233
 31
0
  0
LINE
  8
0
 62
7
 10
0.5000000000000004
 20
10.15200756319637
 30
0
 11
0.7400000000000002
 21
10.39200756319637
 31
0
  0
LINE
  8
0
 62
7
 10
0.5000000000000004
 20
9.939875528840407
 30
0
 11
0.7400000000000002
 21
10.17987552884041
 31
0
  0
LINE
  8
0
 62
7
 10
0.5000000000000004
 20
9.727743494484443
 30
0
 11
0.7400000000000002
 21
9.967743494484441
 31
0
  0
LINE
  8
0
 62
7
 10
0.5000000000000004
 20
9.515611460128479
 30
0
 11
0.7400000000000002
 21
9.755611460128478
 31
0
  0
LINE
  8
0
 62
7
 10
0.5000000000000004
 20
9.303479425772515
 30
0
 11
0.7400000000000002
 21
9.543479425772514
 31
0
  0
LINE
  8
0
 62
7
 10
0.5000000000000004
 20
9.091347391416551
 30
0
 11
0.7400000000000002
 21
9.33134739141655
 31
0
  0
LINE
  8
0
 62
7
 10
0.5000000000000004
 20
8.879215357060588
 30
0
 11
0.7400000000000002
 21
9.119215357060586
 31
0
  0
LINE
  8
0
 62
7
 10
0.5000000000000004
 20
8.667083322704624
 30
0
 11
0.7400000000000002
 21
8.907083322704622
 31
0
  0
LINE
  8
0
 62
7
 10
0.5000000000000004
 20
8.45495128834866
 30
0
 11
0.7400000000000002
 21
8.694951288348658
 31
0
  0
LINE
  8
0
 62
7
 10
0.5571807460073028
 20
8.299999999999997
 30
0
 11
0.7400000000000002
 21
8.482819253992695
 31
0
  0
LINE
  8
0
 62
7
 10
0.5
 20
10.68233764908628
 30
0
 11
0.6676623509137176
 21
10.85
 31
0
  0
LINE
  8
0
 62
7
 10
0.5
 20
10.47020561473031
 30
0
 11
0.7400000000000007
 21
10.71020561473031
 31
0
  0
LINE
  8
0
 62
7
 10
0.5
 20
10.25807358037435
 30
0
 11
0.7400000000000007
 21
10.49807358037435
 31
0
  0
LINE
  8
0
 62
7
 10
0.5
 20
10.04594154601839
 30
0
 11
0.7400000000000007
 21
10.28594154601839
 31
0
  0
LINE
  8
0
 62
7
 10
0.5
 20
9.833809511662423
 30
0
 11
0.7400000000000007
 21
10.07380951166242
 31
0
  0
LINE
  8
0
 62
7
 10
0.5
 20
9.621677477306459
 30
0
 11
0.7400000000000007
 21
9.861677477306458
 31
0
  0
LINE
  8
0
 62
7
 10
0.5
 20
9.409545442950495
 30
0
 11
0.7400000000000007
 21
9.649545442950494
 31
0
  0
LINE
  8
0
 62
7
 10
0.5
 20
9.197413408594532
 30
0
 11
0.7400000000000007
 21
9.43741340859453
 31
0
  0
LINE
  8
0
 62
7
 10
0.5
 20
8.985281374238568
 30
0
 11
0.7400000000000007
 21
9.225281374238566
 31
0
  0
LINE
  8
0
 62
7
 10
0.5
 20
8.773149339882604
 30
0
 11
0.7400000000000007
 21
9.013149339882602
 31
0
  0
LINE
  8
0
 62
7
 10
0.5
 20
8.56101730552664
 30
0
 11
0.7400000000000007
 21
8.801017305526639
 31
0
  0
LINE
  8
0
 62
7
 10
0.5
 20
8.348885271170676
 30
0
 11
0.7400000000000007
 21
8.588885271170675
 31
0
  0
LINE
  8
0
 62
7
 10
0.6632467631852861
 20
8.299999999999997
 30
0
 11
0.7400000000000007
 21
8.376753236814711
 31
0
  0
ENDBLK
  8
0
  0
BLOCK
  8
0
  2
*X6
 70
1
 10
0
 20
0
 30
0
  0
LINE
  8
0
 62
7
 10
0.5
 20
8.03068721963673
 30
0
 11
0.5693127803632656
 21
8.099999999999996
 31
0
  0
LINE
  8
0
 62
7
 10
0.6314448147192331
 20
7.949999999999998
 30
0
 11
0.7399999999999998
 21
8.058555185280765
 31
0
  0
LINE
  8
0
 62
7
 10
0.5253787975412521
 20
7.949999999999999
 30
0
 11
0.6753787975412489
 21
8.099999999999998
 31
0
  0
LINE
  8
0
 62
7
 10
0.7375108318972163
 20
7.949999999999999
 30
0
 11
0.7400000000000002
 21
7.952489168102783
 31
0
  0
ENDBLK
  8
0
  0
BLOCK
  8
0
  2
*X7
 70
1
 10
0
 20
0
 30
0
  0
LINE
  8
0
 62
7
  6
DASHED
 10
4.339999999999999
 20
11.02215908221287
 30
0
 11
4.367840917787135
 21
11.05
 31
0
  0
LINE
  8
0
 62
7
  6
DASHED
 10
4.379972952143097
 20
10.85
 30
0
 11
4.579972952143099
 21
11.05
 31
0
  0
LINE
  8
0
 62
7
  6
DASHED
 10
4.592104986499061
 20
10.85
 30
0
 11
4.792104986499063
 21
11.05
 31
0
  0
LINE
  8
0
 62
7
  6
DASHED
 10
4.804237020855025
 20
10.85
 30
0
 11
5.004237020855027
 21
11.05
 31
0
  0
LINE
  8
0
 62
7
  6
DASHED
 10
5.016369055210989
 20
10.85
 30
0
 11
5.216369055210991
 21
11.05
 31
0
  0
LINE
  8
0
 62
7
  6
DASHED
 10
5.228501089566953
 20
10.85
 30
0
 11
5.428501089566955
 21
11.05
 31
0
  0
LINE
  8
0
 62
7
  6
DASHED
 10
5.440633123922916
 20
10.85
 30
0
 11
5.640633123922918
 21
11.05
 31
0
  0
LINE
  8
0
 62
7
  6
DASHED
 10
5.65276515827888
 20
10.85
 30
0
 11
5.852765158278882
 21
11.05
 31
0
  0
LINE
  8
0
 62
7
  6
DASHED
 10
5.864897192634844
 20
10.85
 30
0
 11
6.064897192634846
 21
11.05
 31
0
  0
LINE
  8
0
 62
7
  6
DASHED
 10
6.077029226990808
 20
10.85
 30
0
 11
6.27702922699081
 21
11.05
 31
0
  0
LINE
  8
0
 62
7
  6
DASHED
 10
6.289161261346772
 20
10.85
 30
0
 11
6.489161261346774
 21
11.05
 31
0
  0
LINE
  8
0
 62
7
  6
DASHED
 10
6.501293295702736
 20
10.85
 30
0
 11
6.701293295702738
 21
11.05
 31
0
  0
LINE
  8
0
 62
7
  6
DASHED
 10
6.713425330058699
 20
10.85
 30
0
 11
6.913425330058701
 21
11.05
 31
0
  0
LINE
  8
0
 62
7
  6
DASHED
 10
6.925557364414663
 20
10.85
 30
0
 11
7.125557364414665
 21
11.05
 31
0
  0
LINE
  8
0
 62
7
  6
DASHED
 10
7.137689398770627
 20
10.85
 30
0
 11
7.337689398770629
 21
11.05
 31
0
  0
LINE
  8
0
 62
7
  6
DASHED
 10
7.349821433126591
 20
10.85
 30
0
 11
7.549821433126593
 21
11.05
 31
0
  0
LINE
  8
0
 62
7
  6
DASHED
 10
7.561953467482555
 20
10.85
 30
0
 11
7.75
 21
11.03804653251744
 31
0
  0
LINE
  8
0
 62
7
 10
4.339999999999999
 20
10.91609306503489
 30
0
 11
4.473906934965115
 21
11.05
 31
0
  0
LINE
  8
0
 62
7
 10
4.48603896932108
 20
10.85
 30
0
 11
4.686038969321078
 21
11.05
 31
0
  0
LINE
  8
0
 62
7
 10
4.698171003677044
 20
10.85
 30
0
 11
4.898171003677042
 21
11.05
 31
0
  0
LINE
  8
0
 62
7
 10
4.910303038033008
 20
10.85
 30
0
 11
5.110303038033006
 21
11.05
 31
0
  0
LINE
  8
0
 62
7
 10
5.122435072388972
 20
10.85
 30
0
 11
5.32243507238897
 21
11.05
 31
0
  0
LINE
  8
0
 62
7
 10
5.334567106744935
 20
10.85
 30
0
 11
5.534567106744934
 21
11.05
 31
0
  0
LINE
  8
0
 62
7
 10
5.546699141100899
 20
10.85
 30
0
 11
5.746699141100898
 21
11.05
 31
0
  0
LINE
  8
0
 62
7
 10
5.758831175456863
 20
10.85
 30
0
 11
5.958831175456861
 21
11.05
 31
0
  0
LINE
  8
0
 62
7
 10
5.970963209812827
 20
10.85
 30
0
 11
6.170963209812825
 21
11.05
 31
0
  0
LINE
  8
0
 62
7
 10
6.183095244168791
 20
10.85
 30
0
 11
6.383095244168789
 21
11.05
 31
0
  0
LINE
  8
0
 62
7
 10
6.395227278524755
 20
10.85
 30
0
 11
6.595227278524753
 21
11.05
 31
0
  0
LINE
  8
0
 62
7
 10
6.607359312880718
 20
10.85
 30
0
 11
6.807359312880717
 21
11.05
 31
0
  0
LINE
  8
0
 62
7
 10
6.819491347236682
 20
10.85
 30
0
 11
7.019491347236681
 21
11.05
 31
0
  0
LINE
  8
0
 62
7
 10
7.031623381592646
 20
10.85
 30
0
 11
7.231623381592645
 21
11.05
 31
0
  0
LINE
  8
0
 62
7
 10
7.24375541594861
 20
10.85
 30
0
 11
7.443755415948608
 21
11.05
 31
0
  0
LINE
  8
0
 62
7
 10
7.455887450304574
 20
10.85
 30
0
 11
7.655887450304572
 21
11.05
 31
0
  0
LINE
  8
0
 62
7
 10
7.668019484660538
 20
10.85
 30
0
 11
7.749999999999999
 21
10.93198051533946
 31
0
  0
ENDBLK
  8
0
  0
BLOCK
  8
0
  2
*X8
 70
1
 10
0
 20
0
 30
0
  0
LINE
  8
0
 62
7
  6
DASHED
 10
4.339999999999999
 20
8.264442635585336
 30
0
 11
4.375557364414665
 21
8.299999999999995
 31
0
  0
LINE
  8
0
 62
7
  6
DASHED
 10
4.387689398770629
 20
8.099999999999996
 30
0
 11
4.587689398770629
 21
8.299999999999995
 31
0
  0
LINE
  8
0
 62
7
  6
DASHED
 10
4.599821433126593
 20
8.099999999999996
 30
0
 11
4.799821433126593
 21
8.299999999999995
 31
0
  0
LINE
  8
0
 62
7
  6
DASHED
 10
4.811953467482557
 20
8.099999999999996
 30
0
 11
5.011953467482557
 21
8.299999999999995
 31
0
  0
LINE
  8
0
 62
7
  6
DASHED
 10
5.02408550183852
 20
8.099999999999996
 30
0
 11
5.224085501838521
 21
8.299999999999995
 31
0
  0
LINE
  8
0
 62
7
  6
DASHED
 10
5.236217536194484
 20
8.099999999999996
 30
0
 11
5.436217536194484
 21
8.299999999999995
 31
0
  0
LINE
  8
0
 62
7
  6
DASHED
 10
5.448349570550448
 20
8.099999999999996
 30
0
 11
5.648349570550448
 21
8.299999999999995
 31
0
  0
LINE
  8
0
 62
7
  6
DASHED
 10
5.660481604906412
 20
8.099999999999996
 30
0
 11
5.860481604906412
 21
8.299999999999995
 31
0
  0
LINE
  8
0
 62
7
  6
DASHED
 10
5.872613639262376
 20
8.099999999999996
 30
0
 11
6.072613639262376
 21
8.299999999999995
 31
0
  0
LINE
  8
0
 62
7
  6
DASHED
 10
6.08474567361834
 20
8.099999999999996
 30
0
 11
6.28474567361834
 21
8.299999999999995
 31
0
  0
LINE
  8
0
 62
7
  6
DASHED
 10
6.296877707974303
 20
8.099999999999996
 30
0
 11
6.496877707974304
 21
8.299999999999995
 31
0
  0
LINE
  8
0
 62
7
  6
DASHED
 10
6.509009742330267
 20
8.099999999999996
 30
0
 11
6.709009742330267
 21
8.299999999999995
 31
0
  0
LINE
  8
0
 62
7
  6
DASHED
 10
6.721141776686231
 20
8.099999999999996
 30
0
 11
6.921141776686231
 21
8.299999999999995
 31
0
  0
LINE
  8
0
 62
7
  6
DASHED
 10
6.933273811042195
 20
8.099999999999996
 30
0
 11
7.133273811042195
 21
8.299999999999995
 31
0
  0
LINE
  8
0
 62
7
  6
DASHED
 10
7.145405845398159
 20
8.099999999999996
 30
0
 11
7.345405845398159
 21
8.299999999999995
 31
0
  0
LINE
  8
0
 62
7
  6
DASHED
 10
7.357537879754123
 20
8.099999999999996
 30
0
 11
7.557537879754123
 21
8.299999999999995
 31
0
  0
LINE
  8
0
 62
7
  6
DASHED
 10
7.569669914110086
 20
8.099999999999996
 30
0
 11
7.749999999999998
 21
8.28033008588991
 31
0
  0
LINE
  8
0
 62
7
 10
4.339999999999999
 20
8.158376618407354
 30
0
 11
4.481623381592648
 21
8.299999999999997
 31
0
  0
LINE
  8
0
 62
7
 10
4.493755415948613
 20
8.099999999999996
 30
0
 11
4.693755415948612
 21
8.299999999999997
 31
0
  0
LINE
  8
0
 62
7
 10
4.705887450304576
 20
8.099999999999996
 30
0
 11
4.905887450304576
 21
8.299999999999997
 31
0
  0
LINE
  8
0
 62
7
 10
4.91801948466054
 20
8.099999999999996
 30
0
 11
5.11801948466054
 21
8.299999999999997
 31
0
  0
LINE
  8
0
 62
7
 10
5.130151519016504
 20
8.099999999999996
 30
0
 11
5.330151519016503
 21
8.299999999999997
 31
0
  0
LINE
  8
0
 62
7
 10
5.342283553372468
 20
8.099999999999996
 30
0
 11
5.542283553372467
 21
8.299999999999997
 31
0
  0
LINE
  8
0
 62
7
 10
5.554415587728432
 20
8.099999999999996
 30
0
 11
5.754415587728431
 21
8.299999999999997
 31
0
  0
LINE
  8
0
 62
7
 10
5.766547622084396
 20
8.099999999999996
 30
0
 11
5.966547622084395
 21
8.299999999999997
 31
0
  0
LINE
  8
0
 62
7
 10
5.978679656440359
 20
8.099999999999996
 30
0
 11
6.178679656440359
 21
8.299999999999997
 31
0
  0
LINE
  8
0
 62
7
 10
6.190811690796323
 20
8.099999999999996
 30
0
 11
6.390811690796323
 21
8.299999999999997
 31
0
  0
LINE
  8
0
 62
7
 10
6.402943725152287
 20
8.099999999999996
 30
0
 11
6.602943725152286
 21
8.299999999999997
 31
0
  0
LINE
  8
0
 62
7
 10
6.615075759508251
 20
8.099999999999996
 30
0
 11
6.81507575950825
 21
8.299999999999997
 31
0
  0
LINE
  8
0
 62
7
 10
6.827207793864215
 20
8.099999999999996
 30
0
 11
7.027207793864214
 21
8.299999999999997
 31
0
  0
LINE
  8
0
 62
7
 10
7.039339828220179
 20
8.099999999999996
 30
0
 11
7.239339828220178
 21
8.299999999999997
 31
0
  0
LINE
  8
0
 62
7
 10
7.251471862576143
 20
8.099999999999996
 30
0
 11
7.451471862576142
 21
8.299999999999997
 31
0
  0
LINE
  8
0
 62
7
 10
7.463603896932106
 20
8.099999999999996
 30
0
 11
7.663603896932106
 21
8.299999999999997
 31
0
  0
LINE
  8
0
 62
7
 10
7.67573593128807
 20
8.099999999999996
 30
0
 11
7.75
 21
8.174264068711928
 31
0
  0
ENDBLK
  8
0
  0
BLOCK
  8
0
  2
*X9
 70
1
 10
0
 20
0
 30
0
  0
LINE
  8
0
 62
7
 10
4.489999999999999
 20
11.17215908221287
 30
0
 11
4.517840917787128
 21
11.2
 31
0
  0
LINE
  8
0
 62
7
 10
4.579972952143093
 20
11.05
 30
0
 11
4.664999999999999
 21
11.13502704785691
 31
0
  0
LINE
  8
0
 62
7
 10
4.49
 20
11.06609306503489
 30
0
 11
4.62390693496511
 21
11.2
 31
0
  0
ENDBLK
  8
0
  0
BLOCK
  8
0
  2
*X10
 70
1
 10
0
 20
0
 30
0
  0
LINE
  8
0
 62
7
 10
4.49
 20
10.74789501350094
 30
0
 11
4.592104986499054
 21
10.85
 31
0
  0
LINE
  8
0
 62
7
 10
4.49
 20
10.53576297914498
 30
0
 11
4.665
 21
10.71076297914498
 31
0
  0
LINE
  8
0
 62
7
 10
4.49
 20
10.32363094478901
 30
0
 11
4.665
 21
10.49863094478901
 31
0
  0
LINE
  8
0
 62
7
 10
4.49
 20
10.11149891043305
 30
0
 11
4.665
 21
10.28649891043305
 31
0
  0
LINE
  8
0
 62
7
 10
4.49
 20
9.899366876077085
 30
0
 11
4.665
 21
10.07436687607708
 31
0
  0
LINE
  8
0
 62
7
 10
4.49
 20
9.687234841721121
 30
0
 11
4.665
 21
9.86223484172112
 31
0
  0
LINE
  8
0
 62
7
 10
4.49
 20
9.475102807365158
 30
0
 11
4.665
 21
9.650102807365156
 31
0
  0
LINE
  8
0
 62
7
 10
4.49
 20
9.262970773009194
 30
0
 11
4.665
 21
9.437970773009193
 31
0
  0
LINE
  8
0
 62
7
 10
4.49
 20
9.05083873865323
 30
0
 11
4.665
 21
9.225838738653229
 31
0
  0
LINE
  8
0
 62
7
 10
4.49
 20
8.838706704297266
 30
0
 11
4.665
 21
9.013706704297265
 31
0
  0
LINE
  8
0
 62
7
 10
4.49
 20
8.626574669941302
 30
0
 11
4.665
 21
8.801574669941301
 31
0
  0
LINE
  8
0
 62
7
 10
4.49
 20
8.414442635585338
 30
0
 11
4.665
 21
8.589442635585337
 31
0
  0
LINE
  8
0
 62
7
 10
4.587689398770624
 20
8.299999999999997
 30
0
 11
4.665
 21
8.377310601229373
 31
0
  0
LINE
  8
0
 62
7
 10
4.490000000000002
 20
10.64182899632296
 30
0
 11
4.665000000000001
 21
10.81682899632296
 31
0
  0
LINE
  8
0
 62
7
 10
4.490000000000002
 20
10.42969696196699
 30
0
 11
4.665000000000001
 21
10.604696961967
 31
0
  0
LINE
  8
0
 62
7
 10
4.490000000000002
 20
10.21756492761103
 30
0
 11
4.665000000000001
 21
10.39256492761103
 31
0
  0
LINE
  8
0
 62
7
 10
4.490000000000002
 20
10.00543289325507
 30
0
 11
4.665000000000001
 21
10.18043289325507
 31
0
  0
LINE
  8
0
 62
7
 10
4.490000000000002
 20
9.793300858899103
 30
0
 11
4.665000000000001
 21
9.968300858899104
 31
0
  0
LINE
  8
0
 62
7
 10
4.490000000000002
 20
9.581168824543139
 30
0
 11
4.665000000000001
 21
9.75616882454314
 31
0
  0
LINE
  8
0
 62
7
 10
4.490000000000002
 20
9.369036790187176
 30
0
 11
4.665000000000001
 21
9.544036790187176
 31
0
  0
LINE
  8
0
 62
7
 10
4.490000000000002
 20
9.156904755831212
 30
0
 11
4.665000000000001
 21
9.331904755831212
 31
0
  0
LINE
  8
0
 62
7
 10
4.490000000000002
 20
8.944772721475248
 30
0
 11
4.665000000000001
 21
9.119772721475249
 31
0
  0
LINE
  8
0
 62
7
 10
4.490000000000002
 20
8.732640687119284
 30
0
 11
4.665000000000001
 21
8.907640687119285
 31
0
  0
LINE
  8
0
 62
7
 10
4.490000000000002
 20
8.52050865276332
 30
0
 11
4.665000000000001
 21
8.695508652763321
 31
0
  0
LINE
  8
0
 62
7
 10
4.490000000000002
 20
8.308376618407356
 30
0
 11
4.665000000000001
 21
8.483376618407357
 31
0
  0
ENDBLK
  8
0
  0
BLOCK
  8
0
  2
*X11
 70
1
 10
0
 20
0
 30
0
  0
LINE
  8
0
 62
7
 10
4.49
 20
7.99017856687341
 30
0
 11
4.599821433126586
 21
8.099999999999994
 31
0
  0
LINE
  8
0
 62
7
 10
4.661953467482553
 20
7.949999999999998
 30
0
 11
4.665000000000001
 21
7.953046532517447
 31
0
  0
LINE
  8
0
 62
7
 10
4.490000000000001
 20
8.096244584051393
 30
0
 11
4.493755415948604
 21
8.099999999999994
 31
0
  0
LINE
  8
0
 62
7
 10
4.555887450304573
 20
7.949999999999998
 30
0
 11
4.664999999999999
 21
8.059112549695426
 31
0
  0
ENDBLK
  8
0
  0
BLOCK
  8
0
  2
*X12
 70
1
 10
0
 20
0
 30
0
  0
LINE
  8
0
 62
7
 10
7.425000000000002
 20
11.13731060122938
 30
0
 11
7.487689398770626
 21
11.2
 31
0
  0
LINE
  8
0
 62
7
 10
7.549821433126593
 20
11.05
 30
0
 11
7.600000000000002
 21
11.10017856687341
 31
0
  0
LINE
  8
0
 62
7
 10
7.44375541594861
 20
11.05
 30
0
 11
7.593755415948609
 21
11.2
 31
0
  0
ENDBLK
  8
0
  0
BLOCK
  8
0
  2
*X13
 70
1
 10
0
 20
0
 30
0
  0
LINE
  8
0
 62
7
 10
7.425
 20
10.71304653251744
 30
0
 11
7.561953467482555
 21
10.85
 31
0
  0
LINE
  8
0
 62
7
 10
7.425
 20
10.50091449816148
 30
0
 11
7.600000000000002
 21
10.67591449816148
 31
0
  0
LINE
  8
0
 62
7
 10
7.425
 20
10.28878246380551
 30
0
 11
7.600000000000002
 21
10.46378246380551
 31
0
  0
LINE
  8
0
 62
7
 10
7.425
 20
10.07665042944955
 30
0
 11
7.600000000000002
 21
10.25165042944955
 31
0
  0
LINE
  8
0
 62
7
 10
7.425
 20
9.864518395093585
 30
0
 11
7.600000000000002
 21
10.03951839509359
 31
0
  0
LINE
  8
0
 62
7
 10
7.425
 20
9.652386360737621
 30
0
 11
7.600000000000002
 21
9.827386360737622
 31
0
  0
LINE
  8
0
 62
7
 10
7.425
 20
9.440254326381657
 30
0
 11
7.600000000000002
 21
9.615254326381658
 31
0
  0
LINE
  8
0
 62
7
 10
7.425
 20
9.228122292025693
 30
0
 11
7.600000000000002
 21
9.403122292025694
 31
0
  0
LINE
  8
0
 62
7
 10
7.425
 20
9.01599025766973
 30
0
 11
7.600000000000002
 21
9.19099025766973
 31
0
  0
LINE
  8
0
 62
7
 10
7.425
 20
8.803858223313766
 30
0
 11
7.600000000000002
 21
8.978858223313766
 31
0
  0
LINE
  8
0
 62
7
 10
7.425
 20
8.591726188957802
 30
0
 11
7.600000000000002
 21
8.766726188957803
 31
0
  0
LINE
  8
0
 62
7
 10
7.425
 20
8.379594154601838
 30
0
 11
7.600000000000002
 21
8.554594154601839
 31
0
  0
LINE
  8
0
 62
7
 10
7.557537879754124
 20
8.299999999999997
 30
0
 11
7.600000000000002
 21
8.342462120245875
 31
0
  0
LINE
  8
0
 62
7
 10
7.425000000000001
 20
10.81911254969542
 30
0
 11
7.455887450304573
 21
10.85
 31
0
  0
LINE
  8
0
 62
7
 10
7.425000000000001
 20
10.60698051533946
 30
0
 11
7.600000000000002
 21
10.78198051533946
 31
0
  0
LINE
  8
0
 62
7
 10
7.425000000000001
 20
10.3948484809835
 30
0
 11
7.600000000000002
 21
10.5698484809835
 31
0
  0
LINE
  8
0
 62
7
 10
7.425000000000001
 20
10.18271644662753
 30
0
 11
7.600000000000002
 21
10.35771644662753
 31
0
  0
LINE
  8
0
 62
7
 10
7.425000000000001
 20
9.970584412271569
 30
0
 11
7.600000000000002
 21
10.14558441227157
 31
0
  0
LINE
  8
0
 62
7
 10
7.425000000000001
 20
9.758452377915605
 30
0
 11
7.600000000000002
 21
9.933452377915604
 31
0
  0
LINE
  8
0
 62
7
 10
7.425000000000001
 20
9.546320343559641
 30
0
 11
7.600000000000002
 21
9.72132034355964
 31
0
  0
LINE
  8
0
 62
7
 10
7.425000000000001
 20
9.334188309203677
 30
0
 11
7.600000000000002
 21
9.509188309203676
 31
0
  0
LINE
  8
0
 62
7
 10
7.425000000000001
 20
9.122056274847713
 30
0
 11
7.600000000000002
 21
9.297056274847712
 31
0
  0
LINE
  8
0
 62
7
 10
7.425000000000001
 20
8.909924240491749
 30
0
 11
7.600000000000002
 21
9.084924240491748
 31
0
  0
LINE
  8
0
 62
7
 10
7.425000000000001
 20
8.697792206135786
 30
0
 11
7.600000000000002
 21
8.872792206135784
 31
0
  0
LINE
  8
0
 62
7
 10
7.425000000000001
 20
8.485660171779822
 30
0
 11
7.600000000000002
 21
8.660660171779821
 31
0
  0
LINE
  8
0
 62
7
 10
7.451471862576141
 20
8.299999999999997
 30
0
 11
7.600000000000002
 21
8.448528137423857
 31
0
  0
ENDBLK
  8
0
  0
BLOCK
  8
0
  2
*X14
 70
1
 10
0
 20
0
 30
0
  0
LINE
  8
0
 62
7
 10
7.425000000000001
 20
7.955330085889911
 30
0
 11
7.569669914110086
 21
8.099999999999996
 31
0
  0
LINE
  8
0
 62
7
 10
7.425000000000002
 20
8.061396103067892
 30
0
 11
7.463603896932104
 21
8.099999999999994
 31
0
  0
LINE
  8
0
 62
7
 10
7.525735931288072
 20
7.949999999999999
 30
0
 11
7.600000000000001
 21
8.024264068711929
 31
0
  0
ENDBLK
  8
0
  0
BLOCK
  8
0
  2
*X15
 70
1
 10
0
 20
0
 30
0
  0
LINE
  8
0
 62
7
 10
4.49
 20
5.656726188957803
 30
0
 11
4.523273811042196
 21
5.689999999999998
 31
0
  0
LINE
  8
0
 62
7
 10
4.34
 20
5.506726188957803
 30
0
 11
4.373273811042196
 21
5.539999999999999
 31
0
  0
LINE
  8
0
 62
7
 10
4.345405845398169
 20
5.300000000000001
 30
0
 11
4.665
 21
5.619594154601838
 31
0
  0
LINE
  8
0
 62
7
 10
4.557537879754133
 20
5.300000000000001
 30
0
 11
4.79753787975413
 21
5.539999999999999
 31
0
  0
LINE
  8
0
 62
7
 10
4.769669914110096
 20
5.300000000000001
 30
0
 11
5.009669914110094
 21
5.539999999999999
 31
0
  0
LINE
  8
0
 62
7
 10
4.98180194846606
 20
5.300000000000001
 30
0
 11
5.221801948466058
 21
5.539999999999999
 31
0
  0
LINE
  8
0
 62
7
 10
5.193933982822024
 20
5.300000000000001
 30
0
 11
5.433933982822022
 21
5.539999999999999
 31
0
  0
LINE
  8
0
 62
7
 10
5.406066017177988
 20
5.300000000000001
 30
0
 11
5.646066017177986
 21
5.539999999999999
 31
0
  0
LINE
  8
0
 62
7
 10
5.618198051533952
 20
5.300000000000001
 30
0
 11
5.858198051533949
 21
5.539999999999999
 31
0
  0
LINE
  8
0
 62
7
 10
5.830330085889916
 20
5.300000000000001
 30
0
 11
6.070330085889913
 21
5.539999999999999
 31
0
  0
LINE
  8
0
 62
7
 10
6.042462120245879
 20
5.300000000000001
 30
0
 11
6.282462120245877
 21
5.539999999999999
 31
0
  0
LINE
  8
0
 62
7
 10
6.254594154601843
 20
5.300000000000001
 30
0
 11
6.494594154601841
 21
5.539999999999999
 31
0
  0
LINE
  8
0
 62
7
 10
6.466726188957807
 20
5.300000000000001
 30
0
 11
6.706726188957805
 21
5.539999999999999
 31
0
  0
LINE
  8
0
 62
7
 10
6.678858223313771
 20
5.300000000000001
 30
0
 11
6.918858223313769
 21
5.539999999999999
 31
0
  0
LINE
  8
0
 62
7
 10
6.890990257669735
 20
5.300000000000001
 30
0
 11
7.130990257669732
 21
5.539999999999999
 31
0
  0
LINE
  8
0
 62
7
 10
7.425000000000001
 20
5.621877707974304
 30
0
 11
7.493122292025696
 21
5.689999999999999
 31
0
  0
LINE
  8
0
 62
7
 10
7.103122292025699
 20
5.300000000000001
 30
0
 11
7.343122292025696
 21
5.539999999999999
 31
0
  0
LINE
  8
0
 62
7
 10
7.315254326381663
 20
5.300000000000001
 30
0
 11
7.600000000000002
 21
5.584745673618341
 31
0
  0
LINE
  8
0
 62
7
 10
7.527386360737626
 20
5.300000000000001
 30
0
 11
7.765000000000001
 21
5.537613639262377
 31
0
  0
LINE
  8
0
 62
7
 10
7.73951839509359
 20
5.300000000000001
 30
0
 11
7.765000000000001
 21
5.325481604906413
 31
0
  0
LINE
  8
0
 62
7
 10
4.490000000000001
 20
5.550660171779821
 30
0
 11
4.629339828220179
 21
5.689999999999999
 31
0
  0
LINE
  8
0
 62
7
 10
4.340000000000001
 20
5.400660171779821
 30
0
 11
4.479339828220178
 21
5.539999999999999
 31
0
  0
LINE
  8
0
 62
7
 10
4.451471862576151
 20
5.300000000000001
 30
0
 11
4.691471862576148
 21
5.539999999999999
 31
0
  0
LINE
  8
0
 62
7
 10
4.663603896932115
 20
5.300000000000001
 30
0
 11
4.903603896932112
 21
5.539999999999999
 31
0
  0
LINE
  8
0
 62
7
 10
4.875735931288078
 20
5.300000000000001
 30
0
 11
5.115735931288076
 21
5.539999999999999
 31
0
  0
LINE
  8
0
 62
7
 10
5.087867965644042
 20
5.300000000000001
 30
0
 11
5.32786796564404
 21
5.539999999999999
 31
0
  0
LINE
  8
0
 62
7
 10
5.300000000000006
 20
5.300000000000001
 30
0
 11
5.540000000000004
 21
5.539999999999999
 31
0
  0
LINE
  8
0
 62
7
 10
5.51213203435597
 20
5.300000000000001
 30
0
 11
5.752132034355967
 21
5.539999999999999
 31
0
  0
LINE
  8
0
 62
7
 10
5.724264068711934
 20
5.300000000000001
 30
0
 11
5.964264068711931
 21
5.539999999999999
 31
0
  0
LINE
  8
0
 62
7
 10
5.936396103067898
 20
5.300000000000001
 30
0
 11
6.176396103067895
 21
5.539999999999999
 31
0
  0
LINE
  8
0
 62
7
 10
6.148528137423861
 20
5.300000000000001
 30
0
 11
6.388528137423859
 21
5.539999999999999
 31
0
  0
LINE
  8
0
 62
7
 10
6.360660171779825
 20
5.300000000000001
 30
0
 11
6.600660171779823
 21
5.539999999999999
 31
0
  0
LINE
  8
0
 62
7
 10
6.572792206135789
 20
5.300000000000001
 30
0
 11
6.812792206135787
 21
5.539999999999999
 31
0
  0
LINE
  8
0
 62
7
 10
6.784924240491753
 20
5.300000000000001
 30
0
 11
7.02492424049175
 21
5.539999999999999
 31
0
  0
LINE
  8
0
 62
7
 10
6.997056274847717
 20
5.300000000000001
 30
0
 11
7.237056274847714
 21
5.539999999999999
 31
0
  0
LINE
  8
0
 62
7
 10
7.209188309203681
 20
5.300000000000001
 30
0
 11
7.599188309203678
 21
5.689999999999999
 31
0
  0
LINE
  8
0
 62
7
 10
7.421320343559644
 20
5.300000000000001
 30
0
 11
7.661320343559642
 21
5.539999999999999
 31
0
  0
LINE
  8
0
 62
7
 10
7.633452377915608
 20
5.300000000000001
 30
0
 11
7.765000000000001
 21
5.431547622084393
 31
0
  0
ENDBLK
  8
0
  0
BLOCK
  8
0
  2
*X16
 70
1
 10
0
 20
0
 30
0
  0
LINE
  8
0
 62
7
 10
4.34
 20
5.082462120245875
 30
0
 11
4.517537879754132
 21
5.26
 31
0
  0
LINE
  8
0
 62
7
 10
4.489669914110088
 20
5.019999999999998
 30
0
 11
4.729669914110096
 21
5.26
 31
0
  0
LINE
  8
0
 62
7
 10
4.701801948466059
 20
5.02
 30
0
 11
4.941801948466059
 21
5.26
 31
0
  0
LINE
  8
0
 62
7
 10
4.49
 20
4.808198051533945
 30
0
 11
4.665
 21
4.983198051533944
 31
0
  0
LINE
  8
0
 62
7
 10
4.913933982822023
 20
5.02
 30
0
 11
5.153933982822023
 21
5.26
 31
0
  0
LINE
  8
0
 62
7
 10
4.49
 20
4.596066017177981
 30
0
 11
4.665
 21
4.77106601717798
 31
0
  0
LINE
  8
0
 62
7
 10
5.126066017177987
 20
5.02
 30
0
 11
5.366066017177987
 21
5.26
 31
0
  0
LINE
  8
0
 62
7
 10
4.49
 20
4.383933982822017
 30
0
 11
4.665
 21
4.558933982822016
 31
0
  0
LINE
  8
0
 62
7
 10
5.338198051533951
 20
5.02
 30
0
 11
5.578198051533951
 21
5.26
 31
0
  0
LINE
  8
0
 62
7
 10
4.49
 20
4.171801948466054
 30
0
 11
4.665
 21
4.346801948466053
 31
0
  0
LINE
  8
0
 62
7
 10
5.550330085889914
 20
5.02
 30
0
 11
5.790330085889915
 21
5.26
 31
0
  0
LINE
  8
0
 62
7
 10
4.49
 20
3.959669914110089
 30
0
 11
4.665
 21
4.134669914110089
 31
0
  0
LINE
  8
0
 62
7
 10
5.762462120245878
 20
5.02
 30
0
 11
6.002462120245879
 21
5.26
 31
0
  0
LINE
  8
0
 62
7
 10
4.49
 20
3.747537879754125
 30
0
 11
4.665
 21
3.922537879754125
 31
0
  0
LINE
  8
0
 62
7
 10
5.974594154601842
 20
5.02
 30
0
 11
6.214594154601842
 21
5.26
 31
0
  0
LINE
  8
0
 62
7
 10
4.49
 20
3.535405845398161
 30
0
 11
4.665
 21
3.710405845398161
 31
0
  0
LINE
  8
0
 62
7
 10
6.186726188957806
 20
5.02
 30
0
 11
6.426726188957806
 21
5.26
 31
0
  0
LINE
  8
0
 62
7
 10
4.49
 20
3.323273811042196
 30
0
 11
4.665
 21
3.498273811042196
 31
0
  0
LINE
  8
0
 62
7
 10
6.39885822331377
 20
5.02
 30
0
 11
6.63885822331377
 21
5.26
 31
0
  0
LINE
  8
0
 62
7
 10
4.628858223313767
 20
3.249999999999999
 30
0
 11
4.665
 21
3.286141776686232
 31
0
  0
LINE
  8
0
 62
7
 10
6.610990257669734
 20
5.02
 30
0
 11
6.850990257669734
 21
5.26
 31
0
  0
LINE
  8
0
 62
7
 10
6.823122292025698
 20
5.02
 30
0
 11
7.063122292025698
 21
5.26
 31
0
  0
LINE
  8
0
 62
7
 10
7.035254326381661
 20
5.02
 30
0
 11
7.275254326381662
 21
5.26
 31
0
  0
LINE
  8
0
 62
7
 10
7.247386360737625
 20
5.02
 30
0
 11
7.487386360737625
 21
5.26
 31
0
  0
LINE
  8
0
 62
7
 10
7.425000000000002
 20
4.98548160490641
 30
0
 11
7.699518395093589
 21
5.26
 31
0
  0
LINE
  8
0
 62
7
 10
7.671650429449555
 20
5.02
 30
0
 11
7.765000000000001
 21
5.113349570550446
 31
0
  0
LINE
  8
0
 62
7
 10
7.425000000000002
 20
4.773349570550447
 30
0
 11
7.600000000000001
 21
4.948349570550445
 31
0
  0
LINE
  8
0
 62
7
 10
7.425000000000002
 20
4.561217536194483
 30
0
 11
7.600000000000001
 21
4.736217536194482
 31
0
  0
LINE
  8
0
 62
7
 10
7.425000000000002
 20
4.349085501838519
 30
0
 11
7.600000000000001
 21
4.524085501838518
 31
0
  0
LINE
  8
0
 62
7
 10
7.425000000000002
 20
4.136953467482555
 30
0
 11
7.600000000000001
 21
4.311953467482554
 31
0
  0
LINE
  8
0
 62
7
 10
7.425000000000002
 20
3.924821433126591
 30
0
 11
7.600000000000001
 21
4.09982143312659
 31
0
  0
LINE
  8
0
 62
7
 10
7.425000000000002
 20
3.712689398770627
 30
0
 11
7.600000000000001
 21
3.887689398770626
 31
0
  0
LINE
  8
0
 62
7
 10
7.425000000000002
 20
3.500557364414663
 30
0
 11
7.600000000000001
 21
3.675557364414662
 31
0
  0
LINE
  8
0
 62
7
 10
7.486574669941303
 20
3.35
 30
0
 11
7.600000000000001
 21
3.463425330058697
 31
0
  0
LINE
  8
0
 62
7
 10
4.34
 20
5.188528137423857
 30
0
 11
4.411471862576152
 21
5.260000000000002
 31
0
  0
LINE
  8
0
 62
7
 10
4.383603896932106
 20
5.019999999999999
 30
0
 11
4.623603896932115
 21
5.260000000000002
 31
0
  0
LINE
  8
0
 62
7
 10
4.49
 20
4.914264068711926
 30
0
 11
4.835735931288079
 21
5.260000000000002
 31
0
  0
LINE
  8
0
 62
7
 10
4.807867965644039
 20
5.019999999999998
 30
0
 11
5.047867965644043
 21
5.260000000000002
 31
0
  0
LINE
  8
0
 62
7
 10
4.49
 20
4.702132034355962
 30
0
 11
4.665
 21
4.877132034355962
 31
0
  0
LINE
  8
0
 62
7
 10
5.020000000000003
 20
5.019999999999998
 30
0
 11
5.260000000000007
 21
5.260000000000002
 31
0
  0
LINE
  8
0
 62
7
 10
4.49
 20
4.489999999999998
 30
0
 11
4.665
 21
4.664999999999998
 31
0
  0
LINE
  8
0
 62
7
 10
5.232132034355967
 20
5.019999999999998
 30
0
 11
5.472132034355971
 21
5.260000000000002
 31
0
  0
LINE
  8
0
 62
7
 10
4.49
 20
4.277867965644035
 30
0
 11
4.665
 21
4.452867965644034
 31
0
  0
LINE
  8
0
 62
7
 10
5.444264068711931
 20
5.019999999999998
 30
0
 11
5.684264068711935
 21
5.260000000000002
 31
0
  0
LINE
  8
0
 62
7
 10
4.49
 20
4.065735931288071
 30
0
 11
4.665
 21
4.240735931288071
 31
0
  0
LINE
  8
0
 62
7
 10
5.656396103067895
 20
5.019999999999998
 30
0
 11
5.896396103067898
 21
5.260000000000002
 31
0
  0
LINE
  8
0
 62
7
 10
4.49
 20
3.853603896932106
 30
0
 11
4.665
 21
4.028603896932107
 31
0
  0
LINE
  8
0
 62
7
 10
5.868528137423858
 20
5.019999999999998
 30
0
 11
6.108528137423862
 21
5.260000000000002
 31
0
  0
LINE
  8
0
 62
7
 10
4.49
 20
3.641471862576142
 30
0
 11
4.665
 21
3.816471862576142
 31
0
  0
LINE
  8
0
 62
7
 10
6.080660171779822
 20
5.019999999999998
 30
0
 11
6.320660171779826
 21
5.260000000000002
 31
0
  0
LINE
  8
0
 62
7
 10
4.49
 20
3.429339828220178
 30
0
 11
4.665
 21
3.604339828220178
 31
0
  0
LINE
  8
0
 62
7
 10
6.292792206135786
 20
5.019999999999998
 30
0
 11
6.53279220613579
 21
5.260000000000002
 31
0
  0
LINE
  8
0
 62
7
 10
4.522792206135787
 20
3.25
 30
0
 11
4.665000000000001
 21
3.392207793864214
 31
0
  0
LINE
  8
0
 62
7
 10
6.50492424049175
 20
5.019999999999998
 30
0
 11
6.744924240491754
 21
5.260000000000002
 31
0
  0
LINE
  8
0
 62
7
 10
6.717056274847714
 20
5.019999999999998
 30
0
 11
6.957056274847718
 21
5.260000000000002
 31
0
  0
LINE
  8
0
 62
7
 10
6.929188309203678
 20
5.019999999999998
 30
0
 11
7.169188309203681
 21
5.260000000000002
 31
0
  0
LINE
  8
0
 62
7
 10
7.141320343559642
 20
5.019999999999998
 30
0
 11
7.381320343559645
 21
5.260000000000002
 31
0
  0
LINE
  8
0
 62
7
 10
7.353452377915605
 20
5.019999999999998
 30
0
 11
7.593452377915609
 21
5.260000000000002
 31
0
  0
LINE
  8
0
 62
7
 10
7.425000000000001
 20
4.879415587728428
 30
0
 11
7.765
 21
5.219415587728427
 31
0
  0
LINE
  8
0
 62
7
 10
7.425000000000001
 20
4.667283553372464
 30
0
 11
7.600000000000001
 21
4.842283553372464
 31
0
  0
LINE
  8
0
 62
7
 10
7.425000000000001
 20
4.4551515190165
 30
0
 11
7.600000000000001
 21
4.630151519016501
 31
0
  0
LINE
  8
0
 62
7
 10
7.425000000000001
 20
4.243019484660536
 30
0
 11
7.600000000000001
 21
4.418019484660537
 31
0
  0
LINE
  8
0
 62
7
 10
7.425000000000001
 20
4.030887450304572
 30
0
 11
7.600000000000001
 21
4.205887450304573
 31
0
  0
LINE
  8
0
 62
7
 10
7.425000000000001
 20
3.818755415948608
 30
0
 11
7.600000000000001
 21
3.993755415948609
 31
0
  0
LINE
  8
0
 62
7
 10
7.425000000000001
 20
3.606623381592644
 30
0
 11
7.600000000000001
 21
3.781623381592645
 31
0
  0
LINE
  8
0
 62
7
 10
7.425000000000001
 20
3.394491347236679
 30
0
 11
7.600000000000001
 21
3.56949134723668
 31
0
  0
LINE
  8
0
 62
7
 10
7.592640687119285
 20
3.35
 30
0
 11
7.600000000000001
 21
3.357359312880716
 31
0
  0
ENDBLK
  8
0
  0
BLOCK
  8
0
  2
*D0
 70
1
 10
0
 20
0
 30
0
  0
LINE
  8
0
 62
7
 10
8.024767488502819
 20
4.59963366121615
 30
0
 11
8.024767488502819
 21
5.02
 31
0
  0
LINE
  8
0
 62
7
 10
8.024767488502819
 20
3.35
 30
0
 11
8.024767488502819
 21
3.85463366121615
 31
0
  0
LINE
  8
0
 62
7
 10
7.600000000000001
 20
5.02
 30
0
 11
8.07476748850282
 21
5.02
 31
0
  0
LINE
  8
0
 62
7
 10
7.600000000000001
 20
3.35
 30
0
 11
8.07476748850282
 21
3.35
 31
0
  0
LINE
  8
0
 62
7
 10
8.060122827562147
 20
4.984644660940673
 30
0
 11
7.989412149443492
 21
5.055355339059328
 31
0
  0
LINE
  8
0
 62
7
 10
7.989412149443492
 20
3.385355339059327
 30
0
 11
8.060122827562147
 21
3.314644660940672
 31
0
  0
TEXT
  8
0
 62
7
 10
8.069767488502819
 20
4.10463366121615
 30
0
 40
0.1
  1
1,67
 50
90
 41
0.9
  0
ENDBLK
  8
0
  0
BLOCK
  8
0
  2
*D1
 70
1
 10
0
 20
0
 30
0
  0
LINE
  8
0
 62
7
 10
6.442555495656621
 20
5.88787122381196
 30
0
 11
7.425000000000001
 21
5.88787122381196
 31
0
  0
LINE
  8
0
 62
7
 10
4.665000000000001
 20
5.88787122381196
 30
0
 11
5.667555495656621
 21
5.88787122381196
 31
0
  0
LINE
  8
0
 62
7
 10
7.425000000000001
 20
5.539999999999998
 30
0
 11
7.425000000000001
 21
5.93787122381196
 31
0
  0
LINE
  8
0
 62
7
 10
4.665000000000001
 20
5.539999999999998
 30
0
 11
4.665000000000001
 21
5.93787122381196
 31
0
  0
LINE
  8
0
 62
7
 10
4.700355339059328
 20
5.923226562871287
 30
0
 11
4.629644660940674
 21
5.852515884752632
 31
0
  0
LINE
  8
0
 62
7
 10
7.389644660940673
 20
5.852515884752632
 30
0
 11
7.460355339059328
 21
5.923226562871287
 31
0
  0
TEXT
  8
0
 62
7
 10
5.917555495656621
 20
5.84287122381196
 30
0
 40
0.1
  1
2,76
 41
0.9
  0
ENDBLK
  8
0
  0
BLOCK
  8
0
  2
*D2
 70
1
 10
0
 20
0
 30
0
  0
LINE
  8
0
 62
7
 10
4.201208914154321
 20
4.496642184466021
 30
0
 11
4.201208914154321
 21
5.02
 31
0
  0
LINE
  8
0
 62
7
 10
4.201208914154321
 20
3.25
 30
0
 11
4.201208914154321
 21
3.75164218446602
 31
0
  0
LINE
  8
0
 62
7
 10
4.490000000000001
 20
5.02
 30
0
 11
4.151208914154322
 21
5.02
 31
0
  0
LINE
  8
0
 62
7
 10
4.490000000000001
 20
3.25
 30
0
 11
4.151208914154322
 21
3.25
 31
0
  0
LINE
  8
0
 62
7
 10
4.165853575094994
 20
3.285355339059327
 30
0
 11
4.236564253213649
 21
3.214644660940673
 31
0
  0
LINE
  8
0
 62
7
 10
4.236564253213649
 20
4.984644660940673
 30
0
 11
4.165853575094994
 21
5.055355339059328
 31
0
  0
TEXT
  8
0
 62
7
 10
4.246208914154321
 20
4.001642184466021
 30
0
 40
0.1
  1
1,77
 50
90
 41
0.9
  0
ENDBLK
  8
0
  0
BLOCK
  8
0
  2
*D3
 70
1
 10
0
 20
0
 30
0
  0
LINE
  8
0
 62
7
 10
6.379681561062862
 20
11.4751588375064
 30
0
 11
7.425000000000001
 21
11.4751588375064
 31
0
  0
LINE
  8
0
 62
7
 10
4.665
 20
11.4751588375064
 30
0
 11
5.704681561062861
 21
11.4751588375064
 31
0
  0
LINE
  8
0
 62
7
 10
7.425000000000001
 20
11.2
 30
0
 11
7.425000000000001
 21
11.5251588375064
 31
0
  0
LINE
  8
0
 62
7
 10
4.665
 20
11.2
 30
0
 11
4.665
 21
11.5251588375064
 31
0
  0
LINE
  8
0
 62
7
 10
7.389644660940673
 20
11.43980349844707
 30
0
 11
7.460355339059328
 21
11.51051417656573
 31
0
  0
LINE
  8
0
 62
7
 10
4.700355339059327
 20
11.51051417656573
 30
0
 11
4.629644660940673
 21
11.43980349844707
 31
0
  0
TEXT
  8
0
 62
7
 10
5.904681561062861
 20
11.4301588375064
 30
0
 40
0.1
  1
2,76
 41
0.9
  0
ENDBLK
  8
0
  0
BLOCK
  8
0
  2
*D4
 70
1
 10
0
 20
0
 30
0
  0
LINE
  8
0
 62
7
 10
8.15350683444048
 20
10.27717766734799
 30
0
 11
8.15350683444048
 21
11.05
 31
0
  0
LINE
  8
0
 62
7
 10
8.15350683444048
 20
8.299999999999997
 30
0
 11
8.15350683444048
 21
9.19717766734799
 31
0
  0
LINE
  8
0
 62
7
 10
7.75
 20
11.05
 30
0
 11
8.20350683444048
 21
11.05
 31
0
  0
LINE
  8
0
 62
7
 10
7.75
 20
8.299999999999997
 30
0
 11
8.20350683444048
 21
8.299999999999997
 31
0
  0
LINE
  8
0
 62
7
 10
8.118151495381152
 20
8.335355339059324
 30
0
 11
8.188862173499807
 21
8.26464466094067
 31
0
  0
LINE
  8
0
 62
7
 10
8.188862173499807
 20
11.01464466094067
 30
0
 11
8.118151495381152
 21
11.08535533905933
 31
0
  0
TEXT
  8
0
 62
7
 10
8.12350683444048
 20
9.599677667347992
 30
0
 40
0.1
  1
2,75
 50
90
 41
0.9
  0
TEXT
  8
0
 62
7
 10
8.28350683444048
 20
9.397177667347991
 30
0
 40
0.1
  1
(260-280)
 50
90
 41
0.9
  0
ENDBLK
  8
0
  0
ENDSEC
  0
SECTION
  2
ENTITIES
  0
INSERT
  8
0
  2
*X0
 10
0
 20
0
 30
0
  0
INSERT
  8
0
  2
*X1
 10
0
 20
0
 30
0
  0
INSERT
  8
0
  2
*X2
 10
0
 20
0
 30
0
  0
INSERT
  8
0
  2
*X3
 10
0
 20
0
 30
0
  0
INSERT
  8
0
  2
*X4
 10
0
 20
0
 30
0
  0
INSERT
  8
0
  2
*X5
 10
0
 20
0
 30
0
  0
INSERT
  8
0
  2
*X6
 10
0
 20
0
 30
0
  0
INSERT
  8
0
  2
*X7
 10
0
 20
0
 30
0
  0
INSERT
  8
0
  2
*X8
 10
0
 20
0
 30
0
  0
INSERT
  8
0
  2
*X9
 10
0
 20
0
 30
0
  0
INSERT
  8
0
  2
*X10
 10
0
 20
0
 30
0
  0
INSERT
  8
0
  2
*X11
 10
0
 20
0
 30
0
  0
INSERT
  8
0
  2
*X12
 10
0
 20
0
 30
0
  0
INSERT
  8
0
  2
*X13
 10
0
 20
0
 30
0
  0
INSERT
  8
0
  2
*X14
 10
0
 20
0
 30
0
  0
INSERT
  8
0
  2
*X15
 10
0
 20
0
 30
0
  0
INSERT
  8
0
  2
*X16
 10
0
 20
0
 30
0
  0
LINE
  8
0
 62
7
 10
6.420000000000001
 20
3.954851965481138
 30
0
 11
6.420000000000001
 21
3.743746276770681
 31
0
  0
LINE
  8
0
 62
7
 10
6.365265288587842
 20
4.015000000000001
 30
0
 11
6.420000000000001
 21
3.954851965481138
 31
0
  0
LINE
  8
0
 62
7
 10
6.211846846097703
 20
4.015
 30
0
 11
6.301911935953021
 21
4.015
 31
0
  0
LINE
  8
0
 62
7
 10
6.211846846097703
 20
4.015
 30
0
 11
6.365265288587842
 21
4.015000000000001
 31
0
  0
LINE
  8
0
 62
7
 10
5.73857079201554
 20
4.015000000000001
 30
0
 11
5.916878171439673
 21
4.015
 31
0
  0
LINE
  8
0
 62
7
 10
5.670000000000001
 20
3.973404998152001
 30
0
 11
5.73857079201554
 21
4.015000000000001
 31
0
  0
LINE
  8
0
 62
7
 10
5.670000000000001
 20
3.80234862166642
 30
0
 11
5.670000000000001
 21
3.90173848161609
 31
0
  0
LINE
  8
0
 62
7
 10
5.670000000000001
 20
3.80234862166642
 30
0
 11
5.670000000000001
 21
3.973404998152001
 31
0
  0
LINE
  8
0
 62
7
 10
4.720000000000001
 20
3.25
 30
0
 11
5.670000000000001
 21
3.25
 31
0
  0
LINE
  8
0
 62
7
 10
5.670000000000001
 20
3.25
 30
0
 11
5.670000000000001
 21
3.6
 31
0
  0
LINE
  8
0
 62
7
 10
4.720000000000001
 20
3.6
 30
0
 11
4.720000000000001
 21
3.25
 31
0
  0
LINE
  8
0
 62
7
 10
4.720000000000001
 20
3.51
 30
0
 11
5.670000000000001
 21
3.51
 31
0
  0
LINE
  8
0
 62
7
 10
5.670000000000001
 20
3.51
 30
0
 11
5.670000000000001
 21
3.79112804167914
 31
0
  0
LINE
  8
0
 62
7
 10
4.720000000000001
 20
3.927540583488371
 30
0
 11
4.720000000000001
 21
3.51
 31
0
  0
LINE
  8
0
 62
7
 10
4.720000000000001
 20
3.836617475791842
 30
0
 11
5.670000000000001
 21
3.7002049339826
 31
0
  0
LINE
  8
0
 62
7
 10
5.670000000000001
 20
3.7002049339826
 30
0
 11
5.670000000000001
 21
3.80234862166642
 31
0
  0
LINE
  8
0
 62
7
 10
4.720000000000001
 20
4.346870684947452
 30
0
 11
4.720000000000001
 21
3.836617475791842
 31
0
  0
LINE
  8
0
 62
7
 10
4.720000000000001
 20
4.24748082499778
 30
0
 11
5.670000000000001
 21
3.80234862166642
 31
0
  0
LINE
  8
0
 62
7
 10
4.720000000000001
 20
4.923489263955552
 30
0
 11
4.720000000000001
 21
4.24748082499778
 31
0
  0
LINE
  8
0
 62
7
 10
4.720000000000001
 20
4.79862692223609
 30
0
 11
5.613667526036429
 21
3.93923375279018
 31
0
  0
LINE
  8
0
 62
7
 10
5.613667526036429
 20
3.93923375279018
 30
0
 11
5.670000000000001
 21
3.973404998152001
 31
0
  0
LINE
  8
0
 62
7
 10
5.263730120700029
 20
4.965
 30
0
 11
4.720000000000001
 21
4.965
 31
0
  0
LINE
  8
0
 62
7
 10
4.720000000000001
 20
4.965
 30
0
 11
4.720000000000001
 21
4.79862692223609
 31
0
  0
LINE
  8
0
 62
7
 10
5.159928219987671
 20
4.965
 30
0
 11
5.705848919111522
 21
4.015
 31
0
  0
LINE
  8
0
 62
7
 10
5.705848919111522
 20
4.015
 30
0
 11
5.73857079201554
 21
4.015000000000001
 31
0
  0
LINE
  8
0
 62
7
 10
5.693881308383142
 20
4.965
 30
0
 11
5.159928219987671
 21
4.965
 31
0
  0
LINE
  8
0
 62
7
 10
5.60143506096274
 20
4.965
 30
0
 11
5.824431924019272
 21
4.015
 31
0
  0
LINE
  8
0
 62
7
 10
5.824431924019272
 20
4.015
 30
0
 11
6.109051336494369
 21
4.015
 31
0
  0
LINE
  8
0
 62
7
 10
6.014704372245502
 20
4.965
 30
0
 11
5.60143506096274
 21
4.965
 31
0
  0
LINE
  8
0
 62
7
 10
5.92426162665658
 20
4.965
 30
0
 11
6.018608590905451
 21
4.015
 31
0
  0
LINE
  8
0
 62
7
 10
6.018608590905451
 20
4.015
 30
0
 11
6.211846846097703
 21
4.015
 31
0
  0
LINE
  8
0
 62
7
 10
6.338048970423699
 20
4.965
 30
0
 11
5.92426162665658
 21
4.965
 31
0
  0
LINE
  8
0
 62
7
 10
6.247983880568391
 20
4.965000000000011
 30
0
 11
6.211846846097703
 21
4.015
 31
0
  0
LINE
  8
0
 62
7
 10
6.747685287082461
 20
4.965
 30
0
 11
6.247983880568391
 21
4.965000000000011
 31
0
  0
LINE
  8
0
 62
7
 10
6.65245496628376
 20
4.965
 30
0
 11
6.335295136842269
 21
4.047934232687431
 31
0
  0
LINE
  8
0
 62
7
 10
6.335295136842269
 20
4.047934232687431
 30
0
 11
6.365265288587842
 21
4.015000000000001
 31
0
  0
LINE
  8
0
 62
7
 10
7.256276233637251
 20
4.965
 30
0
 11
6.65245496628376
 21
4.965
 31
0
  0
LINE
  8
0
 62
7
 10
7.14502965322895
 20
4.965
 30
0
 11
6.420000000000001
 21
3.96709429994145
 31
0
  0
LINE
  8
0
 62
7
 10
6.420000000000001
 20
3.96709429994145
 30
0
 11
6.420000000000001
 21
3.954851965481138
 31
0
  0
LINE
  8
0
 62
7
 10
7.370000000000001
 20
4.41735912544383
 30
0
 11
7.370000000000001
 21
4.965
 31
0
  0
LINE
  8
0
 62
7
 10
7.370000000000001
 20
4.965
 30
0
 11
7.14502965322895
 21
4.965
 31
0
  0
LINE
  8
0
 62
7
 10
7.370000000000001
 20
4.52768806994959
 30
0
 11
6.420000000000001
 21
3.854075221276451
 31
0
  0
LINE
  8
0
 62
7
 10
6.420000000000001
 20
3.854075221276451
 30
0
 11
6.420000000000001
 21
3.636758244306371
 31
0
  0
LINE
  8
0
 62
7
 10
7.370000000000001
 20
4.00247220494306
 30
0
 11
7.370000000000001
 21
4.52768806994959
 31
0
  0
LINE
  8
0
 62
7
 10
7.370000000000001
 20
4.09891071334999
 30
0
 11
6.420000000000001
 21
3.733196752713301
 31
0
  0
LINE
  8
0
 62
7
 10
6.420000000000001
 20
3.733196752713301
 30
0
 11
6.420000000000001
 21
3.5236045486662
 31
0
  0
LINE
  8
0
 62
7
 10
7.370000000000001
 20
3.614099059228991
 30
0
 11
7.370000000000001
 21
4.09891071334999
 31
0
  0
LINE
  8
0
 62
7
 10
7.370000000000001
 20
3.704506465693781
 30
0
 11
6.420000000000001
 21
3.614011955130991
 31
0
  0
LINE
  8
0
 62
7
 10
6.420000000000001
 20
3.614011955130991
 30
0
 11
6.420000000000001
 21
3.39
 31
0
  0
LINE
  8
0
 62
7
 10
7.370000000000001
 20
3.39
 30
0
 11
7.370000000000001
 21
3.704506465693781
 31
0
  0
LINE
  8
0
 62
7
 10
5.183935362268588
 20
3.25
 30
0
 11
5.183935362268588
 21
4.014999728198891
 31
0
  0
LINE
  8
0
 62
7
 10
5.670000271856821
 20
4.501064637731409
 30
0
 11
6.419999728165182
 21
4.501064637731409
 31
0
  0
LINE
  8
0
 62
7
 10
6.906064637731411
 20
3.4
 30
0
 11
6.800409538469712
 21
3.461
 31
0
  0
LINE
  8
0
 62
7
 10
6.800409538469712
 20
3.461
 30
0
 11
7.011719736993109
 21
3.461
 31
0
  0
LINE
  8
0
 62
7
 10
7.011719736993109
 20
3.461
 30
0
 11
6.906064637731411
 21
3.4
 31
0
  0
LINE
  8
0
 62
7
 10
6.906064637731411
 20
4.014999728142871
 30
0
 11
6.906064637731411
 21
3.4
 31
0
  0
LINE
  8
0
 62
7
 10
2.16000015
 20
8.58333322666666
 30
0
 11
2.510000440000002
 21
8.58333322666666
 31
0
  0
LINE
  8
0
 62
7
 10
2.510000440000002
 20
8.58333322666666
 30
0
 11
2.510000440000002
 21
8.518333226666661
 31
0
  0
LINE
  8
0
 62
7
 10
2.16000015
 20
8.518333226666661
 30
0
 11
2.16000015
 21
8.58333322666666
 31
0
  0
LINE
  8
0
 62
7
 10
2.510000440000002
 20
8.518333226666661
 30
0
 11
2.16000015
 21
8.518333226666661
 31
0
  0
LINE
  8
0
 62
7
 10
1.832459559999999
 20
8.766666566666663
 30
0
 11
2.250000259999999
 21
8.766666566666663
 31
0
  0
LINE
  8
0
 62
7
 10
2.250000259999999
 20
8.701666566666661
 30
0
 11
1.832459559999999
 21
8.701666566666661
 31
0
  0
LINE
  8
0
 62
7
 10
2.250000259999999
 20
8.766666566666663
 30
0
 11
2.250000259999999
 21
8.701666566666661
 31
0
  0
LINE
  8
0
 62
7
 10
1.832459559999999
 20
8.701666566666661
 30
0
 11
1.832459559999999
 21
8.766666566666663
 31
0
  0
LINE
  8
0
 62
7
 10
2.05979507
 20
8.884999906666662
 30
0
 11
1.413129420000001
 21
8.884999906666662
 31
0
  0
LINE
  8
0
 62
7
 10
1.413129420000001
 20
8.949999906666664
 30
0
 11
2.05979507
 21
8.949999906666664
 31
0
  0
LINE
  8
0
 62
7
 10
2.05979507
 20
8.949999906666664
 30
0
 11
2.05979507
 21
8.884999906666662
 31
0
  0
LINE
  8
0
 62
7
 10
1.413129420000001
 20
8.884999906666662
 30
0
 11
1.413129420000001
 21
8.949999906666664
 31
0
  0
LINE
  8
0
 62
7
 10
1.957651590000002
 20
9.068333226666661
 30
0
 11
0.8365109200000007
 21
9.068333226666661
 31
0
  0
LINE
  8
0
 62
7
 10
0.8365109200000007
 20
9.133333226666661
 30
0
 11
1.957651590000002
 21
9.133333226666661
 31
0
  0
LINE
  8
0
 62
7
 10
1.957651590000002
 20
9.133333226666661
 30
0
 11
1.957651590000002
 21
9.068333226666661
 31
0
  0
LINE
  8
0
 62
7
 10
0.8365109200000007
 20
9.068333226666661
 30
0
 11
0.8365109200000007
 21
9.133333226666661
 31
0
  0
LINE
  8
0
 62
7
 10
1.82076629
 20
9.251666586666662
 30
0
 11
0.7950001499999999
 21
9.251666586666662
 31
0
  0
LINE
  8
0
 62
7
 10
0.7950001499999999
 20
9.316666586666662
 30
0
 11
1.82076629
 21
9.316666586666662
 31
0
  0
LINE
  8
0
 62
7
 10
1.82076629
 20
9.316666586666662
 30
0
 11
1.82076629
 21
9.251666586666662
 31
0
  0
LINE
  8
0
 62
7
 10
0.7950001499999999
 20
9.251666586666662
 30
0
 11
0.7950001499999999
 21
9.316666586666662
 31
0
  0
LINE
  8
0
 62
7
 10
0.7950001499999999
 20
9.499999946666664
 30
0
 11
1.745000230000002
 21
9.499999946666664
 31
0
  0
LINE
  8
0
 62
7
 10
1.745000230000002
 20
9.499999946666664
 30
0
 11
1.745000230000002
 21
9.434999946666663
 31
0
  0
LINE
  8
0
 62
7
 10
0.7950001499999999
 20
9.434999946666663
 30
0
 11
0.7950001499999999
 21
9.499999946666664
 31
0
  0
LINE
  8
0
 62
7
 10
1.745000230000002
 20
9.434999946666663
 30
0
 11
0.7950001499999999
 21
9.434999946666663
 31
0
  0
LINE
  8
0
 62
7
 10
0.7950001499999999
 20
9.683333226666662
 30
0
 11
1.7450003
 21
9.683333226666662
 31
0
  0
LINE
  8
0
 62
7
 10
1.7450003
 20
9.683333226666662
 30
0
 11
1.7450003
 21
9.618333226666662
 31
0
  0
LINE
  8
0
 62
7
 10
0.7950001499999999
 20
9.618333226666662
 30
0
 11
0.7950001499999999
 21
9.683333226666662
 31
0
  0
LINE
  8
0
 62
7
 10
1.7450003
 20
9.618333226666662
 30
0
 11
0.7950001499999999
 21
9.618333226666662
 31
0
  0
LINE
  8
0
 62
7
 10
0.795
 20
9.866666666666664
 30
0
 11
1.745000380000001
 21
9.866666666666664
 31
0
  0
LINE
  8
0
 62
7
 10
1.745000380000001
 20
9.866666666666664
 30
0
 11
1.745000380000001
 21
9.801666666666662
 31
0
  0
LINE
  8
0
 62
7
 10
0.795
 20
9.801666666666662
 30
0
 11
0.795
 21
9.866666666666664
 31
0
  0
LINE
  8
0
 62
7
 10
1.745000380000001
 20
9.801666666666662
 30
0
 11
0.795
 21
9.801666666666662
 31
0
  0
LINE
  8
0
 62
7
 10
0.7949998400000005
 20
10.04999994666666
 30
0
 11
1.745
 21
10.04999994666666
 31
0
  0
LINE
  8
0
 62
7
 10
1.745
 20
10.04999994666666
 30
0
 11
1.745
 21
9.984999946666663
 31
0
  0
LINE
  8
0
 62
7
 10
0.7949998400000005
 20
9.984999946666663
 30
0
 11
0.7949998400000005
 21
10.04999994666666
 31
0
  0
LINE
  8
0
 62
7
 10
1.745
 20
9.984999946666663
 30
0
 11
0.7949998400000005
 21
9.984999946666663
 31
0
  0
LINE
  8
0
 62
7
 10
0.7950001499999999
 20
10.23333322666666
 30
0
 11
1.867689210000001
 21
10.23333322666666
 31
0
  0
LINE
  8
0
 62
7
 10
1.867689210000001
 20
10.16833322666666
 30
0
 11
0.7950001499999999
 21
10.16833322666666
 31
0
  0
LINE
  8
0
 62
7
 10
1.867689210000001
 20
10.23333322666666
 30
0
 11
1.867689210000001
 21
10.16833322666666
 31
0
  0
LINE
  8
0
 62
7
 10
0.7950001499999999
 20
10.16833322666666
 30
0
 11
0.7950001499999999
 21
10.23333322666666
 31
0
  0
LINE
  8
0
 62
7
 10
2.016253959999998
 20
10.35166666666666
 30
0
 11
0.7950002999999999
 21
10.35166666666666
 31
0
  0
LINE
  8
0
 62
7
 10
0.7950002999999999
 20
10.41666666666666
 30
0
 11
2.016253959999998
 21
10.41666666666666
 31
0
  0
LINE
  8
0
 62
7
 10
2.016253959999998
 20
10.41666666666666
 30
0
 11
2.016253959999998
 21
10.35166666666666
 31
0
  0
LINE
  8
0
 62
7
 10
0.7950002999999999
 20
10.35166666666666
 30
0
 11
0.7950002999999999
 21
10.41666666666666
 31
0
  0
LINE
  8
0
 62
7
 10
2.123241989999999
 20
10.53499994666666
 30
0
 11
1.232312010000002
 21
10.53499994666666
 31
0
  0
LINE
  8
0
 62
7
 10
1.232312010000002
 20
10.59999994666666
 30
0
 11
2.123241989999999
 21
10.59999994666666
 31
0
  0
LINE
  8
0
 62
7
 10
2.123241989999999
 20
10.59999994666666
 30
0
 11
2.123241989999999
 21
10.53499994666666
 31
0
  0
LINE
  8
0
 62
7
 10
1.232312010000002
 20
10.53499994666666
 30
0
 11
1.232312010000002
 21
10.59999994666666
 31
0
  0
LINE
  8
0
 62
7
 10
2.236395410000001
 20
10.71833322666666
 30
0
 11
1.661089549999999
 21
10.71833322666666
 31
0
  0
LINE
  8
0
 62
7
 10
1.661089549999999
 20
10.78333322666666
 30
0
 11
2.236395410000001
 21
10.78333322666666
 31
0
  0
LINE
  8
0
 62
7
 10
2.236395410000001
 20
10.78333322666666
 30
0
 11
2.236395410000001
 21
10.71833322666666
 31
0
  0
LINE
  8
0
 62
7
 10
1.661089549999999
 20
10.71833322666666
 30
0
 11
1.661089549999999
 21
10.78333322666666
 31
0
  0
LINE
  8
0
 62
7
 10
2.055493619999999
 20
10.96666666666666
 30
0
 11
2.37000042
 21
10.96666666666666
 31
0
  0
LINE
  8
0
 62
7
 10
2.37000042
 20
10.90166666666666
 30
0
 11
2.055493619999999
 21
10.90166666666666
 31
0
  0
LINE
  8
0
 62
7
 10
2.37000042
 20
10.96666666666666
 30
0
 11
2.37000042
 21
10.90166666666666
 31
0
  0
LINE
  8
0
 62
7
 10
2.055493619999999
 20
10.90166666666666
 30
0
 11
2.055493619999999
 21
10.96666666666666
 31
0
  0
LINE
  8
0
 62
7
 10
4.719999250000001
 20
8.58333322666666
 30
0
 11
5.670000070000002
 21
8.58333322666666
 31
0
  0
LINE
  8
0
 62
7
 10
4.719999250000001
 20
8.518333226666661
 30
0
 11
4.719999250000001
 21
8.58333322666666
 31
0
  0
LINE
  8
0
 62
7
 10
5.670000070000002
 20
8.58333322666666
 30
0
 11
5.670000070000002
 21
8.518333226666661
 31
0
  0
LINE
  8
0
 62
7
 10
5.670000070000002
 20
8.518333226666661
 30
0
 11
4.719999250000001
 21
8.518333226666661
 31
0
  0
LINE
  8
0
 62
7
 10
4.7199999
 20
8.766666566666663
 30
0
 11
5.67000015
 21
8.766666566666663
 31
0
  0
LINE
  8
0
 62
7
 10
4.7199999
 20
8.701666566666661
 30
0
 11
4.7199999
 21
8.766666566666663
 31
0
  0
LINE
  8
0
 62
7
 10
5.67000015
 20
8.766666566666663
 30
0
 11
5.67000015
 21
8.701666566666661
 31
0
  0
LINE
  8
0
 62
7
 10
5.67000015
 20
8.701666566666661
 30
0
 11
4.7199999
 21
8.701666566666661
 31
0
  0
LINE
  8
0
 62
7
 10
4.72000004
 20
8.94999990666666
 30
0
 11
5.670000230000002
 21
8.94999990666666
 31
0
  0
LINE
  8
0
 62
7
 10
4.72000004
 20
8.884999906666659
 30
0
 11
4.72000004
 21
8.94999990666666
 31
0
  0
LINE
  8
0
 62
7
 10
5.670000230000002
 20
8.94999990666666
 30
0
 11
5.670000230000002
 21
8.884999906666659
 31
0
  0
LINE
  8
0
 62
7
 10
5.670000230000002
 20
8.884999906666659
 30
0
 11
4.72000004
 21
8.884999906666659
 31
0
  0
LINE
  8
0
 62
7
 10
4.720000070000002
 20
9.133333226666661
 30
0
 11
5.67000015
 21
9.133333226666661
 31
0
  0
LINE
  8
0
 62
7
 10
4.720000070000002
 20
9.068333226666661
 30
0
 11
4.720000070000002
 21
9.133333226666661
 31
0
  0
LINE
  8
0
 62
7
 10
5.67000015
 20
9.133333226666661
 30
0
 11
5.67000015
 21
9.068333226666661
 31
0
  0
LINE
  8
0
 62
7
 10
5.67000015
 20
9.068333226666661
 30
0
 11
4.720000070000002
 21
9.068333226666661
 31
0
  0
LINE
  8
0
 62
7
 10
5.791278230000001
 20
9.251666586666662
 30
0
 11
4.72000004
 21
9.251666586666662
 31
0
  0
LINE
  8
0
 62
7
 10
4.72000004
 20
9.316666586666662
 30
0
 11
5.791278230000001
 21
9.316666586666662
 31
0
  0
LINE
  8
0
 62
7
 10
4.72000004
 20
9.251666586666662
 30
0
 11
4.72000004
 21
9.316666586666662
 31
0
  0
LINE
  8
0
 62
7
 10
5.791278230000001
 20
9.316666586666662
 30
0
 11
5.791278230000001
 21
9.251666586666662
 31
0
  0
LINE
  8
0
 62
7
 10
5.916878509999999
 20
9.434999946666661
 30
0
 11
5.159928430000001
 21
9.434999946666661
 31
0
  0
LINE
  8
0
 62
7
 10
5.159928430000001
 20
9.49999994666666
 30
0
 11
5.916878509999999
 21
9.49999994666666
 31
0
  0
LINE
  8
0
 62
7
 10
5.159928430000001
 20
9.434999946666661
 30
0
 11
5.159928430000001
 21
9.49999994666666
 31
0
  0
LINE
  8
0
 62
7
 10
5.916878509999999
 20
9.49999994666666
 30
0
 11
5.916878509999999
 21
9.434999946666661
 31
0
  0
LINE
  8
0
 62
7
 10
6.109051660000001
 20
9.618333226666662
 30
0
 11
5.601435160000001
 21
9.618333226666662
 31
0
  0
LINE
  8
0
 62
7
 10
5.601435160000001
 20
9.683333226666662
 30
0
 11
6.109051660000001
 21
9.683333226666662
 31
0
  0
LINE
  8
0
 62
7
 10
5.601435160000001
 20
9.618333226666662
 30
0
 11
5.601435160000001
 21
9.683333226666662
 31
0
  0
LINE
  8
0
 62
7
 10
6.109051660000001
 20
9.683333226666662
 30
0
 11
6.109051660000001
 21
9.618333226666662
 31
0
  0
LINE
  8
0
 62
7
 10
6.33804901
 20
9.801666666666662
 30
0
 11
5.924261779999999
 21
9.801666666666662
 31
0
  0
LINE
  8
0
 62
7
 10
5.924261779999999
 20
9.866666666666662
 30
0
 11
6.33804901
 21
9.866666666666662
 31
0
  0
LINE
  8
0
 62
7
 10
5.924261779999999
 20
9.801666666666662
 30
0
 11
5.924261779999999
 21
9.866666666666662
 31
0
  0
LINE
  8
0
 62
7
 10
6.33804901
 20
9.866666666666662
 30
0
 11
6.33804901
 21
9.801666666666662
 31
0
  0
LINE
  8
0
 62
7
 10
6.747685240000002
 20
9.984999946666662
 30
0
 11
6.21184692
 21
9.984999946666662
 31
0
  0
LINE
  8
0
 62
7
 10
6.21184692
 20
10.04999994666666
 30
0
 11
6.747685240000002
 21
10.04999994666666
 31
0
  0
LINE
  8
0
 62
7
 10
6.21184692
 20
9.984999946666662
 30
0
 11
6.21184692
 21
10.04999994666666
 31
0
  0
LINE
  8
0
 62
7
 10
6.747685240000002
 20
10.04999994666666
 30
0
 11
6.747685240000002
 21
9.984999946666662
 31
0
  0
LINE
  8
0
 62
7
 10
7.25627624
 20
10.16833322666666
 30
0
 11
6.335295100000003
 21
10.16833322666666
 31
0
  0
LINE
  8
0
 62
7
 10
6.335295100000003
 20
10.23333322666666
 30
0
 11
7.25627624
 21
10.23333322666666
 31
0
  0
LINE
  8
0
 62
7
 10
6.335295100000003
 20
10.16833322666666
 30
0
 11
6.335295100000003
 21
10.23333322666666
 31
0
  0
LINE
  8
0
 62
7
 10
7.25627624
 20
10.23333322666666
 30
0
 11
7.25627624
 21
10.16833322666666
 31
0
  0
LINE
  8
0
 62
7
 10
6.420000000000001
 20
10.41666666666666
 30
0
 11
7.370000300000001
 21
10.41666666666666
 31
0
  0
LINE
  8
0
 62
7
 10
7.370000300000001
 20
10.35166666666666
 30
0
 11
6.420000000000001
 21
10.35166666666666
 31
0
  0
LINE
  8
0
 62
7
 10
6.420000000000001
 20
10.35166666666666
 30
0
 11
6.420000000000001
 21
10.41666666666666
 31
0
  0
LINE
  8
0
 62
7
 10
7.370000300000001
 20
10.41666666666666
 30
0
 11
7.370000300000001
 21
10.35166666666666
 31
0
  0
LINE
  8
0
 62
7
 10
6.419999850000001
 20
10.59999994666666
 30
0
 11
7.370000000000001
 21
10.59999994666666
 31
0
  0
LINE
  8
0
 62
7
 10
6.419999850000001
 20
10.53499994666666
 30
0
 11
6.419999850000001
 21
10.59999994666666
 31
0
  0
LINE
  8
0
 62
7
 10
7.370000000000001
 20
10.59999994666666
 30
0
 11
7.370000000000001
 21
10.53499994666666
 31
0
  0
LINE
  8
0
 62
7
 10
7.370000000000001
 20
10.53499994666666
 30
0
 11
6.419999850000001
 21
10.53499994666666
 31
0
  0
LINE
  8
0
 62
7
 10
6.419999850000001
 20
10.78333322666666
 30
0
 11
7.370000000000001
 21
10.78333322666666
 31
0
  0
LINE
  8
0
 62
7
 10
6.419999850000001
 20
10.71833322666666
 30
0
 11
6.419999850000001
 21
10.78333322666666
 31
0
  0
LINE
  8
0
 62
7
 10
7.370000000000001
 20
10.78333322666666
 30
0
 11
7.370000000000001
 21
10.71833322666666
 31
0
  0
LINE
  8
0
 62
7
 10
7.370000000000001
 20
10.71833322666666
 30
0
 11
6.419999850000001
 21
10.71833322666666
 31
0
  0
LINE
  8
0
 62
7
  6
DASHED
 10
6.419999850000001
 20
10.96666666666666
 30
0
 11
7.370000000000001
 21
10.96666666666666
 31
0
  0
LINE
  8
0
 62
7
  6
DASHED
 10
6.419999850000001
 20
10.90166666666666
 30
0
 11
6.419999850000001
 21
10.96666666666666
 31
0
  0
LINE
  8
0
 62
7
  6
DASHED
 10
7.370000000000001
 20
10.96666666666666
 30
0
 11
7.370000000000001
 21
10.90166666666666
 31
0
  0
LINE
  8
0
 62
7
  6
DASHED
 10
7.370000000000001
 20
10.90166666666666
 30
0
 11
6.419999850000001
 21
10.90166666666666
 31
0
  0
LINE
  8
0
 62
7
  6
DASHDOT
 10
7.425000000000001
 20
5.689999999999999
 30
0
 11
7.600000000000001
 21
5.689999999999999
 31
0
  0
LINE
  8
0
 62
7
  6
DASHDOT
 10
7.600000000000001
 20
5.689999999999999
 30
0
 11
7.65
 21
5.689999999999999
 31
0
  0
LINE
  8
0
 62
7
  6
DASHDOT
 10
4.34
 20
5.260000000000001
 30
0
 11
4.34
 21
5.02
 31
0
  0
LINE
  8
0
 62
7
  6
DASHDOT
 10
7.765000000000001
 20
5.260000000000001
 30
0
 11
7.765000000000001
 21
5.02
 31
0
  0
LINE
  8
0
 62
7
  6
DASHDOT
 10
4.34
 20
5.300000000000001
 30
0
 11
4.34
 21
5.260000000000001
 31
0
  0
LINE
  8
0
 62
7
  6
DASHDOT
 10
7.765000000000001
 20
5.300000000000001
 30
0
 11
7.765000000000001
 21
5.260000000000001
 31
0
  0
LINE
  8
0
 62
7
  6
DASHDOT
 10
4.34
 20
5.02
 30
0
 11
4.34
 21
4.970000000000001
 31
0
  0
LINE
  8
0
 62
7
  6
DASHDOT
 10
4.34
 20
5.539999999999999
 30
0
 11
4.34
 21
5.300000000000001
 31
0
  0
LINE
  8
0
 62
7
  6
DASHDOT
 10
4.665
 20
5.689999999999999
 30
0
 11
4.715
 21
5.689999999999999
 31
0
  0
LINE
  8
0
 62
7
  6
DASHDOT
 10
4.49
 20
5.689999999999999
 30
0
 11
4.665
 21
5.689999999999999
 31
0
  0
LINE
  8
0
 62
7
  6
DASHDOT
 10
7.765000000000001
 20
5.02
 30
0
 11
7.765000000000001
 21
4.970000000000001
 31
0
  0
LINE
  8
0
 62
7
  6
DASHDOT
 10
7.765000000000001
 20
5.539999999999999
 30
0
 11
7.765000000000001
 21
5.300000000000001
 31
0
  0
LINE
  8
0
 62
7
  6
DASHDOT
 10
7.765000000000001
 20
5.589999999999999
 30
0
 11
7.765000000000001
 21
5.539999999999999
 31
0
  0
LINE
  8
0
 62
7
  6
DASHDOT
 10
4.34
 20
5.589999999999999
 30
0
 11
4.34
 21
5.539999999999999
 31
0
  0
LINE
  8
0
 62
7
  6
DASHDOT
 10
7.375
 20
5.689999999999999
 30
0
 11
7.425000000000001
 21
5.689999999999999
 31
0
  0
LINE
  8
0
 62
7
  6
DASHDOT
 10
4.44
 20
5.689999999999999
 30
0
 11
4.49
 21
5.689999999999999
 31
0
  0
LINE
  8
0
 62
7
 10
4.665
 20
3.35
 30
0
 11
4.665
 21
3.4
 31
0
  0
LINE
  8
0
 62
7
  6
DASHDOT
 10
7.425000000000001
 20
3.35
 30
0
 11
4.665
 21
3.35
 31
0
  0
LINE
  8
0
 62
7
 10
7.425000000000001
 20
3.4
 30
0
 11
7.425000000000001
 21
3.35
 31
0
  0
LINE
  8
0
 62
7
 10
4.665
 20
3.4
 30
0
 11
4.665
 21
5.02
 31
0
  0
LINE
  8
0
 62
7
 10
7.425000000000001
 20
3.4
 30
0
 11
4.665
 21
3.4
 31
0
  0
LINE
  8
0
 62
7
 10
7.425000000000001
 20
3.35
 30
0
 11
7.600000000000001
 21
3.35
 31
0
  0
LINE
  8
0
 62
7
 10
7.600000000000001
 20
5.02
 30
0
 11
7.765000000000001
 21
5.02
 31
0
  0
LINE
  8
0
 62
7
 10
7.600000000000001
 20
3.35
 30
0
 11
7.600000000000001
 21
5.02
 31
0
  0
LINE
  8
0
 62
7
 10
7.425000000000001
 20
5.02
 30
0
 11
7.425000000000001
 21
3.4
 31
0
  0
LINE
  8
0
 62
7
 10
4.665
 20
5.02
 30
0
 11
7.425000000000001
 21
5.02
 31
0
  0
LINE
  8
0
 62
7
 10
4.49
 20
5.02
 30
0
 11
4.49
 21
3.25
 31
0
  0
LINE
  8
0
 62
7
 10
4.49
 20
3.25
 30
0
 11
4.665
 21
3.25
 31
0
  0
LINE
  8
0
 62
7
 10
4.665
 20
3.25
 30
0
 11
4.665
 21
3.35
 31
0
  0
LINE
  8
0
 62
7
 10
4.34
 20
5.02
 30
0
 11
4.49
 21
5.02
 31
0
  0
LINE
  8
0
 62
7
 10
4.34
 20
5.260000000000001
 30
0
 11
7.765000000000001
 21
5.260000000000001
 31
0
  0
LINE
  8
0
 62
7
 10
4.34
 20
5.300000000000001
 30
0
 11
7.765000000000001
 21
5.300000000000001
 31
0
  0
LINE
  8
0
 62
7
 10
7.600000000000001
 20
5.539999999999999
 30
0
 11
7.765000000000001
 21
5.539999999999999
 31
0
  0
LINE
  8
0
 62
7
 10
7.600000000000001
 20
5.689999999999999
 30
0
 11
7.600000000000001
 21
5.539999999999999
 31
0
  0
LINE
  8
0
 62
7
 10
7.425000000000001
 20
5.539999999999999
 30
0
 11
7.425000000000001
 21
5.689999999999999
 31
0
  0
LINE
  8
0
 62
7
 10
4.665
 20
5.539999999999999
 30
0
 11
7.425000000000001
 21
5.539999999999999
 31
0
  0
LINE
  8
0
 62
7
 10
4.665
 20
5.689999999999999
 30
0
 11
4.665
 21
5.539999999999999
 31
0
  0
LINE
  8
0
 62
7
 10
4.49
 20
5.539999999999999
 30
0
 11
4.49
 21
5.689999999999999
 31
0
  0
LINE
  8
0
 62
7
 10
4.34
 20
5.539999999999999
 30
0
 11
4.49
 21
5.539999999999999
 31
0
  0
LINE
  8
0
 62
7
  6
DASHED
 10
0.7400000000000001
 20
8.099999999999996
 30
0
 11
2.41
 21
8.099999999999996
 31
0
  0
LINE
  8
0
 62
7
  6
DASHED
 10
0.7400000000000001
 20
8.299999999999997
 30
0
 11
2.41
 21
8.299999999999997
 31
0
  0
LINE
  8
0
 62
7
  6
DASHED
 10
0.7400000000000001
 20
10.85
 30
0
 11
2.41
 21
10.85
 31
0
  0
LINE
  8
0
 62
7
  6
DASHED
 10
0.7400000000000001
 20
11.05
 30
0
 11
2.41
 21
11.05
 31
0
  0
LINE
  8
0
 62
7
  6
DASHDOT
 10
2.71
 20
11.05
 30
0
 11
2.71
 21
10.85
 31
0
  0
LINE
  8
0
 62
7
  6
DASHDOT
 10
2.71
 20
10.85
 30
0
 11
2.71
 21
10.8
 31
0
  0
LINE
  8
0
 62
7
  6
DASHDOT
 10
0.5
 20
11.2
 30
0
 11
0.7400000000000001
 21
11.2
 31
0
  0
LINE
  8
0
 62
7
  6
DASHDOT
 10
0.7400000000000001
 20
11.2
 30
0
 11
0.79
 21
11.2
 31
0
  0
LINE
  8
0
 62
7
  6
DASHDOT
 10
0.7400000000000001
 20
7.949999999999998
 30
0
 11
0.79
 21
7.949999999999998
 31
0
  0
LINE
  8
0
 62
7
  6
DASHDOT
 10
0.5
 20
7.949999999999998
 30
0
 11
0.7400000000000001
 21
7.949999999999998
 31
0
  0
LINE
  8
0
 62
7
  6
DASHDOT
 10
2.71
 20
8.099999999999996
 30
0
 11
2.71
 21
8.299999999999997
 31
0
  0
LINE
  8
0
 62
7
  6
DASHDOT
 10
2.71
 20
8.299999999999997
 30
0
 11
2.71
 21
8.399999999999997
 31
0
  0
LINE
  8
0
 62
7
  6
DASHDOT
 10
2.71
 20
11.15
 30
0
 11
2.71
 21
11.05
 31
0
  0
LINE
  8
0
 62
7
 10
2.41
 20
11.15
 30
0
 11
2.71
 21
11.15
 31
0
  0
LINE
  8
0
 62
7
  6
DASHDOT
 10
2.71
 20
8.399999999999997
 30
0
 11
2.71
 21
8.449999999999998
 31
0
  0
LINE
  8
0
 62
7
 10
2.41
 20
8.399999999999997
 30
0
 11
2.71
 21
8.399999999999997
 31
0
  0
LINE
  8
0
 62
7
  6
DASHDOT
 10
0.45
 20
7.949999999999998
 30
0
 11
0.5
 21
7.949999999999998
 31
0
  0
LINE
  8
0
 62
7
  6
DASHDOT
 10
2.71
 20
8.049999999999995
 30
0
 11
2.71
 21
8.099999999999996
 31
0
  0
LINE
  8
0
 62
7
  6
DASHDOT
 10
2.71
 20
11.2
 30
0
 11
2.71
 21
11.15
 31
0
  0
LINE
  8
0
 62
7
  6
DASHDOT
 10
0.45
 20
11.2
 30
0
 11
0.5
 21
11.2
 31
0
  0
LINE
  8
0
 62
7
 10
2.41
 20
8.099999999999996
 30
0
 11
2.71
 21
8.099999999999996
 31
0
  0
LINE
  8
0
 62
7
 10
2.41
 20
8.299999999999997
 30
0
 11
2.41
 21
8.099999999999996
 31
0
  0
LINE
  8
0
 62
7
 10
2.41
 20
8.299999999999997
 30
0
 11
2.71
 21
8.299999999999997
 31
0
  0
LINE
  8
0
 62
7
 10
2.41
 20
11.05
 30
0
 11
2.71
 21
11.05
 31
0
  0
LINE
  8
0
 62
7
 10
2.41
 20
10.85
 30
0
 11
2.71
 21
10.85
 31
0
  0
LINE
  8
0
 62
7
 10
2.41
 20
11.05
 30
0
 11
2.41
 21
10.85
 31
0
  0
LINE
  8
0
 62
7
 10
0.7400000000000001
 20
8.099999999999996
 30
0
 11
0.7400000000000001
 21
7.949999999999998
 31
0
  0
LINE
  8
0
 62
7
 10
0.5
 20
8.099999999999996
 30
0
 11
0.5
 21
8.299999999999997
 31
0
  0
LINE
  8
0
 62
7
 10
0.5
 20
8.099999999999996
 30
0
 11
0.7400000000000001
 21
8.099999999999996
 31
0
  0
LINE
  8
0
 62
7
 10
0.7400000000000001
 20
8.299999999999997
 30
0
 11
0.7400000000000001
 21
8.099999999999996
 31
0
  0
LINE
  8
0
 62
7
 10
0.5
 20
8.299999999999997
 30
0
 11
0.5
 21
10.85
 31
0
  0
LINE
  8
0
 62
7
 10
0.5
 20
8.299999999999997
 30
0
 11
0.7400000000000001
 21
8.299999999999997
 31
0
  0
LINE
  8
0
 62
7
 10
0.7400000000000001
 20
10.85
 30
0
 11
0.7400000000000001
 21
8.299999999999997
 31
0
  0
LINE
  8
0
 62
7
 10
0.5
 20
10.85
 30
0
 11
0.5
 21
11.05
 31
0
  0
LINE
  8
0
 62
7
 10
0.5
 20
10.85
 30
0
 11
0.7400000000000001
 21
10.85
 31
0
  0
LINE
  8
0
 62
7
 10
0.7400000000000001
 20
11.05
 30
0
 11
0.7400000000000001
 21
10.85
 31
0
  0
LINE
  8
0
 62
7
 10
0.5
 20
11.05
 30
0
 11
0.5
 21
11.2
 31
0
  0
LINE
  8
0
 62
7
 10
0.5
 20
11.05
 30
0
 11
0.7400000000000001
 21
11.05
 31
0
  0
LINE
  8
0
 62
7
 10
0.7400000000000001
 20
11.2
 30
0
 11
0.7400000000000001
 21
11.05
 31
0
  0
LINE
  8
0
 62
7
 10
0.5
 20
7.949999999999998
 30
0
 11
0.5
 21
8.099999999999996
 31
0
  0
LINE
  8
0
 62
7
  6
DASHDOT
 10
4.44
 20
11.2
 30
0
 11
4.49
 21
11.2
 31
0
  0
LINE
  8
0
 62
7
  6
DASHDOT
 10
4.49
 20
11.2
 30
0
 11
4.665
 21
11.2
 31
0
  0
LINE
  8
0
 62
7
  6
DASHDOT
 10
4.34
 20
11.15
 30
0
 11
4.34
 21
11.05
 31
0
  0
LINE
  8
0
 62
7
  6
DASHDOT
 10
4.34
 20
11.05
 30
0
 11
4.34
 21
10.85
 31
0
  0
LINE
  8
0
 62
7
  6
DASHDOT
 10
7.375
 20
11.2
 30
0
 11
7.425000000000001
 21
11.2
 31
0
  0
LINE
  8
0
 62
7
  6
DASHDOT
 10
7.425000000000001
 20
11.2
 30
0
 11
7.600000000000001
 21
11.2
 31
0
  0
LINE
  8
0
 62
7
  6
DASHDOT
 10
7.75
 20
11.15
 30
0
 11
7.75
 21
11.05
 31
0
  0
LINE
  8
0
 62
7
  6
DASHDOT
 10
7.75
 20
11.05
 30
0
 11
7.75
 21
10.85
 31
0
  0
LINE
  8
0
 62
7
  6
DASHDOT
 10
7.375
 20
7.949999999999998
 30
0
 11
7.425000000000001
 21
7.949999999999998
 31
0
  0
LINE
  8
0
 62
7
  6
DASHDOT
 10
7.425000000000001
 20
7.949999999999998
 30
0
 11
7.600000000000001
 21
7.949999999999998
 31
0
  0
LINE
  8
0
 62
7
  6
DASHDOT
 10
7.75
 20
8.399999999999997
 30
0
 11
7.75
 21
8.299999999999997
 31
0
  0
LINE
  8
0
 62
7
  6
DASHDOT
 10
7.75
 20
8.299999999999997
 30
0
 11
7.75
 21
8.099999999999996
 31
0
  0
LINE
  8
0
 62
7
  6
DASHDOT
 10
4.44
 20
7.949999999999998
 30
0
 11
4.49
 21
7.949999999999998
 31
0
  0
LINE
  8
0
 62
7
  6
DASHDOT
 10
4.49
 20
7.949999999999998
 30
0
 11
4.665
 21
7.949999999999998
 31
0
  0
LINE
  8
0
 62
7
  6
DASHDOT
 10
4.34
 20
8.399999999999997
 30
0
 11
4.34
 21
8.299999999999997
 31
0
  0
LINE
  8
0
 62
7
  6
DASHDOT
 10
4.34
 20
8.299999999999997
 30
0
 11
4.34
 21
8.099999999999996
 31
0
  0
LINE
  8
0
 62
7
  6
DASHDOT
 10
4.34
 20
11.2
 30
0
 11
4.34
 21
11.15
 31
0
  0
LINE
  8
0
 62
7
 10
4.49
 20
11.2
 30
0
 11
4.49
 21
11.15
 31
0
  0
LINE
  8
0
 62
7
 10
4.34
 20
11.15
 30
0
 11
4.49
 21
11.15
 31
0
  0
LINE
  8
0
 62
7
 10
4.665
 20
11.2
 30
0
 11
4.665
 21
11.15
 31
0
  0
LINE
  8
0
 62
7
 10
7.425000000000001
 20
11.2
 30
0
 11
7.425000000000001
 21
11.15
 31
0
  0
LINE
  8
0
 62
7
 10
4.665
 20
11.15
 30
0
 11
7.425000000000001
 21
11.15
 31
0
  0
LINE
  8
0
 62
7
  6
DASHDOT
 10
7.75
 20
11.2
 30
0
 11
7.75
 21
11.15
 31
0
  0
LINE
  8
0
 62
7
 10
7.600000000000001
 20
11.2
 30
0
 11
7.600000000000001
 21
11.15
 31
0
  0
LINE
  8
0
 62
7
 10
7.600000000000001
 20
11.15
 30
0
 11
7.75
 21
11.15
 31
0
  0
LINE
  8
0
 62
7
  6
DASHDOT
 10
4.34
 20
8.449999999999998
 30
0
 11
4.34
 21
8.399999999999997
 31
0
  0
LINE
  8
0
 62
7
 10
4.49
 20
10.85
 30
0
 11
4.49
 21
8.399999999999997
 31
0
  0
LINE
  8
0
 62
7
 10
4.34
 20
8.399999999999997
 30
0
 11
4.49
 21
8.399999999999997
 31
0
  0
LINE
  8
0
 62
7
 10
4.665
 20
10.85
 30
0
 11
4.665
 21
8.399999999999997
 31
0
  0
LINE
  8
0
 62
7
 10
7.425000000000001
 20
10.85
 30
0
 11
7.425000000000001
 21
8.399999999999997
 31
0
  0
LINE
  8
0
 62
7
 10
4.665
 20
8.399999999999997
 30
0
 11
7.425000000000001
 21
8.399999999999997
 31
0
  0
LINE
  8
0
 62
7
  6
DASHDOT
 10
7.75
 20
8.449999999999998
 30
0
 11
7.75
 21
8.399999999999997
 31
0
  0
LINE
  8
0
 62
7
 10
7.600000000000001
 20
10.85
 30
0
 11
7.600000000000001
 21
8.399999999999997
 31
0
  0
LINE
  8
0
 62
7
 10
7.600000000000001
 20
8.399999999999997
 30
0
 11
7.75
 21
8.399999999999997
 31
0
  0
LINE
  8
0
 62
7
  6
DASHDOT
 10
4.665
 20
7.949999999999998
 30
0
 11
4.715
 21
7.949999999999998
 31
0
  0
LINE
  8
0
 62
7
  6
DASHDOT
 10
4.665
 20
11.2
 30
0
 11
4.715
 21
11.2
 31
0
  0
LINE
  8
0
 62
7
  6
DASHDOT
 10
7.600000000000001
 20
7.949999999999998
 30
0
 11
7.65
 21
7.949999999999998
 31
0
  0
LINE
  8
0
 62
7
  6
DASHDOT
 10
7.600000000000001
 20
11.2
 30
0
 11
7.65
 21
11.2
 31
0
  0
LINE
  8
0
 62
7
  6
DASHDOT
 10
4.34
 20
10.85
 30
0
 11
4.34
 21
10.8
 31
0
  0
LINE
  8
0
 62
7
  6
DASHDOT
 10
4.34
 20
8.099999999999996
 30
0
 11
4.34
 21
8.049999999999995
 31
0
  0
LINE
  8
0
 62
7
  6
DASHDOT
 10
7.75
 20
10.85
 30
0
 11
7.75
 21
10.8
 31
0
  0
LINE
  8
0
 62
7
  6
DASHDOT
 10
7.75
 20
8.099999999999996
 30
0
 11
7.75
 21
8.049999999999995
 31
0
  0
LINE
  8
0
 62
7
 10
4.34
 20
11.05
 30
0
 11
4.49
 21
11.05
 31
0
  0
LINE
  8
0
 62
7
 10
4.49
 20
11.15
 30
0
 11
4.49
 21
11.05
 31
0
  0
LINE
  8
0
 62
7
 10
4.34
 20
10.85
 30
0
 11
4.49
 21
10.85
 31
0
  0
LINE
  8
0
 62
7
 10
4.34
 20
8.299999999999997
 30
0
 11
4.49
 21
8.299999999999997
 31
0
  0
LINE
  8
0
 62
7
 10
4.49
 20
8.399999999999997
 30
0
 11
4.49
 21
8.299999999999997
 31
0
  0
LINE
  8
0
 62
7
 10
4.34
 20
8.099999999999996
 30
0
 11
4.49
 21
8.099999999999996
 31
0
  0
LINE
  8
0
 62
7
 10
4.49
 20
8.099999999999996
 30
0
 11
4.49
 21
7.949999999999998
 31
0
  0
LINE
  8
0
 62
7
 10
4.49
 20
11.05
 30
0
 11
4.665
 21
11.05
 31
0
  0
LINE
  8
0
 62
7
 10
4.665
 20
11.15
 30
0
 11
4.665
 21
11.05
 31
0
  0
LINE
  8
0
 62
7
 10
4.49
 20
10.85
 30
0
 11
4.665
 21
10.85
 31
0
  0
LINE
  8
0
 62
7
 10
4.49
 20
8.299999999999997
 30
0
 11
4.665
 21
8.299999999999997
 31
0
  0
LINE
  8
0
 62
7
 10
4.665
 20
8.399999999999997
 30
0
 11
4.665
 21
8.299999999999997
 31
0
  0
LINE
  8
0
 62
7
 10
4.49
 20
8.099999999999996
 30
0
 11
4.665
 21
8.099999999999996
 31
0
  0
LINE
  8
0
 62
7
 10
4.665
 20
8.099999999999996
 30
0
 11
4.665
 21
7.949999999999998
 31
0
  0
LINE
  8
0
 62
7
 10
4.665
 20
11.05
 30
0
 11
7.425000000000001
 21
11.05
 31
0
  0
LINE
  8
0
 62
7
 10
7.425000000000001
 20
11.15
 30
0
 11
7.425000000000001
 21
11.05
 31
0
  0
LINE
  8
0
 62
7
 10
4.665
 20
10.85
 30
0
 11
7.425000000000001
 21
10.85
 31
0
  0
LINE
  8
0
 62
7
 10
4.665
 20
8.299999999999997
 30
0
 11
7.425000000000001
 21
8.299999999999997
 31
0
  0
LINE
  8
0
 62
7
 10
7.425000000000001
 20
8.399999999999997
 30
0
 11
7.425000000000001
 21
8.299999999999997
 31
0
  0
LINE
  8
0
 62
7
 10
4.665
 20
8.099999999999996
 30
0
 11
7.425000000000001
 21
8.099999999999996
 31
0
  0
LINE
  8
0
 62
7
 10
7.425000000000001
 20
8.099999999999996
 30
0
 11
7.425000000000001
 21
7.949999999999998
 31
0
  0
LINE
  8
0
 62
7
 10
7.425000000000001
 20
11.05
 30
0
 11
7.600000000000001
 21
11.05
 31
0
  0
LINE
  8
0
 62
7
 10
7.600000000000001
 20
11.15
 30
0
 11
7.600000000000001
 21
11.05
 31
0
  0
LINE
  8
0
 62
7
 10
7.425000000000001
 20
10.85
 30
0
 11
7.600000000000001
 21
10.85
 31
0
  0
LINE
  8
0
 62
7
 10
7.425000000000001
 20
8.299999999999997
 30
0
 11
7.600000000000001
 21
8.299999999999997
 31
0
  0
LINE
  8
0
 62
7
 10
7.600000000000001
 20
8.399999999999997
 30
0
 11
7.600000000000001
 21
8.299999999999997
 31
0
  0
LINE
  8
0
 62
7
 10
7.425000000000001
 20
8.099999999999996
 30
0
 11
7.600000000000001
 21
8.099999999999996
 31
0
  0
LINE
  8
0
 62
7
 10
7.600000000000001
 20
8.099999999999996
 30
0
 11
7.600000000000001
 21
7.949999999999998
 31
0
  0
LINE
  8
0
 62
7
 10
7.600000000000001
 20
11.05
 30
0
 11
7.75
 21
11.05
 31
0
  0
LINE
  8
0
 62
7
 10
7.600000000000001
 20
10.85
 30
0
 11
7.75
 21
10.85
 31
0
  0
LINE
  8
0
 62
7
 10
7.600000000000001
 20
8.299999999999997
 30
0
 11
7.75
 21
8.299999999999997
 31
0
  0
LINE
  8
0
 62
7
 10
7.600000000000001
 20
8.099999999999996
 30
0
 11
7.75
 21
8.099999999999996
 31
0
  0
LINE
  8
0
 62
7
 10
5.213104161272922
 20
4.6643057605178
 30
0
 11
5.213104161272922
 21
4.784305760517801
 31
0
  0
LINE
  8
0
 62
7
 10
5.288704161272921
 20
4.784305760517801
 30
0
 11
5.234704161272921
 21
4.7243057605178
 31
0
  0
LINE
  8
0
 62
7
 10
5.234704161272921
 20
4.7243057605178
 30
0
 11
5.288704161272921
 21
4.6643057605178
 31
0
  0
LINE
  8
0
 62
7
 10
5.234704161272921
 20
4.7243057605178
 30
0
 11
5.213104161272922
 21
4.7003057605178
 31
0
  0
LINE
  8
0
 62
7
 10
5.396704161272922
 20
4.784305760517801
 30
0
 11
5.32110416127292
 21
4.784305760517801
 31
0
  0
LINE
  8
0
 62
7
 10
5.32110416127292
 20
4.784305760517801
 30
0
 11
5.32110416127292
 21
4.7243057605178
 31
0
  0
LINE
  8
0
 62
7
 10
5.32110416127292
 20
4.6643057605178
 30
0
 11
5.396704161272922
 21
4.6643057605178
 31
0
  0
LINE
  8
0
 62
7
 10
5.385904161272921
 20
4.7243057605178
 30
0
 11
5.32110416127292
 21
4.7243057605178
 31
0
  0
LINE
  8
0
 62
7
 10
5.32110416127292
 20
4.7243057605178
 30
0
 11
5.32110416127292
 21
4.6643057605178
 31
0
  0
LINE
  8
0
 62
7
 10
5.429104161272921
 20
4.6643057605178
 30
0
 11
5.429104161272921
 21
4.784305760517801
 31
0
  0
LINE
  8
0
 62
7
 10
5.429104161272921
 20
4.784305760517801
 30
0
 11
5.504704161272922
 21
4.6643057605178
 31
0
  0
LINE
  8
0
 62
7
 10
5.504704161272922
 20
4.6643057605178
 30
0
 11
5.504704161272922
 21
4.784305760517801
 31
0
  0
LINE
  8
0
 62
7
 10
5.537104161272921
 20
4.6643057605178
 30
0
 11
5.537104161272921
 21
4.784305760517801
 31
0
  0
LINE
  8
0
 62
7
 10
5.537104161272921
 20
4.784305760517801
 30
0
 11
5.612704161272922
 21
4.6643057605178
 31
0
  0
LINE
  8
0
 62
7
 10
5.612704161272922
 20
4.6643057605178
 30
0
 11
5.612704161272922
 21
4.784305760517801
 31
0
  0
LINE
  8
0
 62
7
 10
5.720704161272921
 20
4.748305760517801
 30
0
 11
5.718004161272921
 21
4.760305760517801
 31
0
  0
LINE
  8
0
 62
7
 10
5.718004161272921
 20
4.760305760517801
 30
0
 11
5.712604161272921
 21
4.769305760517801
 31
0
  0
LINE
  8
0
 62
7
 10
5.712604161272921
 20
4.769305760517801
 30
0
 11
5.707204161272921
 21
4.7753057605178
 31
0
  0
LINE
  8
0
 62
7
 10
5.707204161272921
 20
4.7753057605178
 30
0
 11
5.699104161272921
 21
4.781305760517801
 31
0
  0
LINE
  8
0
 62
7
 10
5.699104161272921
 20
4.781305760517801
 30
0
 11
5.691004161272922
 21
4.784305760517801
 31
0
  0
LINE
  8
0
 62
7
 10
5.691004161272922
 20
4.784305760517801
 30
0
 11
5.674804161272921
 21
4.784305760517801
 31
0
  0
LINE
  8
0
 62
7
 10
5.674804161272921
 20
4.784305760517801
 30
0
 11
5.666704161272921
 21
4.781305760517801
 31
0
  0
LINE
  8
0
 62
7
 10
5.666704161272921
 20
4.781305760517801
 30
0
 11
5.658604161272921
 21
4.7753057605178
 31
0
  0
LINE
  8
0
 62
7
 10
5.658604161272921
 20
4.7753057605178
 30
0
 11
5.653204161272921
 21
4.769305760517801
 31
0
  0
LINE
  8
0
 62
7
 10
5.653204161272921
 20
4.769305760517801
 30
0
 11
5.647804161272921
 21
4.760305760517801
 31
0
  0
LINE
  8
0
 62
7
 10
5.647804161272921
 20
4.760305760517801
 30
0
 11
5.645104161272921
 21
4.748305760517801
 31
0
  0
LINE
  8
0
 62
7
 10
5.645104161272921
 20
4.748305760517801
 30
0
 11
5.645104161272921
 21
4.7003057605178
 31
0
  0
LINE
  8
0
 62
7
 10
5.645104161272921
 20
4.7003057605178
 30
0
 11
5.647804161272921
 21
4.6883057605178
 31
0
  0
LINE
  8
0
 62
7
 10
5.647804161272921
 20
4.6883057605178
 30
0
 11
5.653204161272921
 21
4.6793057605178
 31
0
  0
LINE
  8
0
 62
7
 10
5.653204161272921
 20
4.6793057605178
 30
0
 11
5.658604161272921
 21
4.673305760517801
 31
0
  0
LINE
  8
0
 62
7
 10
5.658604161272921
 20
4.673305760517801
 30
0
 11
5.666704161272921
 21
4.667305760517801
 31
0
  0
LINE
  8
0
 62
7
 10
5.666704161272921
 20
4.667305760517801
 30
0
 11
5.674804161272921
 21
4.6643057605178
 31
0
  0
LINE
  8
0
 62
7
 10
5.674804161272921
 20
4.6643057605178
 30
0
 11
5.691004161272922
 21
4.6643057605178
 31
0
  0
LINE
  8
0
 62
7
 10
5.691004161272922
 20
4.6643057605178
 30
0
 11
5.699104161272921
 21
4.667305760517801
 31
0
  0
LINE
  8
0
 62
7
 10
5.699104161272921
 20
4.667305760517801
 30
0
 11
5.707204161272921
 21
4.673305760517801
 31
0
  0
LINE
  8
0
 62
7
 10
5.707204161272921
 20
4.673305760517801
 30
0
 11
5.712604161272921
 21
4.6793057605178
 31
0
  0
LINE
  8
0
 62
7
 10
5.712604161272921
 20
4.6793057605178
 30
0
 11
5.718004161272921
 21
4.6883057605178
 31
0
  0
LINE
  8
0
 62
7
 10
5.718004161272921
 20
4.6883057605178
 30
0
 11
5.720704161272921
 21
4.7003057605178
 31
0
  0
LINE
  8
0
 62
7
 10
5.720704161272921
 20
4.7003057605178
 30
0
 11
5.720704161272921
 21
4.7243057605178
 31
0
  0
LINE
  8
0
 62
7
 10
5.720704161272921
 20
4.7243057605178
 30
0
 11
5.688304161272922
 21
4.7243057605178
 31
0
  0
LINE
  8
0
 62
7
 10
5.79900416127292
 20
4.784305760517801
 30
0
 11
5.782804161272921
 21
4.784305760517801
 31
0
  0
LINE
  8
0
 62
7
 10
5.782804161272921
 20
4.784305760517801
 30
0
 11
5.774704161272922
 21
4.781305760517801
 31
0
  0
LINE
  8
0
 62
7
 10
5.774704161272922
 20
4.781305760517801
 30
0
 11
5.76660416127292
 21
4.7753057605178
 31
0
  0
LINE
  8
0
 62
7
 10
5.76660416127292
 20
4.7753057605178
 30
0
 11
5.761204161272921
 21
4.769305760517801
 31
0
  0
LINE
  8
0
 62
7
 10
5.761204161272921
 20
4.769305760517801
 30
0
 11
5.755804161272922
 21
4.760305760517801
 31
0
  0
LINE
  8
0
 62
7
 10
5.755804161272922
 20
4.760305760517801
 30
0
 11
5.753104161272922
 21
4.748305760517801
 31
0
  0
LINE
  8
0
 62
7
 10
5.753104161272922
 20
4.748305760517801
 30
0
 11
5.753104161272922
 21
4.7003057605178
 31
0
  0
LINE
  8
0
 62
7
 10
5.753104161272922
 20
4.7003057605178
 30
0
 11
5.755804161272922
 21
4.6883057605178
 31
0
  0
LINE
  8
0
 62
7
 10
5.755804161272922
 20
4.6883057605178
 30
0
 11
5.761204161272921
 21
4.6793057605178
 31
0
  0
LINE
  8
0
 62
7
 10
5.761204161272921
 20
4.6793057605178
 30
0
 11
5.76660416127292
 21
4.673305760517801
 31
0
  0
LINE
  8
0
 62
7
 10
5.76660416127292
 20
4.673305760517801
 30
0
 11
5.774704161272922
 21
4.667305760517801
 31
0
  0
LINE
  8
0
 62
7
 10
5.774704161272922
 20
4.667305760517801
 30
0
 11
5.782804161272921
 21
4.6643057605178
 31
0
  0
LINE
  8
0
 62
7
 10
5.782804161272921
 20
4.6643057605178
 30
0
 11
5.79900416127292
 21
4.6643057605178
 31
0
  0
LINE
  8
0
 62
7
 10
5.79900416127292
 20
4.6643057605178
 30
0
 11
5.807104161272921
 21
4.667305760517801
 31
0
  0
LINE
  8
0
 62
7
 10
5.807104161272921
 20
4.667305760517801
 30
0
 11
5.815204161272923
 21
4.673305760517801
 31
0
  0
LINE
  8
0
 62
7
 10
5.815204161272923
 20
4.673305760517801
 30
0
 11
5.820604161272922
 21
4.6793057605178
 31
0
  0
LINE
  8
0
 62
7
 10
5.820604161272922
 20
4.6793057605178
 30
0
 11
5.826004161272921
 21
4.6883057605178
 31
0
  0
LINE
  8
0
 62
7
 10
5.826004161272921
 20
4.6883057605178
 30
0
 11
5.828704161272921
 21
4.7003057605178
 31
0
  0
LINE
  8
0
 62
7
 10
5.828704161272921
 20
4.7003057605178
 30
0
 11
5.828704161272921
 21
4.748305760517801
 31
0
  0
LINE
  8
0
 62
7
 10
5.828704161272921
 20
4.748305760517801
 30
0
 11
5.826004161272921
 21
4.760305760517801
 31
0
  0
LINE
  8
0
 62
7
 10
5.826004161272921
 20
4.760305760517801
 30
0
 11
5.820604161272922
 21
4.769305760517801
 31
0
  0
LINE
  8
0
 62
7
 10
5.820604161272922
 20
4.769305760517801
 30
0
 11
5.815204161272923
 21
4.7753057605178
 31
0
  0
LINE
  8
0
 62
7
 10
5.815204161272923
 20
4.7753057605178
 30
0
 11
5.807104161272921
 21
4.781305760517801
 31
0
  0
LINE
  8
0
 62
7
 10
5.807104161272921
 20
4.781305760517801
 30
0
 11
5.79900416127292
 21
4.784305760517801
 31
0
  0
LINE
  8
0
 62
7
 10
5.850304161272921
 20
4.784305760517801
 30
0
 11
5.888104161272921
 21
4.784305760517801
 31
0
  0
LINE
  8
0
 62
7
 10
5.888104161272921
 20
4.784305760517801
 30
0
 11
5.888104161272921
 21
4.6643057605178
 31
0
  0
LINE
  8
0
 62
7
 10
5.888104161272921
 20
4.784305760517801
 30
0
 11
5.925904161272921
 21
4.784305760517801
 31
0
  0
LINE
  8
0
 62
7
 10
5.958304161272921
 20
4.784305760517801
 30
0
 11
5.996104161272921
 21
4.784305760517801
 31
0
  0
LINE
  8
0
 62
7
 10
5.996104161272921
 20
4.784305760517801
 30
0
 11
5.996104161272921
 21
4.6643057605178
 31
0
  0
LINE
  8
0
 62
7
 10
5.996104161272921
 20
4.784305760517801
 30
0
 11
6.033904161272921
 21
4.784305760517801
 31
0
  0
LINE
  8
0
 62
7
 10
6.152704161272921
 20
4.706305760517801
 30
0
 11
6.206704161272921
 21
4.706305760517801
 31
0
  0
LINE
  8
0
 62
7
 10
6.314704161272921
 20
4.784305760517801
 30
0
 11
6.352504161272921
 21
4.784305760517801
 31
0
  0
LINE
  8
0
 62
7
 10
6.352504161272921
 20
4.784305760517801
 30
0
 11
6.352504161272921
 21
4.6643057605178
 31
0
  0
LINE
  8
0
 62
7
 10
6.352504161272921
 20
4.784305760517801
 30
0
 11
6.390304161272921
 21
4.784305760517801
 31
0
  0
LINE
  8
0
 62
7
 10
6.422704161272922
 20
4.6643057605178
 30
0
 11
6.422704161272922
 21
4.784305760517801
 31
0
  0
LINE
  8
0
 62
7
 10
6.422704161272922
 20
4.784305760517801
 30
0
 11
6.47400416127292
 21
4.784305760517801
 31
0
  0
LINE
  8
0
 62
7
 10
6.47400416127292
 20
4.784305760517801
 30
0
 11
6.484804161272923
 21
4.781305760517801
 31
0
  0
LINE
  8
0
 62
7
 10
6.484804161272923
 20
4.781305760517801
 30
0
 11
6.49290416127292
 21
4.7753057605178
 31
0
  0
LINE
  8
0
 62
7
 10
6.49290416127292
 20
4.7753057605178
 30
0
 11
6.495604161272921
 21
4.769305760517801
 31
0
  0
LINE
  8
0
 62
7
 10
6.495604161272921
 20
4.769305760517801
 30
0
 11
6.498304161272921
 21
4.760305760517801
 31
0
  0
LINE
  8
0
 62
7
 10
6.498304161272921
 20
4.760305760517801
 30
0
 11
6.498304161272921
 21
4.748305760517801
 31
0
  0
LINE
  8
0
 62
7
 10
6.498304161272921
 20
4.748305760517801
 30
0
 11
6.495604161272921
 21
4.739305760517801
 31
0
  0
LINE
  8
0
 62
7
 10
6.495604161272921
 20
4.739305760517801
 30
0
 11
6.49290416127292
 21
4.7333057605178
 31
0
  0
LINE
  8
0
 62
7
 10
6.49290416127292
 20
4.7333057605178
 30
0
 11
6.484804161272923
 21
4.7273057605178
 31
0
  0
LINE
  8
0
 62
7
 10
6.484804161272923
 20
4.7273057605178
 30
0
 11
6.47400416127292
 21
4.7243057605178
 31
0
  0
LINE
  8
0
 62
7
 10
6.47400416127292
 20
4.7243057605178
 30
0
 11
6.46590416127292
 21
4.7243057605178
 31
0
  0
LINE
  8
0
 62
7
 10
6.46590416127292
 20
4.7243057605178
 30
0
 11
6.498304161272921
 21
4.6643057605178
 31
0
  0
LINE
  8
0
 62
7
 10
6.46590416127292
 20
4.7243057605178
 30
0
 11
6.422704161272922
 21
4.7243057605178
 31
0
  0
LINE
  8
0
 62
7
 10
6.59550416127292
 20
4.784305760517801
 30
0
 11
6.519904161272921
 21
4.784305760517801
 31
0
  0
LINE
  8
0
 62
7
 10
6.519904161272921
 20
4.784305760517801
 30
0
 11
6.519904161272921
 21
4.7243057605178
 31
0
  0
LINE
  8
0
 62
7
 10
6.519904161272921
 20
4.6643057605178
 30
0
 11
6.59550416127292
 21
4.6643057605178
 31
0
  0
LINE
  8
0
 62
7
 10
6.584704161272922
 20
4.7243057605178
 30
0
 11
6.519904161272921
 21
4.7243057605178
 31
0
  0
LINE
  8
0
 62
7
 10
6.519904161272921
 20
4.7243057605178
 30
0
 11
6.519904161272921
 21
4.6643057605178
 31
0
  0
LINE
  8
0
 62
7
 10
6.62790416127292
 20
4.6643057605178
 30
0
 11
6.62790416127292
 21
4.7243057605178
 31
0
  0
LINE
  8
0
 62
7
 10
6.62790416127292
 20
4.784305760517801
 30
0
 11
6.679204161272921
 21
4.784305760517801
 31
0
  0
LINE
  8
0
 62
7
 10
6.679204161272921
 20
4.784305760517801
 30
0
 11
6.69000416127292
 21
4.781305760517801
 31
0
  0
LINE
  8
0
 62
7
 10
6.69000416127292
 20
4.781305760517801
 30
0
 11
6.69810416127292
 21
4.7753057605178
 31
0
  0
LINE
  8
0
 62
7
 10
6.69810416127292
 20
4.7753057605178
 30
0
 11
6.70080416127292
 21
4.769305760517801
 31
0
  0
LINE
  8
0
 62
7
 10
6.70080416127292
 20
4.769305760517801
 30
0
 11
6.703504161272922
 21
4.760305760517801
 31
0
  0
LINE
  8
0
 62
7
 10
6.703504161272922
 20
4.760305760517801
 30
0
 11
6.703504161272922
 21
4.748305760517801
 31
0
  0
LINE
  8
0
 62
7
 10
6.703504161272922
 20
4.748305760517801
 30
0
 11
6.70080416127292
 21
4.739305760517801
 31
0
  0
LINE
  8
0
 62
7
 10
6.70080416127292
 20
4.739305760517801
 30
0
 11
6.69810416127292
 21
4.7333057605178
 31
0
  0
LINE
  8
0
 62
7
 10
6.69810416127292
 20
4.7333057605178
 30
0
 11
6.69000416127292
 21
4.7273057605178
 31
0
  0
LINE
  8
0
 62
7
 10
6.69000416127292
 20
4.7273057605178
 30
0
 11
6.679204161272921
 21
4.7243057605178
 31
0
  0
LINE
  8
0
 62
7
 10
6.679204161272921
 20
4.7243057605178
 30
0
 11
6.62790416127292
 21
4.7243057605178
 31
0
  0
LINE
  8
0
 62
7
 10
6.62790416127292
 20
4.7243057605178
 30
0
 11
6.62790416127292
 21
4.784305760517801
 31
0
  0
LINE
  8
0
 62
7
 10
6.725104161272921
 20
4.6643057605178
 30
0
 11
6.725104161272921
 21
4.7243057605178
 31
0
  0
LINE
  8
0
 62
7
 10
6.725104161272921
 20
4.784305760517801
 30
0
 11
6.776404161272922
 21
4.784305760517801
 31
0
  0
LINE
  8
0
 62
7
 10
6.776404161272922
 20
4.784305760517801
 30
0
 11
6.787204161272921
 21
4.781305760517801
 31
0
  0
LINE
  8
0
 62
7
 10
6.787204161272921
 20
4.781305760517801
 30
0
 11
6.795304161272921
 21
4.7753057605178
 31
0
  0
LINE
  8
0
 62
7
 10
6.795304161272921
 20
4.7753057605178
 30
0
 11
6.79800416127292
 21
4.769305760517801
 31
0
  0
LINE
  8
0
 62
7
 10
6.79800416127292
 20
4.769305760517801
 30
0
 11
6.800704161272922
 21
4.760305760517801
 31
0
  0
LINE
  8
0
 62
7
 10
6.800704161272922
 20
4.760305760517801
 30
0
 11
6.800704161272922
 21
4.748305760517801
 31
0
  0
LINE
  8
0
 62
7
 10
6.800704161272922
 20
4.748305760517801
 30
0
 11
6.79800416127292
 21
4.739305760517801
 31
0
  0
LINE
  8
0
 62
7
 10
6.79800416127292
 20
4.739305760517801
 30
0
 11
6.795304161272921
 21
4.7333057605178
 31
0
  0
LINE
  8
0
 62
7
 10
6.795304161272921
 20
4.7333057605178
 30
0
 11
6.787204161272921
 21
4.7273057605178
 31
0
  0
LINE
  8
0
 62
7
 10
6.787204161272921
 20
4.7273057605178
 30
0
 11
6.776404161272922
 21
4.7243057605178
 31
0
  0
LINE
  8
0
 62
7
 10
6.776404161272922
 20
4.7243057605178
 30
0
 11
6.725104161272921
 21
4.7243057605178
 31
0
  0
LINE
  8
0
 62
7
 10
6.725104161272921
 20
4.7243057605178
 30
0
 11
6.725104161272921
 21
4.784305760517801
 31
0
  0
LINE
  8
0
 62
7
 10
6.897904161272923
 20
4.784305760517801
 30
0
 11
6.822304161272922
 21
4.784305760517801
 31
0
  0
LINE
  8
0
 62
7
 10
6.822304161272922
 20
4.784305760517801
 30
0
 11
6.822304161272922
 21
4.7243057605178
 31
0
  0
LINE
  8
0
 62
7
 10
6.822304161272922
 20
4.6643057605178
 30
0
 11
6.897904161272923
 21
4.6643057605178
 31
0
  0
LINE
  8
0
 62
7
 10
6.88710416127292
 20
4.7243057605178
 30
0
 11
6.822304161272922
 21
4.7243057605178
 31
0
  0
LINE
  8
0
 62
7
 10
6.822304161272922
 20
4.7243057605178
 30
0
 11
6.822304161272922
 21
4.6643057605178
 31
0
  0
LINE
  8
0
 62
7
 10
4.675
 20
3.01
 30
0
 11
4.750599999999999
 21
3.01
 31
0
  0
LINE
  8
0
 62
7
 10
4.750599999999999
 20
3.01
 30
0
 11
4.675
 21
2.890000000000001
 31
0
  0
LINE
  8
0
 62
7
 10
4.675
 20
2.890000000000001
 30
0
 11
4.750599999999999
 21
2.890000000000001
 31
0
  0
LINE
  8
0
 62
7
 10
4.783
 20
2.992
 30
0
 11
4.7884
 21
3.001
 31
0
  0
LINE
  8
0
 62
7
 10
4.7884
 20
3.001
 30
0
 11
4.796499999999999
 21
3.007
 31
0
  0
LINE
  8
0
 62
7
 10
4.796499999999999
 20
3.007
 30
0
 11
4.807300000000001
 21
3.01
 31
0
  0
LINE
  8
0
 62
7
 10
4.807300000000001
 20
3.01
 30
0
 11
4.823499999999999
 21
3.01
 31
0
  0
LINE
  8
0
 62
7
 10
4.823499999999999
 20
3.01
 30
0
 11
4.8343
 21
3.007
 31
0
  0
LINE
  8
0
 62
7
 10
4.8343
 20
3.007
 30
0
 11
4.842399999999999
 21
3.001
 31
0
  0
LINE
  8
0
 62
7
 10
4.842399999999999
 20
3.001
 30
0
 11
4.847799999999999
 21
2.992
 31
0
  0
LINE
  8
0
 62
7
 10
4.847799999999999
 20
2.992
 30
0
 11
4.847799999999999
 21
2.98
 31
0
  0
LINE
  8
0
 62
7
 10
4.847799999999999
 20
2.98
 30
0
 11
4.842399999999999
 21
2.968
 31
0
  0
LINE
  8
0
 62
7
 10
4.842399999999999
 20
2.968
 30
0
 11
4.783
 21
2.890000000000001
 31
0
  0
LINE
  8
0
 62
7
 10
4.783
 20
2.890000000000001
 30
0
 11
4.847799999999999
 21
2.890000000000001
 31
0
  0
LINE
  8
0
 62
7
 10
4.880199999999999
 20
3.01
 30
0
 11
4.918
 21
2.890000000000001
 31
0
  0
LINE
  8
0
 62
7
 10
4.918
 20
2.890000000000001
 30
0
 11
4.9558
 21
3.01
 31
0
  0
LINE
  8
0
 62
7
 10
4.988199999999999
 20
2.992
 30
0
 11
4.993599999999999
 21
3.001
 31
0
  0
LINE
  8
0
 62
7
 10
4.993599999999999
 20
3.001
 30
0
 11
5.0017
 21
3.007
 31
0
  0
LINE
  8
0
 62
7
 10
5.0017
 20
3.007
 30
0
 11
5.012499999999999
 21
3.01
 31
0
  0
LINE
  8
0
 62
7
 10
5.012499999999999
 20
3.01
 30
0
 11
5.0287
 21
3.01
 31
0
  0
LINE
  8
0
 62
7
 10
5.0287
 20
3.01
 30
0
 11
5.039499999999999
 21
3.007
 31
0
  0
LINE
  8
0
 62
7
 10
5.039499999999999
 20
3.007
 30
0
 11
5.047599999999999
 21
3.001
 31
0
  0
LINE
  8
0
 62
7
 10
5.047599999999999
 20
3.001
 30
0
 11
5.053000000000001
 21
2.992
 31
0
  0
LINE
  8
0
 62
7
 10
5.053000000000001
 20
2.992
 30
0
 11
5.053000000000001
 21
2.98
 31
0
  0
LINE
  8
0
 62
7
 10
5.053000000000001
 20
2.98
 30
0
 11
5.047599999999999
 21
2.968
 31
0
  0
LINE
  8
0
 62
7
 10
5.047599999999999
 20
2.968
 30
0
 11
4.988199999999999
 21
2.890000000000001
 31
0
  0
LINE
  8
0
 62
7
 10
4.988199999999999
 20
2.890000000000001
 30
0
 11
5.053000000000001
 21
2.890000000000001
 31
0
  0
LINE
  8
0
 62
7
 10
5.085399999999999
 20
2.998
 30
0
 11
5.085399999999999
 21
3.01
 31
0
  0
LINE
  8
0
 62
7
 10
5.085399999999999
 20
3.01
 30
0
 11
5.150199999999999
 21
3.01
 31
0
  0
LINE
  8
0
 62
7
 10
5.150199999999999
 20
3.01
 30
0
 11
5.0962
 21
2.890000000000001
 31
0
  0
LINE
  8
0
 62
7
 10
5.182600000000001
 20
2.938
 30
0
 11
5.1853
 21
2.95
 31
0
  0
LINE
  8
0
 62
7
 10
5.1853
 20
2.95
 30
0
 11
5.190700000000001
 21
2.959
 31
0
  0
LINE
  8
0
 62
7
 10
5.190700000000001
 20
2.959
 30
0
 11
5.1988
 21
2.965
 31
0
  0
LINE
  8
0
 62
7
 10
5.1988
 20
2.965
 30
0
 11
5.2069
 21
2.968
 31
0
  0
LINE
  8
0
 62
7
 10
5.2069
 20
2.968
 30
0
 11
5.2231
 21
2.968
 31
0
  0
LINE
  8
0
 62
7
 10
5.2231
 20
2.968
 30
0
 11
5.2312
 21
2.965
 31
0
  0
LINE
  8
0
 62
7
 10
5.2312
 20
2.965
 30
0
 11
5.2393
 21
2.959
 31
0
  0
LINE
  8
0
 62
7
 10
5.2393
 20
2.959
 30
0
 11
5.244700000000002
 21
2.95
 31
0
  0
LINE
  8
0
 62
7
 10
5.244700000000002
 20
2.95
 30
0
 11
5.2474
 21
2.938
 31
0
  0
LINE
  8
0
 62
7
 10
5.2474
 20
2.938
 30
0
 11
5.2474
 21
2.92
 31
0
  0
LINE
  8
0
 62
7
 10
5.2474
 20
2.92
 30
0
 11
5.244700000000002
 21
2.908
 31
0
  0
LINE
  8
0
 62
7
 10
5.244700000000002
 20
2.908
 30
0
 11
5.2393
 21
2.899
 31
0
  0
LINE
  8
0
 62
7
 10
5.2393
 20
2.899
 30
0
 11
5.2312
 21
2.893
 31
0
  0
LINE
  8
0
 62
7
 10
5.2312
 20
2.893
 30
0
 11
5.2231
 21
2.890000000000001
 31
0
  0
LINE
  8
0
 62
7
 10
5.2231
 20
2.890000000000001
 30
0
 11
5.2069
 21
2.890000000000001
 31
0
  0
LINE
  8
0
 62
7
 10
5.2069
 20
2.890000000000001
 30
0
 11
5.1988
 21
2.893
 31
0
  0
LINE
  8
0
 62
7
 10
5.1988
 20
2.893
 30
0
 11
5.190700000000001
 21
2.899
 31
0
  0
LINE
  8
0
 62
7
 10
5.190700000000001
 20
2.899
 30
0
 11
5.1853
 21
2.908
 31
0
  0
LINE
  8
0
 62
7
 10
5.1853
 20
2.908
 30
0
 11
5.182600000000001
 21
2.92
 31
0
  0
LINE
  8
0
 62
7
 10
5.182600000000001
 20
2.92
 30
0
 11
5.182600000000001
 21
2.938
 31
0
  0
LINE
  8
0
 62
7
 10
5.182600000000001
 20
2.98
 30
0
 11
5.1853
 21
2.992
 31
0
  0
LINE
  8
0
 62
7
 10
5.1853
 20
2.992
 30
0
 11
5.190700000000001
 21
3.001
 31
0
  0
LINE
  8
0
 62
7
 10
5.190700000000001
 20
3.001
 30
0
 11
5.1988
 21
3.007
 31
0
  0
LINE
  8
0
 62
7
 10
5.1988
 20
3.007
 30
0
 11
5.2069
 21
3.01
 31
0
  0
LINE
  8
0
 62
7
 10
5.2069
 20
3.01
 30
0
 11
5.2231
 21
3.01
 31
0
  0
LINE
  8
0
 62
7
 10
5.2231
 20
3.01
 30
0
 11
5.2312
 21
3.007
 31
0
  0
LINE
  8
0
 62
7
 10
5.2312
 20
3.007
 30
0
 11
5.2393
 21
3.001
 31
0
  0
LINE
  8
0
 62
7
 10
5.2393
 20
3.001
 30
0
 11
5.244700000000002
 21
2.992
 31
0
  0
LINE
  8
0
 62
7
 10
5.182600000000001
 20
2.938
 30
0
 11
5.182600000000001
 21
2.98
 31
0
  0
LINE
  8
0
 62
7
 10
5.2798
 20
2.890000000000001
 30
0
 11
5.2798
 21
3.01
 31
0
  0
LINE
  8
0
 62
7
 10
5.2798
 20
3.01
 30
0
 11
5.331100000000001
 21
3.01
 31
0
  0
LINE
  8
0
 62
7
 10
5.331100000000001
 20
3.01
 30
0
 11
5.3419
 21
3.007
 31
0
  0
LINE
  8
0
 62
7
 10
5.3419
 20
3.007
 30
0
 11
5.35
 21
3.001
 31
0
  0
LINE
  8
0
 62
7
 10
5.35
 20
3.001
 30
0
 11
5.352699999999999
 21
2.995
 31
0
  0
LINE
  8
0
 62
7
 10
5.352699999999999
 20
2.995
 30
0
 11
5.355399999999999
 21
2.986
 31
0
  0
LINE
  8
0
 62
7
 10
5.355399999999999
 20
2.986
 30
0
 11
5.355399999999999
 21
2.974
 31
0
  0
LINE
  8
0
 62
7
 10
5.355399999999999
 20
2.974
 30
0
 11
5.352699999999999
 21
2.965
 31
0
  0
LINE
  8
0
 62
7
 10
5.352699999999999
 20
2.965
 30
0
 11
5.35
 21
2.959
 31
0
  0
LINE
  8
0
 62
7
 10
5.35
 20
2.959
 30
0
 11
5.3419
 21
2.953
 31
0
  0
LINE
  8
0
 62
7
 10
5.3419
 20
2.953
 30
0
 11
5.331100000000001
 21
2.95
 31
0
  0
LINE
  8
0
 62
7
 10
5.331100000000001
 20
2.95
 30
0
 11
5.323
 21
2.95
 31
0
  0
LINE
  8
0
 62
7
 10
5.323
 20
2.95
 30
0
 11
5.355399999999999
 21
2.890000000000001
 31
0
  0
LINE
  8
0
 62
7
 10
5.323
 20
2.95
 30
0
 11
5.2798
 21
2.95
 31
0
  0
LINE
  8
0
 62
7
 10
5.376999999999999
 20
2.938
 30
0
 11
5.3797
 21
2.95
 31
0
  0
LINE
  8
0
 62
7
 10
5.3797
 20
2.95
 30
0
 11
5.385100000000001
 21
2.959
 31
0
  0
LINE
  8
0
 62
7
 10
5.385100000000001
 20
2.959
 30
0
 11
5.393199999999999
 21
2.965
 31
0
  0
LINE
  8
0
 62
7
 10
5.393199999999999
 20
2.965
 30
0
 11
5.401300000000001
 21
2.968
 31
0
  0
LINE
  8
0
 62
7
 10
5.401300000000001
 20
2.968
 30
0
 11
5.4175
 21
2.968
 31
0
  0
LINE
  8
0
 62
7
 10
5.4175
 20
2.968
 30
0
 11
5.425599999999999
 21
2.965
 31
0
  0
LINE
  8
0
 62
7
 10
5.425599999999999
 20
2.965
 30
0
 11
5.433699999999999
 21
2.959
 31
0
  0
LINE
  8
0
 62
7
 10
5.433699999999999
 20
2.959
 30
0
 11
5.4391
 21
2.95
 31
0
  0
LINE
  8
0
 62
7
 10
5.4391
 20
2.95
 30
0
 11
5.4418
 21
2.938
 31
0
  0
LINE
  8
0
 62
7
 10
5.4418
 20
2.938
 30
0
 11
5.4418
 21
2.92
 31
0
  0
LINE
  8
0
 62
7
 10
5.4418
 20
2.92
 30
0
 11
5.4391
 21
2.908
 31
0
  0
LINE
  8
0
 62
7
 10
5.4391
 20
2.908
 30
0
 11
5.433699999999999
 21
2.899
 31
0
  0
LINE
  8
0
 62
7
 10
5.433699999999999
 20
2.899
 30
0
 11
5.425599999999999
 21
2.893
 31
0
  0
LINE
  8
0
 62
7
 10
5.425599999999999
 20
2.893
 30
0
 11
5.4175
 21
2.890000000000001
 31
0
  0
LINE
  8
0
 62
7
 10
5.4175
 20
2.890000000000001
 30
0
 11
5.401300000000001
 21
2.890000000000001
 31
0
  0
LINE
  8
0
 62
7
 10
5.401300000000001
 20
2.890000000000001
 30
0
 11
5.393199999999999
 21
2.893
 31
0
  0
LINE
  8
0
 62
7
 10
5.393199999999999
 20
2.893
 30
0
 11
5.385100000000001
 21
2.899
 31
0
  0
LINE
  8
0
 62
7
 10
5.385100000000001
 20
2.899
 30
0
 11
5.3797
 21
2.908
 31
0
  0
LINE
  8
0
 62
7
 10
5.3797
 20
2.908
 30
0
 11
5.376999999999999
 21
2.92
 31
0
  0
LINE
  8
0
 62
7
 10
5.376999999999999
 20
2.92
 30
0
 11
5.376999999999999
 21
2.938
 31
0
  0
LINE
  8
0
 62
7
 10
5.376999999999999
 20
2.98
 30
0
 11
5.3797
 21
2.992
 31
0
  0
LINE
  8
0
 62
7
 10
5.3797
 20
2.992
 30
0
 11
5.385100000000001
 21
3.001
 31
0
  0
LINE
  8
0
 62
7
 10
5.385100000000001
 20
3.001
 30
0
 11
5.393199999999999
 21
3.007
 31
0
  0
LINE
  8
0
 62
7
 10
5.393199999999999
 20
3.007
 30
0
 11
5.401300000000001
 21
3.01
 31
0
  0
LINE
  8
0
 62
7
 10
5.401300000000001
 20
3.01
 30
0
 11
5.4175
 21
3.01
 31
0
  0
LINE
  8
0
 62
7
 10
5.4175
 20
3.01
 30
0
 11
5.425599999999999
 21
3.007
 31
0
  0
LINE
  8
0
 62
7
 10
5.425599999999999
 20
3.007
 30
0
 11
5.433699999999999
 21
3.001
 31
0
  0
LINE
  8
0
 62
7
 10
5.433699999999999
 20
3.001
 30
0
 11
5.4391
 21
2.992
 31
0
  0
LINE
  8
0
 62
7
 10
5.376999999999999
 20
2.938
 30
0
 11
5.376999999999999
 21
2.98
 31
0
  0
LINE
  8
0
 62
7
 10
7.175000000000001
 20
2.890000000000001
 30
0
 11
7.175000000000001
 21
2.99
 31
0
  0
LINE
  8
0
 62
7
 10
7.175000000000001
 20
2.99
 30
0
 11
7.238
 21
2.890000000000001
 31
0
  0
LINE
  8
0
 62
7
 10
7.238
 20
2.890000000000001
 30
0
 11
7.238
 21
2.99
 31
0
  0
LINE
  8
0
 62
7
 10
7.319
 20
2.890000000000001
 30
0
 11
7.265000000000001
 21
2.890000000000001
 31
0
  0
LINE
  8
0
 62
7
 10
7.265000000000001
 20
2.890000000000001
 30
0
 11
7.265000000000001
 21
2.99
 31
0
  0
LINE
  8
0
 62
7
 10
7.346
 20
2.94
 30
0
 11
7.382
 21
2.94
 31
0
  0
LINE
  8
0
 62
7
 10
7.382
 20
2.94
 30
0
 11
7.3865
 21
2.94
 31
0
  0
LINE
  8
0
 62
7
 10
7.3865
 20
2.94
 30
0
 11
7.3955
 21
2.935
 31
0
  0
LINE
  8
0
 62
7
 10
7.3955
 20
2.935
 30
0
 11
7.4
 21
2.93
 31
0
  0
LINE
  8
0
 62
7
 10
7.4
 20
2.93
 30
0
 11
7.404499999999999
 21
2.92
 31
0
  0
LINE
  8
0
 62
7
 10
7.404499999999999
 20
2.92
 30
0
 11
7.404499999999999
 21
2.91
 31
0
  0
LINE
  8
0
 62
7
 10
7.404499999999999
 20
2.91
 30
0
 11
7.4
 21
2.9
 31
0
  0
LINE
  8
0
 62
7
 10
7.4
 20
2.9
 30
0
 11
7.3955
 21
2.895
 31
0
  0
LINE
  8
0
 62
7
 10
7.3955
 20
2.895
 30
0
 11
7.3865
 21
2.890000000000001
 31
0
  0
LINE
  8
0
 62
7
 10
7.3865
 20
2.890000000000001
 30
0
 11
7.346
 21
2.890000000000001
 31
0
  0
LINE
  8
0
 62
7
 10
7.346
 20
2.890000000000001
 30
0
 11
7.346
 21
2.94
 31
0
  0
LINE
  8
0
 62
7
 10
7.346
 20
2.99
 30
0
 11
7.37975
 21
2.99
 31
0
  0
LINE
  8
0
 62
7
 10
7.37975
 20
2.99
 30
0
 11
7.391
 21
2.9875
 31
0
  0
LINE
  8
0
 62
7
 10
7.391
 20
2.9875
 30
0
 11
7.397750000000001
 21
2.98
 31
0
  0
LINE
  8
0
 62
7
 10
7.397750000000001
 20
2.98
 30
0
 11
7.4
 21
2.97
 31
0
  0
LINE
  8
0
 62
7
 10
7.4
 20
2.97
 30
0
 11
7.4
 21
2.96
 31
0
  0
LINE
  8
0
 62
7
 10
7.4
 20
2.96
 30
0
 11
7.3955
 21
2.95
 31
0
  0
LINE
  8
0
 62
7
 10
7.3955
 20
2.95
 30
0
 11
7.388750000000001
 21
2.9425
 31
0
  0
LINE
  8
0
 62
7
 10
7.388750000000001
 20
2.9425
 30
0
 11
7.382
 21
2.94
 31
0
  0
LINE
  8
0
 62
7
 10
7.346
 20
2.94
 30
0
 11
7.346
 21
2.99
 31
0
  0
LINE
  8
0
 62
7
 10
7.546250000000001
 20
2.9425
 30
0
 11
7.5395
 21
2.952500000000001
 31
0
  0
LINE
  8
0
 62
7
 10
7.5395
 20
2.952500000000001
 30
0
 11
7.53275
 21
2.9575
 31
0
  0
LINE
  8
0
 62
7
 10
7.53275
 20
2.9575
 30
0
 11
7.526
 21
2.96
 31
0
  0
LINE
  8
0
 62
7
 10
7.526
 20
2.96
 30
0
 11
7.516999999999999
 21
2.96
 31
0
  0
LINE
  8
0
 62
7
 10
7.516999999999999
 20
2.96
 30
0
 11
7.510250000000001
 21
2.9575
 31
0
  0
LINE
  8
0
 62
7
 10
7.510250000000001
 20
2.9575
 30
0
 11
7.5035
 21
2.952500000000001
 31
0
  0
LINE
  8
0
 62
7
 10
7.5035
 20
2.952500000000001
 30
0
 11
7.49675
 21
2.9425
 31
0
  0
LINE
  8
0
 62
7
 10
7.49675
 20
2.9425
 30
0
 11
7.494499999999999
 21
2.935
 31
0
  0
LINE
  8
0
 62
7
 10
7.494499999999999
 20
2.935
 30
0
 11
7.494499999999999
 21
2.915
 31
0
  0
LINE
  8
0
 62
7
 10
7.494499999999999
 20
2.915
 30
0
 11
7.49675
 21
2.9075
 31
0
  0
LINE
  8
0
 62
7
 10
7.49675
 20
2.9075
 30
0
 11
7.5035
 21
2.8975
 31
0
  0
LINE
  8
0
 62
7
 10
7.5035
 20
2.8975
 30
0
 11
7.510250000000001
 21
2.8925
 31
0
  0
LINE
  8
0
 62
7
 10
7.510250000000001
 20
2.8925
 30
0
 11
7.516999999999999
 21
2.890000000000001
 31
0
  0
LINE
  8
0
 62
7
 10
7.516999999999999
 20
2.890000000000001
 30
0
 11
7.526
 21
2.890000000000001
 31
0
  0
LINE
  8
0
 62
7
 10
7.526
 20
2.890000000000001
 30
0
 11
7.53275
 21
2.8925
 31
0
  0
LINE
  8
0
 62
7
 10
7.53275
 20
2.8925
 30
0
 11
7.5395
 21
2.8975
 31
0
  0
LINE
  8
0
 62
7
 10
7.5395
 20
2.8975
 30
0
 11
7.546250000000001
 21
2.9075
 31
0
  0
LINE
  8
0
 62
7
 10
7.61825
 20
2.935
 30
0
 11
7.616
 21
2.9425
 31
0
  0
LINE
  8
0
 62
7
 10
7.616
 20
2.9425
 30
0
 11
7.60925
 21
2.952500000000001
 31
0
  0
LINE
  8
0
 62
7
 10
7.60925
 20
2.952500000000001
 30
0
 11
7.602500000000001
 21
2.9575
 31
0
  0
LINE
  8
0
 62
7
 10
7.602500000000001
 20
2.9575
 30
0
 11
7.59575
 21
2.96
 31
0
  0
LINE
  8
0
 62
7
 10
7.59575
 20
2.96
 30
0
 11
7.586750000000001
 21
2.96
 31
0
  0
LINE
  8
0
 62
7
 10
7.586750000000001
 20
2.96
 30
0
 11
7.58
 21
2.9575
 31
0
  0
LINE
  8
0
 62
7
 10
7.58
 20
2.9575
 30
0
 11
7.573249999999999
 21
2.952500000000001
 31
0
  0
LINE
  8
0
 62
7
 10
7.573249999999999
 20
2.952500000000001
 30
0
 11
7.566500000000001
 21
2.9425
 31
0
  0
LINE
  8
0
 62
7
 10
7.566500000000001
 20
2.9425
 30
0
 11
7.56425
 21
2.935
 31
0
  0
LINE
  8
0
 62
7
 10
7.56425
 20
2.935
 30
0
 11
7.56425
 21
2.915
 31
0
  0
LINE
  8
0
 62
7
 10
7.56425
 20
2.915
 30
0
 11
7.566500000000001
 21
2.9075
 31
0
  0
LINE
  8
0
 62
7
 10
7.566500000000001
 20
2.9075
 30
0
 11
7.573249999999999
 21
2.8975
 31
0
  0
LINE
  8
0
 62
7
 10
7.573249999999999
 20
2.8975
 30
0
 11
7.58
 21
2.8925
 31
0
  0
LINE
  8
0
 62
7
 10
7.58
 20
2.8925
 30
0
 11
7.586750000000001
 21
2.890000000000001
 31
0
  0
LINE
  8
0
 62
7
 10
7.586750000000001
 20
2.890000000000001
 30
0
 11
7.59575
 21
2.890000000000001
 31
0
  0
LINE
  8
0
 62
7
 10
7.59575
 20
2.890000000000001
 30
0
 11
7.602500000000001
 21
2.8925
 31
0
  0
LINE
  8
0
 62
7
 10
7.602500000000001
 20
2.8925
 30
0
 11
7.60925
 21
2.8975
 31
0
  0
LINE
  8
0
 62
7
 10
7.60925
 20
2.8975
 30
0
 11
7.616
 21
2.9075
 31
0
  0
LINE
  8
0
 62
7
 10
7.616
 20
2.9075
 30
0
 11
7.61825
 21
2.915
 31
0
  0
LINE
  8
0
 62
7
 10
7.61825
 20
2.96
 30
0
 11
7.61825
 21
2.935
 31
0
  0
LINE
  8
0
 62
7
 10
7.61825
 20
2.8925
 30
0
 11
7.6205
 21
2.890000000000001
 31
0
  0
LINE
  8
0
 62
7
 10
7.6205
 20
2.890000000000001
 30
0
 11
7.622750000000001
 21
2.890000000000001
 31
0
  0
LINE
  8
0
 62
7
 10
7.61825
 20
2.915
 30
0
 11
7.61825
 21
2.8925
 31
0
  0
LINE
  8
0
 62
7
 10
7.61825
 20
2.935
 30
0
 11
7.61825
 21
2.915
 31
0
  0
LINE
  8
0
 62
7
 10
7.640750000000001
 20
2.890000000000001
 30
0
 11
7.640750000000001
 21
2.8925
 31
0
  0
LINE
  8
0
 62
7
 10
7.640750000000001
 20
2.8925
 30
0
 11
7.643000000000001
 21
2.8925
 31
0
  0
LINE
  8
0
 62
7
 10
7.643000000000001
 20
2.8925
 30
0
 11
7.643000000000001
 21
2.890000000000001
 31
0
  0
LINE
  8
0
 62
7
 10
7.643000000000001
 20
2.890000000000001
 30
0
 11
7.640750000000001
 21
2.890000000000001
 31
0
  0
LINE
  8
0
 62
7
 10
7.766750000000001
 20
2.99
 30
0
 11
7.775749999999999
 21
2.99
 31
0
  0
LINE
  8
0
 62
7
 10
7.775749999999999
 20
2.99
 30
0
 11
7.782500000000001
 21
2.9875
 31
0
  0
LINE
  8
0
 62
7
 10
7.782500000000001
 20
2.9875
 30
0
 11
7.786999999999999
 21
2.9825
 31
0
  0
LINE
  8
0
 62
7
 10
7.786999999999999
 20
2.9825
 30
0
 11
7.791500000000001
 21
2.975
 31
0
  0
LINE
  8
0
 62
7
 10
7.791500000000001
 20
2.975
 30
0
 11
7.791500000000001
 21
2.965
 31
0
  0
LINE
  8
0
 62
7
 10
7.791500000000001
 20
2.965
 30
0
 11
7.78925
 21
2.96
 31
0
  0
LINE
  8
0
 62
7
 10
7.78925
 20
2.96
 30
0
 11
7.782500000000001
 21
2.952500000000001
 31
0
  0
LINE
  8
0
 62
7
 10
7.782500000000001
 20
2.952500000000001
 30
0
 11
7.775749999999999
 21
2.95
 31
0
  0
LINE
  8
0
 62
7
 10
7.775749999999999
 20
2.95
 30
0
 11
7.766750000000001
 21
2.95
 31
0
  0
LINE
  8
0
 62
7
 10
7.766750000000001
 20
2.95
 30
0
 11
7.760000000000002
 21
2.952500000000001
 31
0
  0
LINE
  8
0
 62
7
 10
7.760000000000002
 20
2.952500000000001
 30
0
 11
7.75325
 21
2.96
 31
0
  0
LINE
  8
0
 62
7
 10
7.75325
 20
2.96
 30
0
 11
7.750999999999999
 21
2.965
 31
0
  0
LINE
  8
0
 62
7
 10
7.750999999999999
 20
2.965
 30
0
 11
7.750999999999999
 21
2.975
 31
0
  0
LINE
  8
0
 62
7
 10
7.750999999999999
 20
2.975
 30
0
 11
7.755500000000001
 21
2.9825
 31
0
  0
LINE
  8
0
 62
7
 10
7.755500000000001
 20
2.9825
 30
0
 11
7.760000000000002
 21
2.9875
 31
0
  0
LINE
  8
0
 62
7
 10
7.760000000000002
 20
2.9875
 30
0
 11
7.766750000000001
 21
2.99
 31
0
  0
LINE
  8
0
 62
7
 10
7.766750000000001
 20
2.95
 30
0
 11
7.755500000000001
 21
2.945
 31
0
  0
LINE
  8
0
 62
7
 10
7.755500000000001
 20
2.945
 30
0
 11
7.74875
 21
2.9375
 31
0
  0
LINE
  8
0
 62
7
 10
7.74875
 20
2.9375
 30
0
 11
7.74425
 21
2.9275
 31
0
  0
LINE
  8
0
 62
7
 10
7.74425
 20
2.9275
 30
0
 11
7.74425
 21
2.9125
 31
0
  0
LINE
  8
0
 62
7
 10
7.74425
 20
2.9125
 30
0
 11
7.74875
 21
2.9025
 31
0
  0
LINE
  8
0
 62
7
 10
7.74875
 20
2.9025
 30
0
 11
7.755500000000001
 21
2.895
 31
0
  0
LINE
  8
0
 62
7
 10
7.755500000000001
 20
2.895
 30
0
 11
7.7645
 21
2.890000000000001
 31
0
  0
LINE
  8
0
 62
7
 10
7.7645
 20
2.890000000000001
 30
0
 11
7.778
 21
2.890000000000001
 31
0
  0
LINE
  8
0
 62
7
 10
7.778
 20
2.890000000000001
 30
0
 11
7.786999999999999
 21
2.895
 31
0
  0
LINE
  8
0
 62
7
 10
7.786999999999999
 20
2.895
 30
0
 11
7.79375
 21
2.9025
 31
0
  0
LINE
  8
0
 62
7
 10
7.79375
 20
2.9025
 30
0
 11
7.798249999999999
 21
2.9125
 31
0
  0
LINE
  8
0
 62
7
 10
7.798249999999999
 20
2.9125
 30
0
 11
7.798249999999999
 21
2.9275
 31
0
  0
LINE
  8
0
 62
7
 10
7.798249999999999
 20
2.9275
 30
0
 11
7.79375
 21
2.9375
 31
0
  0
LINE
  8
0
 62
7
 10
7.79375
 20
2.9375
 30
0
 11
7.786999999999999
 21
2.945
 31
0
  0
LINE
  8
0
 62
7
 10
7.786999999999999
 20
2.945
 30
0
 11
7.775749999999999
 21
2.95
 31
0
  0
LINE
  8
0
 62
7
 10
7.888249999999999
 20
2.95
 30
0
 11
7.886
 21
2.94
 31
0
  0
LINE
  8
0
 62
7
 10
7.886
 20
2.94
 30
0
 11
7.8815
 21
2.9325
 31
0
  0
LINE
  8
0
 62
7
 10
7.8815
 20
2.9325
 30
0
 11
7.874749999999999
 21
2.9275
 31
0
  0
LINE
  8
0
 62
7
 10
7.874749999999999
 20
2.9275
 30
0
 11
7.868000000000001
 21
2.925
 31
0
  0
LINE
  8
0
 62
7
 10
7.868000000000001
 20
2.925
 30
0
 11
7.854499999999999
 21
2.925
 31
0
  0
LINE
  8
0
 62
7
 10
7.854499999999999
 20
2.925
 30
0
 11
7.847750000000001
 21
2.9275
 31
0
  0
LINE
  8
0
 62
7
 10
7.847750000000001
 20
2.9275
 30
0
 11
7.841
 21
2.9325
 31
0
  0
LINE
  8
0
 62
7
 10
7.841
 20
2.9325
 30
0
 11
7.8365
 21
2.94
 31
0
  0
LINE
  8
0
 62
7
 10
7.8365
 20
2.94
 30
0
 11
7.834250000000001
 21
2.95
 31
0
  0
LINE
  8
0
 62
7
 10
7.834250000000001
 20
2.95
 30
0
 11
7.834250000000001
 21
2.965
 31
0
  0
LINE
  8
0
 62
7
 10
7.834250000000001
 20
2.965
 30
0
 11
7.8365
 21
2.975
 31
0
  0
LINE
  8
0
 62
7
 10
7.8365
 20
2.975
 30
0
 11
7.841
 21
2.9825
 31
0
  0
LINE
  8
0
 62
7
 10
7.841
 20
2.9825
 30
0
 11
7.847750000000001
 21
2.9875
 31
0
  0
LINE
  8
0
 62
7
 10
7.847750000000001
 20
2.9875
 30
0
 11
7.854499999999999
 21
2.99
 31
0
  0
LINE
  8
0
 62
7
 10
7.854499999999999
 20
2.99
 30
0
 11
7.868000000000001
 21
2.99
 31
0
  0
LINE
  8
0
 62
7
 10
7.868000000000001
 20
2.99
 30
0
 11
7.874749999999999
 21
2.9875
 31
0
  0
LINE
  8
0
 62
7
 10
7.874749999999999
 20
2.9875
 30
0
 11
7.8815
 21
2.9825
 31
0
  0
LINE
  8
0
 62
7
 10
7.8815
 20
2.9825
 30
0
 11
7.886
 21
2.975
 31
0
  0
LINE
  8
0
 62
7
 10
7.886
 20
2.975
 30
0
 11
7.888249999999999
 21
2.965
 31
0
  0
LINE
  8
0
 62
7
 10
7.888249999999999
 20
2.965
 30
0
 11
7.888249999999999
 21
2.95
 31
0
  0
LINE
  8
0
 62
7
 10
7.888249999999999
 20
2.915
 30
0
 11
7.886
 21
2.905
 31
0
  0
LINE
  8
0
 62
7
 10
7.886
 20
2.905
 30
0
 11
7.8815
 21
2.8975
 31
0
  0
LINE
  8
0
 62
7
 10
7.8815
 20
2.8975
 30
0
 11
7.874749999999999
 21
2.8925
 31
0
  0
LINE
  8
0
 62
7
 10
7.874749999999999
 20
2.8925
 30
0
 11
7.868000000000001
 21
2.890000000000001
 31
0
  0
LINE
  8
0
 62
7
 10
7.868000000000001
 20
2.890000000000001
 30
0
 11
7.854499999999999
 21
2.890000000000001
 31
0
  0
LINE
  8
0
 62
7
 10
7.854499999999999
 20
2.890000000000001
 30
0
 11
7.847750000000001
 21
2.8925
 31
0
  0
LINE
  8
0
 62
7
 10
7.847750000000001
 20
2.8925
 30
0
 11
7.841
 21
2.8975
 31
0
  0
LINE
  8
0
 62
7
 10
7.841
 20
2.8975
 30
0
 11
7.8365
 21
2.905
 31
0
  0
LINE
  8
0
 62
7
 10
7.888249999999999
 20
2.95
 30
0
 11
7.888249999999999
 21
2.915
 31
0
  0
LINE
  8
0
 62
7
 10
8.039
 20
2.9425
 30
0
 11
8.032249999999999
 21
2.952500000000001
 31
0
  0
LINE
  8
0
 62
7
 10
8.032249999999999
 20
2.952500000000001
 30
0
 11
8.025499999999999
 21
2.9575
 31
0
  0
LINE
  8
0
 62
7
 10
8.025499999999999
 20
2.9575
 30
0
 11
8.018750000000001
 21
2.96
 31
0
  0
LINE
  8
0
 62
7
 10
8.018750000000001
 20
2.96
 30
0
 11
8.00975
 21
2.96
 31
0
  0
LINE
  8
0
 62
7
 10
8.00975
 20
2.96
 30
0
 11
8.003
 21
2.9575
 31
0
  0
LINE
  8
0
 62
7
 10
8.003
 20
2.9575
 30
0
 11
7.996250000000001
 21
2.952500000000001
 31
0
  0
LINE
  8
0
 62
7
 10
7.996250000000001
 20
2.952500000000001
 30
0
 11
7.9895
 21
2.9425
 31
0
  0
LINE
  8
0
 62
7
 10
7.9895
 20
2.9425
 30
0
 11
7.98725
 21
2.935
 31
0
  0
LINE
  8
0
 62
7
 10
7.98725
 20
2.935
 30
0
 11
7.98725
 21
2.915
 31
0
  0
LINE
  8
0
 62
7
 10
7.98725
 20
2.915
 30
0
 11
7.9895
 21
2.9075
 31
0
  0
LINE
  8
0
 62
7
 10
7.9895
 20
2.9075
 30
0
 11
7.996250000000001
 21
2.8975
 31
0
  0
LINE
  8
0
 62
7
 10
7.996250000000001
 20
2.8975
 30
0
 11
8.003
 21
2.8925
 31
0
  0
LINE
  8
0
 62
7
 10
8.003
 20
2.8925
 30
0
 11
8.00975
 21
2.890000000000001
 31
0
  0
LINE
  8
0
 62
7
 10
8.00975
 20
2.890000000000001
 30
0
 11
8.018750000000001
 21
2.890000000000001
 31
0
  0
LINE
  8
0
 62
7
 10
8.018750000000001
 20
2.890000000000001
 30
0
 11
8.025499999999999
 21
2.8925
 31
0
  0
LINE
  8
0
 62
7
 10
8.025499999999999
 20
2.8925
 30
0
 11
8.032249999999999
 21
2.8975
 31
0
  0
LINE
  8
0
 62
7
 10
8.032249999999999
 20
2.8975
 30
0
 11
8.039
 21
2.9075
 31
0
  0
LINE
  8
0
 62
7
 10
8.097500000000002
 20
2.935
 30
0
 11
8.097500000000002
 21
2.890000000000001
 31
0
  0
LINE
  8
0
 62
7
 10
8.057
 20
2.96
 30
0
 11
8.057
 21
2.935
 31
0
  0
LINE
  8
0
 62
7
 10
8.057
 20
2.890000000000001
 30
0
 11
8.057
 21
2.935
 31
0
  0
LINE
  8
0
 62
7
 10
8.057
 20
2.935
 30
0
 11
8.05925
 21
2.9475
 31
0
  0
LINE
  8
0
 62
7
 10
8.05925
 20
2.9475
 30
0
 11
8.061500000000001
 21
2.952500000000001
 31
0
  0
LINE
  8
0
 62
7
 10
8.061500000000001
 20
2.952500000000001
 30
0
 11
8.066000000000001
 21
2.9575
 31
0
  0
LINE
  8
0
 62
7
 10
8.066000000000001
 20
2.9575
 30
0
 11
8.072750000000001
 21
2.96
 31
0
  0
LINE
  8
0
 62
7
 10
8.072750000000001
 20
2.96
 30
0
 11
8.08175
 21
2.96
 31
0
  0
LINE
  8
0
 62
7
 10
8.08175
 20
2.96
 30
0
 11
8.0885
 21
2.9575
 31
0
  0
LINE
  8
0
 62
7
 10
8.0885
 20
2.9575
 30
0
 11
8.093000000000002
 21
2.952500000000001
 31
0
  0
LINE
  8
0
 62
7
 10
8.093000000000002
 20
2.952500000000001
 30
0
 11
8.09525
 21
2.9475
 31
0
  0
LINE
  8
0
 62
7
 10
8.09525
 20
2.9475
 30
0
 11
8.097500000000002
 21
2.935
 31
0
  0
LINE
  8
0
 62
7
 10
8.097500000000002
 20
2.935
 30
0
 11
8.099749999999998
 21
2.9475
 31
0
  0
LINE
  8
0
 62
7
 10
8.099749999999998
 20
2.9475
 30
0
 11
8.102
 21
2.952500000000001
 31
0
  0
LINE
  8
0
 62
7
 10
8.102
 20
2.952500000000001
 30
0
 11
8.1065
 21
2.9575
 31
0
  0
LINE
  8
0
 62
7
 10
8.1065
 20
2.9575
 30
0
 11
8.113249999999999
 21
2.96
 31
0
  0
LINE
  8
0
 62
7
 10
8.113249999999999
 20
2.96
 30
0
 11
8.122249999999999
 21
2.96
 31
0
  0
LINE
  8
0
 62
7
 10
8.122249999999999
 20
2.96
 30
0
 11
8.129000000000001
 21
2.9575
 31
0
  0
LINE
  8
0
 62
7
 10
8.1335
 20
2.952500000000001
 30
0
 11
8.129000000000001
 21
2.9575
 31
0
  0
LINE
  8
0
 62
7
 10
8.129000000000001
 20
2.9575
 30
0
 11
8.1335
 21
2.952500000000001
 31
0
  0
LINE
  8
0
 62
7
 10
8.1335
 20
2.952500000000001
 30
0
 11
8.13575
 21
2.9475
 31
0
  0
LINE
  8
0
 62
7
 10
8.13575
 20
2.9475
 30
0
 11
8.138
 21
2.935
 31
0
  0
LINE
  8
0
 62
7
 10
8.138
 20
2.935
 30
0
 11
8.138
 21
2.890000000000001
 31
0
  0
ARC
  8
0
 62
7
 10
5.668934190587642
 20
4.016065809412489
 30
0
 40
0.4849999999999978
 50
89.87405771849481
 51
180.125942274939
  0
ARC
  8
0
 62
7
 10
6.42106580941249
 20
4.01606580941244
 30
0
 40
0.4849999999999995
 50
359.8740577184487
 51
90.12594227892139
  0
CIRCLE
  8
0
 62
7
 10
5.183935362268588
 20
3.25
 30
0
 40
0.0600000000000005
  0
DIMENSION
  8
0
  6
CONTINUOUS
 62
7
  2
*D0
  3
DMST_1
 10
8.024767488502819
 20
5.02
 30
0
 11
8.024767488502819
 21
4.22713366121615
 31
0
 12
0
 22
0
 32
0
 70
0
 13
7.600000000000001
 23
3.35
 33
0
 14
7.600000000000001
 24
5.02
 34
0
 50
90
 53
0
  0
DIMENSION
  8
0
  6
CONTINUOUS
 62
7
  2
*D1
  3
DMST_1
 10
7.425000000000001
 20
5.88787122381196
 30
0
 11
6.055055495656621
 21
5.88787122381196
 31
0
 12
0
 22
0
 32
0
 70
0
 13
4.665
 23
5.539999999999999
 33
0
 14
7.425000000000001
 24
5.539999999999999
 34
0
 53
0
  0
DIMENSION
  8
0
  6
CONTINUOUS
 62
7
  2
*D2
  3
DMST_1
 10
4.201208914154321
 20
3.25
 30
0
 11
4.201208914154321
 21
4.12414218446602
 31
0
 12
0
 22
0
 32
0
 70
0
 13
4.49
 23
5.02
 33
0
 14
4.49
 24
3.25
 34
0
 50
90
 53
0
  0
DIMENSION
  8
0
  6
CONTINUOUS
 62
7
  2
*D3
  3
DMST_2
 10
4.665000000000001
 20
11.4751588375064
 30
0
 11
6.042181561062861
 21
11.4751588375064
 31
0
 12
0
 22
0
 32
0
 70
0
 13
7.425000000000001
 23
11.2
 33
0
 14
4.665
 24
11.2
 34
0
 53
0
  0
INSERT
  8
0
  2
*D4
 10
0
 20
0
 30
0
  0
ENDSEC
  0
EOF
