  0
SECTION
  2
HEADER
  9
$ACADVER
  1
AC1009
  9
$INSBASE
 10
0
 20
0
  9
$EXTMIN
 10
0.520381719824408
 20
2.890000000000002
  9
$EXTMAX
 10
8.25
 20
11.5351189597825
  9
$LIMMIN
 10
0.520381719824408
 20
2.890000000000002
  9
$LIMMAX
 10
8.25
 20
11.5351189597825
  9
$VIEWCTR
 10
10
 20
10
  9
$VIEWSIZE
 40
10
  9
$SNAPMODE
 70
0
  9
$SNAPUNIT
 10
1
 20
1
  9
$SNAPBASE
 10
0
 20
0
  9
$SNAPANG
 50
0
  9
$SNAPSTYLE
 70
0
  9
$SNAPISOPAIR
 70
0
  9
$GRIDMODE
 70
0
  9
$GRIDUNIT
 10
0
 20
0
  9
$ORTHOMODE
 70
0
  9
$REGENMODE
 70
1
  9
$FILLMODE
 70
1
  9
$QTEXTMODE
 70
0
  9
$DRAGMODE
 70
2
  9
$LTSCALE
 40
1
  9
$OSMODE
 70
0
  9
$ATTMODE
 70
1
  9
$TEXTSIZE
 40
3.5
  9
$TRACEWID
 40
0.5
  9
$TEXTSTYLE
  7
STANDARD
  9
$CLAYER
  8
0
  9
$CELTYPE
  6
BYLAYER
  9
$CECOLOR
 62
256
  9
$DIMSCALE
 40
1
  9
$DIMASZ
 40
0.18
  9
$DIMEXO
 40
0.0625
  9
$DIMDLI
 40
0.38
  9
$DIMRND
 40
0
  9
$DIMDLE
 40
0
  9
$DIMEXE
 40
0.18
  9
$DIMTP
 40
0
  9
$DIMTM
 40
0
  9
$DIMTXT
 40
0.18
  9
$DIMCEN
 40
0.09
  9
$DIMTSZ
 40
0
  9
$DIMTOL
 70
0
  9
$DIMLIM
 70
0
  9
$DIMTIH
 70
1
  9
$DIMTOH
 70
1
  9
$DIMSE1
 70
0
  9
$DIMSE2
 70
0
  9
$DIMTAD
 70
0
  9
$DIMZIN
 70
0
  9
$DIMBLK
  1

  9
$DIMASO
 70
1
  9
$DIMSHO
 70
1
  9
$DIMPOST
  1

  9
$DIMAPOST
  1

  9
$DIMALT
 70
0
  9
$DIMALTD
 70
2
  9
$DIMALTF
 40
25.4
  9
$DIMLFAC
 40
1
  9
$DIMTOFL
 70
0
  9
$DIMTVP
 40
0
  9
$DIMTIX
 70
0
  9
$DIMSOXD
 70
0
  9
$DIMSAH
 70
0
  9
$DIMBLK1
  1

  9
$DIMBLK2
  1

  9
$DIMSTYLE
  2
*UNNAMED
  9
$DIMCLRD
 70
0
  9
$DIMCLRE
 70
0
  9
$DIMCLRT
 70
0
  9
$DIMTFAC
 40
1
  9
$DIMGAP
 40
0.09
  9
$LUNITS
 70
2
  9
$LUPREC
 70
4
  9
$AXISMODE
 70
0
  9
$AXISUNIT
 10
0
 20
0
  9
$SKETCHINC
 40
0.1
  9
$FILLETRAD
 40
2
  9
$AUNITS
 70
0
  9
$AUPREC
 70
0
  9
$MENU
  1
ACAD
  9
$ELEVATION
 40
0
  9
$THICKNESS
 40
0
  9
$VIEWDIR
 10
0
 20
0
 30
1
  9
$LIMCHECK
 70
0
  9
$BLIPMODE
 70
1
  9
$CHAMFERA
 40
0
  9
$CHAMFERB
 40
0
  9
$FASTZOOM
 70
1
  9
$SKPOLY
 70
0
  9
$ANGBASE
 50
0
  9
$ANGDIR
 70
0
  9
$PDMODE
 70
0
  9
$PDSIZE
 40
0
  9
$PLINEWID
 40
0
  9
$COORDS
 70
2
  0
ENDSEC
  0
SECTION
  2
TABLES
  0
TABLE
  2
DIMSTYLE
 70
2
  0
DIMSTYLE
  2
DMST_1
 70
0
  3

  4

  5

  6

  7

 40
1
 41
0.1
 42
0
 43
0.7
 44
0.2
 45
0
 46
0
 47
0
 48
0
140
0.1
141
0
142
0.1
143
25.4
144
1
145
0
146
1
147
0.25
 71
0
 72
0
 73
0
 74
0
 75
0
 76
0
 77
0
 78
9
170
0
171
2
172
0
173
0
174
0
175
0
176
7
177
7
178
7
  0
DIMSTYLE
  2
DMST_2
 70
0
  3

  4

  5

  6

  7

 40
1
 41
0.1
 42
0
 43
0.7
 44
0.2
 45
0
 46
0
 47
0
 48
0
140
0.1
141
0
142
0.1
143
25.4
144
1
145
0
146
1
147
0.2
 71
0
 72
0
 73
0
 74
0
 75
0
 76
0
 77
0
 78
9
170
0
171
2
172
0
173
0
174
0
175
0
176
7
177
7
178
7
  0
ENDTAB
  0
TABLE
  2
LTYPE
 70
9
  0
LTYPE
  2
CONTINUOUS
 70
64
  3
Solid line
 72
65
 73
0
 40
0
  0
LTYPE
  2
BORDER
 70
64
  3
__ __ . __ __ .
 72
65
 73
6
 40
0.398130478411036
 49
0.113751565260296
 49
-0.05687578263014801
 49
0.113751565260296
 49
-0.05687578263014801
 49
0
 49
-0.05687578263014801
  0
LTYPE
  2
CENTER
 70
64
  3
____ _ ____ _
 72
65
 73
4
 40
0.4550062610411841
 49
0.28437891315074
 49
-0.05687578263014801
 49
0.05687578263014801
 49
-0.05687578263014801
  0
LTYPE
  2
DASHDOT
 70
64
  3
__ . __ . __ .
 72
65
 73
4
 40
0.227503130520592
 49
0.113751565260296
 49
-0.05687578263014801
 49
0
 49
-0.05687578263014801
  0
LTYPE
  2
DASHED
 70
64
  3
__ __ __ __ __
 72
65
 73
2
 40
0.170627347890444
 49
0.113751565260296
 49
-0.05687578263014801
  0
LTYPE
  2
DIVIDE
 70
64
  3
__ . . __ . . 
 72
65
 73
6
 40
0.28437891315074
 49
0.113751565260296
 49
-0.05687578263014801
 49
0
 49
-0.05687578263014801
 49
0
 49
-0.05687578263014801
  0
LTYPE
  2
DOT
 70
64
  3
..............
 72
65
 73
4
 40
0.113751565260296
 49
0
 49
-0.05687578263014801
 49
0
 49
-0.05687578263014801
  0
LTYPE
  2
HIDDEN
 70
64
  3
_ _ _ _ _ _ _
 72
65
 73
2
 40
0.08531367394522202
 49
0.05687578263014801
 49
-0.028437891315074
  0
LTYPE
  2
PHANTOM
 70
64
  3
_____ _ _ _____ _ _ 
 72
65
 73
6
 40
0.5687578263014801
 49
0.28437891315074
 49
-0.05687578263014801
 49
0.05687578263014801
 49
-0.05687578263014801
 49
0.05687578263014801
 49
-0.05687578263014801
  0
ENDTAB
  0
TABLE
  2
LAYER
 70
2
  0
LAYER
  2
0
 70
0
 62
7
  6
CONTINUOUS
  0
ENDTAB
  0
TABLE
  2
STYLE
 70
4
  0
STYLE
  2
STANDARD
 70
0
 40
0
 41
1
 50
0
 71
0
 42
3.5
  3
txt
  4

  0
STYLE
  2
SIMPLEX
 70
0
 40
0
 41
1
 50
0
 71
0
 42
3.5
  3
simplex
  4

  0
STYLE
  2
COMPLEX
 70
0
 40
0
 41
1
 50
0
 71
0
 42
3.5
  3
complex
  4

  0
STYLE
  2
ITALIC
 70
0
 40
0
 41
1
 50
0
 71
0
 42
3.5
  3
italic
  4

  0
ENDTAB
  0
TABLE
  2
VIEW
 70
0
  0
ENDTAB
  0
ENDSEC
  0
SECTION
  2
BLOCKS
  0
BLOCK
  8
0
  2
*X0
 70
1
 10
0
 20
0
 30
0
  0
LINE
  8
0
 62
7
  6
DASHED
 10
7.960000000000002
 20
8.278198051533948
 30
0
 11
7.981801948466051
 21
8.299999999999997
 31
0
  0
LINE
  8
0
 62
7
  6
DASHED
 10
7.993933982822019
 20
8.1
 30
0
 11
8.193933982822015
 21
8.299999999999997
 31
0
  0
LINE
  8
0
 62
7
 10
7.960000000000001
 20
8.172132034355965
 30
0
 11
8.087867965644037
 21
8.299999999999999
 31
0
  0
LINE
  8
0
 62
7
 10
8.100000000000001
 20
8.1
 30
0
 11
8.200000000000003
 21
8.200000000000001
 31
0
  0
ENDBLK
  8
0
  0
BLOCK
  8
0
  2
*X1
 70
1
 10
0
 20
0
 30
0
  0
LINE
  8
0
 62
7
  6
DASHED
 10
7.959999999999999
 20
11.03591449816148
 30
0
 11
7.97408550183852
 21
11.05
 31
0
  0
LINE
  8
0
 62
7
  6
DASHED
 10
7.986217536194484
 20
10.85
 30
0
 11
8.186217536194484
 21
11.05
 31
0
  0
LINE
  8
0
 62
7
  6
DASHED
 10
8.198349570550448
 20
10.85
 30
0
 11
8.200000000000001
 21
10.85165042944955
 31
0
  0
LINE
  8
0
 62
7
 10
7.960000000000002
 20
10.9298484809835
 30
0
 11
8.0801515190165
 21
11.05
 31
0
  0
LINE
  8
0
 62
7
 10
8.092283553372464
 20
10.85
 30
0
 11
8.199999999999999
 21
10.95771644662753
 31
0
  0
ENDBLK
  8
0
  0
BLOCK
  8
0
  2
*X2
 70
1
 10
0
 20
0
 30
0
  0
LINE
  8
0
 62
7
  6
DASHED
 10
6.08
 20
10.85297077300919
 30
0
 11
6.277029226990805
 21
11.05
 31
0
  0
LINE
  8
0
 62
7
  6
DASHED
 10
6.28916126134677
 20
10.85
 30
0
 11
6.380000000000001
 21
10.94083873865323
 31
0
  0
LINE
  8
0
 62
7
 10
6.080000000000001
 20
10.95903679018718
 30
0
 11
6.170963209812823
 21
11.05
 31
0
  0
LINE
  8
0
 62
7
 10
6.183095244168788
 20
10.85
 30
0
 11
6.380000000000001
 21
11.04690475583121
 31
0
  0
ENDBLK
  8
0
  0
BLOCK
  8
0
  2
*X3
 70
1
 10
0
 20
0
 30
0
  0
LINE
  8
0
 62
7
  6
DASHED
 10
6.084745673618341
 20
8.100000000000001
 30
0
 11
6.28474567361834
 21
8.299999999999999
 31
0
  0
LINE
  8
0
 62
7
  6
DASHED
 10
6.296877707974305
 20
8.100000000000001
 30
0
 11
6.380000000000002
 21
8.183122292025697
 31
0
  0
LINE
  8
0
 62
7
 10
6.080000000000002
 20
8.201320343559644
 30
0
 11
6.178679656440358
 21
8.299999999999999
 31
0
  0
LINE
  8
0
 62
7
 10
6.190811690796323
 20
8.1
 30
0
 11
6.380000000000001
 21
8.289188309203679
 31
0
  0
ENDBLK
  8
0
  0
BLOCK
  8
0
  2
*X4
 70
1
 10
0
 20
0
 30
0
  0
LINE
  8
0
 62
7
 10
7.97408550183852
 20
11.05
 30
0
 11
8.12408550183852
 21
11.2
 31
0
  0
LINE
  8
0
 62
7
 10
8.186217536194484
 20
11.05
 30
0
 11
8.200000000000001
 21
11.06378246380552
 31
0
  0
LINE
  8
0
 62
7
 10
7.960000000000002
 20
11.14198051533946
 30
0
 11
8.018019484660535
 21
11.2
 31
0
  0
LINE
  8
0
 62
7
 10
8.0801515190165
 20
11.05
 30
0
 11
8.199999999999999
 21
11.1698484809835
 31
0
  0
ENDBLK
  8
0
  0
BLOCK
  8
0
  2
*X5
 70
1
 10
0
 20
0
 30
0
  0
LINE
  8
0
 62
7
 10
7.960000000000001
 20
10.82378246380551
 30
0
 11
7.986217536194484
 21
10.85
 31
0
  0
LINE
  8
0
 62
7
 10
7.960000000000001
 20
10.61165042944955
 30
0
 11
8.198349570550448
 21
10.85
 31
0
  0
LINE
  8
0
 62
7
 10
7.960000000000001
 20
10.39951839509358
 30
0
 11
8.200000000000001
 21
10.63951839509359
 31
0
  0
LINE
  8
0
 62
7
 10
7.960000000000001
 20
10.18738636073762
 30
0
 11
8.200000000000001
 21
10.42738636073762
 31
0
  0
LINE
  8
0
 62
7
 10
7.960000000000001
 20
9.975254326381657
 30
0
 11
8.200000000000001
 21
10.21525432638166
 31
0
  0
LINE
  8
0
 62
7
 10
7.960000000000001
 20
9.763122292025693
 30
0
 11
8.200000000000001
 21
10.00312229202569
 31
0
  0
LINE
  8
0
 62
7
 10
7.960000000000001
 20
9.55099025766973
 30
0
 11
8.200000000000001
 21
9.79099025766973
 31
0
  0
LINE
  8
0
 62
7
 10
7.960000000000001
 20
9.338858223313766
 30
0
 11
8.200000000000001
 21
9.578858223313766
 31
0
  0
LINE
  8
0
 62
7
 10
7.960000000000001
 20
9.126726188957802
 30
0
 11
8.200000000000001
 21
9.366726188957802
 31
0
  0
LINE
  8
0
 62
7
 10
7.960000000000001
 20
8.914594154601838
 30
0
 11
8.200000000000001
 21
9.154594154601838
 31
0
  0
LINE
  8
0
 62
7
 10
7.960000000000001
 20
8.702462120245874
 30
0
 11
8.200000000000001
 21
8.942462120245875
 31
0
  0
LINE
  8
0
 62
7
 10
7.960000000000001
 20
8.49033008588991
 30
0
 11
8.200000000000001
 21
8.730330085889911
 31
0
  0
LINE
  8
0
 62
7
 10
7.981801948466051
 20
8.299999999999997
 30
0
 11
8.200000000000001
 21
8.518198051533947
 31
0
  0
LINE
  8
0
 62
7
 10
8.193933982822015
 20
8.299999999999997
 30
0
 11
8.200000000000001
 21
8.306066017177983
 31
0
  0
LINE
  8
0
 62
7
 10
7.960000000000001
 20
10.71771644662753
 30
0
 11
8.092283553372464
 21
10.85
 31
0
  0
LINE
  8
0
 62
7
 10
7.960000000000001
 20
10.50558441227157
 30
0
 11
8.200000000000001
 21
10.74558441227157
 31
0
  0
LINE
  8
0
 62
7
 10
7.960000000000001
 20
10.2934523779156
 30
0
 11
8.200000000000001
 21
10.5334523779156
 31
0
  0
LINE
  8
0
 62
7
 10
7.960000000000001
 20
10.08132034355964
 30
0
 11
8.200000000000001
 21
10.32132034355964
 31
0
  0
LINE
  8
0
 62
7
 10
7.960000000000001
 20
9.869188309203674
 30
0
 11
8.200000000000001
 21
10.10918830920367
 31
0
  0
LINE
  8
0
 62
7
 10
7.960000000000001
 20
9.65705627484771
 30
0
 11
8.200000000000001
 21
9.89705627484771
 31
0
  0
LINE
  8
0
 62
7
 10
7.960000000000001
 20
9.444924240491746
 30
0
 11
8.200000000000001
 21
9.684924240491746
 31
0
  0
LINE
  8
0
 62
7
 10
7.960000000000001
 20
9.232792206135782
 30
0
 11
8.200000000000001
 21
9.472792206135782
 31
0
  0
LINE
  8
0
 62
7
 10
7.960000000000001
 20
9.020660171779818
 30
0
 11
8.200000000000001
 21
9.260660171779818
 31
0
  0
LINE
  8
0
 62
7
 10
7.960000000000001
 20
8.808528137423854
 30
0
 11
8.200000000000001
 21
9.048528137423855
 31
0
  0
LINE
  8
0
 62
7
 10
7.960000000000001
 20
8.596396103067891
 30
0
 11
8.200000000000001
 21
8.836396103067891
 31
0
  0
LINE
  8
0
 62
7
 10
7.960000000000001
 20
8.384264068711927
 30
0
 11
8.200000000000001
 21
8.624264068711927
 31
0
  0
LINE
  8
0
 62
7
 10
8.087867965644037
 20
8.299999999999999
 30
0
 11
8.200000000000001
 21
8.412132034355963
 31
0
  0
ENDBLK
  8
0
  0
BLOCK
  8
0
  2
*X6
 70
1
 10
0
 20
0
 30
0
  0
LINE
  8
0
 62
7
 10
7.960000000000002
 20
8.066066017177983
 30
0
 11
7.993933982822019
 21
8.1
 31
0
  0
LINE
  8
0
 62
7
 10
8.056066017177983
 20
7.95
 30
0
 11
8.200000000000001
 21
8.093933982822016
 31
0
  0
LINE
  8
0
 62
7
 10
7.960000000000001
 20
7.96
 30
0
 11
8.100000000000001
 21
8.1
 31
0
  0
LINE
  8
0
 62
7
 10
8.162132034355965
 20
7.949999999999999
 30
0
 11
8.200000000000001
 21
7.987867965644035
 31
0
  0
ENDBLK
  8
0
  0
BLOCK
  8
0
  2
*X7
 70
1
 10
0
 20
0
 30
0
  0
LINE
  8
0
 62
7
  6
DASHED
 10
0.9499999999999993
 20
11.0262716319083
 30
0
 11
0.973728368091701
 21
11.05
 31
0
  0
LINE
  8
0
 62
7
  6
DASHED
 10
0.9858604024476638
 20
10.85
 30
0
 11
1.185860402447665
 21
11.05
 31
0
  0
LINE
  8
0
 62
7
  6
DASHED
 10
1.197992436803628
 20
10.85
 30
0
 11
1.39799243680363
 21
11.05
 31
0
  0
LINE
  8
0
 62
7
  6
DASHED
 10
1.410124471159592
 20
10.85
 30
0
 11
1.610124471159594
 21
11.05
 31
0
  0
LINE
  8
0
 62
7
  6
DASHED
 10
1.622256505515557
 20
10.85
 30
0
 11
1.822256505515558
 21
11.05
 31
0
  0
LINE
  8
0
 62
7
  6
DASHED
 10
1.834388539871521
 20
10.85
 30
0
 11
2.034388539871522
 21
11.05
 31
0
  0
LINE
  8
0
 62
7
  6
DASHED
 10
2.046520574227485
 20
10.85
 30
0
 11
2.246520574227487
 21
11.05
 31
0
  0
LINE
  8
0
 62
7
  6
DASHED
 10
2.25865260858345
 20
10.85
 30
0
 11
2.458652608583451
 21
11.05
 31
0
  0
LINE
  8
0
 62
7
  6
DASHED
 10
2.470784642939414
 20
10.85
 30
0
 11
2.670784642939415
 21
11.05
 31
0
  0
LINE
  8
0
 62
7
  6
DASHED
 10
2.682916677295378
 20
10.85
 30
0
 11
2.88291667729538
 21
11.05
 31
0
  0
LINE
  8
0
 62
7
  6
DASHED
 10
2.895048711651342
 20
10.85
 30
0
 11
3.095048711651344
 21
11.05
 31
0
  0
LINE
  8
0
 62
7
  6
DASHED
 10
3.107180746007307
 20
10.85
 30
0
 11
3.307180746007308
 21
11.05
 31
0
  0
LINE
  8
0
 62
7
  6
DASHED
 10
3.319312780363271
 20
10.85
 30
0
 11
3.519312780363272
 21
11.05
 31
0
  0
LINE
  8
0
 62
7
  6
DASHED
 10
3.531444814719235
 20
10.85
 30
0
 11
3.731444814719237
 21
11.05
 31
0
  0
LINE
  8
0
 62
7
  6
DASHED
 10
3.743576849075199
 20
10.85
 30
0
 11
3.943576849075201
 21
11.05
 31
0
  0
LINE
  8
0
 62
7
  6
DASHED
 10
3.955708883431164
 20
10.85
 30
0
 11
4.155708883431165
 21
11.05
 31
0
  0
LINE
  8
0
 62
7
  6
DASHED
 10
4.167840917787128
 20
10.85
 30
0
 11
4.367840917787129
 21
11.05
 31
0
  0
LINE
  8
0
 62
7
  6
DASHED
 10
4.379972952143092
 20
10.85
 30
0
 11
4.484999999999999
 21
10.95502704785691
 31
0
  0
LINE
  8
0
 62
7
 10
0.9500000000000002
 20
10.92020561473032
 30
0
 11
1.079794385269683
 21
11.05
 31
0
  0
LINE
  8
0
 62
7
 10
1.091926419625646
 20
10.85
 30
0
 11
1.291926419625648
 21
11.05
 31
0
  0
LINE
  8
0
 62
7
 10
1.30405845398161
 20
10.85
 30
0
 11
1.504058453981612
 21
11.05
 31
0
  0
LINE
  8
0
 62
7
 10
1.516190488337575
 20
10.85
 30
0
 11
1.716190488337576
 21
11.05
 31
0
  0
LINE
  8
0
 62
7
 10
1.728322522693539
 20
10.85
 30
0
 11
1.928322522693541
 21
11.05
 31
0
  0
LINE
  8
0
 62
7
 10
1.940454557049503
 20
10.85
 30
0
 11
2.140454557049505
 21
11.05
 31
0
  0
LINE
  8
0
 62
7
 10
2.152586591405468
 20
10.85
 30
0
 11
2.352586591405469
 21
11.05
 31
0
  0
LINE
  8
0
 62
7
 10
2.364718625761432
 20
10.85
 30
0
 11
2.564718625761433
 21
11.05
 31
0
  0
LINE
  8
0
 62
7
 10
2.576850660117396
 20
10.85
 30
0
 11
2.776850660117398
 21
11.05
 31
0
  0
LINE
  8
0
 62
7
 10
2.78898269447336
 20
10.85
 30
0
 11
2.988982694473362
 21
11.05
 31
0
  0
LINE
  8
0
 62
7
 10
3.001114728829325
 20
10.85
 30
0
 11
3.201114728829326
 21
11.05
 31
0
  0
LINE
  8
0
 62
7
 10
3.213246763185289
 20
10.85
 30
0
 11
3.413246763185291
 21
11.05
 31
0
  0
LINE
  8
0
 62
7
 10
3.425378797541253
 20
10.85
 30
0
 11
3.625378797541255
 21
11.05
 31
0
  0
LINE
  8
0
 62
7
 10
3.637510831897218
 20
10.85
 30
0
 11
3.837510831897219
 21
11.05
 31
0
  0
LINE
  8
0
 62
7
 10
3.849642866253182
 20
10.85
 30
0
 11
4.049642866253183
 21
11.05
 31
0
  0
LINE
  8
0
 62
7
 10
4.061774900609146
 20
10.85
 30
0
 11
4.261774900609147
 21
11.05
 31
0
  0
LINE
  8
0
 62
7
 10
4.27390693496511
 20
10.85
 30
0
 11
4.473906934965111
 21
11.05
 31
0
  0
ENDBLK
  8
0
  0
BLOCK
  8
0
  2
*X8
 70
1
 10
0
 20
0
 30
0
  0
LINE
  8
0
 62
7
  6
DASHED
 10
0.9499999999999997
 20
8.268555185280766
 30
0
 11
0.9814448147192327
 21
8.299999999999997
 31
0
  0
LINE
  8
0
 62
7
  6
DASHED
 10
0.9935768490751999
 20
8.100000000000001
 30
0
 11
1.193576849075197
 21
8.299999999999997
 31
0
  0
LINE
  8
0
 62
7
  6
DASHED
 10
1.205708883431164
 20
8.100000000000001
 30
0
 11
1.405708883431161
 21
8.299999999999997
 31
0
  0
LINE
  8
0
 62
7
  6
DASHED
 10
1.417840917787129
 20
8.100000000000001
 30
0
 11
1.617840917787126
 21
8.299999999999997
 31
0
  0
LINE
  8
0
 62
7
  6
DASHED
 10
1.629972952143093
 20
8.100000000000001
 30
0
 11
1.82997295214309
 21
8.299999999999997
 31
0
  0
LINE
  8
0
 62
7
  6
DASHED
 10
1.842104986499057
 20
8.100000000000001
 30
0
 11
2.042104986499054
 21
8.299999999999997
 31
0
  0
LINE
  8
0
 62
7
  6
DASHED
 10
2.054237020855021
 20
8.100000000000001
 30
0
 11
2.254237020855018
 21
8.299999999999997
 31
0
  0
LINE
  8
0
 62
7
  6
DASHED
 10
2.266369055210986
 20
8.100000000000001
 30
0
 11
2.466369055210983
 21
8.299999999999997
 31
0
  0
LINE
  8
0
 62
7
  6
DASHED
 10
2.47850108956695
 20
8.100000000000001
 30
0
 11
2.678501089566947
 21
8.299999999999997
 31
0
  0
LINE
  8
0
 62
7
  6
DASHED
 10
2.690633123922914
 20
8.100000000000001
 30
0
 11
2.890633123922911
 21
8.299999999999997
 31
0
  0
LINE
  8
0
 62
7
  6
DASHED
 10
2.902765158278878
 20
8.100000000000001
 30
0
 11
3.102765158278876
 21
8.299999999999997
 31
0
  0
LINE
  8
0
 62
7
  6
DASHED
 10
3.114897192634843
 20
8.100000000000001
 30
0
 11
3.31489719263484
 21
8.299999999999997
 31
0
  0
LINE
  8
0
 62
7
  6
DASHED
 10
3.327029226990807
 20
8.100000000000001
 30
0
 11
3.527029226990804
 21
8.299999999999997
 31
0
  0
LINE
  8
0
 62
7
  6
DASHED
 10
3.539161261346771
 20
8.100000000000001
 30
0
 11
3.739161261346768
 21
8.299999999999997
 31
0
  0
LINE
  8
0
 62
7
  6
DASHED
 10
3.751293295702736
 20
8.100000000000001
 30
0
 11
3.951293295702733
 21
8.299999999999997
 31
0
  0
LINE
  8
0
 62
7
  6
DASHED
 10
3.9634253300587
 20
8.100000000000001
 30
0
 11
4.163425330058697
 21
8.299999999999997
 31
0
  0
LINE
  8
0
 62
7
  6
DASHED
 10
4.175557364414664
 20
8.100000000000001
 30
0
 11
4.375557364414661
 21
8.299999999999997
 31
0
  0
LINE
  8
0
 62
7
  6
DASHED
 10
4.387689398770628
 20
8.100000000000001
 30
0
 11
4.485
 21
8.197310601229374
 31
0
  0
LINE
  8
0
 62
7
 10
0.9499999999999997
 20
8.162489168102784
 30
0
 11
1.087510831897217
 21
8.300000000000001
 31
0
  0
LINE
  8
0
 62
7
 10
1.099642866253181
 20
8.100000000000001
 30
0
 11
1.299642866253181
 21
8.300000000000001
 31
0
  0
LINE
  8
0
 62
7
 10
1.311774900609146
 20
8.100000000000001
 30
0
 11
1.511774900609145
 21
8.300000000000001
 31
0
  0
LINE
  8
0
 62
7
 10
1.52390693496511
 20
8.100000000000001
 30
0
 11
1.72390693496511
 21
8.300000000000001
 31
0
  0
LINE
  8
0
 62
7
 10
1.736038969321074
 20
8.100000000000001
 30
0
 11
1.936038969321074
 21
8.300000000000001
 31
0
  0
LINE
  8
0
 62
7
 10
1.948171003677039
 20
8.100000000000001
 30
0
 11
2.148171003677038
 21
8.300000000000001
 31
0
  0
LINE
  8
0
 62
7
 10
2.160303038033003
 20
8.100000000000001
 30
0
 11
2.360303038033003
 21
8.300000000000001
 31
0
  0
LINE
  8
0
 62
7
 10
2.372435072388967
 20
8.100000000000001
 30
0
 11
2.572435072388967
 21
8.300000000000001
 31
0
  0
LINE
  8
0
 62
7
 10
2.584567106744931
 20
8.100000000000001
 30
0
 11
2.784567106744931
 21
8.300000000000001
 31
0
  0
LINE
  8
0
 62
7
 10
2.796699141100896
 20
8.100000000000001
 30
0
 11
2.996699141100895
 21
8.300000000000001
 31
0
  0
LINE
  8
0
 62
7
 10
3.00883117545686
 20
8.100000000000001
 30
0
 11
3.20883117545686
 21
8.300000000000001
 31
0
  0
LINE
  8
0
 62
7
 10
3.220963209812824
 20
8.100000000000001
 30
0
 11
3.420963209812824
 21
8.300000000000001
 31
0
  0
LINE
  8
0
 62
7
 10
3.433095244168789
 20
8.100000000000001
 30
0
 11
3.633095244168788
 21
8.300000000000001
 31
0
  0
LINE
  8
0
 62
7
 10
3.645227278524753
 20
8.100000000000001
 30
0
 11
3.845227278524753
 21
8.300000000000001
 31
0
  0
LINE
  8
0
 62
7
 10
3.857359312880717
 20
8.100000000000001
 30
0
 11
4.057359312880717
 21
8.300000000000001
 31
0
  0
LINE
  8
0
 62
7
 10
4.069491347236681
 20
8.100000000000001
 30
0
 11
4.269491347236681
 21
8.300000000000001
 31
0
  0
LINE
  8
0
 62
7
 10
4.281623381592645
 20
8.100000000000001
 30
0
 11
4.481623381592645
 21
8.300000000000001
 31
0
  0
ENDBLK
  8
0
  0
BLOCK
  8
0
  2
*X9
 70
1
 10
0
 20
0
 30
0
  0
LINE
  8
0
 62
7
 10
4.16
 20
11.05429111656884
 30
0
 11
4.305708883431163
 21
11.2
 31
0
  0
LINE
  8
0
 62
7
 10
4.16
 20
11.16035713374682
 30
0
 11
4.19964286625318
 21
11.2
 31
0
  0
LINE
  8
0
 62
7
 10
4.261774900609145
 20
11.05
 30
0
 11
4.335
 21
11.12322509939085
 31
0
  0
ENDBLK
  8
0
  0
BLOCK
  8
0
  2
*X10
 70
1
 10
0
 20
0
 30
0
  0
LINE
  8
0
 62
7
 10
4.16
 20
10.84215908221287
 30
0
 11
4.167840917787125
 21
10.85
 31
0
  0
LINE
  8
0
 62
7
 10
4.16
 20
10.63002704785691
 30
0
 11
4.335
 21
10.8050270478569
 31
0
  0
LINE
  8
0
 62
7
 10
4.16
 20
10.41789501350094
 30
0
 11
4.335
 21
10.59289501350094
 31
0
  0
LINE
  8
0
 62
7
 10
4.16
 20
10.20576297914498
 30
0
 11
4.335
 21
10.38076297914498
 31
0
  0
LINE
  8
0
 62
7
 10
4.16
 20
9.993630944789015
 30
0
 11
4.335
 21
10.16863094478901
 31
0
  0
LINE
  8
0
 62
7
 10
4.16
 20
9.781498910433051
 30
0
 11
4.335
 21
9.956498910433048
 31
0
  0
LINE
  8
0
 62
7
 10
4.16
 20
9.569366876077087
 30
0
 11
4.335
 21
9.744366876077084
 31
0
  0
LINE
  8
0
 62
7
 10
4.16
 20
9.357234841721123
 30
0
 11
4.335
 21
9.53223484172112
 31
0
  0
LINE
  8
0
 62
7
 10
4.16
 20
9.145102807365159
 30
0
 11
4.335
 21
9.320102807365156
 31
0
  0
LINE
  8
0
 62
7
 10
4.16
 20
8.932970773009195
 30
0
 11
4.335
 21
9.107970773009193
 31
0
  0
LINE
  8
0
 62
7
 10
4.16
 20
8.720838738653232
 30
0
 11
4.335
 21
8.895838738653229
 31
0
  0
LINE
  8
0
 62
7
 10
4.16
 20
8.508706704297268
 30
0
 11
4.335
 21
8.683706704297265
 31
0
  0
LINE
  8
0
 62
7
 10
4.163425330058696
 20
8.299999999999997
 30
0
 11
4.335
 21
8.471574669941301
 31
0
  0
LINE
  8
0
 62
7
 10
4.16
 20
10.73609306503489
 30
0
 11
4.273906934965108
 21
10.85
 31
0
  0
LINE
  8
0
 62
7
 10
4.16
 20
10.52396103067892
 30
0
 11
4.334999999999999
 21
10.69896103067892
 31
0
  0
LINE
  8
0
 62
7
 10
4.16
 20
10.31182899632296
 30
0
 11
4.334999999999999
 21
10.48682899632296
 31
0
  0
LINE
  8
0
 62
7
 10
4.16
 20
10.09969696196699
 30
0
 11
4.334999999999999
 21
10.27469696196699
 31
0
  0
LINE
  8
0
 62
7
 10
4.16
 20
9.887564927611031
 30
0
 11
4.334999999999999
 21
10.06256492761103
 31
0
  0
LINE
  8
0
 62
7
 10
4.16
 20
9.675432893255067
 30
0
 11
4.334999999999999
 21
9.850432893255066
 31
0
  0
LINE
  8
0
 62
7
 10
4.16
 20
9.463300858899103
 30
0
 11
4.334999999999999
 21
9.638300858899102
 31
0
  0
LINE
  8
0
 62
7
 10
4.16
 20
9.251168824543139
 30
0
 11
4.334999999999999
 21
9.426168824543138
 31
0
  0
LINE
  8
0
 62
7
 10
4.16
 20
9.039036790187176
 30
0
 11
4.334999999999999
 21
9.214036790187174
 31
0
  0
LINE
  8
0
 62
7
 10
4.16
 20
8.826904755831212
 30
0
 11
4.334999999999999
 21
9.001904755831211
 31
0
  0
LINE
  8
0
 62
7
 10
4.16
 20
8.614772721475248
 30
0
 11
4.334999999999999
 21
8.789772721475247
 31
0
  0
LINE
  8
0
 62
7
 10
4.16
 20
8.402640687119284
 30
0
 11
4.334999999999999
 21
8.577640687119283
 31
0
  0
LINE
  8
0
 62
7
 10
4.269491347236679
 20
8.299999999999999
 30
0
 11
4.334999999999999
 21
8.365508652763319
 31
0
  0
ENDBLK
  8
0
  0
BLOCK
  8
0
  2
*X11
 70
1
 10
0
 20
0
 30
0
  0
LINE
  8
0
 62
7
 10
4.16
 20
8.084442635585338
 30
0
 11
4.175557364414661
 21
8.099999999999998
 31
0
  0
LINE
  8
0
 62
7
 10
4.237689398770625
 20
7.949999999999998
 30
0
 11
4.335000000000001
 21
8.047310601229375
 31
0
  0
LINE
  8
0
 62
7
 10
4.159999999999999
 20
7.978376618407355
 30
0
 11
4.281623381592643
 21
8.1
 31
0
  0
ENDBLK
  8
0
  0
BLOCK
  8
0
  2
*X12
 70
1
 10
0
 20
0
 30
0
  0
LINE
  8
0
 62
7
 10
1.100000000000001
 20
11.1762716319083
 30
0
 11
1.123728368091698
 21
11.2
 31
0
  0
LINE
  8
0
 62
7
 10
1.185860402447664
 20
11.05
 30
0
 11
1.274999999999999
 21
11.13913959755234
 31
0
  0
LINE
  8
0
 62
7
 10
1.1
 20
11.07020561473032
 30
0
 11
1.229794385269681
 21
11.2
 31
0
  0
ENDBLK
  8
0
  0
BLOCK
  8
0
  2
*X13
 70
1
 10
0
 20
0
 30
0
  0
LINE
  8
0
 62
7
 10
1.1
 20
10.75200756319637
 30
0
 11
1.197992436803626
 21
10.85
 31
0
  0
LINE
  8
0
 62
7
 10
1.1
 20
10.5398755288404
 30
0
 11
1.275
 21
10.7148755288404
 31
0
  0
LINE
  8
0
 62
7
 10
1.1
 20
10.32774349448444
 30
0
 11
1.275
 21
10.50274349448444
 31
0
  0
LINE
  8
0
 62
7
 10
1.1
 20
10.11561146012848
 30
0
 11
1.275
 21
10.29061146012848
 31
0
  0
LINE
  8
0
 62
7
 10
1.1
 20
9.903479425772513
 30
0
 11
1.275
 21
10.07847942577251
 31
0
  0
LINE
  8
0
 62
7
 10
1.1
 20
9.691347391416549
 30
0
 11
1.275
 21
9.866347391416548
 31
0
  0
LINE
  8
0
 62
7
 10
1.1
 20
9.479215357060585
 30
0
 11
1.275
 21
9.654215357060584
 31
0
  0
LINE
  8
0
 62
7
 10
1.1
 20
9.267083322704622
 30
0
 11
1.275
 21
9.442083322704621
 31
0
  0
LINE
  8
0
 62
7
 10
1.1
 20
9.054951288348658
 30
0
 11
1.275
 21
9.229951288348657
 31
0
  0
LINE
  8
0
 62
7
 10
1.1
 20
8.842819253992694
 30
0
 11
1.275
 21
9.017819253992693
 31
0
  0
LINE
  8
0
 62
7
 10
1.1
 20
8.63068721963673
 30
0
 11
1.275
 21
8.805687219636729
 31
0
  0
LINE
  8
0
 62
7
 10
1.1
 20
8.418555185280766
 30
0
 11
1.275
 21
8.593555185280765
 31
0
  0
LINE
  8
0
 62
7
 10
1.193576849075199
 20
8.299999999999999
 30
0
 11
1.275
 21
8.381423150924801
 31
0
  0
LINE
  8
0
 62
7
 10
1.100000000000001
 20
10.64594154601838
 30
0
 11
1.274999999999999
 21
10.82094154601838
 31
0
  0
LINE
  8
0
 62
7
 10
1.100000000000001
 20
10.43380951166242
 30
0
 11
1.274999999999999
 21
10.60880951166242
 31
0
  0
LINE
  8
0
 62
7
 10
1.100000000000001
 20
10.22167747730646
 30
0
 11
1.274999999999999
 21
10.39667747730646
 31
0
  0
LINE
  8
0
 62
7
 10
1.100000000000001
 20
10.00954544295049
 30
0
 11
1.274999999999999
 21
10.18454544295049
 31
0
  0
LINE
  8
0
 62
7
 10
1.100000000000001
 20
9.797413408594529
 30
0
 11
1.274999999999999
 21
9.972413408594528
 31
0
  0
LINE
  8
0
 62
7
 10
1.100000000000001
 20
9.585281374238566
 30
0
 11
1.274999999999999
 21
9.760281374238565
 31
0
  0
LINE
  8
0
 62
7
 10
1.100000000000001
 20
9.373149339882602
 30
0
 11
1.274999999999999
 21
9.548149339882601
 31
0
  0
LINE
  8
0
 62
7
 10
1.100000000000001
 20
9.161017305526638
 30
0
 11
1.274999999999999
 21
9.336017305526637
 31
0
  0
LINE
  8
0
 62
7
 10
1.100000000000001
 20
8.948885271170674
 30
0
 11
1.274999999999999
 21
9.123885271170673
 31
0
  0
LINE
  8
0
 62
7
 10
1.100000000000001
 20
8.73675323681471
 30
0
 11
1.274999999999999
 21
8.911753236814709
 31
0
  0
LINE
  8
0
 62
7
 10
1.100000000000001
 20
8.524621202458746
 30
0
 11
1.274999999999999
 21
8.699621202458745
 31
0
  0
LINE
  8
0
 62
7
 10
1.100000000000001
 20
8.312489168102783
 30
0
 11
1.274999999999999
 21
8.487489168102782
 31
0
  0
ENDBLK
  8
0
  0
BLOCK
  8
0
  2
*X14
 70
1
 10
0
 20
0
 30
0
  0
LINE
  8
0
 62
7
 10
1.099999999999999
 20
7.994291116568838
 30
0
 11
1.205708883431162
 21
8.1
 31
0
  0
LINE
  8
0
 62
7
 10
1.267840917787126
 20
7.949999999999999
 30
0
 11
1.275
 21
7.957159082212874
 31
0
  0
LINE
  8
0
 62
7
 10
1.161774900609143
 20
7.949999999999999
 30
0
 11
1.274999999999999
 21
8.063225099390854
 31
0
  0
ENDBLK
  8
0
  0
BLOCK
  8
0
  2
*X15
 70
1
 10
0
 20
0
 30
0
  0
LINE
  8
0
 62
7
 10
0.9350000000000001
 20
5.283706704297266
 30
0
 11
1.251293295702733
 21
5.599999999999999
 31
0
  0
LINE
  8
0
 62
7
 10
1.073425330058698
 20
5.21
 30
0
 11
1.313425330058698
 21
5.449999999999999
 31
0
  0
LINE
  8
0
 62
7
 10
1.285557364414662
 20
5.21
 30
0
 11
1.525557364414662
 21
5.449999999999999
 31
0
  0
LINE
  8
0
 62
7
 10
1.497689398770627
 20
5.21
 30
0
 11
1.737689398770626
 21
5.449999999999999
 31
0
  0
LINE
  8
0
 62
7
 10
1.709821433126591
 20
5.21
 30
0
 11
1.949821433126591
 21
5.449999999999999
 31
0
  0
LINE
  8
0
 62
7
 10
1.921953467482555
 20
5.21
 30
0
 11
2.161953467482555
 21
5.449999999999999
 31
0
  0
LINE
  8
0
 62
7
 10
2.134085501838519
 20
5.21
 30
0
 11
2.374085501838519
 21
5.449999999999999
 31
0
  0
LINE
  8
0
 62
7
 10
2.346217536194484
 20
5.21
 30
0
 11
2.586217536194483
 21
5.449999999999999
 31
0
  0
LINE
  8
0
 62
7
 10
2.558349570550448
 20
5.21
 30
0
 11
2.798349570550448
 21
5.449999999999999
 31
0
  0
LINE
  8
0
 62
7
 10
2.770481604906412
 20
5.21
 30
0
 11
3.010481604906412
 21
5.449999999999999
 31
0
  0
LINE
  8
0
 62
7
 10
2.982613639262377
 20
5.21
 30
0
 11
3.222613639262376
 21
5.449999999999999
 31
0
  0
LINE
  8
0
 62
7
 10
3.194745673618341
 20
5.21
 30
0
 11
3.434745673618341
 21
5.449999999999999
 31
0
  0
LINE
  8
0
 62
7
 10
3.406877707974305
 20
5.21
 30
0
 11
3.646877707974305
 21
5.449999999999999
 31
0
  0
LINE
  8
0
 62
7
 10
3.619009742330269
 20
5.21
 30
0
 11
3.859009742330269
 21
5.449999999999999
 31
0
  0
LINE
  8
0
 62
7
 10
4.160000000000001
 20
5.538858223313767
 30
0
 11
4.221141776686232
 21
5.599999999999998
 31
0
  0
LINE
  8
0
 62
7
 10
3.831141776686234
 20
5.21
 30
0
 11
4.071141776686233
 21
5.449999999999999
 31
0
  0
LINE
  8
0
 62
7
 10
4.043273811042198
 20
5.21
 30
0
 11
4.335
 21
5.501726188957802
 31
0
  0
LINE
  8
0
 62
7
 10
4.255405845398162
 20
5.21
 30
0
 11
4.485
 21
5.439594154601839
 31
0
  0
LINE
  8
0
 62
7
 10
4.467537879754126
 20
5.21
 30
0
 11
4.485
 21
5.227462120245876
 31
0
  0
LINE
  8
0
 62
7
 10
1.100000000000001
 20
5.554772721475249
 30
0
 11
1.145227278524751
 21
5.6
 31
0
  0
LINE
  8
0
 62
7
 10
0.9350000000000001
 20
5.389772721475248
 30
0
 11
0.9952272785247507
 21
5.449999999999999
 31
0
  0
LINE
  8
0
 62
7
 10
0.9673593128807165
 20
5.210000000000001
 30
0
 11
1.275
 21
5.517640687119284
 31
0
  0
LINE
  8
0
 62
7
 10
1.179491347236681
 20
5.210000000000001
 30
0
 11
1.419491347236679
 21
5.449999999999999
 31
0
  0
LINE
  8
0
 62
7
 10
1.391623381592645
 20
5.210000000000001
 30
0
 11
1.631623381592643
 21
5.449999999999999
 31
0
  0
LINE
  8
0
 62
7
 10
1.603755415948609
 20
5.210000000000001
 30
0
 11
1.843755415948607
 21
5.449999999999999
 31
0
  0
LINE
  8
0
 62
7
 10
1.815887450304574
 20
5.210000000000001
 30
0
 11
2.055887450304572
 21
5.449999999999999
 31
0
  0
LINE
  8
0
 62
7
 10
2.028019484660538
 20
5.210000000000001
 30
0
 11
2.268019484660536
 21
5.449999999999999
 31
0
  0
LINE
  8
0
 62
7
 10
2.240151519016502
 20
5.210000000000001
 30
0
 11
2.4801515190165
 21
5.449999999999999
 31
0
  0
LINE
  8
0
 62
7
 10
2.452283553372467
 20
5.210000000000001
 30
0
 11
2.692283553372464
 21
5.449999999999999
 31
0
  0
LINE
  8
0
 62
7
 10
2.664415587728431
 20
5.210000000000001
 30
0
 11
2.904415587728429
 21
5.449999999999999
 31
0
  0
LINE
  8
0
 62
7
 10
2.876547622084395
 20
5.210000000000001
 30
0
 11
3.116547622084393
 21
5.449999999999999
 31
0
  0
LINE
  8
0
 62
7
 10
3.088679656440359
 20
5.210000000000001
 30
0
 11
3.328679656440357
 21
5.449999999999999
 31
0
  0
LINE
  8
0
 62
7
 10
3.300811690796324
 20
5.210000000000001
 30
0
 11
3.540811690796322
 21
5.449999999999999
 31
0
  0
LINE
  8
0
 62
7
 10
3.512943725152288
 20
5.210000000000001
 30
0
 11
3.752943725152286
 21
5.449999999999999
 31
0
  0
LINE
  8
0
 62
7
 10
3.725075759508252
 20
5.210000000000001
 30
0
 11
3.96507575950825
 21
5.449999999999999
 31
0
  0
LINE
  8
0
 62
7
 10
3.937207793864216
 20
5.210000000000001
 30
0
 11
4.327207793864215
 21
5.599999999999999
 31
0
  0
LINE
  8
0
 62
7
 10
4.149339828220181
 20
5.210000000000001
 30
0
 11
4.389339828220179
 21
5.449999999999999
 31
0
  0
LINE
  8
0
 62
7
 10
4.361471862576145
 20
5.210000000000001
 30
0
 11
4.485
 21
5.333528137423857
 31
0
  0
ENDBLK
  8
0
  0
BLOCK
  8
0
  2
*X16
 70
1
 10
0
 20
0
 30
0
  0
LINE
  8
0
 62
7
 10
0.9350000000000005
 20
5.071574669941303
 30
0
 11
1.033425330058699
 21
5.170000000000002
 31
0
  0
LINE
  8
0
 62
7
 10
1.005557364414662
 20
4.930000000000001
 30
0
 11
1.245557364414663
 21
5.170000000000002
 31
0
  0
LINE
  8
0
 62
7
 10
1.100000000000001
 20
4.812310601229373
 30
0
 11
1.457689398770627
 21
5.170000000000002
 31
0
  0
LINE
  8
0
 62
7
 10
1.429821433126591
 20
4.930000000000001
 30
0
 11
1.669821433126592
 21
5.170000000000002
 31
0
  0
LINE
  8
0
 62
7
 10
1.100000000000001
 20
4.600178566873409
 30
0
 11
1.274999999999999
 21
4.775178566873408
 31
0
  0
LINE
  8
0
 62
7
 10
1.641953467482555
 20
4.930000000000001
 30
0
 11
1.881953467482556
 21
5.170000000000002
 31
0
  0
LINE
  8
0
 62
7
 10
1.100000000000001
 20
4.388046532517445
 30
0
 11
1.274999999999999
 21
4.563046532517444
 31
0
  0
LINE
  8
0
 62
7
 10
1.85408550183852
 20
4.930000000000001
 30
0
 11
2.09408550183852
 21
5.170000000000002
 31
0
  0
LINE
  8
0
 62
7
 10
1.100000000000001
 20
4.175914498161482
 30
0
 11
1.274999999999999
 21
4.35091449816148
 31
0
  0
LINE
  8
0
 62
7
 10
2.066217536194484
 20
4.930000000000001
 30
0
 11
2.306217536194485
 21
5.170000000000002
 31
0
  0
LINE
  8
0
 62
7
 10
1.100000000000001
 20
3.963782463805518
 30
0
 11
1.274999999999999
 21
4.138782463805517
 31
0
  0
LINE
  8
0
 62
7
 10
2.278349570550448
 20
4.930000000000001
 30
0
 11
2.518349570550449
 21
5.170000000000002
 31
0
  0
LINE
  8
0
 62
7
 10
1.100000000000001
 20
3.751650429449553
 30
0
 11
1.274999999999999
 21
3.926650429449553
 31
0
  0
LINE
  8
0
 62
7
 10
2.490481604906412
 20
4.930000000000001
 30
0
 11
2.730481604906413
 21
5.170000000000002
 31
0
  0
LINE
  8
0
 62
7
 10
1.100000000000001
 20
3.539518395093589
 30
0
 11
1.274999999999999
 21
3.714518395093588
 31
0
  0
LINE
  8
0
 62
7
 10
2.702613639262377
 20
4.930000000000001
 30
0
 11
2.942613639262377
 21
5.170000000000002
 31
0
  0
LINE
  8
0
 62
7
 10
1.122613639262376
 20
3.35
 30
0
 11
1.274999999999999
 21
3.502386360737624
 31
0
  0
LINE
  8
0
 62
7
 10
2.914745673618341
 20
4.930000000000001
 30
0
 11
3.154745673618342
 21
5.170000000000002
 31
0
  0
LINE
  8
0
 62
7
 10
3.126877707974305
 20
4.930000000000001
 30
0
 11
3.366877707974306
 21
5.170000000000002
 31
0
  0
LINE
  8
0
 62
7
 10
3.33900974233027
 20
4.930000000000001
 30
0
 11
3.57900974233027
 21
5.170000000000002
 31
0
  0
LINE
  8
0
 62
7
 10
3.551141776686234
 20
4.930000000000001
 30
0
 11
3.791141776686235
 21
5.170000000000002
 31
0
  0
LINE
  8
0
 62
7
 10
3.763273811042198
 20
4.930000000000001
 30
0
 11
4.003273811042199
 21
5.170000000000002
 31
0
  0
LINE
  8
0
 62
7
 10
3.975405845398162
 20
4.930000000000001
 30
0
 11
4.215405845398163
 21
5.170000000000002
 31
0
  0
LINE
  8
0
 62
7
 10
4.159999999999999
 20
4.902462120245872
 30
0
 11
4.427537879754126
 21
5.170000000000002
 31
0
  0
LINE
  8
0
 62
7
 10
4.39966991411009
 20
4.93
 30
0
 11
4.484999999999999
 21
5.01533008588991
 31
0
  0
LINE
  8
0
 62
7
 10
4.159999999999999
 20
4.690330085889908
 30
0
 11
4.334999999999999
 21
4.865330085889908
 31
0
  0
LINE
  8
0
 62
7
 10
4.159999999999999
 20
4.478198051533944
 30
0
 11
4.334999999999999
 21
4.653198051533944
 31
0
  0
LINE
  8
0
 62
7
 10
4.159999999999999
 20
4.26606601717798
 30
0
 11
4.334999999999999
 21
4.44106601717798
 31
0
  0
LINE
  8
0
 62
7
 10
4.159999999999999
 20
4.053933982822016
 30
0
 11
4.334999999999999
 21
4.228933982822016
 31
0
  0
LINE
  8
0
 62
7
 10
4.159999999999999
 20
3.841801948466053
 30
0
 11
4.334999999999999
 21
4.016801948466052
 31
0
  0
LINE
  8
0
 62
7
 10
4.159999999999999
 20
3.629669914110088
 30
0
 11
4.334999999999999
 21
3.804669914110089
 31
0
  0
LINE
  8
0
 62
7
 10
4.159999999999999
 20
3.417537879754124
 30
0
 11
4.334999999999999
 21
3.592537879754124
 31
0
  0
LINE
  8
0
 62
7
 10
4.20459415460184
 20
3.25
 30
0
 11
4.334999999999999
 21
3.38040584539816
 31
0
  0
LINE
  8
0
 62
7
 10
0.9350000000000001
 20
4.965508652763321
 30
0
 11
1.139491347236682
 21
5.170000000000002
 31
0
  0
LINE
  8
0
 62
7
 10
1.1
 20
4.918376618407354
 30
0
 11
1.351623381592646
 21
5.170000000000002
 31
0
  0
LINE
  8
0
 62
7
 10
1.323755415948609
 20
4.930000000000001
 30
0
 11
1.56375541594861
 21
5.170000000000002
 31
0
  0
LINE
  8
0
 62
7
 10
1.1
 20
4.70624458405139
 30
0
 11
1.274999999999999
 21
4.881244584051389
 31
0
  0
LINE
  8
0
 62
7
 10
1.535887450304573
 20
4.930000000000001
 30
0
 11
1.775887450304575
 21
5.170000000000002
 31
0
  0
LINE
  8
0
 62
7
 10
1.1
 20
4.494112549695426
 30
0
 11
1.274999999999999
 21
4.669112549695425
 31
0
  0
LINE
  8
0
 62
7
 10
1.748019484660537
 20
4.930000000000001
 30
0
 11
1.988019484660539
 21
5.170000000000002
 31
0
  0
LINE
  8
0
 62
7
 10
1.1
 20
4.281980515339463
 30
0
 11
1.274999999999999
 21
4.456980515339461
 31
0
  0
LINE
  8
0
 62
7
 10
1.960151519016502
 20
4.930000000000001
 30
0
 11
2.200151519016503
 21
5.170000000000002
 31
0
  0
LINE
  8
0
 62
7
 10
1.1
 20
4.069848480983499
 30
0
 11
1.274999999999999
 21
4.244848480983498
 31
0
  0
LINE
  8
0
 62
7
 10
2.172283553372466
 20
4.930000000000001
 30
0
 11
2.412283553372467
 21
5.170000000000002
 31
0
  0
LINE
  8
0
 62
7
 10
1.1
 20
3.857716446627535
 30
0
 11
1.274999999999999
 21
4.032716446627534
 31
0
  0
LINE
  8
0
 62
7
 10
2.38441558772843
 20
4.930000000000001
 30
0
 11
2.624415587728432
 21
5.170000000000002
 31
0
  0
LINE
  8
0
 62
7
 10
1.1
 20
3.645584412271571
 30
0
 11
1.274999999999999
 21
3.82058441227157
 31
0
  0
LINE
  8
0
 62
7
 10
2.596547622084394
 20
4.930000000000001
 30
0
 11
2.836547622084396
 21
5.170000000000002
 31
0
  0
LINE
  8
0
 62
7
 10
1.1
 20
3.433452377915606
 30
0
 11
1.274999999999999
 21
3.608452377915606
 31
0
  0
LINE
  8
0
 62
7
 10
2.808679656440359
 20
4.930000000000001
 30
0
 11
3.04867965644036
 21
5.170000000000002
 31
0
  0
LINE
  8
0
 62
7
 10
1.228679656440357
 20
3.35
 30
0
 11
1.275
 21
3.396320343559642
 31
0
  0
LINE
  8
0
 62
7
 10
3.020811690796323
 20
4.930000000000001
 30
0
 11
3.260811690796324
 21
5.170000000000002
 31
0
  0
LINE
  8
0
 62
7
 10
3.232943725152287
 20
4.930000000000001
 30
0
 11
3.472943725152289
 21
5.170000000000002
 31
0
  0
LINE
  8
0
 62
7
 10
3.445075759508252
 20
4.930000000000001
 30
0
 11
3.685075759508253
 21
5.170000000000002
 31
0
  0
LINE
  8
0
 62
7
 10
3.657207793864216
 20
4.930000000000001
 30
0
 11
3.897207793864217
 21
5.170000000000002
 31
0
  0
LINE
  8
0
 62
7
 10
3.86933982822018
 20
4.930000000000001
 30
0
 11
4.109339828220182
 21
5.170000000000002
 31
0
  0
LINE
  8
0
 62
7
 10
4.081471862576144
 20
4.930000000000001
 30
0
 11
4.321471862576145
 21
5.170000000000002
 31
0
  0
LINE
  8
0
 62
7
 10
4.16
 20
4.796396103067891
 30
0
 11
4.485
 21
5.121396103067893
 31
0
  0
LINE
  8
0
 62
7
 10
4.16
 20
4.584264068711927
 30
0
 11
4.335
 21
4.759264068711927
 31
0
  0
LINE
  8
0
 62
7
 10
4.16
 20
4.372132034355963
 30
0
 11
4.335
 21
4.547132034355963
 31
0
  0
LINE
  8
0
 62
7
 10
4.16
 20
4.159999999999999
 30
0
 11
4.335
 21
4.334999999999999
 31
0
  0
LINE
  8
0
 62
7
 10
4.16
 20
3.947867965644035
 30
0
 11
4.335
 21
4.122867965644035
 31
0
  0
LINE
  8
0
 62
7
 10
4.16
 20
3.735735931288071
 30
0
 11
4.335
 21
3.910735931288071
 31
0
  0
LINE
  8
0
 62
7
 10
4.16
 20
3.523603896932107
 30
0
 11
4.335
 21
3.698603896932107
 31
0
  0
LINE
  8
0
 62
7
 10
4.16
 20
3.311471862576143
 30
0
 11
4.335
 21
3.486471862576143
 31
0
  0
LINE
  8
0
 62
7
 10
4.310660171779822
 20
3.25
 30
0
 11
4.335
 21
3.274339828220179
 31
0
  0
ENDBLK
  8
0
  0
BLOCK
  8
0
  2
*D0
 70
1
 10
0
 20
0
 30
0
  0
LINE
  8
0
 62
7
 10
0.765634189096867
 20
4.51837091517139
 30
0
 11
0.765634189096867
 21
4.930000000000001
 31
0
  0
LINE
  8
0
 62
7
 10
0.765634189096867
 20
3.35
 30
0
 11
0.765634189096867
 21
3.77337091517139
 31
0
  0
LINE
  8
0
 62
7
 10
1.1
 20
4.930000000000001
 30
0
 11
0.7156341890968669
 21
4.930000000000001
 31
0
  0
LINE
  8
0
 62
7
 10
1.1
 20
3.35
 30
0
 11
0.7156341890968669
 21
3.35
 31
0
  0
LINE
  8
0
 62
7
 10
0.8009895281561944
 20
4.894644660940674
 30
0
 11
0.7302788500375396
 21
4.965355339059329
 31
0
  0
LINE
  8
0
 62
7
 10
0.7302788500375396
 20
3.385355339059327
 30
0
 11
0.8009895281561944
 21
3.314644660940673
 31
0
  0
TEXT
  8
0
 62
7
 10
0.810634189096867
 20
4.02337091517139
 30
0
 40
0.1
  1
1,58
 50
90
 41
0.9
  0
ENDBLK
  8
0
  0
BLOCK
  8
0
  2
*D1
 70
1
 10
0
 20
0
 30
0
  0
LINE
  8
0
 62
7
 10
3.07051617790234
 20
5.801315473812181
 30
0
 11
4.16
 21
5.801315473812181
 31
0
  0
LINE
  8
0
 62
7
 10
1.275
 20
5.801315473812181
 30
0
 11
2.29551617790234
 21
5.801315473812181
 31
0
  0
LINE
  8
0
 62
7
 10
4.16
 20
5.449999999999999
 30
0
 11
4.16
 21
5.851315473812181
 31
0
  0
LINE
  8
0
 62
7
 10
1.275
 20
5.449999999999999
 30
0
 11
1.275
 21
5.851315473812181
 31
0
  0
LINE
  8
0
 62
7
 10
4.124644660940673
 20
5.765960134752854
 30
0
 11
4.195355339059327
 21
5.836670812871509
 31
0
  0
LINE
  8
0
 62
7
 10
1.310355339059327
 20
5.836670812871509
 30
0
 11
1.239644660940673
 21
5.765960134752854
 31
0
  0
TEXT
  8
0
 62
7
 10
2.54551617790234
 20
5.756315473812181
 30
0
 40
0.1
  1
2,89
 41
0.9
  0
ENDBLK
  8
0
  0
BLOCK
  8
0
  2
*D2
 70
1
 10
0
 20
0
 30
0
  0
LINE
  8
0
 62
7
 10
4.69469564156709
 20
4.46598342913846
 30
0
 11
4.69469564156709
 21
4.930000000000001
 31
0
  0
LINE
  8
0
 62
7
 10
4.69469564156709
 20
3.25
 30
0
 11
4.69469564156709
 21
3.72098342913846
 31
0
  0
LINE
  8
0
 62
7
 10
4.335
 20
4.930000000000001
 30
0
 11
4.74469564156709
 21
4.930000000000001
 31
0
  0
LINE
  8
0
 62
7
 10
4.335
 20
3.25
 30
0
 11
4.74469564156709
 21
3.25
 31
0
  0
LINE
  8
0
 62
7
 10
4.659340302507763
 20
3.285355339059327
 30
0
 11
4.730050980626418
 21
3.214644660940673
 31
0
  0
LINE
  8
0
 62
7
 10
4.730050980626418
 20
4.894644660940674
 30
0
 11
4.659340302507763
 21
4.965355339059329
 31
0
  0
TEXT
  8
0
 62
7
 10
4.73969564156709
 20
3.97098342913846
 30
0
 40
0.1
  1
1,68
 50
90
 41
0.9
  0
ENDBLK
  8
0
  0
BLOCK
  8
0
  2
*D3
 70
1
 10
0
 20
0
 30
0
  0
LINE
  8
0
 62
7
 10
3.03099367510892
 20
11.4801189597825
 30
0
 11
4.16
 21
11.4801189597825
 31
0
  0
LINE
  8
0
 62
7
 10
1.275
 20
11.4801189597825
 30
0
 11
2.35599367510892
 21
11.4801189597825
 31
0
  0
LINE
  8
0
 62
7
 10
4.16
 20
11.2
 30
0
 11
4.16
 21
11.5301189597825
 31
0
  0
LINE
  8
0
 62
7
 10
1.275
 20
11.2
 30
0
 11
1.275
 21
11.5301189597825
 31
0
  0
LINE
  8
0
 62
7
 10
1.310355339059327
 20
11.51547429884183
 30
0
 11
1.239644660940673
 21
11.44476362072317
 31
0
  0
LINE
  8
0
 62
7
 10
4.124644660940673
 20
11.44476362072317
 30
0
 11
4.195355339059327
 21
11.51547429884183
 31
0
  0
TEXT
  8
0
 62
7
 10
2.55599367510892
 20
11.4351189597825
 30
0
 40
0.1
  1
2,89
 41
0.9
  0
ENDBLK
  8
0
  0
BLOCK
  8
0
  2
*D4
 70
1
 10
0
 20
0
 30
0
  0
LINE
  8
0
 62
7
 10
0.650381719824408
 20
10.20751194304288
 30
0
 11
0.650381719824408
 21
11.05
 31
0
  0
LINE
  8
0
 62
7
 10
0.650381719824408
 20
8.300000000000001
 30
0
 11
0.650381719824408
 21
9.127511943042881
 31
0
  0
LINE
  8
0
 62
7
 10
0.9500000000000001
 20
11.05
 30
0
 11
0.6003817198244079
 21
11.05
 31
0
  0
LINE
  8
0
 62
7
 10
0.9500000000000001
 20
8.300000000000001
 30
0
 11
0.6003817198244079
 21
8.300000000000001
 31
0
  0
LINE
  8
0
 62
7
 10
0.6150263807650805
 20
8.335355339059328
 30
0
 11
0.6857370588837354
 21
8.264644660940673
 31
0
  0
LINE
  8
0
 62
7
 10
0.6857370588837354
 20
11.01464466094067
 30
0
 11
0.6150263807650805
 21
11.08535533905933
 31
0
  0
TEXT
  8
0
 62
7
 10
0.6203817198244079
 20
9.530011943042883
 30
0
 40
0.1
  1
2,75
 50
90
 41
0.9
  0
TEXT
  8
0
 62
7
 10
0.780381719824408
 20
9.327511943042882
 30
0
 40
0.1
  1
(260-280)
 50
90
 41
0.9
  0
ENDBLK
  8
0
  0
ENDSEC
  0
SECTION
  2
ENTITIES
  0
INSERT
  8
0
  2
*X0
 10
0
 20
0
 30
0
  0
INSERT
  8
0
  2
*X1
 10
0
 20
0
 30
0
  0
INSERT
  8
0
  2
*X2
 10
0
 20
0
 30
0
  0
INSERT
  8
0
  2
*X3
 10
0
 20
0
 30
0
  0
INSERT
  8
0
  2
*X4
 10
0
 20
0
 30
0
  0
INSERT
  8
0
  2
*X5
 10
0
 20
0
 30
0
  0
INSERT
  8
0
  2
*X6
 10
0
 20
0
 30
0
  0
INSERT
  8
0
  2
*X7
 10
0
 20
0
 30
0
  0
INSERT
  8
0
  2
*X8
 10
0
 20
0
 30
0
  0
INSERT
  8
0
  2
*X9
 10
0
 20
0
 30
0
  0
INSERT
  8
0
  2
*X10
 10
0
 20
0
 30
0
  0
INSERT
  8
0
  2
*X11
 10
0
 20
0
 30
0
  0
INSERT
  8
0
  2
*X12
 10
0
 20
0
 30
0
  0
INSERT
  8
0
  2
*X13
 10
0
 20
0
 30
0
  0
INSERT
  8
0
  2
*X14
 10
0
 20
0
 30
0
  0
INSERT
  8
0
  2
*X15
 10
0
 20
0
 30
0
  0
INSERT
  8
0
  2
*X16
 10
0
 20
0
 30
0
  0
LINE
  8
0
 62
7
 10
2.28
 20
3.674591920577401
 30
0
 11
2.28
 21
3.857174976134531
 31
0
  0
LINE
  8
0
 62
7
 10
2.28
 20
3.857174976134531
 30
0
 11
2.325616830210402
 21
3.925000000000001
 31
0
  0
LINE
  8
0
 62
7
 10
2.407707083927333
 20
3.925000000000001
 30
0
 11
2.50700297245496
 21
3.925000000000001
 31
0
  0
LINE
  8
0
 62
7
 10
2.325616830210402
 20
3.925000000000001
 30
0
 11
2.50700297245496
 21
3.925000000000001
 31
0
  0
LINE
  8
0
 62
7
 10
2.873634258456332
 20
3.925000000000001
 30
0
 11
3.088500606685029
 21
3.925000000000001
 31
0
  0
LINE
  8
0
 62
7
 10
3.088500606685029
 20
3.925000000000001
 30
0
 11
3.155
 21
3.877535484719202
 31
0
  0
LINE
  8
0
 62
7
 10
3.155
 20
3.81422706848153
 30
0
 11
3.155
 21
3.723849292904031
 31
0
  0
LINE
  8
0
 62
7
 10
3.155
 20
3.877535484719202
 30
0
 11
3.155
 21
3.723849292904031
 31
0
  0
LINE
  8
0
 62
7
 10
3.155
 20
3.250000000000002
 30
0
 11
4.105
 21
3.250000000000002
 31
0
  0
LINE
  8
0
 62
7
 10
3.155
 20
3.600000000000001
 30
0
 11
3.155
 21
3.250000000000002
 31
0
  0
LINE
  8
0
 62
7
 10
4.105
 20
3.250000000000002
 30
0
 11
4.105
 21
3.600000000000001
 31
0
  0
LINE
  8
0
 62
7
 10
3.155
 20
3.510000000000001
 30
0
 11
4.105
 21
3.510000000000001
 31
0
  0
LINE
  8
0
 62
7
 10
3.155
 20
3.723849292904031
 30
0
 11
3.155
 21
3.510000000000001
 31
0
  0
LINE
  8
0
 62
7
 10
4.105
 20
3.510000000000001
 30
0
 11
4.105
 21
3.90136144908926
 31
0
  0
LINE
  8
0
 62
7
 10
3.155
 20
3.723849292904031
 30
0
 11
4.105
 21
3.81098367351176
 31
0
  0
LINE
  8
0
 62
7
 10
4.105
 20
3.81098367351176
 30
0
 11
4.105
 21
4.305493686696383
 31
0
  0
LINE
  8
0
 62
7
 10
3.191456023662693
 20
3.851514683536561
 30
0
 11
4.105
 21
4.208853485161629
 31
0
  0
LINE
  8
0
 62
7
 10
3.155
 20
3.877535484719202
 30
0
 11
3.191456023662693
 21
3.851514683536561
 31
0
  0
LINE
  8
0
 62
7
 10
4.105
 20
4.208853485161629
 30
0
 11
4.105
 21
4.82636762705824
 31
0
  0
LINE
  8
0
 62
7
 10
3.099277956904913
 20
3.925000000000001
 30
0
 11
4.105
 21
4.712082856908341
 31
0
  0
LINE
  8
0
 62
7
 10
3.088500606685029
 20
3.925000000000001
 30
0
 11
3.099277956904913
 21
3.925000000000001
 31
0
  0
LINE
  8
0
 62
7
 10
4.105
 20
4.875000000000001
 30
0
 11
3.526085752286113
 21
4.875000000000001
 31
0
  0
LINE
  8
0
 62
7
 10
4.105
 20
4.712082856908341
 30
0
 11
4.105
 21
4.875000000000001
 31
0
  0
LINE
  8
0
 62
7
 10
2.982815867358802
 20
3.925000000000001
 30
0
 11
3.635267361188581
 21
4.875000000000001
 31
0
  0
LINE
  8
0
 62
7
 10
2.76331654773423
 20
3.925000000000001
 30
0
 11
2.982815867358802
 21
3.925000000000001
 31
0
  0
LINE
  8
0
 62
7
 10
3.635267361188581
 20
4.875000000000001
 30
0
 11
3.127346848009322
 21
4.875000000000001
 31
0
  0
LINE
  8
0
 62
7
 10
2.859697867300471
 20
3.925000000000001
 30
0
 11
3.223728167575551
 21
4.875000000000001
 31
0
  0
LINE
  8
0
 62
7
 10
2.647687337068182
 20
3.925000000000001
 30
0
 11
2.859697867300471
 21
3.925000000000001
 31
0
  0
LINE
  8
0
 62
7
 10
3.223728167575551
 20
4.875000000000001
 30
0
 11
2.750201526070422
 21
4.875000000000001
 31
0
  0
LINE
  8
0
 62
7
 10
2.738209822834571
 20
3.925000000000001
 30
0
 11
2.840724011836821
 21
4.875000000000001
 31
0
  0
LINE
  8
0
 62
7
 10
2.52920306608234
 20
3.925000000000001
 30
0
 11
2.738209822834571
 21
3.925000000000001
 31
0
  0
LINE
  8
0
 62
7
 10
2.840724011836821
 20
4.875000000000001
 30
0
 11
2.362933434830451
 21
4.875000000000001
 31
0
  0
LINE
  8
0
 62
7
 10
2.620571118963242
 20
3.925000000000001
 30
0
 11
2.45430148771136
 21
4.875000000000001
 31
0
  0
LINE
  8
0
 62
7
 10
2.50700297245496
 20
3.925000000000001
 30
0
 11
2.620571118963242
 21
3.925000000000001
 31
0
  0
LINE
  8
0
 62
7
 10
2.45430148771136
 20
4.875000000000001
 30
0
 11
1.964917761013392
 21
4.875000000000001
 31
0
  0
LINE
  8
0
 62
7
 10
2.50700297245496
 20
3.925000000000001
 30
0
 11
2.064213649541031
 21
4.875000000000001
 31
0
  0
LINE
  8
0
 62
7
 10
2.064213649541031
 20
4.875000000000001
 30
0
 11
1.437610082907551
 21
4.875000000000001
 31
0
  0
LINE
  8
0
 62
7
 10
2.3616532684659
 20
3.97858049372199
 30
0
 11
1.55845274738966
 21
4.875000000000001
 31
0
  0
LINE
  8
0
 62
7
 10
2.325616830210402
 20
3.925000000000001
 30
0
 11
2.3616532684659
 21
3.97858049372199
 31
0
  0
LINE
  8
0
 62
7
 10
1.33
 20
4.875000000000001
 30
0
 11
1.33
 21
4.39251159078747
 31
0
  0
LINE
  8
0
 62
7
 10
1.55845274738966
 20
4.875000000000001
 30
0
 11
1.33
 21
4.875000000000001
 31
0
  0
LINE
  8
0
 62
7
 10
2.28
 20
3.88870686974759
 30
0
 11
1.33
 21
4.49950883479417
 31
0
  0
LINE
  8
0
 62
7
 10
2.28
 20
3.857174976134531
 30
0
 11
2.28
 21
3.88870686974759
 31
0
  0
LINE
  8
0
 62
7
 10
1.33
 20
4.49950883479417
 30
0
 11
1.33
 21
3.9586977089403
 31
0
  0
LINE
  8
0
 62
7
 10
2.28
 20
3.768530371587162
 30
0
 11
1.33
 21
4.052636159950072
 31
0
  0
LINE
  8
0
 62
7
 10
2.28
 20
3.558655774683111
 30
0
 11
2.28
 21
3.768530371587162
 31
0
  0
LINE
  8
0
 62
7
 10
1.33
 20
4.052636159950072
 30
0
 11
1.33
 21
3.578163377186502
 31
0
  0
LINE
  8
0
 62
7
 10
2.28
 20
3.648674747303822
 30
0
 11
1.33
 21
3.668182349807221
 31
0
  0
LINE
  8
0
 62
7
 10
2.28
 20
3.390000000000001
 30
0
 11
2.28
 21
3.648674747303822
 31
0
  0
LINE
  8
0
 62
7
 10
1.33
 20
3.668182349807221
 30
0
 11
1.33
 21
3.390000000000001
 31
0
  0
LINE
  8
0
 62
7
 10
3.65816730818975
 20
3.924999999992502
 30
0
 11
3.65816730818975
 21
3.250000000000002
 31
0
  0
LINE
  8
0
 62
7
 10
2.280000000003063
 20
4.428167308189751
 30
0
 11
3.154999999990432
 21
4.428167308189751
 31
0
  0
LINE
  8
0
 62
7
 10
1.882487791071952
 20
3.461
 30
0
 11
1.77683269181025
 21
3.400000000000001
 31
0
  0
LINE
  8
0
 62
7
 10
1.671177592548553
 20
3.461
 30
0
 11
1.882487791071952
 21
3.461
 31
0
  0
LINE
  8
0
 62
7
 10
1.77683269181025
 20
3.400000000000001
 30
0
 11
1.671177592548553
 21
3.461
 31
0
  0
LINE
  8
0
 62
7
 10
1.77683269181025
 20
3.400000000000001
 30
0
 11
1.77683269181025
 21
3.924999999990421
 31
0
  0
LINE
  8
0
 62
7
 10
6.279999599999993
 20
8.583324342478354
 30
0
 11
6.629999609999989
 21
8.583324342478354
 31
0
  0
LINE
  8
0
 62
7
 10
6.279999599999993
 20
8.518324342478355
 30
0
 11
6.279999599999993
 21
8.583324342478354
 31
0
  0
LINE
  8
0
 62
7
 10
6.629999609999989
 20
8.583324342478354
 30
0
 11
6.629999609999989
 21
8.518324342478355
 31
0
  0
LINE
  8
0
 62
7
 10
6.629999609999989
 20
8.518324342478355
 30
0
 11
6.279999599999993
 21
8.518324342478355
 31
0
  0
LINE
  8
0
 62
7
 10
6.539999649999999
 20
8.766657682478353
 30
0
 11
6.931361160000002
 21
8.766657682478353
 31
0
  0
LINE
  8
0
 62
7
 10
6.931361160000002
 20
8.701657682478354
 30
0
 11
6.539999649999999
 21
8.701657682478354
 31
0
  0
LINE
  8
0
 62
7
 10
6.539999649999999
 20
8.701657682478354
 30
0
 11
6.539999649999999
 21
8.766657682478353
 31
0
  0
LINE
  8
0
 62
7
 10
6.931361160000002
 20
8.766657682478353
 30
0
 11
6.931361160000002
 21
8.701657682478354
 31
0
  0
LINE
  8
0
 62
7
 10
7.335493470000002
 20
8.884991022478353
 30
0
 11
6.753848870000002
 21
8.884991022478353
 31
0
  0
LINE
  8
0
 62
7
 10
6.753848870000002
 20
8.949991022478354
 30
0
 11
7.335493470000002
 21
8.949991022478354
 31
0
  0
LINE
  8
0
 62
7
 10
6.753848870000002
 20
8.884991022478353
 30
0
 11
6.753848870000002
 21
8.949991022478354
 31
0
  0
LINE
  8
0
 62
7
 10
7.335493470000002
 20
8.949991022478354
 30
0
 11
7.335493470000002
 21
8.884991022478353
 31
0
  0
LINE
  8
0
 62
7
 10
7.856367640000001
 20
9.068324342478354
 30
0
 11
6.881514350000002
 21
9.068324342478354
 31
0
  0
LINE
  8
0
 62
7
 10
6.881514350000002
 20
9.133324342478355
 30
0
 11
7.856367640000001
 21
9.133324342478355
 31
0
  0
LINE
  8
0
 62
7
 10
6.881514350000002
 20
9.068324342478354
 30
0
 11
6.881514350000002
 21
9.133324342478355
 31
0
  0
LINE
  8
0
 62
7
 10
7.856367640000001
 20
9.133324342478355
 30
0
 11
7.856367640000001
 21
9.068324342478354
 31
0
  0
LINE
  8
0
 62
7
 10
6.954999609999989
 20
9.316657702478356
 30
0
 11
7.904999690000001
 21
9.316657702478356
 31
0
  0
LINE
  8
0
 62
7
 10
7.904999690000001
 20
9.251657702478354
 30
0
 11
6.954999609999989
 21
9.251657702478354
 31
0
  0
LINE
  8
0
 62
7
 10
6.954999609999989
 20
9.251657702478354
 30
0
 11
6.954999609999989
 21
9.316657702478356
 31
0
  0
LINE
  8
0
 62
7
 10
7.904999690000001
 20
9.316657702478356
 30
0
 11
7.904999690000001
 21
9.251657702478354
 31
0
  0
LINE
  8
0
 62
7
 10
6.954999540000002
 20
9.499991062478355
 30
0
 11
7.904999840000001
 21
9.499991062478355
 31
0
  0
LINE
  8
0
 62
7
 10
6.954999540000002
 20
9.434991062478353
 30
0
 11
6.954999540000002
 21
9.499991062478355
 31
0
  0
LINE
  8
0
 62
7
 10
7.904999840000001
 20
9.499991062478355
 30
0
 11
7.904999840000001
 21
9.434991062478353
 31
0
  0
LINE
  8
0
 62
7
 10
7.904999840000001
 20
9.434991062478353
 30
0
 11
6.954999540000002
 21
9.434991062478353
 31
0
  0
LINE
  8
0
 62
7
 10
6.954999690000001
 20
9.683324342478356
 30
0
 11
7.904999840000001
 21
9.683324342478356
 31
0
  0
LINE
  8
0
 62
7
 10
6.954999690000001
 20
9.618324342478354
 30
0
 11
6.954999690000001
 21
9.683324342478356
 31
0
  0
LINE
  8
0
 62
7
 10
7.904999840000001
 20
9.683324342478356
 30
0
 11
7.904999840000001
 21
9.618324342478354
 31
0
  0
LINE
  8
0
 62
7
 10
7.904999840000001
 20
9.618324342478354
 30
0
 11
6.954999690000001
 21
9.618324342478354
 31
0
  0
LINE
  8
0
 62
7
 10
6.954999540000002
 20
9.866657782478356
 30
0
 11
7.905
 21
9.866657782478356
 31
0
  0
LINE
  8
0
 62
7
 10
6.954999540000002
 20
9.801657782478358
 30
0
 11
6.954999540000002
 21
9.866657782478356
 31
0
  0
LINE
  8
0
 62
7
 10
7.905
 20
9.866657782478356
 30
0
 11
7.905
 21
9.801657782478358
 31
0
  0
LINE
  8
0
 62
7
 10
7.905
 20
9.801657782478358
 30
0
 11
6.954999540000002
 21
9.801657782478358
 31
0
  0
LINE
  8
0
 62
7
 10
6.954999540000002
 20
10.04999106247835
 30
0
 11
7.904999690000001
 21
10.04999106247835
 31
0
  0
LINE
  8
0
 62
7
 10
6.954999540000002
 20
9.984991062478354
 30
0
 11
6.954999540000002
 21
10.04999106247835
 31
0
  0
LINE
  8
0
 62
7
 10
7.904999690000001
 20
10.04999106247835
 30
0
 11
7.904999690000001
 21
9.984991062478354
 31
0
  0
LINE
  8
0
 62
7
 10
7.904999690000001
 20
9.984991062478354
 30
0
 11
6.954999540000002
 21
9.984991062478354
 31
0
  0
LINE
  8
0
 62
7
 10
6.954999390000002
 20
10.23332434247835
 30
0
 11
7.904999690000001
 21
10.23332434247835
 31
0
  0
LINE
  8
0
 62
7
 10
6.954999390000002
 20
10.16832434247835
 30
0
 11
6.954999390000002
 21
10.23332434247835
 31
0
  0
LINE
  8
0
 62
7
 10
7.904999690000001
 20
10.23332434247835
 30
0
 11
7.904999690000001
 21
10.16832434247835
 31
0
  0
LINE
  8
0
 62
7
 10
7.904999690000001
 20
10.16832434247835
 30
0
 11
6.954999390000002
 21
10.16832434247835
 31
0
  0
LINE
  8
0
 62
7
 10
7.904999230000003
 20
10.35165778247836
 30
0
 11
6.834490960000004
 21
10.35165778247836
 31
0
  0
LINE
  8
0
 62
7
 10
6.834490960000004
 20
10.41665778247836
 30
0
 11
7.904999230000003
 21
10.41665778247836
 31
0
  0
LINE
  8
0
 62
7
 10
6.834490960000004
 20
10.35165778247836
 30
0
 11
6.834490960000004
 21
10.41665778247836
 31
0
  0
LINE
  8
0
 62
7
 10
7.904999230000003
 20
10.41665778247836
 30
0
 11
7.904999230000003
 21
10.35165778247836
 31
0
  0
LINE
  8
0
 62
7
 10
7.529508050000001
 20
10.53499106247835
 30
0
 11
6.70459159
 21
10.53499106247835
 31
0
  0
LINE
  8
0
 62
7
 10
6.70459159
 20
10.59999106247835
 30
0
 11
7.529508050000001
 21
10.59999106247835
 31
0
  0
LINE
  8
0
 62
7
 10
6.70459159
 20
10.53499106247835
 30
0
 11
6.70459159
 21
10.59999106247835
 31
0
  0
LINE
  8
0
 62
7
 10
7.529508050000001
 20
10.59999106247835
 30
0
 11
7.529508050000001
 21
10.53499106247835
 31
0
  0
LINE
  8
0
 62
7
 10
7.082635269999992
 20
10.71832434247835
 30
0
 11
6.588655160000004
 21
10.71832434247835
 31
0
  0
LINE
  8
0
 62
7
 10
6.588655160000004
 20
10.78332434247835
 30
0
 11
7.082635269999992
 21
10.78332434247835
 31
0
  0
LINE
  8
0
 62
7
 10
6.588655160000004
 20
10.71832434247835
 30
0
 11
6.588655160000004
 21
10.78332434247835
 31
0
  0
LINE
  8
0
 62
7
 10
7.082635269999992
 20
10.78332434247835
 30
0
 11
7.082635269999992
 21
10.71832434247835
 31
0
  0
LINE
  8
0
 62
7
 10
6.419999580000004
 20
10.96665778247836
 30
0
 11
6.698181610000001
 21
10.96665778247836
 31
0
  0
LINE
  8
0
 62
7
 10
6.698181610000001
 20
10.90165778247836
 30
0
 11
6.419999580000004
 21
10.90165778247836
 31
0
  0
LINE
  8
0
 62
7
 10
6.419999580000004
 20
10.90165778247836
 30
0
 11
6.419999580000004
 21
10.96665778247836
 31
0
  0
LINE
  8
0
 62
7
 10
6.698181610000001
 20
10.96665778247836
 30
0
 11
6.698181610000001
 21
10.90165778247836
 31
0
  0
LINE
  8
0
 62
7
 10
3.154999930000002
 20
8.583333226666666
 30
0
 11
4.105000410000001
 21
8.583333226666666
 31
0
  0
LINE
  8
0
 62
7
 10
4.105000410000001
 20
8.583333226666666
 30
0
 11
4.105000410000001
 21
8.518333226666664
 31
0
  0
LINE
  8
0
 62
7
 10
3.154999930000002
 20
8.518333226666664
 30
0
 11
3.154999930000002
 21
8.583333226666666
 31
0
  0
LINE
  8
0
 62
7
 10
4.105000410000001
 20
8.518333226666664
 30
0
 11
3.154999930000002
 21
8.518333226666664
 31
0
  0
LINE
  8
0
 62
7
 10
3.154999930000002
 20
8.766666566666665
 30
0
 11
4.104999970000001
 21
8.766666566666665
 31
0
  0
LINE
  8
0
 62
7
 10
4.104999970000001
 20
8.766666566666665
 30
0
 11
4.104999970000001
 21
8.701666566666665
 31
0
  0
LINE
  8
0
 62
7
 10
3.154999930000002
 20
8.701666566666665
 30
0
 11
3.154999930000002
 21
8.766666566666665
 31
0
  0
LINE
  8
0
 62
7
 10
4.104999970000001
 20
8.701666566666665
 30
0
 11
3.154999930000002
 21
8.701666566666665
 31
0
  0
LINE
  8
0
 62
7
 10
3.15499985
 20
8.949999906666665
 30
0
 11
4.104999950000002
 21
8.949999906666665
 31
0
  0
LINE
  8
0
 62
7
 10
4.104999950000002
 20
8.949999906666665
 30
0
 11
4.104999950000002
 21
8.884999906666664
 31
0
  0
LINE
  8
0
 62
7
 10
3.15499985
 20
8.884999906666664
 30
0
 11
3.15499985
 21
8.949999906666665
 31
0
  0
LINE
  8
0
 62
7
 10
4.104999950000002
 20
8.884999906666664
 30
0
 11
3.15499985
 21
8.884999906666664
 31
0
  0
LINE
  8
0
 62
7
 10
3.017762149999999
 20
9.133333226666664
 30
0
 11
4.104999970000001
 21
9.133333226666664
 31
0
  0
LINE
  8
0
 62
7
 10
4.104999970000001
 20
9.068333226666665
 30
0
 11
3.017762149999999
 21
9.068333226666665
 31
0
  0
LINE
  8
0
 62
7
 10
4.104999970000001
 20
9.133333226666664
 30
0
 11
4.104999970000001
 21
9.068333226666665
 31
0
  0
LINE
  8
0
 62
7
 10
3.017762149999999
 20
9.068333226666665
 30
0
 11
3.017762149999999
 21
9.133333226666664
 31
0
  0
LINE
  8
0
 62
7
 10
4.104999950000002
 20
9.251666586666667
 30
0
 11
2.8736345
 21
9.251666586666667
 31
0
  0
LINE
  8
0
 62
7
 10
2.8736345
 20
9.316666586666667
 30
0
 11
4.104999950000002
 21
9.316666586666667
 31
0
  0
LINE
  8
0
 62
7
 10
4.104999950000002
 20
9.316666586666667
 30
0
 11
4.104999950000002
 21
9.251666586666667
 31
0
  0
LINE
  8
0
 62
7
 10
2.8736345
 20
9.251666586666667
 30
0
 11
2.8736345
 21
9.316666586666667
 31
0
  0
LINE
  8
0
 62
7
 10
3.635267189999999
 20
9.434999946666665
 30
0
 11
2.763316350000001
 21
9.434999946666665
 31
0
  0
LINE
  8
0
 62
7
 10
2.763316350000001
 20
9.499999946666666
 30
0
 11
3.635267189999999
 21
9.499999946666666
 31
0
  0
LINE
  8
0
 62
7
 10
3.635267189999999
 20
9.499999946666666
 30
0
 11
3.635267189999999
 21
9.434999946666665
 31
0
  0
LINE
  8
0
 62
7
 10
2.763316350000001
 20
9.434999946666665
 30
0
 11
2.763316350000001
 21
9.499999946666666
 31
0
  0
LINE
  8
0
 62
7
 10
3.223728110000001
 20
9.618333226666664
 30
0
 11
2.647687540000003
 21
9.618333226666664
 31
0
  0
LINE
  8
0
 62
7
 10
2.647687540000003
 20
9.683333226666665
 30
0
 11
3.223728110000001
 21
9.683333226666665
 31
0
  0
LINE
  8
0
 62
7
 10
3.223728110000001
 20
9.683333226666665
 30
0
 11
3.223728110000001
 21
9.618333226666664
 31
0
  0
LINE
  8
0
 62
7
 10
2.647687540000003
 20
9.618333226666664
 30
0
 11
2.647687540000003
 21
9.683333226666665
 31
0
  0
LINE
  8
0
 62
7
 10
2.840723880000002
 20
9.801666666666666
 30
0
 11
2.36293335
 21
9.801666666666666
 31
0
  0
LINE
  8
0
 62
7
 10
2.36293335
 20
9.866666666666665
 30
0
 11
2.840723880000002
 21
9.866666666666665
 31
0
  0
LINE
  8
0
 62
7
 10
2.840723880000002
 20
9.866666666666665
 30
0
 11
2.840723880000002
 21
9.801666666666666
 31
0
  0
LINE
  8
0
 62
7
 10
2.36293335
 20
9.801666666666666
 30
0
 11
2.36293335
 21
9.866666666666665
 31
0
  0
LINE
  8
0
 62
7
 10
2.620570990000001
 20
9.984999946666665
 30
0
 11
1.96491776
 21
9.984999946666665
 31
0
  0
LINE
  8
0
 62
7
 10
1.96491776
 20
10.04999994666667
 30
0
 11
2.620570990000001
 21
10.04999994666667
 31
0
  0
LINE
  8
0
 62
7
 10
2.620570990000001
 20
10.04999994666667
 30
0
 11
2.620570990000001
 21
9.984999946666665
 31
0
  0
LINE
  8
0
 62
7
 10
1.96491776
 20
9.984999946666665
 30
0
 11
1.96491776
 21
10.04999994666667
 31
0
  0
LINE
  8
0
 62
7
 10
2.50700272
 20
10.16833322666666
 30
0
 11
1.437610170000004
 21
10.16833322666666
 31
0
  0
LINE
  8
0
 62
7
 10
1.437610170000004
 20
10.23333322666666
 30
0
 11
2.50700272
 21
10.23333322666666
 31
0
  0
LINE
  8
0
 62
7
 10
2.50700272
 20
10.23333322666666
 30
0
 11
2.50700272
 21
10.16833322666666
 31
0
  0
LINE
  8
0
 62
7
 10
1.437610170000004
 20
10.16833322666666
 30
0
 11
1.437610170000004
 21
10.23333322666666
 31
0
  0
LINE
  8
0
 62
7
 10
2.361652990000002
 20
10.35166666666667
 30
0
 11
1.33
 21
10.35166666666667
 31
0
  0
LINE
  8
0
 62
7
 10
1.33
 20
10.41666666666667
 30
0
 11
2.361652990000002
 21
10.41666666666667
 31
0
  0
LINE
  8
0
 62
7
 10
2.361652990000002
 20
10.41666666666667
 30
0
 11
2.361652990000002
 21
10.35166666666667
 31
0
  0
LINE
  8
0
 62
7
 10
1.33
 20
10.35166666666667
 30
0
 11
1.33
 21
10.41666666666667
 31
0
  0
LINE
  8
0
 62
7
 10
1.33
 20
10.59999994666666
 30
0
 11
2.28
 21
10.59999994666666
 31
0
  0
LINE
  8
0
 62
7
 10
2.28
 20
10.59999994666666
 30
0
 11
2.28
 21
10.53499994666666
 31
0
  0
LINE
  8
0
 62
7
 10
1.33
 20
10.53499994666666
 30
0
 11
1.33
 21
10.59999994666666
 31
0
  0
LINE
  8
0
 62
7
 10
2.28
 20
10.53499994666666
 30
0
 11
1.33
 21
10.53499994666666
 31
0
  0
LINE
  8
0
 62
7
 10
1.33
 20
10.78333322666666
 30
0
 11
2.28000016
 21
10.78333322666666
 31
0
  0
LINE
  8
0
 62
7
 10
2.28000016
 20
10.78333322666666
 30
0
 11
2.28000016
 21
10.71833322666666
 31
0
  0
LINE
  8
0
 62
7
 10
1.33
 20
10.71833322666666
 30
0
 11
1.33
 21
10.78333322666666
 31
0
  0
LINE
  8
0
 62
7
 10
2.28000016
 20
10.71833322666666
 30
0
 11
1.33
 21
10.71833322666666
 31
0
  0
LINE
  8
0
 62
7
  6
DASHED
 10
1.33
 20
10.96666666666667
 30
0
 11
2.280000310000003
 21
10.96666666666667
 31
0
  0
LINE
  8
0
 62
7
  6
DASHED
 10
2.280000310000003
 20
10.96666666666667
 30
0
 11
2.280000310000003
 21
10.90166666666667
 31
0
  0
LINE
  8
0
 62
7
  6
DASHED
 10
1.33
 20
10.90166666666667
 30
0
 11
1.33
 21
10.96666666666667
 31
0
  0
LINE
  8
0
 62
7
  6
DASHED
 10
2.280000310000003
 20
10.90166666666667
 30
0
 11
1.33
 21
10.90166666666667
 31
0
  0
LINE
  8
0
 62
7
  6
DASHDOT
 10
1.1
 20
5.599999999999999
 30
0
 11
1.275
 21
5.599999999999999
 31
0
  0
LINE
  8
0
 62
7
  6
DASHDOT
 10
1.05
 20
5.599999999999999
 30
0
 11
1.1
 21
5.599999999999999
 31
0
  0
LINE
  8
0
 62
7
  6
DASHDOT
 10
4.485
 20
4.930000000000001
 30
0
 11
4.485
 21
5.170000000000002
 31
0
  0
LINE
  8
0
 62
7
  6
DASHDOT
 10
0.9350000000000001
 20
4.930000000000001
 30
0
 11
0.9350000000000001
 21
5.170000000000002
 31
0
  0
LINE
  8
0
 62
7
  6
DASHDOT
 10
4.485
 20
5.170000000000002
 30
0
 11
4.485
 21
5.210000000000001
 31
0
  0
LINE
  8
0
 62
7
  6
DASHDOT
 10
0.9350000000000001
 20
5.170000000000002
 30
0
 11
0.9350000000000001
 21
5.210000000000001
 31
0
  0
LINE
  8
0
 62
7
  6
DASHDOT
 10
4.485
 20
4.880000000000002
 30
0
 11
4.485
 21
4.930000000000001
 31
0
  0
LINE
  8
0
 62
7
  6
DASHDOT
 10
4.485
 20
5.210000000000001
 30
0
 11
4.485
 21
5.449999999999999
 31
0
  0
LINE
  8
0
 62
7
  6
DASHDOT
 10
4.11
 20
5.599999999999999
 30
0
 11
4.16
 21
5.599999999999999
 31
0
  0
LINE
  8
0
 62
7
  6
DASHDOT
 10
4.16
 20
5.599999999999999
 30
0
 11
4.335
 21
5.599999999999999
 31
0
  0
LINE
  8
0
 62
7
  6
DASHDOT
 10
0.9350000000000001
 20
4.880000000000002
 30
0
 11
0.9350000000000001
 21
4.930000000000001
 31
0
  0
LINE
  8
0
 62
7
  6
DASHDOT
 10
0.9350000000000001
 20
5.210000000000001
 30
0
 11
0.9350000000000001
 21
5.449999999999999
 31
0
  0
LINE
  8
0
 62
7
  6
DASHDOT
 10
0.9350000000000001
 20
5.449999999999999
 30
0
 11
0.9350000000000001
 21
5.499999999999999
 31
0
  0
LINE
  8
0
 62
7
  6
DASHDOT
 10
4.485
 20
5.449999999999999
 30
0
 11
4.485
 21
5.499999999999999
 31
0
  0
LINE
  8
0
 62
7
  6
DASHDOT
 10
1.275
 20
5.599999999999999
 30
0
 11
1.325
 21
5.599999999999999
 31
0
  0
LINE
  8
0
 62
7
  6
DASHDOT
 10
4.335
 20
5.599999999999999
 30
0
 11
4.385000000000001
 21
5.599999999999999
 31
0
  0
LINE
  8
0
 62
7
 10
4.16
 20
3.4
 30
0
 11
4.16
 21
3.35
 31
0
  0
LINE
  8
0
 62
7
  6
DASHDOT
 10
4.16
 20
3.35
 30
0
 11
1.275
 21
3.35
 31
0
  0
LINE
  8
0
 62
7
 10
1.275
 20
3.35
 30
0
 11
1.275
 21
3.4
 31
0
  0
LINE
  8
0
 62
7
 10
4.16
 20
4.930000000000001
 30
0
 11
4.16
 21
3.4
 31
0
  0
LINE
  8
0
 62
7
 10
4.16
 20
3.4
 30
0
 11
1.275
 21
3.4
 31
0
  0
LINE
  8
0
 62
7
 10
1.1
 20
3.35
 30
0
 11
1.275
 21
3.35
 31
0
  0
LINE
  8
0
 62
7
 10
0.9350000000000001
 20
4.930000000000001
 30
0
 11
1.1
 21
4.930000000000001
 31
0
  0
LINE
  8
0
 62
7
 10
1.1
 20
4.930000000000001
 30
0
 11
1.1
 21
3.35
 31
0
  0
LINE
  8
0
 62
7
 10
1.275
 20
3.4
 30
0
 11
1.275
 21
4.930000000000001
 31
0
  0
LINE
  8
0
 62
7
 10
1.275
 20
4.930000000000001
 30
0
 11
4.16
 21
4.930000000000001
 31
0
  0
LINE
  8
0
 62
7
 10
4.335
 20
3.25
 30
0
 11
4.335
 21
4.930000000000001
 31
0
  0
LINE
  8
0
 62
7
 10
4.16
 20
3.25
 30
0
 11
4.335
 21
3.25
 31
0
  0
LINE
  8
0
 62
7
 10
4.16
 20
3.35
 30
0
 11
4.16
 21
3.25
 31
0
  0
LINE
  8
0
 62
7
 10
4.335
 20
4.930000000000001
 30
0
 11
4.485
 21
4.930000000000001
 31
0
  0
LINE
  8
0
 62
7
 10
0.9350000000000001
 20
5.170000000000002
 30
0
 11
4.485
 21
5.170000000000002
 31
0
  0
LINE
  8
0
 62
7
 10
0.9350000000000001
 20
5.210000000000001
 30
0
 11
4.485
 21
5.210000000000001
 31
0
  0
LINE
  8
0
 62
7
 10
0.9350000000000001
 20
5.449999999999999
 30
0
 11
1.1
 21
5.449999999999999
 31
0
  0
LINE
  8
0
 62
7
 10
1.1
 20
5.449999999999999
 30
0
 11
1.1
 21
5.599999999999999
 31
0
  0
LINE
  8
0
 62
7
 10
1.275
 20
5.599999999999999
 30
0
 11
1.275
 21
5.449999999999999
 31
0
  0
LINE
  8
0
 62
7
 10
1.275
 20
5.449999999999999
 30
0
 11
4.16
 21
5.449999999999999
 31
0
  0
LINE
  8
0
 62
7
 10
4.16
 20
5.449999999999999
 30
0
 11
4.16
 21
5.599999999999999
 31
0
  0
LINE
  8
0
 62
7
 10
4.335
 20
5.599999999999999
 30
0
 11
4.335
 21
5.449999999999999
 31
0
  0
LINE
  8
0
 62
7
 10
4.335
 20
5.449999999999999
 30
0
 11
4.485
 21
5.449999999999999
 31
0
  0
LINE
  8
0
 62
7
  6
DASHED
 10
6.380000000000001
 20
8.1
 30
0
 11
7.960000000000001
 21
8.1
 31
0
  0
LINE
  8
0
 62
7
  6
DASHED
 10
6.380000000000001
 20
8.299999999999999
 30
0
 11
7.960000000000001
 21
8.299999999999999
 31
0
  0
LINE
  8
0
 62
7
  6
DASHED
 10
6.380000000000001
 20
10.85
 30
0
 11
7.960000000000001
 21
10.85
 31
0
  0
LINE
  8
0
 62
7
  6
DASHED
 10
6.380000000000001
 20
11.05
 30
0
 11
7.960000000000001
 21
11.05
 31
0
  0
LINE
  8
0
 62
7
  6
DASHDOT
 10
6.080000000000001
 20
10.85
 30
0
 11
6.080000000000001
 21
11.05
 31
0
  0
LINE
  8
0
 62
7
  6
DASHDOT
 10
6.080000000000001
 20
10.8
 30
0
 11
6.080000000000001
 21
10.85
 31
0
  0
LINE
  8
0
 62
7
  6
DASHDOT
 10
7.960000000000001
 20
11.2
 30
0
 11
8.200000000000001
 21
11.2
 31
0
  0
LINE
  8
0
 62
7
  6
DASHDOT
 10
7.910000000000001
 20
11.2
 30
0
 11
7.960000000000001
 21
11.2
 31
0
  0
LINE
  8
0
 62
7
  6
DASHDOT
 10
7.910000000000001
 20
7.949999999999999
 30
0
 11
7.960000000000001
 21
7.949999999999999
 31
0
  0
LINE
  8
0
 62
7
  6
DASHDOT
 10
7.960000000000001
 20
7.949999999999999
 30
0
 11
8.200000000000001
 21
7.949999999999999
 31
0
  0
LINE
  8
0
 62
7
  6
DASHDOT
 10
6.080000000000001
 20
8.299999999999999
 30
0
 11
6.080000000000001
 21
8.1
 31
0
  0
LINE
  8
0
 62
7
  6
DASHDOT
 10
6.080000000000001
 20
8.399999999999999
 30
0
 11
6.080000000000001
 21
8.299999999999999
 31
0
  0
LINE
  8
0
 62
7
  6
DASHDOT
 10
6.080000000000001
 20
11.05
 30
0
 11
6.080000000000001
 21
11.15
 31
0
  0
LINE
  8
0
 62
7
 10
6.080000000000001
 20
11.15
 30
0
 11
6.380000000000001
 21
11.15
 31
0
  0
LINE
  8
0
 62
7
  6
DASHDOT
 10
6.080000000000001
 20
8.449999999999999
 30
0
 11
6.080000000000001
 21
8.399999999999999
 31
0
  0
LINE
  8
0
 62
7
 10
6.080000000000001
 20
8.399999999999999
 30
0
 11
6.380000000000001
 21
8.399999999999999
 31
0
  0
LINE
  8
0
 62
7
  6
DASHDOT
 10
8.200000000000001
 20
7.949999999999999
 30
0
 11
8.25
 21
7.949999999999999
 31
0
  0
LINE
  8
0
 62
7
  6
DASHDOT
 10
6.080000000000001
 20
8.1
 30
0
 11
6.080000000000001
 21
8.049999999999999
 31
0
  0
LINE
  8
0
 62
7
  6
DASHDOT
 10
6.080000000000001
 20
11.15
 30
0
 11
6.080000000000001
 21
11.2
 31
0
  0
LINE
  8
0
 62
7
  6
DASHDOT
 10
8.200000000000001
 20
11.2
 30
0
 11
8.25
 21
11.2
 31
0
  0
LINE
  8
0
 62
7
 10
6.080000000000001
 20
8.1
 30
0
 11
6.380000000000001
 21
8.1
 31
0
  0
LINE
  8
0
 62
7
 10
6.380000000000001
 20
8.1
 30
0
 11
6.380000000000001
 21
8.299999999999999
 31
0
  0
LINE
  8
0
 62
7
 10
6.080000000000001
 20
8.299999999999999
 30
0
 11
6.380000000000001
 21
8.299999999999999
 31
0
  0
LINE
  8
0
 62
7
 10
6.080000000000001
 20
11.05
 30
0
 11
6.380000000000001
 21
11.05
 31
0
  0
LINE
  8
0
 62
7
 10
6.080000000000001
 20
10.85
 30
0
 11
6.380000000000001
 21
10.85
 31
0
  0
LINE
  8
0
 62
7
 10
6.380000000000001
 20
10.85
 30
0
 11
6.380000000000001
 21
11.05
 31
0
  0
LINE
  8
0
 62
7
 10
7.960000000000001
 20
7.949999999999999
 30
0
 11
7.960000000000001
 21
8.1
 31
0
  0
LINE
  8
0
 62
7
 10
8.200000000000001
 20
8.299999999999999
 30
0
 11
8.200000000000001
 21
8.1
 31
0
  0
LINE
  8
0
 62
7
 10
7.960000000000001
 20
8.1
 30
0
 11
8.200000000000001
 21
8.1
 31
0
  0
LINE
  8
0
 62
7
 10
7.960000000000001
 20
8.1
 30
0
 11
7.960000000000001
 21
8.299999999999999
 31
0
  0
LINE
  8
0
 62
7
 10
8.200000000000001
 20
10.85
 30
0
 11
8.200000000000001
 21
8.299999999999999
 31
0
  0
LINE
  8
0
 62
7
 10
7.960000000000001
 20
8.299999999999999
 30
0
 11
8.200000000000001
 21
8.299999999999999
 31
0
  0
LINE
  8
0
 62
7
 10
7.960000000000001
 20
8.299999999999999
 30
0
 11
7.960000000000001
 21
10.85
 31
0
  0
LINE
  8
0
 62
7
 10
8.200000000000001
 20
11.05
 30
0
 11
8.200000000000001
 21
10.85
 31
0
  0
LINE
  8
0
 62
7
 10
7.960000000000001
 20
10.85
 30
0
 11
8.200000000000001
 21
10.85
 31
0
  0
LINE
  8
0
 62
7
 10
7.960000000000001
 20
10.85
 30
0
 11
7.960000000000001
 21
11.05
 31
0
  0
LINE
  8
0
 62
7
 10
8.200000000000001
 20
11.2
 30
0
 11
8.200000000000001
 21
11.05
 31
0
  0
LINE
  8
0
 62
7
 10
7.960000000000001
 20
11.05
 30
0
 11
8.200000000000001
 21
11.05
 31
0
  0
LINE
  8
0
 62
7
 10
7.960000000000001
 20
11.05
 30
0
 11
7.960000000000001
 21
11.2
 31
0
  0
LINE
  8
0
 62
7
 10
8.200000000000001
 20
8.1
 30
0
 11
8.200000000000001
 21
7.949999999999999
 31
0
  0
LINE
  8
0
 62
7
  6
DASHDOT
 10
4.335
 20
11.2
 30
0
 11
4.385000000000001
 21
11.2
 31
0
  0
LINE
  8
0
 62
7
  6
DASHDOT
 10
4.16
 20
11.2
 30
0
 11
4.335
 21
11.2
 31
0
  0
LINE
  8
0
 62
7
  6
DASHDOT
 10
4.485
 20
11.05
 30
0
 11
4.485
 21
11.15
 31
0
  0
LINE
  8
0
 62
7
  6
DASHDOT
 10
4.485
 20
10.85
 30
0
 11
4.485
 21
11.05
 31
0
  0
LINE
  8
0
 62
7
  6
DASHDOT
 10
1.275
 20
11.2
 30
0
 11
1.325
 21
11.2
 31
0
  0
LINE
  8
0
 62
7
  6
DASHDOT
 10
1.1
 20
11.2
 30
0
 11
1.275
 21
11.2
 31
0
  0
LINE
  8
0
 62
7
  6
DASHDOT
 10
0.9500000000000001
 20
11.05
 30
0
 11
0.9500000000000001
 21
11.15
 31
0
  0
LINE
  8
0
 62
7
  6
DASHDOT
 10
0.9500000000000001
 20
10.85
 30
0
 11
0.9500000000000001
 21
11.05
 31
0
  0
LINE
  8
0
 62
7
  6
DASHDOT
 10
1.275
 20
7.949999999999999
 30
0
 11
1.325
 21
7.949999999999999
 31
0
  0
LINE
  8
0
 62
7
  6
DASHDOT
 10
1.1
 20
7.949999999999999
 30
0
 11
1.275
 21
7.949999999999999
 31
0
  0
LINE
  8
0
 62
7
  6
DASHDOT
 10
0.9500000000000001
 20
8.299999999999999
 30
0
 11
0.9500000000000001
 21
8.399999999999999
 31
0
  0
LINE
  8
0
 62
7
  6
DASHDOT
 10
0.9500000000000001
 20
8.1
 30
0
 11
0.9500000000000001
 21
8.299999999999999
 31
0
  0
LINE
  8
0
 62
7
  6
DASHDOT
 10
4.335
 20
7.949999999999999
 30
0
 11
4.385000000000001
 21
7.949999999999999
 31
0
  0
LINE
  8
0
 62
7
  6
DASHDOT
 10
4.16
 20
7.949999999999999
 30
0
 11
4.335
 21
7.949999999999999
 31
0
  0
LINE
  8
0
 62
7
  6
DASHDOT
 10
4.485
 20
8.299999999999999
 30
0
 11
4.485
 21
8.399999999999999
 31
0
  0
LINE
  8
0
 62
7
  6
DASHDOT
 10
4.485
 20
8.1
 30
0
 11
4.485
 21
8.299999999999999
 31
0
  0
LINE
  8
0
 62
7
  6
DASHDOT
 10
4.485
 20
11.15
 30
0
 11
4.485
 21
11.2
 31
0
  0
LINE
  8
0
 62
7
 10
4.335
 20
11.15
 30
0
 11
4.335
 21
11.2
 31
0
  0
LINE
  8
0
 62
7
 10
4.335
 20
11.15
 30
0
 11
4.485
 21
11.15
 31
0
  0
LINE
  8
0
 62
7
 10
4.16
 20
11.15
 30
0
 11
4.16
 21
11.2
 31
0
  0
LINE
  8
0
 62
7
 10
1.275
 20
11.15
 30
0
 11
1.275
 21
11.2
 31
0
  0
LINE
  8
0
 62
7
 10
1.275
 20
11.15
 30
0
 11
4.16
 21
11.15
 31
0
  0
LINE
  8
0
 62
7
  6
DASHDOT
 10
0.9500000000000001
 20
11.15
 30
0
 11
0.9500000000000001
 21
11.2
 31
0
  0
LINE
  8
0
 62
7
 10
1.1
 20
11.15
 30
0
 11
1.1
 21
11.2
 31
0
  0
LINE
  8
0
 62
7
 10
0.9500000000000001
 20
11.15
 30
0
 11
1.1
 21
11.15
 31
0
  0
LINE
  8
0
 62
7
  6
DASHDOT
 10
4.485
 20
8.399999999999999
 30
0
 11
4.485
 21
8.449999999999999
 31
0
  0
LINE
  8
0
 62
7
 10
4.335
 20
8.399999999999999
 30
0
 11
4.335
 21
10.85
 31
0
  0
LINE
  8
0
 62
7
 10
4.335
 20
8.399999999999999
 30
0
 11
4.485
 21
8.399999999999999
 31
0
  0
LINE
  8
0
 62
7
 10
4.16
 20
8.399999999999999
 30
0
 11
4.16
 21
10.85
 31
0
  0
LINE
  8
0
 62
7
 10
1.275
 20
8.399999999999999
 30
0
 11
1.275
 21
10.85
 31
0
  0
LINE
  8
0
 62
7
 10
1.275
 20
8.399999999999999
 30
0
 11
4.16
 21
8.399999999999999
 31
0
  0
LINE
  8
0
 62
7
  6
DASHDOT
 10
0.9500000000000001
 20
8.399999999999999
 30
0
 11
0.9500000000000001
 21
8.449999999999999
 31
0
  0
LINE
  8
0
 62
7
 10
1.1
 20
8.399999999999999
 30
0
 11
1.1
 21
10.85
 31
0
  0
LINE
  8
0
 62
7
 10
0.9500000000000001
 20
8.399999999999999
 30
0
 11
1.1
 21
8.399999999999999
 31
0
  0
LINE
  8
0
 62
7
  6
DASHDOT
 10
4.11
 20
7.949999999999999
 30
0
 11
4.16
 21
7.949999999999999
 31
0
  0
LINE
  8
0
 62
7
  6
DASHDOT
 10
4.11
 20
11.2
 30
0
 11
4.16
 21
11.2
 31
0
  0
LINE
  8
0
 62
7
  6
DASHDOT
 10
1.05
 20
7.949999999999999
 30
0
 11
1.1
 21
7.949999999999999
 31
0
  0
LINE
  8
0
 62
7
  6
DASHDOT
 10
1.05
 20
11.2
 30
0
 11
1.1
 21
11.2
 31
0
  0
LINE
  8
0
 62
7
  6
DASHDOT
 10
4.485
 20
10.8
 30
0
 11
4.485
 21
10.85
 31
0
  0
LINE
  8
0
 62
7
  6
DASHDOT
 10
4.485
 20
8.049999999999999
 30
0
 11
4.485
 21
8.1
 31
0
  0
LINE
  8
0
 62
7
  6
DASHDOT
 10
0.9500000000000001
 20
10.8
 30
0
 11
0.9500000000000001
 21
10.85
 31
0
  0
LINE
  8
0
 62
7
  6
DASHDOT
 10
0.9500000000000001
 20
8.049999999999999
 30
0
 11
0.9500000000000001
 21
8.1
 31
0
  0
LINE
  8
0
 62
7
 10
4.335
 20
11.05
 30
0
 11
4.485
 21
11.05
 31
0
  0
LINE
  8
0
 62
7
 10
4.335
 20
11.05
 30
0
 11
4.335
 21
11.15
 31
0
  0
LINE
  8
0
 62
7
 10
4.335
 20
10.85
 30
0
 11
4.485
 21
10.85
 31
0
  0
LINE
  8
0
 62
7
 10
4.335
 20
8.299999999999999
 30
0
 11
4.485
 21
8.299999999999999
 31
0
  0
LINE
  8
0
 62
7
 10
4.335
 20
8.299999999999999
 30
0
 11
4.335
 21
8.399999999999999
 31
0
  0
LINE
  8
0
 62
7
 10
4.335
 20
8.1
 30
0
 11
4.485
 21
8.1
 31
0
  0
LINE
  8
0
 62
7
 10
4.335
 20
7.949999999999999
 30
0
 11
4.335
 21
8.1
 31
0
  0
LINE
  8
0
 62
7
 10
4.16
 20
11.05
 30
0
 11
4.335
 21
11.05
 31
0
  0
LINE
  8
0
 62
7
 10
4.16
 20
11.05
 30
0
 11
4.16
 21
11.15
 31
0
  0
LINE
  8
0
 62
7
 10
4.16
 20
10.85
 30
0
 11
4.335
 21
10.85
 31
0
  0
LINE
  8
0
 62
7
 10
4.16
 20
8.299999999999999
 30
0
 11
4.335
 21
8.299999999999999
 31
0
  0
LINE
  8
0
 62
7
 10
4.16
 20
8.299999999999999
 30
0
 11
4.16
 21
8.399999999999999
 31
0
  0
LINE
  8
0
 62
7
 10
4.16
 20
8.1
 30
0
 11
4.335
 21
8.1
 31
0
  0
LINE
  8
0
 62
7
 10
4.16
 20
7.949999999999999
 30
0
 11
4.16
 21
8.1
 31
0
  0
LINE
  8
0
 62
7
 10
1.275
 20
11.05
 30
0
 11
4.16
 21
11.05
 31
0
  0
LINE
  8
0
 62
7
 10
1.275
 20
11.05
 30
0
 11
1.275
 21
11.15
 31
0
  0
LINE
  8
0
 62
7
 10
1.275
 20
10.85
 30
0
 11
4.16
 21
10.85
 31
0
  0
LINE
  8
0
 62
7
 10
1.275
 20
8.299999999999999
 30
0
 11
4.16
 21
8.299999999999999
 31
0
  0
LINE
  8
0
 62
7
 10
1.275
 20
8.299999999999999
 30
0
 11
1.275
 21
8.399999999999999
 31
0
  0
LINE
  8
0
 62
7
 10
1.275
 20
8.1
 30
0
 11
4.16
 21
8.1
 31
0
  0
LINE
  8
0
 62
7
 10
1.275
 20
7.949999999999999
 30
0
 11
1.275
 21
8.1
 31
0
  0
LINE
  8
0
 62
7
 10
1.1
 20
11.05
 30
0
 11
1.275
 21
11.05
 31
0
  0
LINE
  8
0
 62
7
 10
1.1
 20
11.05
 30
0
 11
1.1
 21
11.15
 31
0
  0
LINE
  8
0
 62
7
 10
1.1
 20
10.85
 30
0
 11
1.275
 21
10.85
 31
0
  0
LINE
  8
0
 62
7
 10
1.1
 20
8.299999999999999
 30
0
 11
1.275
 21
8.299999999999999
 31
0
  0
LINE
  8
0
 62
7
 10
1.1
 20
8.299999999999999
 30
0
 11
1.1
 21
8.399999999999999
 31
0
  0
LINE
  8
0
 62
7
 10
1.1
 20
8.1
 30
0
 11
1.275
 21
8.1
 31
0
  0
LINE
  8
0
 62
7
 10
1.1
 20
7.949999999999999
 30
0
 11
1.1
 21
8.1
 31
0
  0
LINE
  8
0
 62
7
 10
0.9500000000000001
 20
11.05
 30
0
 11
1.1
 21
11.05
 31
0
  0
LINE
  8
0
 62
7
 10
0.9500000000000001
 20
10.85
 30
0
 11
1.1
 21
10.85
 31
0
  0
LINE
  8
0
 62
7
 10
0.9500000000000001
 20
8.299999999999999
 30
0
 11
1.1
 21
8.299999999999999
 31
0
  0
LINE
  8
0
 62
7
 10
0.9500000000000001
 20
8.1
 30
0
 11
1.1
 21
8.1
 31
0
  0
LINE
  8
0
 62
7
 10
1.85399458744847
 20
4.61792375818808
 30
0
 11
1.85399458744847
 21
4.737923758188081
 31
0
  0
LINE
  8
0
 62
7
 10
1.92959458744847
 20
4.737923758188081
 30
0
 11
1.87559458744847
 21
4.67792375818808
 31
0
  0
LINE
  8
0
 62
7
 10
1.87559458744847
 20
4.67792375818808
 30
0
 11
1.92959458744847
 21
4.61792375818808
 31
0
  0
LINE
  8
0
 62
7
 10
1.87559458744847
 20
4.67792375818808
 30
0
 11
1.85399458744847
 21
4.65392375818808
 31
0
  0
LINE
  8
0
 62
7
 10
2.03759458744847
 20
4.737923758188081
 30
0
 11
1.96199458744847
 21
4.737923758188081
 31
0
  0
LINE
  8
0
 62
7
 10
1.96199458744847
 20
4.737923758188081
 30
0
 11
1.96199458744847
 21
4.67792375818808
 31
0
  0
LINE
  8
0
 62
7
 10
1.96199458744847
 20
4.61792375818808
 30
0
 11
2.03759458744847
 21
4.61792375818808
 31
0
  0
LINE
  8
0
 62
7
 10
2.026794587448471
 20
4.67792375818808
 30
0
 11
1.96199458744847
 21
4.67792375818808
 31
0
  0
LINE
  8
0
 62
7
 10
1.96199458744847
 20
4.67792375818808
 30
0
 11
1.96199458744847
 21
4.61792375818808
 31
0
  0
LINE
  8
0
 62
7
 10
2.06999458744847
 20
4.61792375818808
 30
0
 11
2.06999458744847
 21
4.737923758188081
 31
0
  0
LINE
  8
0
 62
7
 10
2.06999458744847
 20
4.737923758188081
 30
0
 11
2.14559458744847
 21
4.61792375818808
 31
0
  0
LINE
  8
0
 62
7
 10
2.14559458744847
 20
4.61792375818808
 30
0
 11
2.14559458744847
 21
4.737923758188081
 31
0
  0
LINE
  8
0
 62
7
 10
2.17799458744847
 20
4.61792375818808
 30
0
 11
2.17799458744847
 21
4.737923758188081
 31
0
  0
LINE
  8
0
 62
7
 10
2.17799458744847
 20
4.737923758188081
 30
0
 11
2.25359458744847
 21
4.61792375818808
 31
0
  0
LINE
  8
0
 62
7
 10
2.25359458744847
 20
4.61792375818808
 30
0
 11
2.25359458744847
 21
4.737923758188081
 31
0
  0
LINE
  8
0
 62
7
 10
2.36159458744847
 20
4.70192375818808
 30
0
 11
2.35889458744847
 21
4.71392375818808
 31
0
  0
LINE
  8
0
 62
7
 10
2.35889458744847
 20
4.71392375818808
 30
0
 11
2.35349458744847
 21
4.72292375818808
 31
0
  0
LINE
  8
0
 62
7
 10
2.35349458744847
 20
4.72292375818808
 30
0
 11
2.34809458744847
 21
4.72892375818808
 31
0
  0
LINE
  8
0
 62
7
 10
2.34809458744847
 20
4.72892375818808
 30
0
 11
2.33999458744847
 21
4.734923758188081
 31
0
  0
LINE
  8
0
 62
7
 10
2.33999458744847
 20
4.734923758188081
 30
0
 11
2.33189458744847
 21
4.737923758188081
 31
0
  0
LINE
  8
0
 62
7
 10
2.33189458744847
 20
4.737923758188081
 30
0
 11
2.31569458744847
 21
4.737923758188081
 31
0
  0
LINE
  8
0
 62
7
 10
2.31569458744847
 20
4.737923758188081
 30
0
 11
2.30759458744847
 21
4.734923758188081
 31
0
  0
LINE
  8
0
 62
7
 10
2.30759458744847
 20
4.734923758188081
 30
0
 11
2.29949458744847
 21
4.72892375818808
 31
0
  0
LINE
  8
0
 62
7
 10
2.29949458744847
 20
4.72892375818808
 30
0
 11
2.29409458744847
 21
4.72292375818808
 31
0
  0
LINE
  8
0
 62
7
 10
2.29409458744847
 20
4.72292375818808
 30
0
 11
2.28869458744847
 21
4.71392375818808
 31
0
  0
LINE
  8
0
 62
7
 10
2.28869458744847
 20
4.71392375818808
 30
0
 11
2.28599458744847
 21
4.70192375818808
 31
0
  0
LINE
  8
0
 62
7
 10
2.28599458744847
 20
4.70192375818808
 30
0
 11
2.28599458744847
 21
4.65392375818808
 31
0
  0
LINE
  8
0
 62
7
 10
2.28599458744847
 20
4.65392375818808
 30
0
 11
2.28869458744847
 21
4.641923758188081
 31
0
  0
LINE
  8
0
 62
7
 10
2.28869458744847
 20
4.641923758188081
 30
0
 11
2.29409458744847
 21
4.63292375818808
 31
0
  0
LINE
  8
0
 62
7
 10
2.29409458744847
 20
4.63292375818808
 30
0
 11
2.29949458744847
 21
4.62692375818808
 31
0
  0
LINE
  8
0
 62
7
 10
2.29949458744847
 20
4.62692375818808
 30
0
 11
2.30759458744847
 21
4.620923758188081
 31
0
  0
LINE
  8
0
 62
7
 10
2.30759458744847
 20
4.620923758188081
 30
0
 11
2.31569458744847
 21
4.61792375818808
 31
0
  0
LINE
  8
0
 62
7
 10
2.31569458744847
 20
4.61792375818808
 30
0
 11
2.33189458744847
 21
4.61792375818808
 31
0
  0
LINE
  8
0
 62
7
 10
2.33189458744847
 20
4.61792375818808
 30
0
 11
2.33999458744847
 21
4.620923758188081
 31
0
  0
LINE
  8
0
 62
7
 10
2.33999458744847
 20
4.620923758188081
 30
0
 11
2.34809458744847
 21
4.62692375818808
 31
0
  0
LINE
  8
0
 62
7
 10
2.34809458744847
 20
4.62692375818808
 30
0
 11
2.35349458744847
 21
4.63292375818808
 31
0
  0
LINE
  8
0
 62
7
 10
2.35349458744847
 20
4.63292375818808
 30
0
 11
2.35889458744847
 21
4.641923758188081
 31
0
  0
LINE
  8
0
 62
7
 10
2.35889458744847
 20
4.641923758188081
 30
0
 11
2.36159458744847
 21
4.65392375818808
 31
0
  0
LINE
  8
0
 62
7
 10
2.36159458744847
 20
4.65392375818808
 30
0
 11
2.36159458744847
 21
4.67792375818808
 31
0
  0
LINE
  8
0
 62
7
 10
2.36159458744847
 20
4.67792375818808
 30
0
 11
2.32919458744847
 21
4.67792375818808
 31
0
  0
LINE
  8
0
 62
7
 10
2.439894587448471
 20
4.737923758188081
 30
0
 11
2.42369458744847
 21
4.737923758188081
 31
0
  0
LINE
  8
0
 62
7
 10
2.42369458744847
 20
4.737923758188081
 30
0
 11
2.41559458744847
 21
4.734923758188081
 31
0
  0
LINE
  8
0
 62
7
 10
2.41559458744847
 20
4.734923758188081
 30
0
 11
2.40749458744847
 21
4.72892375818808
 31
0
  0
LINE
  8
0
 62
7
 10
2.40749458744847
 20
4.72892375818808
 30
0
 11
2.40209458744847
 21
4.72292375818808
 31
0
  0
LINE
  8
0
 62
7
 10
2.40209458744847
 20
4.72292375818808
 30
0
 11
2.39669458744847
 21
4.71392375818808
 31
0
  0
LINE
  8
0
 62
7
 10
2.39669458744847
 20
4.71392375818808
 30
0
 11
2.39399458744847
 21
4.70192375818808
 31
0
  0
LINE
  8
0
 62
7
 10
2.39399458744847
 20
4.70192375818808
 30
0
 11
2.39399458744847
 21
4.65392375818808
 31
0
  0
LINE
  8
0
 62
7
 10
2.39399458744847
 20
4.65392375818808
 30
0
 11
2.39669458744847
 21
4.641923758188081
 31
0
  0
LINE
  8
0
 62
7
 10
2.39669458744847
 20
4.641923758188081
 30
0
 11
2.40209458744847
 21
4.63292375818808
 31
0
  0
LINE
  8
0
 62
7
 10
2.40209458744847
 20
4.63292375818808
 30
0
 11
2.40749458744847
 21
4.62692375818808
 31
0
  0
LINE
  8
0
 62
7
 10
2.40749458744847
 20
4.62692375818808
 30
0
 11
2.41559458744847
 21
4.620923758188081
 31
0
  0
LINE
  8
0
 62
7
 10
2.41559458744847
 20
4.620923758188081
 30
0
 11
2.42369458744847
 21
4.61792375818808
 31
0
  0
LINE
  8
0
 62
7
 10
2.42369458744847
 20
4.61792375818808
 30
0
 11
2.439894587448471
 21
4.61792375818808
 31
0
  0
LINE
  8
0
 62
7
 10
2.439894587448471
 20
4.61792375818808
 30
0
 11
2.44799458744847
 21
4.620923758188081
 31
0
  0
LINE
  8
0
 62
7
 10
2.44799458744847
 20
4.620923758188081
 30
0
 11
2.456094587448471
 21
4.62692375818808
 31
0
  0
LINE
  8
0
 62
7
 10
2.456094587448471
 20
4.62692375818808
 30
0
 11
2.46149458744847
 21
4.63292375818808
 31
0
  0
LINE
  8
0
 62
7
 10
2.46149458744847
 20
4.63292375818808
 30
0
 11
2.46689458744847
 21
4.641923758188081
 31
0
  0
LINE
  8
0
 62
7
 10
2.46689458744847
 20
4.641923758188081
 30
0
 11
2.46959458744847
 21
4.65392375818808
 31
0
  0
LINE
  8
0
 62
7
 10
2.46959458744847
 20
4.65392375818808
 30
0
 11
2.46959458744847
 21
4.70192375818808
 31
0
  0
LINE
  8
0
 62
7
 10
2.46959458744847
 20
4.70192375818808
 30
0
 11
2.46689458744847
 21
4.71392375818808
 31
0
  0
LINE
  8
0
 62
7
 10
2.46689458744847
 20
4.71392375818808
 30
0
 11
2.46149458744847
 21
4.72292375818808
 31
0
  0
LINE
  8
0
 62
7
 10
2.46149458744847
 20
4.72292375818808
 30
0
 11
2.456094587448471
 21
4.72892375818808
 31
0
  0
LINE
  8
0
 62
7
 10
2.456094587448471
 20
4.72892375818808
 30
0
 11
2.44799458744847
 21
4.734923758188081
 31
0
  0
LINE
  8
0
 62
7
 10
2.44799458744847
 20
4.734923758188081
 30
0
 11
2.439894587448471
 21
4.737923758188081
 31
0
  0
LINE
  8
0
 62
7
 10
2.49119458744847
 20
4.737923758188081
 30
0
 11
2.52899458744847
 21
4.737923758188081
 31
0
  0
LINE
  8
0
 62
7
 10
2.52899458744847
 20
4.737923758188081
 30
0
 11
2.52899458744847
 21
4.61792375818808
 31
0
  0
LINE
  8
0
 62
7
 10
2.52899458744847
 20
4.737923758188081
 30
0
 11
2.566794587448471
 21
4.737923758188081
 31
0
  0
LINE
  8
0
 62
7
 10
2.59919458744847
 20
4.737923758188081
 30
0
 11
2.63699458744847
 21
4.737923758188081
 31
0
  0
LINE
  8
0
 62
7
 10
2.63699458744847
 20
4.737923758188081
 30
0
 11
2.63699458744847
 21
4.61792375818808
 31
0
  0
LINE
  8
0
 62
7
 10
2.63699458744847
 20
4.737923758188081
 30
0
 11
2.674794587448471
 21
4.737923758188081
 31
0
  0
LINE
  8
0
 62
7
 10
2.79359458744847
 20
4.65992375818808
 30
0
 11
2.84759458744847
 21
4.65992375818808
 31
0
  0
LINE
  8
0
 62
7
 10
2.955594587448472
 20
4.737923758188081
 30
0
 11
2.993394587448471
 21
4.737923758188081
 31
0
  0
LINE
  8
0
 62
7
 10
2.993394587448471
 20
4.737923758188081
 30
0
 11
2.993394587448471
 21
4.61792375818808
 31
0
  0
LINE
  8
0
 62
7
 10
2.993394587448471
 20
4.737923758188081
 30
0
 11
3.031194587448471
 21
4.737923758188081
 31
0
  0
LINE
  8
0
 62
7
 10
3.06359458744847
 20
4.61792375818808
 30
0
 11
3.06359458744847
 21
4.737923758188081
 31
0
  0
LINE
  8
0
 62
7
 10
3.06359458744847
 20
4.737923758188081
 30
0
 11
3.114894587448472
 21
4.737923758188081
 31
0
  0
LINE
  8
0
 62
7
 10
3.114894587448472
 20
4.737923758188081
 30
0
 11
3.125694587448471
 21
4.734923758188081
 31
0
  0
LINE
  8
0
 62
7
 10
3.125694587448471
 20
4.734923758188081
 30
0
 11
3.133794587448472
 21
4.72892375818808
 31
0
  0
LINE
  8
0
 62
7
 10
3.133794587448472
 20
4.72892375818808
 30
0
 11
3.136494587448471
 21
4.72292375818808
 31
0
  0
LINE
  8
0
 62
7
 10
3.136494587448471
 20
4.72292375818808
 30
0
 11
3.139194587448471
 21
4.71392375818808
 31
0
  0
LINE
  8
0
 62
7
 10
3.139194587448471
 20
4.71392375818808
 30
0
 11
3.139194587448471
 21
4.70192375818808
 31
0
  0
LINE
  8
0
 62
7
 10
3.139194587448471
 20
4.70192375818808
 30
0
 11
3.136494587448471
 21
4.69292375818808
 31
0
  0
LINE
  8
0
 62
7
 10
3.136494587448471
 20
4.69292375818808
 30
0
 11
3.133794587448472
 21
4.68692375818808
 31
0
  0
LINE
  8
0
 62
7
 10
3.133794587448472
 20
4.68692375818808
 30
0
 11
3.125694587448471
 21
4.680923758188081
 31
0
  0
LINE
  8
0
 62
7
 10
3.125694587448471
 20
4.680923758188081
 30
0
 11
3.114894587448472
 21
4.67792375818808
 31
0
  0
LINE
  8
0
 62
7
 10
3.114894587448472
 20
4.67792375818808
 30
0
 11
3.106794587448471
 21
4.67792375818808
 31
0
  0
LINE
  8
0
 62
7
 10
3.106794587448471
 20
4.67792375818808
 30
0
 11
3.139194587448471
 21
4.61792375818808
 31
0
  0
LINE
  8
0
 62
7
 10
3.106794587448471
 20
4.67792375818808
 30
0
 11
3.06359458744847
 21
4.67792375818808
 31
0
  0
LINE
  8
0
 62
7
 10
3.23639458744847
 20
4.737923758188081
 30
0
 11
3.16079458744847
 21
4.737923758188081
 31
0
  0
LINE
  8
0
 62
7
 10
3.16079458744847
 20
4.737923758188081
 30
0
 11
3.16079458744847
 21
4.67792375818808
 31
0
  0
LINE
  8
0
 62
7
 10
3.16079458744847
 20
4.61792375818808
 30
0
 11
3.23639458744847
 21
4.61792375818808
 31
0
  0
LINE
  8
0
 62
7
 10
3.225594587448472
 20
4.67792375818808
 30
0
 11
3.16079458744847
 21
4.67792375818808
 31
0
  0
LINE
  8
0
 62
7
 10
3.16079458744847
 20
4.67792375818808
 30
0
 11
3.16079458744847
 21
4.61792375818808
 31
0
  0
LINE
  8
0
 62
7
 10
3.268794587448471
 20
4.61792375818808
 30
0
 11
3.268794587448471
 21
4.67792375818808
 31
0
  0
LINE
  8
0
 62
7
 10
3.268794587448471
 20
4.737923758188081
 30
0
 11
3.320094587448471
 21
4.737923758188081
 31
0
  0
LINE
  8
0
 62
7
 10
3.320094587448471
 20
4.737923758188081
 30
0
 11
3.33089458744847
 21
4.734923758188081
 31
0
  0
LINE
  8
0
 62
7
 10
3.33089458744847
 20
4.734923758188081
 30
0
 11
3.33899458744847
 21
4.72892375818808
 31
0
  0
LINE
  8
0
 62
7
 10
3.33899458744847
 20
4.72892375818808
 30
0
 11
3.341694587448471
 21
4.72292375818808
 31
0
  0
LINE
  8
0
 62
7
 10
3.341694587448471
 20
4.72292375818808
 30
0
 11
3.344394587448472
 21
4.71392375818808
 31
0
  0
LINE
  8
0
 62
7
 10
3.344394587448472
 20
4.71392375818808
 30
0
 11
3.344394587448472
 21
4.70192375818808
 31
0
  0
LINE
  8
0
 62
7
 10
3.344394587448472
 20
4.70192375818808
 30
0
 11
3.341694587448471
 21
4.69292375818808
 31
0
  0
LINE
  8
0
 62
7
 10
3.341694587448471
 20
4.69292375818808
 30
0
 11
3.33899458744847
 21
4.68692375818808
 31
0
  0
LINE
  8
0
 62
7
 10
3.33899458744847
 20
4.68692375818808
 30
0
 11
3.33089458744847
 21
4.680923758188081
 31
0
  0
LINE
  8
0
 62
7
 10
3.33089458744847
 20
4.680923758188081
 30
0
 11
3.320094587448471
 21
4.67792375818808
 31
0
  0
LINE
  8
0
 62
7
 10
3.320094587448471
 20
4.67792375818808
 30
0
 11
3.268794587448471
 21
4.67792375818808
 31
0
  0
LINE
  8
0
 62
7
 10
3.268794587448471
 20
4.67792375818808
 30
0
 11
3.268794587448471
 21
4.737923758188081
 31
0
  0
LINE
  8
0
 62
7
 10
3.365994587448471
 20
4.61792375818808
 30
0
 11
3.365994587448471
 21
4.67792375818808
 31
0
  0
LINE
  8
0
 62
7
 10
3.365994587448471
 20
4.737923758188081
 30
0
 11
3.417294587448471
 21
4.737923758188081
 31
0
  0
LINE
  8
0
 62
7
 10
3.417294587448471
 20
4.737923758188081
 30
0
 11
3.42809458744847
 21
4.734923758188081
 31
0
  0
LINE
  8
0
 62
7
 10
3.42809458744847
 20
4.734923758188081
 30
0
 11
3.436194587448471
 21
4.72892375818808
 31
0
  0
LINE
  8
0
 62
7
 10
3.436194587448471
 20
4.72892375818808
 30
0
 11
3.43889458744847
 21
4.72292375818808
 31
0
  0
LINE
  8
0
 62
7
 10
3.43889458744847
 20
4.72292375818808
 30
0
 11
3.44159458744847
 21
4.71392375818808
 31
0
  0
LINE
  8
0
 62
7
 10
3.44159458744847
 20
4.71392375818808
 30
0
 11
3.44159458744847
 21
4.70192375818808
 31
0
  0
LINE
  8
0
 62
7
 10
3.44159458744847
 20
4.70192375818808
 30
0
 11
3.43889458744847
 21
4.69292375818808
 31
0
  0
LINE
  8
0
 62
7
 10
3.43889458744847
 20
4.69292375818808
 30
0
 11
3.436194587448471
 21
4.68692375818808
 31
0
  0
LINE
  8
0
 62
7
 10
3.436194587448471
 20
4.68692375818808
 30
0
 11
3.42809458744847
 21
4.680923758188081
 31
0
  0
LINE
  8
0
 62
7
 10
3.42809458744847
 20
4.680923758188081
 30
0
 11
3.417294587448471
 21
4.67792375818808
 31
0
  0
LINE
  8
0
 62
7
 10
3.417294587448471
 20
4.67792375818808
 30
0
 11
3.365994587448471
 21
4.67792375818808
 31
0
  0
LINE
  8
0
 62
7
 10
3.365994587448471
 20
4.67792375818808
 30
0
 11
3.365994587448471
 21
4.737923758188081
 31
0
  0
LINE
  8
0
 62
7
 10
3.538794587448471
 20
4.737923758188081
 30
0
 11
3.463194587448471
 21
4.737923758188081
 31
0
  0
LINE
  8
0
 62
7
 10
3.463194587448471
 20
4.737923758188081
 30
0
 11
3.463194587448471
 21
4.67792375818808
 31
0
  0
LINE
  8
0
 62
7
 10
3.463194587448471
 20
4.61792375818808
 30
0
 11
3.538794587448471
 21
4.61792375818808
 31
0
  0
LINE
  8
0
 62
7
 10
3.527994587448471
 20
4.67792375818808
 30
0
 11
3.463194587448471
 21
4.67792375818808
 31
0
  0
LINE
  8
0
 62
7
 10
3.463194587448471
 20
4.67792375818808
 30
0
 11
3.463194587448471
 21
4.61792375818808
 31
0
  0
LINE
  8
0
 62
7
 10
0.525
 20
3.010000000000002
 30
0
 11
0.6006
 21
3.010000000000002
 31
0
  0
LINE
  8
0
 62
7
 10
0.6006
 20
3.010000000000002
 30
0
 11
0.525
 21
2.890000000000002
 31
0
  0
LINE
  8
0
 62
7
 10
0.525
 20
2.890000000000002
 30
0
 11
0.6006
 21
2.890000000000002
 31
0
  0
LINE
  8
0
 62
7
 10
0.633
 20
2.992000000000003
 30
0
 11
0.6384000000000002
 21
3.001000000000002
 31
0
  0
LINE
  8
0
 62
7
 10
0.6384000000000002
 20
3.001000000000002
 30
0
 11
0.6465000000000001
 21
3.007000000000002
 31
0
  0
LINE
  8
0
 62
7
 10
0.6465000000000001
 20
3.007000000000002
 30
0
 11
0.6573000000000001
 21
3.010000000000002
 31
0
  0
LINE
  8
0
 62
7
 10
0.6573000000000001
 20
3.010000000000002
 30
0
 11
0.6735000000000002
 21
3.010000000000002
 31
0
  0
LINE
  8
0
 62
7
 10
0.6735000000000002
 20
3.010000000000002
 30
0
 11
0.6843
 21
3.007000000000002
 31
0
  0
LINE
  8
0
 62
7
 10
0.6843
 20
3.007000000000002
 30
0
 11
0.6924
 21
3.001000000000002
 31
0
  0
LINE
  8
0
 62
7
 10
0.6924
 20
3.001000000000002
 30
0
 11
0.6978
 21
2.992000000000003
 31
0
  0
LINE
  8
0
 62
7
 10
0.6978
 20
2.992000000000003
 30
0
 11
0.6978
 21
2.980000000000002
 31
0
  0
LINE
  8
0
 62
7
 10
0.6978
 20
2.980000000000002
 30
0
 11
0.6924
 21
2.968000000000002
 31
0
  0
LINE
  8
0
 62
7
 10
0.6924
 20
2.968000000000002
 30
0
 11
0.633
 21
2.890000000000002
 31
0
  0
LINE
  8
0
 62
7
 10
0.633
 20
2.890000000000002
 30
0
 11
0.6978
 21
2.890000000000002
 31
0
  0
LINE
  8
0
 62
7
 10
0.7302000000000001
 20
3.010000000000002
 30
0
 11
0.7680000000000002
 21
2.890000000000002
 31
0
  0
LINE
  8
0
 62
7
 10
0.7680000000000002
 20
2.890000000000002
 30
0
 11
0.8058000000000002
 21
3.010000000000002
 31
0
  0
LINE
  8
0
 62
7
 10
0.8382000000000002
 20
2.992000000000003
 30
0
 11
0.8436000000000002
 21
3.001000000000002
 31
0
  0
LINE
  8
0
 62
7
 10
0.8436000000000002
 20
3.001000000000002
 30
0
 11
0.8517000000000001
 21
3.007000000000002
 31
0
  0
LINE
  8
0
 62
7
 10
0.8517000000000001
 20
3.007000000000002
 30
0
 11
0.8625
 21
3.010000000000002
 31
0
  0
LINE
  8
0
 62
7
 10
0.8625
 20
3.010000000000002
 30
0
 11
0.8787000000000001
 21
3.010000000000002
 31
0
  0
LINE
  8
0
 62
7
 10
0.8787000000000001
 20
3.010000000000002
 30
0
 11
0.8895
 21
3.007000000000002
 31
0
  0
LINE
  8
0
 62
7
 10
0.8895
 20
3.007000000000002
 30
0
 11
0.8976000000000002
 21
3.001000000000002
 31
0
  0
LINE
  8
0
 62
7
 10
0.8976000000000002
 20
3.001000000000002
 30
0
 11
0.9030000000000001
 21
2.992000000000003
 31
0
  0
LINE
  8
0
 62
7
 10
0.9030000000000001
 20
2.992000000000003
 30
0
 11
0.9030000000000001
 21
2.980000000000002
 31
0
  0
LINE
  8
0
 62
7
 10
0.9030000000000001
 20
2.980000000000002
 30
0
 11
0.8976000000000002
 21
2.968000000000002
 31
0
  0
LINE
  8
0
 62
7
 10
0.8976000000000002
 20
2.968000000000002
 30
0
 11
0.8382000000000002
 21
2.890000000000002
 31
0
  0
LINE
  8
0
 62
7
 10
0.8382000000000002
 20
2.890000000000002
 30
0
 11
0.9030000000000001
 21
2.890000000000002
 31
0
  0
LINE
  8
0
 62
7
 10
0.9624000000000001
 20
3.010000000000002
 30
0
 11
0.9732
 21
3.010000000000002
 31
0
  0
LINE
  8
0
 62
7
 10
0.9732
 20
3.010000000000002
 30
0
 11
0.9813000000000001
 21
3.007000000000002
 31
0
  0
LINE
  8
0
 62
7
 10
0.9813000000000001
 20
3.007000000000002
 30
0
 11
0.9867000000000001
 21
3.001000000000002
 31
0
  0
LINE
  8
0
 62
7
 10
0.9867000000000001
 20
3.001000000000002
 30
0
 11
0.9921000000000002
 21
2.992000000000003
 31
0
  0
LINE
  8
0
 62
7
 10
0.9921000000000002
 20
2.992000000000003
 30
0
 11
0.9921000000000002
 21
2.980000000000002
 31
0
  0
LINE
  8
0
 62
7
 10
0.9921000000000002
 20
2.980000000000002
 30
0
 11
0.9894000000000001
 21
2.974000000000002
 31
0
  0
LINE
  8
0
 62
7
 10
0.9894000000000001
 20
2.974000000000002
 30
0
 11
0.9813000000000001
 21
2.965000000000003
 31
0
  0
LINE
  8
0
 62
7
 10
0.9813000000000001
 20
2.965000000000003
 30
0
 11
0.9732
 21
2.962000000000002
 31
0
  0
LINE
  8
0
 62
7
 10
0.9732
 20
2.962000000000002
 30
0
 11
0.9624000000000001
 21
2.962000000000002
 31
0
  0
LINE
  8
0
 62
7
 10
0.9624000000000001
 20
2.962000000000002
 30
0
 11
0.9543000000000001
 21
2.965000000000003
 31
0
  0
LINE
  8
0
 62
7
 10
0.9543000000000001
 20
2.965000000000003
 30
0
 11
0.9462000000000002
 21
2.974000000000002
 31
0
  0
LINE
  8
0
 62
7
 10
0.9462000000000002
 20
2.974000000000002
 30
0
 11
0.9435000000000001
 21
2.980000000000002
 31
0
  0
LINE
  8
0
 62
7
 10
0.9435000000000001
 20
2.980000000000002
 30
0
 11
0.9435000000000001
 21
2.992000000000003
 31
0
  0
LINE
  8
0
 62
7
 10
0.9435000000000001
 20
2.992000000000003
 30
0
 11
0.9489000000000001
 21
3.001000000000002
 31
0
  0
LINE
  8
0
 62
7
 10
0.9489000000000001
 20
3.001000000000002
 30
0
 11
0.9543000000000001
 21
3.007000000000002
 31
0
  0
LINE
  8
0
 62
7
 10
0.9543000000000001
 20
3.007000000000002
 30
0
 11
0.9624000000000001
 21
3.010000000000002
 31
0
  0
LINE
  8
0
 62
7
 10
0.9624000000000001
 20
2.962000000000002
 30
0
 11
0.9489000000000001
 21
2.956000000000002
 31
0
  0
LINE
  8
0
 62
7
 10
0.9489000000000001
 20
2.956000000000002
 30
0
 11
0.9408
 21
2.947000000000003
 31
0
  0
LINE
  8
0
 62
7
 10
0.9408
 20
2.947000000000003
 30
0
 11
0.9354000000000001
 21
2.935000000000002
 31
0
  0
LINE
  8
0
 62
7
 10
0.9354000000000001
 20
2.935000000000002
 30
0
 11
0.9354000000000001
 21
2.917000000000002
 31
0
  0
LINE
  8
0
 62
7
 10
0.9354000000000001
 20
2.917000000000002
 30
0
 11
0.9408
 21
2.905000000000002
 31
0
  0
LINE
  8
0
 62
7
 10
0.9408
 20
2.905000000000002
 30
0
 11
0.9489000000000001
 21
2.896000000000002
 31
0
  0
LINE
  8
0
 62
7
 10
0.9489000000000001
 20
2.896000000000002
 30
0
 11
0.9597000000000002
 21
2.890000000000002
 31
0
  0
LINE
  8
0
 62
7
 10
0.9597000000000002
 20
2.890000000000002
 30
0
 11
0.9759000000000001
 21
2.890000000000002
 31
0
  0
LINE
  8
0
 62
7
 10
0.9759000000000001
 20
2.890000000000002
 30
0
 11
0.9867000000000001
 21
2.896000000000002
 31
0
  0
LINE
  8
0
 62
7
 10
0.9867000000000001
 20
2.896000000000002
 30
0
 11
0.9948000000000001
 21
2.905000000000002
 31
0
  0
LINE
  8
0
 62
7
 10
0.9948000000000001
 20
2.905000000000002
 30
0
 11
1.0002
 21
2.917000000000002
 31
0
  0
LINE
  8
0
 62
7
 10
1.0002
 20
2.917000000000002
 30
0
 11
1.0002
 21
2.935000000000002
 31
0
  0
LINE
  8
0
 62
7
 10
1.0002
 20
2.935000000000002
 30
0
 11
0.9948000000000001
 21
2.947000000000003
 31
0
  0
LINE
  8
0
 62
7
 10
0.9948000000000001
 20
2.947000000000003
 30
0
 11
0.9867000000000001
 21
2.956000000000002
 31
0
  0
LINE
  8
0
 62
7
 10
0.9867000000000001
 20
2.956000000000002
 30
0
 11
0.9732
 21
2.962000000000002
 31
0
  0
LINE
  8
0
 62
7
 10
1.0704
 20
3.010000000000002
 30
0
 11
1.0812
 21
3.010000000000002
 31
0
  0
LINE
  8
0
 62
7
 10
1.0812
 20
3.010000000000002
 30
0
 11
1.0893
 21
3.007000000000002
 31
0
  0
LINE
  8
0
 62
7
 10
1.0893
 20
3.007000000000002
 30
0
 11
1.0947
 21
3.001000000000002
 31
0
  0
LINE
  8
0
 62
7
 10
1.0947
 20
3.001000000000002
 30
0
 11
1.1001
 21
2.992000000000003
 31
0
  0
LINE
  8
0
 62
7
 10
1.1001
 20
2.992000000000003
 30
0
 11
1.1001
 21
2.980000000000002
 31
0
  0
LINE
  8
0
 62
7
 10
1.1001
 20
2.980000000000002
 30
0
 11
1.0974
 21
2.974000000000002
 31
0
  0
LINE
  8
0
 62
7
 10
1.0974
 20
2.974000000000002
 30
0
 11
1.0893
 21
2.965000000000003
 31
0
  0
LINE
  8
0
 62
7
 10
1.0893
 20
2.965000000000003
 30
0
 11
1.0812
 21
2.962000000000002
 31
0
  0
LINE
  8
0
 62
7
 10
1.0812
 20
2.962000000000002
 30
0
 11
1.0704
 21
2.962000000000002
 31
0
  0
LINE
  8
0
 62
7
 10
1.0704
 20
2.962000000000002
 30
0
 11
1.0623
 21
2.965000000000003
 31
0
  0
LINE
  8
0
 62
7
 10
1.0623
 20
2.965000000000003
 30
0
 11
1.0542
 21
2.974000000000002
 31
0
  0
LINE
  8
0
 62
7
 10
1.0542
 20
2.974000000000002
 30
0
 11
1.0515
 21
2.980000000000002
 31
0
  0
LINE
  8
0
 62
7
 10
1.0515
 20
2.980000000000002
 30
0
 11
1.0515
 21
2.992000000000003
 31
0
  0
LINE
  8
0
 62
7
 10
1.0515
 20
2.992000000000003
 30
0
 11
1.0569
 21
3.001000000000002
 31
0
  0
LINE
  8
0
 62
7
 10
1.0569
 20
3.001000000000002
 30
0
 11
1.0623
 21
3.007000000000002
 31
0
  0
LINE
  8
0
 62
7
 10
1.0623
 20
3.007000000000002
 30
0
 11
1.0704
 21
3.010000000000002
 31
0
  0
LINE
  8
0
 62
7
 10
1.0704
 20
2.962000000000002
 30
0
 11
1.0569
 21
2.956000000000002
 31
0
  0
LINE
  8
0
 62
7
 10
1.0569
 20
2.956000000000002
 30
0
 11
1.0488
 21
2.947000000000003
 31
0
  0
LINE
  8
0
 62
7
 10
1.0488
 20
2.947000000000003
 30
0
 11
1.0434
 21
2.935000000000002
 31
0
  0
LINE
  8
0
 62
7
 10
1.0434
 20
2.935000000000002
 30
0
 11
1.0434
 21
2.917000000000002
 31
0
  0
LINE
  8
0
 62
7
 10
1.0434
 20
2.917000000000002
 30
0
 11
1.0488
 21
2.905000000000002
 31
0
  0
LINE
  8
0
 62
7
 10
1.0488
 20
2.905000000000002
 30
0
 11
1.0569
 21
2.896000000000002
 31
0
  0
LINE
  8
0
 62
7
 10
1.0569
 20
2.896000000000002
 30
0
 11
1.0677
 21
2.890000000000002
 31
0
  0
LINE
  8
0
 62
7
 10
1.0677
 20
2.890000000000002
 30
0
 11
1.0839
 21
2.890000000000002
 31
0
  0
LINE
  8
0
 62
7
 10
1.0839
 20
2.890000000000002
 30
0
 11
1.0947
 21
2.896000000000002
 31
0
  0
LINE
  8
0
 62
7
 10
1.0947
 20
2.896000000000002
 30
0
 11
1.1028
 21
2.905000000000002
 31
0
  0
LINE
  8
0
 62
7
 10
1.1028
 20
2.905000000000002
 30
0
 11
1.1082
 21
2.917000000000002
 31
0
  0
LINE
  8
0
 62
7
 10
1.1082
 20
2.917000000000002
 30
0
 11
1.1082
 21
2.935000000000002
 31
0
  0
LINE
  8
0
 62
7
 10
1.1082
 20
2.935000000000002
 30
0
 11
1.1028
 21
2.947000000000003
 31
0
  0
LINE
  8
0
 62
7
 10
1.1028
 20
2.947000000000003
 30
0
 11
1.0947
 21
2.956000000000002
 31
0
  0
LINE
  8
0
 62
7
 10
1.0947
 20
2.956000000000002
 30
0
 11
1.0812
 21
2.962000000000002
 31
0
  0
LINE
  8
0
 62
7
 10
1.2162
 20
2.890000000000002
 30
0
 11
1.1514
 21
2.890000000000002
 31
0
  0
LINE
  8
0
 62
7
 10
1.1514
 20
2.890000000000002
 30
0
 11
1.1514
 21
3.010000000000002
 31
0
  0
LINE
  8
0
 62
7
 10
1.2486
 20
2.938000000000002
 30
0
 11
1.2513
 21
2.950000000000003
 31
0
  0
LINE
  8
0
 62
7
 10
1.2513
 20
2.950000000000003
 30
0
 11
1.2567
 21
2.959000000000002
 31
0
  0
LINE
  8
0
 62
7
 10
1.2567
 20
2.959000000000002
 30
0
 11
1.2648
 21
2.965000000000003
 31
0
  0
LINE
  8
0
 62
7
 10
1.2648
 20
2.965000000000003
 30
0
 11
1.2729
 21
2.968000000000002
 31
0
  0
LINE
  8
0
 62
7
 10
1.2729
 20
2.968000000000002
 30
0
 11
1.2891
 21
2.968000000000002
 31
0
  0
LINE
  8
0
 62
7
 10
1.2891
 20
2.968000000000002
 30
0
 11
1.2972
 21
2.965000000000003
 31
0
  0
LINE
  8
0
 62
7
 10
1.2972
 20
2.965000000000003
 30
0
 11
1.3053
 21
2.959000000000002
 31
0
  0
LINE
  8
0
 62
7
 10
1.3053
 20
2.959000000000002
 30
0
 11
1.3107
 21
2.950000000000003
 31
0
  0
LINE
  8
0
 62
7
 10
1.3107
 20
2.950000000000003
 30
0
 11
1.3134
 21
2.938000000000002
 31
0
  0
LINE
  8
0
 62
7
 10
1.3134
 20
2.938000000000002
 30
0
 11
1.3134
 21
2.920000000000003
 31
0
  0
LINE
  8
0
 62
7
 10
1.3134
 20
2.920000000000003
 30
0
 11
1.3107
 21
2.908000000000002
 31
0
  0
LINE
  8
0
 62
7
 10
1.3107
 20
2.908000000000002
 30
0
 11
1.3053
 21
2.899000000000002
 31
0
  0
LINE
  8
0
 62
7
 10
1.3053
 20
2.899000000000002
 30
0
 11
1.2972
 21
2.893000000000002
 31
0
  0
LINE
  8
0
 62
7
 10
1.2972
 20
2.893000000000002
 30
0
 11
1.2891
 21
2.890000000000002
 31
0
  0
LINE
  8
0
 62
7
 10
1.2891
 20
2.890000000000002
 30
0
 11
1.2729
 21
2.890000000000002
 31
0
  0
LINE
  8
0
 62
7
 10
1.2729
 20
2.890000000000002
 30
0
 11
1.2648
 21
2.893000000000002
 31
0
  0
LINE
  8
0
 62
7
 10
1.2648
 20
2.893000000000002
 30
0
 11
1.2567
 21
2.899000000000002
 31
0
  0
LINE
  8
0
 62
7
 10
1.2567
 20
2.899000000000002
 30
0
 11
1.2513
 21
2.908000000000002
 31
0
  0
LINE
  8
0
 62
7
 10
1.2513
 20
2.908000000000002
 30
0
 11
1.2486
 21
2.920000000000003
 31
0
  0
LINE
  8
0
 62
7
 10
1.2486
 20
2.920000000000003
 30
0
 11
1.2486
 21
2.938000000000002
 31
0
  0
LINE
  8
0
 62
7
 10
1.2486
 20
2.980000000000002
 30
0
 11
1.2513
 21
2.992000000000003
 31
0
  0
LINE
  8
0
 62
7
 10
1.2513
 20
2.992000000000003
 30
0
 11
1.2567
 21
3.001000000000002
 31
0
  0
LINE
  8
0
 62
7
 10
1.2567
 20
3.001000000000002
 30
0
 11
1.2648
 21
3.007000000000002
 31
0
  0
LINE
  8
0
 62
7
 10
1.2648
 20
3.007000000000002
 30
0
 11
1.2729
 21
3.010000000000002
 31
0
  0
LINE
  8
0
 62
7
 10
1.2729
 20
3.010000000000002
 30
0
 11
1.2891
 21
3.010000000000002
 31
0
  0
LINE
  8
0
 62
7
 10
1.2891
 20
3.010000000000002
 30
0
 11
1.2972
 21
3.007000000000002
 31
0
  0
LINE
  8
0
 62
7
 10
1.2972
 20
3.007000000000002
 30
0
 11
1.3053
 21
3.001000000000002
 31
0
  0
LINE
  8
0
 62
7
 10
1.3053
 20
3.001000000000002
 30
0
 11
1.3107
 21
2.992000000000003
 31
0
  0
LINE
  8
0
 62
7
 10
1.2486
 20
2.938000000000002
 30
0
 11
1.2486
 21
2.980000000000002
 31
0
  0
LINE
  8
0
 62
7
 10
3.025
 20
2.890000000000002
 30
0
 11
3.025
 21
2.990000000000002
 31
0
  0
LINE
  8
0
 62
7
 10
3.025
 20
2.990000000000002
 30
0
 11
3.088
 21
2.890000000000002
 31
0
  0
LINE
  8
0
 62
7
 10
3.088
 20
2.890000000000002
 30
0
 11
3.088
 21
2.990000000000002
 31
0
  0
LINE
  8
0
 62
7
 10
3.169
 20
2.890000000000002
 30
0
 11
3.115
 21
2.890000000000002
 31
0
  0
LINE
  8
0
 62
7
 10
3.115
 20
2.890000000000002
 30
0
 11
3.115
 21
2.990000000000002
 31
0
  0
LINE
  8
0
 62
7
 10
3.196
 20
2.940000000000003
 30
0
 11
3.232
 21
2.940000000000003
 31
0
  0
LINE
  8
0
 62
7
 10
3.232
 20
2.940000000000003
 30
0
 11
3.2365
 21
2.940000000000003
 31
0
  0
LINE
  8
0
 62
7
 10
3.2365
 20
2.940000000000003
 30
0
 11
3.2455
 21
2.935000000000002
 31
0
  0
LINE
  8
0
 62
7
 10
3.2455
 20
2.935000000000002
 30
0
 11
3.25
 21
2.930000000000002
 31
0
  0
LINE
  8
0
 62
7
 10
3.25
 20
2.930000000000002
 30
0
 11
3.2545
 21
2.920000000000003
 31
0
  0
LINE
  8
0
 62
7
 10
3.2545
 20
2.920000000000003
 30
0
 11
3.2545
 21
2.910000000000002
 31
0
  0
LINE
  8
0
 62
7
 10
3.2545
 20
2.910000000000002
 30
0
 11
3.25
 21
2.900000000000003
 31
0
  0
LINE
  8
0
 62
7
 10
3.25
 20
2.900000000000003
 30
0
 11
3.2455
 21
2.895000000000003
 31
0
  0
LINE
  8
0
 62
7
 10
3.2455
 20
2.895000000000003
 30
0
 11
3.2365
 21
2.890000000000002
 31
0
  0
LINE
  8
0
 62
7
 10
3.2365
 20
2.890000000000002
 30
0
 11
3.196
 21
2.890000000000002
 31
0
  0
LINE
  8
0
 62
7
 10
3.196
 20
2.890000000000002
 30
0
 11
3.196
 21
2.940000000000003
 31
0
  0
LINE
  8
0
 62
7
 10
3.196
 20
2.990000000000002
 30
0
 11
3.22975
 21
2.990000000000002
 31
0
  0
LINE
  8
0
 62
7
 10
3.22975
 20
2.990000000000002
 30
0
 11
3.241000000000001
 21
2.987500000000002
 31
0
  0
LINE
  8
0
 62
7
 10
3.241000000000001
 20
2.987500000000002
 30
0
 11
3.24775
 21
2.980000000000002
 31
0
  0
LINE
  8
0
 62
7
 10
3.24775
 20
2.980000000000002
 30
0
 11
3.25
 21
2.970000000000002
 31
0
  0
LINE
  8
0
 62
7
 10
3.25
 20
2.970000000000002
 30
0
 11
3.25
 21
2.960000000000003
 31
0
  0
LINE
  8
0
 62
7
 10
3.25
 20
2.960000000000003
 30
0
 11
3.2455
 21
2.950000000000003
 31
0
  0
LINE
  8
0
 62
7
 10
3.2455
 20
2.950000000000003
 30
0
 11
3.23875
 21
2.942500000000003
 31
0
  0
LINE
  8
0
 62
7
 10
3.23875
 20
2.942500000000003
 30
0
 11
3.232
 21
2.940000000000003
 31
0
  0
LINE
  8
0
 62
7
 10
3.196
 20
2.940000000000003
 30
0
 11
3.196
 21
2.990000000000002
 31
0
  0
LINE
  8
0
 62
7
 10
3.39625
 20
2.942500000000003
 30
0
 11
3.3895
 21
2.952500000000002
 31
0
  0
LINE
  8
0
 62
7
 10
3.3895
 20
2.952500000000002
 30
0
 11
3.38275
 21
2.957500000000003
 31
0
  0
LINE
  8
0
 62
7
 10
3.38275
 20
2.957500000000003
 30
0
 11
3.376
 21
2.960000000000003
 31
0
  0
LINE
  8
0
 62
7
 10
3.376
 20
2.960000000000003
 30
0
 11
3.367
 21
2.960000000000003
 31
0
  0
LINE
  8
0
 62
7
 10
3.367
 20
2.960000000000003
 30
0
 11
3.36025
 21
2.957500000000003
 31
0
  0
LINE
  8
0
 62
7
 10
3.36025
 20
2.957500000000003
 30
0
 11
3.3535
 21
2.952500000000002
 31
0
  0
LINE
  8
0
 62
7
 10
3.3535
 20
2.952500000000002
 30
0
 11
3.34675
 21
2.942500000000003
 31
0
  0
LINE
  8
0
 62
7
 10
3.34675
 20
2.942500000000003
 30
0
 11
3.3445
 21
2.935000000000002
 31
0
  0
LINE
  8
0
 62
7
 10
3.3445
 20
2.935000000000002
 30
0
 11
3.3445
 21
2.915000000000003
 31
0
  0
LINE
  8
0
 62
7
 10
3.3445
 20
2.915000000000003
 30
0
 11
3.34675
 21
2.907500000000002
 31
0
  0
LINE
  8
0
 62
7
 10
3.34675
 20
2.907500000000002
 30
0
 11
3.3535
 21
2.897500000000003
 31
0
  0
LINE
  8
0
 62
7
 10
3.3535
 20
2.897500000000003
 30
0
 11
3.36025
 21
2.892500000000002
 31
0
  0
LINE
  8
0
 62
7
 10
3.36025
 20
2.892500000000002
 30
0
 11
3.367
 21
2.890000000000002
 31
0
  0
LINE
  8
0
 62
7
 10
3.367
 20
2.890000000000002
 30
0
 11
3.376
 21
2.890000000000002
 31
0
  0
LINE
  8
0
 62
7
 10
3.376
 20
2.890000000000002
 30
0
 11
3.38275
 21
2.892500000000002
 31
0
  0
LINE
  8
0
 62
7
 10
3.38275
 20
2.892500000000002
 30
0
 11
3.3895
 21
2.897500000000003
 31
0
  0
LINE
  8
0
 62
7
 10
3.3895
 20
2.897500000000003
 30
0
 11
3.39625
 21
2.907500000000002
 31
0
  0
LINE
  8
0
 62
7
 10
3.46825
 20
2.935000000000002
 30
0
 11
3.466000000000001
 21
2.942500000000003
 31
0
  0
LINE
  8
0
 62
7
 10
3.466000000000001
 20
2.942500000000003
 30
0
 11
3.45925
 21
2.952500000000002
 31
0
  0
LINE
  8
0
 62
7
 10
3.45925
 20
2.952500000000002
 30
0
 11
3.4525
 21
2.957500000000003
 31
0
  0
LINE
  8
0
 62
7
 10
3.4525
 20
2.957500000000003
 30
0
 11
3.44575
 21
2.960000000000003
 31
0
  0
LINE
  8
0
 62
7
 10
3.44575
 20
2.960000000000003
 30
0
 11
3.43675
 21
2.960000000000003
 31
0
  0
LINE
  8
0
 62
7
 10
3.43675
 20
2.960000000000003
 30
0
 11
3.430000000000001
 21
2.957500000000003
 31
0
  0
LINE
  8
0
 62
7
 10
3.430000000000001
 20
2.957500000000003
 30
0
 11
3.42325
 21
2.952500000000002
 31
0
  0
LINE
  8
0
 62
7
 10
3.42325
 20
2.952500000000002
 30
0
 11
3.4165
 21
2.942500000000003
 31
0
  0
LINE
  8
0
 62
7
 10
3.4165
 20
2.942500000000003
 30
0
 11
3.41425
 21
2.935000000000002
 31
0
  0
LINE
  8
0
 62
7
 10
3.41425
 20
2.935000000000002
 30
0
 11
3.41425
 21
2.915000000000003
 31
0
  0
LINE
  8
0
 62
7
 10
3.41425
 20
2.915000000000003
 30
0
 11
3.4165
 21
2.907500000000002
 31
0
  0
LINE
  8
0
 62
7
 10
3.4165
 20
2.907500000000002
 30
0
 11
3.42325
 21
2.897500000000003
 31
0
  0
LINE
  8
0
 62
7
 10
3.42325
 20
2.897500000000003
 30
0
 11
3.430000000000001
 21
2.892500000000002
 31
0
  0
LINE
  8
0
 62
7
 10
3.430000000000001
 20
2.892500000000002
 30
0
 11
3.43675
 21
2.890000000000002
 31
0
  0
LINE
  8
0
 62
7
 10
3.43675
 20
2.890000000000002
 30
0
 11
3.44575
 21
2.890000000000002
 31
0
  0
LINE
  8
0
 62
7
 10
3.44575
 20
2.890000000000002
 30
0
 11
3.4525
 21
2.892500000000002
 31
0
  0
LINE
  8
0
 62
7
 10
3.4525
 20
2.892500000000002
 30
0
 11
3.45925
 21
2.897500000000003
 31
0
  0
LINE
  8
0
 62
7
 10
3.45925
 20
2.897500000000003
 30
0
 11
3.466000000000001
 21
2.907500000000002
 31
0
  0
LINE
  8
0
 62
7
 10
3.466000000000001
 20
2.907500000000002
 30
0
 11
3.46825
 21
2.915000000000003
 31
0
  0
LINE
  8
0
 62
7
 10
3.46825
 20
2.960000000000003
 30
0
 11
3.46825
 21
2.935000000000002
 31
0
  0
LINE
  8
0
 62
7
 10
3.46825
 20
2.892500000000002
 30
0
 11
3.4705
 21
2.890000000000002
 31
0
  0
LINE
  8
0
 62
7
 10
3.4705
 20
2.890000000000002
 30
0
 11
3.47275
 21
2.890000000000002
 31
0
  0
LINE
  8
0
 62
7
 10
3.46825
 20
2.915000000000003
 30
0
 11
3.46825
 21
2.892500000000002
 31
0
  0
LINE
  8
0
 62
7
 10
3.46825
 20
2.935000000000002
 30
0
 11
3.46825
 21
2.915000000000003
 31
0
  0
LINE
  8
0
 62
7
 10
3.49075
 20
2.890000000000002
 30
0
 11
3.49075
 21
2.892500000000002
 31
0
  0
LINE
  8
0
 62
7
 10
3.49075
 20
2.892500000000002
 30
0
 11
3.493
 21
2.892500000000002
 31
0
  0
LINE
  8
0
 62
7
 10
3.493
 20
2.892500000000002
 30
0
 11
3.493
 21
2.890000000000002
 31
0
  0
LINE
  8
0
 62
7
 10
3.493
 20
2.890000000000002
 30
0
 11
3.49075
 21
2.890000000000002
 31
0
  0
LINE
  8
0
 62
7
 10
3.616750000000001
 20
2.990000000000002
 30
0
 11
3.62575
 21
2.990000000000002
 31
0
  0
LINE
  8
0
 62
7
 10
3.62575
 20
2.990000000000002
 30
0
 11
3.6325
 21
2.987500000000002
 31
0
  0
LINE
  8
0
 62
7
 10
3.6325
 20
2.987500000000002
 30
0
 11
3.637
 21
2.982500000000003
 31
0
  0
LINE
  8
0
 62
7
 10
3.637
 20
2.982500000000003
 30
0
 11
3.6415
 21
2.975000000000003
 31
0
  0
LINE
  8
0
 62
7
 10
3.6415
 20
2.975000000000003
 30
0
 11
3.6415
 21
2.965000000000003
 31
0
  0
LINE
  8
0
 62
7
 10
3.6415
 20
2.965000000000003
 30
0
 11
3.63925
 21
2.960000000000003
 31
0
  0
LINE
  8
0
 62
7
 10
3.63925
 20
2.960000000000003
 30
0
 11
3.6325
 21
2.952500000000002
 31
0
  0
LINE
  8
0
 62
7
 10
3.6325
 20
2.952500000000002
 30
0
 11
3.62575
 21
2.950000000000003
 31
0
  0
LINE
  8
0
 62
7
 10
3.62575
 20
2.950000000000003
 30
0
 11
3.616750000000001
 21
2.950000000000003
 31
0
  0
LINE
  8
0
 62
7
 10
3.616750000000001
 20
2.950000000000003
 30
0
 11
3.61
 21
2.952500000000002
 31
0
  0
LINE
  8
0
 62
7
 10
3.61
 20
2.952500000000002
 30
0
 11
3.60325
 21
2.960000000000003
 31
0
  0
LINE
  8
0
 62
7
 10
3.60325
 20
2.960000000000003
 30
0
 11
3.601
 21
2.965000000000003
 31
0
  0
LINE
  8
0
 62
7
 10
3.601
 20
2.965000000000003
 30
0
 11
3.601
 21
2.975000000000003
 31
0
  0
LINE
  8
0
 62
7
 10
3.601
 20
2.975000000000003
 30
0
 11
3.6055
 21
2.982500000000003
 31
0
  0
LINE
  8
0
 62
7
 10
3.6055
 20
2.982500000000003
 30
0
 11
3.61
 21
2.987500000000002
 31
0
  0
LINE
  8
0
 62
7
 10
3.61
 20
2.987500000000002
 30
0
 11
3.616750000000001
 21
2.990000000000002
 31
0
  0
LINE
  8
0
 62
7
 10
3.616750000000001
 20
2.950000000000003
 30
0
 11
3.6055
 21
2.945000000000003
 31
0
  0
LINE
  8
0
 62
7
 10
3.6055
 20
2.945000000000003
 30
0
 11
3.598750000000001
 21
2.937500000000003
 31
0
  0
LINE
  8
0
 62
7
 10
3.598750000000001
 20
2.937500000000003
 30
0
 11
3.594250000000001
 21
2.927500000000002
 31
0
  0
LINE
  8
0
 62
7
 10
3.594250000000001
 20
2.927500000000002
 30
0
 11
3.594250000000001
 21
2.912500000000003
 31
0
  0
LINE
  8
0
 62
7
 10
3.594250000000001
 20
2.912500000000003
 30
0
 11
3.598750000000001
 21
2.902500000000003
 31
0
  0
LINE
  8
0
 62
7
 10
3.598750000000001
 20
2.902500000000003
 30
0
 11
3.6055
 21
2.895000000000003
 31
0
  0
LINE
  8
0
 62
7
 10
3.6055
 20
2.895000000000003
 30
0
 11
3.6145
 21
2.890000000000002
 31
0
  0
LINE
  8
0
 62
7
 10
3.6145
 20
2.890000000000002
 30
0
 11
3.628
 21
2.890000000000002
 31
0
  0
LINE
  8
0
 62
7
 10
3.628
 20
2.890000000000002
 30
0
 11
3.637
 21
2.895000000000003
 31
0
  0
LINE
  8
0
 62
7
 10
3.637
 20
2.895000000000003
 30
0
 11
3.64375
 21
2.902500000000003
 31
0
  0
LINE
  8
0
 62
7
 10
3.64375
 20
2.902500000000003
 30
0
 11
3.64825
 21
2.912500000000003
 31
0
  0
LINE
  8
0
 62
7
 10
3.64825
 20
2.912500000000003
 30
0
 11
3.64825
 21
2.927500000000002
 31
0
  0
LINE
  8
0
 62
7
 10
3.64825
 20
2.927500000000002
 30
0
 11
3.64375
 21
2.937500000000003
 31
0
  0
LINE
  8
0
 62
7
 10
3.64375
 20
2.937500000000003
 30
0
 11
3.637
 21
2.945000000000003
 31
0
  0
LINE
  8
0
 62
7
 10
3.637
 20
2.945000000000003
 30
0
 11
3.62575
 21
2.950000000000003
 31
0
  0
LINE
  8
0
 62
7
 10
3.73825
 20
2.950000000000003
 30
0
 11
3.736
 21
2.940000000000003
 31
0
  0
LINE
  8
0
 62
7
 10
3.736
 20
2.940000000000003
 30
0
 11
3.7315
 21
2.932500000000003
 31
0
  0
LINE
  8
0
 62
7
 10
3.7315
 20
2.932500000000003
 30
0
 11
3.72475
 21
2.927500000000002
 31
0
  0
LINE
  8
0
 62
7
 10
3.72475
 20
2.927500000000002
 30
0
 11
3.718
 21
2.925000000000002
 31
0
  0
LINE
  8
0
 62
7
 10
3.718
 20
2.925000000000002
 30
0
 11
3.7045
 21
2.925000000000002
 31
0
  0
LINE
  8
0
 62
7
 10
3.7045
 20
2.925000000000002
 30
0
 11
3.69775
 21
2.927500000000002
 31
0
  0
LINE
  8
0
 62
7
 10
3.69775
 20
2.927500000000002
 30
0
 11
3.691000000000001
 21
2.932500000000003
 31
0
  0
LINE
  8
0
 62
7
 10
3.691000000000001
 20
2.932500000000003
 30
0
 11
3.686500000000001
 21
2.940000000000003
 31
0
  0
LINE
  8
0
 62
7
 10
3.686500000000001
 20
2.940000000000003
 30
0
 11
3.68425
 21
2.950000000000003
 31
0
  0
LINE
  8
0
 62
7
 10
3.68425
 20
2.950000000000003
 30
0
 11
3.68425
 21
2.965000000000003
 31
0
  0
LINE
  8
0
 62
7
 10
3.68425
 20
2.965000000000003
 30
0
 11
3.686500000000001
 21
2.975000000000003
 31
0
  0
LINE
  8
0
 62
7
 10
3.686500000000001
 20
2.975000000000003
 30
0
 11
3.691000000000001
 21
2.982500000000003
 31
0
  0
LINE
  8
0
 62
7
 10
3.691000000000001
 20
2.982500000000003
 30
0
 11
3.69775
 21
2.987500000000002
 31
0
  0
LINE
  8
0
 62
7
 10
3.69775
 20
2.987500000000002
 30
0
 11
3.7045
 21
2.990000000000002
 31
0
  0
LINE
  8
0
 62
7
 10
3.7045
 20
2.990000000000002
 30
0
 11
3.718
 21
2.990000000000002
 31
0
  0
LINE
  8
0
 62
7
 10
3.718
 20
2.990000000000002
 30
0
 11
3.72475
 21
2.987500000000002
 31
0
  0
LINE
  8
0
 62
7
 10
3.72475
 20
2.987500000000002
 30
0
 11
3.7315
 21
2.982500000000003
 31
0
  0
LINE
  8
0
 62
7
 10
3.7315
 20
2.982500000000003
 30
0
 11
3.736
 21
2.975000000000003
 31
0
  0
LINE
  8
0
 62
7
 10
3.736
 20
2.975000000000003
 30
0
 11
3.73825
 21
2.965000000000003
 31
0
  0
LINE
  8
0
 62
7
 10
3.73825
 20
2.965000000000003
 30
0
 11
3.73825
 21
2.950000000000003
 31
0
  0
LINE
  8
0
 62
7
 10
3.73825
 20
2.915000000000003
 30
0
 11
3.736
 21
2.905000000000002
 31
0
  0
LINE
  8
0
 62
7
 10
3.736
 20
2.905000000000002
 30
0
 11
3.7315
 21
2.897500000000003
 31
0
  0
LINE
  8
0
 62
7
 10
3.7315
 20
2.897500000000003
 30
0
 11
3.72475
 21
2.892500000000002
 31
0
  0
LINE
  8
0
 62
7
 10
3.72475
 20
2.892500000000002
 30
0
 11
3.718
 21
2.890000000000002
 31
0
  0
LINE
  8
0
 62
7
 10
3.718
 20
2.890000000000002
 30
0
 11
3.7045
 21
2.890000000000002
 31
0
  0
LINE
  8
0
 62
7
 10
3.7045
 20
2.890000000000002
 30
0
 11
3.69775
 21
2.892500000000002
 31
0
  0
LINE
  8
0
 62
7
 10
3.69775
 20
2.892500000000002
 30
0
 11
3.691000000000001
 21
2.897500000000003
 31
0
  0
LINE
  8
0
 62
7
 10
3.691000000000001
 20
2.897500000000003
 30
0
 11
3.686500000000001
 21
2.905000000000002
 31
0
  0
LINE
  8
0
 62
7
 10
3.73825
 20
2.950000000000003
 30
0
 11
3.73825
 21
2.915000000000003
 31
0
  0
LINE
  8
0
 62
7
 10
3.889
 20
2.942500000000003
 30
0
 11
3.88225
 21
2.952500000000002
 31
0
  0
LINE
  8
0
 62
7
 10
3.88225
 20
2.952500000000002
 30
0
 11
3.875500000000001
 21
2.957500000000003
 31
0
  0
LINE
  8
0
 62
7
 10
3.875500000000001
 20
2.957500000000003
 30
0
 11
3.86875
 21
2.960000000000003
 31
0
  0
LINE
  8
0
 62
7
 10
3.86875
 20
2.960000000000003
 30
0
 11
3.85975
 21
2.960000000000003
 31
0
  0
LINE
  8
0
 62
7
 10
3.85975
 20
2.960000000000003
 30
0
 11
3.853
 21
2.957500000000003
 31
0
  0
LINE
  8
0
 62
7
 10
3.853
 20
2.957500000000003
 30
0
 11
3.84625
 21
2.952500000000002
 31
0
  0
LINE
  8
0
 62
7
 10
3.84625
 20
2.952500000000002
 30
0
 11
3.839500000000001
 21
2.942500000000003
 31
0
  0
LINE
  8
0
 62
7
 10
3.839500000000001
 20
2.942500000000003
 30
0
 11
3.83725
 21
2.935000000000002
 31
0
  0
LINE
  8
0
 62
7
 10
3.83725
 20
2.935000000000002
 30
0
 11
3.83725
 21
2.915000000000003
 31
0
  0
LINE
  8
0
 62
7
 10
3.83725
 20
2.915000000000003
 30
0
 11
3.839500000000001
 21
2.907500000000002
 31
0
  0
LINE
  8
0
 62
7
 10
3.839500000000001
 20
2.907500000000002
 30
0
 11
3.84625
 21
2.897500000000003
 31
0
  0
LINE
  8
0
 62
7
 10
3.84625
 20
2.897500000000003
 30
0
 11
3.853
 21
2.892500000000002
 31
0
  0
LINE
  8
0
 62
7
 10
3.853
 20
2.892500000000002
 30
0
 11
3.85975
 21
2.890000000000002
 31
0
  0
LINE
  8
0
 62
7
 10
3.85975
 20
2.890000000000002
 30
0
 11
3.86875
 21
2.890000000000002
 31
0
  0
LINE
  8
0
 62
7
 10
3.86875
 20
2.890000000000002
 30
0
 11
3.875500000000001
 21
2.892500000000002
 31
0
  0
LINE
  8
0
 62
7
 10
3.875500000000001
 20
2.892500000000002
 30
0
 11
3.88225
 21
2.897500000000003
 31
0
  0
LINE
  8
0
 62
7
 10
3.88225
 20
2.897500000000003
 30
0
 11
3.889
 21
2.907500000000002
 31
0
  0
LINE
  8
0
 62
7
 10
3.9475
 20
2.935000000000002
 30
0
 11
3.9475
 21
2.890000000000002
 31
0
  0
LINE
  8
0
 62
7
 10
3.907
 20
2.960000000000003
 30
0
 11
3.907
 21
2.935000000000002
 31
0
  0
LINE
  8
0
 62
7
 10
3.907
 20
2.890000000000002
 30
0
 11
3.907
 21
2.935000000000002
 31
0
  0
LINE
  8
0
 62
7
 10
3.907
 20
2.935000000000002
 30
0
 11
3.90925
 21
2.947500000000002
 31
0
  0
LINE
  8
0
 62
7
 10
3.90925
 20
2.947500000000002
 30
0
 11
3.9115
 21
2.952500000000002
 31
0
  0
LINE
  8
0
 62
7
 10
3.9115
 20
2.952500000000002
 30
0
 11
3.916
 21
2.957500000000003
 31
0
  0
LINE
  8
0
 62
7
 10
3.916
 20
2.957500000000003
 30
0
 11
3.92275
 21
2.960000000000003
 31
0
  0
LINE
  8
0
 62
7
 10
3.92275
 20
2.960000000000003
 30
0
 11
3.931750000000001
 21
2.960000000000003
 31
0
  0
LINE
  8
0
 62
7
 10
3.931750000000001
 20
2.960000000000003
 30
0
 11
3.9385
 21
2.957500000000003
 31
0
  0
LINE
  8
0
 62
7
 10
3.9385
 20
2.957500000000003
 30
0
 11
3.943
 21
2.952500000000002
 31
0
  0
LINE
  8
0
 62
7
 10
3.943
 20
2.952500000000002
 30
0
 11
3.94525
 21
2.947500000000002
 31
0
  0
LINE
  8
0
 62
7
 10
3.94525
 20
2.947500000000002
 30
0
 11
3.9475
 21
2.935000000000002
 31
0
  0
LINE
  8
0
 62
7
 10
3.9475
 20
2.935000000000002
 30
0
 11
3.94975
 21
2.947500000000002
 31
0
  0
LINE
  8
0
 62
7
 10
3.94975
 20
2.947500000000002
 30
0
 11
3.952
 21
2.952500000000002
 31
0
  0
LINE
  8
0
 62
7
 10
3.952
 20
2.952500000000002
 30
0
 11
3.9565
 21
2.957500000000003
 31
0
  0
LINE
  8
0
 62
7
 10
3.9565
 20
2.957500000000003
 30
0
 11
3.96325
 21
2.960000000000003
 31
0
  0
LINE
  8
0
 62
7
 10
3.96325
 20
2.960000000000003
 30
0
 11
3.972250000000001
 21
2.960000000000003
 31
0
  0
LINE
  8
0
 62
7
 10
3.972250000000001
 20
2.960000000000003
 30
0
 11
3.979
 21
2.957500000000003
 31
0
  0
LINE
  8
0
 62
7
 10
3.9835
 20
2.952500000000002
 30
0
 11
3.979
 21
2.957500000000003
 31
0
  0
LINE
  8
0
 62
7
 10
3.979
 20
2.957500000000003
 30
0
 11
3.9835
 21
2.952500000000002
 31
0
  0
LINE
  8
0
 62
7
 10
3.9835
 20
2.952500000000002
 30
0
 11
3.98575
 21
2.947500000000002
 31
0
  0
LINE
  8
0
 62
7
 10
3.98575
 20
2.947500000000002
 30
0
 11
3.988
 21
2.935000000000002
 31
0
  0
LINE
  8
0
 62
7
 10
3.988
 20
2.935000000000002
 30
0
 11
3.988
 21
2.890000000000002
 31
0
  0
ARC
  8
0
 62
7
 10
3.155167336024101
 20
3.925167336024102
 30
0
 40
0.502999999999991
 50
359.9809390684931
 51
90.01906093174264
  0
ARC
  8
0
 62
7
 10
2.2798326639759
 20
3.925167336024092
 30
0
 40
0.5029999999999998
 50
89.98093906899842
 51
180.0190609317429
  0
CIRCLE
  8
0
 62
7
 10
3.65816730818975
 20
3.250000000000002
 30
0
 40
0.06000000000000005
  0
DIMENSION
  8
0
  6
CONTINUOUS
 62
7
  2
*D0
  3
DMST_1
 10
0.765634189096867
 20
4.930000000000001
 30
0
 11
0.765634189096867
 21
4.14587091517139
 31
0
 12
0
 22
0
 32
0
 70
0
 13
1.1
 23
3.35
 33
0
 14
1.1
 24
4.930000000000001
 34
0
 50
90
 53
0
  0
DIMENSION
  8
0
  6
CONTINUOUS
 62
7
  2
*D1
  3
DMST_1
 10
1.275
 20
5.801315473812181
 30
0
 11
2.68301617790234
 21
5.801315473812181
 31
0
 12
0
 22
0
 32
0
 70
0
 13
4.16
 23
5.449999999999999
 33
0
 14
1.275
 24
5.449999999999999
 34
0
 53
0
  0
DIMENSION
  8
0
  6
CONTINUOUS
 62
7
  2
*D2
  3
DMST_1
 10
4.69469564156709
 20
4.930000000000001
 30
0
 11
4.69469564156709
 21
4.09348342913846
 31
0
 12
0
 22
0
 32
0
 70
0
 13
4.335
 23
3.25
 33
0
 14
4.335
 24
4.930000000000001
 34
0
 50
90
 53
0
  0
DIMENSION
  8
0
  6
CONTINUOUS
 62
7
  2
*D3
  3
DMST_2
 10
1.275
 20
11.4801189597825
 30
0
 11
2.69349367510892
 21
11.4801189597825
 31
0
 12
0
 22
0
 32
0
 70
0
 13
4.16
 23
11.2
 33
0
 14
1.275
 24
11.2
 34
0
 53
0
  0
INSERT
  8
0
  2
*D4
 10
0
 20
0
 30
0
  0
ENDSEC
  0
EOF
