  0
SECTION
  2
HEADER
  9
$ACADVER
  1
AC1009
  9
$INSBASE
 10
0
 20
0
  9
$EXTMIN
 10
0.45
 20
2.890000000000002
  9
$EXTMAX
 10
8.241653675552149
 20
11.6030134453245
  9
$LIMMIN
 10
0.45
 20
2.890000000000002
  9
$LIMMAX
 10
8.241653675552149
 20
11.6030134453245
  9
$VIEWCTR
 10
10
 20
10
  9
$VIEWSIZE
 40
10
  9
$SNAPMODE
 70
0
  9
$SNAPUNIT
 10
1
 20
1
  9
$SNAPBASE
 10
0
 20
0
  9
$SNAPANG
 50
0
  9
$SNAPSTYLE
 70
0
  9
$SNAPISOPAIR
 70
0
  9
$GRIDMODE
 70
0
  9
$GRIDUNIT
 10
0
 20
0
  9
$ORTHOMODE
 70
0
  9
$REGENMODE
 70
1
  9
$FILLMODE
 70
1
  9
$QTEXTMODE
 70
0
  9
$DRAGMODE
 70
2
  9
$LTSCALE
 40
1
  9
$OSMODE
 70
0
  9
$ATTMODE
 70
1
  9
$TEXTSIZE
 40
3.5
  9
$TRACEWID
 40
0.5
  9
$TEXTSTYLE
  7
STANDARD
  9
$CLAYER
  8
0
  9
$CELTYPE
  6
BYLAYER
  9
$CECOLOR
 62
256
  9
$DIMSCALE
 40
1
  9
$DIMASZ
 40
0.18
  9
$DIMEXO
 40
0.0625
  9
$DIMDLI
 40
0.38
  9
$DIMRND
 40
0
  9
$DIMDLE
 40
0
  9
$DIMEXE
 40
0.18
  9
$DIMTP
 40
0
  9
$DIMTM
 40
0
  9
$DIMTXT
 40
0.18
  9
$DIMCEN
 40
0.09
  9
$DIMTSZ
 40
0
  9
$DIMTOL
 70
0
  9
$DIMLIM
 70
0
  9
$DIMTIH
 70
1
  9
$DIMTOH
 70
1
  9
$DIMSE1
 70
0
  9
$DIMSE2
 70
0
  9
$DIMTAD
 70
0
  9
$DIMZIN
 70
0
  9
$DIMBLK
  1

  9
$DIMASO
 70
1
  9
$DIMSHO
 70
1
  9
$DIMPOST
  1

  9
$DIMAPOST
  1

  9
$DIMALT
 70
0
  9
$DIMALTD
 70
2
  9
$DIMALTF
 40
25.4
  9
$DIMLFAC
 40
1
  9
$DIMTOFL
 70
0
  9
$DIMTVP
 40
0
  9
$DIMTIX
 70
0
  9
$DIMSOXD
 70
0
  9
$DIMSAH
 70
0
  9
$DIMBLK1
  1

  9
$DIMBLK2
  1

  9
$DIMSTYLE
  2
*UNNAMED
  9
$DIMCLRD
 70
0
  9
$DIMCLRE
 70
0
  9
$DIMCLRT
 70
0
  9
$DIMTFAC
 40
1
  9
$DIMGAP
 40
0.09
  9
$LUNITS
 70
2
  9
$LUPREC
 70
4
  9
$AXISMODE
 70
0
  9
$AXISUNIT
 10
0
 20
0
  9
$SKETCHINC
 40
0.1
  9
$FILLETRAD
 40
2
  9
$AUNITS
 70
0
  9
$AUPREC
 70
0
  9
$MENU
  1
ACAD
  9
$ELEVATION
 40
0
  9
$THICKNESS
 40
0
  9
$VIEWDIR
 10
0
 20
0
 30
1
  9
$LIMCHECK
 70
0
  9
$BLIPMODE
 70
1
  9
$CHAMFERA
 40
0
  9
$CHAMFERB
 40
0
  9
$FASTZOOM
 70
1
  9
$SKPOLY
 70
0
  9
$ANGBASE
 50
0
  9
$ANGDIR
 70
0
  9
$PDMODE
 70
0
  9
$PDSIZE
 40
0
  9
$PLINEWID
 40
0
  9
$COORDS
 70
2
  0
ENDSEC
  0
SECTION
  2
TABLES
  0
TABLE
  2
DIMSTYLE
 70
2
  0
DIMSTYLE
  2
DMST_1
 70
0
  3

  4

  5

  6

  7

 40
1
 41
0.1
 42
0
 43
0.7
 44
0.2
 45
0
 46
0
 47
0
 48
0
140
0.1
141
0
142
0.1
143
25.4
144
1
145
0
146
1
147
0.25
 71
0
 72
0
 73
0
 74
0
 75
0
 76
0
 77
0
 78
9
170
0
171
2
172
0
173
0
174
0
175
0
176
7
177
7
178
7
  0
DIMSTYLE
  2
DMST_2
 70
0
  3

  4

  5

  6

  7

 40
1
 41
0.1
 42
0
 43
0.7
 44
0.2
 45
0
 46
0
 47
0
 48
0
140
0.1
141
0
142
0.1
143
25.4
144
1
145
0
146
1
147
0.2
 71
0
 72
0
 73
0
 74
0
 75
0
 76
0
 77
0
 78
9
170
0
171
2
172
0
173
0
174
0
175
0
176
7
177
7
178
7
  0
ENDTAB
  0
TABLE
  2
LTYPE
 70
9
  0
LTYPE
  2
CONTINUOUS
 70
64
  3
Solid line
 72
65
 73
0
 40
0
  0
LTYPE
  2
BORDER
 70
64
  3
__ __ . __ __ .
 72
65
 73
6
 40
0.401257198139944
 49
0.1146449137542697
 49
-0.05732245687713485
 49
0.1146449137542697
 49
-0.05732245687713485
 49
0
 49
-0.05732245687713485
  0
LTYPE
  2
CENTER
 70
64
  3
____ _ ____ _
 72
65
 73
4
 40
0.4585796550170788
 49
0.2866122843856743
 49
-0.05732245687713485
 49
0.05732245687713485
 49
-0.05732245687713485
  0
LTYPE
  2
DASHDOT
 70
64
  3
__ . __ . __ .
 72
65
 73
4
 40
0.2292898275085394
 49
0.1146449137542697
 49
-0.05732245687713485
 49
0
 49
-0.05732245687713485
  0
LTYPE
  2
DASHED
 70
64
  3
__ __ __ __ __
 72
65
 73
2
 40
0.1719673706314045
 49
0.1146449137542697
 49
-0.05732245687713485
  0
LTYPE
  2
DIVIDE
 70
64
  3
__ . . __ . . 
 72
65
 73
6
 40
0.2866122843856743
 49
0.1146449137542697
 49
-0.05732245687713485
 49
0
 49
-0.05732245687713485
 49
0
 49
-0.05732245687713485
  0
LTYPE
  2
DOT
 70
64
  3
..............
 72
65
 73
4
 40
0.1146449137542697
 49
0
 49
-0.05732245687713485
 49
0
 49
-0.05732245687713485
  0
LTYPE
  2
HIDDEN
 70
64
  3
_ _ _ _ _ _ _
 72
65
 73
2
 40
0.08598368531570227
 49
0.05732245687713485
 49
-0.02866122843856743
  0
LTYPE
  2
PHANTOM
 70
64
  3
_____ _ _ _____ _ _ 
 72
65
 73
6
 40
0.5732245687713485
 49
0.2866122843856743
 49
-0.05732245687713485
 49
0.05732245687713485
 49
-0.05732245687713485
 49
0.05732245687713485
 49
-0.05732245687713485
  0
ENDTAB
  0
TABLE
  2
LAYER
 70
2
  0
LAYER
  2
0
 70
0
 62
7
  6
CONTINUOUS
  0
ENDTAB
  0
TABLE
  2
STYLE
 70
4
  0
STYLE
  2
STANDARD
 70
0
 40
0
 41
1
 50
0
 71
0
 42
3.5
  3
txt
  4

  0
STYLE
  2
SIMPLEX
 70
0
 40
0
 41
1
 50
0
 71
0
 42
3.5
  3
simplex
  4

  0
STYLE
  2
COMPLEX
 70
0
 40
0
 41
1
 50
0
 71
0
 42
3.5
  3
complex
  4

  0
STYLE
  2
ITALIC
 70
0
 40
0
 41
1
 50
0
 71
0
 42
3.5
  3
italic
  4

  0
ENDTAB
  0
TABLE
  2
VIEW
 70
0
  0
ENDTAB
  0
ENDSEC
  0
SECTION
  2
BLOCKS
  0
BLOCK
  8
0
  2
*X0
 70
1
 10
0
 20
0
 30
0
  0
LINE
  8
0
 62
7
  6
DASHED
 10
0.5
 20
8.242819253992694
 30
0
 11
0.5571807460073046
 21
8.299999999999999
 31
0
  0
LINE
  8
0
 62
7
  6
DASHED
 10
0.5693127803632705
 20
8.100000000000001
 30
0
 11
0.7399999999999998
 21
8.270687219636729
 31
0
  0
LINE
  8
0
 62
7
 10
0.5
 20
8.136753236814712
 30
0
 11
0.6632467631852874
 21
8.299999999999999
 31
0
  0
LINE
  8
0
 62
7
 10
0.6753787975412515
 20
8.099999999999998
 30
0
 11
0.7400000000000007
 21
8.164621202458747
 31
0
  0
ENDBLK
  8
0
  0
BLOCK
  8
0
  2
*X1
 70
1
 10
0
 20
0
 30
0
  0
LINE
  8
0
 62
7
  6
DASHED
 10
0.4999999999999991
 20
11.00053570062023
 30
0
 11
0.5494642993797729
 21
11.05
 31
0
  0
LINE
  8
0
 62
7
  6
DASHED
 10
0.5615963337357357
 20
10.85
 30
0
 11
0.7399999999999993
 21
11.02840366626426
 31
0
  0
LINE
  8
0
 62
7
 10
0.5000000000000009
 20
10.89446968344225
 30
0
 11
0.655530316557754
 21
11.05
 31
0
  0
LINE
  8
0
 62
7
 10
0.6676623509137176
 20
10.85
 30
0
 11
0.7400000000000002
 21
10.92233764908628
 31
0
  0
ENDBLK
  8
0
  0
BLOCK
  8
0
  2
*X2
 70
1
 10
0
 20
0
 30
0
  0
LINE
  8
0
 62
7
  6
DASHED
 10
2.32
 20
10.91134739141655
 30
0
 11
2.458652608583451
 21
11.05
 31
0
  0
LINE
  8
0
 62
7
  6
DASHED
 10
2.470784642939413
 20
10.85
 30
0
 11
2.619999999999999
 21
10.99921535706059
 31
0
  0
LINE
  8
0
 62
7
 10
2.319999999999999
 20
11.01741340859453
 30
0
 11
2.352586591405468
 21
11.05
 31
0
  0
LINE
  8
0
 62
7
 10
2.364718625761431
 20
10.85
 30
0
 11
2.564718625761432
 21
11.05
 31
0
  0
LINE
  8
0
 62
7
 10
2.576850660117396
 20
10.85
 30
0
 11
2.619999999999999
 21
10.8931493398826
 31
0
  0
ENDBLK
  8
0
  0
BLOCK
  8
0
  2
*X3
 70
1
 10
0
 20
0
 30
0
  0
LINE
  8
0
 62
7
  6
DASHED
 10
2.32
 20
8.153630944789017
 30
0
 11
2.466369055210983
 21
8.299999999999999
 31
0
  0
LINE
  8
0
 62
7
  6
DASHED
 10
2.478501089566949
 20
8.1
 30
0
 11
2.620000000000001
 21
8.241498910433052
 31
0
  0
LINE
  8
0
 62
7
 10
2.32
 20
8.259696961966998
 30
0
 11
2.360303038033001
 21
8.299999999999999
 31
0
  0
LINE
  8
0
 62
7
 10
2.372435072388966
 20
8.1
 30
0
 11
2.572435072388966
 21
8.299999999999999
 31
0
  0
LINE
  8
0
 62
7
 10
2.584567106744931
 20
8.1
 30
0
 11
2.62
 21
8.135432893255068
 31
0
  0
ENDBLK
  8
0
  0
BLOCK
  8
0
  2
*X4
 70
1
 10
0
 20
0
 30
0
  0
LINE
  8
0
 62
7
 10
0.549464299379772
 20
11.05
 30
0
 11
0.6994642993797706
 21
11.2
 31
0
  0
LINE
  8
0
 62
7
 10
0.5
 20
11.10660171779821
 30
0
 11
0.5933982822017896
 21
11.2
 31
0
  0
LINE
  8
0
 62
7
 10
0.655530316557754
 20
11.05
 30
0
 11
0.7400000000000002
 21
11.13446968344225
 31
0
  0
ENDBLK
  8
0
  0
BLOCK
  8
0
  2
*X5
 70
1
 10
0
 20
0
 30
0
  0
LINE
  8
0
 62
7
 10
0.5000000000000004
 20
10.78840366626426
 30
0
 11
0.5615963337357339
 21
10.85
 31
0
  0
LINE
  8
0
 62
7
 10
0.5000000000000004
 20
10.5762716319083
 30
0
 11
0.7400000000000002
 21
10.8162716319083
 31
0
  0
LINE
  8
0
 62
7
 10
0.5000000000000004
 20
10.36413959755233
 30
0
 11
0.7400000000000002
 21
10.60413959755233
 31
0
  0
LINE
  8
0
 62
7
 10
0.5000000000000004
 20
10.15200756319637
 30
0
 11
0.7400000000000002
 21
10.39200756319637
 31
0
  0
LINE
  8
0
 62
7
 10
0.5000000000000004
 20
9.939875528840407
 30
0
 11
0.7400000000000002
 21
10.17987552884041
 31
0
  0
LINE
  8
0
 62
7
 10
0.5000000000000004
 20
9.727743494484443
 30
0
 11
0.7400000000000002
 21
9.967743494484441
 31
0
  0
LINE
  8
0
 62
7
 10
0.5000000000000004
 20
9.515611460128479
 30
0
 11
0.7400000000000002
 21
9.755611460128478
 31
0
  0
LINE
  8
0
 62
7
 10
0.5000000000000004
 20
9.303479425772515
 30
0
 11
0.7400000000000002
 21
9.543479425772514
 31
0
  0
LINE
  8
0
 62
7
 10
0.5000000000000004
 20
9.091347391416551
 30
0
 11
0.7400000000000002
 21
9.33134739141655
 31
0
  0
LINE
  8
0
 62
7
 10
0.5000000000000004
 20
8.879215357060588
 30
0
 11
0.7400000000000002
 21
9.119215357060586
 31
0
  0
LINE
  8
0
 62
7
 10
0.5000000000000004
 20
8.667083322704624
 30
0
 11
0.7400000000000002
 21
8.907083322704622
 31
0
  0
LINE
  8
0
 62
7
 10
0.5000000000000004
 20
8.45495128834866
 30
0
 11
0.7400000000000002
 21
8.694951288348658
 31
0
  0
LINE
  8
0
 62
7
 10
0.5571807460073046
 20
8.299999999999999
 30
0
 11
0.7400000000000002
 21
8.482819253992695
 31
0
  0
LINE
  8
0
 62
7
 10
0.5
 20
10.68233764908628
 30
0
 11
0.6676623509137176
 21
10.85
 31
0
  0
LINE
  8
0
 62
7
 10
0.5
 20
10.47020561473031
 30
0
 11
0.7399999999999998
 21
10.71020561473031
 31
0
  0
LINE
  8
0
 62
7
 10
0.5
 20
10.25807358037435
 30
0
 11
0.7399999999999998
 21
10.49807358037435
 31
0
  0
LINE
  8
0
 62
7
 10
0.5
 20
10.04594154601839
 30
0
 11
0.7399999999999998
 21
10.28594154601839
 31
0
  0
LINE
  8
0
 62
7
 10
0.5
 20
9.833809511662423
 30
0
 11
0.7399999999999998
 21
10.07380951166242
 31
0
  0
LINE
  8
0
 62
7
 10
0.5
 20
9.621677477306459
 30
0
 11
0.7399999999999998
 21
9.861677477306458
 31
0
  0
LINE
  8
0
 62
7
 10
0.5
 20
9.409545442950495
 30
0
 11
0.7399999999999998
 21
9.649545442950494
 31
0
  0
LINE
  8
0
 62
7
 10
0.5
 20
9.197413408594532
 30
0
 11
0.7399999999999998
 21
9.43741340859453
 31
0
  0
LINE
  8
0
 62
7
 10
0.5
 20
8.985281374238568
 30
0
 11
0.7399999999999998
 21
9.225281374238566
 31
0
  0
LINE
  8
0
 62
7
 10
0.5
 20
8.773149339882604
 30
0
 11
0.7399999999999998
 21
9.013149339882602
 31
0
  0
LINE
  8
0
 62
7
 10
0.5
 20
8.56101730552664
 30
0
 11
0.7399999999999998
 21
8.801017305526639
 31
0
  0
LINE
  8
0
 62
7
 10
0.5
 20
8.348885271170676
 30
0
 11
0.7399999999999998
 21
8.588885271170675
 31
0
  0
LINE
  8
0
 62
7
 10
0.6632467631852879
 20
8.299999999999999
 30
0
 11
0.7399999999999998
 21
8.376753236814711
 31
0
  0
ENDBLK
  8
0
  0
BLOCK
  8
0
  2
*X6
 70
1
 10
0
 20
0
 30
0
  0
LINE
  8
0
 62
7
 10
0.5
 20
8.03068721963673
 30
0
 11
0.5693127803632692
 21
8.1
 31
0
  0
LINE
  8
0
 62
7
 10
0.6314448147192331
 20
7.949999999999999
 30
0
 11
0.7399999999999998
 21
8.058555185280765
 31
0
  0
LINE
  8
0
 62
7
 10
0.5253787975412521
 20
7.949999999999999
 30
0
 11
0.6753787975412515
 21
8.099999999999998
 31
0
  0
LINE
  8
0
 62
7
 10
0.7375108318972163
 20
7.949999999999999
 30
0
 11
0.7399999999999993
 21
7.952489168102783
 31
0
  0
ENDBLK
  8
0
  0
BLOCK
  8
0
  2
*X7
 70
1
 10
0
 20
0
 30
0
  0
LINE
  8
0
 62
7
  6
DASHED
 10
4.215000000000011
 20
10.89715908221288
 30
0
 11
4.367840917787135
 21
11.05
 31
0
  0
LINE
  8
0
 62
7
  6
DASHED
 10
4.379972952143097
 20
10.85
 30
0
 11
4.579972952143099
 21
11.05
 31
0
  0
LINE
  8
0
 62
7
  6
DASHED
 10
4.592104986499061
 20
10.85
 30
0
 11
4.792104986499063
 21
11.05
 31
0
  0
LINE
  8
0
 62
7
  6
DASHED
 10
4.804237020855025
 20
10.85
 30
0
 11
5.004237020855027
 21
11.05
 31
0
  0
LINE
  8
0
 62
7
  6
DASHED
 10
5.016369055210989
 20
10.85
 30
0
 11
5.216369055210991
 21
11.05
 31
0
  0
LINE
  8
0
 62
7
  6
DASHED
 10
5.228501089566953
 20
10.85
 30
0
 11
5.428501089566955
 21
11.05
 31
0
  0
LINE
  8
0
 62
7
  6
DASHED
 10
5.440633123922916
 20
10.85
 30
0
 11
5.640633123922918
 21
11.05
 31
0
  0
LINE
  8
0
 62
7
  6
DASHED
 10
5.65276515827888
 20
10.85
 30
0
 11
5.852765158278882
 21
11.05
 31
0
  0
LINE
  8
0
 62
7
  6
DASHED
 10
5.864897192634844
 20
10.85
 30
0
 11
6.064897192634846
 21
11.05
 31
0
  0
LINE
  8
0
 62
7
  6
DASHED
 10
6.077029226990808
 20
10.85
 30
0
 11
6.27702922699081
 21
11.05
 31
0
  0
LINE
  8
0
 62
7
  6
DASHED
 10
6.289161261346772
 20
10.85
 30
0
 11
6.489161261346774
 21
11.05
 31
0
  0
LINE
  8
0
 62
7
  6
DASHED
 10
6.501293295702736
 20
10.85
 30
0
 11
6.701293295702738
 21
11.05
 31
0
  0
LINE
  8
0
 62
7
  6
DASHED
 10
6.713425330058699
 20
10.85
 30
0
 11
6.913425330058701
 21
11.05
 31
0
  0
LINE
  8
0
 62
7
  6
DASHED
 10
6.925557364414663
 20
10.85
 30
0
 11
7.125557364414665
 21
11.05
 31
0
  0
LINE
  8
0
 62
7
  6
DASHED
 10
7.137689398770627
 20
10.85
 30
0
 11
7.337689398770629
 21
11.05
 31
0
  0
LINE
  8
0
 62
7
  6
DASHED
 10
7.349821433126591
 20
10.85
 30
0
 11
7.549821433126593
 21
11.05
 31
0
  0
LINE
  8
0
 62
7
  6
DASHED
 10
7.561953467482555
 20
10.85
 30
0
 11
7.750000000000012
 21
11.03804653251746
 31
0
  0
LINE
  8
0
 62
7
 10
4.21500000000001
 20
11.00322509939086
 30
0
 11
4.261774900609151
 21
11.05
 31
0
  0
LINE
  8
0
 62
7
 10
4.273906934965116
 20
10.85
 30
0
 11
4.473906934965115
 21
11.05
 31
0
  0
LINE
  8
0
 62
7
 10
4.48603896932108
 20
10.85
 30
0
 11
4.686038969321078
 21
11.05
 31
0
  0
LINE
  8
0
 62
7
 10
4.698171003677044
 20
10.85
 30
0
 11
4.898171003677042
 21
11.05
 31
0
  0
LINE
  8
0
 62
7
 10
4.910303038033008
 20
10.85
 30
0
 11
5.110303038033006
 21
11.05
 31
0
  0
LINE
  8
0
 62
7
 10
5.122435072388972
 20
10.85
 30
0
 11
5.32243507238897
 21
11.05
 31
0
  0
LINE
  8
0
 62
7
 10
5.334567106744935
 20
10.85
 30
0
 11
5.534567106744934
 21
11.05
 31
0
  0
LINE
  8
0
 62
7
 10
5.546699141100899
 20
10.85
 30
0
 11
5.746699141100898
 21
11.05
 31
0
  0
LINE
  8
0
 62
7
 10
5.758831175456863
 20
10.85
 30
0
 11
5.958831175456861
 21
11.05
 31
0
  0
LINE
  8
0
 62
7
 10
5.970963209812827
 20
10.85
 30
0
 11
6.170963209812825
 21
11.05
 31
0
  0
LINE
  8
0
 62
7
 10
6.183095244168791
 20
10.85
 30
0
 11
6.383095244168789
 21
11.05
 31
0
  0
LINE
  8
0
 62
7
 10
6.395227278524755
 20
10.85
 30
0
 11
6.595227278524753
 21
11.05
 31
0
  0
LINE
  8
0
 62
7
 10
6.607359312880718
 20
10.85
 30
0
 11
6.807359312880717
 21
11.05
 31
0
  0
LINE
  8
0
 62
7
 10
6.819491347236682
 20
10.85
 30
0
 11
7.019491347236681
 21
11.05
 31
0
  0
LINE
  8
0
 62
7
 10
7.031623381592646
 20
10.85
 30
0
 11
7.231623381592645
 21
11.05
 31
0
  0
LINE
  8
0
 62
7
 10
7.24375541594861
 20
10.85
 30
0
 11
7.443755415948608
 21
11.05
 31
0
  0
LINE
  8
0
 62
7
 10
7.455887450304574
 20
10.85
 30
0
 11
7.655887450304572
 21
11.05
 31
0
  0
LINE
  8
0
 62
7
 10
7.668019484660538
 20
10.85
 30
0
 11
7.750000000000012
 21
10.93198051533948
 31
0
  0
ENDBLK
  8
0
  0
BLOCK
  8
0
  2
*X8
 70
1
 10
0
 20
0
 30
0
  0
LINE
  8
0
 62
7
  6
DASHED
 10
4.215000000000011
 20
8.139442635585349
 30
0
 11
4.375557364414666
 21
8.299999999999997
 31
0
  0
LINE
  8
0
 62
7
  6
DASHED
 10
4.387689398770631
 20
8.099999999999998
 30
0
 11
4.58768939877063
 21
8.299999999999997
 31
0
  0
LINE
  8
0
 62
7
  6
DASHED
 10
4.599821433126595
 20
8.099999999999998
 30
0
 11
4.799821433126594
 21
8.299999999999997
 31
0
  0
LINE
  8
0
 62
7
  6
DASHED
 10
4.811953467482558
 20
8.099999999999998
 30
0
 11
5.011953467482558
 21
8.299999999999997
 31
0
  0
LINE
  8
0
 62
7
  6
DASHED
 10
5.024085501838522
 20
8.099999999999998
 30
0
 11
5.224085501838521
 21
8.299999999999997
 31
0
  0
LINE
  8
0
 62
7
  6
DASHED
 10
5.236217536194486
 20
8.099999999999998
 30
0
 11
5.436217536194485
 21
8.299999999999997
 31
0
  0
LINE
  8
0
 62
7
  6
DASHED
 10
5.44834957055045
 20
8.099999999999998
 30
0
 11
5.648349570550449
 21
8.299999999999997
 31
0
  0
LINE
  8
0
 62
7
  6
DASHED
 10
5.660481604906414
 20
8.099999999999998
 30
0
 11
5.860481604906413
 21
8.299999999999997
 31
0
  0
LINE
  8
0
 62
7
  6
DASHED
 10
5.872613639262378
 20
8.099999999999998
 30
0
 11
6.072613639262377
 21
8.299999999999997
 31
0
  0
LINE
  8
0
 62
7
  6
DASHED
 10
6.084745673618341
 20
8.099999999999998
 30
0
 11
6.284745673618341
 21
8.299999999999997
 31
0
  0
LINE
  8
0
 62
7
  6
DASHED
 10
6.296877707974305
 20
8.099999999999998
 30
0
 11
6.496877707974305
 21
8.299999999999997
 31
0
  0
LINE
  8
0
 62
7
  6
DASHED
 10
6.509009742330269
 20
8.099999999999998
 30
0
 11
6.709009742330268
 21
8.299999999999997
 31
0
  0
LINE
  8
0
 62
7
  6
DASHED
 10
6.721141776686233
 20
8.099999999999998
 30
0
 11
6.921141776686232
 21
8.299999999999997
 31
0
  0
LINE
  8
0
 62
7
  6
DASHED
 10
6.933273811042197
 20
8.099999999999998
 30
0
 11
7.133273811042196
 21
8.299999999999997
 31
0
  0
LINE
  8
0
 62
7
  6
DASHED
 10
7.145405845398161
 20
8.099999999999998
 30
0
 11
7.34540584539816
 21
8.299999999999997
 31
0
  0
LINE
  8
0
 62
7
  6
DASHED
 10
7.357537879754124
 20
8.099999999999998
 30
0
 11
7.557537879754124
 21
8.299999999999997
 31
0
  0
LINE
  8
0
 62
7
  6
DASHED
 10
7.569669914110088
 20
8.099999999999998
 30
0
 11
7.750000000000012
 21
8.280330085889922
 31
0
  0
LINE
  8
0
 62
7
 10
4.215000000000011
 20
8.245508652763331
 30
0
 11
4.269491347236685
 21
8.299999999999999
 31
0
  0
LINE
  8
0
 62
7
 10
4.281623381592651
 20
8.1
 30
0
 11
4.481623381592649
 21
8.299999999999999
 31
0
  0
LINE
  8
0
 62
7
 10
4.493755415948614
 20
8.1
 30
0
 11
4.693755415948613
 21
8.299999999999999
 31
0
  0
LINE
  8
0
 62
7
 10
4.705887450304578
 20
8.1
 30
0
 11
4.905887450304577
 21
8.299999999999999
 31
0
  0
LINE
  8
0
 62
7
 10
4.918019484660542
 20
8.1
 30
0
 11
5.11801948466054
 21
8.299999999999999
 31
0
  0
LINE
  8
0
 62
7
 10
5.130151519016506
 20
8.1
 30
0
 11
5.330151519016504
 21
8.299999999999999
 31
0
  0
LINE
  8
0
 62
7
 10
5.34228355337247
 20
8.1
 30
0
 11
5.542283553372468
 21
8.299999999999999
 31
0
  0
LINE
  8
0
 62
7
 10
5.554415587728434
 20
8.1
 30
0
 11
5.754415587728432
 21
8.299999999999999
 31
0
  0
LINE
  8
0
 62
7
 10
5.766547622084397
 20
8.1
 30
0
 11
5.966547622084396
 21
8.299999999999999
 31
0
  0
LINE
  8
0
 62
7
 10
5.978679656440361
 20
8.1
 30
0
 11
6.17867965644036
 21
8.299999999999999
 31
0
  0
LINE
  8
0
 62
7
 10
6.190811690796325
 20
8.1
 30
0
 11
6.390811690796323
 21
8.299999999999999
 31
0
  0
LINE
  8
0
 62
7
 10
6.402943725152289
 20
8.1
 30
0
 11
6.602943725152287
 21
8.299999999999999
 31
0
  0
LINE
  8
0
 62
7
 10
6.615075759508253
 20
8.1
 30
0
 11
6.815075759508251
 21
8.299999999999999
 31
0
  0
LINE
  8
0
 62
7
 10
6.827207793864217
 20
8.1
 30
0
 11
7.027207793864215
 21
8.299999999999999
 31
0
  0
LINE
  8
0
 62
7
 10
7.03933982822018
 20
8.1
 30
0
 11
7.239339828220179
 21
8.299999999999999
 31
0
  0
LINE
  8
0
 62
7
 10
7.251471862576144
 20
8.1
 30
0
 11
7.451471862576143
 21
8.299999999999999
 31
0
  0
LINE
  8
0
 62
7
 10
7.463603896932108
 20
8.1
 30
0
 11
7.663603896932107
 21
8.299999999999999
 31
0
  0
LINE
  8
0
 62
7
 10
7.675735931288072
 20
8.1
 30
0
 11
7.750000000000012
 21
8.17426406871194
 31
0
  0
ENDBLK
  8
0
  0
BLOCK
  8
0
  2
*X9
 70
1
 10
0
 20
0
 30
0
  0
LINE
  8
0
 62
7
 10
4.367840917787128
 20
11.05
 30
0
 11
4.517840917787128
 21
11.2
 31
0
  0
LINE
  8
0
 62
7
 10
4.365000000000012
 20
11.15322509939087
 30
0
 11
4.411774900609145
 21
11.2
 31
0
  0
LINE
  8
0
 62
7
 10
4.473906934965109
 20
11.05
 30
0
 11
4.540000000000012
 21
11.1160930650349
 31
0
  0
ENDBLK
  8
0
  0
BLOCK
  8
0
  2
*X10
 70
1
 10
0
 20
0
 30
0
  0
LINE
  8
0
 62
7
 10
4.365000000000011
 20
10.83502704785692
 30
0
 11
4.379972952143091
 21
10.85
 31
0
  0
LINE
  8
0
 62
7
 10
4.365000000000011
 20
10.62289501350095
 30
0
 11
4.540000000000012
 21
10.79789501350095
 31
0
  0
LINE
  8
0
 62
7
 10
4.365000000000011
 20
10.41076297914499
 30
0
 11
4.540000000000012
 21
10.58576297914499
 31
0
  0
LINE
  8
0
 62
7
 10
4.365000000000011
 20
10.19863094478902
 30
0
 11
4.540000000000012
 21
10.37363094478902
 31
0
  0
LINE
  8
0
 62
7
 10
4.365000000000011
 20
9.98649891043306
 30
0
 11
4.540000000000012
 21
10.16149891043306
 31
0
  0
LINE
  8
0
 62
7
 10
4.365000000000011
 20
9.774366876077096
 30
0
 11
4.540000000000012
 21
9.949366876077095
 31
0
  0
LINE
  8
0
 62
7
 10
4.365000000000011
 20
9.562234841721132
 30
0
 11
4.540000000000012
 21
9.737234841721131
 31
0
  0
LINE
  8
0
 62
7
 10
4.365000000000011
 20
9.350102807365168
 30
0
 11
4.540000000000012
 21
9.525102807365167
 31
0
  0
LINE
  8
0
 62
7
 10
4.365000000000011
 20
9.137970773009204
 30
0
 11
4.540000000000012
 21
9.312970773009203
 31
0
  0
LINE
  8
0
 62
7
 10
4.365000000000011
 20
8.925838738653241
 30
0
 11
4.540000000000012
 21
9.100838738653239
 31
0
  0
LINE
  8
0
 62
7
 10
4.365000000000011
 20
8.713706704297277
 30
0
 11
4.540000000000012
 21
8.888706704297276
 31
0
  0
LINE
  8
0
 62
7
 10
4.365000000000011
 20
8.501574669941313
 30
0
 11
4.540000000000012
 21
8.676574669941312
 31
0
  0
LINE
  8
0
 62
7
 10
4.375557364414661
 20
8.299999999999997
 30
0
 11
4.540000000000012
 21
8.464442635585348
 31
0
  0
LINE
  8
0
 62
7
 10
4.365000000000013
 20
10.72896103067893
 30
0
 11
4.486038969321073
 21
10.85
 31
0
  0
LINE
  8
0
 62
7
 10
4.365000000000013
 20
10.51682899632297
 30
0
 11
4.540000000000012
 21
10.69182899632297
 31
0
  0
LINE
  8
0
 62
7
 10
4.365000000000013
 20
10.30469696196701
 30
0
 11
4.540000000000012
 21
10.47969696196701
 31
0
  0
LINE
  8
0
 62
7
 10
4.365000000000013
 20
10.09256492761104
 30
0
 11
4.540000000000012
 21
10.26756492761104
 31
0
  0
LINE
  8
0
 62
7
 10
4.365000000000013
 20
9.88043289325508
 30
0
 11
4.540000000000012
 21
10.05543289325508
 31
0
  0
LINE
  8
0
 62
7
 10
4.365000000000013
 20
9.668300858899116
 30
0
 11
4.540000000000012
 21
9.843300858899115
 31
0
  0
LINE
  8
0
 62
7
 10
4.365000000000013
 20
9.456168824543152
 30
0
 11
4.540000000000012
 21
9.631168824543151
 31
0
  0
LINE
  8
0
 62
7
 10
4.365000000000013
 20
9.244036790187188
 30
0
 11
4.540000000000012
 21
9.419036790187187
 31
0
  0
LINE
  8
0
 62
7
 10
4.365000000000013
 20
9.031904755831224
 30
0
 11
4.540000000000012
 21
9.206904755831223
 31
0
  0
LINE
  8
0
 62
7
 10
4.365000000000013
 20
8.81977272147526
 30
0
 11
4.540000000000012
 21
8.994772721475259
 31
0
  0
LINE
  8
0
 62
7
 10
4.365000000000013
 20
8.607640687119297
 30
0
 11
4.540000000000012
 21
8.782640687119295
 31
0
  0
LINE
  8
0
 62
7
 10
4.365000000000013
 20
8.395508652763333
 30
0
 11
4.540000000000012
 21
8.570508652763332
 31
0
  0
LINE
  8
0
 62
7
 10
4.481623381592644
 20
8.299999999999999
 30
0
 11
4.540000000000012
 21
8.358376618407368
 31
0
  0
ENDBLK
  8
0
  0
BLOCK
  8
0
  2
*X11
 70
1
 10
0
 20
0
 30
0
  0
LINE
  8
0
 62
7
 10
4.365000000000011
 20
8.077310601229385
 30
0
 11
4.387689398770626
 21
8.1
 31
0
  0
LINE
  8
0
 62
7
 10
4.44982143312659
 20
7.949999999999999
 30
0
 11
4.540000000000012
 21
8.040178566873422
 31
0
  0
LINE
  8
0
 62
7
 10
4.365000000000012
 20
7.971244584051403
 30
0
 11
4.493755415948608
 21
8.1
 31
0
  0
ENDBLK
  8
0
  0
BLOCK
  8
0
  2
*X12
 70
1
 10
0
 20
0
 30
0
  0
LINE
  8
0
 62
7
 10
7.425000000000012
 20
11.13731060122939
 30
0
 11
7.487689398770626
 21
11.2
 31
0
  0
LINE
  8
0
 62
7
 10
7.549821433126593
 20
11.05
 30
0
 11
7.600000000000011
 21
11.10017856687342
 31
0
  0
LINE
  8
0
 62
7
 10
7.44375541594861
 20
11.05
 30
0
 11
7.593755415948609
 21
11.2
 31
0
  0
ENDBLK
  8
0
  0
BLOCK
  8
0
  2
*X13
 70
1
 10
0
 20
0
 30
0
  0
LINE
  8
0
 62
7
 10
7.425000000000011
 20
10.71304653251745
 30
0
 11
7.561953467482555
 21
10.85
 31
0
  0
LINE
  8
0
 62
7
 10
7.425000000000011
 20
10.50091449816149
 30
0
 11
7.600000000000012
 21
10.67591449816149
 31
0
  0
LINE
  8
0
 62
7
 10
7.425000000000011
 20
10.28878246380552
 30
0
 11
7.600000000000012
 21
10.46378246380552
 31
0
  0
LINE
  8
0
 62
7
 10
7.425000000000011
 20
10.07665042944956
 30
0
 11
7.600000000000012
 21
10.25165042944956
 31
0
  0
LINE
  8
0
 62
7
 10
7.425000000000011
 20
9.864518395093597
 30
0
 11
7.600000000000012
 21
10.0395183950936
 31
0
  0
LINE
  8
0
 62
7
 10
7.425000000000011
 20
9.652386360737633
 30
0
 11
7.600000000000012
 21
9.827386360737632
 31
0
  0
LINE
  8
0
 62
7
 10
7.425000000000011
 20
9.44025432638167
 30
0
 11
7.600000000000012
 21
9.615254326381669
 31
0
  0
LINE
  8
0
 62
7
 10
7.425000000000011
 20
9.228122292025706
 30
0
 11
7.600000000000012
 21
9.403122292025705
 31
0
  0
LINE
  8
0
 62
7
 10
7.425000000000011
 20
9.015990257669742
 30
0
 11
7.600000000000012
 21
9.190990257669741
 31
0
  0
LINE
  8
0
 62
7
 10
7.425000000000011
 20
8.803858223313778
 30
0
 11
7.600000000000012
 21
8.978858223313777
 31
0
  0
LINE
  8
0
 62
7
 10
7.425000000000011
 20
8.591726188957814
 30
0
 11
7.600000000000012
 21
8.766726188957813
 31
0
  0
LINE
  8
0
 62
7
 10
7.425000000000011
 20
8.37959415460185
 30
0
 11
7.600000000000012
 21
8.554594154601849
 31
0
  0
LINE
  8
0
 62
7
 10
7.557537879754125
 20
8.299999999999999
 30
0
 11
7.600000000000012
 21
8.342462120245886
 31
0
  0
LINE
  8
0
 62
7
 10
7.425000000000011
 20
10.81911254969543
 30
0
 11
7.455887450304573
 21
10.85
 31
0
  0
LINE
  8
0
 62
7
 10
7.425000000000011
 20
10.60698051533947
 30
0
 11
7.600000000000011
 21
10.78198051533947
 31
0
  0
LINE
  8
0
 62
7
 10
7.425000000000011
 20
10.39484848098351
 30
0
 11
7.600000000000011
 21
10.5698484809835
 31
0
  0
LINE
  8
0
 62
7
 10
7.425000000000011
 20
10.18271644662754
 30
0
 11
7.600000000000011
 21
10.35771644662754
 31
0
  0
LINE
  8
0
 62
7
 10
7.425000000000011
 20
9.970584412271577
 30
0
 11
7.600000000000011
 21
10.14558441227158
 31
0
  0
LINE
  8
0
 62
7
 10
7.425000000000011
 20
9.758452377915614
 30
0
 11
7.600000000000011
 21
9.933452377915613
 31
0
  0
LINE
  8
0
 62
7
 10
7.425000000000011
 20
9.54632034355965
 30
0
 11
7.600000000000011
 21
9.721320343559649
 31
0
  0
LINE
  8
0
 62
7
 10
7.425000000000011
 20
9.334188309203686
 30
0
 11
7.600000000000011
 21
9.509188309203685
 31
0
  0
LINE
  8
0
 62
7
 10
7.425000000000011
 20
9.122056274847722
 30
0
 11
7.600000000000011
 21
9.297056274847721
 31
0
  0
LINE
  8
0
 62
7
 10
7.425000000000011
 20
8.909924240491758
 30
0
 11
7.600000000000011
 21
9.084924240491757
 31
0
  0
LINE
  8
0
 62
7
 10
7.425000000000011
 20
8.697792206135794
 30
0
 11
7.600000000000011
 21
8.872792206135793
 31
0
  0
LINE
  8
0
 62
7
 10
7.425000000000011
 20
8.485660171779831
 30
0
 11
7.600000000000011
 21
8.660660171779829
 31
0
  0
LINE
  8
0
 62
7
 10
7.451471862576144
 20
8.299999999999999
 30
0
 11
7.600000000000011
 21
8.448528137423866
 31
0
  0
ENDBLK
  8
0
  0
BLOCK
  8
0
  2
*X14
 70
1
 10
0
 20
0
 30
0
  0
LINE
  8
0
 62
7
 10
7.425000000000013
 20
7.955330085889922
 30
0
 11
7.56966991411009
 21
8.1
 31
0
  0
LINE
  8
0
 62
7
 10
7.425000000000011
 20
8.061396103067903
 30
0
 11
7.463603896932107
 21
8.099999999999998
 31
0
  0
LINE
  8
0
 62
7
 10
7.525735931288073
 20
7.95
 30
0
 11
7.600000000000013
 21
8.02426406871194
 31
0
  0
ENDBLK
  8
0
  0
BLOCK
  8
0
  2
*X15
 70
1
 10
0
 20
0
 30
0
  0
LINE
  8
0
 62
7
 10
4.365000000000013
 20
5.531726188957816
 30
0
 11
4.433273811042196
 21
5.599999999999998
 31
0
  0
LINE
  8
0
 62
7
 10
4.215000000000011
 20
5.381726188957813
 30
0
 11
4.283273811042197
 21
5.449999999999999
 31
0
  0
LINE
  8
0
 62
7
 10
4.255405845398169
 20
5.210000000000001
 30
0
 11
4.540000000000012
 21
5.494594154601851
 31
0
  0
LINE
  8
0
 62
7
 10
4.467537879754133
 20
5.210000000000001
 30
0
 11
4.70753787975413
 21
5.449999999999999
 31
0
  0
LINE
  8
0
 62
7
 10
4.679669914110097
 20
5.210000000000001
 30
0
 11
4.919669914110094
 21
5.449999999999999
 31
0
  0
LINE
  8
0
 62
7
 10
4.89180194846606
 20
5.210000000000001
 30
0
 11
5.131801948466058
 21
5.449999999999999
 31
0
  0
LINE
  8
0
 62
7
 10
5.103933982822024
 20
5.210000000000001
 30
0
 11
5.343933982822022
 21
5.449999999999999
 31
0
  0
LINE
  8
0
 62
7
 10
5.316066017177988
 20
5.210000000000001
 30
0
 11
5.556066017177986
 21
5.449999999999999
 31
0
  0
LINE
  8
0
 62
7
 10
5.528198051533952
 20
5.210000000000001
 30
0
 11
5.768198051533949
 21
5.449999999999999
 31
0
  0
LINE
  8
0
 62
7
 10
5.740330085889916
 20
5.210000000000001
 30
0
 11
5.980330085889913
 21
5.449999999999999
 31
0
  0
LINE
  8
0
 62
7
 10
5.95246212024588
 20
5.210000000000001
 30
0
 11
6.192462120245877
 21
5.449999999999999
 31
0
  0
LINE
  8
0
 62
7
 10
6.164594154601843
 20
5.210000000000001
 30
0
 11
6.404594154601841
 21
5.449999999999999
 31
0
  0
LINE
  8
0
 62
7
 10
6.376726188957807
 20
5.210000000000001
 30
0
 11
6.616726188957805
 21
5.449999999999999
 31
0
  0
LINE
  8
0
 62
7
 10
6.588858223313771
 20
5.210000000000001
 30
0
 11
6.828858223313769
 21
5.449999999999999
 31
0
  0
LINE
  8
0
 62
7
 10
6.800990257669735
 20
5.210000000000001
 30
0
 11
7.040990257669733
 21
5.449999999999999
 31
0
  0
LINE
  8
0
 62
7
 10
7.013122292025699
 20
5.210000000000001
 30
0
 11
7.253122292025696
 21
5.449999999999999
 31
0
  0
LINE
  8
0
 62
7
 10
7.225254326381663
 20
5.210000000000001
 30
0
 11
7.600000000000012
 21
5.584745673618351
 31
0
  0
LINE
  8
0
 62
7
 10
7.437386360737626
 20
5.210000000000001
 30
0
 11
7.677386360737623
 21
5.449999999999998
 31
0
  0
LINE
  8
0
 62
7
 10
7.64951839509359
 20
5.210000000000001
 30
0
 11
7.765000000000011
 21
5.325481604906422
 31
0
  0
LINE
  8
0
 62
7
 10
4.215000000000011
 20
5.275660171779831
 30
0
 11
4.539339828220179
 21
5.599999999999999
 31
0
  0
LINE
  8
0
 62
7
 10
4.361471862576153
 20
5.210000000000002
 30
0
 11
4.601471862576149
 21
5.45
 31
0
  0
LINE
  8
0
 62
7
 10
4.573603896932116
 20
5.210000000000002
 30
0
 11
4.813603896932113
 21
5.45
 31
0
  0
LINE
  8
0
 62
7
 10
4.78573593128808
 20
5.210000000000002
 30
0
 11
5.025735931288077
 21
5.45
 31
0
  0
LINE
  8
0
 62
7
 10
4.997867965644044
 20
5.210000000000002
 30
0
 11
5.237867965644041
 21
5.45
 31
0
  0
LINE
  8
0
 62
7
 10
5.210000000000008
 20
5.210000000000002
 30
0
 11
5.450000000000005
 21
5.45
 31
0
  0
LINE
  8
0
 62
7
 10
5.422132034355972
 20
5.210000000000002
 30
0
 11
5.662132034355968
 21
5.45
 31
0
  0
LINE
  8
0
 62
7
 10
5.634264068711936
 20
5.210000000000002
 30
0
 11
5.874264068711932
 21
5.45
 31
0
  0
LINE
  8
0
 62
7
 10
5.846396103067899
 20
5.210000000000002
 30
0
 11
6.086396103067896
 21
5.45
 31
0
  0
LINE
  8
0
 62
7
 10
6.058528137423863
 20
5.210000000000002
 30
0
 11
6.29852813742386
 21
5.45
 31
0
  0
LINE
  8
0
 62
7
 10
6.270660171779827
 20
5.210000000000002
 30
0
 11
6.510660171779824
 21
5.45
 31
0
  0
LINE
  8
0
 62
7
 10
6.482792206135791
 20
5.210000000000002
 30
0
 11
6.722792206135788
 21
5.45
 31
0
  0
LINE
  8
0
 62
7
 10
6.694924240491755
 20
5.210000000000002
 30
0
 11
6.934924240491751
 21
5.45
 31
0
  0
LINE
  8
0
 62
7
 10
6.907056274847719
 20
5.210000000000002
 30
0
 11
7.147056274847715
 21
5.45
 31
0
  0
LINE
  8
0
 62
7
 10
7.425000000000011
 20
5.515811690796332
 30
0
 11
7.509188309203679
 21
5.6
 31
0
  0
LINE
  8
0
 62
7
 10
7.119188309203683
 20
5.210000000000002
 30
0
 11
7.359188309203679
 21
5.45
 31
0
  0
LINE
  8
0
 62
7
 10
7.331320343559646
 20
5.210000000000002
 30
0
 11
7.600000000000013
 21
5.47867965644037
 31
0
  0
LINE
  8
0
 62
7
 10
7.54345237791561
 20
5.210000000000002
 30
0
 11
7.765000000000013
 21
5.431547622084404
 31
0
  0
LINE
  8
0
 62
7
 10
7.755584412271574
 20
5.210000000000002
 30
0
 11
7.765000000000013
 21
5.21941558772844
 31
0
  0
ENDBLK
  8
0
  0
BLOCK
  8
0
  2
*X16
 70
1
 10
0
 20
0
 30
0
  0
LINE
  8
0
 62
7
 10
4.215000000000011
 20
5.16959415460185
 30
0
 11
4.215405845398171
 21
5.170000000000002
 31
0
  0
LINE
  8
0
 62
7
 10
4.215000000000011
 20
4.957462120245887
 30
0
 11
4.427537879754134
 21
5.170000000000002
 31
0
  0
LINE
  8
0
 62
7
 10
4.365000000000012
 20
4.89533008588992
 30
0
 11
4.639669914110098
 21
5.170000000000002
 31
0
  0
LINE
  8
0
 62
7
 10
4.611801948466059
 20
4.93
 30
0
 11
4.851801948466062
 21
5.170000000000002
 31
0
  0
LINE
  8
0
 62
7
 10
4.365000000000012
 20
4.683198051533957
 30
0
 11
4.540000000000011
 21
4.858198051533956
 31
0
  0
LINE
  8
0
 62
7
 10
4.823933982822023
 20
4.93
 30
0
 11
5.063933982822026
 21
5.170000000000002
 31
0
  0
LINE
  8
0
 62
7
 10
4.365000000000012
 20
4.471066017177993
 30
0
 11
4.540000000000011
 21
4.646066017177992
 31
0
  0
LINE
  8
0
 62
7
 10
5.036066017177987
 20
4.93
 30
0
 11
5.27606601717799
 21
5.170000000000002
 31
0
  0
LINE
  8
0
 62
7
 10
4.365000000000012
 20
4.258933982822029
 30
0
 11
4.540000000000011
 21
4.433933982822028
 31
0
  0
LINE
  8
0
 62
7
 10
5.248198051533951
 20
4.93
 30
0
 11
5.488198051533954
 21
5.170000000000002
 31
0
  0
LINE
  8
0
 62
7
 10
4.365000000000012
 20
4.046801948466065
 30
0
 11
4.540000000000011
 21
4.221801948466064
 31
0
  0
LINE
  8
0
 62
7
 10
5.460330085889915
 20
4.93
 30
0
 11
5.700330085889918
 21
5.170000000000002
 31
0
  0
LINE
  8
0
 62
7
 10
4.365000000000012
 20
3.834669914110101
 30
0
 11
4.540000000000011
 21
4.0096699141101
 31
0
  0
LINE
  8
0
 62
7
 10
5.672462120245878
 20
4.93
 30
0
 11
5.912462120245881
 21
5.170000000000002
 31
0
  0
LINE
  8
0
 62
7
 10
4.365000000000012
 20
3.622537879754137
 30
0
 11
4.540000000000011
 21
3.797537879754136
 31
0
  0
LINE
  8
0
 62
7
 10
5.884594154601842
 20
4.93
 30
0
 11
6.124594154601845
 21
5.170000000000002
 31
0
  0
LINE
  8
0
 62
7
 10
4.365000000000012
 20
3.410405845398172
 30
0
 11
4.540000000000011
 21
3.585405845398172
 31
0
  0
LINE
  8
0
 62
7
 10
6.096726188957806
 20
4.93
 30
0
 11
6.336726188957809
 21
5.170000000000002
 31
0
  0
LINE
  8
0
 62
7
 10
4.416726188957803
 20
3.25
 30
0
 11
4.540000000000012
 21
3.373273811042208
 31
0
  0
LINE
  8
0
 62
7
 10
6.30885822331377
 20
4.93
 30
0
 11
6.548858223313773
 21
5.170000000000002
 31
0
  0
LINE
  8
0
 62
7
 10
6.520990257669734
 20
4.93
 30
0
 11
6.760990257669737
 21
5.170000000000002
 31
0
  0
LINE
  8
0
 62
7
 10
6.733122292025698
 20
4.93
 30
0
 11
6.973122292025701
 21
5.170000000000002
 31
0
  0
LINE
  8
0
 62
7
 10
6.945254326381662
 20
4.93
 30
0
 11
7.185254326381664
 21
5.170000000000002
 31
0
  0
LINE
  8
0
 62
7
 10
7.157386360737625
 20
4.93
 30
0
 11
7.397386360737628
 21
5.170000000000002
 31
0
  0
LINE
  8
0
 62
7
 10
7.369518395093589
 20
4.93
 30
0
 11
7.609518395093592
 21
5.170000000000002
 31
0
  0
LINE
  8
0
 62
7
 10
7.42500000000001
 20
4.773349570550456
 30
0
 11
7.765000000000011
 21
5.113349570550458
 31
0
  0
LINE
  8
0
 62
7
 10
7.42500000000001
 20
4.561217536194492
 30
0
 11
7.600000000000012
 21
4.736217536194493
 31
0
  0
LINE
  8
0
 62
7
 10
7.42500000000001
 20
4.349085501838529
 30
0
 11
7.600000000000012
 21
4.524085501838529
 31
0
  0
LINE
  8
0
 62
7
 10
7.42500000000001
 20
4.136953467482565
 30
0
 11
7.600000000000012
 21
4.311953467482565
 31
0
  0
LINE
  8
0
 62
7
 10
7.42500000000001
 20
3.924821433126601
 30
0
 11
7.600000000000012
 21
4.099821433126602
 31
0
  0
LINE
  8
0
 62
7
 10
7.42500000000001
 20
3.712689398770637
 30
0
 11
7.600000000000012
 21
3.887689398770637
 31
0
  0
LINE
  8
0
 62
7
 10
7.42500000000001
 20
3.500557364414672
 30
0
 11
7.600000000000012
 21
3.675557364414673
 31
0
  0
LINE
  8
0
 62
7
 10
7.486574669941303
 20
3.35
 30
0
 11
7.600000000000012
 21
3.463425330058709
 31
0
  0
LINE
  8
0
 62
7
 10
4.215000000000011
 20
5.063528137423868
 30
0
 11
4.321471862576153
 21
5.170000000000002
 31
0
  0
LINE
  8
0
 62
7
 10
4.293603896932108
 20
4.93
 30
0
 11
4.533603896932116
 21
5.170000000000002
 31
0
  0
LINE
  8
0
 62
7
 10
4.365000000000012
 20
4.789264068711939
 30
0
 11
4.74573593128808
 21
5.170000000000002
 31
0
  0
LINE
  8
0
 62
7
 10
4.717867965644043
 20
4.930000000000001
 30
0
 11
4.957867965644044
 21
5.170000000000002
 31
0
  0
LINE
  8
0
 62
7
 10
4.365000000000012
 20
4.577132034355975
 30
0
 11
4.540000000000012
 21
4.752132034355974
 31
0
  0
LINE
  8
0
 62
7
 10
4.930000000000007
 20
4.930000000000001
 30
0
 11
5.170000000000008
 21
5.170000000000002
 31
0
  0
LINE
  8
0
 62
7
 10
4.365000000000012
 20
4.365000000000011
 30
0
 11
4.540000000000012
 21
4.54000000000001
 31
0
  0
LINE
  8
0
 62
7
 10
5.142132034355971
 20
4.930000000000001
 30
0
 11
5.382132034355972
 21
5.170000000000002
 31
0
  0
LINE
  8
0
 62
7
 10
4.365000000000012
 20
4.152867965644047
 30
0
 11
4.540000000000012
 21
4.327867965644046
 31
0
  0
LINE
  8
0
 62
7
 10
5.354264068711934
 20
4.930000000000001
 30
0
 11
5.594264068711936
 21
5.170000000000002
 31
0
  0
LINE
  8
0
 62
7
 10
4.365000000000012
 20
3.940735931288083
 30
0
 11
4.540000000000012
 21
4.115735931288082
 31
0
  0
LINE
  8
0
 62
7
 10
5.566396103067898
 20
4.930000000000001
 30
0
 11
5.806396103067899
 21
5.170000000000002
 31
0
  0
LINE
  8
0
 62
7
 10
4.365000000000012
 20
3.728603896932119
 30
0
 11
4.540000000000012
 21
3.903603896932118
 31
0
  0
LINE
  8
0
 62
7
 10
5.778528137423862
 20
4.930000000000001
 30
0
 11
6.018528137423863
 21
5.170000000000002
 31
0
  0
LINE
  8
0
 62
7
 10
4.365000000000012
 20
3.516471862576155
 30
0
 11
4.540000000000012
 21
3.691471862576154
 31
0
  0
LINE
  8
0
 62
7
 10
5.990660171779826
 20
4.930000000000001
 30
0
 11
6.230660171779827
 21
5.170000000000002
 31
0
  0
LINE
  8
0
 62
7
 10
4.365000000000012
 20
3.30433982822019
 30
0
 11
4.540000000000012
 21
3.47933982822019
 31
0
  0
LINE
  8
0
 62
7
 10
6.20279220613579
 20
4.930000000000001
 30
0
 11
6.442792206135791
 21
5.170000000000002
 31
0
  0
LINE
  8
0
 62
7
 10
4.522792206135787
 20
3.25
 30
0
 11
4.540000000000012
 21
3.267207793864225
 31
0
  0
LINE
  8
0
 62
7
 10
6.414924240491754
 20
4.930000000000001
 30
0
 11
6.654924240491755
 21
5.170000000000002
 31
0
  0
LINE
  8
0
 62
7
 10
6.627056274847718
 20
4.930000000000001
 30
0
 11
6.867056274847719
 21
5.170000000000002
 31
0
  0
LINE
  8
0
 62
7
 10
6.839188309203681
 20
4.930000000000001
 30
0
 11
7.079188309203682
 21
5.170000000000002
 31
0
  0
LINE
  8
0
 62
7
 10
7.051320343559645
 20
4.930000000000001
 30
0
 11
7.291320343559646
 21
5.170000000000002
 31
0
  0
LINE
  8
0
 62
7
 10
7.263452377915609
 20
4.930000000000001
 30
0
 11
7.50345237791561
 21
5.170000000000002
 31
0
  0
LINE
  8
0
 62
7
 10
7.425000000000011
 20
4.879415587728438
 30
0
 11
7.715584412271574
 21
5.170000000000002
 31
0
  0
LINE
  8
0
 62
7
 10
7.687716446627538
 20
4.930000000000001
 30
0
 11
7.765000000000011
 21
5.007283553372475
 31
0
  0
LINE
  8
0
 62
7
 10
7.425000000000011
 20
4.667283553372474
 30
0
 11
7.600000000000012
 21
4.842283553372475
 31
0
  0
LINE
  8
0
 62
7
 10
7.425000000000011
 20
4.455151519016511
 30
0
 11
7.600000000000012
 21
4.630151519016511
 31
0
  0
LINE
  8
0
 62
7
 10
7.425000000000011
 20
4.243019484660547
 30
0
 11
7.600000000000012
 21
4.418019484660547
 31
0
  0
LINE
  8
0
 62
7
 10
7.425000000000011
 20
4.030887450304583
 30
0
 11
7.600000000000012
 21
4.205887450304584
 31
0
  0
LINE
  8
0
 62
7
 10
7.425000000000011
 20
3.818755415948619
 30
0
 11
7.600000000000012
 21
3.99375541594862
 31
0
  0
LINE
  8
0
 62
7
 10
7.425000000000011
 20
3.606623381592654
 30
0
 11
7.600000000000012
 21
3.781623381592655
 31
0
  0
LINE
  8
0
 62
7
 10
7.425000000000013
 20
3.394491347236691
 30
0
 11
7.600000000000012
 21
3.569491347236691
 31
0
  0
LINE
  8
0
 62
7
 10
7.592640687119285
 20
3.35
 30
0
 11
7.600000000000012
 21
3.357359312880727
 31
0
  0
ENDBLK
  8
0
  0
BLOCK
  8
0
  2
*D0
 70
1
 10
0
 20
0
 30
0
  0
LINE
  8
0
 62
7
 10
8.008971036308409
 20
4.527363419775161
 30
0
 11
8.008971036308409
 21
4.930000000000001
 31
0
  0
LINE
  8
0
 62
7
 10
8.008971036308409
 20
3.35
 30
0
 11
8.008971036308409
 21
3.78236341977516
 31
0
  0
LINE
  8
0
 62
7
 10
7.600000000000011
 20
4.930000000000001
 30
0
 11
8.05897103630841
 21
4.930000000000001
 31
0
  0
LINE
  8
0
 62
7
 10
7.600000000000011
 20
3.35
 30
0
 11
8.05897103630841
 21
3.35
 31
0
  0
LINE
  8
0
 62
7
 10
8.044326375367737
 20
4.894644660940674
 30
0
 11
7.973615697249082
 21
4.965355339059329
 31
0
  0
LINE
  8
0
 62
7
 10
7.973615697249082
 20
3.385355339059327
 30
0
 11
8.044326375367737
 21
3.314644660940672
 31
0
  0
TEXT
  8
0
 62
7
 10
8.053971036308409
 20
4.032363419775161
 30
0
 40
0.1
  1
1,58
 50
90
 41
0.9
  0
ENDBLK
  8
0
  0
BLOCK
  8
0
  2
*D1
 70
1
 10
0
 20
0
 30
0
  0
LINE
  8
0
 62
7
 10
6.388454979986381
 20
5.809194829813201
 30
0
 11
7.425000000000012
 21
5.809194829813201
 31
0
  0
LINE
  8
0
 62
7
 10
4.540000000000012
 20
5.809194829813201
 30
0
 11
5.613454979986381
 21
5.809194829813201
 31
0
  0
LINE
  8
0
 62
7
 10
7.425000000000012
 20
5.449999999999999
 30
0
 11
7.425000000000012
 21
5.859194829813201
 31
0
  0
LINE
  8
0
 62
7
 10
4.540000000000012
 20
5.449999999999999
 30
0
 11
4.540000000000012
 21
5.859194829813201
 31
0
  0
LINE
  8
0
 62
7
 10
4.575355339059339
 20
5.844550168872528
 30
0
 11
4.504644660940684
 21
5.773839490753874
 31
0
  0
LINE
  8
0
 62
7
 10
7.389644660940685
 20
5.773839490753874
 30
0
 11
7.46035533905934
 21
5.844550168872528
 31
0
  0
TEXT
  8
0
 62
7
 10
5.863454979986381
 20
5.764194829813201
 30
0
 40
0.1
  1
2,89
 41
0.9
  0
ENDBLK
  8
0
  0
BLOCK
  8
0
  2
*D2
 70
1
 10
0
 20
0
 30
0
  0
LINE
  8
0
 62
7
 10
3.99293892366435
 20
4.481726691222391
 30
0
 11
3.99293892366435
 21
4.930000000000001
 31
0
  0
LINE
  8
0
 62
7
 10
3.99293892366435
 20
3.25
 30
0
 11
3.99293892366435
 21
3.73672669122239
 31
0
  0
LINE
  8
0
 62
7
 10
4.365000000000011
 20
4.930000000000001
 30
0
 11
3.94293892366435
 21
4.930000000000001
 31
0
  0
LINE
  8
0
 62
7
 10
4.365000000000011
 20
3.25
 30
0
 11
3.94293892366435
 21
3.25
 31
0
  0
LINE
  8
0
 62
7
 10
3.957583584605023
 20
3.285355339059327
 30
0
 11
4.028294262723677
 21
3.214644660940673
 31
0
  0
LINE
  8
0
 62
7
 10
4.028294262723677
 20
4.894644660940674
 30
0
 11
3.957583584605023
 21
4.965355339059329
 31
0
  0
TEXT
  8
0
 62
7
 10
4.03793892366435
 20
3.98672669122239
 30
0
 40
0.1
  1
1,68
 50
90
 41
0.9
  0
ENDBLK
  8
0
  0
BLOCK
  8
0
  2
*D3
 70
1
 10
0
 20
0
 30
0
  0
LINE
  8
0
 62
7
 10
6.247181522880831
 20
11.5480134453245
 30
0
 11
7.425000000000012
 21
11.5480134453245
 31
0
  0
LINE
  8
0
 62
7
 10
4.540000000000012
 20
11.5480134453245
 30
0
 11
5.572181522880831
 21
11.5480134453245
 31
0
  0
LINE
  8
0
 62
7
 10
7.425000000000012
 20
11.2
 30
0
 11
7.425000000000012
 21
11.5980134453245
 31
0
  0
LINE
  8
0
 62
7
 10
4.540000000000012
 20
11.2
 30
0
 11
4.540000000000012
 21
11.5980134453245
 31
0
  0
LINE
  8
0
 62
7
 10
7.389644660940685
 20
11.51265810626517
 30
0
 11
7.46035533905934
 21
11.58336878438383
 31
0
  0
LINE
  8
0
 62
7
 10
4.575355339059339
 20
11.58336878438383
 30
0
 11
4.504644660940684
 21
11.51265810626517
 31
0
  0
TEXT
  8
0
 62
7
 10
5.772181522880831
 20
11.5030134453245
 30
0
 40
0.1
  1
2,89
 41
0.9
  0
ENDBLK
  8
0
  0
BLOCK
  8
0
  2
*D4
 70
1
 10
0
 20
0
 30
0
  0
LINE
  8
0
 62
7
 10
8.11165367555215
 20
10.22831675679894
 30
0
 11
8.11165367555215
 21
11.05
 31
0
  0
LINE
  8
0
 62
7
 10
8.11165367555215
 20
8.299999999999999
 30
0
 11
8.11165367555215
 21
9.148316756798939
 31
0
  0
LINE
  8
0
 62
7
 10
7.750000000000012
 20
11.05
 30
0
 11
8.16165367555215
 21
11.05
 31
0
  0
LINE
  8
0
 62
7
 10
7.750000000000012
 20
8.299999999999999
 30
0
 11
8.16165367555215
 21
8.299999999999999
 31
0
  0
LINE
  8
0
 62
7
 10
8.076298336492822
 20
8.335355339059326
 30
0
 11
8.147009014611477
 21
8.264644660940672
 31
0
  0
LINE
  8
0
 62
7
 10
8.147009014611477
 20
11.01464466094067
 30
0
 11
8.076298336492822
 21
11.08535533905933
 31
0
  0
TEXT
  8
0
 62
7
 10
8.08165367555215
 20
9.550816756798941
 30
0
 40
0.1
  1
2,75
 50
90
 41
0.9
  0
TEXT
  8
0
 62
7
 10
8.241653675552151
 20
9.34831675679894
 30
0
 40
0.1
  1
(260-280)
 50
90
 41
0.9
  0
ENDBLK
  8
0
  0
ENDSEC
  0
SECTION
  2
ENTITIES
  0
INSERT
  8
0
  2
*X0
 10
0
 20
0
 30
0
  0
INSERT
  8
0
  2
*X1
 10
0
 20
0
 30
0
  0
INSERT
  8
0
  2
*X2
 10
0
 20
0
 30
0
  0
INSERT
  8
0
  2
*X3
 10
0
 20
0
 30
0
  0
INSERT
  8
0
  2
*X4
 10
0
 20
0
 30
0
  0
INSERT
  8
0
  2
*X5
 10
0
 20
0
 30
0
  0
INSERT
  8
0
  2
*X6
 10
0
 20
0
 30
0
  0
INSERT
  8
0
  2
*X7
 10
0
 20
0
 30
0
  0
INSERT
  8
0
  2
*X8
 10
0
 20
0
 30
0
  0
INSERT
  8
0
  2
*X9
 10
0
 20
0
 30
0
  0
INSERT
  8
0
  2
*X10
 10
0
 20
0
 30
0
  0
INSERT
  8
0
  2
*X11
 10
0
 20
0
 30
0
  0
INSERT
  8
0
  2
*X12
 10
0
 20
0
 30
0
  0
INSERT
  8
0
  2
*X13
 10
0
 20
0
 30
0
  0
INSERT
  8
0
  2
*X14
 10
0
 20
0
 30
0
  0
INSERT
  8
0
  2
*X15
 10
0
 20
0
 30
0
  0
INSERT
  8
0
  2
*X16
 10
0
 20
0
 30
0
  0
LINE
  8
0
 62
7
 10
6.420000000000012
 20
3.857174976134531
 30
0
 11
6.420000000000012
 21
3.674591920577401
 31
0
  0
LINE
  8
0
 62
7
 10
6.374383169789599
 20
3.925000000000001
 30
0
 11
6.420000000000012
 21
3.857174976134531
 31
0
  0
LINE
  8
0
 62
7
 10
6.19299702754504
 20
3.925000000000001
 30
0
 11
6.292292916072683
 21
3.925000000000001
 31
0
  0
LINE
  8
0
 62
7
 10
6.19299702754504
 20
3.925000000000001
 30
0
 11
6.374383169789599
 21
3.925000000000001
 31
0
  0
LINE
  8
0
 62
7
 10
5.611499393314967
 20
3.925000000000001
 30
0
 11
5.82636574154368
 21
3.925000000000001
 31
0
  0
LINE
  8
0
 62
7
 10
5.545000000000011
 20
3.877535484719202
 30
0
 11
5.611499393314967
 21
3.925000000000001
 31
0
  0
LINE
  8
0
 62
7
 10
5.545000000000011
 20
3.723849292904031
 30
0
 11
5.545000000000011
 21
3.81422706848153
 31
0
  0
LINE
  8
0
 62
7
 10
5.545000000000011
 20
3.723849292904031
 30
0
 11
5.545000000000011
 21
3.877535484719202
 31
0
  0
LINE
  8
0
 62
7
 10
4.595000000000011
 20
3.250000000000002
 30
0
 11
5.545000000000011
 21
3.250000000000002
 31
0
  0
LINE
  8
0
 62
7
 10
5.545000000000011
 20
3.250000000000002
 30
0
 11
5.545000000000011
 21
3.600000000000001
 31
0
  0
LINE
  8
0
 62
7
 10
4.595000000000011
 20
3.600000000000001
 30
0
 11
4.595000000000011
 21
3.250000000000002
 31
0
  0
LINE
  8
0
 62
7
 10
4.595000000000011
 20
3.510000000000001
 30
0
 11
5.545000000000011
 21
3.510000000000001
 31
0
  0
LINE
  8
0
 62
7
 10
5.545000000000011
 20
3.510000000000001
 30
0
 11
5.545000000000011
 21
3.723849292904031
 31
0
  0
LINE
  8
0
 62
7
 10
4.595000000000011
 20
3.90136144908926
 30
0
 11
4.595000000000011
 21
3.510000000000001
 31
0
  0
LINE
  8
0
 62
7
 10
4.595000000000011
 20
3.81098367351176
 30
0
 11
5.545000000000011
 21
3.723849292904031
 31
0
  0
LINE
  8
0
 62
7
 10
4.595000000000011
 20
4.305493686696383
 30
0
 11
4.595000000000011
 21
3.81098367351176
 31
0
  0
LINE
  8
0
 62
7
 10
4.595000000000011
 20
4.208853485161629
 30
0
 11
5.508543976337323
 21
3.851514683536561
 31
0
  0
LINE
  8
0
 62
7
 10
5.508543976337323
 20
3.851514683536561
 30
0
 11
5.545000000000011
 21
3.877535484719202
 31
0
  0
LINE
  8
0
 62
7
 10
4.595000000000011
 20
4.82636762705824
 30
0
 11
4.595000000000011
 21
4.208853485161629
 31
0
  0
LINE
  8
0
 62
7
 10
4.595000000000011
 20
4.712082856908341
 30
0
 11
5.600722043095099
 21
3.925000000000001
 31
0
  0
LINE
  8
0
 62
7
 10
5.600722043095099
 20
3.925000000000001
 30
0
 11
5.611499393314967
 21
3.925000000000001
 31
0
  0
LINE
  8
0
 62
7
 10
5.173914247713888
 20
4.875000000000001
 30
0
 11
4.595000000000011
 21
4.875000000000001
 31
0
  0
LINE
  8
0
 62
7
 10
4.595000000000011
 20
4.875000000000001
 30
0
 11
4.595000000000011
 21
4.712082856908341
 31
0
  0
LINE
  8
0
 62
7
 10
5.064732638811432
 20
4.875000000000001
 30
0
 11
5.7171841326412
 21
3.925000000000001
 31
0
  0
LINE
  8
0
 62
7
 10
5.7171841326412
 20
3.925000000000001
 30
0
 11
5.936683452265782
 21
3.925000000000001
 31
0
  0
LINE
  8
0
 62
7
 10
5.572653151990679
 20
4.875000000000001
 30
0
 11
5.064732638811432
 21
4.875000000000001
 31
0
  0
LINE
  8
0
 62
7
 10
5.476271832424445
 20
4.875000000000001
 30
0
 11
5.840302132699526
 21
3.925000000000001
 31
0
  0
LINE
  8
0
 62
7
 10
5.840302132699526
 20
3.925000000000001
 30
0
 11
6.052312662931818
 21
3.925000000000001
 31
0
  0
LINE
  8
0
 62
7
 10
5.94979847392958
 20
4.875000000000001
 30
0
 11
5.476271832424445
 21
4.875000000000001
 31
0
  0
LINE
  8
0
 62
7
 10
5.85927598816318
 20
4.875000000000001
 30
0
 11
5.96179017716543
 21
3.925000000000001
 31
0
  0
LINE
  8
0
 62
7
 10
5.96179017716543
 20
3.925000000000001
 30
0
 11
6.170796933917661
 21
3.925000000000001
 31
0
  0
LINE
  8
0
 62
7
 10
6.337066565169561
 20
4.875000000000001
 30
0
 11
5.85927598816318
 21
4.875000000000001
 31
0
  0
LINE
  8
0
 62
7
 10
6.245698512288637
 20
4.875000000000001
 30
0
 11
6.079428881036758
 21
3.925000000000001
 31
0
  0
LINE
  8
0
 62
7
 10
6.079428881036758
 20
3.925000000000001
 30
0
 11
6.19299702754504
 21
3.925000000000001
 31
0
  0
LINE
  8
0
 62
7
 10
6.735082238986609
 20
4.875000000000001
 30
0
 11
6.245698512288637
 21
4.875000000000001
 31
0
  0
LINE
  8
0
 62
7
 10
6.635786350458966
 20
4.875000000000001
 30
0
 11
6.19299702754504
 21
3.925000000000001
 31
0
  0
LINE
  8
0
 62
7
 10
7.262389917092451
 20
4.875000000000001
 30
0
 11
6.635786350458966
 21
4.875000000000001
 31
0
  0
LINE
  8
0
 62
7
 10
7.141547252610353
 20
4.875000000000001
 30
0
 11
6.338346731534102
 21
3.97858049372199
 31
0
  0
LINE
  8
0
 62
7
 10
6.338346731534102
 20
3.97858049372199
 30
0
 11
6.374383169789599
 21
3.925000000000001
 31
0
  0
LINE
  8
0
 62
7
 10
7.370000000000012
 20
4.39251159078747
 30
0
 11
7.370000000000012
 21
4.875000000000001
 31
0
  0
LINE
  8
0
 62
7
 10
7.370000000000012
 20
4.875000000000001
 30
0
 11
7.141547252610353
 21
4.875000000000001
 31
0
  0
LINE
  8
0
 62
7
 10
7.370000000000012
 20
4.49950883479417
 30
0
 11
6.420000000000012
 21
3.88870686974759
 31
0
  0
LINE
  8
0
 62
7
 10
6.420000000000012
 20
3.88870686974759
 30
0
 11
6.420000000000012
 21
3.857174976134531
 31
0
  0
LINE
  8
0
 62
7
 10
7.370000000000012
 20
3.9586977089403
 30
0
 11
7.370000000000012
 21
4.49950883479417
 31
0
  0
LINE
  8
0
 62
7
 10
7.370000000000012
 20
4.052636159950072
 30
0
 11
6.420000000000012
 21
3.768530371587162
 31
0
  0
LINE
  8
0
 62
7
 10
6.420000000000012
 20
3.768530371587162
 30
0
 11
6.420000000000012
 21
3.558655774683111
 31
0
  0
LINE
  8
0
 62
7
 10
7.370000000000012
 20
3.578163377186502
 30
0
 11
7.370000000000012
 21
4.052636159950072
 31
0
  0
LINE
  8
0
 62
7
 10
7.370000000000012
 20
3.668182349807221
 30
0
 11
6.420000000000012
 21
3.648674747303822
 31
0
  0
LINE
  8
0
 62
7
 10
6.420000000000012
 20
3.648674747303822
 30
0
 11
6.420000000000012
 21
3.390000000000001
 31
0
  0
LINE
  8
0
 62
7
 10
7.370000000000012
 20
3.390000000000001
 30
0
 11
7.370000000000012
 21
3.668182349807221
 31
0
  0
LINE
  8
0
 62
7
 10
5.041832691810263
 20
3.250000000000002
 30
0
 11
5.041832691810263
 21
3.924999999992502
 31
0
  0
LINE
  8
0
 62
7
 10
5.54500000000958
 20
4.428167308189751
 30
0
 11
6.419999999996941
 21
4.428167308189751
 31
0
  0
LINE
  8
0
 62
7
 10
6.923167308189761
 20
3.400000000000001
 30
0
 11
6.81751220892805
 21
3.461
 31
0
  0
LINE
  8
0
 62
7
 10
6.81751220892805
 20
3.461
 30
0
 11
7.028822407451459
 21
3.461
 31
0
  0
LINE
  8
0
 62
7
 10
7.028822407451459
 20
3.461
 30
0
 11
6.923167308189761
 21
3.400000000000001
 31
0
  0
LINE
  8
0
 62
7
 10
6.923167308189761
 20
3.924999999990421
 30
0
 11
6.923167308189761
 21
3.400000000000001
 31
0
  0
LINE
  8
0
 62
7
 10
2.070000390000009
 20
8.583324342478354
 30
0
 11
2.420000400000008
 21
8.583324342478354
 31
0
  0
LINE
  8
0
 62
7
 10
2.420000400000008
 20
8.583324342478354
 30
0
 11
2.420000400000008
 21
8.518324342478355
 31
0
  0
LINE
  8
0
 62
7
 10
2.070000390000009
 20
8.518324342478355
 30
0
 11
2.070000390000009
 21
8.583324342478354
 31
0
  0
LINE
  8
0
 62
7
 10
2.420000400000008
 20
8.518324342478355
 30
0
 11
2.070000390000009
 21
8.518324342478355
 31
0
  0
LINE
  8
0
 62
7
 10
1.768638840000011
 20
8.766657682478353
 30
0
 11
2.160000349999999
 21
8.766657682478353
 31
0
  0
LINE
  8
0
 62
7
 10
2.160000349999999
 20
8.701657682478354
 30
0
 11
1.768638840000011
 21
8.701657682478354
 31
0
  0
LINE
  8
0
 62
7
 10
2.160000349999999
 20
8.766657682478353
 30
0
 11
2.160000349999999
 21
8.701657682478354
 31
0
  0
LINE
  8
0
 62
7
 10
1.768638840000011
 20
8.701657682478354
 30
0
 11
1.768638840000011
 21
8.766657682478353
 31
0
  0
LINE
  8
0
 62
7
 10
1.946151130000009
 20
8.884991022478353
 30
0
 11
1.36450653000001
 21
8.884991022478353
 31
0
  0
LINE
  8
0
 62
7
 10
1.36450653000001
 20
8.949991022478354
 30
0
 11
1.946151130000009
 21
8.949991022478354
 31
0
  0
LINE
  8
0
 62
7
 10
1.946151130000009
 20
8.949991022478354
 30
0
 11
1.946151130000009
 21
8.884991022478353
 31
0
  0
LINE
  8
0
 62
7
 10
1.36450653000001
 20
8.884991022478353
 30
0
 11
1.36450653000001
 21
8.949991022478354
 31
0
  0
LINE
  8
0
 62
7
 10
1.81848565000001
 20
9.068324342478354
 30
0
 11
0.8436323599999999
 21
9.068324342478354
 31
0
  0
LINE
  8
0
 62
7
 10
0.8436323599999999
 20
9.133324342478355
 30
0
 11
1.81848565000001
 21
9.133324342478355
 31
0
  0
LINE
  8
0
 62
7
 10
1.81848565000001
 20
9.133324342478355
 30
0
 11
1.81848565000001
 21
9.068324342478354
 31
0
  0
LINE
  8
0
 62
7
 10
0.8436323599999999
 20
9.068324342478354
 30
0
 11
0.8436323599999999
 21
9.133324342478355
 31
0
  0
LINE
  8
0
 62
7
 10
0.7950003100000105
 20
9.316657702478356
 30
0
 11
1.745000390000008
 21
9.316657702478356
 31
0
  0
LINE
  8
0
 62
7
 10
1.745000390000008
 20
9.251657702478354
 30
0
 11
0.7950003100000105
 21
9.251657702478354
 31
0
  0
LINE
  8
0
 62
7
 10
1.745000390000008
 20
9.316657702478356
 30
0
 11
1.745000390000008
 21
9.251657702478354
 31
0
  0
LINE
  8
0
 62
7
 10
0.7950003100000105
 20
9.251657702478354
 30
0
 11
0.7950003100000105
 21
9.316657702478356
 31
0
  0
LINE
  8
0
 62
7
 10
0.7950001599999996
 20
9.499991062478355
 30
0
 11
1.745000459999999
 21
9.499991062478355
 31
0
  0
LINE
  8
0
 62
7
 10
1.745000459999999
 20
9.499991062478355
 30
0
 11
1.745000459999999
 21
9.434991062478353
 31
0
  0
LINE
  8
0
 62
7
 10
0.7950001599999996
 20
9.434991062478353
 30
0
 11
0.7950001599999996
 21
9.499991062478355
 31
0
  0
LINE
  8
0
 62
7
 10
1.745000459999999
 20
9.434991062478353
 30
0
 11
0.7950001599999996
 21
9.434991062478353
 31
0
  0
LINE
  8
0
 62
7
 10
0.7950001599999996
 20
9.683324342478356
 30
0
 11
1.745000310000011
 21
9.683324342478356
 31
0
  0
LINE
  8
0
 62
7
 10
1.745000310000011
 20
9.683324342478356
 30
0
 11
1.745000310000011
 21
9.618324342478354
 31
0
  0
LINE
  8
0
 62
7
 10
0.7950001599999996
 20
9.618324342478354
 30
0
 11
0.7950001599999996
 21
9.683324342478356
 31
0
  0
LINE
  8
0
 62
7
 10
1.745000310000011
 20
9.618324342478354
 30
0
 11
0.7950001599999996
 21
9.618324342478354
 31
0
  0
LINE
  8
0
 62
7
 10
0.795
 20
9.866657782478356
 30
0
 11
1.745000459999999
 21
9.866657782478356
 31
0
  0
LINE
  8
0
 62
7
 10
1.745000459999999
 20
9.866657782478356
 30
0
 11
1.745000459999999
 21
9.801657782478358
 31
0
  0
LINE
  8
0
 62
7
 10
0.795
 20
9.801657782478358
 30
0
 11
0.795
 21
9.866657782478356
 31
0
  0
LINE
  8
0
 62
7
 10
1.745000459999999
 20
9.801657782478358
 30
0
 11
0.795
 21
9.801657782478358
 31
0
  0
LINE
  8
0
 62
7
 10
0.7950003100000105
 20
10.04999106247835
 30
0
 11
1.745000459999999
 21
10.04999106247835
 31
0
  0
LINE
  8
0
 62
7
 10
1.745000459999999
 20
10.04999106247835
 30
0
 11
1.745000459999999
 21
9.984991062478354
 31
0
  0
LINE
  8
0
 62
7
 10
0.7950003100000105
 20
9.984991062478354
 30
0
 11
0.7950003100000105
 21
10.04999106247835
 31
0
  0
LINE
  8
0
 62
7
 10
1.745000459999999
 20
9.984991062478354
 30
0
 11
0.7950003100000105
 21
9.984991062478354
 31
0
  0
LINE
  8
0
 62
7
 10
0.7950003100000105
 20
10.23332434247835
 30
0
 11
1.745000609999999
 21
10.23332434247835
 31
0
  0
LINE
  8
0
 62
7
 10
1.745000609999999
 20
10.23332434247835
 30
0
 11
1.745000609999999
 21
10.16832434247835
 31
0
  0
LINE
  8
0
 62
7
 10
0.7950003100000105
 20
10.16832434247835
 30
0
 11
0.7950003100000105
 21
10.23332434247835
 31
0
  0
LINE
  8
0
 62
7
 10
1.745000609999999
 20
10.16832434247835
 30
0
 11
0.7950003100000105
 21
10.16832434247835
 31
0
  0
LINE
  8
0
 62
7
 10
1.865509040000008
 20
10.35165778247836
 30
0
 11
0.7950007700000097
 21
10.35165778247836
 31
0
  0
LINE
  8
0
 62
7
 10
0.7950007700000097
 20
10.41665778247836
 30
0
 11
1.865509040000008
 21
10.41665778247836
 31
0
  0
LINE
  8
0
 62
7
 10
1.865509040000008
 20
10.41665778247836
 30
0
 11
1.865509040000008
 21
10.35165778247836
 31
0
  0
LINE
  8
0
 62
7
 10
0.7950007700000097
 20
10.35165778247836
 30
0
 11
0.7950007700000097
 21
10.41665778247836
 31
0
  0
LINE
  8
0
 62
7
 10
1.99540841
 20
10.53499106247835
 30
0
 11
1.170491950000011
 21
10.53499106247835
 31
0
  0
LINE
  8
0
 62
7
 10
1.170491950000011
 20
10.59999106247835
 30
0
 11
1.99540841
 21
10.59999106247835
 31
0
  0
LINE
  8
0
 62
7
 10
1.99540841
 20
10.59999106247835
 30
0
 11
1.99540841
 21
10.53499106247835
 31
0
  0
LINE
  8
0
 62
7
 10
1.170491950000011
 20
10.53499106247835
 30
0
 11
1.170491950000011
 21
10.59999106247835
 31
0
  0
LINE
  8
0
 62
7
 10
2.111344840000009
 20
10.71832434247835
 30
0
 11
1.617364730000012
 21
10.71832434247835
 31
0
  0
LINE
  8
0
 62
7
 10
1.617364730000012
 20
10.78332434247835
 30
0
 11
2.111344840000009
 21
10.78332434247835
 31
0
  0
LINE
  8
0
 62
7
 10
2.111344840000009
 20
10.78332434247835
 30
0
 11
2.111344840000009
 21
10.71832434247835
 31
0
  0
LINE
  8
0
 62
7
 10
1.617364730000012
 20
10.71832434247835
 30
0
 11
1.617364730000012
 21
10.78332434247835
 31
0
  0
LINE
  8
0
 62
7
 10
2.001818390000011
 20
10.96665778247836
 30
0
 11
2.280000420000011
 21
10.96665778247836
 31
0
  0
LINE
  8
0
 62
7
 10
2.280000420000011
 20
10.90165778247836
 30
0
 11
2.001818390000011
 21
10.90165778247836
 31
0
  0
LINE
  8
0
 62
7
 10
2.280000420000011
 20
10.96665778247836
 30
0
 11
2.280000420000011
 21
10.90165778247836
 31
0
  0
LINE
  8
0
 62
7
 10
2.001818390000011
 20
10.90165778247836
 30
0
 11
2.001818390000011
 21
10.96665778247836
 31
0
  0
LINE
  8
0
 62
7
 10
4.59499959
 20
8.583333226666666
 30
0
 11
5.545000069999999
 21
8.583333226666666
 31
0
  0
LINE
  8
0
 62
7
 10
4.59499959
 20
8.518333226666664
 30
0
 11
4.59499959
 21
8.583333226666666
 31
0
  0
LINE
  8
0
 62
7
 10
5.545000069999999
 20
8.583333226666666
 30
0
 11
5.545000069999999
 21
8.518333226666664
 31
0
  0
LINE
  8
0
 62
7
 10
5.545000069999999
 20
8.518333226666664
 30
0
 11
4.59499959
 21
8.518333226666664
 31
0
  0
LINE
  8
0
 62
7
 10
4.59500003
 20
8.766666566666665
 30
0
 11
5.545000069999999
 21
8.766666566666665
 31
0
  0
LINE
  8
0
 62
7
 10
4.59500003
 20
8.701666566666665
 30
0
 11
4.59500003
 21
8.766666566666665
 31
0
  0
LINE
  8
0
 62
7
 10
5.545000069999999
 20
8.766666566666665
 30
0
 11
5.545000069999999
 21
8.701666566666665
 31
0
  0
LINE
  8
0
 62
7
 10
5.545000069999999
 20
8.701666566666665
 30
0
 11
4.59500003
 21
8.701666566666665
 31
0
  0
LINE
  8
0
 62
7
 10
4.595000050000009
 20
8.949999906666665
 30
0
 11
5.545000149999996
 21
8.949999906666665
 31
0
  0
LINE
  8
0
 62
7
 10
4.595000050000009
 20
8.884999906666664
 30
0
 11
4.595000050000009
 21
8.949999906666665
 31
0
  0
LINE
  8
0
 62
7
 10
5.545000149999996
 20
8.949999906666665
 30
0
 11
5.545000149999996
 21
8.884999906666664
 31
0
  0
LINE
  8
0
 62
7
 10
5.545000149999996
 20
8.884999906666664
 30
0
 11
4.595000050000009
 21
8.884999906666664
 31
0
  0
LINE
  8
0
 62
7
 10
4.59500003
 20
9.133333226666664
 30
0
 11
5.682237849999998
 21
9.133333226666664
 31
0
  0
LINE
  8
0
 62
7
 10
5.682237849999998
 20
9.068333226666665
 30
0
 11
4.59500003
 21
9.068333226666665
 31
0
  0
LINE
  8
0
 62
7
 10
4.59500003
 20
9.068333226666665
 30
0
 11
4.59500003
 21
9.133333226666664
 31
0
  0
LINE
  8
0
 62
7
 10
5.682237849999998
 20
9.133333226666664
 30
0
 11
5.682237849999998
 21
9.068333226666665
 31
0
  0
LINE
  8
0
 62
7
 10
5.826365500000001
 20
9.251666586666667
 30
0
 11
4.595000050000009
 21
9.251666586666667
 31
0
  0
LINE
  8
0
 62
7
 10
4.595000050000009
 20
9.316666586666667
 30
0
 11
5.826365500000001
 21
9.316666586666667
 31
0
  0
LINE
  8
0
 62
7
 10
4.595000050000009
 20
9.251666586666667
 30
0
 11
4.595000050000009
 21
9.316666586666667
 31
0
  0
LINE
  8
0
 62
7
 10
5.826365500000001
 20
9.316666586666667
 30
0
 11
5.826365500000001
 21
9.251666586666667
 31
0
  0
LINE
  8
0
 62
7
 10
5.936683649999996
 20
9.434999946666665
 30
0
 11
5.064732809999999
 21
9.434999946666665
 31
0
  0
LINE
  8
0
 62
7
 10
5.064732809999999
 20
9.499999946666666
 30
0
 11
5.936683649999996
 21
9.499999946666666
 31
0
  0
LINE
  8
0
 62
7
 10
5.064732809999999
 20
9.434999946666665
 30
0
 11
5.064732809999999
 21
9.499999946666666
 31
0
  0
LINE
  8
0
 62
7
 10
5.936683649999996
 20
9.499999946666666
 30
0
 11
5.936683649999996
 21
9.434999946666665
 31
0
  0
LINE
  8
0
 62
7
 10
6.052312460000002
 20
9.618333226666664
 30
0
 11
5.47627189
 21
9.618333226666664
 31
0
  0
LINE
  8
0
 62
7
 10
5.47627189
 20
9.683333226666665
 30
0
 11
6.052312460000002
 21
9.683333226666665
 31
0
  0
LINE
  8
0
 62
7
 10
5.47627189
 20
9.618333226666664
 30
0
 11
5.47627189
 21
9.683333226666665
 31
0
  0
LINE
  8
0
 62
7
 10
6.052312460000002
 20
9.683333226666665
 30
0
 11
6.052312460000002
 21
9.618333226666664
 31
0
  0
LINE
  8
0
 62
7
 10
6.337066649999997
 20
9.801666666666666
 30
0
 11
5.859276120000004
 21
9.801666666666666
 31
0
  0
LINE
  8
0
 62
7
 10
5.859276120000004
 20
9.866666666666665
 30
0
 11
6.337066649999997
 21
9.866666666666665
 31
0
  0
LINE
  8
0
 62
7
 10
5.859276120000004
 20
9.801666666666666
 30
0
 11
5.859276120000004
 21
9.866666666666665
 31
0
  0
LINE
  8
0
 62
7
 10
6.337066649999997
 20
9.866666666666665
 30
0
 11
6.337066649999997
 21
9.801666666666666
 31
0
  0
LINE
  8
0
 62
7
 10
6.735082240000001
 20
9.984999946666665
 30
0
 11
6.079429010000013
 21
9.984999946666665
 31
0
  0
LINE
  8
0
 62
7
 10
6.079429010000013
 20
10.04999994666667
 30
0
 11
6.735082240000001
 21
10.04999994666667
 31
0
  0
LINE
  8
0
 62
7
 10
6.079429010000013
 20
9.984999946666665
 30
0
 11
6.079429010000013
 21
10.04999994666667
 31
0
  0
LINE
  8
0
 62
7
 10
6.735082240000001
 20
10.04999994666667
 30
0
 11
6.735082240000001
 21
9.984999946666665
 31
0
  0
LINE
  8
0
 62
7
 10
7.262389830000001
 20
10.16833322666666
 30
0
 11
6.192997279999997
 21
10.16833322666666
 31
0
  0
LINE
  8
0
 62
7
 10
6.192997279999997
 20
10.23333322666666
 30
0
 11
7.262389830000001
 21
10.23333322666666
 31
0
  0
LINE
  8
0
 62
7
 10
6.192997279999997
 20
10.16833322666666
 30
0
 11
6.192997279999997
 21
10.23333322666666
 31
0
  0
LINE
  8
0
 62
7
 10
7.262389830000001
 20
10.23333322666666
 30
0
 11
7.262389830000001
 21
10.16833322666666
 31
0
  0
LINE
  8
0
 62
7
 10
7.370000000000012
 20
10.35166666666667
 30
0
 11
6.338347010000003
 21
10.35166666666667
 31
0
  0
LINE
  8
0
 62
7
 10
6.338347010000003
 20
10.41666666666667
 30
0
 11
7.370000000000012
 21
10.41666666666667
 31
0
  0
LINE
  8
0
 62
7
 10
6.338347010000003
 20
10.35166666666667
 30
0
 11
6.338347010000003
 21
10.41666666666667
 31
0
  0
LINE
  8
0
 62
7
 10
7.370000000000012
 20
10.41666666666667
 30
0
 11
7.370000000000012
 21
10.35166666666667
 31
0
  0
LINE
  8
0
 62
7
 10
6.420000000000012
 20
10.59999994666666
 30
0
 11
7.370000000000012
 21
10.59999994666666
 31
0
  0
LINE
  8
0
 62
7
 10
6.420000000000012
 20
10.53499994666666
 30
0
 11
6.420000000000012
 21
10.59999994666666
 31
0
  0
LINE
  8
0
 62
7
 10
7.370000000000012
 20
10.59999994666666
 30
0
 11
7.370000000000012
 21
10.53499994666666
 31
0
  0
LINE
  8
0
 62
7
 10
7.370000000000012
 20
10.53499994666666
 30
0
 11
6.420000000000012
 21
10.53499994666666
 31
0
  0
LINE
  8
0
 62
7
 10
6.419999839999997
 20
10.78333322666666
 30
0
 11
7.370000000000012
 21
10.78333322666666
 31
0
  0
LINE
  8
0
 62
7
 10
6.419999839999997
 20
10.71833322666666
 30
0
 11
6.419999839999997
 21
10.78333322666666
 31
0
  0
LINE
  8
0
 62
7
 10
7.370000000000012
 20
10.78333322666666
 30
0
 11
7.370000000000012
 21
10.71833322666666
 31
0
  0
LINE
  8
0
 62
7
 10
7.370000000000012
 20
10.71833322666666
 30
0
 11
6.419999839999997
 21
10.71833322666666
 31
0
  0
LINE
  8
0
 62
7
  6
DASHED
 10
6.419999689999997
 20
10.96666666666667
 30
0
 11
7.370000000000012
 21
10.96666666666667
 31
0
  0
LINE
  8
0
 62
7
  6
DASHED
 10
6.419999689999997
 20
10.90166666666667
 30
0
 11
6.419999689999997
 21
10.96666666666667
 31
0
  0
LINE
  8
0
 62
7
  6
DASHED
 10
7.370000000000012
 20
10.96666666666667
 30
0
 11
7.370000000000012
 21
10.90166666666667
 31
0
  0
LINE
  8
0
 62
7
  6
DASHED
 10
7.370000000000012
 20
10.90166666666667
 30
0
 11
6.419999689999997
 21
10.90166666666667
 31
0
  0
LINE
  8
0
 62
7
  6
DASHDOT
 10
7.425000000000011
 20
5.599999999999999
 30
0
 11
7.600000000000012
 21
5.599999999999999
 31
0
  0
LINE
  8
0
 62
7
  6
DASHDOT
 10
7.600000000000012
 20
5.599999999999999
 30
0
 11
7.650000000000012
 21
5.599999999999999
 31
0
  0
LINE
  8
0
 62
7
  6
DASHDOT
 10
4.215000000000011
 20
5.170000000000002
 30
0
 11
4.215000000000011
 21
4.930000000000001
 31
0
  0
LINE
  8
0
 62
7
  6
DASHDOT
 10
7.765000000000011
 20
5.170000000000002
 30
0
 11
7.765000000000011
 21
4.930000000000001
 31
0
  0
LINE
  8
0
 62
7
  6
DASHDOT
 10
4.215000000000011
 20
5.210000000000001
 30
0
 11
4.215000000000011
 21
5.170000000000002
 31
0
  0
LINE
  8
0
 62
7
  6
DASHDOT
 10
7.765000000000011
 20
5.210000000000001
 30
0
 11
7.765000000000011
 21
5.170000000000002
 31
0
  0
LINE
  8
0
 62
7
  6
DASHDOT
 10
4.215000000000011
 20
4.930000000000001
 30
0
 11
4.215000000000011
 21
4.880000000000002
 31
0
  0
LINE
  8
0
 62
7
  6
DASHDOT
 10
4.215000000000011
 20
5.449999999999999
 30
0
 11
4.215000000000011
 21
5.210000000000001
 31
0
  0
LINE
  8
0
 62
7
  6
DASHDOT
 10
4.540000000000012
 20
5.599999999999999
 30
0
 11
4.590000000000011
 21
5.599999999999999
 31
0
  0
LINE
  8
0
 62
7
  6
DASHDOT
 10
4.365000000000012
 20
5.599999999999999
 30
0
 11
4.540000000000012
 21
5.599999999999999
 31
0
  0
LINE
  8
0
 62
7
  6
DASHDOT
 10
7.765000000000011
 20
4.930000000000001
 30
0
 11
7.765000000000011
 21
4.880000000000002
 31
0
  0
LINE
  8
0
 62
7
  6
DASHDOT
 10
7.765000000000011
 20
5.449999999999999
 30
0
 11
7.765000000000011
 21
5.210000000000001
 31
0
  0
LINE
  8
0
 62
7
  6
DASHDOT
 10
7.765000000000011
 20
5.499999999999999
 30
0
 11
7.765000000000011
 21
5.449999999999999
 31
0
  0
LINE
  8
0
 62
7
  6
DASHDOT
 10
4.215000000000011
 20
5.499999999999999
 30
0
 11
4.215000000000011
 21
5.449999999999999
 31
0
  0
LINE
  8
0
 62
7
  6
DASHDOT
 10
7.375000000000012
 20
5.599999999999999
 30
0
 11
7.425000000000011
 21
5.599999999999999
 31
0
  0
LINE
  8
0
 62
7
  6
DASHDOT
 10
4.315000000000011
 20
5.599999999999999
 30
0
 11
4.365000000000012
 21
5.599999999999999
 31
0
  0
LINE
  8
0
 62
7
 10
4.540000000000012
 20
3.35
 30
0
 11
4.540000000000012
 21
3.4
 31
0
  0
LINE
  8
0
 62
7
  6
DASHDOT
 10
7.425000000000011
 20
3.35
 30
0
 11
4.540000000000012
 21
3.35
 31
0
  0
LINE
  8
0
 62
7
 10
7.425000000000011
 20
3.4
 30
0
 11
7.425000000000011
 21
3.35
 31
0
  0
LINE
  8
0
 62
7
 10
4.540000000000012
 20
3.4
 30
0
 11
4.540000000000012
 21
4.930000000000001
 31
0
  0
LINE
  8
0
 62
7
 10
7.425000000000011
 20
3.4
 30
0
 11
4.540000000000012
 21
3.4
 31
0
  0
LINE
  8
0
 62
7
 10
7.425000000000011
 20
3.35
 30
0
 11
7.600000000000012
 21
3.35
 31
0
  0
LINE
  8
0
 62
7
 10
7.600000000000012
 20
4.930000000000001
 30
0
 11
7.765000000000011
 21
4.930000000000001
 31
0
  0
LINE
  8
0
 62
7
 10
7.600000000000012
 20
3.35
 30
0
 11
7.600000000000012
 21
4.930000000000001
 31
0
  0
LINE
  8
0
 62
7
 10
7.425000000000011
 20
4.930000000000001
 30
0
 11
7.425000000000011
 21
3.4
 31
0
  0
LINE
  8
0
 62
7
 10
4.540000000000012
 20
4.930000000000001
 30
0
 11
7.425000000000011
 21
4.930000000000001
 31
0
  0
LINE
  8
0
 62
7
 10
4.365000000000012
 20
4.930000000000001
 30
0
 11
4.365000000000012
 21
3.25
 31
0
  0
LINE
  8
0
 62
7
 10
4.365000000000012
 20
3.25
 30
0
 11
4.540000000000012
 21
3.25
 31
0
  0
LINE
  8
0
 62
7
 10
4.540000000000012
 20
3.25
 30
0
 11
4.540000000000012
 21
3.35
 31
0
  0
LINE
  8
0
 62
7
 10
4.215000000000011
 20
4.930000000000001
 30
0
 11
4.365000000000012
 21
4.930000000000001
 31
0
  0
LINE
  8
0
 62
7
 10
4.215000000000011
 20
5.170000000000002
 30
0
 11
7.765000000000011
 21
5.170000000000002
 31
0
  0
LINE
  8
0
 62
7
 10
4.215000000000011
 20
5.210000000000001
 30
0
 11
7.765000000000011
 21
5.210000000000001
 31
0
  0
LINE
  8
0
 62
7
 10
7.600000000000012
 20
5.449999999999999
 30
0
 11
7.765000000000011
 21
5.449999999999999
 31
0
  0
LINE
  8
0
 62
7
 10
7.600000000000012
 20
5.599999999999999
 30
0
 11
7.600000000000012
 21
5.449999999999999
 31
0
  0
LINE
  8
0
 62
7
 10
7.425000000000011
 20
5.449999999999999
 30
0
 11
7.425000000000011
 21
5.599999999999999
 31
0
  0
LINE
  8
0
 62
7
 10
4.540000000000012
 20
5.449999999999999
 30
0
 11
7.425000000000011
 21
5.449999999999999
 31
0
  0
LINE
  8
0
 62
7
 10
4.540000000000012
 20
5.599999999999999
 30
0
 11
4.540000000000012
 21
5.449999999999999
 31
0
  0
LINE
  8
0
 62
7
 10
4.365000000000012
 20
5.449999999999999
 30
0
 11
4.365000000000012
 21
5.599999999999999
 31
0
  0
LINE
  8
0
 62
7
 10
4.215000000000011
 20
5.449999999999999
 30
0
 11
4.365000000000012
 21
5.449999999999999
 31
0
  0
LINE
  8
0
 62
7
  6
DASHED
 10
0.7400000000000001
 20
8.1
 30
0
 11
2.32
 21
8.1
 31
0
  0
LINE
  8
0
 62
7
  6
DASHED
 10
0.7400000000000001
 20
8.299999999999999
 30
0
 11
2.32
 21
8.299999999999999
 31
0
  0
LINE
  8
0
 62
7
  6
DASHED
 10
0.7400000000000001
 20
10.85
 30
0
 11
2.32
 21
10.85
 31
0
  0
LINE
  8
0
 62
7
  6
DASHED
 10
0.7400000000000001
 20
11.05
 30
0
 11
2.32
 21
11.05
 31
0
  0
LINE
  8
0
 62
7
  6
DASHDOT
 10
2.62
 20
11.05
 30
0
 11
2.62
 21
10.85
 31
0
  0
LINE
  8
0
 62
7
  6
DASHDOT
 10
2.62
 20
10.85
 30
0
 11
2.62
 21
10.8
 31
0
  0
LINE
  8
0
 62
7
  6
DASHDOT
 10
0.5
 20
11.2
 30
0
 11
0.7400000000000001
 21
11.2
 31
0
  0
LINE
  8
0
 62
7
  6
DASHDOT
 10
0.7400000000000001
 20
11.2
 30
0
 11
0.79
 21
11.2
 31
0
  0
LINE
  8
0
 62
7
  6
DASHDOT
 10
0.7400000000000001
 20
7.949999999999999
 30
0
 11
0.79
 21
7.949999999999999
 31
0
  0
LINE
  8
0
 62
7
  6
DASHDOT
 10
0.5
 20
7.949999999999999
 30
0
 11
0.7400000000000001
 21
7.949999999999999
 31
0
  0
LINE
  8
0
 62
7
  6
DASHDOT
 10
2.62
 20
8.1
 30
0
 11
2.62
 21
8.299999999999999
 31
0
  0
LINE
  8
0
 62
7
  6
DASHDOT
 10
2.62
 20
8.299999999999999
 30
0
 11
2.62
 21
8.399999999999999
 31
0
  0
LINE
  8
0
 62
7
  6
DASHDOT
 10
2.62
 20
11.15
 30
0
 11
2.62
 21
11.05
 31
0
  0
LINE
  8
0
 62
7
 10
2.32
 20
11.15
 30
0
 11
2.62
 21
11.15
 31
0
  0
LINE
  8
0
 62
7
  6
DASHDOT
 10
2.62
 20
8.399999999999999
 30
0
 11
2.62
 21
8.449999999999999
 31
0
  0
LINE
  8
0
 62
7
 10
2.32
 20
8.399999999999999
 30
0
 11
2.62
 21
8.399999999999999
 31
0
  0
LINE
  8
0
 62
7
  6
DASHDOT
 10
0.45
 20
7.949999999999999
 30
0
 11
0.5
 21
7.949999999999999
 31
0
  0
LINE
  8
0
 62
7
  6
DASHDOT
 10
2.62
 20
8.049999999999999
 30
0
 11
2.62
 21
8.1
 31
0
  0
LINE
  8
0
 62
7
  6
DASHDOT
 10
2.62
 20
11.2
 30
0
 11
2.62
 21
11.15
 31
0
  0
LINE
  8
0
 62
7
  6
DASHDOT
 10
0.45
 20
11.2
 30
0
 11
0.5
 21
11.2
 31
0
  0
LINE
  8
0
 62
7
 10
2.32
 20
8.1
 30
0
 11
2.62
 21
8.1
 31
0
  0
LINE
  8
0
 62
7
 10
2.32
 20
8.299999999999999
 30
0
 11
2.32
 21
8.1
 31
0
  0
LINE
  8
0
 62
7
 10
2.32
 20
8.299999999999999
 30
0
 11
2.62
 21
8.299999999999999
 31
0
  0
LINE
  8
0
 62
7
 10
2.32
 20
11.05
 30
0
 11
2.62
 21
11.05
 31
0
  0
LINE
  8
0
 62
7
 10
2.32
 20
10.85
 30
0
 11
2.62
 21
10.85
 31
0
  0
LINE
  8
0
 62
7
 10
2.32
 20
11.05
 30
0
 11
2.32
 21
10.85
 31
0
  0
LINE
  8
0
 62
7
 10
0.7400000000000001
 20
8.1
 30
0
 11
0.7400000000000001
 21
7.949999999999999
 31
0
  0
LINE
  8
0
 62
7
 10
0.5
 20
8.1
 30
0
 11
0.5
 21
8.299999999999999
 31
0
  0
LINE
  8
0
 62
7
 10
0.5
 20
8.1
 30
0
 11
0.7400000000000001
 21
8.1
 31
0
  0
LINE
  8
0
 62
7
 10
0.7400000000000001
 20
8.299999999999999
 30
0
 11
0.7400000000000001
 21
8.1
 31
0
  0
LINE
  8
0
 62
7
 10
0.5
 20
8.299999999999999
 30
0
 11
0.5
 21
10.85
 31
0
  0
LINE
  8
0
 62
7
 10
0.5
 20
8.299999999999999
 30
0
 11
0.7400000000000001
 21
8.299999999999999
 31
0
  0
LINE
  8
0
 62
7
 10
0.7400000000000001
 20
10.85
 30
0
 11
0.7400000000000001
 21
8.299999999999999
 31
0
  0
LINE
  8
0
 62
7
 10
0.5
 20
10.85
 30
0
 11
0.5
 21
11.05
 31
0
  0
LINE
  8
0
 62
7
 10
0.5
 20
10.85
 30
0
 11
0.7400000000000001
 21
10.85
 31
0
  0
LINE
  8
0
 62
7
 10
0.7400000000000001
 20
11.05
 30
0
 11
0.7400000000000001
 21
10.85
 31
0
  0
LINE
  8
0
 62
7
 10
0.5
 20
11.05
 30
0
 11
0.5
 21
11.2
 31
0
  0
LINE
  8
0
 62
7
 10
0.5
 20
11.05
 30
0
 11
0.7400000000000001
 21
11.05
 31
0
  0
LINE
  8
0
 62
7
 10
0.7400000000000001
 20
11.2
 30
0
 11
0.7400000000000001
 21
11.05
 31
0
  0
LINE
  8
0
 62
7
 10
0.5
 20
7.949999999999999
 30
0
 11
0.5
 21
8.1
 31
0
  0
LINE
  8
0
 62
7
  6
DASHDOT
 10
4.315000000000011
 20
11.2
 30
0
 11
4.365000000000012
 21
11.2
 31
0
  0
LINE
  8
0
 62
7
  6
DASHDOT
 10
4.365000000000012
 20
11.2
 30
0
 11
4.540000000000012
 21
11.2
 31
0
  0
LINE
  8
0
 62
7
  6
DASHDOT
 10
4.215000000000011
 20
11.15
 30
0
 11
4.215000000000011
 21
11.05
 31
0
  0
LINE
  8
0
 62
7
  6
DASHDOT
 10
4.215000000000011
 20
11.05
 30
0
 11
4.215000000000011
 21
10.85
 31
0
  0
LINE
  8
0
 62
7
  6
DASHDOT
 10
7.375000000000012
 20
11.2
 30
0
 11
7.425000000000011
 21
11.2
 31
0
  0
LINE
  8
0
 62
7
  6
DASHDOT
 10
7.425000000000011
 20
11.2
 30
0
 11
7.600000000000012
 21
11.2
 31
0
  0
LINE
  8
0
 62
7
  6
DASHDOT
 10
7.750000000000012
 20
11.15
 30
0
 11
7.750000000000012
 21
11.05
 31
0
  0
LINE
  8
0
 62
7
  6
DASHDOT
 10
7.750000000000012
 20
11.05
 30
0
 11
7.750000000000012
 21
10.85
 31
0
  0
LINE
  8
0
 62
7
  6
DASHDOT
 10
7.375000000000012
 20
7.949999999999999
 30
0
 11
7.425000000000011
 21
7.949999999999999
 31
0
  0
LINE
  8
0
 62
7
  6
DASHDOT
 10
7.425000000000011
 20
7.949999999999999
 30
0
 11
7.600000000000012
 21
7.949999999999999
 31
0
  0
LINE
  8
0
 62
7
  6
DASHDOT
 10
7.750000000000012
 20
8.399999999999999
 30
0
 11
7.750000000000012
 21
8.299999999999999
 31
0
  0
LINE
  8
0
 62
7
  6
DASHDOT
 10
7.750000000000012
 20
8.299999999999999
 30
0
 11
7.750000000000012
 21
8.1
 31
0
  0
LINE
  8
0
 62
7
  6
DASHDOT
 10
4.315000000000011
 20
7.949999999999999
 30
0
 11
4.365000000000012
 21
7.949999999999999
 31
0
  0
LINE
  8
0
 62
7
  6
DASHDOT
 10
4.365000000000012
 20
7.949999999999999
 30
0
 11
4.540000000000012
 21
7.949999999999999
 31
0
  0
LINE
  8
0
 62
7
  6
DASHDOT
 10
4.215000000000011
 20
8.399999999999999
 30
0
 11
4.215000000000011
 21
8.299999999999999
 31
0
  0
LINE
  8
0
 62
7
  6
DASHDOT
 10
4.215000000000011
 20
8.299999999999999
 30
0
 11
4.215000000000011
 21
8.1
 31
0
  0
LINE
  8
0
 62
7
  6
DASHDOT
 10
4.215000000000011
 20
11.2
 30
0
 11
4.215000000000011
 21
11.15
 31
0
  0
LINE
  8
0
 62
7
 10
4.365000000000012
 20
11.2
 30
0
 11
4.365000000000012
 21
11.15
 31
0
  0
LINE
  8
0
 62
7
 10
4.215000000000011
 20
11.15
 30
0
 11
4.365000000000012
 21
11.15
 31
0
  0
LINE
  8
0
 62
7
 10
4.540000000000012
 20
11.2
 30
0
 11
4.540000000000012
 21
11.15
 31
0
  0
LINE
  8
0
 62
7
 10
7.425000000000011
 20
11.2
 30
0
 11
7.425000000000011
 21
11.15
 31
0
  0
LINE
  8
0
 62
7
 10
4.540000000000012
 20
11.15
 30
0
 11
7.425000000000011
 21
11.15
 31
0
  0
LINE
  8
0
 62
7
  6
DASHDOT
 10
7.750000000000012
 20
11.2
 30
0
 11
7.750000000000012
 21
11.15
 31
0
  0
LINE
  8
0
 62
7
 10
7.600000000000012
 20
11.2
 30
0
 11
7.600000000000012
 21
11.15
 31
0
  0
LINE
  8
0
 62
7
 10
7.600000000000012
 20
11.15
 30
0
 11
7.750000000000012
 21
11.15
 31
0
  0
LINE
  8
0
 62
7
  6
DASHDOT
 10
4.215000000000011
 20
8.449999999999999
 30
0
 11
4.215000000000011
 21
8.399999999999999
 31
0
  0
LINE
  8
0
 62
7
 10
4.365000000000012
 20
10.85
 30
0
 11
4.365000000000012
 21
8.399999999999999
 31
0
  0
LINE
  8
0
 62
7
 10
4.215000000000011
 20
8.399999999999999
 30
0
 11
4.365000000000012
 21
8.399999999999999
 31
0
  0
LINE
  8
0
 62
7
 10
4.540000000000012
 20
10.85
 30
0
 11
4.540000000000012
 21
8.399999999999999
 31
0
  0
LINE
  8
0
 62
7
 10
7.425000000000011
 20
10.85
 30
0
 11
7.425000000000011
 21
8.399999999999999
 31
0
  0
LINE
  8
0
 62
7
 10
4.540000000000012
 20
8.399999999999999
 30
0
 11
7.425000000000011
 21
8.399999999999999
 31
0
  0
LINE
  8
0
 62
7
  6
DASHDOT
 10
7.750000000000012
 20
8.449999999999999
 30
0
 11
7.750000000000012
 21
8.399999999999999
 31
0
  0
LINE
  8
0
 62
7
 10
7.600000000000012
 20
10.85
 30
0
 11
7.600000000000012
 21
8.399999999999999
 31
0
  0
LINE
  8
0
 62
7
 10
7.600000000000012
 20
8.399999999999999
 30
0
 11
7.750000000000012
 21
8.399999999999999
 31
0
  0
LINE
  8
0
 62
7
  6
DASHDOT
 10
4.540000000000012
 20
7.949999999999999
 30
0
 11
4.590000000000011
 21
7.949999999999999
 31
0
  0
LINE
  8
0
 62
7
  6
DASHDOT
 10
4.540000000000012
 20
11.2
 30
0
 11
4.590000000000011
 21
11.2
 31
0
  0
LINE
  8
0
 62
7
  6
DASHDOT
 10
7.600000000000012
 20
7.949999999999999
 30
0
 11
7.650000000000012
 21
7.949999999999999
 31
0
  0
LINE
  8
0
 62
7
  6
DASHDOT
 10
7.600000000000012
 20
11.2
 30
0
 11
7.650000000000012
 21
11.2
 31
0
  0
LINE
  8
0
 62
7
  6
DASHDOT
 10
4.215000000000011
 20
10.85
 30
0
 11
4.215000000000011
 21
10.8
 31
0
  0
LINE
  8
0
 62
7
  6
DASHDOT
 10
4.215000000000011
 20
8.1
 30
0
 11
4.215000000000011
 21
8.049999999999999
 31
0
  0
LINE
  8
0
 62
7
  6
DASHDOT
 10
7.750000000000012
 20
10.85
 30
0
 11
7.750000000000012
 21
10.8
 31
0
  0
LINE
  8
0
 62
7
  6
DASHDOT
 10
7.750000000000012
 20
8.1
 30
0
 11
7.750000000000012
 21
8.049999999999999
 31
0
  0
LINE
  8
0
 62
7
 10
4.215000000000011
 20
11.05
 30
0
 11
4.365000000000012
 21
11.05
 31
0
  0
LINE
  8
0
 62
7
 10
4.365000000000012
 20
11.15
 30
0
 11
4.365000000000012
 21
11.05
 31
0
  0
LINE
  8
0
 62
7
 10
4.215000000000011
 20
10.85
 30
0
 11
4.365000000000012
 21
10.85
 31
0
  0
LINE
  8
0
 62
7
 10
4.215000000000011
 20
8.299999999999999
 30
0
 11
4.365000000000012
 21
8.299999999999999
 31
0
  0
LINE
  8
0
 62
7
 10
4.365000000000012
 20
8.399999999999999
 30
0
 11
4.365000000000012
 21
8.299999999999999
 31
0
  0
LINE
  8
0
 62
7
 10
4.215000000000011
 20
8.1
 30
0
 11
4.365000000000012
 21
8.1
 31
0
  0
LINE
  8
0
 62
7
 10
4.365000000000012
 20
8.1
 30
0
 11
4.365000000000012
 21
7.949999999999999
 31
0
  0
LINE
  8
0
 62
7
 10
4.365000000000012
 20
11.05
 30
0
 11
4.540000000000012
 21
11.05
 31
0
  0
LINE
  8
0
 62
7
 10
4.540000000000012
 20
11.15
 30
0
 11
4.540000000000012
 21
11.05
 31
0
  0
LINE
  8
0
 62
7
 10
4.365000000000012
 20
10.85
 30
0
 11
4.540000000000012
 21
10.85
 31
0
  0
LINE
  8
0
 62
7
 10
4.365000000000012
 20
8.299999999999999
 30
0
 11
4.540000000000012
 21
8.299999999999999
 31
0
  0
LINE
  8
0
 62
7
 10
4.540000000000012
 20
8.399999999999999
 30
0
 11
4.540000000000012
 21
8.299999999999999
 31
0
  0
LINE
  8
0
 62
7
 10
4.365000000000012
 20
8.1
 30
0
 11
4.540000000000012
 21
8.1
 31
0
  0
LINE
  8
0
 62
7
 10
4.540000000000012
 20
8.1
 30
0
 11
4.540000000000012
 21
7.949999999999999
 31
0
  0
LINE
  8
0
 62
7
 10
4.540000000000012
 20
11.05
 30
0
 11
7.425000000000011
 21
11.05
 31
0
  0
LINE
  8
0
 62
7
 10
7.425000000000011
 20
11.15
 30
0
 11
7.425000000000011
 21
11.05
 31
0
  0
LINE
  8
0
 62
7
 10
4.540000000000012
 20
10.85
 30
0
 11
7.425000000000011
 21
10.85
 31
0
  0
LINE
  8
0
 62
7
 10
4.540000000000012
 20
8.299999999999999
 30
0
 11
7.425000000000011
 21
8.299999999999999
 31
0
  0
LINE
  8
0
 62
7
 10
7.425000000000011
 20
8.399999999999999
 30
0
 11
7.425000000000011
 21
8.299999999999999
 31
0
  0
LINE
  8
0
 62
7
 10
4.540000000000012
 20
8.1
 30
0
 11
7.425000000000011
 21
8.1
 31
0
  0
LINE
  8
0
 62
7
 10
7.425000000000011
 20
8.1
 30
0
 11
7.425000000000011
 21
7.949999999999999
 31
0
  0
LINE
  8
0
 62
7
 10
7.425000000000011
 20
11.05
 30
0
 11
7.600000000000012
 21
11.05
 31
0
  0
LINE
  8
0
 62
7
 10
7.600000000000012
 20
11.15
 30
0
 11
7.600000000000012
 21
11.05
 31
0
  0
LINE
  8
0
 62
7
 10
7.425000000000011
 20
10.85
 30
0
 11
7.600000000000012
 21
10.85
 31
0
  0
LINE
  8
0
 62
7
 10
7.425000000000011
 20
8.299999999999999
 30
0
 11
7.600000000000012
 21
8.299999999999999
 31
0
  0
LINE
  8
0
 62
7
 10
7.600000000000012
 20
8.399999999999999
 30
0
 11
7.600000000000012
 21
8.299999999999999
 31
0
  0
LINE
  8
0
 62
7
 10
7.425000000000011
 20
8.1
 30
0
 11
7.600000000000012
 21
8.1
 31
0
  0
LINE
  8
0
 62
7
 10
7.600000000000012
 20
8.1
 30
0
 11
7.600000000000012
 21
7.949999999999999
 31
0
  0
LINE
  8
0
 62
7
 10
7.600000000000012
 20
11.05
 30
0
 11
7.750000000000012
 21
11.05
 31
0
  0
LINE
  8
0
 62
7
 10
7.600000000000012
 20
10.85
 30
0
 11
7.750000000000012
 21
10.85
 31
0
  0
LINE
  8
0
 62
7
 10
7.600000000000012
 20
8.299999999999999
 30
0
 11
7.750000000000012
 21
8.299999999999999
 31
0
  0
LINE
  8
0
 62
7
 10
7.600000000000012
 20
8.1
 30
0
 11
7.750000000000012
 21
8.1
 31
0
  0
LINE
  8
0
 62
7
 10
5.178540018878102
 20
4.59839611650485
 30
0
 11
5.178540018878102
 21
4.71839611650485
 31
0
  0
LINE
  8
0
 62
7
 10
5.254140018878101
 20
4.71839611650485
 30
0
 11
5.200140018878102
 21
4.658396116504849
 31
0
  0
LINE
  8
0
 62
7
 10
5.200140018878102
 20
4.658396116504849
 30
0
 11
5.254140018878101
 21
4.59839611650485
 31
0
  0
LINE
  8
0
 62
7
 10
5.200140018878102
 20
4.658396116504849
 30
0
 11
5.178540018878102
 21
4.634396116504848
 31
0
  0
LINE
  8
0
 62
7
 10
5.362140018878101
 20
4.71839611650485
 30
0
 11
5.2865400188781
 21
4.71839611650485
 31
0
  0
LINE
  8
0
 62
7
 10
5.2865400188781
 20
4.71839611650485
 30
0
 11
5.2865400188781
 21
4.658396116504849
 31
0
  0
LINE
  8
0
 62
7
 10
5.2865400188781
 20
4.59839611650485
 30
0
 11
5.362140018878101
 21
4.59839611650485
 31
0
  0
LINE
  8
0
 62
7
 10
5.351340018878101
 20
4.658396116504849
 30
0
 11
5.2865400188781
 21
4.658396116504849
 31
0
  0
LINE
  8
0
 62
7
 10
5.2865400188781
 20
4.658396116504849
 30
0
 11
5.2865400188781
 21
4.59839611650485
 31
0
  0
LINE
  8
0
 62
7
 10
5.394540018878101
 20
4.59839611650485
 30
0
 11
5.394540018878101
 21
4.71839611650485
 31
0
  0
LINE
  8
0
 62
7
 10
5.394540018878101
 20
4.71839611650485
 30
0
 11
5.470140018878102
 21
4.59839611650485
 31
0
  0
LINE
  8
0
 62
7
 10
5.470140018878102
 20
4.59839611650485
 30
0
 11
5.470140018878102
 21
4.71839611650485
 31
0
  0
LINE
  8
0
 62
7
 10
5.502540018878101
 20
4.59839611650485
 30
0
 11
5.502540018878101
 21
4.71839611650485
 31
0
  0
LINE
  8
0
 62
7
 10
5.502540018878101
 20
4.71839611650485
 30
0
 11
5.578140018878102
 21
4.59839611650485
 31
0
  0
LINE
  8
0
 62
7
 10
5.578140018878102
 20
4.59839611650485
 30
0
 11
5.578140018878102
 21
4.71839611650485
 31
0
  0
LINE
  8
0
 62
7
 10
5.686140018878102
 20
4.68239611650485
 30
0
 11
5.683440018878101
 21
4.694396116504849
 31
0
  0
LINE
  8
0
 62
7
 10
5.683440018878101
 20
4.694396116504849
 30
0
 11
5.678040018878101
 21
4.70339611650485
 31
0
  0
LINE
  8
0
 62
7
 10
5.678040018878101
 20
4.70339611650485
 30
0
 11
5.672640018878101
 21
4.709396116504848
 31
0
  0
LINE
  8
0
 62
7
 10
5.672640018878101
 20
4.709396116504848
 30
0
 11
5.664540018878101
 21
4.715396116504851
 31
0
  0
LINE
  8
0
 62
7
 10
5.664540018878101
 20
4.715396116504851
 30
0
 11
5.656440018878101
 21
4.71839611650485
 31
0
  0
LINE
  8
0
 62
7
 10
5.656440018878101
 20
4.71839611650485
 30
0
 11
5.640240018878102
 21
4.71839611650485
 31
0
  0
LINE
  8
0
 62
7
 10
5.640240018878102
 20
4.71839611650485
 30
0
 11
5.632140018878101
 21
4.715396116504851
 31
0
  0
LINE
  8
0
 62
7
 10
5.632140018878101
 20
4.715396116504851
 30
0
 11
5.624040018878101
 21
4.709396116504848
 31
0
  0
LINE
  8
0
 62
7
 10
5.624040018878101
 20
4.709396116504848
 30
0
 11
5.618640018878101
 21
4.70339611650485
 31
0
  0
LINE
  8
0
 62
7
 10
5.618640018878101
 20
4.70339611650485
 30
0
 11
5.613240018878101
 21
4.694396116504849
 31
0
  0
LINE
  8
0
 62
7
 10
5.613240018878101
 20
4.694396116504849
 30
0
 11
5.610540018878101
 21
4.68239611650485
 31
0
  0
LINE
  8
0
 62
7
 10
5.610540018878101
 20
4.68239611650485
 30
0
 11
5.610540018878101
 21
4.634396116504848
 31
0
  0
LINE
  8
0
 62
7
 10
5.610540018878101
 20
4.634396116504848
 30
0
 11
5.613240018878101
 21
4.622396116504851
 31
0
  0
LINE
  8
0
 62
7
 10
5.613240018878101
 20
4.622396116504851
 30
0
 11
5.618640018878101
 21
4.61339611650485
 31
0
  0
LINE
  8
0
 62
7
 10
5.618640018878101
 20
4.61339611650485
 30
0
 11
5.624040018878101
 21
4.607396116504851
 31
0
  0
LINE
  8
0
 62
7
 10
5.624040018878101
 20
4.607396116504851
 30
0
 11
5.632140018878101
 21
4.60139611650485
 31
0
  0
LINE
  8
0
 62
7
 10
5.632140018878101
 20
4.60139611650485
 30
0
 11
5.640240018878102
 21
4.59839611650485
 31
0
  0
LINE
  8
0
 62
7
 10
5.640240018878102
 20
4.59839611650485
 30
0
 11
5.656440018878101
 21
4.59839611650485
 31
0
  0
LINE
  8
0
 62
7
 10
5.656440018878101
 20
4.59839611650485
 30
0
 11
5.664540018878101
 21
4.60139611650485
 31
0
  0
LINE
  8
0
 62
7
 10
5.664540018878101
 20
4.60139611650485
 30
0
 11
5.672640018878101
 21
4.607396116504851
 31
0
  0
LINE
  8
0
 62
7
 10
5.672640018878101
 20
4.607396116504851
 30
0
 11
5.678040018878101
 21
4.61339611650485
 31
0
  0
LINE
  8
0
 62
7
 10
5.678040018878101
 20
4.61339611650485
 30
0
 11
5.683440018878101
 21
4.622396116504851
 31
0
  0
LINE
  8
0
 62
7
 10
5.683440018878101
 20
4.622396116504851
 30
0
 11
5.686140018878102
 21
4.634396116504848
 31
0
  0
LINE
  8
0
 62
7
 10
5.686140018878102
 20
4.634396116504848
 30
0
 11
5.686140018878102
 21
4.658396116504849
 31
0
  0
LINE
  8
0
 62
7
 10
5.686140018878102
 20
4.658396116504849
 30
0
 11
5.653740018878102
 21
4.658396116504849
 31
0
  0
LINE
  8
0
 62
7
 10
5.7644400188781
 20
4.71839611650485
 30
0
 11
5.748240018878101
 21
4.71839611650485
 31
0
  0
LINE
  8
0
 62
7
 10
5.748240018878101
 20
4.71839611650485
 30
0
 11
5.740140018878101
 21
4.715396116504851
 31
0
  0
LINE
  8
0
 62
7
 10
5.740140018878101
 20
4.715396116504851
 30
0
 11
5.732040018878101
 21
4.709396116504848
 31
0
  0
LINE
  8
0
 62
7
 10
5.732040018878101
 20
4.709396116504848
 30
0
 11
5.726640018878101
 21
4.70339611650485
 31
0
  0
LINE
  8
0
 62
7
 10
5.726640018878101
 20
4.70339611650485
 30
0
 11
5.721240018878102
 21
4.694396116504849
 31
0
  0
LINE
  8
0
 62
7
 10
5.721240018878102
 20
4.694396116504849
 30
0
 11
5.718540018878102
 21
4.68239611650485
 31
0
  0
LINE
  8
0
 62
7
 10
5.718540018878102
 20
4.68239611650485
 30
0
 11
5.718540018878102
 21
4.634396116504848
 31
0
  0
LINE
  8
0
 62
7
 10
5.718540018878102
 20
4.634396116504848
 30
0
 11
5.721240018878102
 21
4.622396116504851
 31
0
  0
LINE
  8
0
 62
7
 10
5.721240018878102
 20
4.622396116504851
 30
0
 11
5.726640018878101
 21
4.61339611650485
 31
0
  0
LINE
  8
0
 62
7
 10
5.726640018878101
 20
4.61339611650485
 30
0
 11
5.732040018878101
 21
4.607396116504851
 31
0
  0
LINE
  8
0
 62
7
 10
5.732040018878101
 20
4.607396116504851
 30
0
 11
5.740140018878101
 21
4.60139611650485
 31
0
  0
LINE
  8
0
 62
7
 10
5.740140018878101
 20
4.60139611650485
 30
0
 11
5.748240018878101
 21
4.59839611650485
 31
0
  0
LINE
  8
0
 62
7
 10
5.748240018878101
 20
4.59839611650485
 30
0
 11
5.7644400188781
 21
4.59839611650485
 31
0
  0
LINE
  8
0
 62
7
 10
5.7644400188781
 20
4.59839611650485
 30
0
 11
5.772540018878101
 21
4.60139611650485
 31
0
  0
LINE
  8
0
 62
7
 10
5.772540018878101
 20
4.60139611650485
 30
0
 11
5.780640018878103
 21
4.607396116504851
 31
0
  0
LINE
  8
0
 62
7
 10
5.780640018878103
 20
4.607396116504851
 30
0
 11
5.786040018878102
 21
4.61339611650485
 31
0
  0
LINE
  8
0
 62
7
 10
5.786040018878102
 20
4.61339611650485
 30
0
 11
5.791440018878101
 21
4.622396116504851
 31
0
  0
LINE
  8
0
 62
7
 10
5.791440018878101
 20
4.622396116504851
 30
0
 11
5.794140018878101
 21
4.634396116504848
 31
0
  0
LINE
  8
0
 62
7
 10
5.794140018878101
 20
4.634396116504848
 30
0
 11
5.794140018878101
 21
4.68239611650485
 31
0
  0
LINE
  8
0
 62
7
 10
5.794140018878101
 20
4.68239611650485
 30
0
 11
5.791440018878101
 21
4.694396116504849
 31
0
  0
LINE
  8
0
 62
7
 10
5.791440018878101
 20
4.694396116504849
 30
0
 11
5.786040018878102
 21
4.70339611650485
 31
0
  0
LINE
  8
0
 62
7
 10
5.786040018878102
 20
4.70339611650485
 30
0
 11
5.780640018878103
 21
4.709396116504848
 31
0
  0
LINE
  8
0
 62
7
 10
5.780640018878103
 20
4.709396116504848
 30
0
 11
5.772540018878101
 21
4.715396116504851
 31
0
  0
LINE
  8
0
 62
7
 10
5.772540018878101
 20
4.715396116504851
 30
0
 11
5.7644400188781
 21
4.71839611650485
 31
0
  0
LINE
  8
0
 62
7
 10
5.815740018878101
 20
4.71839611650485
 30
0
 11
5.853540018878101
 21
4.71839611650485
 31
0
  0
LINE
  8
0
 62
7
 10
5.853540018878101
 20
4.71839611650485
 30
0
 11
5.853540018878101
 21
4.59839611650485
 31
0
  0
LINE
  8
0
 62
7
 10
5.853540018878101
 20
4.71839611650485
 30
0
 11
5.8913400188781
 21
4.71839611650485
 31
0
  0
LINE
  8
0
 62
7
 10
5.923740018878101
 20
4.71839611650485
 30
0
 11
5.9615400188781
 21
4.71839611650485
 31
0
  0
LINE
  8
0
 62
7
 10
5.9615400188781
 20
4.71839611650485
 30
0
 11
5.9615400188781
 21
4.59839611650485
 31
0
  0
LINE
  8
0
 62
7
 10
5.9615400188781
 20
4.71839611650485
 30
0
 11
5.999340018878101
 21
4.71839611650485
 31
0
  0
LINE
  8
0
 62
7
 10
6.118140018878101
 20
4.640396116504851
 30
0
 11
6.1721400188781
 21
4.640396116504851
 31
0
  0
LINE
  8
0
 62
7
 10
6.280140018878101
 20
4.71839611650485
 30
0
 11
6.317940018878101
 21
4.71839611650485
 31
0
  0
LINE
  8
0
 62
7
 10
6.317940018878101
 20
4.71839611650485
 30
0
 11
6.317940018878101
 21
4.59839611650485
 31
0
  0
LINE
  8
0
 62
7
 10
6.317940018878101
 20
4.71839611650485
 30
0
 11
6.355740018878101
 21
4.71839611650485
 31
0
  0
LINE
  8
0
 62
7
 10
6.388140018878101
 20
4.59839611650485
 30
0
 11
6.388140018878101
 21
4.71839611650485
 31
0
  0
LINE
  8
0
 62
7
 10
6.388140018878101
 20
4.71839611650485
 30
0
 11
6.439440018878101
 21
4.71839611650485
 31
0
  0
LINE
  8
0
 62
7
 10
6.439440018878101
 20
4.71839611650485
 30
0
 11
6.450240018878102
 21
4.715396116504851
 31
0
  0
LINE
  8
0
 62
7
 10
6.450240018878102
 20
4.715396116504851
 30
0
 11
6.458340018878101
 21
4.709396116504848
 31
0
  0
LINE
  8
0
 62
7
 10
6.458340018878101
 20
4.709396116504848
 30
0
 11
6.461040018878101
 21
4.70339611650485
 31
0
  0
LINE
  8
0
 62
7
 10
6.461040018878101
 20
4.70339611650485
 30
0
 11
6.463740018878102
 21
4.694396116504849
 31
0
  0
LINE
  8
0
 62
7
 10
6.463740018878102
 20
4.694396116504849
 30
0
 11
6.463740018878102
 21
4.68239611650485
 31
0
  0
LINE
  8
0
 62
7
 10
6.463740018878102
 20
4.68239611650485
 30
0
 11
6.461040018878101
 21
4.67339611650485
 31
0
  0
LINE
  8
0
 62
7
 10
6.461040018878101
 20
4.67339611650485
 30
0
 11
6.458340018878101
 21
4.66739611650485
 31
0
  0
LINE
  8
0
 62
7
 10
6.458340018878101
 20
4.66739611650485
 30
0
 11
6.450240018878102
 21
4.661396116504849
 31
0
  0
LINE
  8
0
 62
7
 10
6.450240018878102
 20
4.661396116504849
 30
0
 11
6.439440018878101
 21
4.658396116504849
 31
0
  0
LINE
  8
0
 62
7
 10
6.439440018878101
 20
4.658396116504849
 30
0
 11
6.4313400188781
 21
4.658396116504849
 31
0
  0
LINE
  8
0
 62
7
 10
6.4313400188781
 20
4.658396116504849
 30
0
 11
6.463740018878102
 21
4.59839611650485
 31
0
  0
LINE
  8
0
 62
7
 10
6.4313400188781
 20
4.658396116504849
 30
0
 11
6.388140018878101
 21
4.658396116504849
 31
0
  0
LINE
  8
0
 62
7
 10
6.5609400188781
 20
4.71839611650485
 30
0
 11
6.485340018878102
 21
4.71839611650485
 31
0
  0
LINE
  8
0
 62
7
 10
6.485340018878102
 20
4.71839611650485
 30
0
 11
6.485340018878102
 21
4.658396116504849
 31
0
  0
LINE
  8
0
 62
7
 10
6.485340018878102
 20
4.59839611650485
 30
0
 11
6.5609400188781
 21
4.59839611650485
 31
0
  0
LINE
  8
0
 62
7
 10
6.550140018878101
 20
4.658396116504849
 30
0
 11
6.485340018878102
 21
4.658396116504849
 31
0
  0
LINE
  8
0
 62
7
 10
6.485340018878102
 20
4.658396116504849
 30
0
 11
6.485340018878102
 21
4.59839611650485
 31
0
  0
LINE
  8
0
 62
7
 10
6.5933400188781
 20
4.59839611650485
 30
0
 11
6.5933400188781
 21
4.658396116504849
 31
0
  0
LINE
  8
0
 62
7
 10
6.5933400188781
 20
4.71839611650485
 30
0
 11
6.6446400188781
 21
4.71839611650485
 31
0
  0
LINE
  8
0
 62
7
 10
6.6446400188781
 20
4.71839611650485
 30
0
 11
6.6554400188781
 21
4.715396116504851
 31
0
  0
LINE
  8
0
 62
7
 10
6.6554400188781
 20
4.715396116504851
 30
0
 11
6.663540018878101
 21
4.709396116504848
 31
0
  0
LINE
  8
0
 62
7
 10
6.663540018878101
 20
4.709396116504848
 30
0
 11
6.666240018878099
 21
4.70339611650485
 31
0
  0
LINE
  8
0
 62
7
 10
6.666240018878099
 20
4.70339611650485
 30
0
 11
6.668940018878101
 21
4.694396116504849
 31
0
  0
LINE
  8
0
 62
7
 10
6.668940018878101
 20
4.694396116504849
 30
0
 11
6.668940018878101
 21
4.68239611650485
 31
0
  0
LINE
  8
0
 62
7
 10
6.668940018878101
 20
4.68239611650485
 30
0
 11
6.666240018878099
 21
4.67339611650485
 31
0
  0
LINE
  8
0
 62
7
 10
6.666240018878099
 20
4.67339611650485
 30
0
 11
6.663540018878101
 21
4.66739611650485
 31
0
  0
LINE
  8
0
 62
7
 10
6.663540018878101
 20
4.66739611650485
 30
0
 11
6.6554400188781
 21
4.661396116504849
 31
0
  0
LINE
  8
0
 62
7
 10
6.6554400188781
 20
4.661396116504849
 30
0
 11
6.6446400188781
 21
4.658396116504849
 31
0
  0
LINE
  8
0
 62
7
 10
6.6446400188781
 20
4.658396116504849
 30
0
 11
6.5933400188781
 21
4.658396116504849
 31
0
  0
LINE
  8
0
 62
7
 10
6.5933400188781
 20
4.658396116504849
 30
0
 11
6.5933400188781
 21
4.71839611650485
 31
0
  0
LINE
  8
0
 62
7
 10
6.6905400188781
 20
4.59839611650485
 30
0
 11
6.6905400188781
 21
4.658396116504849
 31
0
  0
LINE
  8
0
 62
7
 10
6.6905400188781
 20
4.71839611650485
 30
0
 11
6.741840018878102
 21
4.71839611650485
 31
0
  0
LINE
  8
0
 62
7
 10
6.741840018878102
 20
4.71839611650485
 30
0
 11
6.752640018878101
 21
4.715396116504851
 31
0
  0
LINE
  8
0
 62
7
 10
6.752640018878101
 20
4.715396116504851
 30
0
 11
6.7607400188781
 21
4.709396116504848
 31
0
  0
LINE
  8
0
 62
7
 10
6.7607400188781
 20
4.709396116504848
 30
0
 11
6.7634400188781
 21
4.70339611650485
 31
0
  0
LINE
  8
0
 62
7
 10
6.7634400188781
 20
4.70339611650485
 30
0
 11
6.766140018878102
 21
4.694396116504849
 31
0
  0
LINE
  8
0
 62
7
 10
6.766140018878102
 20
4.694396116504849
 30
0
 11
6.766140018878102
 21
4.68239611650485
 31
0
  0
LINE
  8
0
 62
7
 10
6.766140018878102
 20
4.68239611650485
 30
0
 11
6.7634400188781
 21
4.67339611650485
 31
0
  0
LINE
  8
0
 62
7
 10
6.7634400188781
 20
4.67339611650485
 30
0
 11
6.7607400188781
 21
4.66739611650485
 31
0
  0
LINE
  8
0
 62
7
 10
6.7607400188781
 20
4.66739611650485
 30
0
 11
6.752640018878101
 21
4.661396116504849
 31
0
  0
LINE
  8
0
 62
7
 10
6.752640018878101
 20
4.661396116504849
 30
0
 11
6.741840018878102
 21
4.658396116504849
 31
0
  0
LINE
  8
0
 62
7
 10
6.741840018878102
 20
4.658396116504849
 30
0
 11
6.6905400188781
 21
4.658396116504849
 31
0
  0
LINE
  8
0
 62
7
 10
6.6905400188781
 20
4.658396116504849
 30
0
 11
6.6905400188781
 21
4.71839611650485
 31
0
  0
LINE
  8
0
 62
7
 10
6.863340018878102
 20
4.71839611650485
 30
0
 11
6.787740018878101
 21
4.71839611650485
 31
0
  0
LINE
  8
0
 62
7
 10
6.787740018878101
 20
4.71839611650485
 30
0
 11
6.787740018878101
 21
4.658396116504849
 31
0
  0
LINE
  8
0
 62
7
 10
6.787740018878101
 20
4.59839611650485
 30
0
 11
6.863340018878102
 21
4.59839611650485
 31
0
  0
LINE
  8
0
 62
7
 10
6.852540018878101
 20
4.658396116504849
 30
0
 11
6.787740018878101
 21
4.658396116504849
 31
0
  0
LINE
  8
0
 62
7
 10
6.787740018878101
 20
4.658396116504849
 30
0
 11
6.787740018878101
 21
4.59839611650485
 31
0
  0
LINE
  8
0
 62
7
 10
4.67500000000001
 20
3.010000000000002
 30
0
 11
4.750600000000012
 21
3.010000000000002
 31
0
  0
LINE
  8
0
 62
7
 10
4.750600000000012
 20
3.010000000000002
 30
0
 11
4.67500000000001
 21
2.890000000000002
 31
0
  0
LINE
  8
0
 62
7
 10
4.67500000000001
 20
2.890000000000002
 30
0
 11
4.750600000000012
 21
2.890000000000002
 31
0
  0
LINE
  8
0
 62
7
 10
4.78300000000001
 20
2.992000000000003
 30
0
 11
4.78840000000001
 21
3.001000000000002
 31
0
  0
LINE
  8
0
 62
7
 10
4.78840000000001
 20
3.001000000000002
 30
0
 11
4.796500000000011
 21
3.007000000000002
 31
0
  0
LINE
  8
0
 62
7
 10
4.796500000000011
 20
3.007000000000002
 30
0
 11
4.80730000000001
 21
3.010000000000002
 31
0
  0
LINE
  8
0
 62
7
 10
4.80730000000001
 20
3.010000000000002
 30
0
 11
4.82350000000001
 21
3.010000000000002
 31
0
  0
LINE
  8
0
 62
7
 10
4.82350000000001
 20
3.010000000000002
 30
0
 11
4.83430000000001
 21
3.007000000000002
 31
0
  0
LINE
  8
0
 62
7
 10
4.83430000000001
 20
3.007000000000002
 30
0
 11
4.84240000000001
 21
3.001000000000002
 31
0
  0
LINE
  8
0
 62
7
 10
4.84240000000001
 20
3.001000000000002
 30
0
 11
4.847800000000012
 21
2.992000000000003
 31
0
  0
LINE
  8
0
 62
7
 10
4.847800000000012
 20
2.992000000000003
 30
0
 11
4.847800000000012
 21
2.980000000000002
 31
0
  0
LINE
  8
0
 62
7
 10
4.847800000000012
 20
2.980000000000002
 30
0
 11
4.84240000000001
 21
2.968000000000002
 31
0
  0
LINE
  8
0
 62
7
 10
4.84240000000001
 20
2.968000000000002
 30
0
 11
4.78300000000001
 21
2.890000000000002
 31
0
  0
LINE
  8
0
 62
7
 10
4.78300000000001
 20
2.890000000000002
 30
0
 11
4.847800000000012
 21
2.890000000000002
 31
0
  0
LINE
  8
0
 62
7
 10
4.88020000000001
 20
3.010000000000002
 30
0
 11
4.91800000000001
 21
2.890000000000002
 31
0
  0
LINE
  8
0
 62
7
 10
4.91800000000001
 20
2.890000000000002
 30
0
 11
4.955800000000012
 21
3.010000000000002
 31
0
  0
LINE
  8
0
 62
7
 10
4.98820000000001
 20
2.992000000000003
 30
0
 11
4.99360000000001
 21
3.001000000000002
 31
0
  0
LINE
  8
0
 62
7
 10
4.99360000000001
 20
3.001000000000002
 30
0
 11
5.00170000000001
 21
3.007000000000002
 31
0
  0
LINE
  8
0
 62
7
 10
5.00170000000001
 20
3.007000000000002
 30
0
 11
5.01250000000001
 21
3.010000000000002
 31
0
  0
LINE
  8
0
 62
7
 10
5.01250000000001
 20
3.010000000000002
 30
0
 11
5.02870000000001
 21
3.010000000000002
 31
0
  0
LINE
  8
0
 62
7
 10
5.02870000000001
 20
3.010000000000002
 30
0
 11
5.039500000000011
 21
3.007000000000002
 31
0
  0
LINE
  8
0
 62
7
 10
5.039500000000011
 20
3.007000000000002
 30
0
 11
5.047600000000011
 21
3.001000000000002
 31
0
  0
LINE
  8
0
 62
7
 10
5.047600000000011
 20
3.001000000000002
 30
0
 11
5.053000000000011
 21
2.992000000000003
 31
0
  0
LINE
  8
0
 62
7
 10
5.053000000000011
 20
2.992000000000003
 30
0
 11
5.053000000000011
 21
2.980000000000002
 31
0
  0
LINE
  8
0
 62
7
 10
5.053000000000011
 20
2.980000000000002
 30
0
 11
5.047600000000011
 21
2.968000000000002
 31
0
  0
LINE
  8
0
 62
7
 10
5.047600000000011
 20
2.968000000000002
 30
0
 11
4.98820000000001
 21
2.890000000000002
 31
0
  0
LINE
  8
0
 62
7
 10
4.98820000000001
 20
2.890000000000002
 30
0
 11
5.053000000000011
 21
2.890000000000002
 31
0
  0
LINE
  8
0
 62
7
 10
5.11240000000001
 20
3.010000000000002
 30
0
 11
5.12320000000001
 21
3.010000000000002
 31
0
  0
LINE
  8
0
 62
7
 10
5.12320000000001
 20
3.010000000000002
 30
0
 11
5.13130000000001
 21
3.007000000000002
 31
0
  0
LINE
  8
0
 62
7
 10
5.13130000000001
 20
3.007000000000002
 30
0
 11
5.13670000000001
 21
3.001000000000002
 31
0
  0
LINE
  8
0
 62
7
 10
5.13670000000001
 20
3.001000000000002
 30
0
 11
5.14210000000001
 21
2.992000000000003
 31
0
  0
LINE
  8
0
 62
7
 10
5.14210000000001
 20
2.992000000000003
 30
0
 11
5.14210000000001
 21
2.980000000000002
 31
0
  0
LINE
  8
0
 62
7
 10
5.14210000000001
 20
2.980000000000002
 30
0
 11
5.13940000000001
 21
2.974000000000002
 31
0
  0
LINE
  8
0
 62
7
 10
5.13940000000001
 20
2.974000000000002
 30
0
 11
5.13130000000001
 21
2.965000000000003
 31
0
  0
LINE
  8
0
 62
7
 10
5.13130000000001
 20
2.965000000000003
 30
0
 11
5.12320000000001
 21
2.962000000000002
 31
0
  0
LINE
  8
0
 62
7
 10
5.12320000000001
 20
2.962000000000002
 30
0
 11
5.11240000000001
 21
2.962000000000002
 31
0
  0
LINE
  8
0
 62
7
 10
5.11240000000001
 20
2.962000000000002
 30
0
 11
5.104300000000011
 21
2.965000000000003
 31
0
  0
LINE
  8
0
 62
7
 10
5.104300000000011
 20
2.965000000000003
 30
0
 11
5.09620000000001
 21
2.974000000000002
 31
0
  0
LINE
  8
0
 62
7
 10
5.09620000000001
 20
2.974000000000002
 30
0
 11
5.09350000000001
 21
2.980000000000002
 31
0
  0
LINE
  8
0
 62
7
 10
5.09350000000001
 20
2.980000000000002
 30
0
 11
5.09350000000001
 21
2.992000000000003
 31
0
  0
LINE
  8
0
 62
7
 10
5.09350000000001
 20
2.992000000000003
 30
0
 11
5.098900000000011
 21
3.001000000000002
 31
0
  0
LINE
  8
0
 62
7
 10
5.098900000000011
 20
3.001000000000002
 30
0
 11
5.104300000000011
 21
3.007000000000002
 31
0
  0
LINE
  8
0
 62
7
 10
5.104300000000011
 20
3.007000000000002
 30
0
 11
5.11240000000001
 21
3.010000000000002
 31
0
  0
LINE
  8
0
 62
7
 10
5.11240000000001
 20
2.962000000000002
 30
0
 11
5.098900000000011
 21
2.956000000000002
 31
0
  0
LINE
  8
0
 62
7
 10
5.098900000000011
 20
2.956000000000002
 30
0
 11
5.09080000000001
 21
2.947000000000003
 31
0
  0
LINE
  8
0
 62
7
 10
5.09080000000001
 20
2.947000000000003
 30
0
 11
5.085400000000011
 21
2.935000000000002
 31
0
  0
LINE
  8
0
 62
7
 10
5.085400000000011
 20
2.935000000000002
 30
0
 11
5.085400000000011
 21
2.917000000000002
 31
0
  0
LINE
  8
0
 62
7
 10
5.085400000000011
 20
2.917000000000002
 30
0
 11
5.09080000000001
 21
2.905000000000002
 31
0
  0
LINE
  8
0
 62
7
 10
5.09080000000001
 20
2.905000000000002
 30
0
 11
5.098900000000011
 21
2.896000000000002
 31
0
  0
LINE
  8
0
 62
7
 10
5.098900000000011
 20
2.896000000000002
 30
0
 11
5.109700000000011
 21
2.890000000000002
 31
0
  0
LINE
  8
0
 62
7
 10
5.109700000000011
 20
2.890000000000002
 30
0
 11
5.12590000000001
 21
2.890000000000002
 31
0
  0
LINE
  8
0
 62
7
 10
5.12590000000001
 20
2.890000000000002
 30
0
 11
5.13670000000001
 21
2.896000000000002
 31
0
  0
LINE
  8
0
 62
7
 10
5.13670000000001
 20
2.896000000000002
 30
0
 11
5.14480000000001
 21
2.905000000000002
 31
0
  0
LINE
  8
0
 62
7
 10
5.14480000000001
 20
2.905000000000002
 30
0
 11
5.150200000000011
 21
2.917000000000002
 31
0
  0
LINE
  8
0
 62
7
 10
5.150200000000011
 20
2.917000000000002
 30
0
 11
5.150200000000011
 21
2.935000000000002
 31
0
  0
LINE
  8
0
 62
7
 10
5.150200000000011
 20
2.935000000000002
 30
0
 11
5.14480000000001
 21
2.947000000000003
 31
0
  0
LINE
  8
0
 62
7
 10
5.14480000000001
 20
2.947000000000003
 30
0
 11
5.13670000000001
 21
2.956000000000002
 31
0
  0
LINE
  8
0
 62
7
 10
5.13670000000001
 20
2.956000000000002
 30
0
 11
5.12320000000001
 21
2.962000000000002
 31
0
  0
LINE
  8
0
 62
7
 10
5.22040000000001
 20
3.010000000000002
 30
0
 11
5.23120000000001
 21
3.010000000000002
 31
0
  0
LINE
  8
0
 62
7
 10
5.23120000000001
 20
3.010000000000002
 30
0
 11
5.239300000000011
 21
3.007000000000002
 31
0
  0
LINE
  8
0
 62
7
 10
5.239300000000011
 20
3.007000000000002
 30
0
 11
5.244700000000011
 21
3.001000000000002
 31
0
  0
LINE
  8
0
 62
7
 10
5.244700000000011
 20
3.001000000000002
 30
0
 11
5.25010000000001
 21
2.992000000000003
 31
0
  0
LINE
  8
0
 62
7
 10
5.25010000000001
 20
2.992000000000003
 30
0
 11
5.25010000000001
 21
2.980000000000002
 31
0
  0
LINE
  8
0
 62
7
 10
5.25010000000001
 20
2.980000000000002
 30
0
 11
5.247400000000011
 21
2.974000000000002
 31
0
  0
LINE
  8
0
 62
7
 10
5.247400000000011
 20
2.974000000000002
 30
0
 11
5.239300000000011
 21
2.965000000000003
 31
0
  0
LINE
  8
0
 62
7
 10
5.239300000000011
 20
2.965000000000003
 30
0
 11
5.23120000000001
 21
2.962000000000002
 31
0
  0
LINE
  8
0
 62
7
 10
5.23120000000001
 20
2.962000000000002
 30
0
 11
5.22040000000001
 21
2.962000000000002
 31
0
  0
LINE
  8
0
 62
7
 10
5.22040000000001
 20
2.962000000000002
 30
0
 11
5.21230000000001
 21
2.965000000000003
 31
0
  0
LINE
  8
0
 62
7
 10
5.21230000000001
 20
2.965000000000003
 30
0
 11
5.204200000000011
 21
2.974000000000002
 31
0
  0
LINE
  8
0
 62
7
 10
5.204200000000011
 20
2.974000000000002
 30
0
 11
5.20150000000001
 21
2.980000000000002
 31
0
  0
LINE
  8
0
 62
7
 10
5.20150000000001
 20
2.980000000000002
 30
0
 11
5.20150000000001
 21
2.992000000000003
 31
0
  0
LINE
  8
0
 62
7
 10
5.20150000000001
 20
2.992000000000003
 30
0
 11
5.20690000000001
 21
3.001000000000002
 31
0
  0
LINE
  8
0
 62
7
 10
5.20690000000001
 20
3.001000000000002
 30
0
 11
5.21230000000001
 21
3.007000000000002
 31
0
  0
LINE
  8
0
 62
7
 10
5.21230000000001
 20
3.007000000000002
 30
0
 11
5.22040000000001
 21
3.010000000000002
 31
0
  0
LINE
  8
0
 62
7
 10
5.22040000000001
 20
2.962000000000002
 30
0
 11
5.20690000000001
 21
2.956000000000002
 31
0
  0
LINE
  8
0
 62
7
 10
5.20690000000001
 20
2.956000000000002
 30
0
 11
5.198800000000009
 21
2.947000000000003
 31
0
  0
LINE
  8
0
 62
7
 10
5.198800000000009
 20
2.947000000000003
 30
0
 11
5.19340000000001
 21
2.935000000000002
 31
0
  0
LINE
  8
0
 62
7
 10
5.19340000000001
 20
2.935000000000002
 30
0
 11
5.19340000000001
 21
2.917000000000002
 31
0
  0
LINE
  8
0
 62
7
 10
5.19340000000001
 20
2.917000000000002
 30
0
 11
5.198800000000009
 21
2.905000000000002
 31
0
  0
LINE
  8
0
 62
7
 10
5.198800000000009
 20
2.905000000000002
 30
0
 11
5.20690000000001
 21
2.896000000000002
 31
0
  0
LINE
  8
0
 62
7
 10
5.20690000000001
 20
2.896000000000002
 30
0
 11
5.21770000000001
 21
2.890000000000002
 31
0
  0
LINE
  8
0
 62
7
 10
5.21770000000001
 20
2.890000000000002
 30
0
 11
5.233900000000011
 21
2.890000000000002
 31
0
  0
LINE
  8
0
 62
7
 10
5.233900000000011
 20
2.890000000000002
 30
0
 11
5.244700000000011
 21
2.896000000000002
 31
0
  0
LINE
  8
0
 62
7
 10
5.244700000000011
 20
2.896000000000002
 30
0
 11
5.252800000000011
 21
2.905000000000002
 31
0
  0
LINE
  8
0
 62
7
 10
5.252800000000011
 20
2.905000000000002
 30
0
 11
5.25820000000001
 21
2.917000000000002
 31
0
  0
LINE
  8
0
 62
7
 10
5.25820000000001
 20
2.917000000000002
 30
0
 11
5.25820000000001
 21
2.935000000000002
 31
0
  0
LINE
  8
0
 62
7
 10
5.25820000000001
 20
2.935000000000002
 30
0
 11
5.252800000000011
 21
2.947000000000003
 31
0
  0
LINE
  8
0
 62
7
 10
5.252800000000011
 20
2.947000000000003
 30
0
 11
5.244700000000011
 21
2.956000000000002
 31
0
  0
LINE
  8
0
 62
7
 10
5.244700000000011
 20
2.956000000000002
 30
0
 11
5.23120000000001
 21
2.962000000000002
 31
0
  0
LINE
  8
0
 62
7
 10
5.301400000000012
 20
2.890000000000002
 30
0
 11
5.301400000000012
 21
3.010000000000002
 31
0
  0
LINE
  8
0
 62
7
 10
5.301400000000012
 20
3.010000000000002
 30
0
 11
5.35270000000001
 21
3.010000000000002
 31
0
  0
LINE
  8
0
 62
7
 10
5.35270000000001
 20
3.010000000000002
 30
0
 11
5.363500000000012
 21
3.007000000000002
 31
0
  0
LINE
  8
0
 62
7
 10
5.363500000000012
 20
3.007000000000002
 30
0
 11
5.37160000000001
 21
3.001000000000002
 31
0
  0
LINE
  8
0
 62
7
 10
5.37160000000001
 20
3.001000000000002
 30
0
 11
5.374300000000011
 21
2.995000000000003
 31
0
  0
LINE
  8
0
 62
7
 10
5.374300000000011
 20
2.995000000000003
 30
0
 11
5.377000000000011
 21
2.986000000000002
 31
0
  0
LINE
  8
0
 62
7
 10
5.377000000000011
 20
2.986000000000002
 30
0
 11
5.377000000000011
 21
2.974000000000002
 31
0
  0
LINE
  8
0
 62
7
 10
5.377000000000011
 20
2.974000000000002
 30
0
 11
5.374300000000011
 21
2.965000000000003
 31
0
  0
LINE
  8
0
 62
7
 10
5.374300000000011
 20
2.965000000000003
 30
0
 11
5.37160000000001
 21
2.959000000000002
 31
0
  0
LINE
  8
0
 62
7
 10
5.37160000000001
 20
2.959000000000002
 30
0
 11
5.363500000000012
 21
2.953000000000002
 31
0
  0
LINE
  8
0
 62
7
 10
5.363500000000012
 20
2.953000000000002
 30
0
 11
5.35270000000001
 21
2.950000000000003
 31
0
  0
LINE
  8
0
 62
7
 10
5.35270000000001
 20
2.950000000000003
 30
0
 11
5.34460000000001
 21
2.950000000000003
 31
0
  0
LINE
  8
0
 62
7
 10
5.34460000000001
 20
2.950000000000003
 30
0
 11
5.377000000000011
 21
2.890000000000002
 31
0
  0
LINE
  8
0
 62
7
 10
5.34460000000001
 20
2.950000000000003
 30
0
 11
5.301400000000012
 21
2.950000000000003
 31
0
  0
LINE
  8
0
 62
7
 10
5.398600000000011
 20
2.938000000000002
 30
0
 11
5.401300000000011
 21
2.950000000000003
 31
0
  0
LINE
  8
0
 62
7
 10
5.401300000000011
 20
2.950000000000003
 30
0
 11
5.406700000000011
 21
2.959000000000002
 31
0
  0
LINE
  8
0
 62
7
 10
5.406700000000011
 20
2.959000000000002
 30
0
 11
5.41480000000001
 21
2.965000000000003
 31
0
  0
LINE
  8
0
 62
7
 10
5.41480000000001
 20
2.965000000000003
 30
0
 11
5.422900000000011
 21
2.968000000000002
 31
0
  0
LINE
  8
0
 62
7
 10
5.422900000000011
 20
2.968000000000002
 30
0
 11
5.439100000000011
 21
2.968000000000002
 31
0
  0
LINE
  8
0
 62
7
 10
5.439100000000011
 20
2.968000000000002
 30
0
 11
5.447200000000011
 21
2.965000000000003
 31
0
  0
LINE
  8
0
 62
7
 10
5.447200000000011
 20
2.965000000000003
 30
0
 11
5.455300000000011
 21
2.959000000000002
 31
0
  0
LINE
  8
0
 62
7
 10
5.455300000000011
 20
2.959000000000002
 30
0
 11
5.460700000000011
 21
2.950000000000003
 31
0
  0
LINE
  8
0
 62
7
 10
5.460700000000011
 20
2.950000000000003
 30
0
 11
5.463400000000011
 21
2.938000000000002
 31
0
  0
LINE
  8
0
 62
7
 10
5.463400000000011
 20
2.938000000000002
 30
0
 11
5.463400000000011
 21
2.920000000000003
 31
0
  0
LINE
  8
0
 62
7
 10
5.463400000000011
 20
2.920000000000003
 30
0
 11
5.460700000000011
 21
2.908000000000002
 31
0
  0
LINE
  8
0
 62
7
 10
5.460700000000011
 20
2.908000000000002
 30
0
 11
5.455300000000011
 21
2.899000000000002
 31
0
  0
LINE
  8
0
 62
7
 10
5.455300000000011
 20
2.899000000000002
 30
0
 11
5.447200000000011
 21
2.893000000000002
 31
0
  0
LINE
  8
0
 62
7
 10
5.447200000000011
 20
2.893000000000002
 30
0
 11
5.439100000000011
 21
2.890000000000002
 31
0
  0
LINE
  8
0
 62
7
 10
5.439100000000011
 20
2.890000000000002
 30
0
 11
5.422900000000011
 21
2.890000000000002
 31
0
  0
LINE
  8
0
 62
7
 10
5.422900000000011
 20
2.890000000000002
 30
0
 11
5.41480000000001
 21
2.893000000000002
 31
0
  0
LINE
  8
0
 62
7
 10
5.41480000000001
 20
2.893000000000002
 30
0
 11
5.406700000000011
 21
2.899000000000002
 31
0
  0
LINE
  8
0
 62
7
 10
5.406700000000011
 20
2.899000000000002
 30
0
 11
5.401300000000011
 21
2.908000000000002
 31
0
  0
LINE
  8
0
 62
7
 10
5.401300000000011
 20
2.908000000000002
 30
0
 11
5.398600000000011
 21
2.920000000000003
 31
0
  0
LINE
  8
0
 62
7
 10
5.398600000000011
 20
2.920000000000003
 30
0
 11
5.398600000000011
 21
2.938000000000002
 31
0
  0
LINE
  8
0
 62
7
 10
5.398600000000011
 20
2.980000000000002
 30
0
 11
5.401300000000011
 21
2.992000000000003
 31
0
  0
LINE
  8
0
 62
7
 10
5.401300000000011
 20
2.992000000000003
 30
0
 11
5.406700000000011
 21
3.001000000000002
 31
0
  0
LINE
  8
0
 62
7
 10
5.406700000000011
 20
3.001000000000002
 30
0
 11
5.41480000000001
 21
3.007000000000002
 31
0
  0
LINE
  8
0
 62
7
 10
5.41480000000001
 20
3.007000000000002
 30
0
 11
5.422900000000011
 21
3.010000000000002
 31
0
  0
LINE
  8
0
 62
7
 10
5.422900000000011
 20
3.010000000000002
 30
0
 11
5.439100000000011
 21
3.010000000000002
 31
0
  0
LINE
  8
0
 62
7
 10
5.439100000000011
 20
3.010000000000002
 30
0
 11
5.447200000000011
 21
3.007000000000002
 31
0
  0
LINE
  8
0
 62
7
 10
5.447200000000011
 20
3.007000000000002
 30
0
 11
5.455300000000011
 21
3.001000000000002
 31
0
  0
LINE
  8
0
 62
7
 10
5.455300000000011
 20
3.001000000000002
 30
0
 11
5.460700000000011
 21
2.992000000000003
 31
0
  0
LINE
  8
0
 62
7
 10
5.398600000000011
 20
2.938000000000002
 30
0
 11
5.398600000000011
 21
2.980000000000002
 31
0
  0
LINE
  8
0
 62
7
 10
7.17500000000001
 20
2.890000000000002
 30
0
 11
7.17500000000001
 21
2.990000000000002
 31
0
  0
LINE
  8
0
 62
7
 10
7.17500000000001
 20
2.990000000000002
 30
0
 11
7.238000000000011
 21
2.890000000000002
 31
0
  0
LINE
  8
0
 62
7
 10
7.238000000000011
 20
2.890000000000002
 30
0
 11
7.238000000000011
 21
2.990000000000002
 31
0
  0
LINE
  8
0
 62
7
 10
7.31900000000001
 20
2.890000000000002
 30
0
 11
7.265000000000011
 21
2.890000000000002
 31
0
  0
LINE
  8
0
 62
7
 10
7.265000000000011
 20
2.890000000000002
 30
0
 11
7.265000000000011
 21
2.990000000000002
 31
0
  0
LINE
  8
0
 62
7
 10
7.346000000000011
 20
2.940000000000003
 30
0
 11
7.382000000000011
 21
2.940000000000003
 31
0
  0
LINE
  8
0
 62
7
 10
7.382000000000011
 20
2.940000000000003
 30
0
 11
7.386500000000011
 21
2.940000000000003
 31
0
  0
LINE
  8
0
 62
7
 10
7.386500000000011
 20
2.940000000000003
 30
0
 11
7.395500000000012
 21
2.935000000000002
 31
0
  0
LINE
  8
0
 62
7
 10
7.395500000000012
 20
2.935000000000002
 30
0
 11
7.40000000000001
 21
2.930000000000002
 31
0
  0
LINE
  8
0
 62
7
 10
7.40000000000001
 20
2.930000000000002
 30
0
 11
7.404500000000012
 21
2.920000000000003
 31
0
  0
LINE
  8
0
 62
7
 10
7.404500000000012
 20
2.920000000000003
 30
0
 11
7.404500000000012
 21
2.910000000000002
 31
0
  0
LINE
  8
0
 62
7
 10
7.404500000000012
 20
2.910000000000002
 30
0
 11
7.40000000000001
 21
2.900000000000003
 31
0
  0
LINE
  8
0
 62
7
 10
7.40000000000001
 20
2.900000000000003
 30
0
 11
7.395500000000012
 21
2.895000000000003
 31
0
  0
LINE
  8
0
 62
7
 10
7.395500000000012
 20
2.895000000000003
 30
0
 11
7.386500000000011
 21
2.890000000000002
 31
0
  0
LINE
  8
0
 62
7
 10
7.386500000000011
 20
2.890000000000002
 30
0
 11
7.346000000000011
 21
2.890000000000002
 31
0
  0
LINE
  8
0
 62
7
 10
7.346000000000011
 20
2.890000000000002
 30
0
 11
7.346000000000011
 21
2.940000000000003
 31
0
  0
LINE
  8
0
 62
7
 10
7.346000000000011
 20
2.990000000000002
 30
0
 11
7.379750000000012
 21
2.990000000000002
 31
0
  0
LINE
  8
0
 62
7
 10
7.379750000000012
 20
2.990000000000002
 30
0
 11
7.391000000000012
 21
2.987500000000002
 31
0
  0
LINE
  8
0
 62
7
 10
7.391000000000012
 20
2.987500000000002
 30
0
 11
7.397750000000011
 21
2.980000000000002
 31
0
  0
LINE
  8
0
 62
7
 10
7.397750000000011
 20
2.980000000000002
 30
0
 11
7.40000000000001
 21
2.970000000000002
 31
0
  0
LINE
  8
0
 62
7
 10
7.40000000000001
 20
2.970000000000002
 30
0
 11
7.40000000000001
 21
2.960000000000003
 31
0
  0
LINE
  8
0
 62
7
 10
7.40000000000001
 20
2.960000000000003
 30
0
 11
7.395500000000012
 21
2.950000000000003
 31
0
  0
LINE
  8
0
 62
7
 10
7.395500000000012
 20
2.950000000000003
 30
0
 11
7.388750000000011
 21
2.942500000000003
 31
0
  0
LINE
  8
0
 62
7
 10
7.388750000000011
 20
2.942500000000003
 30
0
 11
7.382000000000011
 21
2.940000000000003
 31
0
  0
LINE
  8
0
 62
7
 10
7.346000000000011
 20
2.940000000000003
 30
0
 11
7.346000000000011
 21
2.990000000000002
 31
0
  0
LINE
  8
0
 62
7
 10
7.546250000000011
 20
2.942500000000003
 30
0
 11
7.539500000000011
 21
2.952500000000002
 31
0
  0
LINE
  8
0
 62
7
 10
7.539500000000011
 20
2.952500000000002
 30
0
 11
7.532750000000011
 21
2.957500000000003
 31
0
  0
LINE
  8
0
 62
7
 10
7.532750000000011
 20
2.957500000000003
 30
0
 11
7.52600000000001
 21
2.960000000000003
 31
0
  0
LINE
  8
0
 62
7
 10
7.52600000000001
 20
2.960000000000003
 30
0
 11
7.517000000000012
 21
2.960000000000003
 31
0
  0
LINE
  8
0
 62
7
 10
7.517000000000012
 20
2.960000000000003
 30
0
 11
7.510250000000011
 21
2.957500000000003
 31
0
  0
LINE
  8
0
 62
7
 10
7.510250000000011
 20
2.957500000000003
 30
0
 11
7.503500000000011
 21
2.952500000000002
 31
0
  0
LINE
  8
0
 62
7
 10
7.503500000000011
 20
2.952500000000002
 30
0
 11
7.496750000000012
 21
2.942500000000003
 31
0
  0
LINE
  8
0
 62
7
 10
7.496750000000012
 20
2.942500000000003
 30
0
 11
7.494500000000011
 21
2.935000000000002
 31
0
  0
LINE
  8
0
 62
7
 10
7.494500000000011
 20
2.935000000000002
 30
0
 11
7.494500000000011
 21
2.915000000000003
 31
0
  0
LINE
  8
0
 62
7
 10
7.494500000000011
 20
2.915000000000003
 30
0
 11
7.496750000000012
 21
2.907500000000002
 31
0
  0
LINE
  8
0
 62
7
 10
7.496750000000012
 20
2.907500000000002
 30
0
 11
7.503500000000011
 21
2.897500000000003
 31
0
  0
LINE
  8
0
 62
7
 10
7.503500000000011
 20
2.897500000000003
 30
0
 11
7.510250000000011
 21
2.892500000000002
 31
0
  0
LINE
  8
0
 62
7
 10
7.510250000000011
 20
2.892500000000002
 30
0
 11
7.517000000000012
 21
2.890000000000002
 31
0
  0
LINE
  8
0
 62
7
 10
7.517000000000012
 20
2.890000000000002
 30
0
 11
7.52600000000001
 21
2.890000000000002
 31
0
  0
LINE
  8
0
 62
7
 10
7.52600000000001
 20
2.890000000000002
 30
0
 11
7.532750000000011
 21
2.892500000000002
 31
0
  0
LINE
  8
0
 62
7
 10
7.532750000000011
 20
2.892500000000002
 30
0
 11
7.539500000000011
 21
2.897500000000003
 31
0
  0
LINE
  8
0
 62
7
 10
7.539500000000011
 20
2.897500000000003
 30
0
 11
7.546250000000011
 21
2.907500000000002
 31
0
  0
LINE
  8
0
 62
7
 10
7.61825000000001
 20
2.935000000000002
 30
0
 11
7.616000000000011
 21
2.942500000000003
 31
0
  0
LINE
  8
0
 62
7
 10
7.616000000000011
 20
2.942500000000003
 30
0
 11
7.609250000000012
 21
2.952500000000002
 31
0
  0
LINE
  8
0
 62
7
 10
7.609250000000012
 20
2.952500000000002
 30
0
 11
7.602500000000011
 21
2.957500000000003
 31
0
  0
LINE
  8
0
 62
7
 10
7.602500000000011
 20
2.957500000000003
 30
0
 11
7.595750000000011
 21
2.960000000000003
 31
0
  0
LINE
  8
0
 62
7
 10
7.595750000000011
 20
2.960000000000003
 30
0
 11
7.586750000000011
 21
2.960000000000003
 31
0
  0
LINE
  8
0
 62
7
 10
7.586750000000011
 20
2.960000000000003
 30
0
 11
7.58000000000001
 21
2.957500000000003
 31
0
  0
LINE
  8
0
 62
7
 10
7.58000000000001
 20
2.957500000000003
 30
0
 11
7.573250000000012
 21
2.952500000000002
 31
0
  0
LINE
  8
0
 62
7
 10
7.573250000000012
 20
2.952500000000002
 30
0
 11
7.566500000000011
 21
2.942500000000003
 31
0
  0
LINE
  8
0
 62
7
 10
7.566500000000011
 20
2.942500000000003
 30
0
 11
7.564250000000012
 21
2.935000000000002
 31
0
  0
LINE
  8
0
 62
7
 10
7.564250000000012
 20
2.935000000000002
 30
0
 11
7.564250000000012
 21
2.915000000000003
 31
0
  0
LINE
  8
0
 62
7
 10
7.564250000000012
 20
2.915000000000003
 30
0
 11
7.566500000000011
 21
2.907500000000002
 31
0
  0
LINE
  8
0
 62
7
 10
7.566500000000011
 20
2.907500000000002
 30
0
 11
7.573250000000012
 21
2.897500000000003
 31
0
  0
LINE
  8
0
 62
7
 10
7.573250000000012
 20
2.897500000000003
 30
0
 11
7.58000000000001
 21
2.892500000000002
 31
0
  0
LINE
  8
0
 62
7
 10
7.58000000000001
 20
2.892500000000002
 30
0
 11
7.586750000000011
 21
2.890000000000002
 31
0
  0
LINE
  8
0
 62
7
 10
7.586750000000011
 20
2.890000000000002
 30
0
 11
7.595750000000011
 21
2.890000000000002
 31
0
  0
LINE
  8
0
 62
7
 10
7.595750000000011
 20
2.890000000000002
 30
0
 11
7.602500000000011
 21
2.892500000000002
 31
0
  0
LINE
  8
0
 62
7
 10
7.602500000000011
 20
2.892500000000002
 30
0
 11
7.609250000000012
 21
2.897500000000003
 31
0
  0
LINE
  8
0
 62
7
 10
7.609250000000012
 20
2.897500000000003
 30
0
 11
7.616000000000011
 21
2.907500000000002
 31
0
  0
LINE
  8
0
 62
7
 10
7.616000000000011
 20
2.907500000000002
 30
0
 11
7.61825000000001
 21
2.915000000000003
 31
0
  0
LINE
  8
0
 62
7
 10
7.61825000000001
 20
2.960000000000003
 30
0
 11
7.61825000000001
 21
2.935000000000002
 31
0
  0
LINE
  8
0
 62
7
 10
7.61825000000001
 20
2.892500000000002
 30
0
 11
7.620500000000011
 21
2.890000000000002
 31
0
  0
LINE
  8
0
 62
7
 10
7.620500000000011
 20
2.890000000000002
 30
0
 11
7.622750000000011
 21
2.890000000000002
 31
0
  0
LINE
  8
0
 62
7
 10
7.61825000000001
 20
2.915000000000003
 30
0
 11
7.61825000000001
 21
2.892500000000002
 31
0
  0
LINE
  8
0
 62
7
 10
7.61825000000001
 20
2.935000000000002
 30
0
 11
7.61825000000001
 21
2.915000000000003
 31
0
  0
LINE
  8
0
 62
7
 10
7.640750000000011
 20
2.890000000000002
 30
0
 11
7.640750000000011
 21
2.892500000000002
 31
0
  0
LINE
  8
0
 62
7
 10
7.640750000000011
 20
2.892500000000002
 30
0
 11
7.643000000000011
 21
2.892500000000002
 31
0
  0
LINE
  8
0
 62
7
 10
7.643000000000011
 20
2.892500000000002
 30
0
 11
7.643000000000011
 21
2.890000000000002
 31
0
  0
LINE
  8
0
 62
7
 10
7.643000000000011
 20
2.890000000000002
 30
0
 11
7.640750000000011
 21
2.890000000000002
 31
0
  0
LINE
  8
0
 62
7
 10
7.766750000000012
 20
2.990000000000002
 30
0
 11
7.775750000000011
 21
2.990000000000002
 31
0
  0
LINE
  8
0
 62
7
 10
7.775750000000011
 20
2.990000000000002
 30
0
 11
7.78250000000001
 21
2.987500000000002
 31
0
  0
LINE
  8
0
 62
7
 10
7.78250000000001
 20
2.987500000000002
 30
0
 11
7.787000000000011
 21
2.982500000000003
 31
0
  0
LINE
  8
0
 62
7
 10
7.787000000000011
 20
2.982500000000003
 30
0
 11
7.791500000000011
 21
2.975000000000003
 31
0
  0
LINE
  8
0
 62
7
 10
7.791500000000011
 20
2.975000000000003
 30
0
 11
7.791500000000011
 21
2.965000000000003
 31
0
  0
LINE
  8
0
 62
7
 10
7.791500000000011
 20
2.965000000000003
 30
0
 11
7.789250000000012
 21
2.960000000000003
 31
0
  0
LINE
  8
0
 62
7
 10
7.789250000000012
 20
2.960000000000003
 30
0
 11
7.78250000000001
 21
2.952500000000002
 31
0
  0
LINE
  8
0
 62
7
 10
7.78250000000001
 20
2.952500000000002
 30
0
 11
7.775750000000011
 21
2.950000000000003
 31
0
  0
LINE
  8
0
 62
7
 10
7.775750000000011
 20
2.950000000000003
 30
0
 11
7.766750000000012
 21
2.950000000000003
 31
0
  0
LINE
  8
0
 62
7
 10
7.766750000000012
 20
2.950000000000003
 30
0
 11
7.760000000000011
 21
2.952500000000002
 31
0
  0
LINE
  8
0
 62
7
 10
7.760000000000011
 20
2.952500000000002
 30
0
 11
7.753250000000012
 21
2.960000000000003
 31
0
  0
LINE
  8
0
 62
7
 10
7.753250000000012
 20
2.960000000000003
 30
0
 11
7.751000000000011
 21
2.965000000000003
 31
0
  0
LINE
  8
0
 62
7
 10
7.751000000000011
 20
2.965000000000003
 30
0
 11
7.751000000000011
 21
2.975000000000003
 31
0
  0
LINE
  8
0
 62
7
 10
7.751000000000011
 20
2.975000000000003
 30
0
 11
7.755500000000011
 21
2.982500000000003
 31
0
  0
LINE
  8
0
 62
7
 10
7.755500000000011
 20
2.982500000000003
 30
0
 11
7.760000000000011
 21
2.987500000000002
 31
0
  0
LINE
  8
0
 62
7
 10
7.760000000000011
 20
2.987500000000002
 30
0
 11
7.766750000000012
 21
2.990000000000002
 31
0
  0
LINE
  8
0
 62
7
 10
7.766750000000012
 20
2.950000000000003
 30
0
 11
7.755500000000011
 21
2.945000000000003
 31
0
  0
LINE
  8
0
 62
7
 10
7.755500000000011
 20
2.945000000000003
 30
0
 11
7.74875000000001
 21
2.937500000000003
 31
0
  0
LINE
  8
0
 62
7
 10
7.74875000000001
 20
2.937500000000003
 30
0
 11
7.744250000000012
 21
2.927500000000002
 31
0
  0
LINE
  8
0
 62
7
 10
7.744250000000012
 20
2.927500000000002
 30
0
 11
7.744250000000012
 21
2.912500000000003
 31
0
  0
LINE
  8
0
 62
7
 10
7.744250000000012
 20
2.912500000000003
 30
0
 11
7.74875000000001
 21
2.902500000000003
 31
0
  0
LINE
  8
0
 62
7
 10
7.74875000000001
 20
2.902500000000003
 30
0
 11
7.755500000000011
 21
2.895000000000003
 31
0
  0
LINE
  8
0
 62
7
 10
7.755500000000011
 20
2.895000000000003
 30
0
 11
7.764500000000012
 21
2.890000000000002
 31
0
  0
LINE
  8
0
 62
7
 10
7.764500000000012
 20
2.890000000000002
 30
0
 11
7.778000000000012
 21
2.890000000000002
 31
0
  0
LINE
  8
0
 62
7
 10
7.778000000000012
 20
2.890000000000002
 30
0
 11
7.787000000000011
 21
2.895000000000003
 31
0
  0
LINE
  8
0
 62
7
 10
7.787000000000011
 20
2.895000000000003
 30
0
 11
7.79375000000001
 21
2.902500000000003
 31
0
  0
LINE
  8
0
 62
7
 10
7.79375000000001
 20
2.902500000000003
 30
0
 11
7.798250000000012
 21
2.912500000000003
 31
0
  0
LINE
  8
0
 62
7
 10
7.798250000000012
 20
2.912500000000003
 30
0
 11
7.798250000000012
 21
2.927500000000002
 31
0
  0
LINE
  8
0
 62
7
 10
7.798250000000012
 20
2.927500000000002
 30
0
 11
7.79375000000001
 21
2.937500000000003
 31
0
  0
LINE
  8
0
 62
7
 10
7.79375000000001
 20
2.937500000000003
 30
0
 11
7.787000000000011
 21
2.945000000000003
 31
0
  0
LINE
  8
0
 62
7
 10
7.787000000000011
 20
2.945000000000003
 30
0
 11
7.775750000000011
 21
2.950000000000003
 31
0
  0
LINE
  8
0
 62
7
 10
7.888250000000011
 20
2.950000000000003
 30
0
 11
7.886000000000012
 21
2.940000000000003
 31
0
  0
LINE
  8
0
 62
7
 10
7.886000000000012
 20
2.940000000000003
 30
0
 11
7.88150000000001
 21
2.932500000000003
 31
0
  0
LINE
  8
0
 62
7
 10
7.88150000000001
 20
2.932500000000003
 30
0
 11
7.874750000000012
 21
2.927500000000002
 31
0
  0
LINE
  8
0
 62
7
 10
7.874750000000012
 20
2.927500000000002
 30
0
 11
7.868000000000011
 21
2.925000000000002
 31
0
  0
LINE
  8
0
 62
7
 10
7.868000000000011
 20
2.925000000000002
 30
0
 11
7.854500000000012
 21
2.925000000000002
 31
0
  0
LINE
  8
0
 62
7
 10
7.854500000000012
 20
2.925000000000002
 30
0
 11
7.847750000000011
 21
2.927500000000002
 31
0
  0
LINE
  8
0
 62
7
 10
7.847750000000011
 20
2.927500000000002
 30
0
 11
7.841000000000012
 21
2.932500000000003
 31
0
  0
LINE
  8
0
 62
7
 10
7.841000000000012
 20
2.932500000000003
 30
0
 11
7.836500000000012
 21
2.940000000000003
 31
0
  0
LINE
  8
0
 62
7
 10
7.836500000000012
 20
2.940000000000003
 30
0
 11
7.834250000000011
 21
2.950000000000003
 31
0
  0
LINE
  8
0
 62
7
 10
7.834250000000011
 20
2.950000000000003
 30
0
 11
7.834250000000011
 21
2.965000000000003
 31
0
  0
LINE
  8
0
 62
7
 10
7.834250000000011
 20
2.965000000000003
 30
0
 11
7.836500000000012
 21
2.975000000000003
 31
0
  0
LINE
  8
0
 62
7
 10
7.836500000000012
 20
2.975000000000003
 30
0
 11
7.841000000000012
 21
2.982500000000003
 31
0
  0
LINE
  8
0
 62
7
 10
7.841000000000012
 20
2.982500000000003
 30
0
 11
7.847750000000011
 21
2.987500000000002
 31
0
  0
LINE
  8
0
 62
7
 10
7.847750000000011
 20
2.987500000000002
 30
0
 11
7.854500000000012
 21
2.990000000000002
 31
0
  0
LINE
  8
0
 62
7
 10
7.854500000000012
 20
2.990000000000002
 30
0
 11
7.868000000000011
 21
2.990000000000002
 31
0
  0
LINE
  8
0
 62
7
 10
7.868000000000011
 20
2.990000000000002
 30
0
 11
7.874750000000012
 21
2.987500000000002
 31
0
  0
LINE
  8
0
 62
7
 10
7.874750000000012
 20
2.987500000000002
 30
0
 11
7.88150000000001
 21
2.982500000000003
 31
0
  0
LINE
  8
0
 62
7
 10
7.88150000000001
 20
2.982500000000003
 30
0
 11
7.886000000000012
 21
2.975000000000003
 31
0
  0
LINE
  8
0
 62
7
 10
7.886000000000012
 20
2.975000000000003
 30
0
 11
7.888250000000011
 21
2.965000000000003
 31
0
  0
LINE
  8
0
 62
7
 10
7.888250000000011
 20
2.965000000000003
 30
0
 11
7.888250000000011
 21
2.950000000000003
 31
0
  0
LINE
  8
0
 62
7
 10
7.888250000000011
 20
2.915000000000003
 30
0
 11
7.886000000000012
 21
2.905000000000002
 31
0
  0
LINE
  8
0
 62
7
 10
7.886000000000012
 20
2.905000000000002
 30
0
 11
7.88150000000001
 21
2.897500000000003
 31
0
  0
LINE
  8
0
 62
7
 10
7.88150000000001
 20
2.897500000000003
 30
0
 11
7.874750000000012
 21
2.892500000000002
 31
0
  0
LINE
  8
0
 62
7
 10
7.874750000000012
 20
2.892500000000002
 30
0
 11
7.868000000000011
 21
2.890000000000002
 31
0
  0
LINE
  8
0
 62
7
 10
7.868000000000011
 20
2.890000000000002
 30
0
 11
7.854500000000012
 21
2.890000000000002
 31
0
  0
LINE
  8
0
 62
7
 10
7.854500000000012
 20
2.890000000000002
 30
0
 11
7.847750000000011
 21
2.892500000000002
 31
0
  0
LINE
  8
0
 62
7
 10
7.847750000000011
 20
2.892500000000002
 30
0
 11
7.841000000000012
 21
2.897500000000003
 31
0
  0
LINE
  8
0
 62
7
 10
7.841000000000012
 20
2.897500000000003
 30
0
 11
7.836500000000012
 21
2.905000000000002
 31
0
  0
LINE
  8
0
 62
7
 10
7.888250000000011
 20
2.950000000000003
 30
0
 11
7.888250000000011
 21
2.915000000000003
 31
0
  0
LINE
  8
0
 62
7
 10
8.03900000000001
 20
2.942500000000003
 30
0
 11
8.03225000000001
 21
2.952500000000002
 31
0
  0
LINE
  8
0
 62
7
 10
8.03225000000001
 20
2.952500000000002
 30
0
 11
8.025500000000012
 21
2.957500000000003
 31
0
  0
LINE
  8
0
 62
7
 10
8.025500000000012
 20
2.957500000000003
 30
0
 11
8.01875000000001
 21
2.960000000000003
 31
0
  0
LINE
  8
0
 62
7
 10
8.01875000000001
 20
2.960000000000003
 30
0
 11
8.009750000000011
 21
2.960000000000003
 31
0
  0
LINE
  8
0
 62
7
 10
8.009750000000011
 20
2.960000000000003
 30
0
 11
8.003000000000013
 21
2.957500000000003
 31
0
  0
LINE
  8
0
 62
7
 10
8.003000000000013
 20
2.957500000000003
 30
0
 11
7.996250000000011
 21
2.952500000000002
 31
0
  0
LINE
  8
0
 62
7
 10
7.996250000000011
 20
2.952500000000002
 30
0
 11
7.989500000000011
 21
2.942500000000003
 31
0
  0
LINE
  8
0
 62
7
 10
7.989500000000011
 20
2.942500000000003
 30
0
 11
7.987250000000012
 21
2.935000000000002
 31
0
  0
LINE
  8
0
 62
7
 10
7.987250000000012
 20
2.935000000000002
 30
0
 11
7.987250000000012
 21
2.915000000000003
 31
0
  0
LINE
  8
0
 62
7
 10
7.987250000000012
 20
2.915000000000003
 30
0
 11
7.989500000000011
 21
2.907500000000002
 31
0
  0
LINE
  8
0
 62
7
 10
7.989500000000011
 20
2.907500000000002
 30
0
 11
7.996250000000011
 21
2.897500000000003
 31
0
  0
LINE
  8
0
 62
7
 10
7.996250000000011
 20
2.897500000000003
 30
0
 11
8.003000000000013
 21
2.892500000000002
 31
0
  0
LINE
  8
0
 62
7
 10
8.003000000000013
 20
2.892500000000002
 30
0
 11
8.009750000000011
 21
2.890000000000002
 31
0
  0
LINE
  8
0
 62
7
 10
8.009750000000011
 20
2.890000000000002
 30
0
 11
8.01875000000001
 21
2.890000000000002
 31
0
  0
LINE
  8
0
 62
7
 10
8.01875000000001
 20
2.890000000000002
 30
0
 11
8.025500000000012
 21
2.892500000000002
 31
0
  0
LINE
  8
0
 62
7
 10
8.025500000000012
 20
2.892500000000002
 30
0
 11
8.03225000000001
 21
2.897500000000003
 31
0
  0
LINE
  8
0
 62
7
 10
8.03225000000001
 20
2.897500000000003
 30
0
 11
8.03900000000001
 21
2.907500000000002
 31
0
  0
LINE
  8
0
 62
7
 10
8.097500000000011
 20
2.935000000000002
 30
0
 11
8.097500000000011
 21
2.890000000000002
 31
0
  0
LINE
  8
0
 62
7
 10
8.057000000000011
 20
2.960000000000003
 30
0
 11
8.057000000000011
 21
2.935000000000002
 31
0
  0
LINE
  8
0
 62
7
 10
8.057000000000011
 20
2.890000000000002
 30
0
 11
8.057000000000011
 21
2.935000000000002
 31
0
  0
LINE
  8
0
 62
7
 10
8.057000000000011
 20
2.935000000000002
 30
0
 11
8.059250000000011
 21
2.947500000000002
 31
0
  0
LINE
  8
0
 62
7
 10
8.059250000000011
 20
2.947500000000002
 30
0
 11
8.061500000000011
 21
2.952500000000002
 31
0
  0
LINE
  8
0
 62
7
 10
8.061500000000011
 20
2.952500000000002
 30
0
 11
8.066000000000011
 21
2.957500000000003
 31
0
  0
LINE
  8
0
 62
7
 10
8.066000000000011
 20
2.957500000000003
 30
0
 11
8.072750000000012
 21
2.960000000000003
 31
0
  0
LINE
  8
0
 62
7
 10
8.072750000000012
 20
2.960000000000003
 30
0
 11
8.081750000000012
 21
2.960000000000003
 31
0
  0
LINE
  8
0
 62
7
 10
8.081750000000012
 20
2.960000000000003
 30
0
 11
8.08850000000001
 21
2.957500000000003
 31
0
  0
LINE
  8
0
 62
7
 10
8.08850000000001
 20
2.957500000000003
 30
0
 11
8.093000000000011
 21
2.952500000000002
 31
0
  0
LINE
  8
0
 62
7
 10
8.093000000000011
 20
2.952500000000002
 30
0
 11
8.095250000000011
 21
2.947500000000002
 31
0
  0
LINE
  8
0
 62
7
 10
8.095250000000011
 20
2.947500000000002
 30
0
 11
8.097500000000011
 21
2.935000000000002
 31
0
  0
LINE
  8
0
 62
7
 10
8.097500000000011
 20
2.935000000000002
 30
0
 11
8.099750000000013
 21
2.947500000000002
 31
0
  0
LINE
  8
0
 62
7
 10
8.099750000000013
 20
2.947500000000002
 30
0
 11
8.102000000000011
 21
2.952500000000002
 31
0
  0
LINE
  8
0
 62
7
 10
8.102000000000011
 20
2.952500000000002
 30
0
 11
8.106500000000009
 21
2.957500000000003
 31
0
  0
LINE
  8
0
 62
7
 10
8.106500000000009
 20
2.957500000000003
 30
0
 11
8.113250000000011
 21
2.960000000000003
 31
0
  0
LINE
  8
0
 62
7
 10
8.113250000000011
 20
2.960000000000003
 30
0
 11
8.122250000000012
 21
2.960000000000003
 31
0
  0
LINE
  8
0
 62
7
 10
8.122250000000012
 20
2.960000000000003
 30
0
 11
8.12900000000001
 21
2.957500000000003
 31
0
  0
LINE
  8
0
 62
7
 10
8.13350000000001
 20
2.952500000000002
 30
0
 11
8.12900000000001
 21
2.957500000000003
 31
0
  0
LINE
  8
0
 62
7
 10
8.12900000000001
 20
2.957500000000003
 30
0
 11
8.13350000000001
 21
2.952500000000002
 31
0
  0
LINE
  8
0
 62
7
 10
8.13350000000001
 20
2.952500000000002
 30
0
 11
8.135750000000012
 21
2.947500000000002
 31
0
  0
LINE
  8
0
 62
7
 10
8.135750000000012
 20
2.947500000000002
 30
0
 11
8.138000000000011
 21
2.935000000000002
 31
0
  0
LINE
  8
0
 62
7
 10
8.138000000000011
 20
2.935000000000002
 30
0
 11
8.138000000000011
 21
2.890000000000002
 31
0
  0
ARC
  8
0
 62
7
 10
5.544832663975912
 20
3.925167336024102
 30
0
 40
0.5029999999999921
 50
89.98093906825751
 51
180.019060931507
  0
ARC
  8
0
 62
7
 10
6.420167336024102
 20
3.925167336024092
 30
0
 40
0.5030000000000019
 50
359.9809390682571
 51
90.01906093100132
  0
CIRCLE
  8
0
 62
7
 10
5.041832691810263
 20
3.250000000000002
 30
0
 40
0.05999999999999961
  0
DIMENSION
  8
0
  6
CONTINUOUS
 62
7
  2
*D0
  3
DMST_1
 10
8.008971036308409
 20
4.930000000000001
 30
0
 11
8.008971036308409
 21
4.15486341977516
 31
0
 12
0
 22
0
 32
0
 70
0
 13
7.600000000000012
 23
3.35
 33
0
 14
7.600000000000012
 24
4.930000000000001
 34
0
 50
90
 53
0
  0
DIMENSION
  8
0
  6
CONTINUOUS
 62
7
  2
*D1
  3
DMST_1
 10
7.425000000000012
 20
5.809194829813201
 30
0
 11
6.000954979986381
 21
5.809194829813201
 31
0
 12
0
 22
0
 32
0
 70
0
 13
4.540000000000012
 23
5.449999999999999
 33
0
 14
7.425000000000011
 24
5.449999999999999
 34
0
 53
0
  0
DIMENSION
  8
0
  6
CONTINUOUS
 62
7
  2
*D2
  3
DMST_1
 10
3.99293892366435
 20
4.930000000000001
 30
0
 11
3.99293892366435
 21
4.10922669122239
 31
0
 12
0
 22
0
 32
0
 70
0
 13
4.365000000000012
 23
3.25
 33
0
 14
4.365000000000012
 24
4.930000000000001
 34
0
 50
90
 53
0
  0
DIMENSION
  8
0
  6
CONTINUOUS
 62
7
  2
*D3
  3
DMST_2
 10
4.540000000000012
 20
11.5480134453245
 30
0
 11
5.909681522880831
 21
11.5480134453245
 31
0
 12
0
 22
0
 32
0
 70
0
 13
7.425000000000011
 23
11.2
 33
0
 14
4.540000000000012
 24
11.2
 34
0
 53
0
  0
INSERT
  8
0
  2
*D4
 10
0
 20
0
 30
0
  0
ENDSEC
  0
EOF
