  0
SECTION
  2
HEADER
  9
$ACADVER
  1
AC1009
  9
$INSBASE
 10
0
 20
0
  9
$EXTMIN
 10
0.525
 20
2.889999999999999
  9
$EXTMAX
 10
8.25
 20
11.5239381150287
  9
$LIMMIN
 10
0.525
 20
2.889999999999999
  9
$LIMMAX
 10
8.25
 20
11.5239381150287
  9
$VIEWCTR
 10
10
 20
10
  9
$VIEWSIZE
 40
10
  9
$SNAPMODE
 70
0
  9
$SNAPUNIT
 10
1
 20
1
  9
$SNAPBASE
 10
0
 20
0
  9
$SNAPANG
 50
0
  9
$SNAPSTYLE
 70
0
  9
$SNAPISOPAIR
 70
0
  9
$GRIDMODE
 70
0
  9
$GRIDUNIT
 10
0
 20
0
  9
$ORTHOMODE
 70
0
  9
$REGENMODE
 70
1
  9
$FILLMODE
 70
1
  9
$QTEXTMODE
 70
0
  9
$DRAGMODE
 70
2
  9
$LTSCALE
 40
1
  9
$OSMODE
 70
0
  9
$ATTMODE
 70
1
  9
$TEXTSIZE
 40
3.5
  9
$TRACEWID
 40
0.5
  9
$TEXTSTYLE
  7
STANDARD
  9
$CLAYER
  8
0
  9
$CELTYPE
  6
BYLAYER
  9
$CECOLOR
 62
256
  9
$DIMSCALE
 40
1
  9
$DIMASZ
 40
0.18
  9
$DIMEXO
 40
0.0625
  9
$DIMDLI
 40
0.38
  9
$DIMRND
 40
0
  9
$DIMDLE
 40
0
  9
$DIMEXE
 40
0.18
  9
$DIMTP
 40
0
  9
$DIMTM
 40
0
  9
$DIMTXT
 40
0.18
  9
$DIMCEN
 40
0.09
  9
$DIMTSZ
 40
0
  9
$DIMTOL
 70
0
  9
$DIMLIM
 70
0
  9
$DIMTIH
 70
1
  9
$DIMTOH
 70
1
  9
$DIMSE1
 70
0
  9
$DIMSE2
 70
0
  9
$DIMTAD
 70
0
  9
$DIMZIN
 70
0
  9
$DIMBLK
  1

  9
$DIMASO
 70
1
  9
$DIMSHO
 70
1
  9
$DIMPOST
  1

  9
$DIMAPOST
  1

  9
$DIMALT
 70
0
  9
$DIMALTD
 70
2
  9
$DIMALTF
 40
25.4
  9
$DIMLFAC
 40
1
  9
$DIMTOFL
 70
0
  9
$DIMTVP
 40
0
  9
$DIMTIX
 70
0
  9
$DIMSOXD
 70
0
  9
$DIMSAH
 70
0
  9
$DIMBLK1
  1

  9
$DIMBLK2
  1

  9
$DIMSTYLE
  2
*UNNAMED
  9
$DIMCLRD
 70
0
  9
$DIMCLRE
 70
0
  9
$DIMCLRT
 70
0
  9
$DIMTFAC
 40
1
  9
$DIMGAP
 40
0.09
  9
$LUNITS
 70
2
  9
$LUPREC
 70
4
  9
$AXISMODE
 70
0
  9
$AXISUNIT
 10
0
 20
0
  9
$SKETCHINC
 40
0.1
  9
$FILLETRAD
 40
2
  9
$AUNITS
 70
0
  9
$AUPREC
 70
0
  9
$MENU
  1
ACAD
  9
$ELEVATION
 40
0
  9
$THICKNESS
 40
0
  9
$VIEWDIR
 10
0
 20
0
 30
1
  9
$LIMCHECK
 70
0
  9
$BLIPMODE
 70
1
  9
$CHAMFERA
 40
0
  9
$CHAMFERB
 40
0
  9
$FASTZOOM
 70
1
  9
$SKPOLY
 70
0
  9
$ANGBASE
 50
0
  9
$ANGDIR
 70
0
  9
$PDMODE
 70
0
  9
$PDSIZE
 40
0
  9
$PLINEWID
 40
0
  9
$COORDS
 70
2
  0
ENDSEC
  0
SECTION
  2
TABLES
  0
TABLE
  2
DIMSTYLE
 70
2
  0
DIMSTYLE
  2
DMST_1
 70
0
  3

  4

  5

  6

  7

 40
1
 41
0.1
 42
0
 43
0.7
 44
0.2
 45
0
 46
0
 47
0
 48
0
140
0.1
141
0
142
0.1
143
25.4
144
1
145
0
146
1
147
0.25
 71
0
 72
0
 73
0
 74
0
 75
0
 76
0
 77
0
 78
9
170
0
171
2
172
0
173
0
174
0
175
0
176
7
177
7
178
7
  0
DIMSTYLE
  2
DMST_2
 70
0
  3

  4

  5

  6

  7

 40
1
 41
0.1
 42
0
 43
0.7
 44
0.2
 45
0
 46
0
 47
0
 48
0
140
0.1
141
0
142
0.1
143
25.4
144
1
145
0
146
1
147
0.2
 71
0
 72
0
 73
0
 74
0
 75
0
 76
0
 77
0
 78
9
170
0
171
2
172
0
173
0
174
0
175
0
176
7
177
7
178
7
  0
ENDTAB
  0
TABLE
  2
LTYPE
 70
9
  0
LTYPE
  2
CONTINUOUS
 70
64
  3
Solid line
 72
65
 73
0
 40
0
  0
LTYPE
  2
BORDER
 70
64
  3
__ __ . __ __ .
 72
65
 73
6
 40
0.3976155710868481
 49
0.1136044488819566
 49
-0.0568022244409783
 49
0.1136044488819566
 49
-0.0568022244409783
 49
0
 49
-0.0568022244409783
  0
LTYPE
  2
CENTER
 70
64
  3
____ _ ____ _
 72
65
 73
4
 40
0.4544177955278264
 49
0.2840111222048915
 49
-0.0568022244409783
 49
0.0568022244409783
 49
-0.0568022244409783
  0
LTYPE
  2
DASHDOT
 70
64
  3
__ . __ . __ .
 72
65
 73
4
 40
0.2272088977639132
 49
0.1136044488819566
 49
-0.0568022244409783
 49
0
 49
-0.0568022244409783
  0
LTYPE
  2
DASHED
 70
64
  3
__ __ __ __ __
 72
65
 73
2
 40
0.1704066733229349
 49
0.1136044488819566
 49
-0.0568022244409783
  0
LTYPE
  2
DIVIDE
 70
64
  3
__ . . __ . . 
 72
65
 73
6
 40
0.2840111222048915
 49
0.1136044488819566
 49
-0.0568022244409783
 49
0
 49
-0.0568022244409783
 49
0
 49
-0.0568022244409783
  0
LTYPE
  2
DOT
 70
64
  3
..............
 72
65
 73
4
 40
0.1136044488819566
 49
0
 49
-0.0568022244409783
 49
0
 49
-0.0568022244409783
  0
LTYPE
  2
HIDDEN
 70
64
  3
_ _ _ _ _ _ _
 72
65
 73
2
 40
0.08520333666146745
 49
0.0568022244409783
 49
-0.02840111222048915
  0
LTYPE
  2
PHANTOM
 70
64
  3
_____ _ _ _____ _ _ 
 72
65
 73
6
 40
0.568022244409783
 49
0.2840111222048915
 49
-0.0568022244409783
 49
0.0568022244409783
 49
-0.0568022244409783
 49
0.0568022244409783
 49
-0.0568022244409783
  0
ENDTAB
  0
TABLE
  2
LAYER
 70
2
  0
LAYER
  2
0
 70
0
 62
7
  6
CONTINUOUS
  0
ENDTAB
  0
TABLE
  2
STYLE
 70
4
  0
STYLE
  2
STANDARD
 70
0
 40
0
 41
1
 50
0
 71
0
 42
3.5
  3
txt
  4

  0
STYLE
  2
SIMPLEX
 70
0
 40
0
 41
1
 50
0
 71
0
 42
3.5
  3
simplex
  4

  0
STYLE
  2
COMPLEX
 70
0
 40
0
 41
1
 50
0
 71
0
 42
3.5
  3
complex
  4

  0
STYLE
  2
ITALIC
 70
0
 40
0
 41
1
 50
0
 71
0
 42
3.5
  3
italic
  4

  0
ENDTAB
  0
TABLE
  2
VIEW
 70
0
  0
ENDTAB
  0
ENDSEC
  0
SECTION
  2
BLOCKS
  0
BLOCK
  8
0
  2
*X0
 70
1
 10
0
 20
0
 30
0
  0
LINE
  8
0
 62
7
  6
DASHED
 10
7.960000000000002
 20
8.278198051533947
 30
0
 11
7.98180194846605
 21
8.299999999999997
 31
0
  0
LINE
  8
0
 62
7
  6
DASHED
 10
7.993933982822015
 20
8.099999999999996
 30
0
 11
8.193933982822013
 21
8.299999999999997
 31
0
  0
LINE
  8
0
 62
7
 10
7.960000000000001
 20
8.172132034355963
 30
0
 11
8.087867965644033
 21
8.299999999999995
 31
0
  0
LINE
  8
0
 62
7
 10
8.099999999999998
 20
8.099999999999996
 30
0
 11
8.200000000000001
 21
8.199999999999999
 31
0
  0
ENDBLK
  8
0
  0
BLOCK
  8
0
  2
*X1
 70
1
 10
0
 20
0
 30
0
  0
LINE
  8
0
 62
7
  6
DASHED
 10
7.959999999999999
 20
11.03591449816148
 30
0
 11
7.97408550183852
 21
11.05
 31
0
  0
LINE
  8
0
 62
7
  6
DASHED
 10
7.986217536194484
 20
10.85
 30
0
 11
8.186217536194484
 21
11.05
 31
0
  0
LINE
  8
0
 62
7
  6
DASHED
 10
8.198349570550448
 20
10.85
 30
0
 11
8.200000000000001
 21
10.85165042944955
 31
0
  0
LINE
  8
0
 62
7
 10
7.960000000000002
 20
10.9298484809835
 30
0
 11
8.0801515190165
 21
11.05
 31
0
  0
LINE
  8
0
 62
7
 10
8.092283553372464
 20
10.85
 30
0
 11
8.199999999999999
 21
10.95771644662753
 31
0
  0
ENDBLK
  8
0
  0
BLOCK
  8
0
  2
*X2
 70
1
 10
0
 20
0
 30
0
  0
LINE
  8
0
 62
7
  6
DASHED
 10
6.140000000000001
 20
10.91297077300919
 30
0
 11
6.277029226990805
 21
11.05
 31
0
  0
LINE
  8
0
 62
7
  6
DASHED
 10
6.28916126134677
 20
10.85
 30
0
 11
6.440000000000001
 21
11.00083873865323
 31
0
  0
LINE
  8
0
 62
7
 10
6.140000000000001
 20
11.01903679018718
 30
0
 11
6.170963209812826
 21
11.05
 31
0
  0
LINE
  8
0
 62
7
 10
6.18309524416879
 20
10.85
 30
0
 11
6.38309524416879
 21
11.05
 31
0
  0
LINE
  8
0
 62
7
 10
6.395227278524754
 20
10.85
 30
0
 11
6.440000000000001
 21
10.89477272147525
 31
0
  0
ENDBLK
  8
0
  0
BLOCK
  8
0
  2
*X3
 70
1
 10
0
 20
0
 30
0
  0
LINE
  8
0
 62
7
  6
DASHED
 10
6.14
 20
8.155254326381659
 30
0
 11
6.284745673618337
 21
8.299999999999997
 31
0
  0
LINE
  8
0
 62
7
  6
DASHED
 10
6.296877707974302
 20
8.099999999999998
 30
0
 11
6.440000000000001
 21
8.243122292025696
 31
0
  0
LINE
  8
0
 62
7
 10
6.140000000000001
 20
8.261320343559641
 30
0
 11
6.178679656440356
 21
8.299999999999997
 31
0
  0
LINE
  8
0
 62
7
 10
6.190811690796318
 20
8.099999999999994
 30
0
 11
6.39081169079632
 21
8.299999999999997
 31
0
  0
LINE
  8
0
 62
7
 10
6.402943725152282
 20
8.099999999999994
 30
0
 11
6.440000000000001
 21
8.137056274847714
 31
0
  0
ENDBLK
  8
0
  0
BLOCK
  8
0
  2
*X4
 70
1
 10
0
 20
0
 30
0
  0
LINE
  8
0
 62
7
 10
7.97408550183852
 20
11.05
 30
0
 11
8.12408550183852
 21
11.2
 31
0
  0
LINE
  8
0
 62
7
 10
8.186217536194484
 20
11.05
 30
0
 11
8.200000000000001
 21
11.06378246380552
 31
0
  0
LINE
  8
0
 62
7
 10
7.960000000000002
 20
11.14198051533946
 30
0
 11
8.018019484660535
 21
11.2
 31
0
  0
LINE
  8
0
 62
7
 10
8.0801515190165
 20
11.05
 30
0
 11
8.199999999999999
 21
11.1698484809835
 31
0
  0
ENDBLK
  8
0
  0
BLOCK
  8
0
  2
*X5
 70
1
 10
0
 20
0
 30
0
  0
LINE
  8
0
 62
7
 10
7.960000000000001
 20
10.82378246380551
 30
0
 11
7.986217536194484
 21
10.85
 31
0
  0
LINE
  8
0
 62
7
 10
7.960000000000001
 20
10.61165042944955
 30
0
 11
8.198349570550448
 21
10.85
 31
0
  0
LINE
  8
0
 62
7
 10
7.960000000000001
 20
10.39951839509358
 30
0
 11
8.200000000000001
 21
10.63951839509359
 31
0
  0
LINE
  8
0
 62
7
 10
7.960000000000001
 20
10.18738636073762
 30
0
 11
8.200000000000001
 21
10.42738636073762
 31
0
  0
LINE
  8
0
 62
7
 10
7.960000000000001
 20
9.975254326381657
 30
0
 11
8.200000000000001
 21
10.21525432638166
 31
0
  0
LINE
  8
0
 62
7
 10
7.960000000000001
 20
9.763122292025693
 30
0
 11
8.200000000000001
 21
10.0031222920257
 31
0
  0
LINE
  8
0
 62
7
 10
7.960000000000001
 20
9.55099025766973
 30
0
 11
8.200000000000001
 21
9.790990257669732
 31
0
  0
LINE
  8
0
 62
7
 10
7.960000000000001
 20
9.338858223313766
 30
0
 11
8.200000000000001
 21
9.578858223313768
 31
0
  0
LINE
  8
0
 62
7
 10
7.960000000000001
 20
9.126726188957802
 30
0
 11
8.200000000000001
 21
9.366726188957804
 31
0
  0
LINE
  8
0
 62
7
 10
7.960000000000001
 20
8.914594154601838
 30
0
 11
8.200000000000001
 21
9.15459415460184
 31
0
  0
LINE
  8
0
 62
7
 10
7.960000000000001
 20
8.702462120245874
 30
0
 11
8.200000000000001
 21
8.942462120245876
 31
0
  0
LINE
  8
0
 62
7
 10
7.960000000000001
 20
8.49033008588991
 30
0
 11
8.200000000000001
 21
8.730330085889912
 31
0
  0
LINE
  8
0
 62
7
 10
7.98180194846605
 20
8.299999999999997
 30
0
 11
8.200000000000001
 21
8.518198051533949
 31
0
  0
LINE
  8
0
 62
7
 10
8.193933982822013
 20
8.299999999999997
 30
0
 11
8.200000000000001
 21
8.306066017177985
 31
0
  0
LINE
  8
0
 62
7
 10
7.960000000000003
 20
10.71771644662753
 30
0
 11
8.092283553372464
 21
10.85
 31
0
  0
LINE
  8
0
 62
7
 10
7.960000000000003
 20
10.50558441227157
 30
0
 11
8.200000000000001
 21
10.74558441227157
 31
0
  0
LINE
  8
0
 62
7
 10
7.960000000000003
 20
10.2934523779156
 30
0
 11
8.200000000000001
 21
10.5334523779156
 31
0
  0
LINE
  8
0
 62
7
 10
7.960000000000003
 20
10.08132034355964
 30
0
 11
8.200000000000001
 21
10.32132034355964
 31
0
  0
LINE
  8
0
 62
7
 10
7.960000000000003
 20
9.869188309203675
 30
0
 11
8.200000000000001
 21
10.10918830920367
 31
0
  0
LINE
  8
0
 62
7
 10
7.960000000000003
 20
9.657056274847712
 30
0
 11
8.200000000000001
 21
9.89705627484771
 31
0
  0
LINE
  8
0
 62
7
 10
7.960000000000003
 20
9.444924240491748
 30
0
 11
8.200000000000001
 21
9.684924240491746
 31
0
  0
LINE
  8
0
 62
7
 10
7.960000000000003
 20
9.232792206135784
 30
0
 11
8.200000000000001
 21
9.472792206135782
 31
0
  0
LINE
  8
0
 62
7
 10
7.960000000000003
 20
9.02066017177982
 30
0
 11
8.200000000000001
 21
9.260660171779818
 31
0
  0
LINE
  8
0
 62
7
 10
7.960000000000003
 20
8.808528137423856
 30
0
 11
8.200000000000001
 21
9.048528137423855
 31
0
  0
LINE
  8
0
 62
7
 10
7.960000000000003
 20
8.596396103067892
 30
0
 11
8.200000000000001
 21
8.836396103067891
 31
0
  0
LINE
  8
0
 62
7
 10
7.960000000000003
 20
8.384264068711929
 30
0
 11
8.200000000000001
 21
8.624264068711927
 31
0
  0
LINE
  8
0
 62
7
 10
8.087867965644033
 20
8.299999999999995
 30
0
 11
8.200000000000001
 21
8.412132034355963
 31
0
  0
ENDBLK
  8
0
  0
BLOCK
  8
0
  2
*X6
 70
1
 10
0
 20
0
 30
0
  0
LINE
  8
0
 62
7
 10
7.96
 20
8.066066017177983
 30
0
 11
7.993933982822015
 21
8.099999999999996
 31
0
  0
LINE
  8
0
 62
7
 10
8.056066017177983
 20
7.949999999999998
 30
0
 11
8.200000000000001
 21
8.093933982822016
 31
0
  0
LINE
  8
0
 62
7
 10
7.960000000000001
 20
7.96
 30
0
 11
8.099999999999998
 21
8.099999999999996
 31
0
  0
LINE
  8
0
 62
7
 10
8.162132034355965
 20
7.949999999999999
 30
0
 11
8.200000000000001
 21
7.987867965644037
 31
0
  0
ENDBLK
  8
0
  0
BLOCK
  8
0
  2
*X7
 70
1
 10
0
 20
0
 30
0
  0
LINE
  8
0
 62
7
  6
DASHED
 10
0.9500000000000002
 20
11.0262716319083
 30
0
 11
0.9737283680917002
 21
11.05
 31
0
  0
LINE
  8
0
 62
7
  6
DASHED
 10
0.985860402447662
 20
10.85
 30
0
 11
1.185860402447664
 21
11.05
 31
0
  0
LINE
  8
0
 62
7
  6
DASHED
 10
1.197992436803626
 20
10.85
 30
0
 11
1.397992436803629
 21
11.05
 31
0
  0
LINE
  8
0
 62
7
  6
DASHED
 10
1.410124471159591
 20
10.85
 30
0
 11
1.610124471159593
 21
11.05
 31
0
  0
LINE
  8
0
 62
7
  6
DASHED
 10
1.622256505515555
 20
10.85
 30
0
 11
1.822256505515557
 21
11.05
 31
0
  0
LINE
  8
0
 62
7
  6
DASHED
 10
1.834388539871519
 20
10.85
 30
0
 11
2.034388539871522
 21
11.05
 31
0
  0
LINE
  8
0
 62
7
  6
DASHED
 10
2.046520574227483
 20
10.85
 30
0
 11
2.246520574227486
 21
11.05
 31
0
  0
LINE
  8
0
 62
7
  6
DASHED
 10
2.258652608583448
 20
10.85
 30
0
 11
2.45865260858345
 21
11.05
 31
0
  0
LINE
  8
0
 62
7
  6
DASHED
 10
2.470784642939412
 20
10.85
 30
0
 11
2.670784642939414
 21
11.05
 31
0
  0
LINE
  8
0
 62
7
  6
DASHED
 10
2.682916677295376
 20
10.85
 30
0
 11
2.882916677295379
 21
11.05
 31
0
  0
LINE
  8
0
 62
7
  6
DASHED
 10
2.895048711651341
 20
10.85
 30
0
 11
3.095048711651343
 21
11.05
 31
0
  0
LINE
  8
0
 62
7
  6
DASHED
 10
3.107180746007305
 20
10.85
 30
0
 11
3.307180746007307
 21
11.05
 31
0
  0
LINE
  8
0
 62
7
  6
DASHED
 10
3.319312780363269
 20
10.85
 30
0
 11
3.519312780363272
 21
11.05
 31
0
  0
LINE
  8
0
 62
7
  6
DASHED
 10
3.531444814719233
 20
10.85
 30
0
 11
3.731444814719236
 21
11.05
 31
0
  0
LINE
  8
0
 62
7
  6
DASHED
 10
3.743576849075198
 20
10.85
 30
0
 11
3.9435768490752
 21
11.05
 31
0
  0
LINE
  8
0
 62
7
  6
DASHED
 10
3.955708883431162
 20
10.85
 30
0
 11
4.155708883431164
 21
11.05
 31
0
  0
LINE
  8
0
 62
7
  6
DASHED
 10
4.167840917787126
 20
10.85
 30
0
 11
4.367840917787128
 21
11.05
 31
0
  0
LINE
  8
0
 62
7
  6
DASHED
 10
4.37997295214309
 20
10.85
 30
0
 11
4.579972952143092
 21
11.05
 31
0
  0
LINE
  8
0
 62
7
  6
DASHED
 10
4.592104986499054
 20
10.85
 30
0
 11
4.609999999999998
 21
10.86789501350094
 31
0
  0
LINE
  8
0
 62
7
 10
0.9500000000000002
 20
10.92020561473032
 30
0
 11
1.079794385269682
 21
11.05
 31
0
  0
LINE
  8
0
 62
7
 10
1.091926419625646
 20
10.85
 30
0
 11
1.291926419625646
 21
11.05
 31
0
  0
LINE
  8
0
 62
7
 10
1.30405845398161
 20
10.85
 30
0
 11
1.50405845398161
 21
11.05
 31
0
  0
LINE
  8
0
 62
7
 10
1.516190488337575
 20
10.85
 30
0
 11
1.716190488337574
 21
11.05
 31
0
  0
LINE
  8
0
 62
7
 10
1.728322522693539
 20
10.85
 30
0
 11
1.928322522693539
 21
11.05
 31
0
  0
LINE
  8
0
 62
7
 10
1.940454557049503
 20
10.85
 30
0
 11
2.140454557049503
 21
11.05
 31
0
  0
LINE
  8
0
 62
7
 10
2.152586591405468
 20
10.85
 30
0
 11
2.352586591405467
 21
11.05
 31
0
  0
LINE
  8
0
 62
7
 10
2.364718625761432
 20
10.85
 30
0
 11
2.564718625761432
 21
11.05
 31
0
  0
LINE
  8
0
 62
7
 10
2.576850660117396
 20
10.85
 30
0
 11
2.776850660117396
 21
11.05
 31
0
  0
LINE
  8
0
 62
7
 10
2.78898269447336
 20
10.85
 30
0
 11
2.98898269447336
 21
11.05
 31
0
  0
LINE
  8
0
 62
7
 10
3.001114728829325
 20
10.85
 30
0
 11
3.201114728829324
 21
11.05
 31
0
  0
LINE
  8
0
 62
7
 10
3.213246763185289
 20
10.85
 30
0
 11
3.413246763185289
 21
11.05
 31
0
  0
LINE
  8
0
 62
7
 10
3.425378797541253
 20
10.85
 30
0
 11
3.625378797541253
 21
11.05
 31
0
  0
LINE
  8
0
 62
7
 10
3.637510831897218
 20
10.85
 30
0
 11
3.837510831897217
 21
11.05
 31
0
  0
LINE
  8
0
 62
7
 10
3.849642866253182
 20
10.85
 30
0
 11
4.049642866253182
 21
11.05
 31
0
  0
LINE
  8
0
 62
7
 10
4.061774900609146
 20
10.85
 30
0
 11
4.261774900609145
 21
11.05
 31
0
  0
LINE
  8
0
 62
7
 10
4.27390693496511
 20
10.85
 30
0
 11
4.473906934965109
 21
11.05
 31
0
  0
LINE
  8
0
 62
7
 10
4.486038969321074
 20
10.85
 30
0
 11
4.610000000000001
 21
10.97396103067893
 31
0
  0
ENDBLK
  8
0
  0
BLOCK
  8
0
  2
*X8
 70
1
 10
0
 20
0
 30
0
  0
LINE
  8
0
 62
7
  6
DASHED
 10
0.9499999999999993
 20
8.268555185280766
 30
0
 11
0.9814448147192318
 21
8.299999999999997
 31
0
  0
LINE
  8
0
 62
7
  6
DASHED
 10
0.9935768490751937
 20
8.099999999999994
 30
0
 11
1.193576849075196
 21
8.299999999999997
 31
0
  0
LINE
  8
0
 62
7
  6
DASHED
 10
1.205708883431158
 20
8.099999999999994
 30
0
 11
1.40570888343116
 21
8.299999999999997
 31
0
  0
LINE
  8
0
 62
7
  6
DASHED
 10
1.417840917787122
 20
8.099999999999994
 30
0
 11
1.617840917787125
 21
8.299999999999997
 31
0
  0
LINE
  8
0
 62
7
  6
DASHED
 10
1.629972952143087
 20
8.099999999999994
 30
0
 11
1.829972952143089
 21
8.299999999999997
 31
0
  0
LINE
  8
0
 62
7
  6
DASHED
 10
1.842104986499051
 20
8.099999999999994
 30
0
 11
2.042104986499053
 21
8.299999999999997
 31
0
  0
LINE
  8
0
 62
7
  6
DASHED
 10
2.054237020855015
 20
8.099999999999994
 30
0
 11
2.254237020855018
 21
8.299999999999997
 31
0
  0
LINE
  8
0
 62
7
  6
DASHED
 10
2.266369055210979
 20
8.099999999999994
 30
0
 11
2.466369055210982
 21
8.299999999999997
 31
0
  0
LINE
  8
0
 62
7
  6
DASHED
 10
2.478501089566944
 20
8.099999999999994
 30
0
 11
2.678501089566946
 21
8.299999999999997
 31
0
  0
LINE
  8
0
 62
7
  6
DASHED
 10
2.690633123922908
 20
8.099999999999994
 30
0
 11
2.89063312392291
 21
8.299999999999997
 31
0
  0
LINE
  8
0
 62
7
  6
DASHED
 10
2.902765158278872
 20
8.099999999999994
 30
0
 11
3.102765158278875
 21
8.299999999999997
 31
0
  0
LINE
  8
0
 62
7
  6
DASHED
 10
3.114897192634837
 20
8.099999999999994
 30
0
 11
3.314897192634839
 21
8.299999999999997
 31
0
  0
LINE
  8
0
 62
7
  6
DASHED
 10
3.327029226990801
 20
8.099999999999994
 30
0
 11
3.527029226990803
 21
8.299999999999997
 31
0
  0
LINE
  8
0
 62
7
  6
DASHED
 10
3.539161261346765
 20
8.099999999999994
 30
0
 11
3.739161261346768
 21
8.299999999999997
 31
0
  0
LINE
  8
0
 62
7
  6
DASHED
 10
3.751293295702729
 20
8.099999999999994
 30
0
 11
3.951293295702732
 21
8.299999999999997
 31
0
  0
LINE
  8
0
 62
7
  6
DASHED
 10
3.963425330058694
 20
8.099999999999994
 30
0
 11
4.163425330058696
 21
8.299999999999997
 31
0
  0
LINE
  8
0
 62
7
  6
DASHED
 10
4.175557364414658
 20
8.099999999999994
 30
0
 11
4.37555736441466
 21
8.299999999999997
 31
0
  0
LINE
  8
0
 62
7
  6
DASHED
 10
4.387689398770622
 20
8.099999999999994
 30
0
 11
4.587689398770624
 21
8.299999999999997
 31
0
  0
LINE
  8
0
 62
7
  6
DASHED
 10
4.599821433126586
 20
8.099999999999994
 30
0
 11
4.609999999999999
 21
8.110178566873408
 31
0
  0
LINE
  8
0
 62
7
 10
0.9499999999999993
 20
8.162489168102784
 30
0
 11
1.087510831897213
 21
8.299999999999997
 31
0
  0
LINE
  8
0
 62
7
 10
1.099642866253176
 20
8.099999999999994
 30
0
 11
1.299642866253178
 21
8.299999999999997
 31
0
  0
LINE
  8
0
 62
7
 10
1.31177490060914
 20
8.099999999999994
 30
0
 11
1.511774900609142
 21
8.299999999999997
 31
0
  0
LINE
  8
0
 62
7
 10
1.523906934965105
 20
8.099999999999994
 30
0
 11
1.723906934965106
 21
8.299999999999997
 31
0
  0
LINE
  8
0
 62
7
 10
1.736038969321069
 20
8.099999999999994
 30
0
 11
1.93603896932107
 21
8.299999999999997
 31
0
  0
LINE
  8
0
 62
7
 10
1.948171003677033
 20
8.099999999999994
 30
0
 11
2.148171003677035
 21
8.299999999999997
 31
0
  0
LINE
  8
0
 62
7
 10
2.160303038032998
 20
8.099999999999994
 30
0
 11
2.360303038032999
 21
8.299999999999997
 31
0
  0
LINE
  8
0
 62
7
 10
2.372435072388962
 20
8.099999999999994
 30
0
 11
2.572435072388963
 21
8.299999999999997
 31
0
  0
LINE
  8
0
 62
7
 10
2.584567106744926
 20
8.099999999999994
 30
0
 11
2.784567106744928
 21
8.299999999999997
 31
0
  0
LINE
  8
0
 62
7
 10
2.79669914110089
 20
8.099999999999994
 30
0
 11
2.996699141100892
 21
8.299999999999997
 31
0
  0
LINE
  8
0
 62
7
 10
3.008831175456855
 20
8.099999999999994
 30
0
 11
3.208831175456856
 21
8.299999999999997
 31
0
  0
LINE
  8
0
 62
7
 10
3.220963209812819
 20
8.099999999999994
 30
0
 11
3.42096320981282
 21
8.299999999999997
 31
0
  0
LINE
  8
0
 62
7
 10
3.433095244168783
 20
8.099999999999994
 30
0
 11
3.633095244168785
 21
8.299999999999997
 31
0
  0
LINE
  8
0
 62
7
 10
3.645227278524747
 20
8.099999999999994
 30
0
 11
3.845227278524749
 21
8.299999999999997
 31
0
  0
LINE
  8
0
 62
7
 10
3.857359312880712
 20
8.099999999999994
 30
0
 11
4.057359312880713
 21
8.299999999999997
 31
0
  0
LINE
  8
0
 62
7
 10
4.069491347236676
 20
8.099999999999994
 30
0
 11
4.269491347236677
 21
8.299999999999997
 31
0
  0
LINE
  8
0
 62
7
 10
4.28162338159264
 20
8.099999999999994
 30
0
 11
4.481623381592641
 21
8.299999999999997
 31
0
  0
LINE
  8
0
 62
7
 10
4.493755415948604
 20
8.099999999999994
 30
0
 11
4.609999999999999
 21
8.216244584051392
 31
0
  0
ENDBLK
  8
0
  0
BLOCK
  8
0
  2
*X9
 70
1
 10
0
 20
0
 30
0
  0
LINE
  8
0
 62
7
 10
4.285
 20
11.17929111656884
 30
0
 11
4.305708883431162
 21
11.2
 31
0
  0
LINE
  8
0
 62
7
 10
4.367840917787128
 20
11.05
 30
0
 11
4.459999999999999
 21
11.14215908221287
 31
0
  0
LINE
  8
0
 62
7
 10
4.284999999999999
 20
11.07322509939085
 30
0
 11
4.411774900609145
 21
11.2
 31
0
  0
ENDBLK
  8
0
  0
BLOCK
  8
0
  2
*X10
 70
1
 10
0
 20
0
 30
0
  0
LINE
  8
0
 62
7
 10
4.285
 20
10.7550270478569
 30
0
 11
4.379972952143091
 21
10.85
 31
0
  0
LINE
  8
0
 62
7
 10
4.285
 20
10.54289501350094
 30
0
 11
4.460000000000001
 21
10.71789501350094
 31
0
  0
LINE
  8
0
 62
7
 10
4.285
 20
10.33076297914498
 30
0
 11
4.460000000000001
 21
10.50576297914498
 31
0
  0
LINE
  8
0
 62
7
 10
4.285
 20
10.11863094478901
 30
0
 11
4.460000000000001
 21
10.29363094478901
 31
0
  0
LINE
  8
0
 62
7
 10
4.285
 20
9.906498910433049
 30
0
 11
4.460000000000001
 21
10.08149891043305
 31
0
  0
LINE
  8
0
 62
7
 10
4.285
 20
9.694366876077085
 30
0
 11
4.460000000000001
 21
9.869366876077086
 31
0
  0
LINE
  8
0
 62
7
 10
4.285
 20
9.482234841721121
 30
0
 11
4.460000000000001
 21
9.657234841721122
 31
0
  0
LINE
  8
0
 62
7
 10
4.285
 20
9.270102807365157
 30
0
 11
4.460000000000001
 21
9.445102807365158
 31
0
  0
LINE
  8
0
 62
7
 10
4.285
 20
9.057970773009194
 30
0
 11
4.460000000000001
 21
9.232970773009194
 31
0
  0
LINE
  8
0
 62
7
 10
4.285
 20
8.84583873865323
 30
0
 11
4.460000000000001
 21
9.02083873865323
 31
0
  0
LINE
  8
0
 62
7
 10
4.285
 20
8.633706704297266
 30
0
 11
4.460000000000001
 21
8.808706704297267
 31
0
  0
LINE
  8
0
 62
7
 10
4.285
 20
8.421574669941302
 30
0
 11
4.460000000000001
 21
8.596574669941303
 31
0
  0
LINE
  8
0
 62
7
 10
4.375557364414659
 20
8.299999999999997
 30
0
 11
4.460000000000001
 21
8.384442635585339
 31
0
  0
LINE
  8
0
 62
7
 10
4.284999999999999
 20
10.64896103067892
 30
0
 11
4.46
 21
10.82396103067892
 31
0
  0
LINE
  8
0
 62
7
 10
4.284999999999999
 20
10.43682899632296
 30
0
 11
4.46
 21
10.61182899632296
 31
0
  0
LINE
  8
0
 62
7
 10
4.284999999999999
 20
10.22469696196699
 30
0
 11
4.46
 21
10.39969696196699
 31
0
  0
LINE
  8
0
 62
7
 10
4.284999999999999
 20
10.01256492761103
 30
0
 11
4.46
 21
10.18756492761103
 31
0
  0
LINE
  8
0
 62
7
 10
4.284999999999999
 20
9.800432893255065
 30
0
 11
4.46
 21
9.975432893255066
 31
0
  0
LINE
  8
0
 62
7
 10
4.284999999999999
 20
9.588300858899101
 30
0
 11
4.46
 21
9.763300858899102
 31
0
  0
LINE
  8
0
 62
7
 10
4.284999999999999
 20
9.376168824543138
 30
0
 11
4.46
 21
9.551168824543138
 31
0
  0
LINE
  8
0
 62
7
 10
4.284999999999999
 20
9.164036790187174
 30
0
 11
4.46
 21
9.339036790187174
 31
0
  0
LINE
  8
0
 62
7
 10
4.284999999999999
 20
8.95190475583121
 30
0
 11
4.46
 21
9.126904755831211
 31
0
  0
LINE
  8
0
 62
7
 10
4.284999999999999
 20
8.739772721475246
 30
0
 11
4.46
 21
8.914772721475247
 31
0
  0
LINE
  8
0
 62
7
 10
4.284999999999999
 20
8.527640687119282
 30
0
 11
4.46
 21
8.702640687119283
 31
0
  0
LINE
  8
0
 62
7
 10
4.284999999999999
 20
8.315508652763318
 30
0
 11
4.46
 21
8.490508652763319
 31
0
  0
ENDBLK
  8
0
  0
BLOCK
  8
0
  2
*X11
 70
1
 10
0
 20
0
 30
0
  0
LINE
  8
0
 62
7
 10
4.284999999999999
 20
7.997310601229373
 30
0
 11
4.387689398770623
 21
8.099999999999996
 31
0
  0
LINE
  8
0
 62
7
 10
4.449821433126589
 20
7.949999999999998
 30
0
 11
4.46
 21
7.96017856687341
 31
0
  0
LINE
  8
0
 62
7
 10
4.343755415948607
 20
7.949999999999998
 30
0
 11
4.459999999999999
 21
8.06624458405139
 31
0
  0
ENDBLK
  8
0
  0
BLOCK
  8
0
  2
*X12
 70
1
 10
0
 20
0
 30
0
  0
LINE
  8
0
 62
7
 10
1.100000000000001
 20
11.1762716319083
 30
0
 11
1.123728368091698
 21
11.2
 31
0
  0
LINE
  8
0
 62
7
 10
1.185860402447664
 20
11.05
 30
0
 11
1.274999999999999
 21
11.13913959755234
 31
0
  0
LINE
  8
0
 62
7
 10
1.1
 20
11.07020561473032
 30
0
 11
1.229794385269681
 21
11.2
 31
0
  0
ENDBLK
  8
0
  0
BLOCK
  8
0
  2
*X13
 70
1
 10
0
 20
0
 30
0
  0
LINE
  8
0
 62
7
 10
1.1
 20
10.75200756319637
 30
0
 11
1.197992436803626
 21
10.85
 31
0
  0
LINE
  8
0
 62
7
 10
1.1
 20
10.5398755288404
 30
0
 11
1.275
 21
10.7148755288404
 31
0
  0
LINE
  8
0
 62
7
 10
1.1
 20
10.32774349448444
 30
0
 11
1.275
 21
10.50274349448444
 31
0
  0
LINE
  8
0
 62
7
 10
1.1
 20
10.11561146012848
 30
0
 11
1.275
 21
10.29061146012848
 31
0
  0
LINE
  8
0
 62
7
 10
1.1
 20
9.903479425772513
 30
0
 11
1.275
 21
10.07847942577251
 31
0
  0
LINE
  8
0
 62
7
 10
1.1
 20
9.691347391416549
 30
0
 11
1.275
 21
9.866347391416548
 31
0
  0
LINE
  8
0
 62
7
 10
1.1
 20
9.479215357060585
 30
0
 11
1.275
 21
9.654215357060584
 31
0
  0
LINE
  8
0
 62
7
 10
1.1
 20
9.267083322704622
 30
0
 11
1.275
 21
9.442083322704621
 31
0
  0
LINE
  8
0
 62
7
 10
1.1
 20
9.054951288348658
 30
0
 11
1.275
 21
9.229951288348657
 31
0
  0
LINE
  8
0
 62
7
 10
1.1
 20
8.842819253992694
 30
0
 11
1.275
 21
9.017819253992693
 31
0
  0
LINE
  8
0
 62
7
 10
1.1
 20
8.63068721963673
 30
0
 11
1.275
 21
8.805687219636729
 31
0
  0
LINE
  8
0
 62
7
 10
1.1
 20
8.418555185280766
 30
0
 11
1.275
 21
8.593555185280765
 31
0
  0
LINE
  8
0
 62
7
 10
1.193576849075197
 20
8.299999999999997
 30
0
 11
1.275
 21
8.381423150924801
 31
0
  0
LINE
  8
0
 62
7
 10
1.100000000000001
 20
10.64594154601839
 30
0
 11
1.274999999999999
 21
10.82094154601838
 31
0
  0
LINE
  8
0
 62
7
 10
1.100000000000001
 20
10.43380951166242
 30
0
 11
1.274999999999999
 21
10.60880951166242
 31
0
  0
LINE
  8
0
 62
7
 10
1.100000000000001
 20
10.22167747730646
 30
0
 11
1.274999999999999
 21
10.39667747730646
 31
0
  0
LINE
  8
0
 62
7
 10
1.100000000000001
 20
10.0095454429505
 30
0
 11
1.274999999999999
 21
10.18454544295049
 31
0
  0
LINE
  8
0
 62
7
 10
1.100000000000001
 20
9.797413408594531
 30
0
 11
1.274999999999999
 21
9.972413408594528
 31
0
  0
LINE
  8
0
 62
7
 10
1.100000000000001
 20
9.585281374238567
 30
0
 11
1.274999999999999
 21
9.760281374238565
 31
0
  0
LINE
  8
0
 62
7
 10
1.100000000000001
 20
9.373149339882604
 30
0
 11
1.274999999999999
 21
9.548149339882601
 31
0
  0
LINE
  8
0
 62
7
 10
1.100000000000001
 20
9.16101730552664
 30
0
 11
1.274999999999999
 21
9.336017305526637
 31
0
  0
LINE
  8
0
 62
7
 10
1.100000000000001
 20
8.948885271170676
 30
0
 11
1.274999999999999
 21
9.123885271170673
 31
0
  0
LINE
  8
0
 62
7
 10
1.100000000000001
 20
8.736753236814712
 30
0
 11
1.274999999999999
 21
8.911753236814709
 31
0
  0
LINE
  8
0
 62
7
 10
1.100000000000001
 20
8.524621202458748
 30
0
 11
1.274999999999999
 21
8.699621202458745
 31
0
  0
LINE
  8
0
 62
7
 10
1.100000000000001
 20
8.312489168102784
 30
0
 11
1.274999999999999
 21
8.487489168102782
 31
0
  0
ENDBLK
  8
0
  0
BLOCK
  8
0
  2
*X14
 70
1
 10
0
 20
0
 30
0
  0
LINE
  8
0
 62
7
 10
1.1
 20
7.994291116568838
 30
0
 11
1.205708883431158
 21
8.099999999999996
 31
0
  0
LINE
  8
0
 62
7
 10
1.267840917787124
 20
7.949999999999998
 30
0
 11
1.275
 21
7.957159082212874
 31
0
  0
LINE
  8
0
 62
7
 10
1.161774900609143
 20
7.949999999999999
 30
0
 11
1.274999999999999
 21
8.063225099390854
 31
0
  0
ENDBLK
  8
0
  0
BLOCK
  8
0
  2
*X15
 70
1
 10
0
 20
0
 30
0
  0
LINE
  8
0
 62
7
 10
1.1
 20
5.448706704297266
 30
0
 11
1.191293295702729
 21
5.539999999999996
 31
0
  0
LINE
  8
0
 62
7
 10
0.9350000000000001
 20
5.283706704297266
 30
0
 11
1.041293295702731
 21
5.389999999999997
 31
0
  0
LINE
  8
0
 62
7
 10
1.013425330058698
 20
5.15
 30
0
 11
1.275
 21
5.411574669941302
 31
0
  0
LINE
  8
0
 62
7
 10
1.225557364414662
 20
5.15
 30
0
 11
1.465557364414661
 21
5.389999999999998
 31
0
  0
LINE
  8
0
 62
7
 10
1.437689398770627
 20
5.15
 30
0
 11
1.677689398770625
 21
5.389999999999998
 31
0
  0
LINE
  8
0
 62
7
 10
1.649821433126591
 20
5.15
 30
0
 11
1.889821433126589
 21
5.389999999999998
 31
0
  0
LINE
  8
0
 62
7
 10
1.861953467482555
 20
5.15
 30
0
 11
2.101953467482554
 21
5.389999999999998
 31
0
  0
LINE
  8
0
 62
7
 10
2.074085501838519
 20
5.15
 30
0
 11
2.314085501838518
 21
5.389999999999998
 31
0
  0
LINE
  8
0
 62
7
 10
2.286217536194484
 20
5.15
 30
0
 11
2.526217536194482
 21
5.389999999999998
 31
0
  0
LINE
  8
0
 62
7
 10
2.498349570550448
 20
5.15
 30
0
 11
2.738349570550446
 21
5.389999999999998
 31
0
  0
LINE
  8
0
 62
7
 10
2.710481604906412
 20
5.15
 30
0
 11
2.950481604906411
 21
5.389999999999998
 31
0
  0
LINE
  8
0
 62
7
 10
2.922613639262376
 20
5.15
 30
0
 11
3.162613639262375
 21
5.389999999999998
 31
0
  0
LINE
  8
0
 62
7
 10
3.134745673618341
 20
5.15
 30
0
 11
3.374745673618339
 21
5.389999999999998
 31
0
  0
LINE
  8
0
 62
7
 10
3.346877707974305
 20
5.15
 30
0
 11
3.586877707974303
 21
5.389999999999998
 31
0
  0
LINE
  8
0
 62
7
 10
3.559009742330269
 20
5.15
 30
0
 11
3.799009742330268
 21
5.389999999999998
 31
0
  0
LINE
  8
0
 62
7
 10
3.771141776686234
 20
5.15
 30
0
 11
4.011141776686232
 21
5.389999999999998
 31
0
  0
LINE
  8
0
 62
7
 10
4.284999999999999
 20
5.451726188957801
 30
0
 11
4.373273811042194
 21
5.539999999999996
 31
0
  0
LINE
  8
0
 62
7
 10
3.983273811042198
 20
5.15
 30
0
 11
4.223273811042196
 21
5.389999999999998
 31
0
  0
LINE
  8
0
 62
7
 10
4.195405845398162
 20
5.15
 30
0
 11
4.46
 21
5.414594154601838
 31
0
  0
LINE
  8
0
 62
7
 10
4.407537879754126
 20
5.15
 30
0
 11
4.61
 21
5.352462120245875
 31
0
  0
LINE
  8
0
 62
7
 10
0.9350000000000001
 20
5.389772721475248
 30
0
 11
0.9352272785247475
 21
5.389999999999997
 31
0
  0
LINE
  8
0
 62
7
 10
0.9350000000000001
 20
5.177640687119284
 30
0
 11
1.275
 21
5.517640687119284
 31
0
  0
LINE
  8
0
 62
7
 10
1.11949134723668
 20
5.15
 30
0
 11
1.359491347236677
 21
5.389999999999997
 31
0
  0
LINE
  8
0
 62
7
 10
1.331623381592645
 20
5.15
 30
0
 11
1.571623381592642
 21
5.389999999999997
 31
0
  0
LINE
  8
0
 62
7
 10
1.543755415948609
 20
5.15
 30
0
 11
1.783755415948606
 21
5.389999999999997
 31
0
  0
LINE
  8
0
 62
7
 10
1.755887450304573
 20
5.15
 30
0
 11
1.99588745030457
 21
5.389999999999997
 31
0
  0
LINE
  8
0
 62
7
 10
1.968019484660537
 20
5.15
 30
0
 11
2.208019484660535
 21
5.389999999999997
 31
0
  0
LINE
  8
0
 62
7
 10
2.180151519016502
 20
5.15
 30
0
 11
2.420151519016499
 21
5.389999999999997
 31
0
  0
LINE
  8
0
 62
7
 10
2.392283553372466
 20
5.15
 30
0
 11
2.632283553372463
 21
5.389999999999997
 31
0
  0
LINE
  8
0
 62
7
 10
2.60441558772843
 20
5.15
 30
0
 11
2.844415587728427
 21
5.389999999999997
 31
0
  0
LINE
  8
0
 62
7
 10
2.816547622084395
 20
5.15
 30
0
 11
3.056547622084392
 21
5.389999999999997
 31
0
  0
LINE
  8
0
 62
7
 10
3.028679656440359
 20
5.15
 30
0
 11
3.268679656440356
 21
5.389999999999997
 31
0
  0
LINE
  8
0
 62
7
 10
3.240811690796323
 20
5.15
 30
0
 11
3.48081169079632
 21
5.389999999999997
 31
0
  0
LINE
  8
0
 62
7
 10
3.452943725152287
 20
5.15
 30
0
 11
3.692943725152285
 21
5.389999999999997
 31
0
  0
LINE
  8
0
 62
7
 10
3.665075759508252
 20
5.15
 30
0
 11
3.905075759508249
 21
5.389999999999997
 31
0
  0
LINE
  8
0
 62
7
 10
3.877207793864216
 20
5.15
 30
0
 11
4.117207793864213
 21
5.389999999999997
 31
0
  0
LINE
  8
0
 62
7
 10
4.08933982822018
 20
5.15
 30
0
 11
4.46
 21
5.52066017177982
 31
0
  0
LINE
  8
0
 62
7
 10
4.301471862576144
 20
5.15
 30
0
 11
4.54147186257614
 21
5.389999999999996
 31
0
  0
LINE
  8
0
 62
7
 10
4.513603896932108
 20
5.15
 30
0
 11
4.61
 21
5.246396103067893
 31
0
  0
ENDBLK
  8
0
  0
BLOCK
  8
0
  2
*X16
 70
1
 10
0
 20
0
 30
0
  0
LINE
  8
0
 62
7
 10
0.9350000000000001
 20
5.071574669941302
 30
0
 11
0.9734253300586979
 21
5.11
 31
0
  0
LINE
  8
0
 62
7
 10
0.9455573644146629
 20
4.870000000000001
 30
0
 11
1.185557364414662
 21
5.11
 31
0
  0
LINE
  8
0
 62
7
 10
1.1
 20
4.812310601229372
 30
0
 11
1.397689398770626
 21
5.11
 31
0
  0
LINE
  8
0
 62
7
 10
1.369821433126591
 20
4.870000000000001
 30
0
 11
1.609821433126591
 21
5.11
 31
0
  0
LINE
  8
0
 62
7
 10
1.1
 20
4.600178566873408
 30
0
 11
1.274999999999999
 21
4.775178566873408
 31
0
  0
LINE
  8
0
 62
7
 10
1.581953467482555
 20
4.870000000000001
 30
0
 11
1.821953467482555
 21
5.11
 31
0
  0
LINE
  8
0
 62
7
 10
1.1
 20
4.388046532517444
 30
0
 11
1.274999999999999
 21
4.563046532517444
 31
0
  0
LINE
  8
0
 62
7
 10
1.79408550183852
 20
4.870000000000001
 30
0
 11
2.034085501838519
 21
5.11
 31
0
  0
LINE
  8
0
 62
7
 10
1.1
 20
4.175914498161481
 30
0
 11
1.274999999999999
 21
4.35091449816148
 31
0
  0
LINE
  8
0
 62
7
 10
2.006217536194484
 20
4.870000000000001
 30
0
 11
2.246217536194484
 21
5.11
 31
0
  0
LINE
  8
0
 62
7
 10
1.1
 20
3.963782463805517
 30
0
 11
1.274999999999999
 21
4.138782463805517
 31
0
  0
LINE
  8
0
 62
7
 10
2.218349570550448
 20
4.870000000000001
 30
0
 11
2.458349570550448
 21
5.11
 31
0
  0
LINE
  8
0
 62
7
 10
1.1
 20
3.751650429449553
 30
0
 11
1.274999999999999
 21
3.926650429449553
 31
0
  0
LINE
  8
0
 62
7
 10
2.430481604906412
 20
4.870000000000001
 30
0
 11
2.670481604906412
 21
5.11
 31
0
  0
LINE
  8
0
 62
7
 10
1.1
 20
3.539518395093588
 30
0
 11
1.274999999999999
 21
3.714518395093588
 31
0
  0
LINE
  8
0
 62
7
 10
2.642613639262377
 20
4.870000000000001
 30
0
 11
2.882613639262376
 21
5.11
 31
0
  0
LINE
  8
0
 62
7
 10
1.122613639262376
 20
3.35
 30
0
 11
1.274999999999999
 21
3.502386360737624
 31
0
  0
LINE
  8
0
 62
7
 10
2.854745673618341
 20
4.870000000000001
 30
0
 11
3.094745673618341
 21
5.11
 31
0
  0
LINE
  8
0
 62
7
 10
3.066877707974305
 20
4.870000000000001
 30
0
 11
3.306877707974305
 21
5.11
 31
0
  0
LINE
  8
0
 62
7
 10
3.27900974233027
 20
4.870000000000001
 30
0
 11
3.519009742330269
 21
5.11
 31
0
  0
LINE
  8
0
 62
7
 10
3.491141776686234
 20
4.870000000000001
 30
0
 11
3.731141776686234
 21
5.11
 31
0
  0
LINE
  8
0
 62
7
 10
3.703273811042198
 20
4.870000000000001
 30
0
 11
3.943273811042198
 21
5.11
 31
0
  0
LINE
  8
0
 62
7
 10
3.915405845398162
 20
4.870000000000001
 30
0
 11
4.155405845398162
 21
5.11
 31
0
  0
LINE
  8
0
 62
7
 10
4.127537879754127
 20
4.870000000000001
 30
0
 11
4.367537879754126
 21
5.11
 31
0
  0
LINE
  8
0
 62
7
 10
4.284999999999998
 20
4.815330085889907
 30
0
 11
4.57966991411009
 21
5.11
 31
0
  0
LINE
  8
0
 62
7
 10
4.551801948466056
 20
4.870000000000001
 30
0
 11
4.609999999999999
 21
4.928198051533945
 31
0
  0
LINE
  8
0
 62
7
 10
4.284999999999998
 20
4.603198051533943
 30
0
 11
4.460000000000001
 21
4.778198051533945
 31
0
  0
LINE
  8
0
 62
7
 10
4.284999999999998
 20
4.391066017177979
 30
0
 11
4.460000000000001
 21
4.566066017177981
 31
0
  0
LINE
  8
0
 62
7
 10
4.284999999999998
 20
4.178933982822016
 30
0
 11
4.460000000000001
 21
4.353933982822017
 31
0
  0
LINE
  8
0
 62
7
 10
4.284999999999998
 20
3.966801948466052
 30
0
 11
4.460000000000001
 21
4.141801948466053
 31
0
  0
LINE
  8
0
 62
7
 10
4.284999999999998
 20
3.754669914110087
 30
0
 11
4.460000000000001
 21
3.929669914110089
 31
0
  0
LINE
  8
0
 62
7
 10
4.284999999999998
 20
3.542537879754123
 30
0
 11
4.460000000000001
 21
3.717537879754125
 31
0
  0
LINE
  8
0
 62
7
 10
4.284999999999999
 20
3.330405845398159
 30
0
 11
4.460000000000001
 21
3.50540584539816
 31
0
  0
LINE
  8
0
 62
7
 10
4.416726188957804
 20
3.25
 30
0
 11
4.460000000000001
 21
3.293273811042196
 31
0
  0
LINE
  8
0
 62
7
 10
0.9349999999999996
 20
4.965508652763321
 30
0
 11
1.07949134723668
 21
5.11
 31
0
  0
LINE
  8
0
 62
7
 10
1.051623381592645
 20
4.870000000000001
 30
0
 11
1.291623381592645
 21
5.11
 31
0
  0
LINE
  8
0
 62
7
 10
1.1
 20
4.70624458405139
 30
0
 11
1.503755415948609
 21
5.11
 31
0
  0
LINE
  8
0
 62
7
 10
1.475887450304573
 20
4.870000000000002
 30
0
 11
1.715887450304573
 21
5.11
 31
0
  0
LINE
  8
0
 62
7
 10
1.1
 20
4.494112549695426
 30
0
 11
1.275
 21
4.669112549695426
 31
0
  0
LINE
  8
0
 62
7
 10
1.688019484660538
 20
4.870000000000002
 30
0
 11
1.928019484660537
 21
5.11
 31
0
  0
LINE
  8
0
 62
7
 10
1.1
 20
4.281980515339463
 30
0
 11
1.275
 21
4.456980515339462
 31
0
  0
LINE
  8
0
 62
7
 10
1.900151519016502
 20
4.870000000000002
 30
0
 11
2.140151519016502
 21
5.11
 31
0
  0
LINE
  8
0
 62
7
 10
1.1
 20
4.069848480983499
 30
0
 11
1.275
 21
4.244848480983499
 31
0
  0
LINE
  8
0
 62
7
 10
2.112283553372466
 20
4.870000000000002
 30
0
 11
2.352283553372466
 21
5.11
 31
0
  0
LINE
  8
0
 62
7
 10
1.1
 20
3.857716446627535
 30
0
 11
1.275
 21
4.032716446627535
 31
0
  0
LINE
  8
0
 62
7
 10
2.32441558772843
 20
4.870000000000002
 30
0
 11
2.56441558772843
 21
5.11
 31
0
  0
LINE
  8
0
 62
7
 10
1.1
 20
3.645584412271571
 30
0
 11
1.275
 21
3.82058441227157
 31
0
  0
LINE
  8
0
 62
7
 10
2.536547622084395
 20
4.870000000000002
 30
0
 11
2.776547622084395
 21
5.11
 31
0
  0
LINE
  8
0
 62
7
 10
1.1
 20
3.433452377915606
 30
0
 11
1.275
 21
3.608452377915606
 31
0
  0
LINE
  8
0
 62
7
 10
2.748679656440359
 20
4.870000000000002
 30
0
 11
2.988679656440359
 21
5.11
 31
0
  0
LINE
  8
0
 62
7
 10
1.228679656440357
 20
3.35
 30
0
 11
1.275
 21
3.396320343559642
 31
0
  0
LINE
  8
0
 62
7
 10
2.960811690796323
 20
4.870000000000002
 30
0
 11
3.200811690796323
 21
5.11
 31
0
  0
LINE
  8
0
 62
7
 10
3.172943725152288
 20
4.870000000000002
 30
0
 11
3.412943725152287
 21
5.11
 31
0
  0
LINE
  8
0
 62
7
 10
3.385075759508252
 20
4.870000000000002
 30
0
 11
3.625075759508252
 21
5.11
 31
0
  0
LINE
  8
0
 62
7
 10
3.597207793864216
 20
4.870000000000002
 30
0
 11
3.837207793864216
 21
5.11
 31
0
  0
LINE
  8
0
 62
7
 10
3.80933982822018
 20
4.870000000000002
 30
0
 11
4.04933982822018
 21
5.11
 31
0
  0
LINE
  8
0
 62
7
 10
4.021471862576145
 20
4.870000000000002
 30
0
 11
4.261471862576144
 21
5.11
 31
0
  0
LINE
  8
0
 62
7
 10
4.233603896932109
 20
4.870000000000002
 30
0
 11
4.473603896932108
 21
5.11
 31
0
  0
LINE
  8
0
 62
7
 10
4.284999999999998
 20
4.709264068711925
 30
0
 11
4.61
 21
5.034264068711929
 31
0
  0
LINE
  8
0
 62
7
 10
4.284999999999998
 20
4.497132034355961
 30
0
 11
4.460000000000001
 21
4.672132034355963
 31
0
  0
LINE
  8
0
 62
7
 10
4.284999999999998
 20
4.284999999999997
 30
0
 11
4.460000000000001
 21
4.459999999999999
 31
0
  0
LINE
  8
0
 62
7
 10
4.284999999999998
 20
4.072867965644034
 30
0
 11
4.460000000000001
 21
4.247867965644035
 31
0
  0
LINE
  8
0
 62
7
 10
4.284999999999998
 20
3.86073593128807
 30
0
 11
4.460000000000001
 21
4.035735931288071
 31
0
  0
LINE
  8
0
 62
7
 10
4.284999999999998
 20
3.648603896932106
 30
0
 11
4.460000000000001
 21
3.823603896932108
 31
0
  0
LINE
  8
0
 62
7
 10
4.284999999999998
 20
3.436471862576141
 30
0
 11
4.460000000000001
 21
3.611471862576143
 31
0
  0
LINE
  8
0
 62
7
 10
4.310660171779822
 20
3.25
 30
0
 11
4.460000000000001
 21
3.399339828220179
 31
0
  0
ENDBLK
  8
0
  0
BLOCK
  8
0
  2
*D0
 70
1
 10
0
 20
0
 30
0
  0
LINE
  8
0
 62
7
 10
0.7757139834213421
 20
4.4884334366661
 30
0
 11
0.7757139834213421
 21
4.87
 31
0
  0
LINE
  8
0
 62
7
 10
0.7757139834213421
 20
3.35
 30
0
 11
0.7757139834213421
 21
3.7434334366661
 31
0
  0
LINE
  8
0
 62
7
 10
1.1
 20
4.87
 30
0
 11
0.7257139834213421
 21
4.87
 31
0
  0
LINE
  8
0
 62
7
 10
1.1
 20
3.35
 30
0
 11
0.7257139834213421
 21
3.35
 31
0
  0
LINE
  8
0
 62
7
 10
0.8110693224806695
 20
4.834644660940673
 30
0
 11
0.7403586443620147
 21
4.905355339059327
 31
0
  0
LINE
  8
0
 62
7
 10
0.7403586443620147
 20
3.385355339059327
 30
0
 11
0.8110693224806695
 21
3.314644660940672
 31
0
  0
TEXT
  8
0
 62
7
 10
0.8207139834213422
 20
3.9934334366661
 30
0
 40
0.1
  1
1,52
 50
90
 41
0.9
  0
ENDBLK
  8
0
  0
BLOCK
  8
0
  2
*D1
 70
1
 10
0
 20
0
 30
0
  0
LINE
  8
0
 62
7
 10
3.18992207857833
 20
5.77214419917106
 30
0
 11
4.284999999999999
 21
5.77214419917106
 31
0
  0
LINE
  8
0
 62
7
 10
1.275
 20
5.77214419917106
 30
0
 11
2.444922078578331
 21
5.77214419917106
 31
0
  0
LINE
  8
0
 62
7
 10
4.284999999999999
 20
5.389999999999996
 30
0
 11
4.284999999999999
 21
5.82214419917106
 31
0
  0
LINE
  8
0
 62
7
 10
1.275
 20
5.389999999999996
 30
0
 11
1.275
 21
5.82214419917106
 31
0
  0
LINE
  8
0
 62
7
 10
4.249644660940672
 20
5.736788860111733
 30
0
 11
4.320355339059327
 21
5.807499538230387
 31
0
  0
LINE
  8
0
 62
7
 10
1.310355339059327
 20
5.807499538230387
 30
0
 11
1.239644660940673
 21
5.736788860111733
 31
0
  0
TEXT
  8
0
 62
7
 10
2.69492207857833
 20
5.72714419917106
 30
0
 40
0.1
  1
3,01
 41
0.9
  0
ENDBLK
  8
0
  0
BLOCK
  8
0
  2
*D2
 70
1
 10
0
 20
0
 30
0
  0
LINE
  8
0
 62
7
 10
4.8448524947482
 20
4.417045041730541
 30
0
 11
4.8448524947482
 21
4.87
 31
0
  0
LINE
  8
0
 62
7
 10
4.8448524947482
 20
3.25
 30
0
 11
4.8448524947482
 21
3.67204504173054
 31
0
  0
LINE
  8
0
 62
7
 10
4.46
 20
4.87
 30
0
 11
4.8948524947482
 21
4.87
 31
0
  0
LINE
  8
0
 62
7
 10
4.46
 20
3.25
 30
0
 11
4.8948524947482
 21
3.25
 31
0
  0
LINE
  8
0
 62
7
 10
4.809497155688873
 20
3.285355339059327
 30
0
 11
4.880207833807527
 21
3.214644660940673
 31
0
  0
LINE
  8
0
 62
7
 10
4.880207833807527
 20
4.834644660940673
 30
0
 11
4.809497155688873
 21
4.905355339059327
 31
0
  0
TEXT
  8
0
 62
7
 10
4.8898524947482
 20
3.92204504173054
 30
0
 40
0.1
  1
1,62
 50
90
 41
0.9
  0
ENDBLK
  8
0
  0
BLOCK
  8
0
  2
*D3
 70
1
 10
0
 20
0
 30
0
  0
LINE
  8
0
 62
7
 10
3.15419975756544
 20
11.4689381150287
 30
0
 11
4.284999999999999
 21
11.4689381150287
 31
0
  0
LINE
  8
0
 62
7
 10
1.275
 20
11.4689381150287
 30
0
 11
2.50919975756544
 21
11.4689381150287
 31
0
  0
LINE
  8
0
 62
7
 10
4.284999999999999
 20
11.2
 30
0
 11
4.284999999999999
 21
11.5189381150287
 31
0
  0
LINE
  8
0
 62
7
 10
1.275
 20
11.2
 30
0
 11
1.275
 21
11.5189381150287
 31
0
  0
LINE
  8
0
 62
7
 10
1.310355339059327
 20
11.50429345408803
 30
0
 11
1.239644660940673
 21
11.43358277596937
 31
0
  0
LINE
  8
0
 62
7
 10
4.249644660940672
 20
11.43358277596937
 30
0
 11
4.320355339059327
 21
11.50429345408803
 31
0
  0
TEXT
  8
0
 62
7
 10
2.70919975756544
 20
11.4239381150287
 30
0
 40
0.1
  1
3,01
 41
0.9
  0
ENDBLK
  8
0
  0
BLOCK
  8
0
  2
*D4
 70
1
 10
0
 20
0
 30
0
  0
LINE
  8
0
 62
7
 10
0.690047909498671
 20
10.16711752569125
 30
0
 11
0.690047909498671
 21
11.05
 31
0
  0
LINE
  8
0
 62
7
 10
0.690047909498671
 20
8.299999999999997
 30
0
 11
0.690047909498671
 21
9.08711752569125
 31
0
  0
LINE
  8
0
 62
7
 10
0.95
 20
11.05
 30
0
 11
0.640047909498671
 21
11.05
 31
0
  0
LINE
  8
0
 62
7
 10
0.95
 20
8.299999999999997
 30
0
 11
0.640047909498671
 21
8.299999999999997
 31
0
  0
LINE
  8
0
 62
7
 10
0.6546925704393436
 20
8.335355339059324
 30
0
 11
0.7254032485579984
 21
8.26464466094067
 31
0
  0
LINE
  8
0
 62
7
 10
0.7254032485579984
 20
11.01464466094067
 30
0
 11
0.6546925704393436
 21
11.08535533905933
 31
0
  0
TEXT
  8
0
 62
7
 10
0.660047909498671
 20
9.489617525691251
 30
0
 40
0.1
  1
2,75
 50
90
 41
0.9
  0
TEXT
  8
0
 62
7
 10
0.820047909498671
 20
9.287117525691251
 30
0
 40
0.1
  1
(260-280)
 50
90
 41
0.9
  0
ENDBLK
  8
0
  0
ENDSEC
  0
SECTION
  2
ENTITIES
  0
INSERT
  8
0
  2
*X0
 10
0
 20
0
 30
0
  0
INSERT
  8
0
  2
*X1
 10
0
 20
0
 30
0
  0
INSERT
  8
0
  2
*X2
 10
0
 20
0
 30
0
  0
INSERT
  8
0
  2
*X3
 10
0
 20
0
 30
0
  0
INSERT
  8
0
  2
*X4
 10
0
 20
0
 30
0
  0
INSERT
  8
0
  2
*X5
 10
0
 20
0
 30
0
  0
INSERT
  8
0
  2
*X6
 10
0
 20
0
 30
0
  0
INSERT
  8
0
  2
*X7
 10
0
 20
0
 30
0
  0
INSERT
  8
0
  2
*X8
 10
0
 20
0
 30
0
  0
INSERT
  8
0
  2
*X9
 10
0
 20
0
 30
0
  0
INSERT
  8
0
  2
*X10
 10
0
 20
0
 30
0
  0
INSERT
  8
0
  2
*X11
 10
0
 20
0
 30
0
  0
INSERT
  8
0
  2
*X12
 10
0
 20
0
 30
0
  0
INSERT
  8
0
  2
*X13
 10
0
 20
0
 30
0
  0
INSERT
  8
0
  2
*X14
 10
0
 20
0
 30
0
  0
INSERT
  8
0
  2
*X15
 10
0
 20
0
 30
0
  0
INSERT
  8
0
  2
*X16
 10
0
 20
0
 30
0
  0
LINE
  8
0
 62
7
 10
2.28
 20
3.638975806549319
 30
0
 11
2.28
 21
3.814975825506485
 31
0
  0
LINE
  8
0
 62
7
 10
2.28
 20
3.814975825506485
 30
0
 11
2.345091696931316
 21
3.864999999999999
 31
0
  0
LINE
  8
0
 62
7
 10
2.43595841284356
 20
3.864999999999999
 30
0
 11
2.532703581738553
 21
3.864999999999999
 31
0
  0
LINE
  8
0
 62
7
 10
2.345091696931316
 20
3.864999999999999
 30
0
 11
2.532703581738553
 21
3.864999999999999
 31
0
  0
LINE
  8
0
 62
7
 10
3.043926785422912
 20
3.864999999999999
 30
0
 11
3.229133558796129
 21
3.864999999999999
 31
0
  0
LINE
  8
0
 62
7
 10
3.229133558796129
 20
3.864999999999999
 30
0
 11
3.28
 21
3.802027202000852
 31
0
  0
LINE
  8
0
 62
7
 10
3.28
 20
3.71797068813613
 30
0
 11
3.28
 21
3.624246626658
 31
0
  0
LINE
  8
0
 62
7
 10
3.28
 20
3.802027202000852
 30
0
 11
3.28
 21
3.624246626658
 31
0
  0
LINE
  8
0
 62
7
 10
1.329999999999998
 20
3.69965371841061
 30
0
 11
1.329999999999998
 21
3.389999999999999
 31
0
  0
LINE
  8
0
 62
7
 10
2.28
 20
3.389999999999999
 30
0
 11
2.28
 21
3.614344062480278
 31
0
  0
LINE
  8
0
 62
7
 10
2.28
 20
3.614344062480278
 30
0
 11
1.329999999999998
 21
3.69965371841061
 31
0
  0
LINE
  8
0
 62
7
 10
1.329999999999998
 20
4.086349461780878
 30
0
 11
1.329999999999998
 21
3.6092915681644
 31
0
  0
LINE
  8
0
 62
7
 10
2.28
 20
3.52398191223408
 30
0
 11
2.28
 21
3.734935925991898
 31
0
  0
LINE
  8
0
 62
7
 10
2.28
 20
3.734935925991898
 30
0
 11
1.329999999999998
 21
4.086349461780878
 31
0
  0
LINE
  8
0
 62
7
 10
1.329999999999998
 20
4.576602644386221
 30
0
 11
1.329999999999998
 21
3.990389342338299
 31
0
  0
LINE
  8
0
 62
7
 10
2.28
 20
3.814975825506485
 30
0
 11
2.28
 21
3.85410124812034
 31
0
  0
LINE
  8
0
 62
7
 10
2.28
 20
3.85410124812034
 30
0
 11
1.329999999999998
 21
4.576602644386221
 31
0
  0
LINE
  8
0
 62
7
 10
1.70351412810974
 20
4.815
 30
0
 11
1.329999999999998
 21
4.815
 31
0
  0
LINE
  8
0
 62
7
 10
1.329999999999998
 20
4.815
 30
0
 11
1.329999999999998
 21
4.463531603213318
 31
0
  0
LINE
  8
0
 62
7
 10
2.345091696931316
 20
3.864999999999999
 30
0
 11
2.398141013307778
 21
3.90576938203006
 31
0
  0
LINE
  8
0
 62
7
 10
2.398141013307778
 20
3.90576938203006
 30
0
 11
1.70351412810974
 21
4.815
 31
0
  0
LINE
  8
0
 62
7
 10
2.158073887482368
 20
4.815
 30
0
 11
1.59025516326143
 21
4.815
 31
0
  0
LINE
  8
0
 62
7
 10
2.532703581738553
 20
3.864999999999999
 30
0
 11
2.158073887482368
 21
4.815
 31
0
  0
LINE
  8
0
 62
7
 10
2.548703955761
 20
4.815
 30
0
 11
2.061328718587369
 21
4.815
 31
0
  0
LINE
  8
0
 62
7
 10
2.532703581738553
 20
3.864999999999999
 30
0
 11
2.6466376308043
 21
3.864999999999999
 31
0
  0
LINE
  8
0
 62
7
 10
2.6466376308043
 20
3.864999999999999
 30
0
 11
2.548703955761
 21
4.815
 31
0
  0
LINE
  8
0
 62
7
 10
2.873903333582348
 20
4.815
 30
0
 11
2.458226997747119
 21
4.815
 31
0
  0
LINE
  8
0
 62
7
 10
2.556160672790418
 20
3.864999999999999
 30
0
 11
2.833733978166819
 21
3.864999999999999
 31
0
  0
LINE
  8
0
 62
7
 10
2.833733978166819
 20
3.864999999999999
 30
0
 11
2.873903333582348
 21
4.815
 31
0
  0
LINE
  8
0
 62
7
 10
3.1981512725061
 20
4.815
 30
0
 11
2.783822914143129
 21
4.815
 31
0
  0
LINE
  8
0
 62
7
 10
2.743653558727601
 20
3.864999999999999
 30
0
 11
3.02189419106325
 21
3.864999999999999
 31
0
  0
LINE
  8
0
 62
7
 10
3.02189419106325
 20
3.864999999999999
 30
0
 11
3.1981512725061
 21
4.815
 31
0
  0
LINE
  8
0
 62
7
 10
3.5897159883325
 20
4.815
 30
0
 11
3.106615353237848
 21
4.815
 31
0
  0
LINE
  8
0
 62
7
 10
2.930358271794997
 20
3.864999999999999
 30
0
 11
3.14336566408367
 21
3.864999999999999
 31
0
  0
LINE
  8
0
 62
7
 10
3.14336566408367
 20
3.864999999999999
 30
0
 11
3.5897159883325
 21
4.815
 31
0
  0
LINE
  8
0
 62
7
 10
4.131410810961142
 20
4.815
 30
0
 11
3.49027710967174
 21
4.815
 31
0
  0
LINE
  8
0
 62
7
 10
3.229133558796129
 20
3.864999999999999
 30
0
 11
3.261688713427189
 21
3.864999999999999
 31
0
  0
LINE
  8
0
 62
7
 10
3.261688713427189
 20
3.864999999999999
 30
0
 11
4.131410810961142
 21
4.815
 31
0
  0
LINE
  8
0
 62
7
 10
4.23
 20
4.327034453781811
 30
0
 11
4.23
 21
4.815
 31
0
  0
LINE
  8
0
 62
7
 10
4.23
 20
4.815
 30
0
 11
4.009390768702949
 21
4.815
 31
0
  0
LINE
  8
0
 62
7
 10
3.28
 20
3.802027202000852
 30
0
 11
3.31802194387191
 21
3.754955928007369
 31
0
  0
LINE
  8
0
 62
7
 10
3.31802194387191
 20
3.754955928007369
 30
0
 11
4.23
 21
4.327034453781811
 31
0
  0
LINE
  8
0
 62
7
 10
4.23
 20
3.900350523100879
 30
0
 11
4.23
 21
4.43327631790521
 31
0
  0
LINE
  8
0
 62
7
 10
3.28
 20
3.624246626658
 30
0
 11
4.23
 21
3.900350523100879
 31
0
  0
LINE
  8
0
 62
7
 10
4.23
 20
3.51
 30
0
 11
4.23
 21
3.994074584579009
 31
0
  0
LINE
  8
0
 62
7
 10
3.28
 20
3.624246626658
 30
0
 11
3.28
 21
3.51
 31
0
  0
LINE
  8
0
 62
7
 10
3.28
 20
3.51
 30
0
 11
4.23
 21
3.51
 31
0
  0
LINE
  8
0
 62
7
 10
4.23
 20
3.25
 30
0
 11
4.23
 21
3.6
 31
0
  0
LINE
  8
0
 62
7
 10
3.28
 20
3.6
 30
0
 11
3.28
 21
3.25
 31
0
  0
LINE
  8
0
 62
7
 10
3.28
 20
3.25
 30
0
 11
4.23
 21
3.25
 31
0
  0
LINE
  8
0
 62
7
 10
1.778501446525059
 20
3.399999999999999
 30
0
 11
1.778501446525059
 21
3.864999999990459
 31
0
  0
LINE
  8
0
 62
7
 10
1.778501446525059
 20
3.399999999999999
 30
0
 11
1.672846347263357
 21
3.460999999999999
 31
0
  0
LINE
  8
0
 62
7
 10
1.672846347263357
 20
3.460999999999999
 30
0
 11
1.884156545786762
 21
3.460999999999999
 31
0
  0
LINE
  8
0
 62
7
 10
1.884156545786762
 20
3.460999999999999
 30
0
 11
1.778501446525059
 21
3.399999999999999
 31
0
  0
LINE
  8
0
 62
7
 10
2.279999999958319
 20
4.366498553474939
 30
0
 11
3.27999999999045
 21
4.366498553474939
 31
0
  0
LINE
  8
0
 62
7
 10
3.781498553474939
 20
3.864999999999739
 30
0
 11
3.781498553474939
 21
3.25
 31
0
  0
LINE
  8
0
 62
7
 10
6.47999882
 20
10.96666666666666
 30
0
 11
6.78965385
 21
10.96666666666666
 31
0
  0
LINE
  8
0
 62
7
 10
6.78965385
 20
10.90166666666666
 30
0
 11
6.47999882
 21
10.90166666666666
 31
0
  0
LINE
  8
0
 62
7
 10
6.47999882
 20
10.90166666666666
 30
0
 11
6.47999882
 21
10.96666666666666
 31
0
  0
LINE
  8
0
 62
7
 10
6.78965385
 20
10.96666666666666
 30
0
 11
6.78965385
 21
10.90166666666666
 31
0
  0
LINE
  8
0
 62
7
 10
7.176348879999999
 20
10.71833322666666
 30
0
 11
6.61398189
 21
10.71833322666666
 31
0
  0
LINE
  8
0
 62
7
 10
6.61398189
 20
10.78333322666666
 30
0
 11
7.176348879999999
 21
10.78333322666666
 31
0
  0
LINE
  8
0
 62
7
 10
6.61398189
 20
10.71833322666666
 30
0
 11
6.61398189
 21
10.78333322666666
 31
0
  0
LINE
  8
0
 62
7
 10
7.176348879999999
 20
10.78333322666666
 30
0
 11
7.176348879999999
 21
10.71833322666666
 31
0
  0
LINE
  8
0
 62
7
 10
7.666602020000001
 20
10.53499994666666
 30
0
 11
6.728975220000001
 21
10.53499994666666
 31
0
  0
LINE
  8
0
 62
7
 10
6.728975220000001
 20
10.59999994666666
 30
0
 11
7.666602020000001
 21
10.59999994666666
 31
0
  0
LINE
  8
0
 62
7
 10
6.728975220000001
 20
10.53499994666666
 30
0
 11
6.728975220000001
 21
10.59999994666666
 31
0
  0
LINE
  8
0
 62
7
 10
7.666602020000001
 20
10.59999994666666
 30
0
 11
7.666602020000001
 21
10.53499994666666
 31
0
  0
LINE
  8
0
 62
7
 10
7.904999539999999
 20
10.35166666666666
 30
0
 11
6.867809370000003
 21
10.35166666666666
 31
0
  0
LINE
  8
0
 62
7
 10
6.867809370000003
 20
10.41666666666666
 30
0
 11
7.904999539999999
 21
10.41666666666666
 31
0
  0
LINE
  8
0
 62
7
 10
6.867809370000003
 20
10.35166666666666
 30
0
 11
6.867809370000003
 21
10.41666666666666
 31
0
  0
LINE
  8
0
 62
7
 10
7.904999539999999
 20
10.41666666666666
 30
0
 11
7.904999539999999
 21
10.35166666666666
 31
0
  0
LINE
  8
0
 62
7
 10
6.954999389999999
 20
10.23333322666666
 30
0
 11
7.904999240000001
 21
10.23333322666666
 31
0
  0
LINE
  8
0
 62
7
 10
6.954999389999999
 20
10.16833322666666
 30
0
 11
6.954999389999999
 21
10.23333322666666
 31
0
  0
LINE
  8
0
 62
7
 10
7.904999240000001
 20
10.23333322666666
 30
0
 11
7.904999240000001
 21
10.16833322666666
 31
0
  0
LINE
  8
0
 62
7
 10
7.904999240000001
 20
10.16833322666666
 30
0
 11
6.954999389999999
 21
10.16833322666666
 31
0
  0
LINE
  8
0
 62
7
 10
6.95499954
 20
10.04999994666666
 30
0
 11
7.905
 21
10.04999994666666
 31
0
  0
LINE
  8
0
 62
7
 10
6.95499954
 20
9.984999946666663
 30
0
 11
6.95499954
 21
10.04999994666666
 31
0
  0
LINE
  8
0
 62
7
 10
7.905
 20
10.04999994666666
 30
0
 11
7.905
 21
9.984999946666663
 31
0
  0
LINE
  8
0
 62
7
 10
7.905
 20
9.984999946666663
 30
0
 11
6.95499954
 21
9.984999946666663
 31
0
  0
LINE
  8
0
 62
7
 10
6.954999239999999
 20
9.866666666666664
 30
0
 11
7.904999539999999
 21
9.866666666666664
 31
0
  0
LINE
  8
0
 62
7
 10
6.954999239999999
 20
9.801666666666662
 30
0
 11
6.954999239999999
 21
9.866666666666664
 31
0
  0
LINE
  8
0
 62
7
 10
7.904999539999999
 20
9.866666666666664
 30
0
 11
7.904999539999999
 21
9.801666666666662
 31
0
  0
LINE
  8
0
 62
7
 10
7.904999539999999
 20
9.801666666666662
 30
0
 11
6.954999239999999
 21
9.801666666666662
 31
0
  0
LINE
  8
0
 62
7
 10
6.954999460000001
 20
9.683333226666662
 30
0
 11
7.904999539999999
 21
9.683333226666662
 31
0
  0
LINE
  8
0
 62
7
 10
6.954999460000001
 20
9.618333226666664
 30
0
 11
6.954999460000001
 21
9.683333226666662
 31
0
  0
LINE
  8
0
 62
7
 10
7.904999539999999
 20
9.683333226666662
 30
0
 11
7.904999539999999
 21
9.618333226666664
 31
0
  0
LINE
  8
0
 62
7
 10
7.904999539999999
 20
9.618333226666664
 30
0
 11
6.954999460000001
 21
9.618333226666664
 31
0
  0
LINE
  8
0
 62
7
 10
6.954999309999998
 20
9.499999946666664
 30
0
 11
7.904999539999999
 21
9.499999946666664
 31
0
  0
LINE
  8
0
 62
7
 10
6.954999309999998
 20
9.434999946666663
 30
0
 11
6.954999309999998
 21
9.499999946666664
 31
0
  0
LINE
  8
0
 62
7
 10
7.904999539999999
 20
9.499999946666664
 30
0
 11
7.904999539999999
 21
9.434999946666663
 31
0
  0
LINE
  8
0
 62
7
 10
7.904999539999999
 20
9.434999946666663
 30
0
 11
6.954999309999998
 21
9.434999946666663
 31
0
  0
LINE
  8
0
 62
7
 10
6.95499954
 20
9.316666586666662
 30
0
 11
7.904999539999999
 21
9.316666586666662
 31
0
  0
LINE
  8
0
 62
7
 10
6.95499954
 20
9.251666586666662
 30
0
 11
6.95499954
 21
9.316666586666662
 31
0
  0
LINE
  8
0
 62
7
 10
7.904999539999999
 20
9.316666586666662
 30
0
 11
7.904999539999999
 21
9.251666586666662
 31
0
  0
LINE
  8
0
 62
7
 10
7.904999539999999
 20
9.251666586666662
 30
0
 11
6.95499954
 21
9.251666586666662
 31
0
  0
LINE
  8
0
 62
7
 10
7.904999539999999
 20
9.068333226666663
 30
0
 11
6.844955290000001
 21
9.068333226666663
 31
0
  0
LINE
  8
0
 62
7
 10
6.844955290000001
 20
9.133333226666663
 30
0
 11
7.904999539999999
 21
9.133333226666663
 31
0
  0
LINE
  8
0
 62
7
 10
6.844955290000001
 20
9.068333226666663
 30
0
 11
6.844955290000001
 21
9.133333226666663
 31
0
  0
LINE
  8
0
 62
7
 10
7.904999539999999
 20
9.133333226666663
 30
0
 11
7.904999539999999
 21
9.068333226666663
 31
0
  0
LINE
  8
0
 62
7
 10
7.523275909999999
 20
8.884999906666662
 30
0
 11
6.71424606
 21
8.884999906666662
 31
0
  0
LINE
  8
0
 62
7
 10
6.71424606
 20
8.949999906666664
 30
0
 11
7.523275909999999
 21
8.949999906666664
 31
0
  0
LINE
  8
0
 62
7
 10
6.71424606
 20
8.884999906666662
 30
0
 11
6.71424606
 21
8.949999906666664
 31
0
  0
LINE
  8
0
 62
7
 10
7.523275909999999
 20
8.949999906666664
 30
0
 11
7.523275909999999
 21
8.884999906666662
 31
0
  0
LINE
  8
0
 62
7
 10
6.599999350000001
 20
8.766666566666663
 30
0
 11
7.08407417
 21
8.766666566666663
 31
0
  0
LINE
  8
0
 62
7
 10
7.08407417
 20
8.701666566666661
 30
0
 11
6.599999350000001
 21
8.701666566666661
 31
0
  0
LINE
  8
0
 62
7
 10
6.599999350000001
 20
8.701666566666661
 30
0
 11
6.599999350000001
 21
8.766666566666663
 31
0
  0
LINE
  8
0
 62
7
 10
7.08407417
 20
8.766666566666663
 30
0
 11
7.08407417
 21
8.701666566666661
 31
0
  0
LINE
  8
0
 62
7
 10
6.339999480000001
 20
8.583333226666662
 30
0
 11
6.689999500000003
 21
8.583333226666662
 31
0
  0
LINE
  8
0
 62
7
 10
6.339999480000001
 20
8.518333226666662
 30
0
 11
6.339999480000001
 21
8.583333226666662
 31
0
  0
LINE
  8
0
 62
7
 10
6.689999500000003
 20
8.583333226666662
 30
0
 11
6.689999500000003
 21
8.518333226666662
 31
0
  0
LINE
  8
0
 62
7
 10
6.689999500000003
 20
8.518333226666662
 30
0
 11
6.339999480000001
 21
8.518333226666662
 31
0
  0
LINE
  8
0
 62
7
  6
DASHED
 10
1.329999999999999
 20
10.96666666666666
 30
0
 11
2.280000159999999
 21
10.96666666666666
 31
0
  0
LINE
  8
0
 62
7
  6
DASHED
 10
2.280000159999999
 20
10.96666666666666
 30
0
 11
2.280000159999999
 21
10.90166666666666
 31
0
  0
LINE
  8
0
 62
7
  6
DASHED
 10
1.329999999999999
 20
10.90166666666666
 30
0
 11
1.329999999999999
 21
10.96666666666666
 31
0
  0
LINE
  8
0
 62
7
  6
DASHED
 10
2.280000159999999
 20
10.90166666666666
 30
0
 11
1.329999999999999
 21
10.90166666666666
 31
0
  0
LINE
  8
0
 62
7
 10
1.329999999999999
 20
10.78333322666666
 30
0
 11
2.279999999999999
 21
10.78333322666666
 31
0
  0
LINE
  8
0
 62
7
 10
2.279999999999999
 20
10.78333322666666
 30
0
 11
2.279999999999999
 21
10.71833322666666
 31
0
  0
LINE
  8
0
 62
7
 10
1.329999999999999
 20
10.71833322666666
 30
0
 11
1.329999999999999
 21
10.78333322666666
 31
0
  0
LINE
  8
0
 62
7
 10
2.279999999999999
 20
10.71833322666666
 30
0
 11
1.329999999999999
 21
10.71833322666666
 31
0
  0
LINE
  8
0
 62
7
 10
1.329999999999999
 20
10.59999994666666
 30
0
 11
2.280000159999999
 21
10.59999994666666
 31
0
  0
LINE
  8
0
 62
7
 10
2.280000159999999
 20
10.59999994666666
 30
0
 11
2.280000159999999
 21
10.53499994666666
 31
0
  0
LINE
  8
0
 62
7
 10
1.329999999999999
 20
10.53499994666666
 30
0
 11
1.329999999999999
 21
10.59999994666666
 31
0
  0
LINE
  8
0
 62
7
 10
2.280000159999999
 20
10.53499994666666
 30
0
 11
1.329999999999999
 21
10.53499994666666
 31
0
  0
LINE
  8
0
 62
7
 10
2.398141479999999
 20
10.35166666666666
 30
0
 11
1.329999699999999
 21
10.35166666666666
 31
0
  0
LINE
  8
0
 62
7
 10
1.329999699999999
 20
10.41666666666666
 30
0
 11
2.398141479999999
 21
10.41666666666666
 31
0
  0
LINE
  8
0
 62
7
 10
2.398141479999999
 20
10.41666666666666
 30
0
 11
2.398141479999999
 21
10.35166666666666
 31
0
  0
LINE
  8
0
 62
7
 10
1.329999699999999
 20
10.35166666666666
 30
0
 11
1.329999699999999
 21
10.41666666666666
 31
0
  0
LINE
  8
0
 62
7
 10
2.532704009999999
 20
10.16833322666666
 30
0
 11
1.590255129999999
 21
10.16833322666666
 31
0
  0
LINE
  8
0
 62
7
 10
1.590255129999999
 20
10.23333322666666
 30
0
 11
2.532704009999999
 21
10.23333322666666
 31
0
  0
LINE
  8
0
 62
7
 10
2.532704009999999
 20
10.23333322666666
 30
0
 11
2.532704009999999
 21
10.16833322666666
 31
0
  0
LINE
  8
0
 62
7
 10
1.590255129999999
 20
10.16833322666666
 30
0
 11
1.590255129999999
 21
10.23333322666666
 31
0
  0
LINE
  8
0
 62
7
 10
2.548704229999998
 20
9.984999946666663
 30
0
 11
2.06132859
 21
9.984999946666663
 31
0
  0
LINE
  8
0
 62
7
 10
2.06132859
 20
10.04999994666666
 30
0
 11
2.64663758
 21
10.04999994666666
 31
0
  0
LINE
  8
0
 62
7
 10
2.64663758
 20
10.04999994666666
 30
0
 11
2.64663758
 21
9.984999946666663
 31
0
  0
LINE
  8
0
 62
7
 10
2.06132859
 20
9.984999946666663
 30
0
 11
2.06132859
 21
10.04999994666666
 31
0
  0
LINE
  8
0
 62
7
 10
2.64663758
 20
9.984999946666663
 30
0
 11
2.548704229999998
 21
9.984999946666663
 31
0
  0
LINE
  8
0
 62
7
 10
2.873903359999999
 20
9.801666666666662
 30
0
 11
2.45822693
 21
9.801666666666662
 31
0
  0
LINE
  8
0
 62
7
 10
2.45822693
 20
9.866666666666664
 30
0
 11
2.873903359999999
 21
9.866666666666664
 31
0
  0
LINE
  8
0
 62
7
 10
2.873903359999999
 20
9.866666666666664
 30
0
 11
2.873903359999999
 21
9.801666666666662
 31
0
  0
LINE
  8
0
 62
7
 10
2.45822693
 20
9.801666666666662
 30
0
 11
2.45822693
 21
9.866666666666664
 31
0
  0
LINE
  8
0
 62
7
 10
3.198151249999999
 20
9.618333226666664
 30
0
 11
2.743653570000001
 21
9.618333226666664
 31
0
  0
LINE
  8
0
 62
7
 10
2.743653570000001
 20
9.683333226666662
 30
0
 11
3.198151249999999
 21
9.683333226666662
 31
0
  0
LINE
  8
0
 62
7
 10
3.198151249999999
 20
9.683333226666662
 30
0
 11
3.198151249999999
 21
9.618333226666664
 31
0
  0
LINE
  8
0
 62
7
 10
2.743653570000001
 20
9.618333226666664
 30
0
 11
2.743653570000001
 21
9.683333226666662
 31
0
  0
LINE
  8
0
 62
7
 10
3.589716189999999
 20
9.434999946666663
 30
0
 11
2.930358429999999
 21
9.434999946666663
 31
0
  0
LINE
  8
0
 62
7
 10
2.930358429999999
 20
9.499999946666664
 30
0
 11
3.589716189999999
 21
9.499999946666664
 31
0
  0
LINE
  8
0
 62
7
 10
3.589716189999999
 20
9.499999946666664
 30
0
 11
3.589716189999999
 21
9.434999946666663
 31
0
  0
LINE
  8
0
 62
7
 10
2.930358429999999
 20
9.434999946666663
 30
0
 11
2.930358429999999
 21
9.499999946666664
 31
0
  0
LINE
  8
0
 62
7
 10
4.13141114
 20
9.251666586666662
 30
0
 11
3.043927159999998
 21
9.251666586666662
 31
0
  0
LINE
  8
0
 62
7
 10
3.043927159999998
 20
9.316666586666662
 30
0
 11
4.13141114
 21
9.316666586666662
 31
0
  0
LINE
  8
0
 62
7
 10
4.13141114
 20
9.316666586666662
 30
0
 11
4.13141114
 21
9.251666586666662
 31
0
  0
LINE
  8
0
 62
7
 10
3.043927159999998
 20
9.251666586666662
 30
0
 11
3.043927159999998
 21
9.316666586666662
 31
0
  0
LINE
  8
0
 62
7
 10
4.23
 20
9.068333226666663
 30
0
 11
3.187197729999999
 21
9.068333226666663
 31
0
  0
LINE
  8
0
 62
7
 10
3.187197729999999
 20
9.133333226666663
 30
0
 11
4.23
 21
9.133333226666663
 31
0
  0
LINE
  8
0
 62
7
 10
4.23
 20
9.133333226666663
 30
0
 11
4.23
 21
9.068333226666663
 31
0
  0
LINE
  8
0
 62
7
 10
3.187197729999999
 20
9.068333226666663
 30
0
 11
3.187197729999999
 21
9.133333226666663
 31
0
  0
LINE
  8
0
 62
7
 10
3.279999929999999
 20
8.949999906666664
 30
0
 11
4.230000039999998
 21
8.949999906666664
 31
0
  0
LINE
  8
0
 62
7
 10
4.230000039999998
 20
8.949999906666664
 30
0
 11
4.230000039999998
 21
8.884999906666662
 31
0
  0
LINE
  8
0
 62
7
 10
3.279999929999999
 20
8.884999906666662
 30
0
 11
3.279999929999999
 21
8.949999906666664
 31
0
  0
LINE
  8
0
 62
7
 10
4.230000039999998
 20
8.884999906666662
 30
0
 11
3.279999929999999
 21
8.884999906666662
 31
0
  0
LINE
  8
0
 62
7
 10
3.279999779999999
 20
8.766666566666663
 30
0
 11
4.229999970000001
 21
8.766666566666663
 31
0
  0
LINE
  8
0
 62
7
 10
4.229999970000001
 20
8.766666566666663
 30
0
 11
4.229999970000001
 21
8.701666566666661
 31
0
  0
LINE
  8
0
 62
7
 10
3.279999779999999
 20
8.701666566666661
 30
0
 11
3.279999779999999
 21
8.766666566666663
 31
0
  0
LINE
  8
0
 62
7
 10
4.229999970000001
 20
8.701666566666661
 30
0
 11
3.279999779999999
 21
8.701666566666661
 31
0
  0
LINE
  8
0
 62
7
 10
3.279999700000001
 20
8.583333226666662
 30
0
 11
4.22999985
 21
8.583333226666662
 31
0
  0
LINE
  8
0
 62
7
 10
4.22999985
 20
8.583333226666662
 30
0
 11
4.22999985
 21
8.518333226666662
 31
0
  0
LINE
  8
0
 62
7
 10
3.279999700000001
 20
8.518333226666662
 30
0
 11
3.279999700000001
 21
8.583333226666662
 31
0
  0
LINE
  8
0
 62
7
 10
4.22999985
 20
8.518333226666662
 30
0
 11
3.279999700000001
 21
8.518333226666662
 31
0
  0
LINE
  8
0
 62
7
  6
DASHDOT
 10
1.1
 20
5.539999999999996
 30
0
 11
1.275
 21
5.539999999999996
 31
0
  0
LINE
  8
0
 62
7
  6
DASHDOT
 10
1.05
 20
5.539999999999996
 30
0
 11
1.1
 21
5.539999999999996
 31
0
  0
LINE
  8
0
 62
7
  6
DASHDOT
 10
4.61
 20
4.870000000000001
 30
0
 11
4.61
 21
5.11
 31
0
  0
LINE
  8
0
 62
7
  6
DASHDOT
 10
0.9350000000000001
 20
4.870000000000001
 30
0
 11
0.9350000000000001
 21
5.11
 31
0
  0
LINE
  8
0
 62
7
  6
DASHDOT
 10
4.61
 20
5.11
 30
0
 11
4.61
 21
5.15
 31
0
  0
LINE
  8
0
 62
7
  6
DASHDOT
 10
0.9350000000000001
 20
5.11
 30
0
 11
0.9350000000000001
 21
5.15
 31
0
  0
LINE
  8
0
 62
7
  6
DASHDOT
 10
4.61
 20
4.82
 30
0
 11
4.61
 21
4.870000000000001
 31
0
  0
LINE
  8
0
 62
7
  6
DASHDOT
 10
4.61
 20
5.15
 30
0
 11
4.61
 21
5.389999999999997
 31
0
  0
LINE
  8
0
 62
7
  6
DASHDOT
 10
4.234999999999999
 20
5.539999999999996
 30
0
 11
4.284999999999999
 21
5.539999999999996
 31
0
  0
LINE
  8
0
 62
7
  6
DASHDOT
 10
4.284999999999999
 20
5.539999999999996
 30
0
 11
4.46
 21
5.539999999999996
 31
0
  0
LINE
  8
0
 62
7
  6
DASHDOT
 10
0.9350000000000001
 20
4.82
 30
0
 11
0.9350000000000001
 21
4.870000000000001
 31
0
  0
LINE
  8
0
 62
7
  6
DASHDOT
 10
0.9350000000000001
 20
5.15
 30
0
 11
0.9350000000000001
 21
5.389999999999997
 31
0
  0
LINE
  8
0
 62
7
  6
DASHDOT
 10
0.9350000000000001
 20
5.389999999999997
 30
0
 11
0.9350000000000001
 21
5.439999999999997
 31
0
  0
LINE
  8
0
 62
7
  6
DASHDOT
 10
4.61
 20
5.389999999999997
 30
0
 11
4.61
 21
5.439999999999997
 31
0
  0
LINE
  8
0
 62
7
  6
DASHDOT
 10
1.275
 20
5.539999999999996
 30
0
 11
1.325
 21
5.539999999999996
 31
0
  0
LINE
  8
0
 62
7
  6
DASHDOT
 10
4.46
 20
5.539999999999996
 30
0
 11
4.510000000000001
 21
5.539999999999996
 31
0
  0
LINE
  8
0
 62
7
 10
4.284999999999999
 20
3.4
 30
0
 11
4.284999999999999
 21
3.35
 31
0
  0
LINE
  8
0
 62
7
  6
DASHDOT
 10
4.284999999999999
 20
3.35
 30
0
 11
1.275
 21
3.35
 31
0
  0
LINE
  8
0
 62
7
 10
1.275
 20
3.35
 30
0
 11
1.275
 21
3.4
 31
0
  0
LINE
  8
0
 62
7
 10
4.284999999999999
 20
4.870000000000001
 30
0
 11
4.284999999999999
 21
3.4
 31
0
  0
LINE
  8
0
 62
7
 10
4.284999999999999
 20
3.4
 30
0
 11
1.275
 21
3.4
 31
0
  0
LINE
  8
0
 62
7
 10
1.1
 20
3.35
 30
0
 11
1.275
 21
3.35
 31
0
  0
LINE
  8
0
 62
7
 10
0.9350000000000001
 20
4.870000000000001
 30
0
 11
1.1
 21
4.870000000000001
 31
0
  0
LINE
  8
0
 62
7
 10
1.1
 20
4.870000000000001
 30
0
 11
1.1
 21
3.35
 31
0
  0
LINE
  8
0
 62
7
 10
1.275
 20
3.4
 30
0
 11
1.275
 21
4.870000000000001
 31
0
  0
LINE
  8
0
 62
7
 10
1.275
 20
4.870000000000001
 30
0
 11
4.284999999999999
 21
4.870000000000001
 31
0
  0
LINE
  8
0
 62
7
 10
4.46
 20
3.25
 30
0
 11
4.46
 21
4.870000000000001
 31
0
  0
LINE
  8
0
 62
7
 10
4.284999999999999
 20
3.25
 30
0
 11
4.46
 21
3.25
 31
0
  0
LINE
  8
0
 62
7
 10
4.284999999999999
 20
3.35
 30
0
 11
4.284999999999999
 21
3.25
 31
0
  0
LINE
  8
0
 62
7
 10
4.46
 20
4.870000000000001
 30
0
 11
4.61
 21
4.870000000000001
 31
0
  0
LINE
  8
0
 62
7
 10
0.9350000000000001
 20
5.11
 30
0
 11
4.61
 21
5.11
 31
0
  0
LINE
  8
0
 62
7
 10
0.9350000000000001
 20
5.15
 30
0
 11
4.61
 21
5.15
 31
0
  0
LINE
  8
0
 62
7
 10
0.9350000000000001
 20
5.389999999999997
 30
0
 11
1.1
 21
5.389999999999997
 31
0
  0
LINE
  8
0
 62
7
 10
1.1
 20
5.389999999999997
 30
0
 11
1.1
 21
5.539999999999996
 31
0
  0
LINE
  8
0
 62
7
 10
1.275
 20
5.539999999999996
 30
0
 11
1.275
 21
5.389999999999997
 31
0
  0
LINE
  8
0
 62
7
 10
1.275
 20
5.389999999999997
 30
0
 11
4.284999999999999
 21
5.389999999999997
 31
0
  0
LINE
  8
0
 62
7
 10
4.284999999999999
 20
5.389999999999997
 30
0
 11
4.284999999999999
 21
5.539999999999996
 31
0
  0
LINE
  8
0
 62
7
 10
4.46
 20
5.539999999999996
 30
0
 11
4.46
 21
5.389999999999997
 31
0
  0
LINE
  8
0
 62
7
 10
4.46
 20
5.389999999999997
 30
0
 11
4.61
 21
5.389999999999997
 31
0
  0
LINE
  8
0
 62
7
  6
DASHED
 10
6.440000000000001
 20
8.099999999999996
 30
0
 11
7.960000000000001
 21
8.099999999999996
 31
0
  0
LINE
  8
0
 62
7
  6
DASHED
 10
6.440000000000001
 20
8.299999999999997
 30
0
 11
7.960000000000001
 21
8.299999999999997
 31
0
  0
LINE
  8
0
 62
7
  6
DASHED
 10
6.440000000000001
 20
10.85
 30
0
 11
7.960000000000001
 21
10.85
 31
0
  0
LINE
  8
0
 62
7
  6
DASHED
 10
6.440000000000001
 20
11.05
 30
0
 11
7.960000000000001
 21
11.05
 31
0
  0
LINE
  8
0
 62
7
  6
DASHDOT
 10
6.140000000000001
 20
10.85
 30
0
 11
6.140000000000001
 21
11.05
 31
0
  0
LINE
  8
0
 62
7
  6
DASHDOT
 10
6.140000000000001
 20
10.8
 30
0
 11
6.140000000000001
 21
10.85
 31
0
  0
LINE
  8
0
 62
7
  6
DASHDOT
 10
7.960000000000001
 20
11.2
 30
0
 11
8.200000000000001
 21
11.2
 31
0
  0
LINE
  8
0
 62
7
  6
DASHDOT
 10
7.910000000000001
 20
11.2
 30
0
 11
7.960000000000001
 21
11.2
 31
0
  0
LINE
  8
0
 62
7
  6
DASHDOT
 10
7.910000000000001
 20
7.949999999999998
 30
0
 11
7.960000000000001
 21
7.949999999999998
 31
0
  0
LINE
  8
0
 62
7
  6
DASHDOT
 10
7.960000000000001
 20
7.949999999999998
 30
0
 11
8.200000000000001
 21
7.949999999999998
 31
0
  0
LINE
  8
0
 62
7
  6
DASHDOT
 10
6.140000000000001
 20
8.299999999999997
 30
0
 11
6.140000000000001
 21
8.099999999999996
 31
0
  0
LINE
  8
0
 62
7
  6
DASHDOT
 10
6.140000000000001
 20
8.399999999999997
 30
0
 11
6.140000000000001
 21
8.299999999999997
 31
0
  0
LINE
  8
0
 62
7
  6
DASHDOT
 10
6.140000000000001
 20
11.05
 30
0
 11
6.140000000000001
 21
11.15
 31
0
  0
LINE
  8
0
 62
7
 10
6.140000000000001
 20
11.15
 30
0
 11
6.440000000000001
 21
11.15
 31
0
  0
LINE
  8
0
 62
7
  6
DASHDOT
 10
6.140000000000001
 20
8.449999999999998
 30
0
 11
6.140000000000001
 21
8.399999999999997
 31
0
  0
LINE
  8
0
 62
7
 10
6.140000000000001
 20
8.399999999999997
 30
0
 11
6.440000000000001
 21
8.399999999999997
 31
0
  0
LINE
  8
0
 62
7
  6
DASHDOT
 10
8.200000000000001
 20
7.949999999999998
 30
0
 11
8.25
 21
7.949999999999998
 31
0
  0
LINE
  8
0
 62
7
  6
DASHDOT
 10
6.140000000000001
 20
8.099999999999996
 30
0
 11
6.140000000000001
 21
8.049999999999995
 31
0
  0
LINE
  8
0
 62
7
  6
DASHDOT
 10
6.140000000000001
 20
11.15
 30
0
 11
6.140000000000001
 21
11.2
 31
0
  0
LINE
  8
0
 62
7
  6
DASHDOT
 10
8.200000000000001
 20
11.2
 30
0
 11
8.25
 21
11.2
 31
0
  0
LINE
  8
0
 62
7
 10
6.140000000000001
 20
8.099999999999996
 30
0
 11
6.440000000000001
 21
8.099999999999996
 31
0
  0
LINE
  8
0
 62
7
 10
6.440000000000001
 20
8.099999999999996
 30
0
 11
6.440000000000001
 21
8.299999999999997
 31
0
  0
LINE
  8
0
 62
7
 10
6.140000000000001
 20
8.299999999999997
 30
0
 11
6.440000000000001
 21
8.299999999999997
 31
0
  0
LINE
  8
0
 62
7
 10
6.140000000000001
 20
11.05
 30
0
 11
6.440000000000001
 21
11.05
 31
0
  0
LINE
  8
0
 62
7
 10
6.140000000000001
 20
10.85
 30
0
 11
6.440000000000001
 21
10.85
 31
0
  0
LINE
  8
0
 62
7
 10
6.440000000000001
 20
10.85
 30
0
 11
6.440000000000001
 21
11.05
 31
0
  0
LINE
  8
0
 62
7
 10
7.960000000000001
 20
7.949999999999998
 30
0
 11
7.960000000000001
 21
8.099999999999996
 31
0
  0
LINE
  8
0
 62
7
 10
8.200000000000001
 20
8.299999999999997
 30
0
 11
8.200000000000001
 21
8.099999999999996
 31
0
  0
LINE
  8
0
 62
7
 10
7.960000000000001
 20
8.099999999999996
 30
0
 11
8.200000000000001
 21
8.099999999999996
 31
0
  0
LINE
  8
0
 62
7
 10
7.960000000000001
 20
8.099999999999996
 30
0
 11
7.960000000000001
 21
8.299999999999997
 31
0
  0
LINE
  8
0
 62
7
 10
8.200000000000001
 20
10.85
 30
0
 11
8.200000000000001
 21
8.299999999999997
 31
0
  0
LINE
  8
0
 62
7
 10
7.960000000000001
 20
8.299999999999997
 30
0
 11
8.200000000000001
 21
8.299999999999997
 31
0
  0
LINE
  8
0
 62
7
 10
7.960000000000001
 20
8.299999999999997
 30
0
 11
7.960000000000001
 21
10.85
 31
0
  0
LINE
  8
0
 62
7
 10
8.200000000000001
 20
11.05
 30
0
 11
8.200000000000001
 21
10.85
 31
0
  0
LINE
  8
0
 62
7
 10
7.960000000000001
 20
10.85
 30
0
 11
8.200000000000001
 21
10.85
 31
0
  0
LINE
  8
0
 62
7
 10
7.960000000000001
 20
10.85
 30
0
 11
7.960000000000001
 21
11.05
 31
0
  0
LINE
  8
0
 62
7
 10
8.200000000000001
 20
11.2
 30
0
 11
8.200000000000001
 21
11.05
 31
0
  0
LINE
  8
0
 62
7
 10
7.960000000000001
 20
11.05
 30
0
 11
8.200000000000001
 21
11.05
 31
0
  0
LINE
  8
0
 62
7
 10
7.960000000000001
 20
11.05
 30
0
 11
7.960000000000001
 21
11.2
 31
0
  0
LINE
  8
0
 62
7
 10
8.200000000000001
 20
8.099999999999996
 30
0
 11
8.200000000000001
 21
7.949999999999998
 31
0
  0
LINE
  8
0
 62
7
  6
DASHDOT
 10
4.46
 20
11.2
 30
0
 11
4.510000000000001
 21
11.2
 31
0
  0
LINE
  8
0
 62
7
  6
DASHDOT
 10
4.284999999999999
 20
11.2
 30
0
 11
4.46
 21
11.2
 31
0
  0
LINE
  8
0
 62
7
  6
DASHDOT
 10
4.61
 20
11.05
 30
0
 11
4.61
 21
11.15
 31
0
  0
LINE
  8
0
 62
7
  6
DASHDOT
 10
4.61
 20
10.85
 30
0
 11
4.61
 21
11.05
 31
0
  0
LINE
  8
0
 62
7
  6
DASHDOT
 10
1.275
 20
11.2
 30
0
 11
1.325
 21
11.2
 31
0
  0
LINE
  8
0
 62
7
  6
DASHDOT
 10
1.1
 20
11.2
 30
0
 11
1.275
 21
11.2
 31
0
  0
LINE
  8
0
 62
7
  6
DASHDOT
 10
0.9500000000000001
 20
11.05
 30
0
 11
0.9500000000000001
 21
11.15
 31
0
  0
LINE
  8
0
 62
7
  6
DASHDOT
 10
0.9500000000000001
 20
10.85
 30
0
 11
0.9500000000000001
 21
11.05
 31
0
  0
LINE
  8
0
 62
7
  6
DASHDOT
 10
1.275
 20
7.949999999999998
 30
0
 11
1.325
 21
7.949999999999998
 31
0
  0
LINE
  8
0
 62
7
  6
DASHDOT
 10
1.1
 20
7.949999999999998
 30
0
 11
1.275
 21
7.949999999999998
 31
0
  0
LINE
  8
0
 62
7
  6
DASHDOT
 10
0.9500000000000001
 20
8.299999999999997
 30
0
 11
0.9500000000000001
 21
8.399999999999997
 31
0
  0
LINE
  8
0
 62
7
  6
DASHDOT
 10
0.9500000000000001
 20
8.099999999999996
 30
0
 11
0.9500000000000001
 21
8.299999999999997
 31
0
  0
LINE
  8
0
 62
7
  6
DASHDOT
 10
4.46
 20
7.949999999999998
 30
0
 11
4.510000000000001
 21
7.949999999999998
 31
0
  0
LINE
  8
0
 62
7
  6
DASHDOT
 10
4.284999999999999
 20
7.949999999999998
 30
0
 11
4.46
 21
7.949999999999998
 31
0
  0
LINE
  8
0
 62
7
  6
DASHDOT
 10
4.61
 20
8.299999999999997
 30
0
 11
4.61
 21
8.399999999999997
 31
0
  0
LINE
  8
0
 62
7
  6
DASHDOT
 10
4.61
 20
8.099999999999996
 30
0
 11
4.61
 21
8.299999999999997
 31
0
  0
LINE
  8
0
 62
7
  6
DASHDOT
 10
4.61
 20
11.15
 30
0
 11
4.61
 21
11.2
 31
0
  0
LINE
  8
0
 62
7
 10
4.46
 20
11.15
 30
0
 11
4.46
 21
11.2
 31
0
  0
LINE
  8
0
 62
7
 10
4.46
 20
11.15
 30
0
 11
4.61
 21
11.15
 31
0
  0
LINE
  8
0
 62
7
 10
4.284999999999999
 20
11.15
 30
0
 11
4.284999999999999
 21
11.2
 31
0
  0
LINE
  8
0
 62
7
 10
1.275
 20
11.15
 30
0
 11
1.275
 21
11.2
 31
0
  0
LINE
  8
0
 62
7
 10
1.275
 20
11.15
 30
0
 11
4.284999999999999
 21
11.15
 31
0
  0
LINE
  8
0
 62
7
  6
DASHDOT
 10
0.9500000000000001
 20
11.15
 30
0
 11
0.9500000000000001
 21
11.2
 31
0
  0
LINE
  8
0
 62
7
 10
1.1
 20
11.15
 30
0
 11
1.1
 21
11.2
 31
0
  0
LINE
  8
0
 62
7
 10
0.9500000000000001
 20
11.15
 30
0
 11
1.1
 21
11.15
 31
0
  0
LINE
  8
0
 62
7
  6
DASHDOT
 10
4.61
 20
8.399999999999997
 30
0
 11
4.61
 21
8.449999999999998
 31
0
  0
LINE
  8
0
 62
7
 10
4.46
 20
8.399999999999997
 30
0
 11
4.46
 21
10.85
 31
0
  0
LINE
  8
0
 62
7
 10
4.46
 20
8.399999999999997
 30
0
 11
4.61
 21
8.399999999999997
 31
0
  0
LINE
  8
0
 62
7
 10
4.284999999999999
 20
8.399999999999997
 30
0
 11
4.284999999999999
 21
10.85
 31
0
  0
LINE
  8
0
 62
7
 10
1.275
 20
8.399999999999997
 30
0
 11
1.275
 21
10.85
 31
0
  0
LINE
  8
0
 62
7
 10
1.275
 20
8.399999999999997
 30
0
 11
4.284999999999999
 21
8.399999999999997
 31
0
  0
LINE
  8
0
 62
7
  6
DASHDOT
 10
0.9500000000000001
 20
8.399999999999997
 30
0
 11
0.9500000000000001
 21
8.449999999999998
 31
0
  0
LINE
  8
0
 62
7
 10
1.1
 20
8.399999999999997
 30
0
 11
1.1
 21
10.85
 31
0
  0
LINE
  8
0
 62
7
 10
0.9500000000000001
 20
8.399999999999997
 30
0
 11
1.1
 21
8.399999999999997
 31
0
  0
LINE
  8
0
 62
7
  6
DASHDOT
 10
4.234999999999999
 20
7.949999999999998
 30
0
 11
4.284999999999999
 21
7.949999999999998
 31
0
  0
LINE
  8
0
 62
7
  6
DASHDOT
 10
4.234999999999999
 20
11.2
 30
0
 11
4.284999999999999
 21
11.2
 31
0
  0
LINE
  8
0
 62
7
  6
DASHDOT
 10
1.05
 20
7.949999999999998
 30
0
 11
1.1
 21
7.949999999999998
 31
0
  0
LINE
  8
0
 62
7
  6
DASHDOT
 10
1.05
 20
11.2
 30
0
 11
1.1
 21
11.2
 31
0
  0
LINE
  8
0
 62
7
  6
DASHDOT
 10
4.61
 20
10.8
 30
0
 11
4.61
 21
10.85
 31
0
  0
LINE
  8
0
 62
7
  6
DASHDOT
 10
4.61
 20
8.049999999999995
 30
0
 11
4.61
 21
8.099999999999996
 31
0
  0
LINE
  8
0
 62
7
  6
DASHDOT
 10
0.9500000000000001
 20
10.8
 30
0
 11
0.9500000000000001
 21
10.85
 31
0
  0
LINE
  8
0
 62
7
  6
DASHDOT
 10
0.9500000000000001
 20
8.049999999999995
 30
0
 11
0.9500000000000001
 21
8.099999999999996
 31
0
  0
LINE
  8
0
 62
7
 10
4.46
 20
11.05
 30
0
 11
4.61
 21
11.05
 31
0
  0
LINE
  8
0
 62
7
 10
4.46
 20
11.05
 30
0
 11
4.46
 21
11.15
 31
0
  0
LINE
  8
0
 62
7
 10
4.46
 20
10.85
 30
0
 11
4.61
 21
10.85
 31
0
  0
LINE
  8
0
 62
7
 10
4.46
 20
8.299999999999997
 30
0
 11
4.61
 21
8.299999999999997
 31
0
  0
LINE
  8
0
 62
7
 10
4.46
 20
8.299999999999997
 30
0
 11
4.46
 21
8.399999999999997
 31
0
  0
LINE
  8
0
 62
7
 10
4.46
 20
8.099999999999996
 30
0
 11
4.61
 21
8.099999999999996
 31
0
  0
LINE
  8
0
 62
7
 10
4.46
 20
7.949999999999998
 30
0
 11
4.46
 21
8.099999999999996
 31
0
  0
LINE
  8
0
 62
7
 10
4.284999999999999
 20
11.05
 30
0
 11
4.46
 21
11.05
 31
0
  0
LINE
  8
0
 62
7
 10
4.284999999999999
 20
11.05
 30
0
 11
4.284999999999999
 21
11.15
 31
0
  0
LINE
  8
0
 62
7
 10
4.284999999999999
 20
10.85
 30
0
 11
4.46
 21
10.85
 31
0
  0
LINE
  8
0
 62
7
 10
4.284999999999999
 20
8.299999999999997
 30
0
 11
4.46
 21
8.299999999999997
 31
0
  0
LINE
  8
0
 62
7
 10
4.284999999999999
 20
8.299999999999997
 30
0
 11
4.284999999999999
 21
8.399999999999997
 31
0
  0
LINE
  8
0
 62
7
 10
4.284999999999999
 20
8.099999999999996
 30
0
 11
4.46
 21
8.099999999999996
 31
0
  0
LINE
  8
0
 62
7
 10
4.284999999999999
 20
7.949999999999998
 30
0
 11
4.284999999999999
 21
8.099999999999996
 31
0
  0
LINE
  8
0
 62
7
 10
1.275
 20
11.05
 30
0
 11
4.284999999999999
 21
11.05
 31
0
  0
LINE
  8
0
 62
7
 10
1.275
 20
11.05
 30
0
 11
1.275
 21
11.15
 31
0
  0
LINE
  8
0
 62
7
 10
1.275
 20
10.85
 30
0
 11
4.284999999999999
 21
10.85
 31
0
  0
LINE
  8
0
 62
7
 10
1.275
 20
8.299999999999997
 30
0
 11
4.284999999999999
 21
8.299999999999997
 31
0
  0
LINE
  8
0
 62
7
 10
1.275
 20
8.299999999999997
 30
0
 11
1.275
 21
8.399999999999997
 31
0
  0
LINE
  8
0
 62
7
 10
1.275
 20
8.099999999999996
 30
0
 11
4.284999999999999
 21
8.099999999999996
 31
0
  0
LINE
  8
0
 62
7
 10
1.275
 20
7.949999999999998
 30
0
 11
1.275
 21
8.099999999999996
 31
0
  0
LINE
  8
0
 62
7
 10
1.1
 20
11.05
 30
0
 11
1.275
 21
11.05
 31
0
  0
LINE
  8
0
 62
7
 10
1.1
 20
11.05
 30
0
 11
1.1
 21
11.15
 31
0
  0
LINE
  8
0
 62
7
 10
1.1
 20
10.85
 30
0
 11
1.275
 21
10.85
 31
0
  0
LINE
  8
0
 62
7
 10
1.1
 20
8.299999999999997
 30
0
 11
1.275
 21
8.299999999999997
 31
0
  0
LINE
  8
0
 62
7
 10
1.1
 20
8.299999999999997
 30
0
 11
1.1
 21
8.399999999999997
 31
0
  0
LINE
  8
0
 62
7
 10
1.1
 20
8.099999999999996
 30
0
 11
1.275
 21
8.099999999999996
 31
0
  0
LINE
  8
0
 62
7
 10
1.1
 20
7.949999999999998
 30
0
 11
1.1
 21
8.099999999999996
 31
0
  0
LINE
  8
0
 62
7
 10
0.9500000000000001
 20
11.05
 30
0
 11
1.1
 21
11.05
 31
0
  0
LINE
  8
0
 62
7
 10
0.9500000000000001
 20
10.85
 30
0
 11
1.1
 21
10.85
 31
0
  0
LINE
  8
0
 62
7
 10
0.9500000000000001
 20
8.299999999999997
 30
0
 11
1.1
 21
8.299999999999997
 31
0
  0
LINE
  8
0
 62
7
 10
0.9500000000000001
 20
8.099999999999996
 30
0
 11
1.1
 21
8.099999999999996
 31
0
  0
LINE
  8
0
 62
7
 10
1.936803755997421
 20
4.53925504806657
 30
0
 11
1.936803755997421
 21
4.659255048066569
 31
0
  0
LINE
  8
0
 62
7
 10
2.012403755997421
 20
4.659255048066569
 30
0
 11
1.958403755997421
 21
4.59925504806657
 31
0
  0
LINE
  8
0
 62
7
 10
1.958403755997421
 20
4.59925504806657
 30
0
 11
2.012403755997421
 21
4.53925504806657
 31
0
  0
LINE
  8
0
 62
7
 10
1.958403755997421
 20
4.59925504806657
 30
0
 11
1.936803755997421
 21
4.575255048066571
 31
0
  0
LINE
  8
0
 62
7
 10
2.120403755997422
 20
4.659255048066569
 30
0
 11
2.044803755997421
 21
4.659255048066569
 31
0
  0
LINE
  8
0
 62
7
 10
2.044803755997421
 20
4.659255048066569
 30
0
 11
2.044803755997421
 21
4.59925504806657
 31
0
  0
LINE
  8
0
 62
7
 10
2.044803755997421
 20
4.53925504806657
 30
0
 11
2.120403755997422
 21
4.53925504806657
 31
0
  0
LINE
  8
0
 62
7
 10
2.109603755997421
 20
4.59925504806657
 30
0
 11
2.044803755997421
 21
4.59925504806657
 31
0
  0
LINE
  8
0
 62
7
 10
2.044803755997421
 20
4.59925504806657
 30
0
 11
2.044803755997421
 21
4.53925504806657
 31
0
  0
LINE
  8
0
 62
7
 10
2.152803755997421
 20
4.53925504806657
 30
0
 11
2.152803755997421
 21
4.659255048066569
 31
0
  0
LINE
  8
0
 62
7
 10
2.152803755997421
 20
4.659255048066569
 30
0
 11
2.228403755997421
 21
4.53925504806657
 31
0
  0
LINE
  8
0
 62
7
 10
2.228403755997421
 20
4.53925504806657
 30
0
 11
2.228403755997421
 21
4.659255048066569
 31
0
  0
LINE
  8
0
 62
7
 10
2.260803755997421
 20
4.53925504806657
 30
0
 11
2.260803755997421
 21
4.659255048066569
 31
0
  0
LINE
  8
0
 62
7
 10
2.260803755997421
 20
4.659255048066569
 30
0
 11
2.336403755997421
 21
4.53925504806657
 31
0
  0
LINE
  8
0
 62
7
 10
2.336403755997421
 20
4.53925504806657
 30
0
 11
2.336403755997421
 21
4.659255048066569
 31
0
  0
LINE
  8
0
 62
7
 10
2.444403755997421
 20
4.623255048066571
 30
0
 11
2.441703755997422
 21
4.635255048066571
 31
0
  0
LINE
  8
0
 62
7
 10
2.441703755997422
 20
4.635255048066571
 30
0
 11
2.436303755997421
 21
4.64425504806657
 31
0
  0
LINE
  8
0
 62
7
 10
2.436303755997421
 20
4.64425504806657
 30
0
 11
2.430903755997421
 21
4.650255048066571
 31
0
  0
LINE
  8
0
 62
7
 10
2.430903755997421
 20
4.650255048066571
 30
0
 11
2.422803755997421
 21
4.65625504806657
 31
0
  0
LINE
  8
0
 62
7
 10
2.422803755997421
 20
4.65625504806657
 30
0
 11
2.414703755997421
 21
4.659255048066569
 31
0
  0
LINE
  8
0
 62
7
 10
2.414703755997421
 20
4.659255048066569
 30
0
 11
2.398503755997421
 21
4.659255048066569
 31
0
  0
LINE
  8
0
 62
7
 10
2.398503755997421
 20
4.659255048066569
 30
0
 11
2.390403755997422
 21
4.65625504806657
 31
0
  0
LINE
  8
0
 62
7
 10
2.390403755997422
 20
4.65625504806657
 30
0
 11
2.382303755997421
 21
4.650255048066571
 31
0
  0
LINE
  8
0
 62
7
 10
2.382303755997421
 20
4.650255048066571
 30
0
 11
2.376903755997421
 21
4.64425504806657
 31
0
  0
LINE
  8
0
 62
7
 10
2.376903755997421
 20
4.64425504806657
 30
0
 11
2.371503755997421
 21
4.635255048066571
 31
0
  0
LINE
  8
0
 62
7
 10
2.371503755997421
 20
4.635255048066571
 30
0
 11
2.368803755997421
 21
4.623255048066571
 31
0
  0
LINE
  8
0
 62
7
 10
2.368803755997421
 20
4.623255048066571
 30
0
 11
2.368803755997421
 21
4.575255048066571
 31
0
  0
LINE
  8
0
 62
7
 10
2.368803755997421
 20
4.575255048066571
 30
0
 11
2.371503755997421
 21
4.563255048066571
 31
0
  0
LINE
  8
0
 62
7
 10
2.371503755997421
 20
4.563255048066571
 30
0
 11
2.376903755997421
 21
4.55425504806657
 31
0
  0
LINE
  8
0
 62
7
 10
2.376903755997421
 20
4.55425504806657
 30
0
 11
2.382303755997421
 21
4.548255048066571
 31
0
  0
LINE
  8
0
 62
7
 10
2.382303755997421
 20
4.548255048066571
 30
0
 11
2.390403755997422
 21
4.542255048066571
 31
0
  0
LINE
  8
0
 62
7
 10
2.390403755997422
 20
4.542255048066571
 30
0
 11
2.398503755997421
 21
4.53925504806657
 31
0
  0
LINE
  8
0
 62
7
 10
2.398503755997421
 20
4.53925504806657
 30
0
 11
2.414703755997421
 21
4.53925504806657
 31
0
  0
LINE
  8
0
 62
7
 10
2.414703755997421
 20
4.53925504806657
 30
0
 11
2.422803755997421
 21
4.542255048066571
 31
0
  0
LINE
  8
0
 62
7
 10
2.422803755997421
 20
4.542255048066571
 30
0
 11
2.430903755997421
 21
4.548255048066571
 31
0
  0
LINE
  8
0
 62
7
 10
2.430903755997421
 20
4.548255048066571
 30
0
 11
2.436303755997421
 21
4.55425504806657
 31
0
  0
LINE
  8
0
 62
7
 10
2.436303755997421
 20
4.55425504806657
 30
0
 11
2.441703755997422
 21
4.563255048066571
 31
0
  0
LINE
  8
0
 62
7
 10
2.441703755997422
 20
4.563255048066571
 30
0
 11
2.444403755997421
 21
4.575255048066571
 31
0
  0
LINE
  8
0
 62
7
 10
2.444403755997421
 20
4.575255048066571
 30
0
 11
2.444403755997421
 21
4.59925504806657
 31
0
  0
LINE
  8
0
 62
7
 10
2.444403755997421
 20
4.59925504806657
 30
0
 11
2.412003755997421
 21
4.59925504806657
 31
0
  0
LINE
  8
0
 62
7
 10
2.522703755997421
 20
4.659255048066569
 30
0
 11
2.506503755997421
 21
4.659255048066569
 31
0
  0
LINE
  8
0
 62
7
 10
2.506503755997421
 20
4.659255048066569
 30
0
 11
2.498403755997421
 21
4.65625504806657
 31
0
  0
LINE
  8
0
 62
7
 10
2.498403755997421
 20
4.65625504806657
 30
0
 11
2.490303755997421
 21
4.650255048066571
 31
0
  0
LINE
  8
0
 62
7
 10
2.490303755997421
 20
4.650255048066571
 30
0
 11
2.484903755997421
 21
4.64425504806657
 31
0
  0
LINE
  8
0
 62
7
 10
2.484903755997421
 20
4.64425504806657
 30
0
 11
2.479503755997421
 21
4.635255048066571
 31
0
  0
LINE
  8
0
 62
7
 10
2.479503755997421
 20
4.635255048066571
 30
0
 11
2.476803755997421
 21
4.623255048066571
 31
0
  0
LINE
  8
0
 62
7
 10
2.476803755997421
 20
4.623255048066571
 30
0
 11
2.476803755997421
 21
4.575255048066571
 31
0
  0
LINE
  8
0
 62
7
 10
2.476803755997421
 20
4.575255048066571
 30
0
 11
2.479503755997421
 21
4.563255048066571
 31
0
  0
LINE
  8
0
 62
7
 10
2.479503755997421
 20
4.563255048066571
 30
0
 11
2.484903755997421
 21
4.55425504806657
 31
0
  0
LINE
  8
0
 62
7
 10
2.484903755997421
 20
4.55425504806657
 30
0
 11
2.490303755997421
 21
4.548255048066571
 31
0
  0
LINE
  8
0
 62
7
 10
2.490303755997421
 20
4.548255048066571
 30
0
 11
2.498403755997421
 21
4.542255048066571
 31
0
  0
LINE
  8
0
 62
7
 10
2.498403755997421
 20
4.542255048066571
 30
0
 11
2.506503755997421
 21
4.53925504806657
 31
0
  0
LINE
  8
0
 62
7
 10
2.506503755997421
 20
4.53925504806657
 30
0
 11
2.522703755997421
 21
4.53925504806657
 31
0
  0
LINE
  8
0
 62
7
 10
2.522703755997421
 20
4.53925504806657
 30
0
 11
2.530803755997421
 21
4.542255048066571
 31
0
  0
LINE
  8
0
 62
7
 10
2.530803755997421
 20
4.542255048066571
 30
0
 11
2.538903755997421
 21
4.548255048066571
 31
0
  0
LINE
  8
0
 62
7
 10
2.538903755997421
 20
4.548255048066571
 30
0
 11
2.544303755997421
 21
4.55425504806657
 31
0
  0
LINE
  8
0
 62
7
 10
2.544303755997421
 20
4.55425504806657
 30
0
 11
2.549703755997421
 21
4.563255048066571
 31
0
  0
LINE
  8
0
 62
7
 10
2.549703755997421
 20
4.563255048066571
 30
0
 11
2.552403755997421
 21
4.575255048066571
 31
0
  0
LINE
  8
0
 62
7
 10
2.552403755997421
 20
4.575255048066571
 30
0
 11
2.552403755997421
 21
4.623255048066571
 31
0
  0
LINE
  8
0
 62
7
 10
2.552403755997421
 20
4.623255048066571
 30
0
 11
2.549703755997421
 21
4.635255048066571
 31
0
  0
LINE
  8
0
 62
7
 10
2.549703755997421
 20
4.635255048066571
 30
0
 11
2.544303755997421
 21
4.64425504806657
 31
0
  0
LINE
  8
0
 62
7
 10
2.544303755997421
 20
4.64425504806657
 30
0
 11
2.538903755997421
 21
4.650255048066571
 31
0
  0
LINE
  8
0
 62
7
 10
2.538903755997421
 20
4.650255048066571
 30
0
 11
2.530803755997421
 21
4.65625504806657
 31
0
  0
LINE
  8
0
 62
7
 10
2.530803755997421
 20
4.65625504806657
 30
0
 11
2.522703755997421
 21
4.659255048066569
 31
0
  0
LINE
  8
0
 62
7
 10
2.574003755997421
 20
4.659255048066569
 30
0
 11
2.611803755997421
 21
4.659255048066569
 31
0
  0
LINE
  8
0
 62
7
 10
2.611803755997421
 20
4.659255048066569
 30
0
 11
2.611803755997421
 21
4.53925504806657
 31
0
  0
LINE
  8
0
 62
7
 10
2.611803755997421
 20
4.659255048066569
 30
0
 11
2.649603755997421
 21
4.659255048066569
 31
0
  0
LINE
  8
0
 62
7
 10
2.682003755997421
 20
4.659255048066569
 30
0
 11
2.719803755997421
 21
4.659255048066569
 31
0
  0
LINE
  8
0
 62
7
 10
2.719803755997421
 20
4.659255048066569
 30
0
 11
2.719803755997421
 21
4.53925504806657
 31
0
  0
LINE
  8
0
 62
7
 10
2.719803755997421
 20
4.659255048066569
 30
0
 11
2.757603755997421
 21
4.659255048066569
 31
0
  0
LINE
  8
0
 62
7
 10
2.876403755997421
 20
4.58125504806657
 30
0
 11
2.930403755997421
 21
4.58125504806657
 31
0
  0
LINE
  8
0
 62
7
 10
3.038403755997422
 20
4.659255048066569
 30
0
 11
3.076203755997421
 21
4.659255048066569
 31
0
  0
LINE
  8
0
 62
7
 10
3.076203755997421
 20
4.659255048066569
 30
0
 11
3.076203755997421
 21
4.53925504806657
 31
0
  0
LINE
  8
0
 62
7
 10
3.076203755997421
 20
4.659255048066569
 30
0
 11
3.114003755997421
 21
4.659255048066569
 31
0
  0
LINE
  8
0
 62
7
 10
3.146403755997421
 20
4.53925504806657
 30
0
 11
3.146403755997421
 21
4.659255048066569
 31
0
  0
LINE
  8
0
 62
7
 10
3.146403755997421
 20
4.659255048066569
 30
0
 11
3.197703755997422
 21
4.659255048066569
 31
0
  0
LINE
  8
0
 62
7
 10
3.197703755997422
 20
4.659255048066569
 30
0
 11
3.208503755997423
 21
4.65625504806657
 31
0
  0
LINE
  8
0
 62
7
 10
3.208503755997423
 20
4.65625504806657
 30
0
 11
3.216603755997422
 21
4.650255048066571
 31
0
  0
LINE
  8
0
 62
7
 10
3.216603755997422
 20
4.650255048066571
 30
0
 11
3.219303755997421
 21
4.64425504806657
 31
0
  0
LINE
  8
0
 62
7
 10
3.219303755997421
 20
4.64425504806657
 30
0
 11
3.222003755997421
 21
4.635255048066571
 31
0
  0
LINE
  8
0
 62
7
 10
3.222003755997421
 20
4.635255048066571
 30
0
 11
3.222003755997421
 21
4.623255048066571
 31
0
  0
LINE
  8
0
 62
7
 10
3.222003755997421
 20
4.623255048066571
 30
0
 11
3.219303755997421
 21
4.61425504806657
 31
0
  0
LINE
  8
0
 62
7
 10
3.219303755997421
 20
4.61425504806657
 30
0
 11
3.216603755997422
 21
4.60825504806657
 31
0
  0
LINE
  8
0
 62
7
 10
3.216603755997422
 20
4.60825504806657
 30
0
 11
3.208503755997423
 21
4.602255048066571
 31
0
  0
LINE
  8
0
 62
7
 10
3.208503755997423
 20
4.602255048066571
 30
0
 11
3.197703755997422
 21
4.59925504806657
 31
0
  0
LINE
  8
0
 62
7
 10
3.197703755997422
 20
4.59925504806657
 30
0
 11
3.189603755997421
 21
4.59925504806657
 31
0
  0
LINE
  8
0
 62
7
 10
3.189603755997421
 20
4.59925504806657
 30
0
 11
3.222003755997421
 21
4.53925504806657
 31
0
  0
LINE
  8
0
 62
7
 10
3.189603755997421
 20
4.59925504806657
 30
0
 11
3.146403755997421
 21
4.59925504806657
 31
0
  0
LINE
  8
0
 62
7
 10
3.319203755997421
 20
4.659255048066569
 30
0
 11
3.243603755997423
 21
4.659255048066569
 31
0
  0
LINE
  8
0
 62
7
 10
3.243603755997423
 20
4.659255048066569
 30
0
 11
3.243603755997423
 21
4.59925504806657
 31
0
  0
LINE
  8
0
 62
7
 10
3.243603755997423
 20
4.53925504806657
 30
0
 11
3.319203755997421
 21
4.53925504806657
 31
0
  0
LINE
  8
0
 62
7
 10
3.308403755997422
 20
4.59925504806657
 30
0
 11
3.243603755997423
 21
4.59925504806657
 31
0
  0
LINE
  8
0
 62
7
 10
3.243603755997423
 20
4.59925504806657
 30
0
 11
3.243603755997423
 21
4.53925504806657
 31
0
  0
LINE
  8
0
 62
7
 10
3.351603755997421
 20
4.53925504806657
 30
0
 11
3.351603755997421
 21
4.59925504806657
 31
0
  0
LINE
  8
0
 62
7
 10
3.351603755997421
 20
4.659255048066569
 30
0
 11
3.402903755997422
 21
4.659255048066569
 31
0
  0
LINE
  8
0
 62
7
 10
3.402903755997422
 20
4.659255048066569
 30
0
 11
3.413703755997421
 21
4.65625504806657
 31
0
  0
LINE
  8
0
 62
7
 10
3.413703755997421
 20
4.65625504806657
 30
0
 11
3.421803755997422
 21
4.650255048066571
 31
0
  0
LINE
  8
0
 62
7
 10
3.421803755997422
 20
4.650255048066571
 30
0
 11
3.424503755997421
 21
4.64425504806657
 31
0
  0
LINE
  8
0
 62
7
 10
3.424503755997421
 20
4.64425504806657
 30
0
 11
3.427203755997421
 21
4.635255048066571
 31
0
  0
LINE
  8
0
 62
7
 10
3.427203755997421
 20
4.635255048066571
 30
0
 11
3.427203755997421
 21
4.623255048066571
 31
0
  0
LINE
  8
0
 62
7
 10
3.427203755997421
 20
4.623255048066571
 30
0
 11
3.424503755997421
 21
4.61425504806657
 31
0
  0
LINE
  8
0
 62
7
 10
3.424503755997421
 20
4.61425504806657
 30
0
 11
3.421803755997422
 21
4.60825504806657
 31
0
  0
LINE
  8
0
 62
7
 10
3.421803755997422
 20
4.60825504806657
 30
0
 11
3.413703755997421
 21
4.602255048066571
 31
0
  0
LINE
  8
0
 62
7
 10
3.413703755997421
 20
4.602255048066571
 30
0
 11
3.402903755997422
 21
4.59925504806657
 31
0
  0
LINE
  8
0
 62
7
 10
3.402903755997422
 20
4.59925504806657
 30
0
 11
3.351603755997421
 21
4.59925504806657
 31
0
  0
LINE
  8
0
 62
7
 10
3.351603755997421
 20
4.59925504806657
 30
0
 11
3.351603755997421
 21
4.659255048066569
 31
0
  0
LINE
  8
0
 62
7
 10
3.448803755997421
 20
4.53925504806657
 30
0
 11
3.448803755997421
 21
4.59925504806657
 31
0
  0
LINE
  8
0
 62
7
 10
3.448803755997421
 20
4.659255048066569
 30
0
 11
3.500103755997421
 21
4.659255048066569
 31
0
  0
LINE
  8
0
 62
7
 10
3.500103755997421
 20
4.659255048066569
 30
0
 11
3.510903755997421
 21
4.65625504806657
 31
0
  0
LINE
  8
0
 62
7
 10
3.510903755997421
 20
4.65625504806657
 30
0
 11
3.519003755997422
 21
4.650255048066571
 31
0
  0
LINE
  8
0
 62
7
 10
3.519003755997422
 20
4.650255048066571
 30
0
 11
3.521703755997421
 21
4.64425504806657
 31
0
  0
LINE
  8
0
 62
7
 10
3.521703755997421
 20
4.64425504806657
 30
0
 11
3.524403755997421
 21
4.635255048066571
 31
0
  0
LINE
  8
0
 62
7
 10
3.524403755997421
 20
4.635255048066571
 30
0
 11
3.524403755997421
 21
4.623255048066571
 31
0
  0
LINE
  8
0
 62
7
 10
3.524403755997421
 20
4.623255048066571
 30
0
 11
3.521703755997421
 21
4.61425504806657
 31
0
  0
LINE
  8
0
 62
7
 10
3.521703755997421
 20
4.61425504806657
 30
0
 11
3.519003755997422
 21
4.60825504806657
 31
0
  0
LINE
  8
0
 62
7
 10
3.519003755997422
 20
4.60825504806657
 30
0
 11
3.510903755997421
 21
4.602255048066571
 31
0
  0
LINE
  8
0
 62
7
 10
3.510903755997421
 20
4.602255048066571
 30
0
 11
3.500103755997421
 21
4.59925504806657
 31
0
  0
LINE
  8
0
 62
7
 10
3.500103755997421
 20
4.59925504806657
 30
0
 11
3.448803755997421
 21
4.59925504806657
 31
0
  0
LINE
  8
0
 62
7
 10
3.448803755997421
 20
4.59925504806657
 30
0
 11
3.448803755997421
 21
4.659255048066569
 31
0
  0
LINE
  8
0
 62
7
 10
3.621603755997421
 20
4.659255048066569
 30
0
 11
3.546003755997423
 21
4.659255048066569
 31
0
  0
LINE
  8
0
 62
7
 10
3.546003755997423
 20
4.659255048066569
 30
0
 11
3.546003755997423
 21
4.59925504806657
 31
0
  0
LINE
  8
0
 62
7
 10
3.546003755997423
 20
4.53925504806657
 30
0
 11
3.621603755997421
 21
4.53925504806657
 31
0
  0
LINE
  8
0
 62
7
 10
3.610803755997422
 20
4.59925504806657
 30
0
 11
3.546003755997423
 21
4.59925504806657
 31
0
  0
LINE
  8
0
 62
7
 10
3.546003755997423
 20
4.59925504806657
 30
0
 11
3.546003755997423
 21
4.53925504806657
 31
0
  0
LINE
  8
0
 62
7
 10
0.525
 20
3.009999999999999
 30
0
 11
0.6006
 21
3.009999999999999
 31
0
  0
LINE
  8
0
 62
7
 10
0.6006
 20
3.009999999999999
 30
0
 11
0.525
 21
2.889999999999999
 31
0
  0
LINE
  8
0
 62
7
 10
0.525
 20
2.889999999999999
 30
0
 11
0.6006
 21
2.889999999999999
 31
0
  0
LINE
  8
0
 62
7
 10
0.633
 20
2.992
 30
0
 11
0.6384000000000002
 21
3.001
 31
0
  0
LINE
  8
0
 62
7
 10
0.6384000000000002
 20
3.001
 30
0
 11
0.6465000000000001
 21
3.007
 31
0
  0
LINE
  8
0
 62
7
 10
0.6465000000000001
 20
3.007
 30
0
 11
0.6573000000000001
 21
3.009999999999999
 31
0
  0
LINE
  8
0
 62
7
 10
0.6573000000000001
 20
3.009999999999999
 30
0
 11
0.6735000000000002
 21
3.009999999999999
 31
0
  0
LINE
  8
0
 62
7
 10
0.6735000000000002
 20
3.009999999999999
 30
0
 11
0.6843
 21
3.007
 31
0
  0
LINE
  8
0
 62
7
 10
0.6843
 20
3.007
 30
0
 11
0.6924
 21
3.001
 31
0
  0
LINE
  8
0
 62
7
 10
0.6924
 20
3.001
 30
0
 11
0.6978
 21
2.992
 31
0
  0
LINE
  8
0
 62
7
 10
0.6978
 20
2.992
 30
0
 11
0.6978
 21
2.979999999999999
 31
0
  0
LINE
  8
0
 62
7
 10
0.6978
 20
2.979999999999999
 30
0
 11
0.6924
 21
2.968
 31
0
  0
LINE
  8
0
 62
7
 10
0.6924
 20
2.968
 30
0
 11
0.633
 21
2.889999999999999
 31
0
  0
LINE
  8
0
 62
7
 10
0.633
 20
2.889999999999999
 30
0
 11
0.6978
 21
2.889999999999999
 31
0
  0
LINE
  8
0
 62
7
 10
0.7302000000000001
 20
3.009999999999999
 30
0
 11
0.7680000000000002
 21
2.889999999999999
 31
0
  0
LINE
  8
0
 62
7
 10
0.7680000000000002
 20
2.889999999999999
 30
0
 11
0.8058000000000002
 21
3.009999999999999
 31
0
  0
LINE
  8
0
 62
7
 10
0.8382000000000002
 20
2.992
 30
0
 11
0.8436000000000002
 21
3.001
 31
0
  0
LINE
  8
0
 62
7
 10
0.8436000000000002
 20
3.001
 30
0
 11
0.8517000000000001
 21
3.007
 31
0
  0
LINE
  8
0
 62
7
 10
0.8517000000000001
 20
3.007
 30
0
 11
0.8625
 21
3.009999999999999
 31
0
  0
LINE
  8
0
 62
7
 10
0.8625
 20
3.009999999999999
 30
0
 11
0.8787000000000001
 21
3.009999999999999
 31
0
  0
LINE
  8
0
 62
7
 10
0.8787000000000001
 20
3.009999999999999
 30
0
 11
0.8868
 21
3.007
 31
0
  0
LINE
  8
0
 62
7
 10
0.8868
 20
3.007
 30
0
 11
0.8949000000000003
 21
3.001
 31
0
  0
LINE
  8
0
 62
7
 10
0.8949000000000003
 20
3.001
 30
0
 11
0.9003000000000002
 21
2.992
 31
0
  0
LINE
  8
0
 62
7
 10
0.9003000000000002
 20
2.992
 30
0
 11
0.9030000000000001
 21
2.979999999999999
 31
0
  0
LINE
  8
0
 62
7
 10
0.9030000000000001
 20
2.979999999999999
 30
0
 11
0.9030000000000001
 21
2.971
 31
0
  0
LINE
  8
0
 62
7
 10
0.9030000000000001
 20
2.971
 30
0
 11
0.9003000000000002
 21
2.962
 31
0
  0
LINE
  8
0
 62
7
 10
0.9003000000000002
 20
2.962
 30
0
 11
0.8949000000000003
 21
2.956
 31
0
  0
LINE
  8
0
 62
7
 10
0.8949000000000003
 20
2.956
 30
0
 11
0.8814000000000002
 21
2.949999999999999
 31
0
  0
LINE
  8
0
 62
7
 10
0.8625
 20
2.949999999999999
 30
0
 11
0.8814000000000002
 21
2.949999999999999
 31
0
  0
LINE
  8
0
 62
7
 10
0.8814000000000002
 20
2.949999999999999
 30
0
 11
0.8949000000000003
 21
2.944
 31
0
  0
LINE
  8
0
 62
7
 10
0.8949000000000003
 20
2.944
 30
0
 11
0.9003000000000002
 21
2.938
 31
0
  0
LINE
  8
0
 62
7
 10
0.9003000000000002
 20
2.938
 30
0
 11
0.9030000000000001
 21
2.929
 31
0
  0
LINE
  8
0
 62
7
 10
0.9030000000000001
 20
2.929
 30
0
 11
0.9030000000000001
 21
2.919999999999999
 31
0
  0
LINE
  8
0
 62
7
 10
0.9030000000000001
 20
2.919999999999999
 30
0
 11
0.9003000000000002
 21
2.908
 31
0
  0
LINE
  8
0
 62
7
 10
0.9003000000000002
 20
2.908
 30
0
 11
0.8949000000000003
 21
2.899
 31
0
  0
LINE
  8
0
 62
7
 10
0.8949000000000003
 20
2.899
 30
0
 11
0.8868
 21
2.893
 31
0
  0
LINE
  8
0
 62
7
 10
0.8868
 20
2.893
 30
0
 11
0.8787000000000001
 21
2.889999999999999
 31
0
  0
LINE
  8
0
 62
7
 10
0.8787000000000001
 20
2.889999999999999
 30
0
 11
0.8625
 21
2.889999999999999
 31
0
  0
LINE
  8
0
 62
7
 10
0.8625
 20
2.889999999999999
 30
0
 11
0.8517000000000001
 21
2.893
 31
0
  0
LINE
  8
0
 62
7
 10
0.8517000000000001
 20
2.893
 30
0
 11
0.8436000000000002
 21
2.899
 31
0
  0
LINE
  8
0
 62
7
 10
0.8436000000000002
 20
2.899
 30
0
 11
0.8382000000000002
 21
2.908
 31
0
  0
LINE
  8
0
 62
7
 10
0.9354000000000001
 20
2.979999999999999
 30
0
 11
0.9381
 21
2.992
 31
0
  0
LINE
  8
0
 62
7
 10
0.9381
 20
2.992
 30
0
 11
0.9435000000000001
 21
3.001
 31
0
  0
LINE
  8
0
 62
7
 10
0.9435000000000001
 20
3.001
 30
0
 11
0.9516000000000002
 21
3.007
 31
0
  0
LINE
  8
0
 62
7
 10
0.9516000000000002
 20
3.007
 30
0
 11
0.9597000000000002
 21
3.009999999999999
 31
0
  0
LINE
  8
0
 62
7
 10
0.9597000000000002
 20
3.009999999999999
 30
0
 11
0.9759000000000001
 21
3.009999999999999
 31
0
  0
LINE
  8
0
 62
7
 10
0.9759000000000001
 20
3.009999999999999
 30
0
 11
0.984
 21
3.007
 31
0
  0
LINE
  8
0
 62
7
 10
0.984
 20
3.007
 30
0
 11
0.9921000000000002
 21
3.001
 31
0
  0
LINE
  8
0
 62
7
 10
0.9921000000000002
 20
3.001
 30
0
 11
0.9975000000000001
 21
2.992
 31
0
  0
LINE
  8
0
 62
7
 10
0.9975000000000001
 20
2.992
 30
0
 11
1.0002
 21
2.979999999999999
 31
0
  0
LINE
  8
0
 62
7
 10
1.0002
 20
2.979999999999999
 30
0
 11
1.0002
 21
2.919999999999999
 31
0
  0
LINE
  8
0
 62
7
 10
1.0002
 20
2.919999999999999
 30
0
 11
0.9975000000000001
 21
2.908
 31
0
  0
LINE
  8
0
 62
7
 10
0.9975000000000001
 20
2.908
 30
0
 11
0.9921000000000002
 21
2.899
 31
0
  0
LINE
  8
0
 62
7
 10
0.9921000000000002
 20
2.899
 30
0
 11
0.984
 21
2.893
 31
0
  0
LINE
  8
0
 62
7
 10
0.984
 20
2.893
 30
0
 11
0.9759000000000001
 21
2.889999999999999
 31
0
  0
LINE
  8
0
 62
7
 10
0.9759000000000001
 20
2.889999999999999
 30
0
 11
0.9597000000000002
 21
2.889999999999999
 31
0
  0
LINE
  8
0
 62
7
 10
0.9597000000000002
 20
2.889999999999999
 30
0
 11
0.9516000000000002
 21
2.893
 31
0
  0
LINE
  8
0
 62
7
 10
0.9516000000000002
 20
2.893
 30
0
 11
0.9435000000000001
 21
2.899
 31
0
  0
LINE
  8
0
 62
7
 10
0.9435000000000001
 20
2.899
 30
0
 11
0.9381
 21
2.908
 31
0
  0
LINE
  8
0
 62
7
 10
0.9381
 20
2.908
 30
0
 11
0.9354000000000001
 21
2.919999999999999
 31
0
  0
LINE
  8
0
 62
7
 10
0.9354000000000001
 20
2.919999999999999
 30
0
 11
0.9354000000000001
 21
2.979999999999999
 31
0
  0
LINE
  8
0
 62
7
 10
1.0326
 20
2.974
 30
0
 11
1.065
 21
3.009999999999999
 31
0
  0
LINE
  8
0
 62
7
 10
1.065
 20
3.009999999999999
 30
0
 11
1.065
 21
2.889999999999999
 31
0
  0
LINE
  8
0
 62
7
 10
1.1622
 20
2.889999999999999
 30
0
 11
1.0974
 21
2.889999999999999
 31
0
  0
LINE
  8
0
 62
7
 10
1.0974
 20
2.889999999999999
 30
0
 11
1.0974
 21
3.009999999999999
 31
0
  0
LINE
  8
0
 62
7
 10
1.1946
 20
2.938
 30
0
 11
1.1973
 21
2.949999999999999
 31
0
  0
LINE
  8
0
 62
7
 10
1.1973
 20
2.949999999999999
 30
0
 11
1.2027
 21
2.959
 31
0
  0
LINE
  8
0
 62
7
 10
1.2027
 20
2.959
 30
0
 11
1.2108
 21
2.964999999999999
 31
0
  0
LINE
  8
0
 62
7
 10
1.2108
 20
2.964999999999999
 30
0
 11
1.2189
 21
2.968
 31
0
  0
LINE
  8
0
 62
7
 10
1.2189
 20
2.968
 30
0
 11
1.2351
 21
2.968
 31
0
  0
LINE
  8
0
 62
7
 10
1.2351
 20
2.968
 30
0
 11
1.2432
 21
2.964999999999999
 31
0
  0
LINE
  8
0
 62
7
 10
1.2432
 20
2.964999999999999
 30
0
 11
1.2513
 21
2.959
 31
0
  0
LINE
  8
0
 62
7
 10
1.2513
 20
2.959
 30
0
 11
1.2567
 21
2.949999999999999
 31
0
  0
LINE
  8
0
 62
7
 10
1.2567
 20
2.949999999999999
 30
0
 11
1.2594
 21
2.938
 31
0
  0
LINE
  8
0
 62
7
 10
1.2594
 20
2.938
 30
0
 11
1.2594
 21
2.919999999999999
 31
0
  0
LINE
  8
0
 62
7
 10
1.2594
 20
2.919999999999999
 30
0
 11
1.2567
 21
2.908
 31
0
  0
LINE
  8
0
 62
7
 10
1.2567
 20
2.908
 30
0
 11
1.2513
 21
2.899
 31
0
  0
LINE
  8
0
 62
7
 10
1.2513
 20
2.899
 30
0
 11
1.2432
 21
2.893
 31
0
  0
LINE
  8
0
 62
7
 10
1.2432
 20
2.893
 30
0
 11
1.2351
 21
2.889999999999999
 31
0
  0
LINE
  8
0
 62
7
 10
1.2351
 20
2.889999999999999
 30
0
 11
1.2189
 21
2.889999999999999
 31
0
  0
LINE
  8
0
 62
7
 10
1.2189
 20
2.889999999999999
 30
0
 11
1.2108
 21
2.893
 31
0
  0
LINE
  8
0
 62
7
 10
1.2108
 20
2.893
 30
0
 11
1.2027
 21
2.899
 31
0
  0
LINE
  8
0
 62
7
 10
1.2027
 20
2.899
 30
0
 11
1.1973
 21
2.908
 31
0
  0
LINE
  8
0
 62
7
 10
1.1973
 20
2.908
 30
0
 11
1.1946
 21
2.919999999999999
 31
0
  0
LINE
  8
0
 62
7
 10
1.1946
 20
2.919999999999999
 30
0
 11
1.1946
 21
2.938
 31
0
  0
LINE
  8
0
 62
7
 10
1.1946
 20
2.979999999999999
 30
0
 11
1.1973
 21
2.992
 31
0
  0
LINE
  8
0
 62
7
 10
1.1973
 20
2.992
 30
0
 11
1.2027
 21
3.001
 31
0
  0
LINE
  8
0
 62
7
 10
1.2027
 20
3.001
 30
0
 11
1.2108
 21
3.007
 31
0
  0
LINE
  8
0
 62
7
 10
1.2108
 20
3.007
 30
0
 11
1.2189
 21
3.009999999999999
 31
0
  0
LINE
  8
0
 62
7
 10
1.2189
 20
3.009999999999999
 30
0
 11
1.2351
 21
3.009999999999999
 31
0
  0
LINE
  8
0
 62
7
 10
1.2351
 20
3.009999999999999
 30
0
 11
1.2432
 21
3.007
 31
0
  0
LINE
  8
0
 62
7
 10
1.2432
 20
3.007
 30
0
 11
1.2513
 21
3.001
 31
0
  0
LINE
  8
0
 62
7
 10
1.2513
 20
3.001
 30
0
 11
1.2567
 21
2.992
 31
0
  0
LINE
  8
0
 62
7
 10
1.1946
 20
2.938
 30
0
 11
1.1946
 21
2.979999999999999
 31
0
  0
LINE
  8
0
 62
7
 10
3.025
 20
2.889999999999999
 30
0
 11
3.025
 21
2.989999999999999
 31
0
  0
LINE
  8
0
 62
7
 10
3.025
 20
2.989999999999999
 30
0
 11
3.088
 21
2.889999999999999
 31
0
  0
LINE
  8
0
 62
7
 10
3.088
 20
2.889999999999999
 30
0
 11
3.088
 21
2.989999999999999
 31
0
  0
LINE
  8
0
 62
7
 10
3.169
 20
2.889999999999999
 30
0
 11
3.115
 21
2.889999999999999
 31
0
  0
LINE
  8
0
 62
7
 10
3.115
 20
2.889999999999999
 30
0
 11
3.115
 21
2.989999999999999
 31
0
  0
LINE
  8
0
 62
7
 10
3.196
 20
2.94
 30
0
 11
3.232
 21
2.94
 31
0
  0
LINE
  8
0
 62
7
 10
3.232
 20
2.94
 30
0
 11
3.2365
 21
2.94
 31
0
  0
LINE
  8
0
 62
7
 10
3.2365
 20
2.94
 30
0
 11
3.2455
 21
2.934999999999999
 31
0
  0
LINE
  8
0
 62
7
 10
3.2455
 20
2.934999999999999
 30
0
 11
3.25
 21
2.929999999999999
 31
0
  0
LINE
  8
0
 62
7
 10
3.25
 20
2.929999999999999
 30
0
 11
3.2545
 21
2.919999999999999
 31
0
  0
LINE
  8
0
 62
7
 10
3.2545
 20
2.919999999999999
 30
0
 11
3.2545
 21
2.909999999999999
 31
0
  0
LINE
  8
0
 62
7
 10
3.2545
 20
2.909999999999999
 30
0
 11
3.25
 21
2.899999999999999
 31
0
  0
LINE
  8
0
 62
7
 10
3.25
 20
2.899999999999999
 30
0
 11
3.2455
 21
2.895
 31
0
  0
LINE
  8
0
 62
7
 10
3.2455
 20
2.895
 30
0
 11
3.2365
 21
2.889999999999999
 31
0
  0
LINE
  8
0
 62
7
 10
3.2365
 20
2.889999999999999
 30
0
 11
3.196
 21
2.889999999999999
 31
0
  0
LINE
  8
0
 62
7
 10
3.196
 20
2.889999999999999
 30
0
 11
3.196
 21
2.94
 31
0
  0
LINE
  8
0
 62
7
 10
3.196
 20
2.989999999999999
 30
0
 11
3.22975
 21
2.989999999999999
 31
0
  0
LINE
  8
0
 62
7
 10
3.22975
 20
2.989999999999999
 30
0
 11
3.241000000000001
 21
2.987499999999999
 31
0
  0
LINE
  8
0
 62
7
 10
3.241000000000001
 20
2.987499999999999
 30
0
 11
3.24775
 21
2.979999999999999
 31
0
  0
LINE
  8
0
 62
7
 10
3.24775
 20
2.979999999999999
 30
0
 11
3.25
 21
2.969999999999999
 31
0
  0
LINE
  8
0
 62
7
 10
3.25
 20
2.969999999999999
 30
0
 11
3.25
 21
2.959999999999999
 31
0
  0
LINE
  8
0
 62
7
 10
3.25
 20
2.959999999999999
 30
0
 11
3.2455
 21
2.949999999999999
 31
0
  0
LINE
  8
0
 62
7
 10
3.2455
 20
2.949999999999999
 30
0
 11
3.23875
 21
2.942499999999999
 31
0
  0
LINE
  8
0
 62
7
 10
3.23875
 20
2.942499999999999
 30
0
 11
3.232
 21
2.94
 31
0
  0
LINE
  8
0
 62
7
 10
3.196
 20
2.94
 30
0
 11
3.196
 21
2.989999999999999
 31
0
  0
LINE
  8
0
 62
7
 10
3.39625
 20
2.942499999999999
 30
0
 11
3.3895
 21
2.952499999999999
 31
0
  0
LINE
  8
0
 62
7
 10
3.3895
 20
2.952499999999999
 30
0
 11
3.38275
 21
2.9575
 31
0
  0
LINE
  8
0
 62
7
 10
3.38275
 20
2.9575
 30
0
 11
3.376
 21
2.959999999999999
 31
0
  0
LINE
  8
0
 62
7
 10
3.376
 20
2.959999999999999
 30
0
 11
3.367
 21
2.959999999999999
 31
0
  0
LINE
  8
0
 62
7
 10
3.367
 20
2.959999999999999
 30
0
 11
3.36025
 21
2.9575
 31
0
  0
LINE
  8
0
 62
7
 10
3.36025
 20
2.9575
 30
0
 11
3.3535
 21
2.952499999999999
 31
0
  0
LINE
  8
0
 62
7
 10
3.3535
 20
2.952499999999999
 30
0
 11
3.34675
 21
2.942499999999999
 31
0
  0
LINE
  8
0
 62
7
 10
3.34675
 20
2.942499999999999
 30
0
 11
3.3445
 21
2.934999999999999
 31
0
  0
LINE
  8
0
 62
7
 10
3.3445
 20
2.934999999999999
 30
0
 11
3.3445
 21
2.914999999999999
 31
0
  0
LINE
  8
0
 62
7
 10
3.3445
 20
2.914999999999999
 30
0
 11
3.34675
 21
2.907499999999999
 31
0
  0
LINE
  8
0
 62
7
 10
3.34675
 20
2.907499999999999
 30
0
 11
3.3535
 21
2.897499999999999
 31
0
  0
LINE
  8
0
 62
7
 10
3.3535
 20
2.897499999999999
 30
0
 11
3.36025
 21
2.892499999999999
 31
0
  0
LINE
  8
0
 62
7
 10
3.36025
 20
2.892499999999999
 30
0
 11
3.367
 21
2.889999999999999
 31
0
  0
LINE
  8
0
 62
7
 10
3.367
 20
2.889999999999999
 30
0
 11
3.376
 21
2.889999999999999
 31
0
  0
LINE
  8
0
 62
7
 10
3.376
 20
2.889999999999999
 30
0
 11
3.38275
 21
2.892499999999999
 31
0
  0
LINE
  8
0
 62
7
 10
3.38275
 20
2.892499999999999
 30
0
 11
3.3895
 21
2.897499999999999
 31
0
  0
LINE
  8
0
 62
7
 10
3.3895
 20
2.897499999999999
 30
0
 11
3.39625
 21
2.907499999999999
 31
0
  0
LINE
  8
0
 62
7
 10
3.46825
 20
2.934999999999999
 30
0
 11
3.466000000000001
 21
2.942499999999999
 31
0
  0
LINE
  8
0
 62
7
 10
3.466000000000001
 20
2.942499999999999
 30
0
 11
3.45925
 21
2.952499999999999
 31
0
  0
LINE
  8
0
 62
7
 10
3.45925
 20
2.952499999999999
 30
0
 11
3.4525
 21
2.9575
 31
0
  0
LINE
  8
0
 62
7
 10
3.4525
 20
2.9575
 30
0
 11
3.44575
 21
2.959999999999999
 31
0
  0
LINE
  8
0
 62
7
 10
3.44575
 20
2.959999999999999
 30
0
 11
3.43675
 21
2.959999999999999
 31
0
  0
LINE
  8
0
 62
7
 10
3.43675
 20
2.959999999999999
 30
0
 11
3.430000000000001
 21
2.9575
 31
0
  0
LINE
  8
0
 62
7
 10
3.430000000000001
 20
2.9575
 30
0
 11
3.42325
 21
2.952499999999999
 31
0
  0
LINE
  8
0
 62
7
 10
3.42325
 20
2.952499999999999
 30
0
 11
3.4165
 21
2.942499999999999
 31
0
  0
LINE
  8
0
 62
7
 10
3.4165
 20
2.942499999999999
 30
0
 11
3.41425
 21
2.934999999999999
 31
0
  0
LINE
  8
0
 62
7
 10
3.41425
 20
2.934999999999999
 30
0
 11
3.41425
 21
2.914999999999999
 31
0
  0
LINE
  8
0
 62
7
 10
3.41425
 20
2.914999999999999
 30
0
 11
3.4165
 21
2.907499999999999
 31
0
  0
LINE
  8
0
 62
7
 10
3.4165
 20
2.907499999999999
 30
0
 11
3.42325
 21
2.897499999999999
 31
0
  0
LINE
  8
0
 62
7
 10
3.42325
 20
2.897499999999999
 30
0
 11
3.430000000000001
 21
2.892499999999999
 31
0
  0
LINE
  8
0
 62
7
 10
3.430000000000001
 20
2.892499999999999
 30
0
 11
3.43675
 21
2.889999999999999
 31
0
  0
LINE
  8
0
 62
7
 10
3.43675
 20
2.889999999999999
 30
0
 11
3.44575
 21
2.889999999999999
 31
0
  0
LINE
  8
0
 62
7
 10
3.44575
 20
2.889999999999999
 30
0
 11
3.4525
 21
2.892499999999999
 31
0
  0
LINE
  8
0
 62
7
 10
3.4525
 20
2.892499999999999
 30
0
 11
3.45925
 21
2.897499999999999
 31
0
  0
LINE
  8
0
 62
7
 10
3.45925
 20
2.897499999999999
 30
0
 11
3.466000000000001
 21
2.907499999999999
 31
0
  0
LINE
  8
0
 62
7
 10
3.466000000000001
 20
2.907499999999999
 30
0
 11
3.46825
 21
2.914999999999999
 31
0
  0
LINE
  8
0
 62
7
 10
3.46825
 20
2.959999999999999
 30
0
 11
3.46825
 21
2.934999999999999
 31
0
  0
LINE
  8
0
 62
7
 10
3.46825
 20
2.892499999999999
 30
0
 11
3.4705
 21
2.889999999999999
 31
0
  0
LINE
  8
0
 62
7
 10
3.4705
 20
2.889999999999999
 30
0
 11
3.47275
 21
2.889999999999999
 31
0
  0
LINE
  8
0
 62
7
 10
3.46825
 20
2.914999999999999
 30
0
 11
3.46825
 21
2.892499999999999
 31
0
  0
LINE
  8
0
 62
7
 10
3.46825
 20
2.934999999999999
 30
0
 11
3.46825
 21
2.914999999999999
 31
0
  0
LINE
  8
0
 62
7
 10
3.49075
 20
2.889999999999999
 30
0
 11
3.49075
 21
2.892499999999999
 31
0
  0
LINE
  8
0
 62
7
 10
3.49075
 20
2.892499999999999
 30
0
 11
3.493
 21
2.892499999999999
 31
0
  0
LINE
  8
0
 62
7
 10
3.493
 20
2.892499999999999
 30
0
 11
3.493
 21
2.889999999999999
 31
0
  0
LINE
  8
0
 62
7
 10
3.493
 20
2.889999999999999
 30
0
 11
3.49075
 21
2.889999999999999
 31
0
  0
LINE
  8
0
 62
7
 10
3.616750000000001
 20
2.989999999999999
 30
0
 11
3.62575
 21
2.989999999999999
 31
0
  0
LINE
  8
0
 62
7
 10
3.62575
 20
2.989999999999999
 30
0
 11
3.6325
 21
2.987499999999999
 31
0
  0
LINE
  8
0
 62
7
 10
3.6325
 20
2.987499999999999
 30
0
 11
3.637
 21
2.982499999999999
 31
0
  0
LINE
  8
0
 62
7
 10
3.637
 20
2.982499999999999
 30
0
 11
3.6415
 21
2.975
 31
0
  0
LINE
  8
0
 62
7
 10
3.6415
 20
2.975
 30
0
 11
3.6415
 21
2.964999999999999
 31
0
  0
LINE
  8
0
 62
7
 10
3.6415
 20
2.964999999999999
 30
0
 11
3.63925
 21
2.959999999999999
 31
0
  0
LINE
  8
0
 62
7
 10
3.63925
 20
2.959999999999999
 30
0
 11
3.6325
 21
2.952499999999999
 31
0
  0
LINE
  8
0
 62
7
 10
3.6325
 20
2.952499999999999
 30
0
 11
3.62575
 21
2.949999999999999
 31
0
  0
LINE
  8
0
 62
7
 10
3.62575
 20
2.949999999999999
 30
0
 11
3.616750000000001
 21
2.949999999999999
 31
0
  0
LINE
  8
0
 62
7
 10
3.616750000000001
 20
2.949999999999999
 30
0
 11
3.61
 21
2.952499999999999
 31
0
  0
LINE
  8
0
 62
7
 10
3.61
 20
2.952499999999999
 30
0
 11
3.60325
 21
2.959999999999999
 31
0
  0
LINE
  8
0
 62
7
 10
3.60325
 20
2.959999999999999
 30
0
 11
3.601
 21
2.964999999999999
 31
0
  0
LINE
  8
0
 62
7
 10
3.601
 20
2.964999999999999
 30
0
 11
3.601
 21
2.975
 31
0
  0
LINE
  8
0
 62
7
 10
3.601
 20
2.975
 30
0
 11
3.6055
 21
2.982499999999999
 31
0
  0
LINE
  8
0
 62
7
 10
3.6055
 20
2.982499999999999
 30
0
 11
3.61
 21
2.987499999999999
 31
0
  0
LINE
  8
0
 62
7
 10
3.61
 20
2.987499999999999
 30
0
 11
3.616750000000001
 21
2.989999999999999
 31
0
  0
LINE
  8
0
 62
7
 10
3.616750000000001
 20
2.949999999999999
 30
0
 11
3.6055
 21
2.944999999999999
 31
0
  0
LINE
  8
0
 62
7
 10
3.6055
 20
2.944999999999999
 30
0
 11
3.598750000000001
 21
2.9375
 31
0
  0
LINE
  8
0
 62
7
 10
3.598750000000001
 20
2.9375
 30
0
 11
3.594250000000001
 21
2.927499999999999
 31
0
  0
LINE
  8
0
 62
7
 10
3.594250000000001
 20
2.927499999999999
 30
0
 11
3.594250000000001
 21
2.9125
 31
0
  0
LINE
  8
0
 62
7
 10
3.594250000000001
 20
2.9125
 30
0
 11
3.598750000000001
 21
2.902499999999999
 31
0
  0
LINE
  8
0
 62
7
 10
3.598750000000001
 20
2.902499999999999
 30
0
 11
3.6055
 21
2.895
 31
0
  0
LINE
  8
0
 62
7
 10
3.6055
 20
2.895
 30
0
 11
3.6145
 21
2.889999999999999
 31
0
  0
LINE
  8
0
 62
7
 10
3.6145
 20
2.889999999999999
 30
0
 11
3.628
 21
2.889999999999999
 31
0
  0
LINE
  8
0
 62
7
 10
3.628
 20
2.889999999999999
 30
0
 11
3.637
 21
2.895
 31
0
  0
LINE
  8
0
 62
7
 10
3.637
 20
2.895
 30
0
 11
3.64375
 21
2.902499999999999
 31
0
  0
LINE
  8
0
 62
7
 10
3.64375
 20
2.902499999999999
 30
0
 11
3.64825
 21
2.9125
 31
0
  0
LINE
  8
0
 62
7
 10
3.64825
 20
2.9125
 30
0
 11
3.64825
 21
2.927499999999999
 31
0
  0
LINE
  8
0
 62
7
 10
3.64825
 20
2.927499999999999
 30
0
 11
3.64375
 21
2.9375
 31
0
  0
LINE
  8
0
 62
7
 10
3.64375
 20
2.9375
 30
0
 11
3.637
 21
2.944999999999999
 31
0
  0
LINE
  8
0
 62
7
 10
3.637
 20
2.944999999999999
 30
0
 11
3.62575
 21
2.949999999999999
 31
0
  0
LINE
  8
0
 62
7
 10
3.73825
 20
2.949999999999999
 30
0
 11
3.736
 21
2.94
 31
0
  0
LINE
  8
0
 62
7
 10
3.736
 20
2.94
 30
0
 11
3.7315
 21
2.932499999999999
 31
0
  0
LINE
  8
0
 62
7
 10
3.7315
 20
2.932499999999999
 30
0
 11
3.72475
 21
2.927499999999999
 31
0
  0
LINE
  8
0
 62
7
 10
3.72475
 20
2.927499999999999
 30
0
 11
3.718
 21
2.924999999999999
 31
0
  0
LINE
  8
0
 62
7
 10
3.718
 20
2.924999999999999
 30
0
 11
3.7045
 21
2.924999999999999
 31
0
  0
LINE
  8
0
 62
7
 10
3.7045
 20
2.924999999999999
 30
0
 11
3.69775
 21
2.927499999999999
 31
0
  0
LINE
  8
0
 62
7
 10
3.69775
 20
2.927499999999999
 30
0
 11
3.691000000000001
 21
2.932499999999999
 31
0
  0
LINE
  8
0
 62
7
 10
3.691000000000001
 20
2.932499999999999
 30
0
 11
3.686500000000001
 21
2.94
 31
0
  0
LINE
  8
0
 62
7
 10
3.686500000000001
 20
2.94
 30
0
 11
3.68425
 21
2.949999999999999
 31
0
  0
LINE
  8
0
 62
7
 10
3.68425
 20
2.949999999999999
 30
0
 11
3.68425
 21
2.964999999999999
 31
0
  0
LINE
  8
0
 62
7
 10
3.68425
 20
2.964999999999999
 30
0
 11
3.686500000000001
 21
2.975
 31
0
  0
LINE
  8
0
 62
7
 10
3.686500000000001
 20
2.975
 30
0
 11
3.691000000000001
 21
2.982499999999999
 31
0
  0
LINE
  8
0
 62
7
 10
3.691000000000001
 20
2.982499999999999
 30
0
 11
3.69775
 21
2.987499999999999
 31
0
  0
LINE
  8
0
 62
7
 10
3.69775
 20
2.987499999999999
 30
0
 11
3.7045
 21
2.989999999999999
 31
0
  0
LINE
  8
0
 62
7
 10
3.7045
 20
2.989999999999999
 30
0
 11
3.718
 21
2.989999999999999
 31
0
  0
LINE
  8
0
 62
7
 10
3.718
 20
2.989999999999999
 30
0
 11
3.72475
 21
2.987499999999999
 31
0
  0
LINE
  8
0
 62
7
 10
3.72475
 20
2.987499999999999
 30
0
 11
3.7315
 21
2.982499999999999
 31
0
  0
LINE
  8
0
 62
7
 10
3.7315
 20
2.982499999999999
 30
0
 11
3.736
 21
2.975
 31
0
  0
LINE
  8
0
 62
7
 10
3.736
 20
2.975
 30
0
 11
3.73825
 21
2.964999999999999
 31
0
  0
LINE
  8
0
 62
7
 10
3.73825
 20
2.964999999999999
 30
0
 11
3.73825
 21
2.949999999999999
 31
0
  0
LINE
  8
0
 62
7
 10
3.73825
 20
2.914999999999999
 30
0
 11
3.736
 21
2.904999999999999
 31
0
  0
LINE
  8
0
 62
7
 10
3.736
 20
2.904999999999999
 30
0
 11
3.7315
 21
2.897499999999999
 31
0
  0
LINE
  8
0
 62
7
 10
3.7315
 20
2.897499999999999
 30
0
 11
3.72475
 21
2.892499999999999
 31
0
  0
LINE
  8
0
 62
7
 10
3.72475
 20
2.892499999999999
 30
0
 11
3.718
 21
2.889999999999999
 31
0
  0
LINE
  8
0
 62
7
 10
3.718
 20
2.889999999999999
 30
0
 11
3.7045
 21
2.889999999999999
 31
0
  0
LINE
  8
0
 62
7
 10
3.7045
 20
2.889999999999999
 30
0
 11
3.69775
 21
2.892499999999999
 31
0
  0
LINE
  8
0
 62
7
 10
3.69775
 20
2.892499999999999
 30
0
 11
3.691000000000001
 21
2.897499999999999
 31
0
  0
LINE
  8
0
 62
7
 10
3.691000000000001
 20
2.897499999999999
 30
0
 11
3.686500000000001
 21
2.904999999999999
 31
0
  0
LINE
  8
0
 62
7
 10
3.73825
 20
2.949999999999999
 30
0
 11
3.73825
 21
2.914999999999999
 31
0
  0
LINE
  8
0
 62
7
 10
3.889
 20
2.942499999999999
 30
0
 11
3.88225
 21
2.952499999999999
 31
0
  0
LINE
  8
0
 62
7
 10
3.88225
 20
2.952499999999999
 30
0
 11
3.875500000000001
 21
2.9575
 31
0
  0
LINE
  8
0
 62
7
 10
3.875500000000001
 20
2.9575
 30
0
 11
3.86875
 21
2.959999999999999
 31
0
  0
LINE
  8
0
 62
7
 10
3.86875
 20
2.959999999999999
 30
0
 11
3.85975
 21
2.959999999999999
 31
0
  0
LINE
  8
0
 62
7
 10
3.85975
 20
2.959999999999999
 30
0
 11
3.853
 21
2.9575
 31
0
  0
LINE
  8
0
 62
7
 10
3.853
 20
2.9575
 30
0
 11
3.84625
 21
2.952499999999999
 31
0
  0
LINE
  8
0
 62
7
 10
3.84625
 20
2.952499999999999
 30
0
 11
3.839500000000001
 21
2.942499999999999
 31
0
  0
LINE
  8
0
 62
7
 10
3.839500000000001
 20
2.942499999999999
 30
0
 11
3.83725
 21
2.934999999999999
 31
0
  0
LINE
  8
0
 62
7
 10
3.83725
 20
2.934999999999999
 30
0
 11
3.83725
 21
2.914999999999999
 31
0
  0
LINE
  8
0
 62
7
 10
3.83725
 20
2.914999999999999
 30
0
 11
3.839500000000001
 21
2.907499999999999
 31
0
  0
LINE
  8
0
 62
7
 10
3.839500000000001
 20
2.907499999999999
 30
0
 11
3.84625
 21
2.897499999999999
 31
0
  0
LINE
  8
0
 62
7
 10
3.84625
 20
2.897499999999999
 30
0
 11
3.853
 21
2.892499999999999
 31
0
  0
LINE
  8
0
 62
7
 10
3.853
 20
2.892499999999999
 30
0
 11
3.85975
 21
2.889999999999999
 31
0
  0
LINE
  8
0
 62
7
 10
3.85975
 20
2.889999999999999
 30
0
 11
3.86875
 21
2.889999999999999
 31
0
  0
LINE
  8
0
 62
7
 10
3.86875
 20
2.889999999999999
 30
0
 11
3.875500000000001
 21
2.892499999999999
 31
0
  0
LINE
  8
0
 62
7
 10
3.875500000000001
 20
2.892499999999999
 30
0
 11
3.88225
 21
2.897499999999999
 31
0
  0
LINE
  8
0
 62
7
 10
3.88225
 20
2.897499999999999
 30
0
 11
3.889
 21
2.907499999999999
 31
0
  0
LINE
  8
0
 62
7
 10
3.9475
 20
2.934999999999999
 30
0
 11
3.9475
 21
2.889999999999999
 31
0
  0
LINE
  8
0
 62
7
 10
3.907
 20
2.959999999999999
 30
0
 11
3.907
 21
2.934999999999999
 31
0
  0
LINE
  8
0
 62
7
 10
3.907
 20
2.889999999999999
 30
0
 11
3.907
 21
2.934999999999999
 31
0
  0
LINE
  8
0
 62
7
 10
3.907
 20
2.934999999999999
 30
0
 11
3.90925
 21
2.947499999999999
 31
0
  0
LINE
  8
0
 62
7
 10
3.90925
 20
2.947499999999999
 30
0
 11
3.9115
 21
2.952499999999999
 31
0
  0
LINE
  8
0
 62
7
 10
3.9115
 20
2.952499999999999
 30
0
 11
3.916
 21
2.9575
 31
0
  0
LINE
  8
0
 62
7
 10
3.916
 20
2.9575
 30
0
 11
3.92275
 21
2.959999999999999
 31
0
  0
LINE
  8
0
 62
7
 10
3.92275
 20
2.959999999999999
 30
0
 11
3.931750000000001
 21
2.959999999999999
 31
0
  0
LINE
  8
0
 62
7
 10
3.931750000000001
 20
2.959999999999999
 30
0
 11
3.9385
 21
2.9575
 31
0
  0
LINE
  8
0
 62
7
 10
3.9385
 20
2.9575
 30
0
 11
3.943
 21
2.952499999999999
 31
0
  0
LINE
  8
0
 62
7
 10
3.943
 20
2.952499999999999
 30
0
 11
3.94525
 21
2.947499999999999
 31
0
  0
LINE
  8
0
 62
7
 10
3.94525
 20
2.947499999999999
 30
0
 11
3.9475
 21
2.934999999999999
 31
0
  0
LINE
  8
0
 62
7
 10
3.9475
 20
2.934999999999999
 30
0
 11
3.94975
 21
2.947499999999999
 31
0
  0
LINE
  8
0
 62
7
 10
3.94975
 20
2.947499999999999
 30
0
 11
3.952
 21
2.952499999999999
 31
0
  0
LINE
  8
0
 62
7
 10
3.952
 20
2.952499999999999
 30
0
 11
3.9565
 21
2.9575
 31
0
  0
LINE
  8
0
 62
7
 10
3.9565
 20
2.9575
 30
0
 11
3.96325
 21
2.959999999999999
 31
0
  0
LINE
  8
0
 62
7
 10
3.96325
 20
2.959999999999999
 30
0
 11
3.972250000000001
 21
2.959999999999999
 31
0
  0
LINE
  8
0
 62
7
 10
3.972250000000001
 20
2.959999999999999
 30
0
 11
3.979
 21
2.9575
 31
0
  0
LINE
  8
0
 62
7
 10
3.9835
 20
2.952499999999999
 30
0
 11
3.979
 21
2.9575
 31
0
  0
LINE
  8
0
 62
7
 10
3.979
 20
2.9575
 30
0
 11
3.9835
 21
2.952499999999999
 31
0
  0
LINE
  8
0
 62
7
 10
3.9835
 20
2.952499999999999
 30
0
 11
3.98575
 21
2.947499999999999
 31
0
  0
LINE
  8
0
 62
7
 10
3.98575
 20
2.947499999999999
 30
0
 11
3.988
 21
2.934999999999999
 31
0
  0
LINE
  8
0
 62
7
 10
3.988
 20
2.934999999999999
 30
0
 11
3.988
 21
2.889999999999999
 31
0
  0
ARC
  8
0
 62
7
 10
2.279501198218389
 20
3.865498801781559
 30
0
 40
0.5010000000000039
 50
89.94295561031284
 51
180.0570443955392
  0
ARC
  8
0
 62
7
 10
3.280498801781599
 20
3.865498801781609
 30
0
 40
0.5010000000000057
 50
359.9429556055164
 51
90.05704439554472
  0
CIRCLE
  8
0
 62
7
 10
3.781498553474939
 20
3.25
 30
0
 40
0.05999999999999961
  0
DIMENSION
  8
0
  6
CONTINUOUS
 62
7
  2
*D0
  3
DMST_1
 10
0.7757139834213421
 20
4.87
 30
0
 11
0.7757139834213421
 21
4.1159334366661
 31
0
 12
0
 22
0
 32
0
 70
0
 13
1.1
 23
3.35
 33
0
 14
1.1
 24
4.870000000000001
 34
0
 50
90
 53
0
  0
DIMENSION
  8
0
  6
CONTINUOUS
 62
7
  2
*D1
  3
DMST_1
 10
4.284999999999999
 20
5.77214419917106
 30
0
 11
2.81742207857833
 21
5.77214419917106
 31
0
 12
0
 22
0
 32
0
 70
0
 13
1.275
 23
5.389999999999997
 33
0
 14
4.284999999999999
 24
5.389999999999997
 34
0
 53
0
  0
DIMENSION
  8
0
  6
CONTINUOUS
 62
7
  2
*D2
  3
DMST_1
 10
4.8448524947482
 20
3.25
 30
0
 11
4.8448524947482
 21
4.04454504173054
 31
0
 12
0
 22
0
 32
0
 70
0
 13
4.46
 23
4.870000000000001
 33
0
 14
4.46
 24
3.25
 34
0
 50
90
 53
0
  0
DIMENSION
  8
0
  6
CONTINUOUS
 62
7
  2
*D3
  3
DMST_2
 10
4.284999999999999
 20
11.4689381150287
 30
0
 11
2.83169975756544
 21
11.4689381150287
 31
0
 12
0
 22
0
 32
0
 70
0
 13
1.275
 23
11.2
 33
0
 14
4.284999999999999
 24
11.2
 34
0
 53
0
  0
INSERT
  8
0
  2
*D4
 10
0
 20
0
 30
0
  0
ENDSEC
  0
EOF
