  0
SECTION
  2
HEADER
  9
$ACADVER
  1
AC1009
  9
$INSBASE
 10
0
 20
0
  9
$EXTMIN
 10
0.45
 20
2.890000000000002
  9
$EXTMAX
 10
8.308214927184329
 20
11.6352518203883
  9
$LIMMIN
 10
0.45
 20
2.890000000000002
  9
$LIMMAX
 10
8.308214927184329
 20
11.6352518203883
  9
$VIEWCTR
 10
10
 20
10
  9
$VIEWSIZE
 40
10
  9
$SNAPMODE
 70
0
  9
$SNAPUNIT
 10
1
 20
1
  9
$SNAPBASE
 10
0
 20
0
  9
$SNAPANG
 50
0
  9
$SNAPSTYLE
 70
0
  9
$SNAPISOPAIR
 70
0
  9
$GRIDMODE
 70
0
  9
$GRIDUNIT
 10
0
 20
0
  9
$ORTHOMODE
 70
0
  9
$REGENMODE
 70
1
  9
$FILLMODE
 70
1
  9
$QTEXTMODE
 70
0
  9
$DRAGMODE
 70
2
  9
$LTSCALE
 40
1
  9
$OSMODE
 70
0
  9
$ATTMODE
 70
1
  9
$TEXTSIZE
 40
3.5
  9
$TRACEWID
 40
0.5
  9
$TEXTSTYLE
  7
STANDARD
  9
$CLAYER
  8
0
  9
$CELTYPE
  6
BYLAYER
  9
$CECOLOR
 62
256
  9
$DIMSCALE
 40
1
  9
$DIMASZ
 40
0.18
  9
$DIMEXO
 40
0.0625
  9
$DIMDLI
 40
0.38
  9
$DIMRND
 40
0
  9
$DIMDLE
 40
0
  9
$DIMEXE
 40
0.18
  9
$DIMTP
 40
0
  9
$DIMTM
 40
0
  9
$DIMTXT
 40
0.18
  9
$DIMCEN
 40
0.09
  9
$DIMTSZ
 40
0
  9
$DIMTOL
 70
0
  9
$DIMLIM
 70
0
  9
$DIMTIH
 70
1
  9
$DIMTOH
 70
1
  9
$DIMSE1
 70
0
  9
$DIMSE2
 70
0
  9
$DIMTAD
 70
0
  9
$DIMZIN
 70
0
  9
$DIMBLK
  1

  9
$DIMASO
 70
1
  9
$DIMSHO
 70
1
  9
$DIMPOST
  1

  9
$DIMAPOST
  1

  9
$DIMALT
 70
0
  9
$DIMALTD
 70
2
  9
$DIMALTF
 40
25.4
  9
$DIMLFAC
 40
1
  9
$DIMTOFL
 70
0
  9
$DIMTVP
 40
0
  9
$DIMTIX
 70
0
  9
$DIMSOXD
 70
0
  9
$DIMSAH
 70
0
  9
$DIMBLK1
  1

  9
$DIMBLK2
  1

  9
$DIMSTYLE
  2
*UNNAMED
  9
$DIMCLRD
 70
0
  9
$DIMCLRE
 70
0
  9
$DIMCLRT
 70
0
  9
$DIMTFAC
 40
1
  9
$DIMGAP
 40
0.09
  9
$LUNITS
 70
2
  9
$LUPREC
 70
4
  9
$AXISMODE
 70
0
  9
$AXISUNIT
 10
0
 20
0
  9
$SKETCHINC
 40
0.1
  9
$FILLETRAD
 40
2
  9
$AUNITS
 70
0
  9
$AUPREC
 70
0
  9
$MENU
  1
ACAD
  9
$ELEVATION
 40
0
  9
$THICKNESS
 40
0
  9
$VIEWDIR
 10
0
 20
0
 30
1
  9
$LIMCHECK
 70
0
  9
$BLIPMODE
 70
1
  9
$CHAMFERA
 40
0
  9
$CHAMFERB
 40
0
  9
$FASTZOOM
 70
1
  9
$SKPOLY
 70
0
  9
$ANGBASE
 50
0
  9
$ANGDIR
 70
0
  9
$PDMODE
 70
0
  9
$PDSIZE
 40
0
  9
$PLINEWID
 40
0
  9
$COORDS
 70
2
  0
ENDSEC
  0
SECTION
  2
TABLES
  0
TABLE
  2
DIMSTYLE
 70
2
  0
DIMSTYLE
  2
DMST_1
 70
0
  3

  4

  5

  6

  7

 40
1
 41
0.1
 42
0
 43
0.7
 44
0.2
 45
0
 46
0
 47
0
 48
0
140
0.1
141
0
142
0.1
143
25.4
144
1
145
0
146
1
147
0.25
 71
0
 72
0
 73
0
 74
0
 75
0
 76
0
 77
0
 78
9
170
0
171
2
172
0
173
0
174
0
175
0
176
7
177
7
178
7
  0
DIMSTYLE
  2
DMST_2
 70
0
  3

  4

  5

  6

  7

 40
1
 41
0.1
 42
0
 43
0.7
 44
0.2
 45
0
 46
0
 47
0
 48
0
140
0.1
141
0
142
0.1
143
25.4
144
1
145
0
146
1
147
0.2
 71
0
 72
0
 73
0
 74
0
 75
0
 76
0
 77
0
 78
9
170
0
171
2
172
0
173
0
174
0
175
0
176
7
177
7
178
7
  0
ENDTAB
  0
TABLE
  2
LTYPE
 70
9
  0
LTYPE
  2
CONTINUOUS
 70
64
  3
Solid line
 72
65
 73
0
 40
0
  0
LTYPE
  2
BORDER
 70
64
  3
__ __ . __ __ .
 72
65
 73
6
 40
0.4027418601494611
 49
0.115069102899846
 49
-0.05753455144992301
 49
0.115069102899846
 49
-0.05753455144992301
 49
0
 49
-0.05753455144992301
  0
LTYPE
  2
CENTER
 70
64
  3
____ _ ____ _
 72
65
 73
4
 40
0.4602764115993841
 49
0.2876727572496151
 49
-0.05753455144992301
 49
0.05753455144992301
 49
-0.05753455144992301
  0
LTYPE
  2
DASHDOT
 70
64
  3
__ . __ . __ .
 72
65
 73
4
 40
0.230138205799692
 49
0.115069102899846
 49
-0.05753455144992301
 49
0
 49
-0.05753455144992301
  0
LTYPE
  2
DASHED
 70
64
  3
__ __ __ __ __
 72
65
 73
2
 40
0.172603654349769
 49
0.115069102899846
 49
-0.05753455144992301
  0
LTYPE
  2
DIVIDE
 70
64
  3
__ . . __ . . 
 72
65
 73
6
 40
0.2876727572496151
 49
0.115069102899846
 49
-0.05753455144992301
 49
0
 49
-0.05753455144992301
 49
0
 49
-0.05753455144992301
  0
LTYPE
  2
DOT
 70
64
  3
..............
 72
65
 73
4
 40
0.115069102899846
 49
0
 49
-0.05753455144992301
 49
0
 49
-0.05753455144992301
  0
LTYPE
  2
HIDDEN
 70
64
  3
_ _ _ _ _ _ _
 72
65
 73
2
 40
0.08630182717488452
 49
0.05753455144992301
 49
-0.02876727572496151
  0
LTYPE
  2
PHANTOM
 70
64
  3
_____ _ _ _____ _ _ 
 72
65
 73
6
 40
0.5753455144992301
 49
0.2876727572496151
 49
-0.05753455144992301
 49
0.05753455144992301
 49
-0.05753455144992301
 49
0.05753455144992301
 49
-0.05753455144992301
  0
ENDTAB
  0
TABLE
  2
LAYER
 70
2
  0
LAYER
  2
0
 70
0
 62
7
  6
CONTINUOUS
  0
ENDTAB
  0
TABLE
  2
STYLE
 70
4
  0
STYLE
  2
STANDARD
 70
0
 40
0
 41
1
 50
0
 71
0
 42
3.5
  3
txt
  4

  0
STYLE
  2
SIMPLEX
 70
0
 40
0
 41
1
 50
0
 71
0
 42
3.5
  3
simplex
  4

  0
STYLE
  2
COMPLEX
 70
0
 40
0
 41
1
 50
0
 71
0
 42
3.5
  3
complex
  4

  0
STYLE
  2
ITALIC
 70
0
 40
0
 41
1
 50
0
 71
0
 42
3.5
  3
italic
  4

  0
ENDTAB
  0
TABLE
  2
VIEW
 70
0
  0
ENDTAB
  0
ENDSEC
  0
SECTION
  2
BLOCKS
  0
BLOCK
  8
0
  2
*X0
 70
1
 10
0
 20
0
 30
0
  0
LINE
  8
0
 62
7
  6
DASHED
 10
0.5
 20
8.242819253992694
 30
0
 11
0.5571807460073028
 21
8.299999999999997
 31
0
  0
LINE
  8
0
 62
7
  6
DASHED
 10
0.5693127803632705
 20
8.100000000000001
 30
0
 11
0.7399999999999998
 21
8.270687219636729
 31
0
  0
LINE
  8
0
 62
7
 10
0.5
 20
8.136753236814712
 30
0
 11
0.6632467631852856
 21
8.299999999999997
 31
0
  0
LINE
  8
0
 62
7
 10
0.6753787975412515
 20
8.099999999999998
 30
0
 11
0.7399999999999998
 21
8.164621202458747
 31
0
  0
ENDBLK
  8
0
  0
BLOCK
  8
0
  2
*X1
 70
1
 10
0
 20
0
 30
0
  0
LINE
  8
0
 62
7
  6
DASHED
 10
0.4999999999999991
 20
11.00053570062023
 30
0
 11
0.5494642993797729
 21
11.05
 31
0
  0
LINE
  8
0
 62
7
  6
DASHED
 10
0.5615963337357357
 20
10.85
 30
0
 11
0.7399999999999993
 21
11.02840366626426
 31
0
  0
LINE
  8
0
 62
7
 10
0.5000000000000009
 20
10.89446968344225
 30
0
 11
0.655530316557754
 21
11.05
 31
0
  0
LINE
  8
0
 62
7
 10
0.6676623509137176
 20
10.85
 30
0
 11
0.7400000000000002
 21
10.92233764908628
 31
0
  0
ENDBLK
  8
0
  0
BLOCK
  8
0
  2
*X2
 70
1
 10
0
 20
0
 30
0
  0
LINE
  8
0
 62
7
  6
DASHED
 10
2.14
 20
10.94347942577251
 30
0
 11
2.246520574227487
 21
11.05
 31
0
  0
LINE
  8
0
 62
7
  6
DASHED
 10
2.258652608583449
 20
10.85
 30
0
 11
2.439999999999999
 21
11.03134739141655
 31
0
  0
LINE
  8
0
 62
7
 10
2.14
 20
11.0495454429505
 30
0
 11
2.140454557049504
 21
11.05
 31
0
  0
LINE
  8
0
 62
7
 10
2.152586591405466
 20
10.85
 30
0
 11
2.352586591405468
 21
11.05
 31
0
  0
LINE
  8
0
 62
7
 10
2.36471862576143
 20
10.85
 30
0
 11
2.44
 21
10.92528137423857
 31
0
  0
ENDBLK
  8
0
  0
BLOCK
  8
0
  2
*X3
 70
1
 10
0
 20
0
 30
0
  0
LINE
  8
0
 62
7
  6
DASHED
 10
2.14
 20
8.185762979144981
 30
0
 11
2.254237020855017
 21
8.299999999999997
 31
0
  0
LINE
  8
0
 62
7
  6
DASHED
 10
2.266369055210983
 20
8.099999999999998
 30
0
 11
2.44
 21
8.273630944789016
 31
0
  0
LINE
  8
0
 62
7
 10
2.140000000000001
 20
8.291828996322963
 30
0
 11
2.148171003677036
 21
8.299999999999997
 31
0
  0
LINE
  8
0
 62
7
 10
2.160303038033002
 20
8.1
 30
0
 11
2.360303038033
 21
8.299999999999997
 31
0
  0
LINE
  8
0
 62
7
 10
2.372435072388967
 20
8.1
 30
0
 11
2.44
 21
8.167564927611032
 31
0
  0
ENDBLK
  8
0
  0
BLOCK
  8
0
  2
*X4
 70
1
 10
0
 20
0
 30
0
  0
LINE
  8
0
 62
7
 10
0.549464299379772
 20
11.05
 30
0
 11
0.6994642993797706
 21
11.2
 31
0
  0
LINE
  8
0
 62
7
 10
0.5
 20
11.10660171779821
 30
0
 11
0.5933982822017896
 21
11.2
 31
0
  0
LINE
  8
0
 62
7
 10
0.655530316557754
 20
11.05
 30
0
 11
0.7400000000000002
 21
11.13446968344225
 31
0
  0
ENDBLK
  8
0
  0
BLOCK
  8
0
  2
*X5
 70
1
 10
0
 20
0
 30
0
  0
LINE
  8
0
 62
7
 10
0.5000000000000004
 20
10.78840366626426
 30
0
 11
0.5615963337357339
 21
10.85
 31
0
  0
LINE
  8
0
 62
7
 10
0.5000000000000004
 20
10.5762716319083
 30
0
 11
0.7400000000000002
 21
10.8162716319083
 31
0
  0
LINE
  8
0
 62
7
 10
0.5000000000000004
 20
10.36413959755233
 30
0
 11
0.7400000000000002
 21
10.60413959755233
 31
0
  0
LINE
  8
0
 62
7
 10
0.5000000000000004
 20
10.15200756319637
 30
0
 11
0.7400000000000002
 21
10.39200756319637
 31
0
  0
LINE
  8
0
 62
7
 10
0.5000000000000004
 20
9.939875528840407
 30
0
 11
0.7400000000000002
 21
10.17987552884041
 31
0
  0
LINE
  8
0
 62
7
 10
0.5000000000000004
 20
9.727743494484443
 30
0
 11
0.7400000000000002
 21
9.967743494484441
 31
0
  0
LINE
  8
0
 62
7
 10
0.5000000000000004
 20
9.515611460128479
 30
0
 11
0.7400000000000002
 21
9.755611460128478
 31
0
  0
LINE
  8
0
 62
7
 10
0.5000000000000004
 20
9.303479425772515
 30
0
 11
0.7400000000000002
 21
9.543479425772514
 31
0
  0
LINE
  8
0
 62
7
 10
0.5000000000000004
 20
9.091347391416551
 30
0
 11
0.7400000000000002
 21
9.33134739141655
 31
0
  0
LINE
  8
0
 62
7
 10
0.5000000000000004
 20
8.879215357060588
 30
0
 11
0.7400000000000002
 21
9.119215357060586
 31
0
  0
LINE
  8
0
 62
7
 10
0.5000000000000004
 20
8.667083322704624
 30
0
 11
0.7400000000000002
 21
8.907083322704622
 31
0
  0
LINE
  8
0
 62
7
 10
0.5000000000000004
 20
8.45495128834866
 30
0
 11
0.7400000000000002
 21
8.694951288348658
 31
0
  0
LINE
  8
0
 62
7
 10
0.5571807460073028
 20
8.299999999999997
 30
0
 11
0.7400000000000002
 21
8.482819253992695
 31
0
  0
LINE
  8
0
 62
7
 10
0.5
 20
10.68233764908628
 30
0
 11
0.6676623509137176
 21
10.85
 31
0
  0
LINE
  8
0
 62
7
 10
0.5
 20
10.47020561473031
 30
0
 11
0.7400000000000007
 21
10.71020561473031
 31
0
  0
LINE
  8
0
 62
7
 10
0.5
 20
10.25807358037435
 30
0
 11
0.7400000000000007
 21
10.49807358037435
 31
0
  0
LINE
  8
0
 62
7
 10
0.5
 20
10.04594154601839
 30
0
 11
0.7400000000000007
 21
10.28594154601839
 31
0
  0
LINE
  8
0
 62
7
 10
0.5
 20
9.833809511662423
 30
0
 11
0.7400000000000007
 21
10.07380951166242
 31
0
  0
LINE
  8
0
 62
7
 10
0.5
 20
9.621677477306459
 30
0
 11
0.7400000000000007
 21
9.861677477306458
 31
0
  0
LINE
  8
0
 62
7
 10
0.5
 20
9.409545442950495
 30
0
 11
0.7400000000000007
 21
9.649545442950494
 31
0
  0
LINE
  8
0
 62
7
 10
0.5
 20
9.197413408594532
 30
0
 11
0.7400000000000007
 21
9.43741340859453
 31
0
  0
LINE
  8
0
 62
7
 10
0.5
 20
8.985281374238568
 30
0
 11
0.7400000000000007
 21
9.225281374238566
 31
0
  0
LINE
  8
0
 62
7
 10
0.5
 20
8.773149339882604
 30
0
 11
0.7400000000000007
 21
9.013149339882602
 31
0
  0
LINE
  8
0
 62
7
 10
0.5
 20
8.56101730552664
 30
0
 11
0.7400000000000007
 21
8.801017305526639
 31
0
  0
LINE
  8
0
 62
7
 10
0.5
 20
8.348885271170676
 30
0
 11
0.7400000000000007
 21
8.588885271170675
 31
0
  0
LINE
  8
0
 62
7
 10
0.6632467631852861
 20
8.299999999999997
 30
0
 11
0.7400000000000007
 21
8.376753236814711
 31
0
  0
ENDBLK
  8
0
  0
BLOCK
  8
0
  2
*X6
 70
1
 10
0
 20
0
 30
0
  0
LINE
  8
0
 62
7
 10
0.5
 20
8.03068721963673
 30
0
 11
0.5693127803632692
 21
8.1
 31
0
  0
LINE
  8
0
 62
7
 10
0.6314448147192331
 20
7.949999999999998
 30
0
 11
0.7399999999999998
 21
8.058555185280765
 31
0
  0
LINE
  8
0
 62
7
 10
0.5253787975412521
 20
7.949999999999999
 30
0
 11
0.6753787975412515
 21
8.099999999999998
 31
0
  0
LINE
  8
0
 62
7
 10
0.7375108318972163
 20
7.949999999999999
 30
0
 11
0.7400000000000002
 21
7.952489168102783
 31
0
  0
ENDBLK
  8
0
  0
BLOCK
  8
0
  2
*X7
 70
1
 10
0
 20
0
 30
0
  0
LINE
  8
0
 62
7
  6
DASHED
 10
3.965000000000003
 20
10.85929111656884
 30
0
 11
4.155708883431172
 21
11.05
 31
0
  0
LINE
  8
0
 62
7
  6
DASHED
 10
4.167840917787133
 20
10.85
 30
0
 11
4.367840917787135
 21
11.05
 31
0
  0
LINE
  8
0
 62
7
  6
DASHED
 10
4.379972952143097
 20
10.85
 30
0
 11
4.579972952143099
 21
11.05
 31
0
  0
LINE
  8
0
 62
7
  6
DASHED
 10
4.592104986499061
 20
10.85
 30
0
 11
4.792104986499063
 21
11.05
 31
0
  0
LINE
  8
0
 62
7
  6
DASHED
 10
4.804237020855025
 20
10.85
 30
0
 11
5.004237020855027
 21
11.05
 31
0
  0
LINE
  8
0
 62
7
  6
DASHED
 10
5.016369055210989
 20
10.85
 30
0
 11
5.216369055210991
 21
11.05
 31
0
  0
LINE
  8
0
 62
7
  6
DASHED
 10
5.228501089566953
 20
10.85
 30
0
 11
5.428501089566955
 21
11.05
 31
0
  0
LINE
  8
0
 62
7
  6
DASHED
 10
5.440633123922916
 20
10.85
 30
0
 11
5.640633123922918
 21
11.05
 31
0
  0
LINE
  8
0
 62
7
  6
DASHED
 10
5.65276515827888
 20
10.85
 30
0
 11
5.852765158278882
 21
11.05
 31
0
  0
LINE
  8
0
 62
7
  6
DASHED
 10
5.864897192634844
 20
10.85
 30
0
 11
6.064897192634846
 21
11.05
 31
0
  0
LINE
  8
0
 62
7
  6
DASHED
 10
6.077029226990808
 20
10.85
 30
0
 11
6.27702922699081
 21
11.05
 31
0
  0
LINE
  8
0
 62
7
  6
DASHED
 10
6.289161261346772
 20
10.85
 30
0
 11
6.489161261346774
 21
11.05
 31
0
  0
LINE
  8
0
 62
7
  6
DASHED
 10
6.501293295702736
 20
10.85
 30
0
 11
6.701293295702738
 21
11.05
 31
0
  0
LINE
  8
0
 62
7
  6
DASHED
 10
6.713425330058699
 20
10.85
 30
0
 11
6.913425330058701
 21
11.05
 31
0
  0
LINE
  8
0
 62
7
  6
DASHED
 10
6.925557364414663
 20
10.85
 30
0
 11
7.125557364414665
 21
11.05
 31
0
  0
LINE
  8
0
 62
7
  6
DASHED
 10
7.137689398770627
 20
10.85
 30
0
 11
7.337689398770629
 21
11.05
 31
0
  0
LINE
  8
0
 62
7
  6
DASHED
 10
7.349821433126591
 20
10.85
 30
0
 11
7.549821433126593
 21
11.05
 31
0
  0
LINE
  8
0
 62
7
  6
DASHED
 10
7.561953467482555
 20
10.85
 30
0
 11
7.750000000000004
 21
11.03804653251745
 31
0
  0
LINE
  8
0
 62
7
 10
3.965000000000004
 20
10.96535713374682
 30
0
 11
4.049642866253187
 21
11.05
 31
0
  0
LINE
  8
0
 62
7
 10
4.061774900609152
 20
10.85
 30
0
 11
4.261774900609151
 21
11.05
 31
0
  0
LINE
  8
0
 62
7
 10
4.273906934965116
 20
10.85
 30
0
 11
4.473906934965115
 21
11.05
 31
0
  0
LINE
  8
0
 62
7
 10
4.48603896932108
 20
10.85
 30
0
 11
4.686038969321078
 21
11.05
 31
0
  0
LINE
  8
0
 62
7
 10
4.698171003677044
 20
10.85
 30
0
 11
4.898171003677042
 21
11.05
 31
0
  0
LINE
  8
0
 62
7
 10
4.910303038033008
 20
10.85
 30
0
 11
5.110303038033006
 21
11.05
 31
0
  0
LINE
  8
0
 62
7
 10
5.122435072388972
 20
10.85
 30
0
 11
5.32243507238897
 21
11.05
 31
0
  0
LINE
  8
0
 62
7
 10
5.334567106744935
 20
10.85
 30
0
 11
5.534567106744934
 21
11.05
 31
0
  0
LINE
  8
0
 62
7
 10
5.546699141100899
 20
10.85
 30
0
 11
5.746699141100898
 21
11.05
 31
0
  0
LINE
  8
0
 62
7
 10
5.758831175456863
 20
10.85
 30
0
 11
5.958831175456861
 21
11.05
 31
0
  0
LINE
  8
0
 62
7
 10
5.970963209812827
 20
10.85
 30
0
 11
6.170963209812825
 21
11.05
 31
0
  0
LINE
  8
0
 62
7
 10
6.183095244168791
 20
10.85
 30
0
 11
6.383095244168789
 21
11.05
 31
0
  0
LINE
  8
0
 62
7
 10
6.395227278524755
 20
10.85
 30
0
 11
6.595227278524753
 21
11.05
 31
0
  0
LINE
  8
0
 62
7
 10
6.607359312880718
 20
10.85
 30
0
 11
6.807359312880717
 21
11.05
 31
0
  0
LINE
  8
0
 62
7
 10
6.819491347236682
 20
10.85
 30
0
 11
7.019491347236681
 21
11.05
 31
0
  0
LINE
  8
0
 62
7
 10
7.031623381592646
 20
10.85
 30
0
 11
7.231623381592645
 21
11.05
 31
0
  0
LINE
  8
0
 62
7
 10
7.24375541594861
 20
10.85
 30
0
 11
7.443755415948608
 21
11.05
 31
0
  0
LINE
  8
0
 62
7
 10
7.455887450304574
 20
10.85
 30
0
 11
7.655887450304572
 21
11.05
 31
0
  0
LINE
  8
0
 62
7
 10
7.668019484660538
 20
10.85
 30
0
 11
7.750000000000003
 21
10.93198051533947
 31
0
  0
ENDBLK
  8
0
  0
BLOCK
  8
0
  2
*X8
 70
1
 10
0
 20
0
 30
0
  0
LINE
  8
0
 62
7
  6
DASHED
 10
3.965000000000005
 20
8.101574669941307
 30
0
 11
4.163425330058701
 21
8.299999999999995
 31
0
  0
LINE
  8
0
 62
7
  6
DASHED
 10
4.175557364414667
 20
8.099999999999998
 30
0
 11
4.375557364414665
 21
8.299999999999995
 31
0
  0
LINE
  8
0
 62
7
  6
DASHED
 10
4.387689398770631
 20
8.099999999999998
 30
0
 11
4.587689398770629
 21
8.299999999999995
 31
0
  0
LINE
  8
0
 62
7
  6
DASHED
 10
4.599821433126595
 20
8.099999999999998
 30
0
 11
4.799821433126593
 21
8.299999999999995
 31
0
  0
LINE
  8
0
 62
7
  6
DASHED
 10
4.811953467482558
 20
8.099999999999998
 30
0
 11
5.011953467482557
 21
8.299999999999995
 31
0
  0
LINE
  8
0
 62
7
  6
DASHED
 10
5.024085501838522
 20
8.099999999999998
 30
0
 11
5.224085501838521
 21
8.299999999999995
 31
0
  0
LINE
  8
0
 62
7
  6
DASHED
 10
5.236217536194486
 20
8.099999999999998
 30
0
 11
5.436217536194484
 21
8.299999999999995
 31
0
  0
LINE
  8
0
 62
7
  6
DASHED
 10
5.44834957055045
 20
8.099999999999998
 30
0
 11
5.648349570550448
 21
8.299999999999995
 31
0
  0
LINE
  8
0
 62
7
  6
DASHED
 10
5.660481604906414
 20
8.099999999999998
 30
0
 11
5.860481604906412
 21
8.299999999999995
 31
0
  0
LINE
  8
0
 62
7
  6
DASHED
 10
5.872613639262378
 20
8.099999999999998
 30
0
 11
6.072613639262376
 21
8.299999999999995
 31
0
  0
LINE
  8
0
 62
7
  6
DASHED
 10
6.084745673618341
 20
8.099999999999998
 30
0
 11
6.28474567361834
 21
8.299999999999995
 31
0
  0
LINE
  8
0
 62
7
  6
DASHED
 10
6.296877707974305
 20
8.099999999999998
 30
0
 11
6.496877707974304
 21
8.299999999999995
 31
0
  0
LINE
  8
0
 62
7
  6
DASHED
 10
6.509009742330269
 20
8.099999999999998
 30
0
 11
6.709009742330267
 21
8.299999999999995
 31
0
  0
LINE
  8
0
 62
7
  6
DASHED
 10
6.721141776686233
 20
8.099999999999998
 30
0
 11
6.921141776686231
 21
8.299999999999995
 31
0
  0
LINE
  8
0
 62
7
  6
DASHED
 10
6.933273811042197
 20
8.099999999999998
 30
0
 11
7.133273811042195
 21
8.299999999999995
 31
0
  0
LINE
  8
0
 62
7
  6
DASHED
 10
7.145405845398161
 20
8.099999999999998
 30
0
 11
7.345405845398159
 21
8.299999999999995
 31
0
  0
LINE
  8
0
 62
7
  6
DASHED
 10
7.357537879754124
 20
8.099999999999998
 30
0
 11
7.557537879754123
 21
8.299999999999995
 31
0
  0
LINE
  8
0
 62
7
  6
DASHED
 10
7.569669914110088
 20
8.099999999999998
 30
0
 11
7.750000000000004
 21
8.280330085889913
 31
0
  0
LINE
  8
0
 62
7
 10
3.965000000000003
 20
8.207640687119287
 30
0
 11
4.057359312880719
 21
8.299999999999995
 31
0
  0
LINE
  8
0
 62
7
 10
4.069491347236688
 20
8.1
 30
0
 11
4.269491347236682
 21
8.299999999999995
 31
0
  0
LINE
  8
0
 62
7
 10
4.281623381592652
 20
8.1
 30
0
 11
4.481623381592646
 21
8.299999999999995
 31
0
  0
LINE
  8
0
 62
7
 10
4.493755415948616
 20
8.1
 30
0
 11
4.69375541594861
 21
8.299999999999995
 31
0
  0
LINE
  8
0
 62
7
 10
4.70588745030458
 20
8.1
 30
0
 11
4.905887450304574
 21
8.299999999999995
 31
0
  0
LINE
  8
0
 62
7
 10
4.918019484660544
 20
8.1
 30
0
 11
5.118019484660538
 21
8.299999999999995
 31
0
  0
LINE
  8
0
 62
7
 10
5.130151519016508
 20
8.1
 30
0
 11
5.330151519016502
 21
8.299999999999995
 31
0
  0
LINE
  8
0
 62
7
 10
5.342283553372472
 20
8.1
 30
0
 11
5.542283553372465
 21
8.299999999999995
 31
0
  0
LINE
  8
0
 62
7
 10
5.554415587728435
 20
8.1
 30
0
 11
5.754415587728429
 21
8.299999999999995
 31
0
  0
LINE
  8
0
 62
7
 10
5.766547622084399
 20
8.1
 30
0
 11
5.966547622084393
 21
8.299999999999995
 31
0
  0
LINE
  8
0
 62
7
 10
5.978679656440363
 20
8.1
 30
0
 11
6.178679656440357
 21
8.299999999999995
 31
0
  0
LINE
  8
0
 62
7
 10
6.190811690796327
 20
8.1
 30
0
 11
6.390811690796321
 21
8.299999999999995
 31
0
  0
LINE
  8
0
 62
7
 10
6.402943725152291
 20
8.1
 30
0
 11
6.602943725152285
 21
8.299999999999995
 31
0
  0
LINE
  8
0
 62
7
 10
6.615075759508255
 20
8.1
 30
0
 11
6.815075759508249
 21
8.299999999999995
 31
0
  0
LINE
  8
0
 62
7
 10
6.827207793864218
 20
8.1
 30
0
 11
7.027207793864212
 21
8.299999999999995
 31
0
  0
LINE
  8
0
 62
7
 10
7.039339828220182
 20
8.1
 30
0
 11
7.239339828220176
 21
8.299999999999995
 31
0
  0
LINE
  8
0
 62
7
 10
7.251471862576146
 20
8.1
 30
0
 11
7.45147186257614
 21
8.299999999999995
 31
0
  0
LINE
  8
0
 62
7
 10
7.46360389693211
 20
8.1
 30
0
 11
7.663603896932104
 21
8.299999999999995
 31
0
  0
LINE
  8
0
 62
7
 10
7.675735931288074
 20
8.1
 30
0
 11
7.750000000000004
 21
8.174264068711931
 31
0
  0
ENDBLK
  8
0
  0
BLOCK
  8
0
  2
*X9
 70
1
 10
0
 20
0
 30
0
  0
LINE
  8
0
 62
7
 10
4.155708883431164
 20
11.05
 30
0
 11
4.290000000000003
 21
11.18429111656884
 31
0
  0
LINE
  8
0
 62
7
 10
4.115000000000006
 20
11.11535713374682
 30
0
 11
4.19964286625318
 21
11.2
 31
0
  0
LINE
  8
0
 62
7
 10
4.261774900609145
 20
11.05
 30
0
 11
4.290000000000004
 21
11.07822509939086
 31
0
  0
ENDBLK
  8
0
  0
BLOCK
  8
0
  2
*X10
 70
1
 10
0
 20
0
 30
0
  0
LINE
  8
0
 62
7
 10
4.115000000000006
 20
10.79715908221287
 30
0
 11
4.167840917787125
 21
10.85
 31
0
  0
LINE
  8
0
 62
7
 10
4.115000000000006
 20
10.58502704785691
 30
0
 11
4.290000000000004
 21
10.76002704785691
 31
0
  0
LINE
  8
0
 62
7
 10
4.115000000000006
 20
10.37289501350095
 30
0
 11
4.290000000000004
 21
10.54789501350094
 31
0
  0
LINE
  8
0
 62
7
 10
4.115000000000006
 20
10.16076297914498
 30
0
 11
4.290000000000004
 21
10.33576297914498
 31
0
  0
LINE
  8
0
 62
7
 10
4.115000000000006
 20
9.948630944789018
 30
0
 11
4.290000000000004
 21
10.12363094478902
 31
0
  0
LINE
  8
0
 62
7
 10
4.115000000000006
 20
9.736498910433054
 30
0
 11
4.290000000000004
 21
9.911498910433053
 31
0
  0
LINE
  8
0
 62
7
 10
4.115000000000006
 20
9.524366876077091
 30
0
 11
4.290000000000004
 21
9.699366876077089
 31
0
  0
LINE
  8
0
 62
7
 10
4.115000000000006
 20
9.312234841721127
 30
0
 11
4.290000000000004
 21
9.487234841721126
 31
0
  0
LINE
  8
0
 62
7
 10
4.115000000000006
 20
9.100102807365163
 30
0
 11
4.290000000000004
 21
9.275102807365162
 31
0
  0
LINE
  8
0
 62
7
 10
4.115000000000006
 20
8.887970773009199
 30
0
 11
4.290000000000004
 21
9.062970773009198
 31
0
  0
LINE
  8
0
 62
7
 10
4.115000000000006
 20
8.675838738653235
 30
0
 11
4.290000000000004
 21
8.850838738653234
 31
0
  0
LINE
  8
0
 62
7
 10
4.115000000000006
 20
8.463706704297271
 30
0
 11
4.290000000000004
 21
8.63870670429727
 31
0
  0
LINE
  8
0
 62
7
 10
4.163425330058695
 20
8.299999999999997
 30
0
 11
4.290000000000004
 21
8.426574669941306
 31
0
  0
LINE
  8
0
 62
7
 10
4.115000000000004
 20
10.69109306503489
 30
0
 11
4.273906934965108
 21
10.85
 31
0
  0
LINE
  8
0
 62
7
 10
4.115000000000004
 20
10.47896103067893
 30
0
 11
4.290000000000004
 21
10.65396103067892
 31
0
  0
LINE
  8
0
 62
7
 10
4.115000000000004
 20
10.26682899632296
 30
0
 11
4.290000000000004
 21
10.44182899632296
 31
0
  0
LINE
  8
0
 62
7
 10
4.115000000000004
 20
10.054696961967
 30
0
 11
4.290000000000004
 21
10.229696961967
 31
0
  0
LINE
  8
0
 62
7
 10
4.115000000000004
 20
9.842564927611035
 30
0
 11
4.290000000000004
 21
10.01756492761103
 31
0
  0
LINE
  8
0
 62
7
 10
4.115000000000004
 20
9.630432893255071
 30
0
 11
4.290000000000004
 21
9.80543289325507
 31
0
  0
LINE
  8
0
 62
7
 10
4.115000000000004
 20
9.418300858899107
 30
0
 11
4.290000000000004
 21
9.593300858899106
 31
0
  0
LINE
  8
0
 62
7
 10
4.115000000000004
 20
9.206168824543143
 30
0
 11
4.290000000000004
 21
9.381168824543142
 31
0
  0
LINE
  8
0
 62
7
 10
4.115000000000004
 20
8.994036790187179
 30
0
 11
4.290000000000004
 21
9.169036790187178
 31
0
  0
LINE
  8
0
 62
7
 10
4.115000000000004
 20
8.781904755831215
 30
0
 11
4.290000000000004
 21
8.956904755831214
 31
0
  0
LINE
  8
0
 62
7
 10
4.115000000000004
 20
8.569772721475251
 30
0
 11
4.290000000000004
 21
8.74477272147525
 31
0
  0
LINE
  8
0
 62
7
 10
4.115000000000004
 20
8.357640687119288
 30
0
 11
4.290000000000004
 21
8.532640687119287
 31
0
  0
LINE
  8
0
 62
7
 10
4.269491347236678
 20
8.299999999999997
 30
0
 11
4.290000000000004
 21
8.320508652763323
 31
0
  0
ENDBLK
  8
0
  0
BLOCK
  8
0
  2
*X11
 70
1
 10
0
 20
0
 30
0
  0
LINE
  8
0
 62
7
 10
4.115000000000005
 20
8.039442635585342
 30
0
 11
4.175557364414661
 21
8.099999999999998
 31
0
  0
LINE
  8
0
 62
7
 10
4.237689398770624
 20
7.949999999999998
 30
0
 11
4.290000000000004
 21
8.002310601229377
 31
0
  0
LINE
  8
0
 62
7
 10
4.131623381592642
 20
7.949999999999998
 30
0
 11
4.281623381592643
 21
8.1
 31
0
  0
ENDBLK
  8
0
  0
BLOCK
  8
0
  2
*X12
 70
1
 10
0
 20
0
 30
0
  0
LINE
  8
0
 62
7
 10
7.425000000000005
 20
11.13731060122938
 30
0
 11
7.487689398770626
 21
11.2
 31
0
  0
LINE
  8
0
 62
7
 10
7.549821433126593
 20
11.05
 30
0
 11
7.600000000000004
 21
11.10017856687341
 31
0
  0
LINE
  8
0
 62
7
 10
7.44375541594861
 20
11.05
 30
0
 11
7.593755415948609
 21
11.2
 31
0
  0
ENDBLK
  8
0
  0
BLOCK
  8
0
  2
*X13
 70
1
 10
0
 20
0
 30
0
  0
LINE
  8
0
 62
7
 10
7.425000000000005
 20
10.71304653251745
 30
0
 11
7.561953467482555
 21
10.85
 31
0
  0
LINE
  8
0
 62
7
 10
7.425000000000005
 20
10.50091449816148
 30
0
 11
7.600000000000006
 21
10.67591449816148
 31
0
  0
LINE
  8
0
 62
7
 10
7.425000000000005
 20
10.28878246380552
 30
0
 11
7.600000000000006
 21
10.46378246380552
 31
0
  0
LINE
  8
0
 62
7
 10
7.425000000000005
 20
10.07665042944955
 30
0
 11
7.600000000000006
 21
10.25165042944955
 31
0
  0
LINE
  8
0
 62
7
 10
7.425000000000005
 20
9.86451839509359
 30
0
 11
7.600000000000006
 21
10.03951839509359
 31
0
  0
LINE
  8
0
 62
7
 10
7.425000000000005
 20
9.652386360737626
 30
0
 11
7.600000000000006
 21
9.827386360737625
 31
0
  0
LINE
  8
0
 62
7
 10
7.425000000000005
 20
9.440254326381663
 30
0
 11
7.600000000000006
 21
9.615254326381661
 31
0
  0
LINE
  8
0
 62
7
 10
7.425000000000005
 20
9.228122292025699
 30
0
 11
7.600000000000006
 21
9.403122292025698
 31
0
  0
LINE
  8
0
 62
7
 10
7.425000000000005
 20
9.015990257669735
 30
0
 11
7.600000000000006
 21
9.190990257669734
 31
0
  0
LINE
  8
0
 62
7
 10
7.425000000000005
 20
8.803858223313771
 30
0
 11
7.600000000000006
 21
8.97885822331377
 31
0
  0
LINE
  8
0
 62
7
 10
7.425000000000005
 20
8.591726188957807
 30
0
 11
7.600000000000006
 21
8.766726188957806
 31
0
  0
LINE
  8
0
 62
7
 10
7.425000000000005
 20
8.379594154601843
 30
0
 11
7.600000000000006
 21
8.554594154601842
 31
0
  0
LINE
  8
0
 62
7
 10
7.557537879754124
 20
8.299999999999997
 30
0
 11
7.600000000000006
 21
8.342462120245878
 31
0
  0
LINE
  8
0
 62
7
 10
7.425000000000005
 20
10.81911254969543
 30
0
 11
7.455887450304573
 21
10.85
 31
0
  0
LINE
  8
0
 62
7
 10
7.425000000000005
 20
10.60698051533946
 30
0
 11
7.600000000000004
 21
10.78198051533946
 31
0
  0
LINE
  8
0
 62
7
 10
7.425000000000005
 20
10.3948484809835
 30
0
 11
7.600000000000004
 21
10.5698484809835
 31
0
  0
LINE
  8
0
 62
7
 10
7.425000000000005
 20
10.18271644662754
 30
0
 11
7.600000000000004
 21
10.35771644662753
 31
0
  0
LINE
  8
0
 62
7
 10
7.425000000000005
 20
9.970584412271572
 30
0
 11
7.600000000000004
 21
10.14558441227157
 31
0
  0
LINE
  8
0
 62
7
 10
7.425000000000005
 20
9.758452377915608
 30
0
 11
7.600000000000004
 21
9.933452377915605
 31
0
  0
LINE
  8
0
 62
7
 10
7.425000000000005
 20
9.546320343559644
 30
0
 11
7.600000000000004
 21
9.721320343559642
 31
0
  0
LINE
  8
0
 62
7
 10
7.425000000000005
 20
9.334188309203681
 30
0
 11
7.600000000000004
 21
9.509188309203678
 31
0
  0
LINE
  8
0
 62
7
 10
7.425000000000005
 20
9.122056274847717
 30
0
 11
7.600000000000004
 21
9.297056274847714
 31
0
  0
LINE
  8
0
 62
7
 10
7.425000000000005
 20
8.909924240491753
 30
0
 11
7.600000000000004
 21
9.08492424049175
 31
0
  0
LINE
  8
0
 62
7
 10
7.425000000000005
 20
8.697792206135789
 30
0
 11
7.600000000000004
 21
8.872792206135786
 31
0
  0
LINE
  8
0
 62
7
 10
7.425000000000005
 20
8.485660171779825
 30
0
 11
7.600000000000004
 21
8.660660171779822
 31
0
  0
LINE
  8
0
 62
7
 10
7.451471862576141
 20
8.299999999999997
 30
0
 11
7.600000000000004
 21
8.448528137423859
 31
0
  0
ENDBLK
  8
0
  0
BLOCK
  8
0
  2
*X14
 70
1
 10
0
 20
0
 30
0
  0
LINE
  8
0
 62
7
 10
7.425000000000004
 20
7.955330085889913
 30
0
 11
7.56966991411009
 21
8.1
 31
0
  0
LINE
  8
0
 62
7
 10
7.425000000000004
 20
8.061396103067896
 30
0
 11
7.463603896932107
 21
8.099999999999998
 31
0
  0
LINE
  8
0
 62
7
 10
7.525735931288072
 20
7.949999999999999
 30
0
 11
7.600000000000005
 21
8.024264068711933
 31
0
  0
ENDBLK
  8
0
  0
BLOCK
  8
0
  2
*X15
 70
1
 10
0
 20
0
 30
0
  0
LINE
  8
0
 62
7
 10
4.115000000000004
 20
5.281726188957807
 30
0
 11
4.253273811042192
 21
5.419999999999995
 31
0
  0
LINE
  8
0
 62
7
 10
3.965000000000003
 20
5.131726188957806
 30
0
 11
4.103273811042193
 21
5.269999999999996
 31
0
  0
LINE
  8
0
 62
7
 10
4.075405845398169
 20
5.030000000000001
 30
0
 11
4.315405845398164
 21
5.269999999999997
 31
0
  0
LINE
  8
0
 62
7
 10
4.287537879754133
 20
5.030000000000001
 30
0
 11
4.527537879754128
 21
5.269999999999997
 31
0
  0
LINE
  8
0
 62
7
 10
4.499669914110097
 20
5.030000000000001
 30
0
 11
4.739669914110092
 21
5.269999999999997
 31
0
  0
LINE
  8
0
 62
7
 10
4.711801948466061
 20
5.030000000000001
 30
0
 11
4.951801948466056
 21
5.269999999999997
 31
0
  0
LINE
  8
0
 62
7
 10
4.923933982822025
 20
5.030000000000001
 30
0
 11
5.163933982822019
 21
5.269999999999997
 31
0
  0
LINE
  8
0
 62
7
 10
5.136066017177988
 20
5.030000000000001
 30
0
 11
5.376066017177983
 21
5.269999999999997
 31
0
  0
LINE
  8
0
 62
7
 10
5.348198051533952
 20
5.030000000000001
 30
0
 11
5.588198051533947
 21
5.269999999999997
 31
0
  0
LINE
  8
0
 62
7
 10
5.560330085889916
 20
5.030000000000001
 30
0
 11
5.800330085889911
 21
5.269999999999997
 31
0
  0
LINE
  8
0
 62
7
 10
5.77246212024588
 20
5.030000000000001
 30
0
 11
6.012462120245875
 21
5.269999999999997
 31
0
  0
LINE
  8
0
 62
7
 10
5.984594154601844
 20
5.030000000000001
 30
0
 11
6.224594154601839
 21
5.269999999999997
 31
0
  0
LINE
  8
0
 62
7
 10
6.196726188957808
 20
5.030000000000001
 30
0
 11
6.436726188957802
 21
5.269999999999997
 31
0
  0
LINE
  8
0
 62
7
 10
6.408858223313771
 20
5.030000000000001
 30
0
 11
6.648858223313766
 21
5.269999999999997
 31
0
  0
LINE
  8
0
 62
7
 10
6.620990257669735
 20
5.030000000000001
 30
0
 11
6.86099025766973
 21
5.269999999999997
 31
0
  0
LINE
  8
0
 62
7
 10
6.833122292025699
 20
5.030000000000001
 30
0
 11
7.073122292025694
 21
5.269999999999997
 31
0
  0
LINE
  8
0
 62
7
 10
7.425000000000005
 20
5.409745673618344
 30
0
 11
7.435254326381656
 21
5.419999999999995
 31
0
  0
LINE
  8
0
 62
7
 10
7.045254326381663
 20
5.030000000000001
 30
0
 11
7.285254326381658
 21
5.269999999999997
 31
0
  0
LINE
  8
0
 62
7
 10
7.257386360737627
 20
5.030000000000001
 30
0
 11
7.600000000000004
 21
5.372613639262379
 31
0
  0
LINE
  8
0
 62
7
 10
7.469518395093591
 20
5.030000000000001
 30
0
 11
7.709518395093585
 21
5.269999999999996
 31
0
  0
LINE
  8
0
 62
7
 10
7.681650429449554
 20
5.030000000000001
 30
0
 11
7.765000000000006
 21
5.113349570550451
 31
0
  0
LINE
  8
0
 62
7
 10
4.115000000000004
 20
5.38779220613579
 30
0
 11
4.147207793864209
 21
5.419999999999995
 31
0
  0
LINE
  8
0
 62
7
 10
3.965000000000003
 20
5.23779220613579
 30
0
 11
3.997207793864211
 21
5.269999999999996
 31
0
  0
LINE
  8
0
 62
7
 10
3.969339828220189
 20
5.030000000000002
 30
0
 11
4.290000000000004
 21
5.350660171779824
 31
0
  0
LINE
  8
0
 62
7
 10
4.181471862576153
 20
5.030000000000002
 30
0
 11
4.421471862576147
 21
5.269999999999998
 31
0
  0
LINE
  8
0
 62
7
 10
4.393603896932117
 20
5.030000000000002
 30
0
 11
4.633603896932111
 21
5.269999999999998
 31
0
  0
LINE
  8
0
 62
7
 10
4.605735931288081
 20
5.030000000000002
 30
0
 11
4.845735931288075
 21
5.269999999999998
 31
0
  0
LINE
  8
0
 62
7
 10
4.817867965644044
 20
5.030000000000002
 30
0
 11
5.057867965644038
 21
5.269999999999998
 31
0
  0
LINE
  8
0
 62
7
 10
5.030000000000008
 20
5.030000000000002
 30
0
 11
5.270000000000002
 21
5.269999999999998
 31
0
  0
LINE
  8
0
 62
7
 10
5.242132034355972
 20
5.030000000000002
 30
0
 11
5.482132034355966
 21
5.269999999999998
 31
0
  0
LINE
  8
0
 62
7
 10
5.454264068711936
 20
5.030000000000002
 30
0
 11
5.69426406871193
 21
5.269999999999998
 31
0
  0
LINE
  8
0
 62
7
 10
5.6663961030679
 20
5.030000000000002
 30
0
 11
5.906396103067894
 21
5.269999999999998
 31
0
  0
LINE
  8
0
 62
7
 10
5.878528137423864
 20
5.030000000000002
 30
0
 11
6.118528137423858
 21
5.269999999999998
 31
0
  0
LINE
  8
0
 62
7
 10
6.090660171779827
 20
5.030000000000002
 30
0
 11
6.330660171779821
 21
5.269999999999998
 31
0
  0
LINE
  8
0
 62
7
 10
6.302792206135791
 20
5.030000000000002
 30
0
 11
6.542792206135785
 21
5.269999999999998
 31
0
  0
LINE
  8
0
 62
7
 10
6.514924240491755
 20
5.030000000000002
 30
0
 11
6.754924240491749
 21
5.269999999999998
 31
0
  0
LINE
  8
0
 62
7
 10
6.727056274847719
 20
5.030000000000002
 30
0
 11
6.967056274847713
 21
5.269999999999998
 31
0
  0
LINE
  8
0
 62
7
 10
6.939188309203683
 20
5.030000000000002
 30
0
 11
7.179188309203677
 21
5.269999999999998
 31
0
  0
LINE
  8
0
 62
7
 10
7.425000000000004
 20
5.303679656440361
 30
0
 11
7.541320343559637
 21
5.419999999999994
 31
0
  0
LINE
  8
0
 62
7
 10
7.151320343559647
 20
5.030000000000002
 30
0
 11
7.391320343559641
 21
5.269999999999998
 31
0
  0
LINE
  8
0
 62
7
 10
7.36345237791561
 20
5.030000000000002
 30
0
 11
7.603452377915604
 21
5.269999999999998
 31
0
  0
LINE
  8
0
 62
7
 10
7.575584412271574
 20
5.030000000000002
 30
0
 11
7.765000000000004
 21
5.219415587728433
 31
0
  0
ENDBLK
  8
0
  0
BLOCK
  8
0
  2
*X16
 70
1
 10
0
 20
0
 30
0
  0
LINE
  8
0
 62
7
 10
3.965000000000003
 20
4.919594154601842
 30
0
 11
4.03540584539817
 21
4.990000000000001
 31
0
  0
LINE
  8
0
 62
7
 10
4.007537879754125
 20
4.75
 30
0
 11
4.247537879754134
 21
4.990000000000001
 31
0
  0
LINE
  8
0
 62
7
 10
4.115000000000004
 20
4.645330085889912
 30
0
 11
4.459669914110098
 21
4.990000000000001
 31
0
  0
LINE
  8
0
 62
7
 10
4.43180194846606
 20
4.75
 30
0
 11
4.671801948466062
 21
4.990000000000001
 31
0
  0
LINE
  8
0
 62
7
 10
4.115000000000004
 20
4.433198051533948
 30
0
 11
4.290000000000003
 21
4.608198051533948
 31
0
  0
LINE
  8
0
 62
7
 10
4.643933982822023
 20
4.75
 30
0
 11
4.883933982822025
 21
4.990000000000001
 31
0
  0
LINE
  8
0
 62
7
 10
4.115000000000004
 20
4.221066017177984
 30
0
 11
4.290000000000003
 21
4.396066017177984
 31
0
  0
LINE
  8
0
 62
7
 10
4.856066017177987
 20
4.75
 30
0
 11
5.096066017177989
 21
4.990000000000001
 31
0
  0
LINE
  8
0
 62
7
 10
4.115000000000004
 20
4.00893398282202
 30
0
 11
4.290000000000003
 21
4.18393398282202
 31
0
  0
LINE
  8
0
 62
7
 10
5.068198051533951
 20
4.75
 30
0
 11
5.308198051533953
 21
4.990000000000001
 31
0
  0
LINE
  8
0
 62
7
 10
4.115000000000004
 20
3.796801948466056
 30
0
 11
4.290000000000003
 21
3.971801948466056
 31
0
  0
LINE
  8
0
 62
7
 10
5.280330085889915
 20
4.75
 30
0
 11
5.520330085889917
 21
4.990000000000001
 31
0
  0
LINE
  8
0
 62
7
 10
4.115000000000004
 20
3.584669914110092
 30
0
 11
4.290000000000003
 21
3.759669914110092
 31
0
  0
LINE
  8
0
 62
7
 10
5.492462120245879
 20
4.75
 30
0
 11
5.732462120245881
 21
4.990000000000001
 31
0
  0
LINE
  8
0
 62
7
 10
4.115000000000004
 20
3.372537879754128
 30
0
 11
4.290000000000003
 21
3.547537879754127
 31
0
  0
LINE
  8
0
 62
7
 10
5.704594154601843
 20
4.75
 30
0
 11
5.944594154601845
 21
4.990000000000001
 31
0
  0
LINE
  8
0
 62
7
 10
4.20459415460184
 20
3.25
 30
0
 11
4.290000000000004
 21
3.335405845398165
 31
0
  0
LINE
  8
0
 62
7
 10
5.916726188957806
 20
4.75
 30
0
 11
6.156726188957808
 21
4.990000000000001
 31
0
  0
LINE
  8
0
 62
7
 10
6.12885822331377
 20
4.75
 30
0
 11
6.368858223313772
 21
4.990000000000001
 31
0
  0
LINE
  8
0
 62
7
 10
6.340990257669734
 20
4.75
 30
0
 11
6.580990257669736
 21
4.990000000000001
 31
0
  0
LINE
  8
0
 62
7
 10
6.553122292025698
 20
4.75
 30
0
 11
6.7931222920257
 21
4.990000000000001
 31
0
  0
LINE
  8
0
 62
7
 10
6.765254326381662
 20
4.75
 30
0
 11
7.005254326381664
 21
4.990000000000001
 31
0
  0
LINE
  8
0
 62
7
 10
6.977386360737626
 20
4.75
 30
0
 11
7.217386360737628
 21
4.990000000000001
 31
0
  0
LINE
  8
0
 62
7
 10
7.189518395093589
 20
4.75
 30
0
 11
7.429518395093591
 21
4.990000000000001
 31
0
  0
LINE
  8
0
 62
7
 10
7.401650429449553
 20
4.75
 30
0
 11
7.641650429449555
 21
4.990000000000001
 31
0
  0
LINE
  8
0
 62
7
 10
7.613782463805517
 20
4.749999999999999
 30
0
 11
7.765000000000004
 21
4.901217536194486
 31
0
  0
LINE
  8
0
 62
7
 10
7.425000000000004
 20
4.561217536194485
 30
0
 11
7.600000000000005
 21
4.736217536194486
 31
0
  0
LINE
  8
0
 62
7
 10
7.425000000000004
 20
4.349085501838521
 30
0
 11
7.600000000000005
 21
4.524085501838522
 31
0
  0
LINE
  8
0
 62
7
 10
7.425000000000004
 20
4.136953467482558
 30
0
 11
7.600000000000005
 21
4.311953467482558
 31
0
  0
LINE
  8
0
 62
7
 10
7.425000000000004
 20
3.924821433126594
 30
0
 11
7.600000000000005
 21
4.099821433126595
 31
0
  0
LINE
  8
0
 62
7
 10
7.425000000000004
 20
3.71268939877063
 30
0
 11
7.600000000000005
 21
3.88768939877063
 31
0
  0
LINE
  8
0
 62
7
 10
7.425000000000004
 20
3.500557364414665
 30
0
 11
7.600000000000005
 21
3.675557364414666
 31
0
  0
LINE
  8
0
 62
7
 10
7.486574669941303
 20
3.35
 30
0
 11
7.600000000000005
 21
3.463425330058702
 31
0
  0
LINE
  8
0
 62
7
 10
3.965000000000004
 20
4.813528137423861
 30
0
 11
4.141471862576152
 21
4.990000000000001
 31
0
  0
LINE
  8
0
 62
7
 10
4.113603896932108
 20
4.75
 30
0
 11
4.353603896932116
 21
4.990000000000001
 31
0
  0
LINE
  8
0
 62
7
 10
4.325735931288077
 20
4.749999999999998
 30
0
 11
4.56573593128808
 21
4.990000000000001
 31
0
  0
LINE
  8
0
 62
7
 10
4.115000000000005
 20
4.539264068711931
 30
0
 11
4.290000000000004
 21
4.71426406871193
 31
0
  0
LINE
  8
0
 62
7
 10
4.537867965644041
 20
4.749999999999998
 30
0
 11
4.777867965644043
 21
4.990000000000001
 31
0
  0
LINE
  8
0
 62
7
 10
4.115000000000005
 20
4.327132034355968
 30
0
 11
4.290000000000004
 21
4.502132034355967
 31
0
  0
LINE
  8
0
 62
7
 10
4.750000000000004
 20
4.749999999999998
 30
0
 11
4.990000000000007
 21
4.990000000000001
 31
0
  0
LINE
  8
0
 62
7
 10
4.115000000000005
 20
4.115000000000004
 30
0
 11
4.290000000000004
 21
4.290000000000003
 31
0
  0
LINE
  8
0
 62
7
 10
4.962132034355968
 20
4.749999999999998
 30
0
 11
5.202132034355971
 21
4.990000000000001
 31
0
  0
LINE
  8
0
 62
7
 10
4.115000000000005
 20
3.902867965644039
 30
0
 11
4.290000000000004
 21
4.077867965644039
 31
0
  0
LINE
  8
0
 62
7
 10
5.174264068711932
 20
4.749999999999998
 30
0
 11
5.414264068711935
 21
4.990000000000001
 31
0
  0
LINE
  8
0
 62
7
 10
4.115000000000005
 20
3.690735931288075
 30
0
 11
4.290000000000004
 21
3.865735931288075
 31
0
  0
LINE
  8
0
 62
7
 10
5.386396103067896
 20
4.749999999999998
 30
0
 11
5.626396103067899
 21
4.990000000000001
 31
0
  0
LINE
  8
0
 62
7
 10
4.115000000000005
 20
3.478603896932111
 30
0
 11
4.290000000000004
 21
3.653603896932111
 31
0
  0
LINE
  8
0
 62
7
 10
5.59852813742386
 20
4.749999999999998
 30
0
 11
5.838528137423863
 21
4.990000000000001
 31
0
  0
LINE
  8
0
 62
7
 10
4.115000000000005
 20
3.266471862576147
 30
0
 11
4.290000000000004
 21
3.441471862576146
 31
0
  0
LINE
  8
0
 62
7
 10
5.810660171779824
 20
4.749999999999998
 30
0
 11
6.050660171779827
 21
4.990000000000001
 31
0
  0
LINE
  8
0
 62
7
 10
6.022792206135787
 20
4.749999999999998
 30
0
 11
6.26279220613579
 21
4.990000000000001
 31
0
  0
LINE
  8
0
 62
7
 10
6.234924240491751
 20
4.749999999999998
 30
0
 11
6.474924240491754
 21
4.990000000000001
 31
0
  0
LINE
  8
0
 62
7
 10
6.447056274847715
 20
4.749999999999998
 30
0
 11
6.687056274847718
 21
4.990000000000001
 31
0
  0
LINE
  8
0
 62
7
 10
6.659188309203679
 20
4.749999999999998
 30
0
 11
6.899188309203682
 21
4.990000000000001
 31
0
  0
LINE
  8
0
 62
7
 10
6.871320343559643
 20
4.749999999999998
 30
0
 11
7.111320343559646
 21
4.990000000000001
 31
0
  0
LINE
  8
0
 62
7
 10
7.083452377915607
 20
4.749999999999998
 30
0
 11
7.32345237791561
 21
4.990000000000001
 31
0
  0
LINE
  8
0
 62
7
 10
7.295584412271571
 20
4.749999999999998
 30
0
 11
7.535584412271573
 21
4.990000000000001
 31
0
  0
LINE
  8
0
 62
7
 10
7.425000000000005
 20
4.667283553372468
 30
0
 11
7.747716446627537
 21
4.990000000000001
 31
0
  0
LINE
  8
0
 62
7
 10
7.7198484809835
 20
4.75
 30
0
 11
7.765000000000004
 21
4.795151519016504
 31
0
  0
LINE
  8
0
 62
7
 10
7.425000000000005
 20
4.455151519016504
 30
0
 11
7.600000000000005
 21
4.630151519016504
 31
0
  0
LINE
  8
0
 62
7
 10
7.425000000000005
 20
4.24301948466054
 30
0
 11
7.600000000000005
 21
4.41801948466054
 31
0
  0
LINE
  8
0
 62
7
 10
7.425000000000005
 20
4.030887450304577
 30
0
 11
7.600000000000005
 21
4.205887450304576
 31
0
  0
LINE
  8
0
 62
7
 10
7.425000000000005
 20
3.818755415948612
 30
0
 11
7.600000000000005
 21
3.993755415948613
 31
0
  0
LINE
  8
0
 62
7
 10
7.425000000000005
 20
3.606623381592648
 30
0
 11
7.600000000000005
 21
3.781623381592648
 31
0
  0
LINE
  8
0
 62
7
 10
7.425000000000004
 20
3.394491347236683
 30
0
 11
7.600000000000005
 21
3.569491347236684
 31
0
  0
LINE
  8
0
 62
7
 10
7.592640687119285
 20
3.35
 30
0
 11
7.600000000000005
 21
3.35735931288072
 31
0
  0
ENDBLK
  8
0
  0
BLOCK
  8
0
  2
*D0
 70
1
 10
0
 20
0
 30
0
  0
LINE
  8
0
 62
7
 10
8.03395117313902
 20
4.381992651024801
 30
0
 11
8.03395117313902
 21
4.750000000000001
 31
0
  0
LINE
  8
0
 62
7
 10
8.03395117313902
 20
3.350000000000001
 30
0
 11
8.03395117313902
 21
3.726992651024801
 31
0
  0
LINE
  8
0
 62
7
 10
7.600000000000005
 20
4.750000000000001
 30
0
 11
8.08395117313902
 21
4.750000000000001
 31
0
  0
LINE
  8
0
 62
7
 10
7.600000000000005
 20
3.350000000000001
 30
0
 11
8.08395117313902
 21
3.350000000000001
 31
0
  0
LINE
  8
0
 62
7
 10
8.069306512198347
 20
4.714644660940674
 30
0
 11
7.998595834079692
 21
4.785355339059328
 31
0
  0
LINE
  8
0
 62
7
 10
7.998595834079692
 20
3.385355339059328
 30
0
 11
8.069306512198347
 21
3.314644660940673
 31
0
  0
TEXT
  8
0
 62
7
 10
8.07895117313902
 20
3.976992651024801
 30
0
 40
0.1
  1
1,4
 50
90
 41
0.9
  0
ENDBLK
  8
0
  0
BLOCK
  8
0
  2
*D1
 70
1
 10
0
 20
0
 30
0
  0
LINE
  8
0
 62
7
 10
6.242494862459431
 20
5.58128404800429
 30
0
 11
7.425000000000004
 21
5.58128404800429
 31
0
  0
LINE
  8
0
 62
7
 10
4.290000000000003
 20
5.58128404800429
 30
0
 11
5.49749486245943
 21
5.58128404800429
 31
0
  0
LINE
  8
0
 62
7
 10
7.425000000000004
 20
5.269999999999997
 30
0
 11
7.425000000000004
 21
5.631284048004289
 31
0
  0
LINE
  8
0
 62
7
 10
4.290000000000003
 20
5.269999999999997
 30
0
 11
4.290000000000003
 21
5.631284048004289
 31
0
  0
LINE
  8
0
 62
7
 10
4.32535533905933
 20
5.616639387063617
 30
0
 11
4.254644660940675
 21
5.545928708944962
 31
0
  0
LINE
  8
0
 62
7
 10
7.389644660940677
 20
5.545928708944962
 30
0
 11
7.460355339059332
 21
5.616639387063617
 31
0
  0
TEXT
  8
0
 62
7
 10
5.747494862459431
 20
5.53628404800429
 30
0
 40
0.1
  1
3,14
 41
0.9
  0
ENDBLK
  8
0
  0
BLOCK
  8
0
  2
*D2
 70
1
 10
0
 20
0
 30
0
  0
LINE
  8
0
 62
7
 10
3.778170428802491
 20
4.369970671521029
 30
0
 11
3.778170428802491
 21
4.75
 31
0
  0
LINE
  8
0
 62
7
 10
3.778170428802491
 20
3.25
 30
0
 11
3.778170428802491
 21
3.71497067152103
 31
0
  0
LINE
  8
0
 62
7
 10
4.115000000000004
 20
4.75
 30
0
 11
3.728170428802491
 21
4.75
 31
0
  0
LINE
  8
0
 62
7
 10
4.115000000000004
 20
3.25
 30
0
 11
3.728170428802491
 21
3.25
 31
0
  0
LINE
  8
0
 62
7
 10
3.742815089743164
 20
3.285355339059327
 30
0
 11
3.813525767861818
 21
3.214644660940673
 31
0
  0
LINE
  8
0
 62
7
 10
3.813525767861818
 20
4.714644660940673
 30
0
 11
3.742815089743164
 21
4.785355339059327
 31
0
  0
TEXT
  8
0
 62
7
 10
3.823170428802491
 20
3.96497067152103
 30
0
 40
0.1
  1
1,5
 50
90
 41
0.9
  0
ENDBLK
  8
0
  0
BLOCK
  8
0
  2
*D3
 70
1
 10
0
 20
0
 30
0
  0
LINE
  8
0
 62
7
 10
6.19249486245943
 20
11.5802518203883
 30
0
 11
7.425000000000004
 21
11.5802518203883
 31
0
  0
LINE
  8
0
 62
7
 10
4.290000000000003
 20
11.5802518203883
 30
0
 11
5.54749486245943
 21
11.5802518203883
 31
0
  0
LINE
  8
0
 62
7
 10
7.425000000000004
 20
11.2
 30
0
 11
7.425000000000004
 21
11.6302518203883
 31
0
  0
LINE
  8
0
 62
7
 10
4.290000000000003
 20
11.2
 30
0
 11
4.290000000000003
 21
11.6302518203883
 31
0
  0
LINE
  8
0
 62
7
 10
7.389644660940677
 20
11.54489648132897
 30
0
 11
7.460355339059332
 21
11.61560715944763
 31
0
  0
LINE
  8
0
 62
7
 10
4.32535533905933
 20
11.61560715944763
 30
0
 11
4.254644660940675
 21
11.54489648132897
 31
0
  0
TEXT
  8
0
 62
7
 10
5.747494862459431
 20
11.5352518203883
 30
0
 40
0.1
  1
3,14
 41
0.9
  0
ENDBLK
  8
0
  0
BLOCK
  8
0
  2
*D4
 70
1
 10
0
 20
0
 30
0
  0
LINE
  8
0
 62
7
 10
8.17821492718433
 20
10.24482301779929
 30
0
 11
8.17821492718433
 21
11.05
 31
0
  0
LINE
  8
0
 62
7
 10
8.17821492718433
 20
8.299999999999997
 30
0
 11
8.17821492718433
 21
9.164823017799291
 31
0
  0
LINE
  8
0
 62
7
 10
7.750000000000004
 20
11.05
 30
0
 11
8.228214927184331
 21
11.05
 31
0
  0
LINE
  8
0
 62
7
 10
7.750000000000004
 20
8.299999999999997
 30
0
 11
8.228214927184331
 21
8.299999999999997
 31
0
  0
LINE
  8
0
 62
7
 10
8.142859588125003
 20
8.335355339059324
 30
0
 11
8.213570266243657
 21
8.26464466094067
 31
0
  0
LINE
  8
0
 62
7
 10
8.213570266243657
 20
11.01464466094068
 30
0
 11
8.142859588125003
 21
11.08535533905933
 31
0
  0
TEXT
  8
0
 62
7
 10
8.14821492718433
 20
9.567323017799293
 30
0
 40
0.1
  1
2,75
 50
90
 41
0.9
  0
TEXT
  8
0
 62
7
 10
8.308214927184331
 20
9.364823017799292
 30
0
 40
0.1
  1
(260-280)
 50
90
 41
0.9
  0
ENDBLK
  8
0
  0
ENDSEC
  0
SECTION
  2
ENTITIES
  0
INSERT
  8
0
  2
*X0
 10
0
 20
0
 30
0
  0
INSERT
  8
0
  2
*X1
 10
0
 20
0
 30
0
  0
INSERT
  8
0
  2
*X2
 10
0
 20
0
 30
0
  0
INSERT
  8
0
  2
*X3
 10
0
 20
0
 30
0
  0
INSERT
  8
0
  2
*X4
 10
0
 20
0
 30
0
  0
INSERT
  8
0
  2
*X5
 10
0
 20
0
 30
0
  0
INSERT
  8
0
  2
*X6
 10
0
 20
0
 30
0
  0
INSERT
  8
0
  2
*X7
 10
0
 20
0
 30
0
  0
INSERT
  8
0
  2
*X8
 10
0
 20
0
 30
0
  0
INSERT
  8
0
  2
*X9
 10
0
 20
0
 30
0
  0
INSERT
  8
0
  2
*X10
 10
0
 20
0
 30
0
  0
INSERT
  8
0
  2
*X11
 10
0
 20
0
 30
0
  0
INSERT
  8
0
  2
*X12
 10
0
 20
0
 30
0
  0
INSERT
  8
0
  2
*X13
 10
0
 20
0
 30
0
  0
INSERT
  8
0
  2
*X14
 10
0
 20
0
 30
0
  0
INSERT
  8
0
  2
*X15
 10
0
 20
0
 30
0
  0
INSERT
  8
0
  2
*X16
 10
0
 20
0
 30
0
  0
LINE
  8
0
 62
7
  6
DASHDOT
 10
7.425000000000004
 20
5.419999999999995
 30
0
 11
7.600000000000005
 21
5.419999999999995
 31
0
  0
LINE
  8
0
 62
7
  6
DASHDOT
 10
7.600000000000005
 20
5.419999999999995
 30
0
 11
7.650000000000005
 21
5.419999999999997
 31
0
  0
LINE
  8
0
 62
7
  6
DASHDOT
 10
3.965000000000004
 20
4.99
 30
0
 11
3.965000000000004
 21
4.75
 31
0
  0
LINE
  8
0
 62
7
  6
DASHDOT
 10
7.765000000000005
 20
4.99
 30
0
 11
7.765000000000005
 21
4.75
 31
0
  0
LINE
  8
0
 62
7
  6
DASHDOT
 10
3.965000000000004
 20
5.030000000000001
 30
0
 11
3.965000000000004
 21
4.99
 31
0
  0
LINE
  8
0
 62
7
  6
DASHDOT
 10
7.765000000000005
 20
5.030000000000001
 30
0
 11
7.765000000000005
 21
4.99
 31
0
  0
LINE
  8
0
 62
7
  6
DASHDOT
 10
3.965000000000004
 20
4.75
 30
0
 11
3.965000000000004
 21
4.7
 31
0
  0
LINE
  8
0
 62
7
  6
DASHDOT
 10
3.965000000000004
 20
5.269999999999997
 30
0
 11
3.965000000000004
 21
5.030000000000001
 31
0
  0
LINE
  8
0
 62
7
  6
DASHDOT
 10
4.290000000000004
 20
5.419999999999995
 30
0
 11
4.340000000000003
 21
5.419999999999997
 31
0
  0
LINE
  8
0
 62
7
  6
DASHDOT
 10
4.115000000000004
 20
5.419999999999995
 30
0
 11
4.290000000000004
 21
5.419999999999995
 31
0
  0
LINE
  8
0
 62
7
  6
DASHDOT
 10
7.765000000000005
 20
4.75
 30
0
 11
7.765000000000005
 21
4.7
 31
0
  0
LINE
  8
0
 62
7
  6
DASHDOT
 10
7.765000000000005
 20
5.269999999999997
 30
0
 11
7.765000000000005
 21
5.030000000000001
 31
0
  0
LINE
  8
0
 62
7
  6
DASHDOT
 10
7.765000000000005
 20
5.319999999999997
 30
0
 11
7.765000000000005
 21
5.269999999999997
 31
0
  0
LINE
  8
0
 62
7
  6
DASHDOT
 10
3.965000000000004
 20
5.319999999999997
 30
0
 11
3.965000000000004
 21
5.269999999999997
 31
0
  0
LINE
  8
0
 62
7
  6
DASHDOT
 10
7.375000000000004
 20
5.419999999999997
 30
0
 11
7.425000000000004
 21
5.419999999999995
 31
0
  0
LINE
  8
0
 62
7
  6
DASHDOT
 10
4.065000000000004
 20
5.419999999999997
 30
0
 11
4.115000000000004
 21
5.419999999999995
 31
0
  0
LINE
  8
0
 62
7
 10
4.290000000000004
 20
3.35
 30
0
 11
4.290000000000004
 21
3.399999999999999
 31
0
  0
LINE
  8
0
 62
7
  6
DASHDOT
 10
7.425000000000004
 20
3.35
 30
0
 11
4.290000000000004
 21
3.35
 31
0
  0
LINE
  8
0
 62
7
 10
7.425000000000004
 20
3.4
 30
0
 11
7.425000000000004
 21
3.35
 31
0
  0
LINE
  8
0
 62
7
 10
4.290000000000004
 20
3.399999999999999
 30
0
 11
4.290000000000004
 21
4.75
 31
0
  0
LINE
  8
0
 62
7
 10
7.425000000000004
 20
3.4
 30
0
 11
4.290000000000004
 21
3.399999999999999
 31
0
  0
LINE
  8
0
 62
7
 10
7.425000000000004
 20
3.35
 30
0
 11
7.600000000000005
 21
3.35
 31
0
  0
LINE
  8
0
 62
7
 10
7.600000000000005
 20
4.75
 30
0
 11
7.765000000000005
 21
4.75
 31
0
  0
LINE
  8
0
 62
7
 10
7.600000000000005
 20
3.35
 30
0
 11
7.600000000000005
 21
4.75
 31
0
  0
LINE
  8
0
 62
7
 10
7.425000000000004
 20
4.75
 30
0
 11
7.425000000000004
 21
3.4
 31
0
  0
LINE
  8
0
 62
7
 10
4.290000000000004
 20
4.75
 30
0
 11
7.425000000000004
 21
4.75
 31
0
  0
LINE
  8
0
 62
7
 10
4.115000000000004
 20
4.75
 30
0
 11
4.115000000000004
 21
3.25
 31
0
  0
LINE
  8
0
 62
7
 10
4.115000000000004
 20
3.25
 30
0
 11
4.290000000000004
 21
3.25
 31
0
  0
LINE
  8
0
 62
7
 10
4.290000000000004
 20
3.25
 30
0
 11
4.290000000000004
 21
3.35
 31
0
  0
LINE
  8
0
 62
7
 10
3.965000000000004
 20
4.75
 30
0
 11
4.115000000000004
 21
4.75
 31
0
  0
LINE
  8
0
 62
7
 10
3.965000000000004
 20
4.99
 30
0
 11
7.765000000000005
 21
4.99
 31
0
  0
LINE
  8
0
 62
7
 10
3.965000000000004
 20
5.030000000000001
 30
0
 11
7.765000000000005
 21
5.030000000000001
 31
0
  0
LINE
  8
0
 62
7
 10
7.600000000000005
 20
5.269999999999997
 30
0
 11
7.765000000000005
 21
5.269999999999997
 31
0
  0
LINE
  8
0
 62
7
 10
7.600000000000005
 20
5.419999999999995
 30
0
 11
7.600000000000005
 21
5.269999999999997
 31
0
  0
LINE
  8
0
 62
7
 10
7.425000000000004
 20
5.269999999999997
 30
0
 11
7.425000000000004
 21
5.419999999999995
 31
0
  0
LINE
  8
0
 62
7
 10
4.290000000000004
 20
5.269999999999997
 30
0
 11
7.425000000000004
 21
5.269999999999997
 31
0
  0
LINE
  8
0
 62
7
 10
4.290000000000004
 20
5.419999999999995
 30
0
 11
4.290000000000004
 21
5.269999999999997
 31
0
  0
LINE
  8
0
 62
7
 10
4.115000000000004
 20
5.269999999999997
 30
0
 11
4.115000000000004
 21
5.419999999999995
 31
0
  0
LINE
  8
0
 62
7
 10
3.965000000000004
 20
5.269999999999997
 30
0
 11
4.115000000000004
 21
5.269999999999997
 31
0
  0
LINE
  8
0
 62
7
  6
DASHED
 10
0.7400000000000001
 20
8.1
 30
0
 11
2.14
 21
8.1
 31
0
  0
LINE
  8
0
 62
7
  6
DASHED
 10
0.7400000000000001
 20
8.299999999999997
 30
0
 11
2.14
 21
8.299999999999997
 31
0
  0
LINE
  8
0
 62
7
  6
DASHED
 10
0.7400000000000001
 20
10.85
 30
0
 11
2.14
 21
10.85
 31
0
  0
LINE
  8
0
 62
7
  6
DASHED
 10
0.7400000000000001
 20
11.05
 30
0
 11
2.14
 21
11.05
 31
0
  0
LINE
  8
0
 62
7
  6
DASHDOT
 10
2.44
 20
11.05
 30
0
 11
2.44
 21
10.85
 31
0
  0
LINE
  8
0
 62
7
  6
DASHDOT
 10
2.44
 20
10.85
 30
0
 11
2.44
 21
10.8
 31
0
  0
LINE
  8
0
 62
7
  6
DASHDOT
 10
0.5
 20
11.2
 30
0
 11
0.7400000000000001
 21
11.2
 31
0
  0
LINE
  8
0
 62
7
  6
DASHDOT
 10
0.7400000000000001
 20
11.2
 30
0
 11
0.79
 21
11.2
 31
0
  0
LINE
  8
0
 62
7
  6
DASHDOT
 10
0.7400000000000001
 20
7.949999999999998
 30
0
 11
0.79
 21
7.949999999999998
 31
0
  0
LINE
  8
0
 62
7
  6
DASHDOT
 10
0.5
 20
7.949999999999998
 30
0
 11
0.7400000000000001
 21
7.949999999999998
 31
0
  0
LINE
  8
0
 62
7
  6
DASHDOT
 10
2.44
 20
8.1
 30
0
 11
2.44
 21
8.299999999999997
 31
0
  0
LINE
  8
0
 62
7
  6
DASHDOT
 10
2.44
 20
8.299999999999997
 30
0
 11
2.44
 21
8.399999999999997
 31
0
  0
LINE
  8
0
 62
7
  6
DASHDOT
 10
2.44
 20
11.15
 30
0
 11
2.44
 21
11.05
 31
0
  0
LINE
  8
0
 62
7
 10
2.14
 20
11.15
 30
0
 11
2.44
 21
11.15
 31
0
  0
LINE
  8
0
 62
7
  6
DASHDOT
 10
2.44
 20
8.399999999999997
 30
0
 11
2.44
 21
8.449999999999998
 31
0
  0
LINE
  8
0
 62
7
 10
2.14
 20
8.399999999999997
 30
0
 11
2.44
 21
8.399999999999997
 31
0
  0
LINE
  8
0
 62
7
  6
DASHDOT
 10
0.45
 20
7.949999999999998
 30
0
 11
0.5
 21
7.949999999999998
 31
0
  0
LINE
  8
0
 62
7
  6
DASHDOT
 10
2.44
 20
8.049999999999999
 30
0
 11
2.44
 21
8.1
 31
0
  0
LINE
  8
0
 62
7
  6
DASHDOT
 10
2.44
 20
11.2
 30
0
 11
2.44
 21
11.15
 31
0
  0
LINE
  8
0
 62
7
  6
DASHDOT
 10
0.45
 20
11.2
 30
0
 11
0.5
 21
11.2
 31
0
  0
LINE
  8
0
 62
7
 10
2.14
 20
8.1
 30
0
 11
2.44
 21
8.1
 31
0
  0
LINE
  8
0
 62
7
 10
2.14
 20
8.299999999999997
 30
0
 11
2.14
 21
8.1
 31
0
  0
LINE
  8
0
 62
7
 10
2.14
 20
8.299999999999997
 30
0
 11
2.44
 21
8.299999999999997
 31
0
  0
LINE
  8
0
 62
7
 10
2.14
 20
11.05
 30
0
 11
2.44
 21
11.05
 31
0
  0
LINE
  8
0
 62
7
 10
2.14
 20
10.85
 30
0
 11
2.44
 21
10.85
 31
0
  0
LINE
  8
0
 62
7
 10
2.14
 20
11.05
 30
0
 11
2.14
 21
10.85
 31
0
  0
LINE
  8
0
 62
7
 10
0.7400000000000001
 20
8.1
 30
0
 11
0.7400000000000001
 21
7.949999999999998
 31
0
  0
LINE
  8
0
 62
7
 10
0.5
 20
8.1
 30
0
 11
0.5
 21
8.299999999999997
 31
0
  0
LINE
  8
0
 62
7
 10
0.5
 20
8.1
 30
0
 11
0.7400000000000001
 21
8.1
 31
0
  0
LINE
  8
0
 62
7
 10
0.7400000000000001
 20
8.299999999999997
 30
0
 11
0.7400000000000001
 21
8.1
 31
0
  0
LINE
  8
0
 62
7
 10
0.5
 20
8.299999999999997
 30
0
 11
0.5
 21
10.85
 31
0
  0
LINE
  8
0
 62
7
 10
0.5
 20
8.299999999999997
 30
0
 11
0.7400000000000001
 21
8.299999999999997
 31
0
  0
LINE
  8
0
 62
7
 10
0.7400000000000001
 20
10.85
 30
0
 11
0.7400000000000001
 21
8.299999999999997
 31
0
  0
LINE
  8
0
 62
7
 10
0.5
 20
10.85
 30
0
 11
0.5
 21
11.05
 31
0
  0
LINE
  8
0
 62
7
 10
0.5
 20
10.85
 30
0
 11
0.7400000000000001
 21
10.85
 31
0
  0
LINE
  8
0
 62
7
 10
0.7400000000000001
 20
11.05
 30
0
 11
0.7400000000000001
 21
10.85
 31
0
  0
LINE
  8
0
 62
7
 10
0.5
 20
11.05
 30
0
 11
0.5
 21
11.2
 31
0
  0
LINE
  8
0
 62
7
 10
0.5
 20
11.05
 30
0
 11
0.7400000000000001
 21
11.05
 31
0
  0
LINE
  8
0
 62
7
 10
0.7400000000000001
 20
11.2
 30
0
 11
0.7400000000000001
 21
11.05
 31
0
  0
LINE
  8
0
 62
7
 10
0.5
 20
7.949999999999998
 30
0
 11
0.5
 21
8.1
 31
0
  0
LINE
  8
0
 62
7
  6
DASHDOT
 10
4.065000000000004
 20
11.2
 30
0
 11
4.115000000000004
 21
11.2
 31
0
  0
LINE
  8
0
 62
7
  6
DASHDOT
 10
4.115000000000004
 20
11.2
 30
0
 11
4.290000000000004
 21
11.2
 31
0
  0
LINE
  8
0
 62
7
  6
DASHDOT
 10
3.965000000000004
 20
11.15
 30
0
 11
3.965000000000004
 21
11.05
 31
0
  0
LINE
  8
0
 62
7
  6
DASHDOT
 10
3.965000000000004
 20
11.05
 30
0
 11
3.965000000000004
 21
10.85
 31
0
  0
LINE
  8
0
 62
7
  6
DASHDOT
 10
7.375000000000004
 20
11.2
 30
0
 11
7.425000000000004
 21
11.2
 31
0
  0
LINE
  8
0
 62
7
  6
DASHDOT
 10
7.425000000000004
 20
11.2
 30
0
 11
7.600000000000005
 21
11.2
 31
0
  0
LINE
  8
0
 62
7
  6
DASHDOT
 10
7.750000000000004
 20
11.15
 30
0
 11
7.750000000000004
 21
11.05
 31
0
  0
LINE
  8
0
 62
7
  6
DASHDOT
 10
7.750000000000004
 20
11.05
 30
0
 11
7.750000000000004
 21
10.85
 31
0
  0
LINE
  8
0
 62
7
  6
DASHDOT
 10
7.375000000000004
 20
7.949999999999998
 30
0
 11
7.425000000000004
 21
7.949999999999998
 31
0
  0
LINE
  8
0
 62
7
  6
DASHDOT
 10
7.425000000000004
 20
7.949999999999998
 30
0
 11
7.600000000000005
 21
7.949999999999998
 31
0
  0
LINE
  8
0
 62
7
  6
DASHDOT
 10
7.750000000000004
 20
8.399999999999997
 30
0
 11
7.750000000000004
 21
8.299999999999997
 31
0
  0
LINE
  8
0
 62
7
  6
DASHDOT
 10
7.750000000000004
 20
8.299999999999997
 30
0
 11
7.750000000000004
 21
8.1
 31
0
  0
LINE
  8
0
 62
7
  6
DASHDOT
 10
4.065000000000004
 20
7.949999999999998
 30
0
 11
4.115000000000004
 21
7.949999999999998
 31
0
  0
LINE
  8
0
 62
7
  6
DASHDOT
 10
4.115000000000004
 20
7.949999999999998
 30
0
 11
4.290000000000004
 21
7.949999999999998
 31
0
  0
LINE
  8
0
 62
7
  6
DASHDOT
 10
3.965000000000004
 20
8.399999999999997
 30
0
 11
3.965000000000004
 21
8.299999999999997
 31
0
  0
LINE
  8
0
 62
7
  6
DASHDOT
 10
3.965000000000004
 20
8.299999999999997
 30
0
 11
3.965000000000004
 21
8.1
 31
0
  0
LINE
  8
0
 62
7
  6
DASHDOT
 10
3.965000000000004
 20
11.2
 30
0
 11
3.965000000000004
 21
11.15
 31
0
  0
LINE
  8
0
 62
7
 10
4.115000000000004
 20
11.2
 30
0
 11
4.115000000000004
 21
11.15
 31
0
  0
LINE
  8
0
 62
7
 10
3.965000000000004
 20
11.15
 30
0
 11
4.115000000000004
 21
11.15
 31
0
  0
LINE
  8
0
 62
7
 10
4.290000000000004
 20
11.2
 30
0
 11
4.290000000000004
 21
11.15
 31
0
  0
LINE
  8
0
 62
7
 10
7.425000000000004
 20
11.2
 30
0
 11
7.425000000000004
 21
11.15
 31
0
  0
LINE
  8
0
 62
7
 10
4.290000000000004
 20
11.15
 30
0
 11
7.425000000000004
 21
11.15
 31
0
  0
LINE
  8
0
 62
7
  6
DASHDOT
 10
7.750000000000004
 20
11.2
 30
0
 11
7.750000000000004
 21
11.15
 31
0
  0
LINE
  8
0
 62
7
 10
7.600000000000005
 20
11.2
 30
0
 11
7.600000000000005
 21
11.15
 31
0
  0
LINE
  8
0
 62
7
 10
7.600000000000005
 20
11.15
 30
0
 11
7.750000000000004
 21
11.15
 31
0
  0
LINE
  8
0
 62
7
  6
DASHDOT
 10
3.965000000000004
 20
8.449999999999998
 30
0
 11
3.965000000000004
 21
8.399999999999997
 31
0
  0
LINE
  8
0
 62
7
 10
4.115000000000004
 20
10.85
 30
0
 11
4.115000000000004
 21
8.399999999999997
 31
0
  0
LINE
  8
0
 62
7
 10
3.965000000000004
 20
8.399999999999997
 30
0
 11
4.115000000000004
 21
8.399999999999997
 31
0
  0
LINE
  8
0
 62
7
 10
4.290000000000004
 20
10.85
 30
0
 11
4.290000000000004
 21
8.399999999999997
 31
0
  0
LINE
  8
0
 62
7
 10
7.425000000000004
 20
10.85
 30
0
 11
7.425000000000004
 21
8.399999999999997
 31
0
  0
LINE
  8
0
 62
7
 10
4.290000000000004
 20
8.399999999999997
 30
0
 11
7.425000000000004
 21
8.399999999999997
 31
0
  0
LINE
  8
0
 62
7
  6
DASHDOT
 10
7.750000000000004
 20
8.449999999999998
 30
0
 11
7.750000000000004
 21
8.399999999999997
 31
0
  0
LINE
  8
0
 62
7
 10
7.600000000000005
 20
10.85
 30
0
 11
7.600000000000005
 21
8.399999999999997
 31
0
  0
LINE
  8
0
 62
7
 10
7.600000000000005
 20
8.399999999999997
 30
0
 11
7.750000000000004
 21
8.399999999999997
 31
0
  0
LINE
  8
0
 62
7
  6
DASHDOT
 10
4.290000000000004
 20
7.949999999999998
 30
0
 11
4.340000000000003
 21
7.949999999999998
 31
0
  0
LINE
  8
0
 62
7
  6
DASHDOT
 10
4.290000000000004
 20
11.2
 30
0
 11
4.340000000000003
 21
11.2
 31
0
  0
LINE
  8
0
 62
7
  6
DASHDOT
 10
7.600000000000005
 20
7.949999999999998
 30
0
 11
7.650000000000005
 21
7.949999999999998
 31
0
  0
LINE
  8
0
 62
7
  6
DASHDOT
 10
7.600000000000005
 20
11.2
 30
0
 11
7.650000000000005
 21
11.2
 31
0
  0
LINE
  8
0
 62
7
  6
DASHDOT
 10
3.965000000000004
 20
10.85
 30
0
 11
3.965000000000004
 21
10.8
 31
0
  0
LINE
  8
0
 62
7
  6
DASHDOT
 10
3.965000000000004
 20
8.1
 30
0
 11
3.965000000000004
 21
8.049999999999999
 31
0
  0
LINE
  8
0
 62
7
  6
DASHDOT
 10
7.750000000000004
 20
10.85
 30
0
 11
7.750000000000004
 21
10.8
 31
0
  0
LINE
  8
0
 62
7
  6
DASHDOT
 10
7.750000000000004
 20
8.1
 30
0
 11
7.750000000000004
 21
8.049999999999999
 31
0
  0
LINE
  8
0
 62
7
 10
3.965000000000004
 20
11.05
 30
0
 11
4.115000000000004
 21
11.05
 31
0
  0
LINE
  8
0
 62
7
 10
4.115000000000004
 20
11.15
 30
0
 11
4.115000000000004
 21
11.05
 31
0
  0
LINE
  8
0
 62
7
 10
3.965000000000004
 20
10.85
 30
0
 11
4.115000000000004
 21
10.85
 31
0
  0
LINE
  8
0
 62
7
 10
3.965000000000004
 20
8.299999999999997
 30
0
 11
4.115000000000004
 21
8.299999999999997
 31
0
  0
LINE
  8
0
 62
7
 10
4.115000000000004
 20
8.399999999999997
 30
0
 11
4.115000000000004
 21
8.299999999999997
 31
0
  0
LINE
  8
0
 62
7
 10
3.965000000000004
 20
8.1
 30
0
 11
4.115000000000004
 21
8.1
 31
0
  0
LINE
  8
0
 62
7
 10
4.115000000000004
 20
8.1
 30
0
 11
4.115000000000004
 21
7.949999999999998
 31
0
  0
LINE
  8
0
 62
7
 10
4.115000000000004
 20
11.05
 30
0
 11
4.290000000000004
 21
11.05
 31
0
  0
LINE
  8
0
 62
7
 10
4.290000000000004
 20
11.15
 30
0
 11
4.290000000000004
 21
11.05
 31
0
  0
LINE
  8
0
 62
7
 10
4.115000000000004
 20
10.85
 30
0
 11
4.290000000000004
 21
10.85
 31
0
  0
LINE
  8
0
 62
7
 10
4.115000000000004
 20
8.299999999999997
 30
0
 11
4.290000000000004
 21
8.299999999999997
 31
0
  0
LINE
  8
0
 62
7
 10
4.290000000000004
 20
8.399999999999997
 30
0
 11
4.290000000000004
 21
8.299999999999997
 31
0
  0
LINE
  8
0
 62
7
 10
4.115000000000004
 20
8.1
 30
0
 11
4.290000000000004
 21
8.1
 31
0
  0
LINE
  8
0
 62
7
 10
4.290000000000004
 20
8.1
 30
0
 11
4.290000000000004
 21
7.949999999999998
 31
0
  0
LINE
  8
0
 62
7
 10
4.290000000000004
 20
11.05
 30
0
 11
7.425000000000004
 21
11.05
 31
0
  0
LINE
  8
0
 62
7
 10
7.425000000000004
 20
11.15
 30
0
 11
7.425000000000004
 21
11.05
 31
0
  0
LINE
  8
0
 62
7
 10
4.290000000000004
 20
10.85
 30
0
 11
7.425000000000004
 21
10.85
 31
0
  0
LINE
  8
0
 62
7
 10
4.290000000000004
 20
8.299999999999997
 30
0
 11
7.425000000000004
 21
8.299999999999997
 31
0
  0
LINE
  8
0
 62
7
 10
7.425000000000004
 20
8.399999999999997
 30
0
 11
7.425000000000004
 21
8.299999999999997
 31
0
  0
LINE
  8
0
 62
7
 10
4.290000000000004
 20
8.1
 30
0
 11
7.425000000000004
 21
8.1
 31
0
  0
LINE
  8
0
 62
7
 10
7.425000000000004
 20
8.1
 30
0
 11
7.425000000000004
 21
7.949999999999998
 31
0
  0
LINE
  8
0
 62
7
 10
7.425000000000004
 20
11.05
 30
0
 11
7.600000000000005
 21
11.05
 31
0
  0
LINE
  8
0
 62
7
 10
7.600000000000005
 20
11.15
 30
0
 11
7.600000000000005
 21
11.05
 31
0
  0
LINE
  8
0
 62
7
 10
7.425000000000004
 20
10.85
 30
0
 11
7.600000000000005
 21
10.85
 31
0
  0
LINE
  8
0
 62
7
 10
7.425000000000004
 20
8.299999999999997
 30
0
 11
7.600000000000005
 21
8.299999999999997
 31
0
  0
LINE
  8
0
 62
7
 10
7.600000000000005
 20
8.399999999999997
 30
0
 11
7.600000000000005
 21
8.299999999999997
 31
0
  0
LINE
  8
0
 62
7
 10
7.425000000000004
 20
8.1
 30
0
 11
7.600000000000005
 21
8.1
 31
0
  0
LINE
  8
0
 62
7
 10
7.600000000000005
 20
8.1
 30
0
 11
7.600000000000005
 21
7.949999999999998
 31
0
  0
LINE
  8
0
 62
7
 10
7.600000000000005
 20
11.05
 30
0
 11
7.750000000000004
 21
11.05
 31
0
  0
LINE
  8
0
 62
7
 10
7.600000000000005
 20
10.85
 30
0
 11
7.750000000000004
 21
10.85
 31
0
  0
LINE
  8
0
 62
7
 10
7.600000000000005
 20
8.299999999999997
 30
0
 11
7.750000000000004
 21
8.299999999999997
 31
0
  0
LINE
  8
0
 62
7
 10
7.600000000000005
 20
8.1
 30
0
 11
7.750000000000004
 21
8.1
 31
0
  0
LINE
  8
0
 62
7
 10
1.764284970000019
 20
10.90166677333333
 30
0
 11
1.764284970000019
 21
10.96666677333333
 31
0
  0
LINE
  8
0
 62
7
 10
2.085001280000012
 20
10.96666677333333
 30
0
 11
2.085001280000012
 21
10.90166677333333
 31
0
  0
LINE
  8
0
 62
7
 10
2.085001280000012
 20
10.90166677333333
 30
0
 11
1.764284970000019
 21
10.90166677333333
 31
0
  0
LINE
  8
0
 62
7
 10
1.764284970000019
 20
10.96666677333333
 30
0
 11
2.085001280000012
 21
10.96666677333333
 31
0
  0
LINE
  8
0
 62
7
 10
1.37837723000002
 20
10.71833333333333
 30
0
 11
1.37837723000002
 21
10.78333333333333
 31
0
  0
LINE
  8
0
 62
7
 10
1.973454720000013
 20
10.78333333333333
 30
0
 11
1.973454720000013
 21
10.71833333333333
 31
0
  0
LINE
  8
0
 62
7
 10
1.37837723000002
 20
10.78333333333333
 30
0
 11
1.973454720000013
 21
10.78333333333333
 31
0
  0
LINE
  8
0
 62
7
 10
1.973454720000013
 20
10.71833333333333
 30
0
 11
1.37837723000002
 21
10.71833333333333
 31
0
  0
LINE
  8
0
 62
7
 10
0.9047676100000137
 20
10.53500005333333
 30
0
 11
0.9047676100000137
 21
10.60000005333333
 31
0
  0
LINE
  8
0
 62
7
 10
1.852807880000022
 20
10.60000005333333
 30
0
 11
1.852807880000022
 21
10.53500005333333
 31
0
  0
LINE
  8
0
 62
7
 10
0.9047676100000137
 20
10.60000005333333
 30
0
 11
1.852807880000022
 21
10.60000005333333
 31
0
  0
LINE
  8
0
 62
7
 10
1.852807880000022
 20
10.53500005333333
 30
0
 11
0.9047676100000137
 21
10.53500005333333
 31
0
  0
LINE
  8
0
 62
7
 10
0.78
 20
10.35166677333333
 30
0
 11
0.78
 21
10.41666677333333
 31
0
  0
LINE
  8
0
 62
7
 10
1.750000380000012
 20
10.41666677333333
 30
0
 11
1.750000380000012
 21
10.35166677333333
 31
0
  0
LINE
  8
0
 62
7
 10
1.750000380000012
 20
10.35166677333333
 30
0
 11
0.78
 21
10.35166677333333
 31
0
  0
LINE
  8
0
 62
7
 10
0.78
 20
10.41666677333333
 30
0
 11
1.750000380000012
 21
10.41666677333333
 31
0
  0
LINE
  8
0
 62
7
 10
1.750000570000011
 20
10.16833333333333
 30
0
 11
0.7799996900000224
 21
10.16833333333333
 31
0
  0
LINE
  8
0
 62
7
 10
0.7799996900000224
 20
10.16833333333333
 30
0
 11
0.7799996900000224
 21
10.23333333333333
 31
0
  0
LINE
  8
0
 62
7
 10
1.750000570000011
 20
10.23333333333333
 30
0
 11
1.750000570000011
 21
10.16833333333333
 31
0
  0
LINE
  8
0
 62
7
 10
0.7799996900000224
 20
10.23333333333333
 30
0
 11
1.750000570000011
 21
10.23333333333333
 31
0
  0
LINE
  8
0
 62
7
 10
1.75000046000001
 20
9.985000053333327
 30
0
 11
0.7800001500000109
 21
9.985000053333327
 31
0
  0
LINE
  8
0
 62
7
 10
0.7800001500000109
 20
9.985000053333327
 30
0
 11
0.7800001500000109
 21
10.05000005333333
 31
0
  0
LINE
  8
0
 62
7
 10
1.75000046000001
 20
10.05000005333333
 30
0
 11
1.75000046000001
 21
9.985000053333327
 31
0
  0
LINE
  8
0
 62
7
 10
0.7800001500000109
 20
10.05000005333333
 30
0
 11
1.75000046000001
 21
10.05000005333333
 31
0
  0
LINE
  8
0
 62
7
 10
1.750000110000019
 20
9.801666773333329
 30
0
 11
0.78
 21
9.801666773333329
 31
0
  0
LINE
  8
0
 62
7
 10
0.78
 20
9.801666773333329
 30
0
 11
0.78
 21
9.866666773333328
 31
0
  0
LINE
  8
0
 62
7
 10
1.750000110000019
 20
9.866666773333328
 30
0
 11
1.750000110000019
 21
9.801666773333329
 31
0
  0
LINE
  8
0
 62
7
 10
0.78
 20
9.866666773333328
 30
0
 11
1.750000110000019
 21
9.866666773333328
 31
0
  0
LINE
  8
0
 62
7
 10
1.750000310000011
 20
9.618333333333325
 30
0
 11
0.779999850000022
 21
9.618333333333325
 31
0
  0
LINE
  8
0
 62
7
 10
0.779999850000022
 20
9.618333333333325
 30
0
 11
0.779999850000022
 21
9.683333333333326
 31
0
  0
LINE
  8
0
 62
7
 10
1.750000310000011
 20
9.683333333333326
 30
0
 11
1.750000310000011
 21
9.618333333333325
 31
0
  0
LINE
  8
0
 62
7
 10
0.779999850000022
 20
9.683333333333326
 30
0
 11
1.750000310000011
 21
9.683333333333326
 31
0
  0
LINE
  8
0
 62
7
 10
1.750000340000021
 20
9.435000053333326
 30
0
 11
0.78
 21
9.435000053333326
 31
0
  0
LINE
  8
0
 62
7
 10
0.78
 20
9.435000053333326
 30
0
 11
0.78
 21
9.500000053333327
 31
0
  0
LINE
  8
0
 62
7
 10
1.750000340000021
 20
9.500000053333327
 30
0
 11
1.750000340000021
 21
9.435000053333326
 31
0
  0
LINE
  8
0
 62
7
 10
0.78
 20
9.500000053333327
 30
0
 11
1.750000340000021
 21
9.500000053333327
 31
0
  0
LINE
  8
0
 62
7
 10
1.749999960000023
 20
9.251666693333325
 30
0
 11
0.78
 21
9.251666693333325
 31
0
  0
LINE
  8
0
 62
7
 10
0.78
 20
9.251666693333325
 30
0
 11
0.78
 21
9.316666693333326
 31
0
  0
LINE
  8
0
 62
7
 10
1.749999960000023
 20
9.316666693333326
 30
0
 11
1.749999960000023
 21
9.251666693333325
 31
0
  0
LINE
  8
0
 62
7
 10
0.78
 20
9.316666693333326
 30
0
 11
1.749999960000023
 21
9.316666693333326
 31
0
  0
LINE
  8
0
 62
7
 10
0.78
 20
9.068333333333326
 30
0
 11
0.78
 21
9.133333333333324
 31
0
  0
LINE
  8
0
 62
7
 10
1.750000310000011
 20
9.133333333333324
 30
0
 11
1.750000310000011
 21
9.068333333333326
 31
0
  0
LINE
  8
0
 62
7
 10
1.750000310000011
 20
9.068333333333326
 30
0
 11
0.78
 21
9.068333333333326
 31
0
  0
LINE
  8
0
 62
7
 10
0.78
 20
9.133333333333324
 30
0
 11
1.750000310000011
 21
9.133333333333324
 31
0
  0
LINE
  8
0
 62
7
 10
1.085513000000021
 20
8.885000013333334
 30
0
 11
1.085513000000021
 21
8.950000013333336
 31
0
  0
LINE
  8
0
 62
7
 10
1.838805890000021
 20
8.950000013333336
 30
0
 11
1.838805890000021
 21
8.885000013333334
 31
0
  0
LINE
  8
0
 62
7
 10
1.085513000000021
 20
8.950000013333336
 30
0
 11
1.838805890000021
 21
8.950000013333336
 31
0
  0
LINE
  8
0
 62
7
 10
1.838805890000021
 20
8.885000013333334
 30
0
 11
1.085513000000021
 21
8.885000013333334
 31
0
  0
LINE
  8
0
 62
7
 10
1.50893829000002
 20
8.701666673333326
 30
0
 11
1.50893829000002
 21
8.766666673333326
 31
0
  0
LINE
  8
0
 62
7
 10
1.965000130000019
 20
8.766666673333326
 30
0
 11
1.965000130000019
 21
8.701666673333326
 31
0
  0
LINE
  8
0
 62
7
 10
1.965000020000022
 20
8.766666673333326
 30
0
 11
1.965000130000019
 21
8.766666673333326
 31
0
  0
LINE
  8
0
 62
7
 10
1.965000130000019
 20
8.701666673333326
 30
0
 11
1.50893829000002
 21
8.701666673333326
 31
0
  0
LINE
  8
0
 62
7
 10
1.50893829000002
 20
8.766666673333326
 30
0
 11
1.965000020000022
 21
8.766666673333326
 31
0
  0
LINE
  8
0
 62
7
 10
2.225000140000011
 20
8.518333333333326
 30
0
 11
1.875
 21
8.518333333333326
 31
0
  0
LINE
  8
0
 62
7
 10
1.875
 20
8.518333333333326
 30
0
 11
1.875
 21
8.583333333333325
 31
0
  0
LINE
  8
0
 62
7
 10
2.225000140000011
 20
8.583333333333325
 30
0
 11
2.225000140000011
 21
8.518333333333326
 31
0
  0
LINE
  8
0
 62
7
 10
1.875
 20
8.583333333333325
 30
0
 11
2.225000140000011
 21
8.583333333333325
 31
0
  0
LINE
  8
0
 62
7
  6
DASHED
 10
7.385000000000005
 20
10.90166666666667
 30
0
 11
6.434999690000004
 21
10.90166666666667
 31
0
  0
LINE
  8
0
 62
7
  6
DASHED
 10
7.385000000000005
 20
10.96666666666667
 30
0
 11
7.385000000000005
 21
10.90166666666667
 31
0
  0
LINE
  8
0
 62
7
  6
DASHED
 10
6.434999690000004
 20
10.90166666666667
 30
0
 11
6.434999690000004
 21
10.96666666666667
 31
0
  0
LINE
  8
0
 62
7
  6
DASHED
 10
6.434999690000004
 20
10.96666666666667
 30
0
 11
7.385000000000005
 21
10.96666666666667
 31
0
  0
LINE
  8
0
 62
7
 10
7.385000000000005
 20
10.71833322666667
 30
0
 11
6.434999540000002
 21
10.71833322666667
 31
0
  0
LINE
  8
0
 62
7
 10
7.385000000000005
 20
10.78333322666667
 30
0
 11
7.385000000000005
 21
10.71833322666667
 31
0
  0
LINE
  8
0
 62
7
 10
6.434999540000002
 20
10.71833322666667
 30
0
 11
6.434999540000002
 21
10.78333322666667
 31
0
  0
LINE
  8
0
 62
7
 10
6.434999540000002
 20
10.78333322666667
 30
0
 11
7.385000000000005
 21
10.78333322666667
 31
0
  0
LINE
  8
0
 62
7
 10
7.384999690000005
 20
10.59999994666667
 30
0
 11
7.384999690000005
 21
10.53499994666667
 31
0
  0
LINE
  8
0
 62
7
 10
6.344445029999999
 20
10.53499994666667
 30
0
 11
6.344445029999999
 21
10.59999994666667
 31
0
  0
LINE
  8
0
 62
7
 10
7.384999690000005
 20
10.53499994666667
 30
0
 11
6.344445029999999
 21
10.53499994666667
 31
0
  0
LINE
  8
0
 62
7
 10
6.344445029999999
 20
10.59999994666667
 30
0
 11
7.384999690000005
 21
10.59999994666667
 31
0
  0
LINE
  8
0
 62
7
 10
7.385000000000005
 20
10.41666666666667
 30
0
 11
7.385000000000005
 21
10.35166666666667
 31
0
  0
LINE
  8
0
 62
7
 10
6.184439540000003
 20
10.35166666666667
 30
0
 11
6.184439540000003
 21
10.41666666666667
 31
0
  0
LINE
  8
0
 62
7
 10
6.184439540000003
 20
10.41666666666667
 30
0
 11
7.385000000000005
 21
10.41666666666667
 31
0
  0
LINE
  8
0
 62
7
 10
7.385000000000005
 20
10.35166666666667
 30
0
 11
6.184439540000003
 21
10.35166666666667
 31
0
  0
LINE
  8
0
 62
7
 10
7.009839780000004
 20
10.23333322666667
 30
0
 11
7.009839780000004
 21
10.16833322666667
 31
0
  0
LINE
  8
0
 62
7
 10
6.075150900000011
 20
10.16833322666667
 30
0
 11
6.075150900000011
 21
10.23333322666667
 31
0
  0
LINE
  8
0
 62
7
 10
6.075150900000011
 20
10.23333322666667
 30
0
 11
7.009839780000004
 21
10.23333322666667
 31
0
  0
LINE
  8
0
 62
7
 10
7.009839780000004
 20
10.16833322666667
 30
0
 11
6.075150900000011
 21
10.16833322666667
 31
0
  0
LINE
  8
0
 62
7
 10
6.599198300000001
 20
10.04999994666667
 30
0
 11
6.599198300000001
 21
9.984999946666669
 31
0
  0
LINE
  8
0
 62
7
 10
5.960451350000003
 20
9.984999946666669
 30
0
 11
5.960451350000003
 21
10.04999994666667
 31
0
  0
LINE
  8
0
 62
7
 10
5.960451350000003
 20
10.04999994666667
 30
0
 11
6.130340880000004
 21
10.04999994666667
 31
0
  0
LINE
  8
0
 62
7
 10
6.130340880000004
 20
10.04999994666667
 30
0
 11
6.599198300000001
 21
10.04999994666667
 31
0
  0
LINE
  8
0
 62
7
 10
6.599198300000001
 20
9.984999946666669
 30
0
 11
5.960451350000003
 21
9.984999946666669
 31
0
  0
LINE
  8
0
 62
7
 10
6.221711120000005
 20
9.866666666666665
 30
0
 11
6.221711120000005
 21
9.801666666666666
 31
0
  0
LINE
  8
0
 62
7
 10
5.762297660000004
 20
9.801666666666666
 30
0
 11
5.762297660000004
 21
9.866666666666665
 31
0
  0
LINE
  8
0
 62
7
 10
5.762297660000004
 20
9.866666666666665
 30
0
 11
6.221711120000005
 21
9.866666666666665
 31
0
  0
LINE
  8
0
 62
7
 10
6.221711120000005
 20
9.801666666666666
 30
0
 11
5.762297660000004
 21
9.801666666666666
 31
0
  0
LINE
  8
0
 62
7
 10
5.932740320000012
 20
9.683333226666667
 30
0
 11
5.932740320000012
 21
9.618333226666666
 31
0
  0
LINE
  8
0
 62
7
 10
5.396695170000004
 20
9.618333226666666
 30
0
 11
5.396695170000004
 21
9.683333226666667
 31
0
  0
LINE
  8
0
 62
7
 10
5.396695170000004
 20
9.683333226666667
 30
0
 11
5.932740320000012
 21
9.683333226666667
 31
0
  0
LINE
  8
0
 62
7
 10
5.932740320000012
 20
9.618333226666666
 30
0
 11
5.396695170000004
 21
9.618333226666666
 31
0
  0
LINE
  8
0
 62
7
 10
5.816109770000003
 20
9.499999946666668
 30
0
 11
5.816109770000003
 21
9.434999946666668
 31
0
  0
LINE
  8
0
 62
7
 10
5.032083510000001
 20
9.434999946666668
 30
0
 11
5.032083510000001
 21
9.499999946666668
 31
0
  0
LINE
  8
0
 62
7
 10
5.032083510000001
 20
9.499999946666668
 30
0
 11
5.816109770000003
 21
9.499999946666668
 31
0
  0
LINE
  8
0
 62
7
 10
5.816109770000003
 20
9.434999946666668
 30
0
 11
5.032083510000001
 21
9.434999946666668
 31
0
  0
LINE
  8
0
 62
7
 10
5.701575620000003
 20
9.316666586666654
 30
0
 11
5.701575620000003
 21
9.251666586666657
 31
0
  0
LINE
  8
0
 62
7
 10
4.559580400000004
 20
9.251666586666657
 30
0
 11
4.559580400000004
 21
9.316666586666654
 31
0
  0
LINE
  8
0
 62
7
 10
4.559580400000004
 20
9.316666586666654
 30
0
 11
5.701575620000003
 21
9.316666586666654
 31
0
  0
LINE
  8
0
 62
7
 10
5.701575620000003
 20
9.251666586666657
 30
0
 11
4.559580400000004
 21
9.251666586666657
 31
0
  0
LINE
  8
0
 62
7
 10
5.599600520000004
 20
9.133333226666666
 30
0
 11
5.599600520000004
 21
9.068333226666665
 31
0
  0
LINE
  8
0
 62
7
 10
4.359999620000004
 20
9.068333226666665
 30
0
 11
4.359999620000004
 21
9.133333226666666
 31
0
  0
LINE
  8
0
 62
7
 10
4.359999620000004
 20
9.133333226666666
 30
0
 11
5.599600520000004
 21
9.133333226666666
 31
0
  0
LINE
  8
0
 62
7
 10
5.599600520000004
 20
9.068333226666665
 30
0
 11
4.359999620000004
 21
9.068333226666665
 31
0
  0
LINE
  8
0
 62
7
 10
5.432446670000002
 20
8.949999906666667
 30
0
 11
5.432446670000002
 21
8.884999906666669
 31
0
  0
LINE
  8
0
 62
7
 10
4.359999630000003
 20
8.884999906666669
 30
0
 11
4.359999630000003
 21
8.949999906666667
 31
0
  0
LINE
  8
0
 62
7
 10
5.432446670000002
 20
8.884999906666669
 30
0
 11
4.359999630000003
 21
8.884999906666669
 31
0
  0
LINE
  8
0
 62
7
 10
4.359999630000003
 20
8.949999906666667
 30
0
 11
5.432446670000002
 21
8.949999906666667
 31
0
  0
LINE
  8
0
 62
7
 10
5.309999690000005
 20
8.701666566666665
 30
0
 11
4.359999570000004
 21
8.701666566666665
 31
0
  0
LINE
  8
0
 62
7
 10
5.309999690000005
 20
8.766666566666663
 30
0
 11
5.309999690000005
 21
8.701666566666665
 31
0
  0
LINE
  8
0
 62
7
 10
4.359999570000004
 20
8.701666566666665
 30
0
 11
4.359999570000004
 21
8.766666566666663
 31
0
  0
LINE
  8
0
 62
7
 10
4.359999570000004
 20
8.766666566666663
 30
0
 11
5.309999690000005
 21
8.766666566666663
 31
0
  0
LINE
  8
0
 62
7
 10
5.309999840000023
 20
8.518333226666666
 30
0
 11
4.35999954
 21
8.518333226666666
 31
0
  0
LINE
  8
0
 62
7
 10
5.309999840000023
 20
8.583333226666666
 30
0
 11
5.309999840000023
 21
8.518333226666666
 31
0
  0
LINE
  8
0
 62
7
 10
4.35999954
 20
8.518333226666666
 30
0
 11
4.35999954
 21
8.583333226666666
 31
0
  0
LINE
  8
0
 62
7
 10
4.35999954
 20
8.583333226666666
 30
0
 11
5.309999840000023
 21
8.583333226666666
 31
0
  0
LINE
  8
0
 62
7
 10
4.744166705206069
 20
3.250000000000002
 30
0
 11
4.744166705206069
 21
3.724999999967213
 31
0
  0
LINE
  8
0
 62
7
 10
5.295000000010481
 20
4.275833294793935
 30
0
 11
6.420000000058313
 21
4.275833294793935
 31
0
  0
LINE
  8
0
 62
7
 10
6.970833294793931
 20
3.400000000000002
 30
0
 11
6.865178195532231
 21
3.461000000000004
 31
0
  0
LINE
  8
0
 62
7
 10
6.865178195532231
 20
3.461000000000004
 30
0
 11
7.076488394055632
 21
3.461000000000004
 31
0
  0
LINE
  8
0
 62
7
 10
7.076488394055632
 20
3.461000000000004
 30
0
 11
6.970833294793931
 21
3.400000000000002
 31
0
  0
LINE
  8
0
 62
7
 10
6.970833294793931
 20
3.724999999989523
 30
0
 11
6.970833294793931
 21
3.400000000000002
 31
0
  0
LINE
  8
0
 62
7
 10
7.370000000000005
 20
3.710715605042394
 30
0
 11
6.420000000000005
 21
3.592242520945023
 31
0
  0
LINE
  8
0
 62
7
 10
6.420000000000005
 20
3.592242520945023
 30
0
 11
6.420000000000005
 21
3.390000000000002
 31
0
  0
LINE
  8
0
 62
7
 10
7.370000000000005
 20
3.390000000000002
 30
0
 11
7.370000000000005
 21
3.710715605042394
 31
0
  0
LINE
  8
0
 62
7
 10
7.370000000000005
 20
4.096623256580954
 30
0
 11
6.420000000000005
 21
3.706978105075594
 31
0
  0
LINE
  8
0
 62
7
 10
6.420000000000005
 20
3.706978105075594
 30
0
 11
6.420000000000005
 21
3.663720919049731
 31
0
  0
LINE
  8
0
 62
7
 10
7.370000000000005
 20
3.620018455582653
 30
0
 11
7.370000000000005
 21
4.096623256580954
 31
0
  0
LINE
  8
0
 62
7
 10
7.370000000000005
 20
4.570232256654905
 30
0
 11
6.329445257838703
 21
3.787204658360595
 31
0
  0
LINE
  8
0
 62
7
 10
6.329445257838703
 20
3.787204658360595
 30
0
 11
6.375062007303132
 21
3.725000000000005
 31
0
  0
LINE
  8
0
 62
7
 10
7.370000000000005
 20
3.999347231645185
 30
0
 11
7.370000000000005
 21
4.570232256654905
 31
0
  0
LINE
  8
0
 62
7
 10
6.883105303012923
 20
4.695000000000002
 30
0
 11
6.169439210529472
 21
3.725000000000005
 31
0
  0
LINE
  8
0
 62
7
 10
7.370000000000005
 20
4.457596584714893
 30
0
 11
7.370000000000005
 21
4.695000000000002
 31
0
  0
LINE
  8
0
 62
7
 10
7.370000000000005
 20
4.695000000000002
 30
0
 11
6.883105303012923
 21
4.695000000000002
 31
0
  0
LINE
  8
0
 62
7
 10
6.485910502322263
 20
4.695000000000002
 30
0
 11
6.06015101482641
 21
3.725000000000002
 31
0
  0
LINE
  8
0
 62
7
 10
6.06015101482641
 20
3.725000000000002
 30
0
 11
6.169439210529472
 21
3.725000000000005
 31
0
  0
LINE
  8
0
 62
7
 10
6.994839886442922
 20
4.695000000000002
 30
0
 11
6.485910502322263
 21
4.695000000000002
 31
0
  0
LINE
  8
0
 62
7
 10
6.11534129256634
 20
4.695000000000002
 30
0
 11
5.945451682451412
 21
3.725000000000002
 31
0
  0
LINE
  8
0
 62
7
 10
5.945451682451412
 20
3.725000000000002
 30
0
 11
6.158438975241561
 21
3.725000000000002
 31
0
  0
LINE
  8
0
 62
7
 10
6.584198462737405
 20
4.695000000000002
 30
0
 11
6.11534129256634
 21
4.695000000000002
 31
0
  0
LINE
  8
0
 62
7
 10
5.74729763582804
 20
4.695000000000002
 30
0
 11
5.827433482731762
 21
3.725000000000002
 31
0
  0
LINE
  8
0
 62
7
 10
5.827433482731762
 20
3.725000000000002
 30
0
 11
6.0368216485428
 21
3.725000000000002
 31
0
  0
LINE
  8
0
 62
7
 10
6.206711258657743
 20
4.695000000000002
 30
0
 11
5.74729763582804
 21
4.695000000000002
 31
0
  0
LINE
  8
0
 62
7
 10
5.381695542021913
 20
4.695000000000002
 30
0
 11
5.706206788306631
 21
3.725000000000002
 31
0
  0
LINE
  8
0
 62
7
 10
5.706206788306631
 20
3.725000000000002
 30
0
 11
5.917740090793014
 21
3.725000000000002
 31
0
  0
LINE
  8
0
 62
7
 10
5.837604243889281
 20
4.695000000000002
 30
0
 11
5.381695542021913
 21
4.695000000000002
 31
0
  0
LINE
  8
0
 62
7
 10
5.017083823671493
 20
4.695000000000002
 30
0
 11
5.58240609175757
 21
3.725000000000002
 31
0
  0
LINE
  8
0
 62
7
 10
5.58240609175757
 20
3.725000000000002
 30
0
 11
5.801109735563522
 21
3.725000000000002
 31
0
  0
LINE
  8
0
 62
7
 10
5.476598489278789
 20
4.695000000000002
 30
0
 11
5.017083823671493
 21
4.695000000000002
 31
0
  0
LINE
  8
0
 62
7
 10
4.544580360265464
 20
4.695000000000002
 30
0
 11
5.460799754291602
 21
3.725000000000002
 31
0
  0
LINE
  8
0
 62
7
 10
5.460799754291602
 20
3.725000000000002
 30
0
 11
5.68657553696049
 21
3.725000000000002
 31
0
  0
LINE
  8
0
 62
7
 10
5.1212532688744
 20
4.695000000000002
 30
0
 11
4.544580360265464
 21
4.695000000000002
 31
0
  0
LINE
  8
0
 62
7
 10
4.345000000000004
 20
4.286399433014084
 30
0
 11
5.350090999596815
 21
3.725000000000002
 31
0
  0
LINE
  8
0
 62
7
 10
5.350090999596815
 20
3.725000000000002
 30
0
 11
5.35331724829198
 21
3.725000000000002
 31
0
  0
LINE
  8
0
 62
7
 10
4.66838144292861
 20
4.695000000000002
 30
0
 11
4.345000000000004
 21
4.695000000000002
 31
0
  0
LINE
  8
0
 62
7
 10
4.345000000000004
 20
4.695000000000002
 30
0
 11
4.345000000000004
 21
4.286399433014084
 31
0
  0
LINE
  8
0
 62
7
 10
4.345000000000004
 20
3.873133233453553
 30
0
 11
5.266323836462653
 21
3.636194225424223
 31
0
  0
LINE
  8
0
 62
7
 10
5.266323836462653
 20
3.636194225424223
 30
0
 11
5.295000000000004
 21
3.66546780903527
 31
0
  0
LINE
  8
0
 62
7
 10
4.345000000000004
 20
4.389487140054762
 30
0
 11
4.345000000000004
 21
3.873133233453553
 31
0
  0
LINE
  8
0
 62
7
 10
4.345000000000004
 20
3.510000000000002
 30
0
 11
5.295000000000004
 21
3.510000000000002
 31
0
  0
LINE
  8
0
 62
7
 10
4.345000000000004
 20
3.966061779476543
 30
0
 11
4.345000000000004
 21
3.510000000000002
 31
0
  0
LINE
  8
0
 62
7
 10
4.345000000000004
 20
3.250000000000002
 30
0
 11
5.295000000000004
 21
3.250000000000002
 31
0
  0
LINE
  8
0
 62
7
 10
5.295000000000004
 20
3.250000000000002
 30
0
 11
5.295000000000004
 21
3.510000000000002
 31
0
  0
LINE
  8
0
 62
7
 10
4.345000000000004
 20
3.600000000000002
 30
0
 11
4.345000000000004
 21
3.250000000000002
 31
0
  0
LINE
  8
0
 62
7
 10
5.295000000000004
 20
3.510000000000002
 30
0
 11
5.295000000000004
 21
3.66546780903527
 31
0
  0
LINE
  8
0
 62
7
 10
5.295000000000004
 20
3.510000000000002
 30
0
 11
5.295000000000004
 21
3.600000000000002
 31
0
  0
LINE
  8
0
 62
7
 10
5.295000000000004
 20
3.66546780903527
 30
0
 11
5.35331724829198
 21
3.725000000000002
 31
0
  0
LINE
  8
0
 62
7
 10
5.35331724829198
 20
3.725000000000002
 30
0
 11
5.58460083695475
 21
3.725000000000002
 31
0
  0
LINE
  8
0
 62
7
 10
6.169439210529472
 20
3.725000000000005
 30
0
 11
6.375062007303132
 21
3.725000000000005
 31
0
  0
LINE
  8
0
 62
7
 10
6.169439210529472
 20
3.725000000000005
 30
0
 11
6.281173793959471
 21
3.725000000000002
 31
0
  0
LINE
  8
0
 62
7
 10
6.375062007303132
 20
3.725000000000005
 30
0
 11
6.420000000000005
 21
3.663720919049731
 31
0
  0
LINE
  8
0
 62
7
 10
6.420000000000005
 20
3.663720919049731
 30
0
 11
6.420000000000005
 21
3.501545371485284
 31
0
  0
LINE
  8
0
 62
7
 10
5.032492985436891
 20
4.42910334412082
 30
0
 11
5.032492985436891
 21
4.54910334412082
 31
0
  0
LINE
  8
0
 62
7
 10
5.10809298543689
 20
4.54910334412082
 30
0
 11
5.05409298543689
 21
4.48910334412082
 31
0
  0
LINE
  8
0
 62
7
 10
5.05409298543689
 20
4.48910334412082
 30
0
 11
5.10809298543689
 21
4.42910334412082
 31
0
  0
LINE
  8
0
 62
7
 10
5.05409298543689
 20
4.48910334412082
 30
0
 11
5.032492985436891
 21
4.46510334412082
 31
0
  0
LINE
  8
0
 62
7
 10
5.21609298543689
 20
4.54910334412082
 30
0
 11
5.140492985436889
 21
4.54910334412082
 31
0
  0
LINE
  8
0
 62
7
 10
5.140492985436889
 20
4.54910334412082
 30
0
 11
5.140492985436889
 21
4.48910334412082
 31
0
  0
LINE
  8
0
 62
7
 10
5.140492985436889
 20
4.42910334412082
 30
0
 11
5.21609298543689
 21
4.42910334412082
 31
0
  0
LINE
  8
0
 62
7
 10
5.20529298543689
 20
4.48910334412082
 30
0
 11
5.140492985436889
 21
4.48910334412082
 31
0
  0
LINE
  8
0
 62
7
 10
5.140492985436889
 20
4.48910334412082
 30
0
 11
5.140492985436889
 21
4.42910334412082
 31
0
  0
LINE
  8
0
 62
7
 10
5.24849298543689
 20
4.42910334412082
 30
0
 11
5.24849298543689
 21
4.54910334412082
 31
0
  0
LINE
  8
0
 62
7
 10
5.24849298543689
 20
4.54910334412082
 30
0
 11
5.324092985436891
 21
4.42910334412082
 31
0
  0
LINE
  8
0
 62
7
 10
5.324092985436891
 20
4.42910334412082
 30
0
 11
5.324092985436891
 21
4.54910334412082
 31
0
  0
LINE
  8
0
 62
7
 10
5.35649298543689
 20
4.42910334412082
 30
0
 11
5.35649298543689
 21
4.54910334412082
 31
0
  0
LINE
  8
0
 62
7
 10
5.35649298543689
 20
4.54910334412082
 30
0
 11
5.43209298543689
 21
4.42910334412082
 31
0
  0
LINE
  8
0
 62
7
 10
5.43209298543689
 20
4.42910334412082
 30
0
 11
5.43209298543689
 21
4.54910334412082
 31
0
  0
LINE
  8
0
 62
7
 10
5.54009298543689
 20
4.513103344120821
 30
0
 11
5.53739298543689
 21
4.52510334412082
 31
0
  0
LINE
  8
0
 62
7
 10
5.53739298543689
 20
4.52510334412082
 30
0
 11
5.53199298543689
 21
4.534103344120821
 31
0
  0
LINE
  8
0
 62
7
 10
5.53199298543689
 20
4.534103344120821
 30
0
 11
5.526592985436891
 21
4.54010334412082
 31
0
  0
LINE
  8
0
 62
7
 10
5.526592985436891
 20
4.54010334412082
 30
0
 11
5.51849298543689
 21
4.54610334412082
 31
0
  0
LINE
  8
0
 62
7
 10
5.51849298543689
 20
4.54610334412082
 30
0
 11
5.51039298543689
 21
4.54910334412082
 31
0
  0
LINE
  8
0
 62
7
 10
5.51039298543689
 20
4.54910334412082
 30
0
 11
5.494192985436889
 21
4.54910334412082
 31
0
  0
LINE
  8
0
 62
7
 10
5.494192985436889
 20
4.54910334412082
 30
0
 11
5.486092985436891
 21
4.54610334412082
 31
0
  0
LINE
  8
0
 62
7
 10
5.486092985436891
 20
4.54610334412082
 30
0
 11
5.47799298543689
 21
4.54010334412082
 31
0
  0
LINE
  8
0
 62
7
 10
5.47799298543689
 20
4.54010334412082
 30
0
 11
5.47259298543689
 21
4.534103344120821
 31
0
  0
LINE
  8
0
 62
7
 10
5.47259298543689
 20
4.534103344120821
 30
0
 11
5.46719298543689
 21
4.52510334412082
 31
0
  0
LINE
  8
0
 62
7
 10
5.46719298543689
 20
4.52510334412082
 30
0
 11
5.464492985436891
 21
4.513103344120821
 31
0
  0
LINE
  8
0
 62
7
 10
5.464492985436891
 20
4.513103344120821
 30
0
 11
5.464492985436891
 21
4.46510334412082
 31
0
  0
LINE
  8
0
 62
7
 10
5.464492985436891
 20
4.46510334412082
 30
0
 11
5.46719298543689
 21
4.453103344120821
 31
0
  0
LINE
  8
0
 62
7
 10
5.46719298543689
 20
4.453103344120821
 30
0
 11
5.47259298543689
 21
4.444103344120821
 31
0
  0
LINE
  8
0
 62
7
 10
5.47259298543689
 20
4.444103344120821
 30
0
 11
5.47799298543689
 21
4.438103344120822
 31
0
  0
LINE
  8
0
 62
7
 10
5.47799298543689
 20
4.438103344120822
 30
0
 11
5.486092985436891
 21
4.43210334412082
 31
0
  0
LINE
  8
0
 62
7
 10
5.486092985436891
 20
4.43210334412082
 30
0
 11
5.494192985436889
 21
4.42910334412082
 31
0
  0
LINE
  8
0
 62
7
 10
5.494192985436889
 20
4.42910334412082
 30
0
 11
5.51039298543689
 21
4.42910334412082
 31
0
  0
LINE
  8
0
 62
7
 10
5.51039298543689
 20
4.42910334412082
 30
0
 11
5.51849298543689
 21
4.43210334412082
 31
0
  0
LINE
  8
0
 62
7
 10
5.51849298543689
 20
4.43210334412082
 30
0
 11
5.526592985436891
 21
4.438103344120822
 31
0
  0
LINE
  8
0
 62
7
 10
5.526592985436891
 20
4.438103344120822
 30
0
 11
5.53199298543689
 21
4.444103344120821
 31
0
  0
LINE
  8
0
 62
7
 10
5.53199298543689
 20
4.444103344120821
 30
0
 11
5.53739298543689
 21
4.453103344120821
 31
0
  0
LINE
  8
0
 62
7
 10
5.53739298543689
 20
4.453103344120821
 30
0
 11
5.54009298543689
 21
4.46510334412082
 31
0
  0
LINE
  8
0
 62
7
 10
5.54009298543689
 20
4.46510334412082
 30
0
 11
5.54009298543689
 21
4.48910334412082
 31
0
  0
LINE
  8
0
 62
7
 10
5.54009298543689
 20
4.48910334412082
 30
0
 11
5.50769298543689
 21
4.48910334412082
 31
0
  0
LINE
  8
0
 62
7
 10
5.618392985436889
 20
4.54910334412082
 30
0
 11
5.60219298543689
 21
4.54910334412082
 31
0
  0
LINE
  8
0
 62
7
 10
5.60219298543689
 20
4.54910334412082
 30
0
 11
5.594092985436891
 21
4.54610334412082
 31
0
  0
LINE
  8
0
 62
7
 10
5.594092985436891
 20
4.54610334412082
 30
0
 11
5.585992985436889
 21
4.54010334412082
 31
0
  0
LINE
  8
0
 62
7
 10
5.585992985436889
 20
4.54010334412082
 30
0
 11
5.580592985436891
 21
4.534103344120821
 31
0
  0
LINE
  8
0
 62
7
 10
5.580592985436891
 20
4.534103344120821
 30
0
 11
5.575192985436889
 21
4.52510334412082
 31
0
  0
LINE
  8
0
 62
7
 10
5.575192985436889
 20
4.52510334412082
 30
0
 11
5.57249298543689
 21
4.513103344120821
 31
0
  0
LINE
  8
0
 62
7
 10
5.57249298543689
 20
4.513103344120821
 30
0
 11
5.57249298543689
 21
4.46510334412082
 31
0
  0
LINE
  8
0
 62
7
 10
5.57249298543689
 20
4.46510334412082
 30
0
 11
5.575192985436889
 21
4.453103344120821
 31
0
  0
LINE
  8
0
 62
7
 10
5.575192985436889
 20
4.453103344120821
 30
0
 11
5.580592985436891
 21
4.444103344120821
 31
0
  0
LINE
  8
0
 62
7
 10
5.580592985436891
 20
4.444103344120821
 30
0
 11
5.585992985436889
 21
4.438103344120822
 31
0
  0
LINE
  8
0
 62
7
 10
5.585992985436889
 20
4.438103344120822
 30
0
 11
5.594092985436891
 21
4.43210334412082
 31
0
  0
LINE
  8
0
 62
7
 10
5.594092985436891
 20
4.43210334412082
 30
0
 11
5.60219298543689
 21
4.42910334412082
 31
0
  0
LINE
  8
0
 62
7
 10
5.60219298543689
 20
4.42910334412082
 30
0
 11
5.618392985436889
 21
4.42910334412082
 31
0
  0
LINE
  8
0
 62
7
 10
5.618392985436889
 20
4.42910334412082
 30
0
 11
5.62649298543689
 21
4.43210334412082
 31
0
  0
LINE
  8
0
 62
7
 10
5.62649298543689
 20
4.43210334412082
 30
0
 11
5.63459298543689
 21
4.438103344120822
 31
0
  0
LINE
  8
0
 62
7
 10
5.63459298543689
 20
4.438103344120822
 30
0
 11
5.63999298543689
 21
4.444103344120821
 31
0
  0
LINE
  8
0
 62
7
 10
5.63999298543689
 20
4.444103344120821
 30
0
 11
5.645392985436889
 21
4.453103344120821
 31
0
  0
LINE
  8
0
 62
7
 10
5.645392985436889
 20
4.453103344120821
 30
0
 11
5.64809298543689
 21
4.46510334412082
 31
0
  0
LINE
  8
0
 62
7
 10
5.64809298543689
 20
4.46510334412082
 30
0
 11
5.64809298543689
 21
4.513103344120821
 31
0
  0
LINE
  8
0
 62
7
 10
5.64809298543689
 20
4.513103344120821
 30
0
 11
5.645392985436889
 21
4.52510334412082
 31
0
  0
LINE
  8
0
 62
7
 10
5.645392985436889
 20
4.52510334412082
 30
0
 11
5.63999298543689
 21
4.534103344120821
 31
0
  0
LINE
  8
0
 62
7
 10
5.63999298543689
 20
4.534103344120821
 30
0
 11
5.63459298543689
 21
4.54010334412082
 31
0
  0
LINE
  8
0
 62
7
 10
5.63459298543689
 20
4.54010334412082
 30
0
 11
5.62649298543689
 21
4.54610334412082
 31
0
  0
LINE
  8
0
 62
7
 10
5.62649298543689
 20
4.54610334412082
 30
0
 11
5.618392985436889
 21
4.54910334412082
 31
0
  0
LINE
  8
0
 62
7
 10
5.669692985436891
 20
4.54910334412082
 30
0
 11
5.707492985436891
 21
4.54910334412082
 31
0
  0
LINE
  8
0
 62
7
 10
5.707492985436891
 20
4.54910334412082
 30
0
 11
5.707492985436891
 21
4.42910334412082
 31
0
  0
LINE
  8
0
 62
7
 10
5.707492985436891
 20
4.54910334412082
 30
0
 11
5.74529298543689
 21
4.54910334412082
 31
0
  0
LINE
  8
0
 62
7
 10
5.77769298543689
 20
4.54910334412082
 30
0
 11
5.81549298543689
 21
4.54910334412082
 31
0
  0
LINE
  8
0
 62
7
 10
5.81549298543689
 20
4.54910334412082
 30
0
 11
5.81549298543689
 21
4.42910334412082
 31
0
  0
LINE
  8
0
 62
7
 10
5.81549298543689
 20
4.54910334412082
 30
0
 11
5.853292985436892
 21
4.54910334412082
 31
0
  0
LINE
  8
0
 62
7
 10
5.97209298543689
 20
4.47110334412082
 30
0
 11
6.02609298543689
 21
4.47110334412082
 31
0
  0
LINE
  8
0
 62
7
 10
6.134092985436891
 20
4.54910334412082
 30
0
 11
6.171892985436891
 21
4.54910334412082
 31
0
  0
LINE
  8
0
 62
7
 10
6.171892985436891
 20
4.54910334412082
 30
0
 11
6.171892985436891
 21
4.42910334412082
 31
0
  0
LINE
  8
0
 62
7
 10
6.171892985436891
 20
4.54910334412082
 30
0
 11
6.209692985436892
 21
4.54910334412082
 31
0
  0
LINE
  8
0
 62
7
 10
6.242092985436891
 20
4.42910334412082
 30
0
 11
6.242092985436891
 21
4.54910334412082
 31
0
  0
LINE
  8
0
 62
7
 10
6.242092985436891
 20
4.54910334412082
 30
0
 11
6.29339298543689
 21
4.54910334412082
 31
0
  0
LINE
  8
0
 62
7
 10
6.29339298543689
 20
4.54910334412082
 30
0
 11
6.304192985436891
 21
4.54610334412082
 31
0
  0
LINE
  8
0
 62
7
 10
6.304192985436891
 20
4.54610334412082
 30
0
 11
6.312292985436891
 21
4.54010334412082
 31
0
  0
LINE
  8
0
 62
7
 10
6.312292985436891
 20
4.54010334412082
 30
0
 11
6.31499298543689
 21
4.534103344120821
 31
0
  0
LINE
  8
0
 62
7
 10
6.31499298543689
 20
4.534103344120821
 30
0
 11
6.31769298543689
 21
4.52510334412082
 31
0
  0
LINE
  8
0
 62
7
 10
6.31769298543689
 20
4.52510334412082
 30
0
 11
6.31769298543689
 21
4.513103344120821
 31
0
  0
LINE
  8
0
 62
7
 10
6.31769298543689
 20
4.513103344120821
 30
0
 11
6.31499298543689
 21
4.50410334412082
 31
0
  0
LINE
  8
0
 62
7
 10
6.31499298543689
 20
4.50410334412082
 30
0
 11
6.312292985436891
 21
4.498103344120821
 31
0
  0
LINE
  8
0
 62
7
 10
6.312292985436891
 20
4.498103344120821
 30
0
 11
6.304192985436891
 21
4.49210334412082
 31
0
  0
LINE
  8
0
 62
7
 10
6.304192985436891
 20
4.49210334412082
 30
0
 11
6.29339298543689
 21
4.48910334412082
 31
0
  0
LINE
  8
0
 62
7
 10
6.29339298543689
 20
4.48910334412082
 30
0
 11
6.28529298543689
 21
4.48910334412082
 31
0
  0
LINE
  8
0
 62
7
 10
6.28529298543689
 20
4.48910334412082
 30
0
 11
6.31769298543689
 21
4.42910334412082
 31
0
  0
LINE
  8
0
 62
7
 10
6.28529298543689
 20
4.48910334412082
 30
0
 11
6.242092985436891
 21
4.48910334412082
 31
0
  0
LINE
  8
0
 62
7
 10
6.41489298543689
 20
4.54910334412082
 30
0
 11
6.339292985436892
 21
4.54910334412082
 31
0
  0
LINE
  8
0
 62
7
 10
6.339292985436892
 20
4.54910334412082
 30
0
 11
6.339292985436892
 21
4.48910334412082
 31
0
  0
LINE
  8
0
 62
7
 10
6.339292985436892
 20
4.42910334412082
 30
0
 11
6.41489298543689
 21
4.42910334412082
 31
0
  0
LINE
  8
0
 62
7
 10
6.404092985436892
 20
4.48910334412082
 30
0
 11
6.339292985436892
 21
4.48910334412082
 31
0
  0
LINE
  8
0
 62
7
 10
6.339292985436892
 20
4.48910334412082
 30
0
 11
6.339292985436892
 21
4.42910334412082
 31
0
  0
LINE
  8
0
 62
7
 10
6.44729298543689
 20
4.42910334412082
 30
0
 11
6.44729298543689
 21
4.48910334412082
 31
0
  0
LINE
  8
0
 62
7
 10
6.44729298543689
 20
4.54910334412082
 30
0
 11
6.498592985436891
 21
4.54910334412082
 31
0
  0
LINE
  8
0
 62
7
 10
6.498592985436891
 20
4.54910334412082
 30
0
 11
6.509392985436891
 21
4.54610334412082
 31
0
  0
LINE
  8
0
 62
7
 10
6.509392985436891
 20
4.54610334412082
 30
0
 11
6.517492985436892
 21
4.54010334412082
 31
0
  0
LINE
  8
0
 62
7
 10
6.517492985436892
 20
4.54010334412082
 30
0
 11
6.52019298543689
 21
4.534103344120821
 31
0
  0
LINE
  8
0
 62
7
 10
6.52019298543689
 20
4.534103344120821
 30
0
 11
6.522892985436892
 21
4.52510334412082
 31
0
  0
LINE
  8
0
 62
7
 10
6.522892985436892
 20
4.52510334412082
 30
0
 11
6.522892985436892
 21
4.513103344120821
 31
0
  0
LINE
  8
0
 62
7
 10
6.522892985436892
 20
4.513103344120821
 30
0
 11
6.52019298543689
 21
4.50410334412082
 31
0
  0
LINE
  8
0
 62
7
 10
6.52019298543689
 20
4.50410334412082
 30
0
 11
6.517492985436892
 21
4.498103344120821
 31
0
  0
LINE
  8
0
 62
7
 10
6.517492985436892
 20
4.498103344120821
 30
0
 11
6.509392985436891
 21
4.49210334412082
 31
0
  0
LINE
  8
0
 62
7
 10
6.509392985436891
 20
4.49210334412082
 30
0
 11
6.498592985436891
 21
4.48910334412082
 31
0
  0
LINE
  8
0
 62
7
 10
6.498592985436891
 20
4.48910334412082
 30
0
 11
6.44729298543689
 21
4.48910334412082
 31
0
  0
LINE
  8
0
 62
7
 10
6.44729298543689
 20
4.48910334412082
 30
0
 11
6.44729298543689
 21
4.54910334412082
 31
0
  0
LINE
  8
0
 62
7
 10
6.544492985436891
 20
4.42910334412082
 30
0
 11
6.544492985436891
 21
4.48910334412082
 31
0
  0
LINE
  8
0
 62
7
 10
6.544492985436891
 20
4.54910334412082
 30
0
 11
6.595792985436892
 21
4.54910334412082
 31
0
  0
LINE
  8
0
 62
7
 10
6.595792985436892
 20
4.54910334412082
 30
0
 11
6.606592985436892
 21
4.54610334412082
 31
0
  0
LINE
  8
0
 62
7
 10
6.606592985436892
 20
4.54610334412082
 30
0
 11
6.614692985436891
 21
4.54010334412082
 31
0
  0
LINE
  8
0
 62
7
 10
6.614692985436891
 20
4.54010334412082
 30
0
 11
6.617392985436891
 21
4.534103344120821
 31
0
  0
LINE
  8
0
 62
7
 10
6.617392985436891
 20
4.534103344120821
 30
0
 11
6.620092985436891
 21
4.52510334412082
 31
0
  0
LINE
  8
0
 62
7
 10
6.620092985436891
 20
4.52510334412082
 30
0
 11
6.620092985436891
 21
4.513103344120821
 31
0
  0
LINE
  8
0
 62
7
 10
6.620092985436891
 20
4.513103344120821
 30
0
 11
6.617392985436891
 21
4.50410334412082
 31
0
  0
LINE
  8
0
 62
7
 10
6.617392985436891
 20
4.50410334412082
 30
0
 11
6.614692985436891
 21
4.498103344120821
 31
0
  0
LINE
  8
0
 62
7
 10
6.614692985436891
 20
4.498103344120821
 30
0
 11
6.606592985436892
 21
4.49210334412082
 31
0
  0
LINE
  8
0
 62
7
 10
6.606592985436892
 20
4.49210334412082
 30
0
 11
6.595792985436892
 21
4.48910334412082
 31
0
  0
LINE
  8
0
 62
7
 10
6.595792985436892
 20
4.48910334412082
 30
0
 11
6.544492985436891
 21
4.48910334412082
 31
0
  0
LINE
  8
0
 62
7
 10
6.544492985436891
 20
4.48910334412082
 30
0
 11
6.544492985436891
 21
4.54910334412082
 31
0
  0
LINE
  8
0
 62
7
 10
6.717292985436891
 20
4.54910334412082
 30
0
 11
6.64169298543689
 21
4.54910334412082
 31
0
  0
LINE
  8
0
 62
7
 10
6.64169298543689
 20
4.54910334412082
 30
0
 11
6.64169298543689
 21
4.48910334412082
 31
0
  0
LINE
  8
0
 62
7
 10
6.64169298543689
 20
4.42910334412082
 30
0
 11
6.717292985436891
 21
4.42910334412082
 31
0
  0
LINE
  8
0
 62
7
 10
6.70649298543689
 20
4.48910334412082
 30
0
 11
6.64169298543689
 21
4.48910334412082
 31
0
  0
LINE
  8
0
 62
7
 10
6.64169298543689
 20
4.48910334412082
 30
0
 11
6.64169298543689
 21
4.42910334412082
 31
0
  0
LINE
  8
0
 62
7
 10
4.675000000000003
 20
3.010000000000002
 30
0
 11
4.750600000000005
 21
3.010000000000002
 31
0
  0
LINE
  8
0
 62
7
 10
4.750600000000005
 20
3.010000000000002
 30
0
 11
4.675000000000003
 21
2.890000000000002
 31
0
  0
LINE
  8
0
 62
7
 10
4.675000000000003
 20
2.890000000000002
 30
0
 11
4.750600000000005
 21
2.890000000000002
 31
0
  0
LINE
  8
0
 62
7
 10
4.783000000000004
 20
2.992000000000003
 30
0
 11
4.788400000000004
 21
3.001000000000003
 31
0
  0
LINE
  8
0
 62
7
 10
4.788400000000004
 20
3.001000000000003
 30
0
 11
4.796500000000004
 21
3.007000000000002
 31
0
  0
LINE
  8
0
 62
7
 10
4.796500000000004
 20
3.007000000000002
 30
0
 11
4.807300000000004
 21
3.010000000000002
 31
0
  0
LINE
  8
0
 62
7
 10
4.807300000000004
 20
3.010000000000002
 30
0
 11
4.823500000000005
 21
3.010000000000002
 31
0
  0
LINE
  8
0
 62
7
 10
4.823500000000005
 20
3.010000000000002
 30
0
 11
4.834300000000004
 21
3.007000000000002
 31
0
  0
LINE
  8
0
 62
7
 10
4.834300000000004
 20
3.007000000000002
 30
0
 11
4.842400000000005
 21
3.001000000000003
 31
0
  0
LINE
  8
0
 62
7
 10
4.842400000000005
 20
3.001000000000003
 30
0
 11
4.847800000000006
 21
2.992000000000003
 31
0
  0
LINE
  8
0
 62
7
 10
4.847800000000006
 20
2.992000000000003
 30
0
 11
4.847800000000006
 21
2.980000000000002
 31
0
  0
LINE
  8
0
 62
7
 10
4.847800000000006
 20
2.980000000000002
 30
0
 11
4.842400000000005
 21
2.968000000000002
 31
0
  0
LINE
  8
0
 62
7
 10
4.842400000000005
 20
2.968000000000002
 30
0
 11
4.783000000000004
 21
2.890000000000002
 31
0
  0
LINE
  8
0
 62
7
 10
4.783000000000004
 20
2.890000000000002
 30
0
 11
4.847800000000006
 21
2.890000000000002
 31
0
  0
LINE
  8
0
 62
7
 10
4.880200000000004
 20
3.010000000000002
 30
0
 11
4.918000000000004
 21
2.890000000000002
 31
0
  0
LINE
  8
0
 62
7
 10
4.918000000000004
 20
2.890000000000002
 30
0
 11
4.955800000000004
 21
3.010000000000002
 31
0
  0
LINE
  8
0
 62
7
 10
4.988200000000005
 20
2.992000000000003
 30
0
 11
4.993600000000004
 21
3.001000000000003
 31
0
  0
LINE
  8
0
 62
7
 10
4.993600000000004
 20
3.001000000000003
 30
0
 11
5.001700000000005
 21
3.007000000000002
 31
0
  0
LINE
  8
0
 62
7
 10
5.001700000000005
 20
3.007000000000002
 30
0
 11
5.012500000000004
 21
3.010000000000002
 31
0
  0
LINE
  8
0
 62
7
 10
5.012500000000004
 20
3.010000000000002
 30
0
 11
5.028700000000003
 21
3.010000000000002
 31
0
  0
LINE
  8
0
 62
7
 10
5.028700000000003
 20
3.010000000000002
 30
0
 11
5.036800000000004
 21
3.007000000000002
 31
0
  0
LINE
  8
0
 62
7
 10
5.036800000000004
 20
3.007000000000002
 30
0
 11
5.044900000000005
 21
3.001000000000003
 31
0
  0
LINE
  8
0
 62
7
 10
5.044900000000005
 20
3.001000000000003
 30
0
 11
5.050300000000005
 21
2.992000000000003
 31
0
  0
LINE
  8
0
 62
7
 10
5.050300000000005
 20
2.992000000000003
 30
0
 11
5.053000000000004
 21
2.980000000000002
 31
0
  0
LINE
  8
0
 62
7
 10
5.053000000000004
 20
2.980000000000002
 30
0
 11
5.053000000000004
 21
2.971000000000004
 31
0
  0
LINE
  8
0
 62
7
 10
5.053000000000004
 20
2.971000000000004
 30
0
 11
5.050300000000005
 21
2.962000000000002
 31
0
  0
LINE
  8
0
 62
7
 10
5.050300000000005
 20
2.962000000000002
 30
0
 11
5.044900000000005
 21
2.956000000000003
 31
0
  0
LINE
  8
0
 62
7
 10
5.044900000000005
 20
2.956000000000003
 30
0
 11
5.031400000000004
 21
2.950000000000003
 31
0
  0
LINE
  8
0
 62
7
 10
5.012500000000004
 20
2.950000000000003
 30
0
 11
5.031400000000004
 21
2.950000000000003
 31
0
  0
LINE
  8
0
 62
7
 10
5.031400000000004
 20
2.950000000000003
 30
0
 11
5.044900000000005
 21
2.944000000000004
 31
0
  0
LINE
  8
0
 62
7
 10
5.044900000000005
 20
2.944000000000004
 30
0
 11
5.050300000000005
 21
2.938000000000002
 31
0
  0
LINE
  8
0
 62
7
 10
5.050300000000005
 20
2.938000000000002
 30
0
 11
5.053000000000004
 21
2.929000000000003
 31
0
  0
LINE
  8
0
 62
7
 10
5.053000000000004
 20
2.929000000000003
 30
0
 11
5.053000000000004
 21
2.920000000000003
 31
0
  0
LINE
  8
0
 62
7
 10
5.053000000000004
 20
2.920000000000003
 30
0
 11
5.050300000000005
 21
2.908000000000002
 31
0
  0
LINE
  8
0
 62
7
 10
5.050300000000005
 20
2.908000000000002
 30
0
 11
5.044900000000005
 21
2.899000000000004
 31
0
  0
LINE
  8
0
 62
7
 10
5.044900000000005
 20
2.899000000000004
 30
0
 11
5.036800000000004
 21
2.893000000000002
 31
0
  0
LINE
  8
0
 62
7
 10
5.036800000000004
 20
2.893000000000002
 30
0
 11
5.028700000000003
 21
2.890000000000002
 31
0
  0
LINE
  8
0
 62
7
 10
5.028700000000003
 20
2.890000000000002
 30
0
 11
5.012500000000004
 21
2.890000000000002
 31
0
  0
LINE
  8
0
 62
7
 10
5.012500000000004
 20
2.890000000000002
 30
0
 11
5.001700000000005
 21
2.893000000000002
 31
0
  0
LINE
  8
0
 62
7
 10
5.001700000000005
 20
2.893000000000002
 30
0
 11
4.993600000000004
 21
2.899000000000004
 31
0
  0
LINE
  8
0
 62
7
 10
4.993600000000004
 20
2.899000000000004
 30
0
 11
4.988200000000005
 21
2.908000000000002
 31
0
  0
LINE
  8
0
 62
7
 10
5.085400000000004
 20
2.974000000000004
 30
0
 11
5.117800000000003
 21
3.010000000000002
 31
0
  0
LINE
  8
0
 62
7
 10
5.117800000000003
 20
3.010000000000002
 30
0
 11
5.117800000000003
 21
2.890000000000002
 31
0
  0
LINE
  8
0
 62
7
 10
5.150200000000004
 20
2.992000000000003
 30
0
 11
5.155600000000003
 21
3.001000000000003
 31
0
  0
LINE
  8
0
 62
7
 10
5.155600000000003
 20
3.001000000000003
 30
0
 11
5.163700000000004
 21
3.007000000000002
 31
0
  0
LINE
  8
0
 62
7
 10
5.163700000000004
 20
3.007000000000002
 30
0
 11
5.174500000000005
 21
3.010000000000002
 31
0
  0
LINE
  8
0
 62
7
 10
5.174500000000005
 20
3.010000000000002
 30
0
 11
5.190700000000005
 21
3.010000000000002
 31
0
  0
LINE
  8
0
 62
7
 10
5.190700000000005
 20
3.010000000000002
 30
0
 11
5.198800000000006
 21
3.007000000000002
 31
0
  0
LINE
  8
0
 62
7
 10
5.198800000000006
 20
3.007000000000002
 30
0
 11
5.206900000000005
 21
3.001000000000003
 31
0
  0
LINE
  8
0
 62
7
 10
5.206900000000005
 20
3.001000000000003
 30
0
 11
5.212300000000004
 21
2.992000000000003
 31
0
  0
LINE
  8
0
 62
7
 10
5.212300000000004
 20
2.992000000000003
 30
0
 11
5.215000000000003
 21
2.980000000000002
 31
0
  0
LINE
  8
0
 62
7
 10
5.215000000000003
 20
2.980000000000002
 30
0
 11
5.215000000000003
 21
2.971000000000004
 31
0
  0
LINE
  8
0
 62
7
 10
5.215000000000003
 20
2.971000000000004
 30
0
 11
5.212300000000004
 21
2.962000000000002
 31
0
  0
LINE
  8
0
 62
7
 10
5.212300000000004
 20
2.962000000000002
 30
0
 11
5.206900000000005
 21
2.956000000000003
 31
0
  0
LINE
  8
0
 62
7
 10
5.206900000000005
 20
2.956000000000003
 30
0
 11
5.193400000000004
 21
2.950000000000003
 31
0
  0
LINE
  8
0
 62
7
 10
5.174500000000005
 20
2.950000000000003
 30
0
 11
5.193400000000004
 21
2.950000000000003
 31
0
  0
LINE
  8
0
 62
7
 10
5.193400000000004
 20
2.950000000000003
 30
0
 11
5.206900000000005
 21
2.944000000000004
 31
0
  0
LINE
  8
0
 62
7
 10
5.206900000000005
 20
2.944000000000004
 30
0
 11
5.212300000000004
 21
2.938000000000002
 31
0
  0
LINE
  8
0
 62
7
 10
5.212300000000004
 20
2.938000000000002
 30
0
 11
5.215000000000003
 21
2.929000000000003
 31
0
  0
LINE
  8
0
 62
7
 10
5.215000000000003
 20
2.929000000000003
 30
0
 11
5.215000000000003
 21
2.920000000000003
 31
0
  0
LINE
  8
0
 62
7
 10
5.215000000000003
 20
2.920000000000003
 30
0
 11
5.212300000000004
 21
2.908000000000002
 31
0
  0
LINE
  8
0
 62
7
 10
5.212300000000004
 20
2.908000000000002
 30
0
 11
5.206900000000005
 21
2.899000000000004
 31
0
  0
LINE
  8
0
 62
7
 10
5.206900000000005
 20
2.899000000000004
 30
0
 11
5.198800000000006
 21
2.893000000000002
 31
0
  0
LINE
  8
0
 62
7
 10
5.198800000000006
 20
2.893000000000002
 30
0
 11
5.190700000000005
 21
2.890000000000002
 31
0
  0
LINE
  8
0
 62
7
 10
5.190700000000005
 20
2.890000000000002
 30
0
 11
5.174500000000005
 21
2.890000000000002
 31
0
  0
LINE
  8
0
 62
7
 10
5.174500000000005
 20
2.890000000000002
 30
0
 11
5.163700000000004
 21
2.893000000000002
 31
0
  0
LINE
  8
0
 62
7
 10
5.163700000000004
 20
2.893000000000002
 30
0
 11
5.155600000000003
 21
2.899000000000004
 31
0
  0
LINE
  8
0
 62
7
 10
5.155600000000003
 20
2.899000000000004
 30
0
 11
5.150200000000004
 21
2.908000000000002
 31
0
  0
LINE
  8
0
 62
7
 10
5.247400000000003
 20
2.890000000000002
 30
0
 11
5.247400000000003
 21
3.010000000000002
 31
0
  0
LINE
  8
0
 62
7
 10
5.247400000000003
 20
3.010000000000002
 30
0
 11
5.298700000000004
 21
3.010000000000002
 31
0
  0
LINE
  8
0
 62
7
 10
5.298700000000004
 20
3.010000000000002
 30
0
 11
5.309500000000003
 21
3.007000000000002
 31
0
  0
LINE
  8
0
 62
7
 10
5.309500000000003
 20
3.007000000000002
 30
0
 11
5.317600000000003
 21
3.001000000000003
 31
0
  0
LINE
  8
0
 62
7
 10
5.317600000000003
 20
3.001000000000003
 30
0
 11
5.320300000000003
 21
2.995000000000003
 31
0
  0
LINE
  8
0
 62
7
 10
5.320300000000003
 20
2.995000000000003
 30
0
 11
5.323000000000004
 21
2.986000000000003
 31
0
  0
LINE
  8
0
 62
7
 10
5.323000000000004
 20
2.986000000000003
 30
0
 11
5.323000000000004
 21
2.974000000000004
 31
0
  0
LINE
  8
0
 62
7
 10
5.323000000000004
 20
2.974000000000004
 30
0
 11
5.320300000000003
 21
2.965000000000003
 31
0
  0
LINE
  8
0
 62
7
 10
5.320300000000003
 20
2.965000000000003
 30
0
 11
5.317600000000003
 21
2.959000000000003
 31
0
  0
LINE
  8
0
 62
7
 10
5.317600000000003
 20
2.959000000000003
 30
0
 11
5.309500000000003
 21
2.953000000000002
 31
0
  0
LINE
  8
0
 62
7
 10
5.309500000000003
 20
2.953000000000002
 30
0
 11
5.298700000000004
 21
2.950000000000003
 31
0
  0
LINE
  8
0
 62
7
 10
5.298700000000004
 20
2.950000000000003
 30
0
 11
5.290600000000004
 21
2.950000000000003
 31
0
  0
LINE
  8
0
 62
7
 10
5.290600000000004
 20
2.950000000000003
 30
0
 11
5.323000000000004
 21
2.890000000000002
 31
0
  0
LINE
  8
0
 62
7
 10
5.290600000000004
 20
2.950000000000003
 30
0
 11
5.247400000000003
 21
2.950000000000003
 31
0
  0
LINE
  8
0
 62
7
 10
5.344600000000004
 20
2.938000000000002
 30
0
 11
5.347300000000004
 21
2.950000000000003
 31
0
  0
LINE
  8
0
 62
7
 10
5.347300000000004
 20
2.950000000000003
 30
0
 11
5.352700000000005
 21
2.959000000000003
 31
0
  0
LINE
  8
0
 62
7
 10
5.352700000000005
 20
2.959000000000003
 30
0
 11
5.360800000000005
 21
2.965000000000003
 31
0
  0
LINE
  8
0
 62
7
 10
5.360800000000005
 20
2.965000000000003
 30
0
 11
5.368900000000004
 21
2.968000000000002
 31
0
  0
LINE
  8
0
 62
7
 10
5.368900000000004
 20
2.968000000000002
 30
0
 11
5.385100000000005
 21
2.968000000000002
 31
0
  0
LINE
  8
0
 62
7
 10
5.385100000000005
 20
2.968000000000002
 30
0
 11
5.393200000000006
 21
2.965000000000003
 31
0
  0
LINE
  8
0
 62
7
 10
5.393200000000006
 20
2.965000000000003
 30
0
 11
5.401300000000005
 21
2.959000000000003
 31
0
  0
LINE
  8
0
 62
7
 10
5.401300000000005
 20
2.959000000000003
 30
0
 11
5.406700000000004
 21
2.950000000000003
 31
0
  0
LINE
  8
0
 62
7
 10
5.406700000000004
 20
2.950000000000003
 30
0
 11
5.409400000000005
 21
2.938000000000002
 31
0
  0
LINE
  8
0
 62
7
 10
5.409400000000005
 20
2.938000000000002
 30
0
 11
5.409400000000005
 21
2.920000000000003
 31
0
  0
LINE
  8
0
 62
7
 10
5.409400000000005
 20
2.920000000000003
 30
0
 11
5.406700000000004
 21
2.908000000000002
 31
0
  0
LINE
  8
0
 62
7
 10
5.406700000000004
 20
2.908000000000002
 30
0
 11
5.401300000000005
 21
2.899000000000004
 31
0
  0
LINE
  8
0
 62
7
 10
5.401300000000005
 20
2.899000000000004
 30
0
 11
5.393200000000006
 21
2.893000000000002
 31
0
  0
LINE
  8
0
 62
7
 10
5.393200000000006
 20
2.893000000000002
 30
0
 11
5.385100000000005
 21
2.890000000000002
 31
0
  0
LINE
  8
0
 62
7
 10
5.385100000000005
 20
2.890000000000002
 30
0
 11
5.368900000000004
 21
2.890000000000002
 31
0
  0
LINE
  8
0
 62
7
 10
5.368900000000004
 20
2.890000000000002
 30
0
 11
5.360800000000005
 21
2.893000000000002
 31
0
  0
LINE
  8
0
 62
7
 10
5.360800000000005
 20
2.893000000000002
 30
0
 11
5.352700000000005
 21
2.899000000000004
 31
0
  0
LINE
  8
0
 62
7
 10
5.352700000000005
 20
2.899000000000004
 30
0
 11
5.347300000000004
 21
2.908000000000002
 31
0
  0
LINE
  8
0
 62
7
 10
5.347300000000004
 20
2.908000000000002
 30
0
 11
5.344600000000004
 21
2.920000000000003
 31
0
  0
LINE
  8
0
 62
7
 10
5.344600000000004
 20
2.920000000000003
 30
0
 11
5.344600000000004
 21
2.938000000000002
 31
0
  0
LINE
  8
0
 62
7
 10
5.344600000000004
 20
2.980000000000002
 30
0
 11
5.347300000000004
 21
2.992000000000003
 31
0
  0
LINE
  8
0
 62
7
 10
5.347300000000004
 20
2.992000000000003
 30
0
 11
5.352700000000005
 21
3.001000000000003
 31
0
  0
LINE
  8
0
 62
7
 10
5.352700000000005
 20
3.001000000000003
 30
0
 11
5.360800000000005
 21
3.007000000000002
 31
0
  0
LINE
  8
0
 62
7
 10
5.360800000000005
 20
3.007000000000002
 30
0
 11
5.368900000000004
 21
3.010000000000002
 31
0
  0
LINE
  8
0
 62
7
 10
5.368900000000004
 20
3.010000000000002
 30
0
 11
5.385100000000005
 21
3.010000000000002
 31
0
  0
LINE
  8
0
 62
7
 10
5.385100000000005
 20
3.010000000000002
 30
0
 11
5.393200000000006
 21
3.007000000000002
 31
0
  0
LINE
  8
0
 62
7
 10
5.393200000000006
 20
3.007000000000002
 30
0
 11
5.401300000000005
 21
3.001000000000003
 31
0
  0
LINE
  8
0
 62
7
 10
5.401300000000005
 20
3.001000000000003
 30
0
 11
5.406700000000004
 21
2.992000000000003
 31
0
  0
LINE
  8
0
 62
7
 10
5.344600000000004
 20
2.938000000000002
 30
0
 11
5.344600000000004
 21
2.980000000000002
 31
0
  0
LINE
  8
0
 62
7
 10
7.175000000000004
 20
2.890000000000002
 30
0
 11
7.175000000000004
 21
2.990000000000002
 31
0
  0
LINE
  8
0
 62
7
 10
7.175000000000004
 20
2.990000000000002
 30
0
 11
7.238000000000004
 21
2.890000000000002
 31
0
  0
LINE
  8
0
 62
7
 10
7.238000000000004
 20
2.890000000000002
 30
0
 11
7.238000000000004
 21
2.990000000000002
 31
0
  0
LINE
  8
0
 62
7
 10
7.319000000000004
 20
2.890000000000002
 30
0
 11
7.265000000000005
 21
2.890000000000002
 31
0
  0
LINE
  8
0
 62
7
 10
7.265000000000005
 20
2.890000000000002
 30
0
 11
7.265000000000005
 21
2.990000000000002
 31
0
  0
LINE
  8
0
 62
7
 10
7.346000000000004
 20
2.940000000000003
 30
0
 11
7.382000000000004
 21
2.940000000000003
 31
0
  0
LINE
  8
0
 62
7
 10
7.382000000000004
 20
2.940000000000003
 30
0
 11
7.386500000000005
 21
2.940000000000003
 31
0
  0
LINE
  8
0
 62
7
 10
7.386500000000005
 20
2.940000000000003
 30
0
 11
7.395500000000005
 21
2.935000000000002
 31
0
  0
LINE
  8
0
 62
7
 10
7.395500000000005
 20
2.935000000000002
 30
0
 11
7.400000000000005
 21
2.930000000000002
 31
0
  0
LINE
  8
0
 62
7
 10
7.400000000000005
 20
2.930000000000002
 30
0
 11
7.404500000000005
 21
2.920000000000003
 31
0
  0
LINE
  8
0
 62
7
 10
7.404500000000005
 20
2.920000000000003
 30
0
 11
7.404500000000005
 21
2.910000000000002
 31
0
  0
LINE
  8
0
 62
7
 10
7.404500000000005
 20
2.910000000000002
 30
0
 11
7.400000000000005
 21
2.900000000000003
 31
0
  0
LINE
  8
0
 62
7
 10
7.400000000000005
 20
2.900000000000003
 30
0
 11
7.395500000000005
 21
2.895000000000003
 31
0
  0
LINE
  8
0
 62
7
 10
7.395500000000005
 20
2.895000000000003
 30
0
 11
7.386500000000005
 21
2.890000000000002
 31
0
  0
LINE
  8
0
 62
7
 10
7.386500000000005
 20
2.890000000000002
 30
0
 11
7.346000000000004
 21
2.890000000000002
 31
0
  0
LINE
  8
0
 62
7
 10
7.346000000000004
 20
2.890000000000002
 30
0
 11
7.346000000000004
 21
2.940000000000003
 31
0
  0
LINE
  8
0
 62
7
 10
7.346000000000004
 20
2.990000000000002
 30
0
 11
7.379750000000005
 21
2.990000000000002
 31
0
  0
LINE
  8
0
 62
7
 10
7.379750000000005
 20
2.990000000000002
 30
0
 11
7.391000000000004
 21
2.987500000000002
 31
0
  0
LINE
  8
0
 62
7
 10
7.391000000000004
 20
2.987500000000002
 30
0
 11
7.397750000000006
 21
2.980000000000002
 31
0
  0
LINE
  8
0
 62
7
 10
7.397750000000006
 20
2.980000000000002
 30
0
 11
7.400000000000005
 21
2.970000000000002
 31
0
  0
LINE
  8
0
 62
7
 10
7.400000000000005
 20
2.970000000000002
 30
0
 11
7.400000000000005
 21
2.960000000000003
 31
0
  0
LINE
  8
0
 62
7
 10
7.400000000000005
 20
2.960000000000003
 30
0
 11
7.395500000000005
 21
2.950000000000003
 31
0
  0
LINE
  8
0
 62
7
 10
7.395500000000005
 20
2.950000000000003
 30
0
 11
7.388750000000005
 21
2.942500000000003
 31
0
  0
LINE
  8
0
 62
7
 10
7.388750000000005
 20
2.942500000000003
 30
0
 11
7.382000000000004
 21
2.940000000000003
 31
0
  0
LINE
  8
0
 62
7
 10
7.346000000000004
 20
2.940000000000003
 30
0
 11
7.346000000000004
 21
2.990000000000002
 31
0
  0
LINE
  8
0
 62
7
 10
7.546250000000005
 20
2.942500000000003
 30
0
 11
7.539500000000004
 21
2.952500000000002
 31
0
  0
LINE
  8
0
 62
7
 10
7.539500000000004
 20
2.952500000000002
 30
0
 11
7.532750000000004
 21
2.957500000000003
 31
0
  0
LINE
  8
0
 62
7
 10
7.532750000000004
 20
2.957500000000003
 30
0
 11
7.526000000000003
 21
2.960000000000003
 31
0
  0
LINE
  8
0
 62
7
 10
7.526000000000003
 20
2.960000000000003
 30
0
 11
7.517000000000005
 21
2.960000000000003
 31
0
  0
LINE
  8
0
 62
7
 10
7.517000000000005
 20
2.960000000000003
 30
0
 11
7.510250000000005
 21
2.957500000000003
 31
0
  0
LINE
  8
0
 62
7
 10
7.510250000000005
 20
2.957500000000003
 30
0
 11
7.503500000000004
 21
2.952500000000002
 31
0
  0
LINE
  8
0
 62
7
 10
7.503500000000004
 20
2.952500000000002
 30
0
 11
7.496750000000005
 21
2.942500000000003
 31
0
  0
LINE
  8
0
 62
7
 10
7.496750000000005
 20
2.942500000000003
 30
0
 11
7.494500000000004
 21
2.935000000000002
 31
0
  0
LINE
  8
0
 62
7
 10
7.494500000000004
 20
2.935000000000002
 30
0
 11
7.494500000000004
 21
2.915000000000003
 31
0
  0
LINE
  8
0
 62
7
 10
7.494500000000004
 20
2.915000000000003
 30
0
 11
7.496750000000005
 21
2.907500000000002
 31
0
  0
LINE
  8
0
 62
7
 10
7.496750000000005
 20
2.907500000000002
 30
0
 11
7.503500000000004
 21
2.897500000000003
 31
0
  0
LINE
  8
0
 62
7
 10
7.503500000000004
 20
2.897500000000003
 30
0
 11
7.510250000000005
 21
2.892500000000002
 31
0
  0
LINE
  8
0
 62
7
 10
7.510250000000005
 20
2.892500000000002
 30
0
 11
7.517000000000005
 21
2.890000000000002
 31
0
  0
LINE
  8
0
 62
7
 10
7.517000000000005
 20
2.890000000000002
 30
0
 11
7.526000000000003
 21
2.890000000000002
 31
0
  0
LINE
  8
0
 62
7
 10
7.526000000000003
 20
2.890000000000002
 30
0
 11
7.532750000000004
 21
2.892500000000002
 31
0
  0
LINE
  8
0
 62
7
 10
7.532750000000004
 20
2.892500000000002
 30
0
 11
7.539500000000004
 21
2.897500000000003
 31
0
  0
LINE
  8
0
 62
7
 10
7.539500000000004
 20
2.897500000000003
 30
0
 11
7.546250000000005
 21
2.907500000000002
 31
0
  0
LINE
  8
0
 62
7
 10
7.618250000000003
 20
2.935000000000002
 30
0
 11
7.616000000000004
 21
2.942500000000003
 31
0
  0
LINE
  8
0
 62
7
 10
7.616000000000004
 20
2.942500000000003
 30
0
 11
7.609250000000005
 21
2.952500000000002
 31
0
  0
LINE
  8
0
 62
7
 10
7.609250000000005
 20
2.952500000000002
 30
0
 11
7.602500000000005
 21
2.957500000000003
 31
0
  0
LINE
  8
0
 62
7
 10
7.602500000000005
 20
2.957500000000003
 30
0
 11
7.595750000000004
 21
2.960000000000003
 31
0
  0
LINE
  8
0
 62
7
 10
7.595750000000004
 20
2.960000000000003
 30
0
 11
7.586750000000004
 21
2.960000000000003
 31
0
  0
LINE
  8
0
 62
7
 10
7.586750000000004
 20
2.960000000000003
 30
0
 11
7.580000000000005
 21
2.957500000000003
 31
0
  0
LINE
  8
0
 62
7
 10
7.580000000000005
 20
2.957500000000003
 30
0
 11
7.573250000000005
 21
2.952500000000002
 31
0
  0
LINE
  8
0
 62
7
 10
7.573250000000005
 20
2.952500000000002
 30
0
 11
7.566500000000005
 21
2.942500000000003
 31
0
  0
LINE
  8
0
 62
7
 10
7.566500000000005
 20
2.942500000000003
 30
0
 11
7.564250000000005
 21
2.935000000000002
 31
0
  0
LINE
  8
0
 62
7
 10
7.564250000000005
 20
2.935000000000002
 30
0
 11
7.564250000000005
 21
2.915000000000003
 31
0
  0
LINE
  8
0
 62
7
 10
7.564250000000005
 20
2.915000000000003
 30
0
 11
7.566500000000005
 21
2.907500000000002
 31
0
  0
LINE
  8
0
 62
7
 10
7.566500000000005
 20
2.907500000000002
 30
0
 11
7.573250000000005
 21
2.897500000000003
 31
0
  0
LINE
  8
0
 62
7
 10
7.573250000000005
 20
2.897500000000003
 30
0
 11
7.580000000000005
 21
2.892500000000002
 31
0
  0
LINE
  8
0
 62
7
 10
7.580000000000005
 20
2.892500000000002
 30
0
 11
7.586750000000004
 21
2.890000000000002
 31
0
  0
LINE
  8
0
 62
7
 10
7.586750000000004
 20
2.890000000000002
 30
0
 11
7.595750000000004
 21
2.890000000000002
 31
0
  0
LINE
  8
0
 62
7
 10
7.595750000000004
 20
2.890000000000002
 30
0
 11
7.602500000000005
 21
2.892500000000002
 31
0
  0
LINE
  8
0
 62
7
 10
7.602500000000005
 20
2.892500000000002
 30
0
 11
7.609250000000005
 21
2.897500000000003
 31
0
  0
LINE
  8
0
 62
7
 10
7.609250000000005
 20
2.897500000000003
 30
0
 11
7.616000000000004
 21
2.907500000000002
 31
0
  0
LINE
  8
0
 62
7
 10
7.616000000000004
 20
2.907500000000002
 30
0
 11
7.618250000000003
 21
2.915000000000003
 31
0
  0
LINE
  8
0
 62
7
 10
7.618250000000003
 20
2.960000000000003
 30
0
 11
7.618250000000003
 21
2.935000000000002
 31
0
  0
LINE
  8
0
 62
7
 10
7.618250000000003
 20
2.892500000000002
 30
0
 11
7.620500000000004
 21
2.890000000000002
 31
0
  0
LINE
  8
0
 62
7
 10
7.620500000000004
 20
2.890000000000002
 30
0
 11
7.622750000000005
 21
2.890000000000002
 31
0
  0
LINE
  8
0
 62
7
 10
7.618250000000003
 20
2.915000000000003
 30
0
 11
7.618250000000003
 21
2.892500000000002
 31
0
  0
LINE
  8
0
 62
7
 10
7.618250000000003
 20
2.935000000000002
 30
0
 11
7.618250000000003
 21
2.915000000000003
 31
0
  0
LINE
  8
0
 62
7
 10
7.640750000000004
 20
2.890000000000002
 30
0
 11
7.640750000000004
 21
2.892500000000002
 31
0
  0
LINE
  8
0
 62
7
 10
7.640750000000004
 20
2.892500000000002
 30
0
 11
7.643000000000004
 21
2.892500000000002
 31
0
  0
LINE
  8
0
 62
7
 10
7.643000000000004
 20
2.892500000000002
 30
0
 11
7.643000000000004
 21
2.890000000000002
 31
0
  0
LINE
  8
0
 62
7
 10
7.643000000000004
 20
2.890000000000002
 30
0
 11
7.640750000000004
 21
2.890000000000002
 31
0
  0
LINE
  8
0
 62
7
 10
7.766750000000004
 20
2.990000000000002
 30
0
 11
7.775750000000004
 21
2.990000000000002
 31
0
  0
LINE
  8
0
 62
7
 10
7.775750000000004
 20
2.990000000000002
 30
0
 11
7.782500000000005
 21
2.987500000000002
 31
0
  0
LINE
  8
0
 62
7
 10
7.782500000000005
 20
2.987500000000002
 30
0
 11
7.787000000000003
 21
2.982500000000003
 31
0
  0
LINE
  8
0
 62
7
 10
7.787000000000003
 20
2.982500000000003
 30
0
 11
7.791500000000005
 21
2.975000000000003
 31
0
  0
LINE
  8
0
 62
7
 10
7.791500000000005
 20
2.975000000000003
 30
0
 11
7.791500000000005
 21
2.965000000000003
 31
0
  0
LINE
  8
0
 62
7
 10
7.791500000000005
 20
2.965000000000003
 30
0
 11
7.789250000000004
 21
2.960000000000003
 31
0
  0
LINE
  8
0
 62
7
 10
7.789250000000004
 20
2.960000000000003
 30
0
 11
7.782500000000005
 21
2.952500000000002
 31
0
  0
LINE
  8
0
 62
7
 10
7.782500000000005
 20
2.952500000000002
 30
0
 11
7.775750000000004
 21
2.950000000000003
 31
0
  0
LINE
  8
0
 62
7
 10
7.775750000000004
 20
2.950000000000003
 30
0
 11
7.766750000000004
 21
2.950000000000003
 31
0
  0
LINE
  8
0
 62
7
 10
7.766750000000004
 20
2.950000000000003
 30
0
 11
7.760000000000005
 21
2.952500000000002
 31
0
  0
LINE
  8
0
 62
7
 10
7.760000000000005
 20
2.952500000000002
 30
0
 11
7.753250000000005
 21
2.960000000000003
 31
0
  0
LINE
  8
0
 62
7
 10
7.753250000000005
 20
2.960000000000003
 30
0
 11
7.751000000000004
 21
2.965000000000003
 31
0
  0
LINE
  8
0
 62
7
 10
7.751000000000004
 20
2.965000000000003
 30
0
 11
7.751000000000004
 21
2.975000000000003
 31
0
  0
LINE
  8
0
 62
7
 10
7.751000000000004
 20
2.975000000000003
 30
0
 11
7.755500000000004
 21
2.982500000000003
 31
0
  0
LINE
  8
0
 62
7
 10
7.755500000000004
 20
2.982500000000003
 30
0
 11
7.760000000000005
 21
2.987500000000002
 31
0
  0
LINE
  8
0
 62
7
 10
7.760000000000005
 20
2.987500000000002
 30
0
 11
7.766750000000004
 21
2.990000000000002
 31
0
  0
LINE
  8
0
 62
7
 10
7.766750000000004
 20
2.950000000000003
 30
0
 11
7.755500000000004
 21
2.945000000000003
 31
0
  0
LINE
  8
0
 62
7
 10
7.755500000000004
 20
2.945000000000003
 30
0
 11
7.748750000000006
 21
2.937500000000003
 31
0
  0
LINE
  8
0
 62
7
 10
7.748750000000006
 20
2.937500000000003
 30
0
 11
7.744250000000005
 21
2.927500000000002
 31
0
  0
LINE
  8
0
 62
7
 10
7.744250000000005
 20
2.927500000000002
 30
0
 11
7.744250000000005
 21
2.912500000000003
 31
0
  0
LINE
  8
0
 62
7
 10
7.744250000000005
 20
2.912500000000003
 30
0
 11
7.748750000000006
 21
2.902500000000003
 31
0
  0
LINE
  8
0
 62
7
 10
7.748750000000006
 20
2.902500000000003
 30
0
 11
7.755500000000004
 21
2.895000000000003
 31
0
  0
LINE
  8
0
 62
7
 10
7.755500000000004
 20
2.895000000000003
 30
0
 11
7.764500000000004
 21
2.890000000000002
 31
0
  0
LINE
  8
0
 62
7
 10
7.764500000000004
 20
2.890000000000002
 30
0
 11
7.778000000000005
 21
2.890000000000002
 31
0
  0
LINE
  8
0
 62
7
 10
7.778000000000005
 20
2.890000000000002
 30
0
 11
7.787000000000003
 21
2.895000000000003
 31
0
  0
LINE
  8
0
 62
7
 10
7.787000000000003
 20
2.895000000000003
 30
0
 11
7.793750000000005
 21
2.902500000000003
 31
0
  0
LINE
  8
0
 62
7
 10
7.793750000000005
 20
2.902500000000003
 30
0
 11
7.798250000000005
 21
2.912500000000003
 31
0
  0
LINE
  8
0
 62
7
 10
7.798250000000005
 20
2.912500000000003
 30
0
 11
7.798250000000005
 21
2.927500000000002
 31
0
  0
LINE
  8
0
 62
7
 10
7.798250000000005
 20
2.927500000000002
 30
0
 11
7.793750000000005
 21
2.937500000000003
 31
0
  0
LINE
  8
0
 62
7
 10
7.793750000000005
 20
2.937500000000003
 30
0
 11
7.787000000000003
 21
2.945000000000003
 31
0
  0
LINE
  8
0
 62
7
 10
7.787000000000003
 20
2.945000000000003
 30
0
 11
7.775750000000004
 21
2.950000000000003
 31
0
  0
LINE
  8
0
 62
7
 10
7.888250000000004
 20
2.950000000000003
 30
0
 11
7.886000000000005
 21
2.940000000000003
 31
0
  0
LINE
  8
0
 62
7
 10
7.886000000000005
 20
2.940000000000003
 30
0
 11
7.881500000000004
 21
2.932500000000003
 31
0
  0
LINE
  8
0
 62
7
 10
7.881500000000004
 20
2.932500000000003
 30
0
 11
7.874750000000005
 21
2.927500000000002
 31
0
  0
LINE
  8
0
 62
7
 10
7.874750000000005
 20
2.927500000000002
 30
0
 11
7.868000000000004
 21
2.925000000000002
 31
0
  0
LINE
  8
0
 62
7
 10
7.868000000000004
 20
2.925000000000002
 30
0
 11
7.854500000000005
 21
2.925000000000002
 31
0
  0
LINE
  8
0
 62
7
 10
7.854500000000005
 20
2.925000000000002
 30
0
 11
7.847750000000005
 21
2.927500000000002
 31
0
  0
LINE
  8
0
 62
7
 10
7.847750000000005
 20
2.927500000000002
 30
0
 11
7.841000000000005
 21
2.932500000000003
 31
0
  0
LINE
  8
0
 62
7
 10
7.841000000000005
 20
2.932500000000003
 30
0
 11
7.836500000000005
 21
2.940000000000003
 31
0
  0
LINE
  8
0
 62
7
 10
7.836500000000005
 20
2.940000000000003
 30
0
 11
7.834250000000004
 21
2.950000000000003
 31
0
  0
LINE
  8
0
 62
7
 10
7.834250000000004
 20
2.950000000000003
 30
0
 11
7.834250000000004
 21
2.965000000000003
 31
0
  0
LINE
  8
0
 62
7
 10
7.834250000000004
 20
2.965000000000003
 30
0
 11
7.836500000000005
 21
2.975000000000003
 31
0
  0
LINE
  8
0
 62
7
 10
7.836500000000005
 20
2.975000000000003
 30
0
 11
7.841000000000005
 21
2.982500000000003
 31
0
  0
LINE
  8
0
 62
7
 10
7.841000000000005
 20
2.982500000000003
 30
0
 11
7.847750000000005
 21
2.987500000000002
 31
0
  0
LINE
  8
0
 62
7
 10
7.847750000000005
 20
2.987500000000002
 30
0
 11
7.854500000000005
 21
2.990000000000002
 31
0
  0
LINE
  8
0
 62
7
 10
7.854500000000005
 20
2.990000000000002
 30
0
 11
7.868000000000004
 21
2.990000000000002
 31
0
  0
LINE
  8
0
 62
7
 10
7.868000000000004
 20
2.990000000000002
 30
0
 11
7.874750000000005
 21
2.987500000000002
 31
0
  0
LINE
  8
0
 62
7
 10
7.874750000000005
 20
2.987500000000002
 30
0
 11
7.881500000000004
 21
2.982500000000003
 31
0
  0
LINE
  8
0
 62
7
 10
7.881500000000004
 20
2.982500000000003
 30
0
 11
7.886000000000005
 21
2.975000000000003
 31
0
  0
LINE
  8
0
 62
7
 10
7.886000000000005
 20
2.975000000000003
 30
0
 11
7.888250000000004
 21
2.965000000000003
 31
0
  0
LINE
  8
0
 62
7
 10
7.888250000000004
 20
2.965000000000003
 30
0
 11
7.888250000000004
 21
2.950000000000003
 31
0
  0
LINE
  8
0
 62
7
 10
7.888250000000004
 20
2.915000000000003
 30
0
 11
7.886000000000005
 21
2.905000000000002
 31
0
  0
LINE
  8
0
 62
7
 10
7.886000000000005
 20
2.905000000000002
 30
0
 11
7.881500000000004
 21
2.897500000000003
 31
0
  0
LINE
  8
0
 62
7
 10
7.881500000000004
 20
2.897500000000003
 30
0
 11
7.874750000000005
 21
2.892500000000002
 31
0
  0
LINE
  8
0
 62
7
 10
7.874750000000005
 20
2.892500000000002
 30
0
 11
7.868000000000004
 21
2.890000000000002
 31
0
  0
LINE
  8
0
 62
7
 10
7.868000000000004
 20
2.890000000000002
 30
0
 11
7.854500000000005
 21
2.890000000000002
 31
0
  0
LINE
  8
0
 62
7
 10
7.854500000000005
 20
2.890000000000002
 30
0
 11
7.847750000000005
 21
2.892500000000002
 31
0
  0
LINE
  8
0
 62
7
 10
7.847750000000005
 20
2.892500000000002
 30
0
 11
7.841000000000005
 21
2.897500000000003
 31
0
  0
LINE
  8
0
 62
7
 10
7.841000000000005
 20
2.897500000000003
 30
0
 11
7.836500000000005
 21
2.905000000000002
 31
0
  0
LINE
  8
0
 62
7
 10
7.888250000000004
 20
2.950000000000003
 30
0
 11
7.888250000000004
 21
2.915000000000003
 31
0
  0
LINE
  8
0
 62
7
 10
8.039000000000005
 20
2.942500000000003
 30
0
 11
8.032250000000003
 21
2.952500000000002
 31
0
  0
LINE
  8
0
 62
7
 10
8.032250000000003
 20
2.952500000000002
 30
0
 11
8.025500000000005
 21
2.957500000000003
 31
0
  0
LINE
  8
0
 62
7
 10
8.025500000000005
 20
2.957500000000003
 30
0
 11
8.018750000000004
 21
2.960000000000003
 31
0
  0
LINE
  8
0
 62
7
 10
8.018750000000004
 20
2.960000000000003
 30
0
 11
8.009750000000004
 21
2.960000000000003
 31
0
  0
LINE
  8
0
 62
7
 10
8.009750000000004
 20
2.960000000000003
 30
0
 11
8.003000000000005
 21
2.957500000000003
 31
0
  0
LINE
  8
0
 62
7
 10
8.003000000000005
 20
2.957500000000003
 30
0
 11
7.996250000000005
 21
2.952500000000002
 31
0
  0
LINE
  8
0
 62
7
 10
7.996250000000005
 20
2.952500000000002
 30
0
 11
7.989500000000004
 21
2.942500000000003
 31
0
  0
LINE
  8
0
 62
7
 10
7.989500000000004
 20
2.942500000000003
 30
0
 11
7.987250000000005
 21
2.935000000000002
 31
0
  0
LINE
  8
0
 62
7
 10
7.987250000000005
 20
2.935000000000002
 30
0
 11
7.987250000000005
 21
2.915000000000003
 31
0
  0
LINE
  8
0
 62
7
 10
7.987250000000005
 20
2.915000000000003
 30
0
 11
7.989500000000004
 21
2.907500000000002
 31
0
  0
LINE
  8
0
 62
7
 10
7.989500000000004
 20
2.907500000000002
 30
0
 11
7.996250000000005
 21
2.897500000000003
 31
0
  0
LINE
  8
0
 62
7
 10
7.996250000000005
 20
2.897500000000003
 30
0
 11
8.003000000000005
 21
2.892500000000002
 31
0
  0
LINE
  8
0
 62
7
 10
8.003000000000005
 20
2.892500000000002
 30
0
 11
8.009750000000004
 21
2.890000000000002
 31
0
  0
LINE
  8
0
 62
7
 10
8.009750000000004
 20
2.890000000000002
 30
0
 11
8.018750000000004
 21
2.890000000000002
 31
0
  0
LINE
  8
0
 62
7
 10
8.018750000000004
 20
2.890000000000002
 30
0
 11
8.025500000000005
 21
2.892500000000002
 31
0
  0
LINE
  8
0
 62
7
 10
8.025500000000005
 20
2.892500000000002
 30
0
 11
8.032250000000003
 21
2.897500000000003
 31
0
  0
LINE
  8
0
 62
7
 10
8.032250000000003
 20
2.897500000000003
 30
0
 11
8.039000000000005
 21
2.907500000000002
 31
0
  0
LINE
  8
0
 62
7
 10
8.097500000000005
 20
2.935000000000002
 30
0
 11
8.097500000000005
 21
2.890000000000002
 31
0
  0
LINE
  8
0
 62
7
 10
8.057000000000004
 20
2.960000000000003
 30
0
 11
8.057000000000004
 21
2.935000000000002
 31
0
  0
LINE
  8
0
 62
7
 10
8.057000000000004
 20
2.890000000000002
 30
0
 11
8.057000000000004
 21
2.935000000000002
 31
0
  0
LINE
  8
0
 62
7
 10
8.057000000000004
 20
2.935000000000002
 30
0
 11
8.059250000000004
 21
2.947500000000002
 31
0
  0
LINE
  8
0
 62
7
 10
8.059250000000004
 20
2.947500000000002
 30
0
 11
8.061500000000006
 21
2.952500000000002
 31
0
  0
LINE
  8
0
 62
7
 10
8.061500000000006
 20
2.952500000000002
 30
0
 11
8.066000000000004
 21
2.957500000000003
 31
0
  0
LINE
  8
0
 62
7
 10
8.066000000000004
 20
2.957500000000003
 30
0
 11
8.072750000000005
 21
2.960000000000003
 31
0
  0
LINE
  8
0
 62
7
 10
8.072750000000005
 20
2.960000000000003
 30
0
 11
8.081750000000005
 21
2.960000000000003
 31
0
  0
LINE
  8
0
 62
7
 10
8.081750000000005
 20
2.960000000000003
 30
0
 11
8.088500000000003
 21
2.957500000000003
 31
0
  0
LINE
  8
0
 62
7
 10
8.088500000000003
 20
2.957500000000003
 30
0
 11
8.093000000000004
 21
2.952500000000002
 31
0
  0
LINE
  8
0
 62
7
 10
8.093000000000004
 20
2.952500000000002
 30
0
 11
8.095250000000005
 21
2.947500000000002
 31
0
  0
LINE
  8
0
 62
7
 10
8.095250000000005
 20
2.947500000000002
 30
0
 11
8.097500000000005
 21
2.935000000000002
 31
0
  0
LINE
  8
0
 62
7
 10
8.097500000000005
 20
2.935000000000002
 30
0
 11
8.099750000000006
 21
2.947500000000002
 31
0
  0
LINE
  8
0
 62
7
 10
8.099750000000006
 20
2.947500000000002
 30
0
 11
8.102000000000004
 21
2.952500000000002
 31
0
  0
LINE
  8
0
 62
7
 10
8.102000000000004
 20
2.952500000000002
 30
0
 11
8.106500000000004
 21
2.957500000000003
 31
0
  0
LINE
  8
0
 62
7
 10
8.106500000000004
 20
2.957500000000003
 30
0
 11
8.113250000000004
 21
2.960000000000003
 31
0
  0
LINE
  8
0
 62
7
 10
8.113250000000004
 20
2.960000000000003
 30
0
 11
8.122250000000005
 21
2.960000000000003
 31
0
  0
LINE
  8
0
 62
7
 10
8.122250000000005
 20
2.960000000000003
 30
0
 11
8.129000000000005
 21
2.957500000000003
 31
0
  0
LINE
  8
0
 62
7
 10
8.133500000000003
 20
2.952500000000002
 30
0
 11
8.129000000000005
 21
2.957500000000003
 31
0
  0
LINE
  8
0
 62
7
 10
8.129000000000005
 20
2.957500000000003
 30
0
 11
8.133500000000003
 21
2.952500000000002
 31
0
  0
LINE
  8
0
 62
7
 10
8.133500000000003
 20
2.952500000000002
 30
0
 11
8.135750000000005
 21
2.947500000000002
 31
0
  0
LINE
  8
0
 62
7
 10
8.135750000000005
 20
2.947500000000002
 30
0
 11
8.138000000000003
 21
2.935000000000002
 31
0
  0
LINE
  8
0
 62
7
 10
8.138000000000003
 20
2.935000000000002
 30
0
 11
8.138000000000003
 21
2.890000000000002
 31
0
  0
ARC
  8
0
 62
7
 10
5.294166072992703
 20
3.725833927007276
 30
0
 40
0.5499999999999955
 50
89.91312633300329
 51
180.0868736693182
  0
ARC
  8
0
 62
7
 10
6.42083392700727
 20
3.725833927007163
 30
0
 40
0.549999999999998
 50
359.9131263330177
 51
90.08687365982729
  0
CIRCLE
  8
0
 62
7
 10
4.744166705206069
 20
3.250000000000002
 30
0
 40
0.0600000000000005
  0
DIMENSION
  8
0
  6
CONTINUOUS
 62
7
  2
*D0
  3
DMST_1
 10
8.03395117313902
 20
4.750000000000001
 30
0
 11
8.03395117313902
 21
4.054492651024801
 31
0
 12
0
 22
0
 32
0
 70
0
 13
7.600000000000005
 23
3.35
 33
0
 14
7.600000000000005
 24
4.75
 34
0
 50
90
 53
0
  0
DIMENSION
  8
0
  6
CONTINUOUS
 62
7
  2
*D1
  3
DMST_1
 10
7.425000000000004
 20
5.58128404800429
 30
0
 11
5.86999486245943
 21
5.58128404800429
 31
0
 12
0
 22
0
 32
0
 70
0
 13
4.290000000000004
 23
5.269999999999997
 33
0
 14
7.425000000000004
 24
5.269999999999997
 34
0
 53
0
  0
DIMENSION
  8
0
  6
CONTINUOUS
 62
7
  2
*D2
  3
DMST_1
 10
3.778170428802491
 20
4.75
 30
0
 11
3.778170428802491
 21
4.04247067152103
 31
0
 12
0
 22
0
 32
0
 70
0
 13
4.115000000000004
 23
3.25
 33
0
 14
4.115000000000004
 24
4.75
 34
0
 50
90
 53
0
  0
DIMENSION
  8
0
  6
CONTINUOUS
 62
7
  2
*D3
  3
DMST_2
 10
7.425000000000004
 20
11.5802518203883
 30
0
 11
5.86999486245943
 21
11.5802518203883
 31
0
 12
0
 22
0
 32
0
 70
0
 13
4.290000000000004
 23
11.2
 33
0
 14
7.425000000000004
 24
11.2
 34
0
 53
0
  0
INSERT
  8
0
  2
*D4
 10
0
 20
0
 30
0
  0
ENDSEC
  0
EOF
