  0
SECTION
  2
HEADER
  9
$ACADVER
  1
AC1009
  9
$INSBASE
 10
0
 20
0
  9
$EXTMIN
 10
0.5105226068812961
 20
2.940000000000003
  9
$EXTMAX
 10
8.250000000000005
 20
11.5856325228524
  9
$LIMMIN
 10
0.5105226068812961
 20
2.940000000000003
  9
$LIMMAX
 10
8.250000000000005
 20
11.5856325228524
  9
$VIEWCTR
 10
10
 20
10
  9
$VIEWSIZE
 40
10
  9
$SNAPMODE
 70
0
  9
$SNAPUNIT
 10
1
 20
1
  9
$SNAPBASE
 10
0
 20
0
  9
$SNAPANG
 50
0
  9
$SNAPSTYLE
 70
0
  9
$SNAPISOPAIR
 70
0
  9
$GRIDMODE
 70
0
  9
$GRIDUNIT
 10
0
 20
0
  9
$ORTHOMODE
 70
0
  9
$REGENMODE
 70
1
  9
$FILLMODE
 70
1
  9
$QTEXTMODE
 70
0
  9
$DRAGMODE
 70
2
  9
$LTSCALE
 40
1
  9
$OSMODE
 70
0
  9
$ATTMODE
 70
1
  9
$TEXTSIZE
 40
3.5
  9
$TRACEWID
 40
0.5
  9
$TEXTSTYLE
  7
STANDARD
  9
$CLAYER
  8
0
  9
$CELTYPE
  6
BYLAYER
  9
$CECOLOR
 62
256
  9
$DIMSCALE
 40
1
  9
$DIMASZ
 40
0.18
  9
$DIMEXO
 40
0.0625
  9
$DIMDLI
 40
0.38
  9
$DIMRND
 40
0
  9
$DIMDLE
 40
0
  9
$DIMEXE
 40
0.18
  9
$DIMTP
 40
0
  9
$DIMTM
 40
0
  9
$DIMTXT
 40
0.18
  9
$DIMCEN
 40
0.09
  9
$DIMTSZ
 40
0
  9
$DIMTOL
 70
0
  9
$DIMLIM
 70
0
  9
$DIMTIH
 70
1
  9
$DIMTOH
 70
1
  9
$DIMSE1
 70
0
  9
$DIMSE2
 70
0
  9
$DIMTAD
 70
0
  9
$DIMZIN
 70
0
  9
$DIMBLK
  1

  9
$DIMASO
 70
1
  9
$DIMSHO
 70
1
  9
$DIMPOST
  1

  9
$DIMAPOST
  1

  9
$DIMALT
 70
0
  9
$DIMALTD
 70
2
  9
$DIMALTF
 40
25.4
  9
$DIMLFAC
 40
1
  9
$DIMTOFL
 70
0
  9
$DIMTVP
 40
0
  9
$DIMTIX
 70
0
  9
$DIMSOXD
 70
0
  9
$DIMSAH
 70
0
  9
$DIMBLK1
  1

  9
$DIMBLK2
  1

  9
$DIMSTYLE
  2
*UNNAMED
  9
$DIMCLRD
 70
0
  9
$DIMCLRE
 70
0
  9
$DIMCLRT
 70
0
  9
$DIMTFAC
 40
1
  9
$DIMGAP
 40
0.09
  9
$LUNITS
 70
2
  9
$LUPREC
 70
4
  9
$AXISMODE
 70
0
  9
$AXISUNIT
 10
0
 20
0
  9
$SKETCHINC
 40
0.1
  9
$FILLETRAD
 40
2
  9
$AUNITS
 70
0
  9
$AUPREC
 70
0
  9
$MENU
  1
ACAD
  9
$ELEVATION
 40
0
  9
$THICKNESS
 40
0
  9
$VIEWDIR
 10
0
 20
0
 30
1
  9
$LIMCHECK
 70
0
  9
$BLIPMODE
 70
1
  9
$CHAMFERA
 40
0
  9
$CHAMFERB
 40
0
  9
$FASTZOOM
 70
1
  9
$SKPOLY
 70
0
  9
$ANGBASE
 50
0
  9
$ANGDIR
 70
0
  9
$PDMODE
 70
0
  9
$PDSIZE
 40
0
  9
$PLINEWID
 40
0
  9
$COORDS
 70
2
  0
ENDSEC
  0
SECTION
  2
TABLES
  0
TABLE
  2
DIMSTYLE
 70
2
  0
DIMSTYLE
  2
DMST_1
 70
0
  3

  4

  5

  6

  7

 40
1
 41
0.1
 42
0
 43
0.7
 44
0.2
 45
0
 46
0
 47
0
 48
0
140
0.1
141
0
142
0.1
143
25.4
144
1
145
0
146
1
147
0.25
 71
0
 72
0
 73
0
 74
0
 75
0
 76
0
 77
0
 78
9
170
0
171
2
172
0
173
0
174
0
175
0
176
7
177
7
178
7
  0
DIMSTYLE
  2
DMST_2
 70
0
  3

  4

  5

  6

  7

 40
1
 41
0.1
 42
0
 43
0.7
 44
0.2
 45
0
 46
0
 47
0
 48
0
140
0.1
141
0
142
0.1
143
25.4
144
1
145
0
146
1
147
0.2
 71
0
 72
0
 73
0
 74
0
 75
0
 76
0
 77
0
 78
9
170
0
171
2
172
0
173
0
174
0
175
0
176
7
177
7
178
7
  0
ENDTAB
  0
TABLE
  2
LTYPE
 70
9
  0
LTYPE
  2
CONTINUOUS
 70
64
  3
Solid line
 72
65
 73
0
 40
0
  0
LTYPE
  2
BORDER
 70
64
  3
__ __ . __ __ .
 72
65
 73
6
 40
0.3981541293418867
 49
0.1137583226691105
 49
-0.05687916133455524
 49
0.1137583226691105
 49
-0.05687916133455524
 49
0
 49
-0.05687916133455524
  0
LTYPE
  2
CENTER
 70
64
  3
____ _ ____ _
 72
65
 73
4
 40
0.4550332906764419
 49
0.2843958066727762
 49
-0.05687916133455524
 49
0.05687916133455524
 49
-0.05687916133455524
  0
LTYPE
  2
DASHDOT
 70
64
  3
__ . __ . __ .
 72
65
 73
4
 40
0.227516645338221
 49
0.1137583226691105
 49
-0.05687916133455524
 49
0
 49
-0.05687916133455524
  0
LTYPE
  2
DASHED
 70
64
  3
__ __ __ __ __
 72
65
 73
2
 40
0.1706374840036657
 49
0.1137583226691105
 49
-0.05687916133455524
  0
LTYPE
  2
DIVIDE
 70
64
  3
__ . . __ . . 
 72
65
 73
6
 40
0.2843958066727762
 49
0.1137583226691105
 49
-0.05687916133455524
 49
0
 49
-0.05687916133455524
 49
0
 49
-0.05687916133455524
  0
LTYPE
  2
DOT
 70
64
  3
..............
 72
65
 73
4
 40
0.1137583226691105
 49
0
 49
-0.05687916133455524
 49
0
 49
-0.05687916133455524
  0
LTYPE
  2
HIDDEN
 70
64
  3
_ _ _ _ _ _ _
 72
65
 73
2
 40
0.08531874200183287
 49
0.05687916133455524
 49
-0.02843958066727762
  0
LTYPE
  2
PHANTOM
 70
64
  3
_____ _ _ _____ _ _ 
 72
65
 73
6
 40
0.5687916133455524
 49
0.2843958066727762
 49
-0.05687916133455524
 49
0.05687916133455524
 49
-0.05687916133455524
 49
0.05687916133455524
 49
-0.05687916133455524
  0
ENDTAB
  0
TABLE
  2
LAYER
 70
2
  0
LAYER
  2
0
 70
0
 62
7
  6
CONTINUOUS
  0
ENDTAB
  0
TABLE
  2
STYLE
 70
4
  0
STYLE
  2
STANDARD
 70
0
 40
0
 41
1
 50
0
 71
0
 42
3.5
  3
txt
  4

  0
STYLE
  2
SIMPLEX
 70
0
 40
0
 41
1
 50
0
 71
0
 42
3.5
  3
simplex
  4

  0
STYLE
  2
COMPLEX
 70
0
 40
0
 41
1
 50
0
 71
0
 42
3.5
  3
complex
  4

  0
STYLE
  2
ITALIC
 70
0
 40
0
 41
1
 50
0
 71
0
 42
3.5
  3
italic
  4

  0
ENDTAB
  0
TABLE
  2
VIEW
 70
0
  0
ENDTAB
  0
ENDSEC
  0
SECTION
  2
BLOCKS
  0
BLOCK
  8
0
  2
*X0
 70
1
 10
0
 20
0
 30
0
  0
LINE
  8
0
 62
7
  6
DASHED
 10
7.960000000000005
 20
8.27819805153395
 30
0
 11
7.98180194846605
 21
8.299999999999997
 31
0
  0
LINE
  8
0
 62
7
  6
DASHED
 10
7.993933982822015
 20
8.099999999999996
 30
0
 11
8.193933982822013
 21
8.299999999999997
 31
0
  0
LINE
  8
0
 62
7
 10
7.960000000000004
 20
8.172132034355968
 30
0
 11
8.087867965644033
 21
8.299999999999995
 31
0
  0
LINE
  8
0
 62
7
 10
8.099999999999998
 20
8.099999999999996
 30
0
 11
8.200000000000005
 21
8.200000000000003
 31
0
  0
ENDBLK
  8
0
  0
BLOCK
  8
0
  2
*X1
 70
1
 10
0
 20
0
 30
0
  0
LINE
  8
0
 62
7
  6
DASHED
 10
7.960000000000003
 20
11.03591449816148
 30
0
 11
7.974085501838521
 21
11.05
 31
0
  0
LINE
  8
0
 62
7
  6
DASHED
 10
7.986217536194484
 20
10.85
 30
0
 11
8.186217536194485
 21
11.05
 31
0
  0
LINE
  8
0
 62
7
  6
DASHED
 10
8.198349570550448
 20
10.85
 30
0
 11
8.200000000000005
 21
10.85165042944956
 31
0
  0
LINE
  8
0
 62
7
 10
7.960000000000005
 20
10.9298484809835
 30
0
 11
8.080151519016503
 21
11.05
 31
0
  0
LINE
  8
0
 62
7
 10
8.092283553372466
 20
10.85
 30
0
 11
8.200000000000005
 21
10.95771644662754
 31
0
  0
ENDBLK
  8
0
  0
BLOCK
  8
0
  2
*X2
 70
1
 10
0
 20
0
 30
0
  0
LINE
  8
0
 62
7
  6
DASHED
 10
6.310000000000002
 20
10.87083873865323
 30
0
 11
6.489161261346769
 21
11.05
 31
0
  0
LINE
  8
0
 62
7
  6
DASHED
 10
6.501293295702732
 20
10.85
 30
0
 11
6.610000000000003
 21
10.95870670429727
 31
0
  0
LINE
  8
0
 62
7
 10
6.31
 20
10.97690475583121
 30
0
 11
6.383095244168787
 21
11.05
 31
0
  0
LINE
  8
0
 62
7
 10
6.395227278524754
 20
10.85
 30
0
 11
6.595227278524751
 21
11.05
 31
0
  0
LINE
  8
0
 62
7
 10
6.607359312880718
 20
10.85
 30
0
 11
6.610000000000003
 21
10.85264068711929
 31
0
  0
ENDBLK
  8
0
  0
BLOCK
  8
0
  2
*X3
 70
1
 10
0
 20
0
 30
0
  0
LINE
  8
0
 62
7
  6
DASHED
 10
6.310000000000002
 20
8.113122292025697
 30
0
 11
6.496877707974302
 21
8.299999999999997
 31
0
  0
LINE
  8
0
 62
7
  6
DASHED
 10
6.509009742330264
 20
8.099999999999994
 30
0
 11
6.610000000000003
 21
8.200990257669734
 31
0
  0
LINE
  8
0
 62
7
 10
6.310000000000001
 20
8.219188309203679
 30
0
 11
6.390811690796321
 21
8.299999999999997
 31
0
  0
LINE
  8
0
 62
7
 10
6.402943725152282
 20
8.099999999999994
 30
0
 11
6.602943725152285
 21
8.299999999999997
 31
0
  0
ENDBLK
  8
0
  0
BLOCK
  8
0
  2
*X4
 70
1
 10
0
 20
0
 30
0
  0
LINE
  8
0
 62
7
 10
7.974085501838521
 20
11.05
 30
0
 11
8.12408550183852
 21
11.2
 31
0
  0
LINE
  8
0
 62
7
 10
8.186217536194485
 20
11.05
 30
0
 11
8.200000000000005
 21
11.06378246380552
 31
0
  0
LINE
  8
0
 62
7
 10
7.960000000000005
 20
11.14198051533947
 30
0
 11
8.018019484660536
 21
11.2
 31
0
  0
LINE
  8
0
 62
7
 10
8.080151519016503
 20
11.05
 30
0
 11
8.200000000000003
 21
11.1698484809835
 31
0
  0
ENDBLK
  8
0
  0
BLOCK
  8
0
  2
*X5
 70
1
 10
0
 20
0
 30
0
  0
LINE
  8
0
 62
7
 10
7.960000000000006
 20
10.82378246380552
 30
0
 11
7.986217536194484
 21
10.85
 31
0
  0
LINE
  8
0
 62
7
 10
7.960000000000006
 20
10.61165042944955
 30
0
 11
8.198349570550448
 21
10.85
 31
0
  0
LINE
  8
0
 62
7
 10
7.960000000000006
 20
10.39951839509359
 30
0
 11
8.200000000000005
 21
10.63951839509359
 31
0
  0
LINE
  8
0
 62
7
 10
7.960000000000006
 20
10.18738636073763
 30
0
 11
8.200000000000005
 21
10.42738636073762
 31
0
  0
LINE
  8
0
 62
7
 10
7.960000000000006
 20
9.975254326381663
 30
0
 11
8.200000000000005
 21
10.21525432638166
 31
0
  0
LINE
  8
0
 62
7
 10
7.960000000000006
 20
9.763122292025699
 30
0
 11
8.200000000000005
 21
10.0031222920257
 31
0
  0
LINE
  8
0
 62
7
 10
7.960000000000006
 20
9.550990257669735
 30
0
 11
8.200000000000005
 21
9.790990257669733
 31
0
  0
LINE
  8
0
 62
7
 10
7.960000000000006
 20
9.338858223313771
 30
0
 11
8.200000000000005
 21
9.57885822331377
 31
0
  0
LINE
  8
0
 62
7
 10
7.960000000000006
 20
9.126726188957807
 30
0
 11
8.200000000000005
 21
9.366726188957806
 31
0
  0
LINE
  8
0
 62
7
 10
7.960000000000006
 20
8.914594154601843
 30
0
 11
8.200000000000005
 21
9.154594154601842
 31
0
  0
LINE
  8
0
 62
7
 10
7.960000000000006
 20
8.70246212024588
 30
0
 11
8.200000000000005
 21
8.942462120245878
 31
0
  0
LINE
  8
0
 62
7
 10
7.960000000000006
 20
8.490330085889916
 30
0
 11
8.200000000000005
 21
8.730330085889914
 31
0
  0
LINE
  8
0
 62
7
 10
7.98180194846605
 20
8.299999999999997
 30
0
 11
8.200000000000005
 21
8.51819805153395
 31
0
  0
LINE
  8
0
 62
7
 10
8.193933982822013
 20
8.299999999999997
 30
0
 11
8.200000000000005
 21
8.306066017177987
 31
0
  0
LINE
  8
0
 62
7
 10
7.960000000000006
 20
10.71771644662754
 30
0
 11
8.092283553372464
 21
10.85
 31
0
  0
LINE
  8
0
 62
7
 10
7.960000000000006
 20
10.50558441227157
 30
0
 11
8.200000000000006
 21
10.74558441227157
 31
0
  0
LINE
  8
0
 62
7
 10
7.960000000000006
 20
10.29345237791561
 30
0
 11
8.200000000000006
 21
10.53345237791561
 31
0
  0
LINE
  8
0
 62
7
 10
7.960000000000006
 20
10.08132034355964
 30
0
 11
8.200000000000006
 21
10.32132034355964
 31
0
  0
LINE
  8
0
 62
7
 10
7.960000000000006
 20
9.869188309203681
 30
0
 11
8.200000000000006
 21
10.10918830920368
 31
0
  0
LINE
  8
0
 62
7
 10
7.960000000000006
 20
9.657056274847717
 30
0
 11
8.200000000000006
 21
9.897056274847715
 31
0
  0
LINE
  8
0
 62
7
 10
7.960000000000006
 20
9.444924240491753
 30
0
 11
8.200000000000006
 21
9.684924240491751
 31
0
  0
LINE
  8
0
 62
7
 10
7.960000000000006
 20
9.232792206135789
 30
0
 11
8.200000000000006
 21
9.472792206135788
 31
0
  0
LINE
  8
0
 62
7
 10
7.960000000000006
 20
9.020660171779825
 30
0
 11
8.200000000000006
 21
9.260660171779824
 31
0
  0
LINE
  8
0
 62
7
 10
7.960000000000006
 20
8.808528137423862
 30
0
 11
8.200000000000006
 21
9.04852813742386
 31
0
  0
LINE
  8
0
 62
7
 10
7.960000000000006
 20
8.596396103067898
 30
0
 11
8.200000000000006
 21
8.836396103067896
 31
0
  0
LINE
  8
0
 62
7
 10
7.960000000000006
 20
8.384264068711934
 30
0
 11
8.200000000000006
 21
8.624264068711932
 31
0
  0
LINE
  8
0
 62
7
 10
8.087867965644033
 20
8.299999999999995
 30
0
 11
8.200000000000006
 21
8.412132034355968
 31
0
  0
ENDBLK
  8
0
  0
BLOCK
  8
0
  2
*X6
 70
1
 10
0
 20
0
 30
0
  0
LINE
  8
0
 62
7
 10
7.960000000000005
 20
8.066066017177986
 30
0
 11
7.993933982822015
 21
8.099999999999996
 31
0
  0
LINE
  8
0
 62
7
 10
8.056066017177983
 20
7.949999999999998
 30
0
 11
8.200000000000003
 21
8.093933982822019
 31
0
  0
LINE
  8
0
 62
7
 10
7.960000000000004
 20
7.960000000000004
 30
0
 11
8.099999999999998
 21
8.099999999999996
 31
0
  0
LINE
  8
0
 62
7
 10
8.162132034355965
 20
7.949999999999999
 30
0
 11
8.200000000000005
 21
7.987867965644039
 31
0
  0
ENDBLK
  8
0
  0
BLOCK
  8
0
  2
*X7
 70
1
 10
0
 20
0
 30
0
  0
LINE
  8
0
 62
7
  6
DASHED
 10
0.9500000000000002
 20
11.0262716319083
 30
0
 11
0.973728368091701
 21
11.05
 31
0
  0
LINE
  8
0
 62
7
  6
DASHED
 10
0.9858604024476638
 20
10.85
 30
0
 11
1.185860402447665
 21
11.05
 31
0
  0
LINE
  8
0
 62
7
  6
DASHED
 10
1.197992436803628
 20
10.85
 30
0
 11
1.39799243680363
 21
11.05
 31
0
  0
LINE
  8
0
 62
7
  6
DASHED
 10
1.410124471159592
 20
10.85
 30
0
 11
1.610124471159594
 21
11.05
 31
0
  0
LINE
  8
0
 62
7
  6
DASHED
 10
1.622256505515557
 20
10.85
 30
0
 11
1.822256505515558
 21
11.05
 31
0
  0
LINE
  8
0
 62
7
  6
DASHED
 10
1.834388539871521
 20
10.85
 30
0
 11
2.034388539871522
 21
11.05
 31
0
  0
LINE
  8
0
 62
7
  6
DASHED
 10
2.046520574227485
 20
10.85
 30
0
 11
2.246520574227487
 21
11.05
 31
0
  0
LINE
  8
0
 62
7
  6
DASHED
 10
2.25865260858345
 20
10.85
 30
0
 11
2.458652608583451
 21
11.05
 31
0
  0
LINE
  8
0
 62
7
  6
DASHED
 10
2.470784642939414
 20
10.85
 30
0
 11
2.670784642939415
 21
11.05
 31
0
  0
LINE
  8
0
 62
7
  6
DASHED
 10
2.682916677295378
 20
10.85
 30
0
 11
2.88291667729538
 21
11.05
 31
0
  0
LINE
  8
0
 62
7
  6
DASHED
 10
2.895048711651342
 20
10.85
 30
0
 11
3.095048711651344
 21
11.05
 31
0
  0
LINE
  8
0
 62
7
  6
DASHED
 10
3.107180746007307
 20
10.85
 30
0
 11
3.307180746007308
 21
11.05
 31
0
  0
LINE
  8
0
 62
7
  6
DASHED
 10
3.319312780363271
 20
10.85
 30
0
 11
3.519312780363272
 21
11.05
 31
0
  0
LINE
  8
0
 62
7
  6
DASHED
 10
3.531444814719235
 20
10.85
 30
0
 11
3.731444814719237
 21
11.05
 31
0
  0
LINE
  8
0
 62
7
  6
DASHED
 10
3.743576849075199
 20
10.85
 30
0
 11
3.943576849075201
 21
11.05
 31
0
  0
LINE
  8
0
 62
7
  6
DASHED
 10
3.955708883431164
 20
10.85
 30
0
 11
4.155708883431165
 21
11.05
 31
0
  0
LINE
  8
0
 62
7
  6
DASHED
 10
4.167840917787128
 20
10.85
 30
0
 11
4.367840917787129
 21
11.05
 31
0
  0
LINE
  8
0
 62
7
  6
DASHED
 10
4.379972952143092
 20
10.85
 30
0
 11
4.579972952143093
 21
11.05
 31
0
  0
LINE
  8
0
 62
7
  6
DASHED
 10
4.592104986499056
 20
10.85
 30
0
 11
4.792104986499057
 21
11.05
 31
0
  0
LINE
  8
0
 62
7
  6
DASHED
 10
4.80423702085502
 20
10.85
 30
0
 11
4.860000000000003
 21
10.90576297914498
 31
0
  0
LINE
  8
0
 62
7
 10
0.9500000000000002
 20
10.92020561473032
 30
0
 11
1.079794385269683
 21
11.05
 31
0
  0
LINE
  8
0
 62
7
 10
1.091926419625646
 20
10.85
 30
0
 11
1.291926419625648
 21
11.05
 31
0
  0
LINE
  8
0
 62
7
 10
1.30405845398161
 20
10.85
 30
0
 11
1.504058453981612
 21
11.05
 31
0
  0
LINE
  8
0
 62
7
 10
1.516190488337575
 20
10.85
 30
0
 11
1.716190488337576
 21
11.05
 31
0
  0
LINE
  8
0
 62
7
 10
1.728322522693539
 20
10.85
 30
0
 11
1.928322522693541
 21
11.05
 31
0
  0
LINE
  8
0
 62
7
 10
1.940454557049503
 20
10.85
 30
0
 11
2.140454557049505
 21
11.05
 31
0
  0
LINE
  8
0
 62
7
 10
2.152586591405468
 20
10.85
 30
0
 11
2.352586591405469
 21
11.05
 31
0
  0
LINE
  8
0
 62
7
 10
2.364718625761432
 20
10.85
 30
0
 11
2.564718625761433
 21
11.05
 31
0
  0
LINE
  8
0
 62
7
 10
2.576850660117396
 20
10.85
 30
0
 11
2.776850660117398
 21
11.05
 31
0
  0
LINE
  8
0
 62
7
 10
2.78898269447336
 20
10.85
 30
0
 11
2.988982694473362
 21
11.05
 31
0
  0
LINE
  8
0
 62
7
 10
3.001114728829325
 20
10.85
 30
0
 11
3.201114728829326
 21
11.05
 31
0
  0
LINE
  8
0
 62
7
 10
3.213246763185289
 20
10.85
 30
0
 11
3.413246763185291
 21
11.05
 31
0
  0
LINE
  8
0
 62
7
 10
3.425378797541253
 20
10.85
 30
0
 11
3.625378797541255
 21
11.05
 31
0
  0
LINE
  8
0
 62
7
 10
3.637510831897218
 20
10.85
 30
0
 11
3.837510831897219
 21
11.05
 31
0
  0
LINE
  8
0
 62
7
 10
3.849642866253182
 20
10.85
 30
0
 11
4.049642866253183
 21
11.05
 31
0
  0
LINE
  8
0
 62
7
 10
4.061774900609146
 20
10.85
 30
0
 11
4.261774900609147
 21
11.05
 31
0
  0
LINE
  8
0
 62
7
 10
4.27390693496511
 20
10.85
 30
0
 11
4.473906934965111
 21
11.05
 31
0
  0
LINE
  8
0
 62
7
 10
4.486038969321074
 20
10.85
 30
0
 11
4.686038969321075
 21
11.05
 31
0
  0
LINE
  8
0
 62
7
 10
4.698171003677038
 20
10.85
 30
0
 11
4.860000000000002
 21
11.01182899632296
 31
0
  0
ENDBLK
  8
0
  0
BLOCK
  8
0
  2
*X8
 70
1
 10
0
 20
0
 30
0
  0
LINE
  8
0
 62
7
  6
DASHED
 10
0.9499999999999993
 20
8.268555185280766
 30
0
 11
0.9814448147192318
 21
8.299999999999997
 31
0
  0
LINE
  8
0
 62
7
  6
DASHED
 10
0.9935768490751955
 20
8.099999999999994
 30
0
 11
1.193576849075196
 21
8.299999999999997
 31
0
  0
LINE
  8
0
 62
7
  6
DASHED
 10
1.20570888343116
 20
8.099999999999994
 30
0
 11
1.40570888343116
 21
8.299999999999997
 31
0
  0
LINE
  8
0
 62
7
  6
DASHED
 10
1.417840917787124
 20
8.099999999999994
 30
0
 11
1.617840917787125
 21
8.299999999999997
 31
0
  0
LINE
  8
0
 62
7
  6
DASHED
 10
1.629972952143088
 20
8.099999999999994
 30
0
 11
1.829972952143089
 21
8.299999999999997
 31
0
  0
LINE
  8
0
 62
7
  6
DASHED
 10
1.842104986499053
 20
8.099999999999994
 30
0
 11
2.042104986499053
 21
8.299999999999997
 31
0
  0
LINE
  8
0
 62
7
  6
DASHED
 10
2.054237020855017
 20
8.099999999999994
 30
0
 11
2.254237020855018
 21
8.299999999999997
 31
0
  0
LINE
  8
0
 62
7
  6
DASHED
 10
2.266369055210981
 20
8.099999999999994
 30
0
 11
2.466369055210982
 21
8.299999999999997
 31
0
  0
LINE
  8
0
 62
7
  6
DASHED
 10
2.478501089566945
 20
8.099999999999994
 30
0
 11
2.678501089566946
 21
8.299999999999997
 31
0
  0
LINE
  8
0
 62
7
  6
DASHED
 10
2.69063312392291
 20
8.099999999999994
 30
0
 11
2.89063312392291
 21
8.299999999999997
 31
0
  0
LINE
  8
0
 62
7
  6
DASHED
 10
2.902765158278874
 20
8.099999999999994
 30
0
 11
3.102765158278875
 21
8.299999999999997
 31
0
  0
LINE
  8
0
 62
7
  6
DASHED
 10
3.114897192634838
 20
8.099999999999994
 30
0
 11
3.314897192634839
 21
8.299999999999997
 31
0
  0
LINE
  8
0
 62
7
  6
DASHED
 10
3.327029226990803
 20
8.099999999999994
 30
0
 11
3.527029226990803
 21
8.299999999999997
 31
0
  0
LINE
  8
0
 62
7
  6
DASHED
 10
3.539161261346767
 20
8.099999999999994
 30
0
 11
3.739161261346768
 21
8.299999999999997
 31
0
  0
LINE
  8
0
 62
7
  6
DASHED
 10
3.751293295702731
 20
8.099999999999994
 30
0
 11
3.951293295702732
 21
8.299999999999997
 31
0
  0
LINE
  8
0
 62
7
  6
DASHED
 10
3.963425330058695
 20
8.099999999999994
 30
0
 11
4.163425330058696
 21
8.299999999999997
 31
0
  0
LINE
  8
0
 62
7
  6
DASHED
 10
4.17555736441466
 20
8.099999999999994
 30
0
 11
4.37555736441466
 21
8.299999999999997
 31
0
  0
LINE
  8
0
 62
7
  6
DASHED
 10
4.387689398770624
 20
8.099999999999994
 30
0
 11
4.587689398770624
 21
8.299999999999997
 31
0
  0
LINE
  8
0
 62
7
  6
DASHED
 10
4.599821433126587
 20
8.099999999999994
 30
0
 11
4.799821433126588
 21
8.299999999999997
 31
0
  0
LINE
  8
0
 62
7
  6
DASHED
 10
4.811953467482551
 20
8.099999999999994
 30
0
 11
4.860000000000003
 21
8.148046532517448
 31
0
  0
LINE
  8
0
 62
7
 10
0.9500000000000002
 20
8.162489168102784
 30
0
 11
1.087510831897213
 21
8.299999999999997
 31
0
  0
LINE
  8
0
 62
7
 10
1.099642866253178
 20
8.099999999999996
 30
0
 11
1.299642866253178
 21
8.299999999999997
 31
0
  0
LINE
  8
0
 62
7
 10
1.311774900609142
 20
8.099999999999996
 30
0
 11
1.511774900609142
 21
8.299999999999997
 31
0
  0
LINE
  8
0
 62
7
 10
1.523906934965106
 20
8.099999999999996
 30
0
 11
1.723906934965106
 21
8.299999999999997
 31
0
  0
LINE
  8
0
 62
7
 10
1.736038969321071
 20
8.099999999999996
 30
0
 11
1.93603896932107
 21
8.299999999999997
 31
0
  0
LINE
  8
0
 62
7
 10
1.948171003677035
 20
8.099999999999996
 30
0
 11
2.148171003677035
 21
8.299999999999997
 31
0
  0
LINE
  8
0
 62
7
 10
2.160303038032999
 20
8.099999999999996
 30
0
 11
2.360303038032999
 21
8.299999999999997
 31
0
  0
LINE
  8
0
 62
7
 10
2.372435072388964
 20
8.099999999999996
 30
0
 11
2.572435072388963
 21
8.299999999999997
 31
0
  0
LINE
  8
0
 62
7
 10
2.584567106744928
 20
8.099999999999996
 30
0
 11
2.784567106744928
 21
8.299999999999997
 31
0
  0
LINE
  8
0
 62
7
 10
2.796699141100892
 20
8.099999999999996
 30
0
 11
2.996699141100892
 21
8.299999999999997
 31
0
  0
LINE
  8
0
 62
7
 10
3.008831175456856
 20
8.099999999999996
 30
0
 11
3.208831175456856
 21
8.299999999999997
 31
0
  0
LINE
  8
0
 62
7
 10
3.220963209812821
 20
8.099999999999996
 30
0
 11
3.42096320981282
 21
8.299999999999997
 31
0
  0
LINE
  8
0
 62
7
 10
3.433095244168785
 20
8.099999999999996
 30
0
 11
3.633095244168785
 21
8.299999999999997
 31
0
  0
LINE
  8
0
 62
7
 10
3.645227278524749
 20
8.099999999999996
 30
0
 11
3.845227278524749
 21
8.299999999999997
 31
0
  0
LINE
  8
0
 62
7
 10
3.857359312880714
 20
8.099999999999996
 30
0
 11
4.057359312880713
 21
8.299999999999997
 31
0
  0
LINE
  8
0
 62
7
 10
4.069491347236678
 20
8.099999999999996
 30
0
 11
4.269491347236677
 21
8.299999999999997
 31
0
  0
LINE
  8
0
 62
7
 10
4.281623381592642
 20
8.099999999999996
 30
0
 11
4.481623381592641
 21
8.299999999999997
 31
0
  0
LINE
  8
0
 62
7
 10
4.493755415948606
 20
8.099999999999996
 30
0
 11
4.693755415948605
 21
8.299999999999997
 31
0
  0
LINE
  8
0
 62
7
 10
4.705887450304569
 20
8.099999999999996
 30
0
 11
4.860000000000003
 21
8.25411254969543
 31
0
  0
ENDBLK
  8
0
  0
BLOCK
  8
0
  2
*X9
 70
1
 10
0
 20
0
 30
0
  0
LINE
  8
0
 62
7
 10
4.579972952143093
 20
11.05
 30
0
 11
4.710000000000003
 21
11.18002704785691
 31
0
  0
LINE
  8
0
 62
7
 10
4.535000000000002
 20
11.11109306503489
 30
0
 11
4.623906934965108
 21
11.2
 31
0
  0
LINE
  8
0
 62
7
 10
4.686038969321075
 20
11.05
 30
0
 11
4.710000000000001
 21
11.07396103067893
 31
0
  0
ENDBLK
  8
0
  0
BLOCK
  8
0
  2
*X10
 70
1
 10
0
 20
0
 30
0
  0
LINE
  8
0
 62
7
 10
4.535000000000002
 20
10.79289501350094
 30
0
 11
4.592104986499054
 21
10.85
 31
0
  0
LINE
  8
0
 62
7
 10
4.535000000000002
 20
10.58076297914498
 30
0
 11
4.710000000000003
 21
10.75576297914498
 31
0
  0
LINE
  8
0
 62
7
 10
4.535000000000002
 20
10.36863094478901
 30
0
 11
4.710000000000003
 21
10.54363094478901
 31
0
  0
LINE
  8
0
 62
7
 10
4.535000000000002
 20
10.15649891043305
 30
0
 11
4.710000000000003
 21
10.33149891043305
 31
0
  0
LINE
  8
0
 62
7
 10
4.535000000000002
 20
9.944366876077087
 30
0
 11
4.710000000000003
 21
10.11936687607709
 31
0
  0
LINE
  8
0
 62
7
 10
4.535000000000002
 20
9.732234841721123
 30
0
 11
4.710000000000003
 21
9.907234841721122
 31
0
  0
LINE
  8
0
 62
7
 10
4.535000000000002
 20
9.520102807365159
 30
0
 11
4.710000000000003
 21
9.695102807365158
 31
0
  0
LINE
  8
0
 62
7
 10
4.535000000000002
 20
9.307970773009195
 30
0
 11
4.710000000000003
 21
9.482970773009194
 31
0
  0
LINE
  8
0
 62
7
 10
4.535000000000002
 20
9.095838738653232
 30
0
 11
4.710000000000003
 21
9.27083873865323
 31
0
  0
LINE
  8
0
 62
7
 10
4.535000000000002
 20
8.883706704297268
 30
0
 11
4.710000000000003
 21
9.058706704297267
 31
0
  0
LINE
  8
0
 62
7
 10
4.535000000000002
 20
8.671574669941304
 30
0
 11
4.710000000000003
 21
8.846574669941303
 31
0
  0
LINE
  8
0
 62
7
 10
4.535000000000002
 20
8.45944263558534
 30
0
 11
4.710000000000003
 21
8.634442635585339
 31
0
  0
LINE
  8
0
 62
7
 10
4.587689398770624
 20
8.299999999999997
 30
0
 11
4.710000000000003
 21
8.422310601229375
 31
0
  0
LINE
  8
0
 62
7
 10
4.535000000000002
 20
10.68682899632296
 30
0
 11
4.698171003677036
 21
10.85
 31
0
  0
LINE
  8
0
 62
7
 10
4.535000000000002
 20
10.474696961967
 30
0
 11
4.710000000000002
 21
10.649696961967
 31
0
  0
LINE
  8
0
 62
7
 10
4.535000000000002
 20
10.26256492761103
 30
0
 11
4.710000000000002
 21
10.43756492761103
 31
0
  0
LINE
  8
0
 62
7
 10
4.535000000000002
 20
10.05043289325507
 30
0
 11
4.710000000000002
 21
10.22543289325507
 31
0
  0
LINE
  8
0
 62
7
 10
4.535000000000002
 20
9.838300858899105
 30
0
 11
4.710000000000002
 21
10.0133008588991
 31
0
  0
LINE
  8
0
 62
7
 10
4.535000000000002
 20
9.626168824543141
 30
0
 11
4.710000000000002
 21
9.80116882454314
 31
0
  0
LINE
  8
0
 62
7
 10
4.535000000000002
 20
9.414036790187177
 30
0
 11
4.710000000000002
 21
9.589036790187176
 31
0
  0
LINE
  8
0
 62
7
 10
4.535000000000002
 20
9.201904755831213
 30
0
 11
4.710000000000002
 21
9.376904755831212
 31
0
  0
LINE
  8
0
 62
7
 10
4.535000000000002
 20
8.98977272147525
 30
0
 11
4.710000000000002
 21
9.164772721475249
 31
0
  0
LINE
  8
0
 62
7
 10
4.535000000000002
 20
8.777640687119286
 30
0
 11
4.710000000000002
 21
8.952640687119285
 31
0
  0
LINE
  8
0
 62
7
 10
4.535000000000002
 20
8.565508652763322
 30
0
 11
4.710000000000002
 21
8.740508652763321
 31
0
  0
LINE
  8
0
 62
7
 10
4.535000000000002
 20
8.353376618407358
 30
0
 11
4.710000000000002
 21
8.528376618407357
 31
0
  0
LINE
  8
0
 62
7
 10
4.693755415948605
 20
8.299999999999997
 30
0
 11
4.710000000000002
 21
8.316244584051393
 31
0
  0
ENDBLK
  8
0
  0
BLOCK
  8
0
  2
*X11
 70
1
 10
0
 20
0
 30
0
  0
LINE
  8
0
 62
7
 10
4.535000000000002
 20
8.035178566873412
 30
0
 11
4.599821433126586
 21
8.099999999999994
 31
0
  0
LINE
  8
0
 62
7
 10
4.661953467482553
 20
7.949999999999998
 30
0
 11
4.710000000000003
 21
7.998046532517447
 31
0
  0
LINE
  8
0
 62
7
 10
4.555887450304573
 20
7.949999999999998
 30
0
 11
4.705887450304568
 21
8.099999999999994
 31
0
  0
ENDBLK
  8
0
  0
BLOCK
  8
0
  2
*X12
 70
1
 10
0
 20
0
 30
0
  0
LINE
  8
0
 62
7
 10
1.100000000000001
 20
11.1762716319083
 30
0
 11
1.123728368091698
 21
11.2
 31
0
  0
LINE
  8
0
 62
7
 10
1.185860402447664
 20
11.05
 30
0
 11
1.275000000000002
 21
11.13913959755234
 31
0
  0
LINE
  8
0
 62
7
 10
1.1
 20
11.07020561473032
 30
0
 11
1.229794385269681
 21
11.2
 31
0
  0
ENDBLK
  8
0
  0
BLOCK
  8
0
  2
*X13
 70
1
 10
0
 20
0
 30
0
  0
LINE
  8
0
 62
7
 10
1.1
 20
10.75200756319637
 30
0
 11
1.197992436803626
 21
10.85
 31
0
  0
LINE
  8
0
 62
7
 10
1.1
 20
10.5398755288404
 30
0
 11
1.275000000000002
 21
10.71487552884041
 31
0
  0
LINE
  8
0
 62
7
 10
1.1
 20
10.32774349448444
 30
0
 11
1.275000000000002
 21
10.50274349448444
 31
0
  0
LINE
  8
0
 62
7
 10
1.1
 20
10.11561146012848
 30
0
 11
1.275000000000002
 21
10.29061146012848
 31
0
  0
LINE
  8
0
 62
7
 10
1.1
 20
9.903479425772513
 30
0
 11
1.275000000000002
 21
10.07847942577251
 31
0
  0
LINE
  8
0
 62
7
 10
1.1
 20
9.691347391416549
 30
0
 11
1.275000000000002
 21
9.86634739141655
 31
0
  0
LINE
  8
0
 62
7
 10
1.1
 20
9.479215357060585
 30
0
 11
1.275000000000002
 21
9.654215357060586
 31
0
  0
LINE
  8
0
 62
7
 10
1.1
 20
9.267083322704622
 30
0
 11
1.275000000000002
 21
9.442083322704622
 31
0
  0
LINE
  8
0
 62
7
 10
1.1
 20
9.054951288348658
 30
0
 11
1.275000000000002
 21
9.229951288348659
 31
0
  0
LINE
  8
0
 62
7
 10
1.1
 20
8.842819253992694
 30
0
 11
1.275000000000002
 21
9.017819253992695
 31
0
  0
LINE
  8
0
 62
7
 10
1.1
 20
8.63068721963673
 30
0
 11
1.275000000000002
 21
8.805687219636731
 31
0
  0
LINE
  8
0
 62
7
 10
1.1
 20
8.418555185280766
 30
0
 11
1.275000000000002
 21
8.593555185280767
 31
0
  0
LINE
  8
0
 62
7
 10
1.193576849075196
 20
8.299999999999997
 30
0
 11
1.275000000000002
 21
8.381423150924803
 31
0
  0
LINE
  8
0
 62
7
 10
1.100000000000001
 20
10.64594154601839
 30
0
 11
1.275000000000003
 21
10.82094154601839
 31
0
  0
LINE
  8
0
 62
7
 10
1.100000000000001
 20
10.43380951166242
 30
0
 11
1.275000000000003
 21
10.60880951166242
 31
0
  0
LINE
  8
0
 62
7
 10
1.100000000000001
 20
10.22167747730646
 30
0
 11
1.275000000000003
 21
10.39667747730646
 31
0
  0
LINE
  8
0
 62
7
 10
1.100000000000001
 20
10.0095454429505
 30
0
 11
1.275000000000003
 21
10.1845454429505
 31
0
  0
LINE
  8
0
 62
7
 10
1.100000000000001
 20
9.797413408594531
 30
0
 11
1.275000000000003
 21
9.972413408594532
 31
0
  0
LINE
  8
0
 62
7
 10
1.100000000000001
 20
9.585281374238567
 30
0
 11
1.275000000000003
 21
9.760281374238568
 31
0
  0
LINE
  8
0
 62
7
 10
1.100000000000001
 20
9.373149339882604
 30
0
 11
1.275000000000003
 21
9.548149339882604
 31
0
  0
LINE
  8
0
 62
7
 10
1.100000000000001
 20
9.16101730552664
 30
0
 11
1.275000000000003
 21
9.33601730552664
 31
0
  0
LINE
  8
0
 62
7
 10
1.100000000000001
 20
8.948885271170676
 30
0
 11
1.275000000000003
 21
9.123885271170677
 31
0
  0
LINE
  8
0
 62
7
 10
1.100000000000001
 20
8.736753236814712
 30
0
 11
1.275000000000003
 21
8.911753236814713
 31
0
  0
LINE
  8
0
 62
7
 10
1.100000000000001
 20
8.524621202458748
 30
0
 11
1.275000000000003
 21
8.699621202458749
 31
0
  0
LINE
  8
0
 62
7
 10
1.100000000000001
 20
8.312489168102784
 30
0
 11
1.275000000000003
 21
8.487489168102785
 31
0
  0
ENDBLK
  8
0
  0
BLOCK
  8
0
  2
*X14
 70
1
 10
0
 20
0
 30
0
  0
LINE
  8
0
 62
7
 10
1.1
 20
7.994291116568838
 30
0
 11
1.205708883431158
 21
8.099999999999996
 31
0
  0
LINE
  8
0
 62
7
 10
1.267840917787124
 20
7.949999999999998
 30
0
 11
1.275000000000002
 21
7.957159082212875
 31
0
  0
LINE
  8
0
 62
7
 10
1.161774900609143
 20
7.949999999999999
 30
0
 11
1.275000000000002
 21
8.063225099390857
 31
0
  0
ENDBLK
  8
0
  0
BLOCK
  8
0
  2
*X15
 70
1
 10
0
 20
0
 30
0
  0
LINE
  8
0
 62
7
 10
0.9350000000000001
 20
5.071574669941302
 30
0
 11
1.275000000000002
 21
5.411574669941304
 31
0
  0
LINE
  8
0
 62
7
 10
1.105557364414666
 20
5.030000000000002
 30
0
 11
1.345557364414661
 21
5.269999999999999
 31
0
  0
LINE
  8
0
 62
7
 10
1.31768939877063
 20
5.030000000000002
 30
0
 11
1.557689398770625
 21
5.269999999999999
 31
0
  0
LINE
  8
0
 62
7
 10
1.529821433126594
 20
5.030000000000002
 30
0
 11
1.76982143312659
 21
5.269999999999999
 31
0
  0
LINE
  8
0
 62
7
 10
1.741953467482559
 20
5.030000000000002
 30
0
 11
1.981953467482554
 21
5.269999999999999
 31
0
  0
LINE
  8
0
 62
7
 10
1.954085501838523
 20
5.030000000000002
 30
0
 11
2.194085501838518
 21
5.269999999999999
 31
0
  0
LINE
  8
0
 62
7
 10
2.166217536194487
 20
5.030000000000002
 30
0
 11
2.406217536194482
 21
5.269999999999999
 31
0
  0
LINE
  8
0
 62
7
 10
2.378349570550451
 20
5.030000000000002
 30
0
 11
2.618349570550447
 21
5.269999999999999
 31
0
  0
LINE
  8
0
 62
7
 10
2.590481604906416
 20
5.030000000000002
 30
0
 11
2.830481604906411
 21
5.269999999999999
 31
0
  0
LINE
  8
0
 62
7
 10
2.80261363926238
 20
5.030000000000002
 30
0
 11
3.042613639262375
 21
5.269999999999999
 31
0
  0
LINE
  8
0
 62
7
 10
3.014745673618344
 20
5.030000000000002
 30
0
 11
3.25474567361834
 21
5.269999999999999
 31
0
  0
LINE
  8
0
 62
7
 10
3.226877707974309
 20
5.030000000000002
 30
0
 11
3.466877707974304
 21
5.269999999999999
 31
0
  0
LINE
  8
0
 62
7
 10
3.439009742330273
 20
5.030000000000002
 30
0
 11
3.679009742330268
 21
5.269999999999999
 31
0
  0
LINE
  8
0
 62
7
 10
3.651141776686237
 20
5.030000000000002
 30
0
 11
3.891141776686232
 21
5.269999999999999
 31
0
  0
LINE
  8
0
 62
7
 10
3.863273811042201
 20
5.030000000000002
 30
0
 11
4.103273811042197
 21
5.269999999999999
 31
0
  0
LINE
  8
0
 62
7
 10
4.075405845398166
 20
5.030000000000002
 30
0
 11
4.315405845398161
 21
5.269999999999999
 31
0
  0
LINE
  8
0
 62
7
 10
4.535000000000003
 20
5.277462120245877
 30
0
 11
4.677537879754123
 21
5.419999999999997
 31
0
  0
LINE
  8
0
 62
7
 10
4.287537879754129
 20
5.030000000000002
 30
0
 11
4.527537879754124
 21
5.269999999999999
 31
0
  0
LINE
  8
0
 62
7
 10
4.499669914110093
 20
5.030000000000002
 30
0
 11
4.739669914110088
 21
5.269999999999999
 31
0
  0
LINE
  8
0
 62
7
 10
4.711801948466057
 20
5.030000000000002
 30
0
 11
4.860000000000002
 21
5.178198051533948
 31
0
  0
LINE
  8
0
 62
7
 10
1.1
 20
5.342640687119285
 30
0
 11
1.177359312880713
 21
5.419999999999998
 31
0
  0
LINE
  8
0
 62
7
 10
0.9349999999999996
 20
5.177640687119284
 30
0
 11
1.027359312880714
 21
5.269999999999999
 31
0
  0
LINE
  8
0
 62
7
 10
0.9994913472366824
 20
5.030000000000001
 30
0
 11
1.275000000000002
 21
5.305508652763322
 31
0
  0
LINE
  8
0
 62
7
 10
1.211623381592647
 20
5.030000000000001
 30
0
 11
1.451623381592643
 21
5.269999999999999
 31
0
  0
LINE
  8
0
 62
7
 10
1.423755415948611
 20
5.030000000000001
 30
0
 11
1.663755415948607
 21
5.269999999999999
 31
0
  0
LINE
  8
0
 62
7
 10
1.635887450304575
 20
5.030000000000001
 30
0
 11
1.875887450304571
 21
5.269999999999999
 31
0
  0
LINE
  8
0
 62
7
 10
1.84801948466054
 20
5.030000000000001
 30
0
 11
2.088019484660536
 21
5.269999999999999
 31
0
  0
LINE
  8
0
 62
7
 10
2.060151519016504
 20
5.030000000000001
 30
0
 11
2.3001515190165
 21
5.269999999999999
 31
0
  0
LINE
  8
0
 62
7
 10
2.272283553372468
 20
5.030000000000001
 30
0
 11
2.512283553372464
 21
5.269999999999999
 31
0
  0
LINE
  8
0
 62
7
 10
2.484415587728432
 20
5.030000000000001
 30
0
 11
2.724415587728429
 21
5.269999999999999
 31
0
  0
LINE
  8
0
 62
7
 10
2.696547622084397
 20
5.030000000000001
 30
0
 11
2.936547622084393
 21
5.269999999999999
 31
0
  0
LINE
  8
0
 62
7
 10
2.908679656440361
 20
5.030000000000001
 30
0
 11
3.148679656440357
 21
5.269999999999999
 31
0
  0
LINE
  8
0
 62
7
 10
3.120811690796325
 20
5.030000000000001
 30
0
 11
3.360811690796321
 21
5.269999999999999
 31
0
  0
LINE
  8
0
 62
7
 10
3.33294372515229
 20
5.030000000000001
 30
0
 11
3.572943725152286
 21
5.269999999999999
 31
0
  0
LINE
  8
0
 62
7
 10
3.545075759508254
 20
5.030000000000001
 30
0
 11
3.78507575950825
 21
5.269999999999999
 31
0
  0
LINE
  8
0
 62
7
 10
3.757207793864218
 20
5.030000000000001
 30
0
 11
3.997207793864214
 21
5.269999999999999
 31
0
  0
LINE
  8
0
 62
7
 10
3.969339828220182
 20
5.030000000000001
 30
0
 11
4.209339828220179
 21
5.269999999999999
 31
0
  0
LINE
  8
0
 62
7
 10
4.535000000000002
 20
5.383528137423858
 30
0
 11
4.571471862576142
 21
5.419999999999998
 31
0
  0
LINE
  8
0
 62
7
 10
4.181471862576147
 20
5.030000000000001
 30
0
 11
4.421471862576142
 21
5.269999999999999
 31
0
  0
LINE
  8
0
 62
7
 10
4.393603896932111
 20
5.030000000000001
 30
0
 11
4.710000000000002
 21
5.346396103067894
 31
0
  0
LINE
  8
0
 62
7
 10
4.605735931288074
 20
5.030000000000001
 30
0
 11
4.845735931288072
 21
5.269999999999999
 31
0
  0
LINE
  8
0
 62
7
 10
4.817867965644038
 20
5.030000000000001
 30
0
 11
4.860000000000003
 21
5.072132034355966
 31
0
  0
ENDBLK
  8
0
  0
BLOCK
  8
0
  2
*X16
 70
1
 10
0
 20
0
 30
0
  0
LINE
  8
0
 62
7
 10
0.9349999999999996
 20
4.859442635585339
 30
0
 11
1.065557364414664
 21
4.99
 31
0
  0
LINE
  8
0
 62
7
 10
1.037689398770627
 20
4.750000000000001
 30
0
 11
1.277689398770628
 21
4.99
 31
0
  0
LINE
  8
0
 62
7
 10
1.1
 20
4.600178566873409
 30
0
 11
1.489821433126592
 21
4.99
 31
0
  0
LINE
  8
0
 62
7
 10
1.461953467482555
 20
4.75
 30
0
 11
1.701953467482557
 21
4.99
 31
0
  0
LINE
  8
0
 62
7
 10
1.1
 20
4.388046532517445
 30
0
 11
1.275000000000002
 21
4.563046532517446
 31
0
  0
LINE
  8
0
 62
7
 10
1.674085501838519
 20
4.75
 30
0
 11
1.914085501838521
 21
4.99
 31
0
  0
LINE
  8
0
 62
7
 10
1.1
 20
4.175914498161482
 30
0
 11
1.275000000000002
 21
4.350914498161482
 31
0
  0
LINE
  8
0
 62
7
 10
1.886217536194484
 20
4.75
 30
0
 11
2.126217536194485
 21
4.99
 31
0
  0
LINE
  8
0
 62
7
 10
1.1
 20
3.963782463805518
 30
0
 11
1.275000000000002
 21
4.138782463805518
 31
0
  0
LINE
  8
0
 62
7
 10
2.098349570550448
 20
4.75
 30
0
 11
2.33834957055045
 21
4.99
 31
0
  0
LINE
  8
0
 62
7
 10
1.1
 20
3.751650429449553
 30
0
 11
1.275000000000002
 21
3.926650429449555
 31
0
  0
LINE
  8
0
 62
7
 10
2.310481604906412
 20
4.75
 30
0
 11
2.550481604906414
 21
4.99
 31
0
  0
LINE
  8
0
 62
7
 10
1.1
 20
3.539518395093589
 30
0
 11
1.275000000000002
 21
3.71451839509359
 31
0
  0
LINE
  8
0
 62
7
 10
2.522613639262377
 20
4.75
 30
0
 11
2.762613639262378
 21
4.99
 31
0
  0
LINE
  8
0
 62
7
 10
1.172613639262376
 20
3.4
 30
0
 11
1.275000000000002
 21
3.502386360737626
 31
0
  0
LINE
  8
0
 62
7
 10
2.734745673618341
 20
4.75
 30
0
 11
2.974745673618342
 21
4.99
 31
0
  0
LINE
  8
0
 62
7
 10
2.946877707974305
 20
4.75
 30
0
 11
3.186877707974307
 21
4.99
 31
0
  0
LINE
  8
0
 62
7
 10
3.159009742330269
 20
4.75
 30
0
 11
3.399009742330271
 21
4.99
 31
0
  0
LINE
  8
0
 62
7
 10
3.371141776686234
 20
4.75
 30
0
 11
3.611141776686235
 21
4.99
 31
0
  0
LINE
  8
0
 62
7
 10
3.583273811042198
 20
4.75
 30
0
 11
3.8232738110422
 21
4.99
 31
0
  0
LINE
  8
0
 62
7
 10
3.795405845398162
 20
4.75
 30
0
 11
4.035405845398164
 21
4.99
 31
0
  0
LINE
  8
0
 62
7
 10
4.007537879754127
 20
4.75
 30
0
 11
4.247537879754128
 21
4.99
 31
0
  0
LINE
  8
0
 62
7
 10
4.21966991411009
 20
4.75
 30
0
 11
4.459669914110092
 21
4.99
 31
0
  0
LINE
  8
0
 62
7
 10
4.431801948466054
 20
4.75
 30
0
 11
4.671801948466055
 21
4.99
 31
0
  0
LINE
  8
0
 62
7
 10
4.535000000000002
 20
4.641066017177982
 30
0
 11
4.860000000000003
 21
4.966066017177984
 31
0
  0
LINE
  8
0
 62
7
 10
4.856066017177983
 20
4.75
 30
0
 11
4.860000000000003
 21
4.75393398282202
 31
0
  0
LINE
  8
0
 62
7
 10
4.535000000000002
 20
4.428933982822018
 30
0
 11
4.710000000000002
 21
4.603933982822018
 31
0
  0
LINE
  8
0
 62
7
 10
4.535000000000002
 20
4.216801948466054
 30
0
 11
4.710000000000002
 21
4.391801948466054
 31
0
  0
LINE
  8
0
 62
7
 10
4.535000000000002
 20
4.004669914110091
 30
0
 11
4.710000000000002
 21
4.17966991411009
 31
0
  0
LINE
  8
0
 62
7
 10
4.535000000000002
 20
3.792537879754126
 30
0
 11
4.710000000000002
 21
3.967537879754127
 31
0
  0
LINE
  8
0
 62
7
 10
4.535000000000002
 20
3.580405845398162
 30
0
 11
4.710000000000002
 21
3.755405845398162
 31
0
  0
LINE
  8
0
 62
7
 10
4.535000000000002
 20
3.368273811042198
 30
0
 11
4.710000000000002
 21
3.543273811042198
 31
0
  0
LINE
  8
0
 62
7
 10
4.678858223313767
 20
3.3
 30
0
 11
4.710000000000002
 21
3.331141776686234
 31
0
  0
LINE
  8
0
 62
7
 10
0.9350000000000003
 20
4.965508652763321
 30
0
 11
0.9594913472366815
 21
4.99
 31
0
  0
LINE
  8
0
 62
7
 10
0.9350000000000003
 20
4.753376618407357
 30
0
 11
1.171623381592646
 21
4.99
 31
0
  0
LINE
  8
0
 62
7
 10
1.1
 20
4.70624458405139
 30
0
 11
1.38375541594861
 21
4.99
 31
0
  0
LINE
  8
0
 62
7
 10
1.355887450304571
 20
4.75
 30
0
 11
1.595887450304574
 21
4.99
 31
0
  0
LINE
  8
0
 62
7
 10
1.1
 20
4.494112549695426
 30
0
 11
1.275000000000002
 21
4.669112549695428
 31
0
  0
LINE
  8
0
 62
7
 10
1.568019484660535
 20
4.75
 30
0
 11
1.808019484660539
 21
4.99
 31
0
  0
LINE
  8
0
 62
7
 10
1.1
 20
4.281980515339463
 30
0
 11
1.275000000000002
 21
4.456980515339464
 31
0
  0
LINE
  8
0
 62
7
 10
1.7801515190165
 20
4.75
 30
0
 11
2.020151519016503
 21
4.99
 31
0
  0
LINE
  8
0
 62
7
 10
1.1
 20
4.069848480983499
 30
0
 11
1.275000000000002
 21
4.2448484809835
 31
0
  0
LINE
  8
0
 62
7
 10
1.992283553372464
 20
4.75
 30
0
 11
2.232283553372467
 21
4.99
 31
0
  0
LINE
  8
0
 62
7
 10
1.1
 20
3.857716446627535
 30
0
 11
1.275000000000002
 21
4.032716446627536
 31
0
  0
LINE
  8
0
 62
7
 10
2.204415587728428
 20
4.75
 30
0
 11
2.444415587728431
 21
4.99
 31
0
  0
LINE
  8
0
 62
7
 10
1.1
 20
3.645584412271571
 30
0
 11
1.275000000000002
 21
3.820584412271573
 31
0
  0
LINE
  8
0
 62
7
 10
2.416547622084392
 20
4.75
 30
0
 11
2.656547622084396
 21
4.99
 31
0
  0
LINE
  8
0
 62
7
 10
1.1
 20
3.433452377915606
 30
0
 11
1.275000000000002
 21
3.608452377915608
 31
0
  0
LINE
  8
0
 62
7
 10
2.628679656440357
 20
4.75
 30
0
 11
2.86867965644036
 21
4.99
 31
0
  0
LINE
  8
0
 62
7
 10
2.840811690796321
 20
4.75
 30
0
 11
3.080811690796324
 21
4.99
 31
0
  0
LINE
  8
0
 62
7
 10
3.052943725152285
 20
4.75
 30
0
 11
3.292943725152289
 21
4.99
 31
0
  0
LINE
  8
0
 62
7
 10
3.26507575950825
 20
4.75
 30
0
 11
3.505075759508253
 21
4.99
 31
0
  0
LINE
  8
0
 62
7
 10
3.477207793864214
 20
4.75
 30
0
 11
3.717207793864217
 21
4.99
 31
0
  0
LINE
  8
0
 62
7
 10
3.689339828220178
 20
4.75
 30
0
 11
3.929339828220181
 21
4.99
 31
0
  0
LINE
  8
0
 62
7
 10
3.901471862576142
 20
4.75
 30
0
 11
4.141471862576146
 21
4.99
 31
0
  0
LINE
  8
0
 62
7
 10
4.113603896932107
 20
4.75
 30
0
 11
4.35360389693211
 21
4.99
 31
0
  0
LINE
  8
0
 62
7
 10
4.325735931288071
 20
4.75
 30
0
 11
4.565735931288073
 21
4.99
 31
0
  0
LINE
  8
0
 62
7
 10
4.535000000000002
 20
4.747132034355964
 30
0
 11
4.777867965644037
 21
4.99
 31
0
  0
LINE
  8
0
 62
7
 10
4.75
 20
4.75
 30
0
 11
4.860000000000002
 21
4.860000000000002
 31
0
  0
LINE
  8
0
 62
7
 10
4.535000000000002
 20
4.535
 30
0
 11
4.710000000000002
 21
4.71
 31
0
  0
LINE
  8
0
 62
7
 10
4.535000000000002
 20
4.322867965644036
 30
0
 11
4.710000000000002
 21
4.497867965644036
 31
0
  0
LINE
  8
0
 62
7
 10
4.535000000000002
 20
4.110735931288072
 30
0
 11
4.710000000000002
 21
4.285735931288072
 31
0
  0
LINE
  8
0
 62
7
 10
4.535000000000002
 20
3.898603896932109
 30
0
 11
4.710000000000002
 21
4.073603896932108
 31
0
  0
LINE
  8
0
 62
7
 10
4.535000000000002
 20
3.686471862576144
 30
0
 11
4.710000000000002
 21
3.861471862576144
 31
0
  0
LINE
  8
0
 62
7
 10
4.535000000000002
 20
3.47433982822018
 30
0
 11
4.710000000000002
 21
3.64933982822018
 31
0
  0
LINE
  8
0
 62
7
 10
4.572792206135786
 20
3.3
 30
0
 11
4.710000000000002
 21
3.437207793864216
 31
0
  0
ENDBLK
  8
0
  0
BLOCK
  8
0
  2
*D0
 70
1
 10
0
 20
0
 30
0
  0
LINE
  8
0
 62
7
 10
0.7242912011014742
 20
4.447727637256571
 30
0
 11
0.7242912011014742
 21
4.75
 31
0
  0
LINE
  8
0
 62
7
 10
0.7242912011014742
 20
3.4
 30
0
 11
0.7242912011014742
 21
3.70272763725657
 31
0
  0
LINE
  8
0
 62
7
 10
1.1
 20
4.75
 30
0
 11
0.6742912011014741
 21
4.75
 31
0
  0
LINE
  8
0
 62
7
 10
1.1
 20
3.4
 30
0
 11
0.6742912011014741
 21
3.4
 31
0
  0
LINE
  8
0
 62
7
 10
0.7596465401608016
 20
4.714644660940673
 30
0
 11
0.6889358620421467
 21
4.785355339059327
 31
0
  0
LINE
  8
0
 62
7
 10
0.6889358620421467
 20
3.435355339059327
 30
0
 11
0.7596465401608016
 21
3.364644660940673
 31
0
  0
TEXT
  8
0
 62
7
 10
0.7692912011014742
 20
3.95272763725657
 30
0
 40
0.1
  1
1,35
 50
90
 41
0.9
  0
ENDBLK
  8
0
  0
BLOCK
  8
0
  2
*D1
 70
1
 10
0
 20
0
 30
0
  0
LINE
  8
0
 62
7
 10
3.30174159285756
 20
5.6548639854085
 30
0
 11
4.535000000000001
 21
5.6548639854085
 31
0
  0
LINE
  8
0
 62
7
 10
1.275000000000002
 20
5.6548639854085
 30
0
 11
2.52674159285756
 21
5.6548639854085
 31
0
  0
LINE
  8
0
 62
7
 10
4.535000000000001
 20
5.269999999999998
 30
0
 11
4.535000000000001
 21
5.7048639854085
 31
0
  0
LINE
  8
0
 62
7
 10
1.275000000000002
 20
5.269999999999998
 30
0
 11
1.275000000000002
 21
5.7048639854085
 31
0
  0
LINE
  8
0
 62
7
 10
4.499644660940674
 20
5.619508646349173
 30
0
 11
4.570355339059328
 21
5.690219324467828
 31
0
  0
LINE
  8
0
 62
7
 10
1.310355339059329
 20
5.690219324467828
 30
0
 11
1.239644660940675
 21
5.619508646349173
 31
0
  0
TEXT
  8
0
 62
7
 10
2.77674159285756
 20
5.6098639854085
 30
0
 40
0.1
  1
3,26
 41
0.9
  0
ENDBLK
  8
0
  0
BLOCK
  8
0
  2
*D2
 70
1
 10
0
 20
0
 30
0
  0
LINE
  8
0
 62
7
 10
5.10419198461364
 20
4.3878929270993
 30
0
 11
5.10419198461364
 21
4.75
 31
0
  0
LINE
  8
0
 62
7
 10
5.10419198461364
 20
3.3
 30
0
 11
5.10419198461364
 21
3.6428929270993
 31
0
  0
LINE
  8
0
 62
7
 10
4.710000000000002
 20
4.75
 30
0
 11
5.154191984613639
 21
4.75
 31
0
  0
LINE
  8
0
 62
7
 10
4.710000000000002
 20
3.3
 30
0
 11
5.154191984613639
 21
3.3
 31
0
  0
LINE
  8
0
 62
7
 10
5.068836645554312
 20
3.335355339059328
 30
0
 11
5.139547323672967
 21
3.264644660940673
 31
0
  0
LINE
  8
0
 62
7
 10
5.139547323672967
 20
4.714644660940673
 30
0
 11
5.068836645554312
 21
4.785355339059327
 31
0
  0
TEXT
  8
0
 62
7
 10
5.14919198461364
 20
3.8928929270993
 30
0
 40
0.1
  1
1,45
 50
90
 41
0.9
  0
ENDBLK
  8
0
  0
BLOCK
  8
0
  2
*D3
 70
1
 10
0
 20
0
 30
0
  0
LINE
  8
0
 62
7
 10
3.179939940668831
 20
11.5306325228524
 30
0
 11
4.535000000000002
 21
11.5306325228524
 31
0
  0
LINE
  8
0
 62
7
 10
1.275000000000003
 20
11.5306325228524
 30
0
 11
2.504939940668831
 21
11.5306325228524
 31
0
  0
LINE
  8
0
 62
7
 10
4.535000000000002
 20
11.2
 30
0
 11
4.535000000000002
 21
11.5806325228524
 31
0
  0
LINE
  8
0
 62
7
 10
1.275000000000003
 20
11.2
 30
0
 11
1.275000000000003
 21
11.5806325228524
 31
0
  0
LINE
  8
0
 62
7
 10
1.31035533905933
 20
11.56598786191173
 30
0
 11
1.239644660940676
 21
11.49527718379307
 31
0
  0
LINE
  8
0
 62
7
 10
4.499644660940675
 20
11.49527718379307
 30
0
 11
4.570355339059329
 21
11.56598786191173
 31
0
  0
TEXT
  8
0
 62
7
 10
2.704939940668831
 20
11.4856325228524
 30
0
 40
0.1
  1
3,26
 41
0.9
  0
ENDBLK
  8
0
  0
BLOCK
  8
0
  2
*D4
 70
1
 10
0
 20
0
 30
0
  0
LINE
  8
0
 62
7
 10
0.6405226068812961
 20
10.16788873985123
 30
0
 11
0.6405226068812961
 21
11.05
 31
0
  0
LINE
  8
0
 62
7
 10
0.6405226068812961
 20
8.299999999999997
 30
0
 11
0.6405226068812961
 21
9.087888739851229
 31
0
  0
LINE
  8
0
 62
7
 10
0.9500000000000002
 20
11.05
 30
0
 11
0.5905226068812961
 21
11.05
 31
0
  0
LINE
  8
0
 62
7
 10
0.9500000000000002
 20
8.299999999999997
 30
0
 11
0.5905226068812961
 21
8.299999999999997
 31
0
  0
LINE
  8
0
 62
7
 10
0.6051672678219687
 20
8.335355339059324
 30
0
 11
0.6758779459406236
 21
8.26464466094067
 31
0
  0
LINE
  8
0
 62
7
 10
0.6758779459406236
 20
11.01464466094067
 30
0
 11
0.6051672678219687
 21
11.08535533905933
 31
0
  0
TEXT
  8
0
 62
7
 10
0.6105226068812961
 20
9.49038873985123
 30
0
 40
0.1
  1
2,75
 50
90
 41
0.9
  0
TEXT
  8
0
 62
7
 10
0.7705226068812961
 20
9.28788873985123
 30
0
 40
0.1
  1
(260-280)
 50
90
 41
0.9
  0
ENDBLK
  8
0
  0
ENDSEC
  0
SECTION
  2
ENTITIES
  0
INSERT
  8
0
  2
*X0
 10
0
 20
0
 30
0
  0
INSERT
  8
0
  2
*X1
 10
0
 20
0
 30
0
  0
INSERT
  8
0
  2
*X2
 10
0
 20
0
 30
0
  0
INSERT
  8
0
  2
*X3
 10
0
 20
0
 30
0
  0
INSERT
  8
0
  2
*X4
 10
0
 20
0
 30
0
  0
INSERT
  8
0
  2
*X5
 10
0
 20
0
 30
0
  0
INSERT
  8
0
  2
*X6
 10
0
 20
0
 30
0
  0
INSERT
  8
0
  2
*X7
 10
0
 20
0
 30
0
  0
INSERT
  8
0
  2
*X8
 10
0
 20
0
 30
0
  0
INSERT
  8
0
  2
*X9
 10
0
 20
0
 30
0
  0
INSERT
  8
0
  2
*X10
 10
0
 20
0
 30
0
  0
INSERT
  8
0
  2
*X11
 10
0
 20
0
 30
0
  0
INSERT
  8
0
  2
*X12
 10
0
 20
0
 30
0
  0
INSERT
  8
0
  2
*X13
 10
0
 20
0
 30
0
  0
INSERT
  8
0
  2
*X14
 10
0
 20
0
 30
0
  0
INSERT
  8
0
  2
*X15
 10
0
 20
0
 30
0
  0
INSERT
  8
0
  2
*X16
 10
0
 20
0
 30
0
  0
LINE
  8
0
 62
7
 10
2.280000000000002
 20
3.5513159102595
 30
0
 11
2.280000000000002
 21
3.698981833730008
 31
0
  0
LINE
  8
0
 62
7
 10
2.280000000000002
 20
3.698981833730008
 30
0
 11
2.346337876051546
 21
3.745000000000001
 31
0
  0
LINE
  8
0
 62
7
 10
2.451623185738683
 20
3.745000000000001
 30
0
 11
2.560888046347372
 21
3.745000000000001
 31
0
  0
LINE
  8
0
 62
7
 10
2.346337876051546
 20
3.745000000000001
 30
0
 11
2.560888046347372
 21
3.745000000000001
 31
0
  0
LINE
  8
0
 62
7
 10
3.458952033373205
 20
3.745267413805892
 30
0
 11
3.530000000000003
 21
3.703025278773466
 31
0
  0
LINE
  8
0
 62
7
 10
3.530000000000003
 20
3.65
 30
0
 11
3.530000000000003
 21
3.56
 31
0
  0
LINE
  8
0
 62
7
 10
3.530000000000003
 20
3.703025278773466
 30
0
 11
3.530000000000003
 21
3.56
 31
0
  0
LINE
  8
0
 62
7
 10
4.480000000000002
 20
3.300000000000002
 30
0
 11
4.480000000000002
 21
3.65
 31
0
  0
LINE
  8
0
 62
7
 10
3.530000000000003
 20
3.56
 30
0
 11
3.530000000000003
 21
3.300000000000002
 31
0
  0
LINE
  8
0
 62
7
 10
3.530000000000003
 20
3.300000000000002
 30
0
 11
4.480000000000002
 21
3.300000000000002
 31
0
  0
LINE
  8
0
 62
7
 10
4.480000000000002
 20
3.56
 30
0
 11
4.480000000000002
 21
4.03030166437755
 31
0
  0
LINE
  8
0
 62
7
 10
3.530000000000003
 20
3.56
 30
0
 11
4.480000000000002
 21
3.56
 31
0
  0
LINE
  8
0
 62
7
 10
4.480000000000002
 20
3.93695373955747
 30
0
 11
4.480000000000002
 21
4.49917566050886
 31
0
  0
LINE
  8
0
 62
7
 10
3.530000000000003
 20
3.703025278773466
 30
0
 11
3.561721529444412
 21
3.684164990522511
 31
0
  0
LINE
  8
0
 62
7
 10
3.561721529444412
 20
3.684164990522511
 30
0
 11
4.480000000000002
 21
3.93695373955747
 31
0
  0
LINE
  8
0
 62
7
 10
4.480000000000002
 20
4.392604349546821
 30
0
 11
4.480000000000002
 21
4.695
 31
0
  0
LINE
  8
0
 62
7
 10
4.480000000000002
 20
4.695
 30
0
 11
4.038189448138783
 21
4.695
 31
0
  0
LINE
  8
0
 62
7
 10
3.226410698513873
 20
3.745000000000001
 30
0
 11
3.458793040362782
 21
3.745000000000001
 31
0
  0
LINE
  8
0
 62
7
 10
3.458793040362782
 20
3.745000000000001
 30
0
 11
4.480000000000002
 21
4.392604349546821
 31
0
  0
LINE
  8
0
 62
7
 10
4.156572021445352
 20
4.695
 30
0
 11
3.618520557890063
 21
4.695
 31
0
  0
LINE
  8
0
 62
7
 10
3.120104596539843
 20
3.745000000000001
 30
0
 11
3.344793271820443
 21
3.745000000000001
 31
0
  0
LINE
  8
0
 62
7
 10
3.344793271820443
 20
3.745000000000001
 30
0
 11
4.156572021445352
 21
4.695
 31
0
  0
LINE
  8
0
 62
7
 10
3.720155064709794
 20
4.695
 30
0
 11
3.259048386249213
 21
4.695
 31
0
  0
LINE
  8
0
 62
7
 10
3.004934547222034
 20
3.745000000000001
 30
0
 11
3.221739103359574
 21
3.745000000000001
 31
0
  0
LINE
  8
0
 62
7
 10
3.221739103359574
 20
3.745000000000001
 30
0
 11
3.720155064709794
 21
4.695
 31
0
  0
LINE
  8
0
 62
7
 10
3.352212514079933
 20
4.695
 30
0
 11
2.891875000632792
 21
4.69499999999993
 31
0
  0
LINE
  8
0
 62
7
 10
2.887481530644932
 20
3.74499999999993
 30
0
 11
3.098098675052752
 21
3.745000000000001
 31
0
  0
LINE
  8
0
 62
7
 10
3.098098675052752
 20
3.745000000000001
 30
0
 11
3.352212514079933
 21
4.695
 31
0
  0
LINE
  8
0
 62
7
 10
2.981875963083092
 20
4.695
 30
0
 11
2.576726766161133
 21
4.695
 31
0
  0
LINE
  8
0
 62
7
 10
2.695562824407344
 20
3.745000000000001
 30
0
 11
2.977482493095222
 21
3.745000000000001
 31
0
  0
LINE
  8
0
 62
7
 10
2.977482493095222
 20
3.745000000000001
 30
0
 11
2.981875963083092
 21
4.695
 31
0
  0
LINE
  8
0
 62
7
 10
2.667428177431393
 20
4.695
 30
0
 11
2.195530317988303
 21
4.695
 31
0
  0
LINE
  8
0
 62
7
 10
2.574633251189844
 20
3.745000000000001
 30
0
 11
2.786264235677602
 21
3.745000000000001
 31
0
  0
LINE
  8
0
 62
7
 10
2.786264235677602
 20
3.745000000000001
 30
0
 11
2.667428177431393
 21
4.695
 31
0
  0
LINE
  8
0
 62
7
 10
2.292431753904654
 20
4.695
 30
0
 11
1.797620711712352
 21
4.695
 31
0
  0
LINE
  8
0
 62
7
 10
2.560888046347372
 20
3.745000000000001
 30
0
 11
2.671534687106194
 21
3.745000000000001
 31
0
  0
LINE
  8
0
 62
7
 10
2.671534687106194
 20
3.745000000000001
 30
0
 11
2.292431753904654
 21
4.695
 31
0
  0
LINE
  8
0
 62
7
 10
1.906885572321053
 20
4.695
 30
0
 11
1.330000000000002
 21
4.695
 31
0
  0
LINE
  8
0
 62
7
 10
1.330000000000002
 20
4.695
 30
0
 11
1.330000000000002
 21
4.569191850745731
 31
0
  0
LINE
  8
0
 62
7
 10
2.560888046347372
 20
3.745000000000001
 30
0
 11
1.906885572321053
 21
4.695
 31
0
  0
LINE
  8
0
 62
7
 10
1.330000000000002
 20
4.68562034201204
 30
0
 11
1.330000000000002
 21
4.072627260931561
 31
0
  0
LINE
  8
0
 62
7
 10
2.346337876051546
 20
3.745000000000001
 30
0
 11
2.416678925125481
 21
3.79379514215039
 31
0
  0
LINE
  8
0
 62
7
 10
2.416678925125481
 20
3.79379514215039
 30
0
 11
1.330000000000002
 21
4.68562034201204
 31
0
  0
LINE
  8
0
 62
7
 10
1.330000000000002
 20
4.170928601783872
 30
0
 11
1.330000000000002
 21
3.672874659697969
 31
0
  0
LINE
  8
0
 62
7
 10
2.280000000000002
 20
3.698981833730008
 30
0
 11
2.280000000000002
 21
3.753596372454549
 31
0
  0
LINE
  8
0
 62
7
 10
2.280000000000002
 20
3.753596372454549
 30
0
 11
1.330000000000002
 21
4.170928601783872
 31
0
  0
LINE
  8
0
 62
7
 10
1.330000000000002
 20
3.763608448201222
 30
0
 11
1.330000000000002
 21
3.44
 31
0
  0
LINE
  8
0
 62
7
 10
2.280000000000002
 20
3.44
 30
0
 11
2.280000000000002
 21
3.642049698762739
 31
0
  0
LINE
  8
0
 62
7
 10
2.280000000000002
 20
3.642049698762739
 30
0
 11
1.330000000000002
 21
3.763608448201222
 31
0
  0
LINE
  8
0
 62
7
 10
1.749748392372832
 20
3.45
 30
0
 11
1.749748392372832
 21
3.74499999998991
 31
0
  0
LINE
  8
0
 62
7
 10
1.749748392372832
 20
3.45
 30
0
 11
1.644093293111131
 21
3.511
 31
0
  0
LINE
  8
0
 62
7
 10
1.644093293111131
 20
3.511
 30
0
 11
1.855403491634534
 21
3.511
 31
0
  0
LINE
  8
0
 62
7
 10
1.855403491634534
 20
3.511
 30
0
 11
1.749748392372832
 21
3.45
 31
0
  0
LINE
  8
0
 62
7
 10
2.279999999940232
 20
4.275251607627172
 30
0
 11
3.529999999989912
 21
4.275251607627172
 31
0
  0
LINE
  8
0
 62
7
 10
4.060251607627172
 20
3.745000000016521
 30
0
 11
4.060251607627172
 21
3.300000000000002
 31
0
  0
LINE
  8
0
 62
7
 10
6.510000270000003
 20
8.583333226666666
 30
0
 11
6.860000270000002
 21
8.583333226666666
 31
0
  0
LINE
  8
0
 62
7
 10
6.510000270000003
 20
8.518333226666664
 30
0
 11
6.510000270000003
 21
8.583333226666666
 31
0
  0
LINE
  8
0
 62
7
 10
6.860000270000002
 20
8.583333226666666
 30
0
 11
6.860000270000002
 21
8.518333226666664
 31
0
  0
LINE
  8
0
 62
7
 10
6.860000270000002
 20
8.518333226666664
 30
0
 11
6.510000270000003
 21
8.518333226666664
 31
0
  0
LINE
  8
0
 62
7
 10
6.770000230000004
 20
8.766666566666663
 30
0
 11
7.240301740000004
 21
8.766666566666663
 31
0
  0
LINE
  8
0
 62
7
 10
7.240301740000004
 20
8.701666566666661
 30
0
 11
6.770000230000004
 21
8.701666566666661
 31
0
  0
LINE
  8
0
 62
7
 10
6.770000230000004
 20
8.701666566666661
 30
0
 11
6.770000230000004
 21
8.766666566666663
 31
0
  0
LINE
  8
0
 62
7
 10
7.240301740000004
 20
8.766666566666663
 30
0
 11
7.240301740000004
 21
8.701666566666661
 31
0
  0
LINE
  8
0
 62
7
 10
7.709175870000005
 20
8.884999906666662
 30
0
 11
6.894165270000004
 21
8.884999906666662
 31
0
  0
LINE
  8
0
 62
7
 10
6.894165270000004
 20
8.949999906666664
 30
0
 11
7.709175870000005
 21
8.949999906666664
 31
0
  0
LINE
  8
0
 62
7
 10
6.894165270000004
 20
8.884999906666662
 30
0
 11
6.894165270000004
 21
8.949999906666664
 31
0
  0
LINE
  8
0
 62
7
 10
7.709175870000005
 20
8.949999906666664
 30
0
 11
7.709175870000005
 21
8.884999906666662
 31
0
  0
LINE
  8
0
 62
7
 10
6.955000150000005
 20
9.133333226666663
 30
0
 11
7.905000310000005
 21
9.133333226666663
 31
0
  0
LINE
  8
0
 62
7
 10
7.905000310000005
 20
9.068333226666665
 30
0
 11
6.955000150000005
 21
9.068333226666665
 31
0
  0
LINE
  8
0
 62
7
 10
6.955000150000005
 20
9.068333226666665
 30
0
 11
6.955000150000005
 21
9.133333226666663
 31
0
  0
LINE
  8
0
 62
7
 10
7.905000310000005
 20
9.133333226666663
 30
0
 11
7.905000310000005
 21
9.068333226666665
 31
0
  0
LINE
  8
0
 62
7
 10
6.955000230000005
 20
9.316666586666662
 30
0
 11
7.905000310000005
 21
9.316666586666662
 31
0
  0
LINE
  8
0
 62
7
 10
6.955000230000005
 20
9.251666586666662
 30
0
 11
6.955000230000005
 21
9.316666586666662
 31
0
  0
LINE
  8
0
 62
7
 10
7.905000310000005
 20
9.316666586666662
 30
0
 11
7.905000310000005
 21
9.251666586666662
 31
0
  0
LINE
  8
0
 62
7
 10
7.905000310000005
 20
9.251666586666662
 30
0
 11
6.955000230000005
 21
9.251666586666662
 31
0
  0
LINE
  8
0
 62
7
 10
6.955000000000003
 20
9.499999946666664
 30
0
 11
7.905000460000004
 21
9.499999946666664
 31
0
  0
LINE
  8
0
 62
7
 10
6.955000000000003
 20
9.434999946666663
 30
0
 11
6.955000000000003
 21
9.499999946666664
 31
0
  0
LINE
  8
0
 62
7
 10
7.905000460000004
 20
9.499999946666664
 30
0
 11
7.905000460000004
 21
9.434999946666663
 31
0
  0
LINE
  8
0
 62
7
 10
7.905000460000004
 20
9.434999946666663
 30
0
 11
6.955000000000003
 21
9.434999946666663
 31
0
  0
LINE
  8
0
 62
7
 10
6.955000150000005
 20
9.683333226666662
 30
0
 11
7.905000610000004
 21
9.683333226666662
 31
0
  0
LINE
  8
0
 62
7
 10
6.955000150000005
 20
9.618333226666664
 30
0
 11
6.955000150000005
 21
9.683333226666662
 31
0
  0
LINE
  8
0
 62
7
 10
7.905000610000004
 20
9.683333226666662
 30
0
 11
7.905000610000004
 21
9.618333226666664
 31
0
  0
LINE
  8
0
 62
7
 10
7.905000610000004
 20
9.618333226666664
 30
0
 11
6.955000150000005
 21
9.618333226666664
 31
0
  0
LINE
  8
0
 62
7
 10
6.955000080000002
 20
9.866666666666664
 30
0
 11
7.905000310000005
 21
9.866666666666664
 31
0
  0
LINE
  8
0
 62
7
 10
6.955000080000002
 20
9.801666666666662
 30
0
 11
6.955000080000002
 21
9.866666666666664
 31
0
  0
LINE
  8
0
 62
7
 10
7.905000310000005
 20
9.866666666666664
 30
0
 11
7.905000310000005
 21
9.801666666666662
 31
0
  0
LINE
  8
0
 62
7
 10
7.905000310000005
 20
9.801666666666662
 30
0
 11
6.955000080000002
 21
9.801666666666662
 31
0
  0
LINE
  8
0
 62
7
 10
6.955000380000003
 20
10.04999994666666
 30
0
 11
7.905000150000006
 21
10.04999994666666
 31
0
  0
LINE
  8
0
 62
7
 10
6.955000380000003
 20
9.984999946666663
 30
0
 11
6.955000380000003
 21
10.04999994666666
 31
0
  0
LINE
  8
0
 62
7
 10
7.905000150000006
 20
10.04999994666666
 30
0
 11
7.905000150000006
 21
9.984999946666663
 31
0
  0
LINE
  8
0
 62
7
 10
7.905000150000006
 20
9.984999946666663
 30
0
 11
6.955000380000003
 21
9.984999946666663
 31
0
  0
LINE
  8
0
 62
7
 10
6.955000080000002
 20
10.23333322666666
 30
0
 11
7.905000000000006
 21
10.23333322666666
 31
0
  0
LINE
  8
0
 62
7
 10
6.955000080000002
 20
10.16833322666666
 30
0
 11
6.955000080000002
 21
10.23333322666666
 31
0
  0
LINE
  8
0
 62
7
 10
7.905000000000006
 20
10.23333322666666
 30
0
 11
7.905000000000006
 21
10.16833322666666
 31
0
  0
LINE
  8
0
 62
7
 10
7.905000000000006
 20
10.16833322666666
 30
0
 11
6.955000080000002
 21
10.16833322666666
 31
0
  0
LINE
  8
0
 62
7
 10
6.954999920000002
 20
10.41666666666666
 30
0
 11
7.905000150000006
 21
10.41666666666666
 31
0
  0
LINE
  8
0
 62
7
 10
7.905000150000006
 20
10.35166666666666
 30
0
 11
6.954999920000002
 21
10.35166666666666
 31
0
  0
LINE
  8
0
 62
7
 10
6.954999920000002
 20
10.35166666666666
 30
0
 11
6.954999920000002
 21
10.41666666666666
 31
0
  0
LINE
  8
0
 62
7
 10
7.905000150000006
 20
10.41666666666666
 30
0
 11
7.905000150000006
 21
10.35166666666666
 31
0
  0
LINE
  8
0
 62
7
 10
7.895620580000004
 20
10.53499994666666
 30
0
 11
6.882233890000004
 21
10.53499994666666
 31
0
  0
LINE
  8
0
 62
7
 10
6.882233890000004
 20
10.59999994666666
 30
0
 11
7.895620580000004
 21
10.59999994666666
 31
0
  0
LINE
  8
0
 62
7
 10
6.882233890000004
 20
10.53499994666666
 30
0
 11
6.882233890000004
 21
10.59999994666666
 31
0
  0
LINE
  8
0
 62
7
 10
7.895620580000004
 20
10.59999994666666
 30
0
 11
7.895620580000004
 21
10.53499994666666
 31
0
  0
LINE
  8
0
 62
7
 10
7.380929180000003
 20
10.71833322666666
 30
0
 11
6.761315920000001
 21
10.71833322666666
 31
0
  0
LINE
  8
0
 62
7
 10
6.761315920000001
 20
10.78333322666666
 30
0
 11
7.380929180000003
 21
10.78333322666666
 31
0
  0
LINE
  8
0
 62
7
 10
6.761315920000001
 20
10.71833322666666
 30
0
 11
6.761315920000001
 21
10.78333322666666
 31
0
  0
LINE
  8
0
 62
7
 10
7.380929180000003
 20
10.78333322666666
 30
0
 11
7.380929180000003
 21
10.71833322666666
 31
0
  0
LINE
  8
0
 62
7
 10
6.649999200000003
 20
10.96666666666666
 30
0
 11
6.973609010000003
 21
10.96666666666666
 31
0
  0
LINE
  8
0
 62
7
 10
6.973609010000003
 20
10.90166666666666
 30
0
 11
6.649999200000003
 21
10.90166666666666
 31
0
  0
LINE
  8
0
 62
7
 10
6.649999200000003
 20
10.90166666666666
 30
0
 11
6.649999200000003
 21
10.96666666666666
 31
0
  0
LINE
  8
0
 62
7
 10
6.973609010000003
 20
10.96666666666666
 30
0
 11
6.973609010000003
 21
10.90166666666666
 31
0
  0
LINE
  8
0
 62
7
 10
2.891875000000002
 20
9.683333226666662
 30
0
 11
3.098098610000001
 21
9.683333226666662
 31
0
  0
LINE
  8
0
 62
7
 10
3.530000000000003
 20
8.583333226666666
 30
0
 11
4.480000350000004
 21
8.583333226666666
 31
0
  0
LINE
  8
0
 62
7
 10
4.480000350000004
 20
8.583333226666666
 30
0
 11
4.480000350000004
 21
8.518333226666664
 31
0
  0
LINE
  8
0
 62
7
 10
3.530000000000003
 20
8.518333226666664
 30
0
 11
3.530000000000003
 21
8.583333226666666
 31
0
  0
LINE
  8
0
 62
7
 10
4.480000350000004
 20
8.518333226666664
 30
0
 11
3.530000000000003
 21
8.518333226666664
 31
0
  0
LINE
  8
0
 62
7
 10
3.529999930000004
 20
8.766666566666663
 30
0
 11
4.480000350000004
 21
8.766666566666663
 31
0
  0
LINE
  8
0
 62
7
 10
4.480000350000004
 20
8.766666566666663
 30
0
 11
4.480000350000004
 21
8.701666566666661
 31
0
  0
LINE
  8
0
 62
7
 10
3.529999930000004
 20
8.701666566666661
 30
0
 11
3.529999930000004
 21
8.766666566666663
 31
0
  0
LINE
  8
0
 62
7
 10
4.480000350000004
 20
8.701666566666661
 30
0
 11
3.529999930000004
 21
8.701666566666661
 31
0
  0
LINE
  8
0
 62
7
 10
3.372353670000003
 20
8.949999906666664
 30
0
 11
4.480000120000003
 21
8.949999906666664
 31
0
  0
LINE
  8
0
 62
7
 10
4.480000120000003
 20
8.884999906666662
 30
0
 11
3.372353670000003
 21
8.884999906666662
 31
0
  0
LINE
  8
0
 62
7
 10
4.480000120000003
 20
8.949999906666664
 30
0
 11
4.480000120000003
 21
8.884999906666662
 31
0
  0
LINE
  8
0
 62
7
 10
3.372353670000003
 20
8.884999906666662
 30
0
 11
3.372353670000003
 21
8.949999906666664
 31
0
  0
LINE
  8
0
 62
7
 10
4.480000160000002
 20
9.068333226666665
 30
0
 11
3.226410830000003
 21
9.068333226666665
 31
0
  0
LINE
  8
0
 62
7
 10
3.226410830000003
 20
9.133333226666663
 30
0
 11
4.480000160000002
 21
9.133333226666663
 31
0
  0
LINE
  8
0
 62
7
 10
4.480000160000002
 20
9.133333226666663
 30
0
 11
4.480000160000002
 21
9.068333226666665
 31
0
  0
LINE
  8
0
 62
7
 10
3.226410830000003
 20
9.068333226666665
 30
0
 11
3.226410830000003
 21
9.133333226666663
 31
0
  0
LINE
  8
0
 62
7
 10
4.156572120000003
 20
9.251666586666662
 30
0
 11
3.120104680000002
 21
9.251666586666662
 31
0
  0
LINE
  8
0
 62
7
 10
3.120104680000002
 20
9.316666586666662
 30
0
 11
4.156572120000003
 21
9.316666586666662
 31
0
  0
LINE
  8
0
 62
7
 10
4.156572120000003
 20
9.316666586666662
 30
0
 11
4.156572120000003
 21
9.251666586666662
 31
0
  0
LINE
  8
0
 62
7
 10
3.120104680000002
 20
9.251666586666662
 30
0
 11
3.120104680000002
 21
9.316666586666662
 31
0
  0
LINE
  8
0
 62
7
 10
3.720155190000003
 20
9.434999946666663
 30
0
 11
3.004934540000002
 21
9.434999946666663
 31
0
  0
LINE
  8
0
 62
7
 10
3.004934540000002
 20
9.499999946666664
 30
0
 11
3.720155190000003
 21
9.499999946666664
 31
0
  0
LINE
  8
0
 62
7
 10
3.720155190000003
 20
9.499999946666664
 30
0
 11
3.720155190000003
 21
9.434999946666663
 31
0
  0
LINE
  8
0
 62
7
 10
3.004934540000002
 20
9.434999946666663
 30
0
 11
3.004934540000002
 21
9.499999946666664
 31
0
  0
LINE
  8
0
 62
7
 10
3.352212680000002
 20
9.618333226666664
 30
0
 11
2.887481850000002
 21
9.618333226666664
 31
0
  0
LINE
  8
0
 62
7
 10
3.098098610000001
 20
9.683333226666662
 30
0
 11
3.352212680000002
 21
9.683333226666662
 31
0
  0
LINE
  8
0
 62
7
 10
3.352212680000002
 20
9.683333226666662
 30
0
 11
3.352212680000002
 21
9.618333226666664
 31
0
  0
LINE
  8
0
 62
7
 10
2.887481850000002
 20
9.683333226666662
 30
0
 11
2.891875000000002
 21
9.683333226666662
 31
0
  0
LINE
  8
0
 62
7
 10
2.887481850000002
 20
9.618333226666664
 30
0
 11
2.887481850000002
 21
9.683333226666662
 31
0
  0
LINE
  8
0
 62
7
 10
2.981876070000002
 20
9.801666666666662
 30
0
 11
2.576726990000003
 21
9.801666666666662
 31
0
  0
LINE
  8
0
 62
7
 10
2.576726990000003
 20
9.866666666666664
 30
0
 11
2.981876070000002
 21
9.866666666666664
 31
0
  0
LINE
  8
0
 62
7
 10
2.981876070000002
 20
9.866666666666664
 30
0
 11
2.981876070000002
 21
9.801666666666662
 31
0
  0
LINE
  8
0
 62
7
 10
2.576726990000003
 20
9.801666666666662
 30
0
 11
2.576726990000003
 21
9.866666666666664
 31
0
  0
LINE
  8
0
 62
7
 10
2.786264200000003
 20
9.984999946666663
 30
0
 11
2.195530400000004
 21
9.984999946666663
 31
0
  0
LINE
  8
0
 62
7
 10
2.195530400000004
 20
10.04999994666666
 30
0
 11
2.786264200000003
 21
10.04999994666666
 31
0
  0
LINE
  8
0
 62
7
 10
2.786264200000003
 20
10.04999994666666
 30
0
 11
2.786264200000003
 21
9.984999946666663
 31
0
  0
LINE
  8
0
 62
7
 10
2.195530400000004
 20
9.984999946666663
 30
0
 11
2.195530400000004
 21
10.04999994666666
 31
0
  0
LINE
  8
0
 62
7
 10
2.671534580000003
 20
10.16833322666666
 30
0
 11
1.797620850000003
 21
10.16833322666666
 31
0
  0
LINE
  8
0
 62
7
 10
1.797620850000003
 20
10.23333322666666
 30
0
 11
2.671534580000003
 21
10.23333322666666
 31
0
  0
LINE
  8
0
 62
7
 10
2.671534580000003
 20
10.23333322666666
 30
0
 11
2.671534580000003
 21
10.16833322666666
 31
0
  0
LINE
  8
0
 62
7
 10
1.797620850000003
 20
10.16833322666666
 30
0
 11
1.797620850000003
 21
10.23333322666666
 31
0
  0
LINE
  8
0
 62
7
 10
2.560888220000001
 20
10.35166666666666
 30
0
 11
1.330000000000002
 21
10.35166666666666
 31
0
  0
LINE
  8
0
 62
7
 10
1.330000000000002
 20
10.41666666666666
 30
0
 11
2.560888220000001
 21
10.41666666666666
 31
0
  0
LINE
  8
0
 62
7
 10
2.560888220000001
 20
10.41666666666666
 30
0
 11
2.560888220000001
 21
10.35166666666666
 31
0
  0
LINE
  8
0
 62
7
 10
1.330000000000002
 20
10.35166666666666
 30
0
 11
1.330000000000002
 21
10.41666666666666
 31
0
  0
LINE
  8
0
 62
7
 10
1.329999700000004
 20
10.59999994666666
 30
0
 11
2.416678930000002
 21
10.59999994666666
 31
0
  0
LINE
  8
0
 62
7
 10
2.416678930000002
 20
10.53499994666666
 30
0
 11
1.329999700000004
 21
10.53499994666666
 31
0
  0
LINE
  8
0
 62
7
 10
2.416678930000002
 20
10.59999994666666
 30
0
 11
2.416678930000002
 21
10.53499994666666
 31
0
  0
LINE
  8
0
 62
7
 10
1.329999700000004
 20
10.53499994666666
 30
0
 11
1.329999700000004
 21
10.59999994666666
 31
0
  0
LINE
  8
0
 62
7
 10
1.330000000000002
 20
10.78333322666666
 30
0
 11
2.280000000000002
 21
10.78333322666666
 31
0
  0
LINE
  8
0
 62
7
 10
2.280000000000002
 20
10.78333322666666
 30
0
 11
2.280000000000002
 21
10.71833322666666
 31
0
  0
LINE
  8
0
 62
7
 10
1.330000000000002
 20
10.71833322666666
 30
0
 11
1.330000000000002
 21
10.78333322666666
 31
0
  0
LINE
  8
0
 62
7
 10
2.280000000000002
 20
10.71833322666666
 30
0
 11
1.330000000000002
 21
10.71833322666666
 31
0
  0
LINE
  8
0
 62
7
  6
DASHED
 10
1.330000000000002
 20
10.96666666666666
 30
0
 11
2.280000310000003
 21
10.96666666666666
 31
0
  0
LINE
  8
0
 62
7
  6
DASHED
 10
2.280000310000003
 20
10.96666666666666
 30
0
 11
2.280000310000003
 21
10.90166666666666
 31
0
  0
LINE
  8
0
 62
7
  6
DASHED
 10
1.330000000000002
 20
10.90166666666666
 30
0
 11
1.330000000000002
 21
10.96666666666666
 31
0
  0
LINE
  8
0
 62
7
  6
DASHED
 10
2.280000310000003
 20
10.90166666666666
 30
0
 11
1.330000000000002
 21
10.90166666666666
 31
0
  0
LINE
  8
0
 62
7
  6
DASHDOT
 10
1.1
 20
5.419999999999998
 30
0
 11
1.275000000000002
 21
5.419999999999998
 31
0
  0
LINE
  8
0
 62
7
  6
DASHDOT
 10
1.05
 20
5.419999999999998
 30
0
 11
1.1
 21
5.419999999999998
 31
0
  0
LINE
  8
0
 62
7
  6
DASHDOT
 10
4.860000000000003
 20
4.75
 30
0
 11
4.860000000000003
 21
4.99
 31
0
  0
LINE
  8
0
 62
7
  6
DASHDOT
 10
0.9350000000000001
 20
4.75
 30
0
 11
0.9350000000000001
 21
4.99
 31
0
  0
LINE
  8
0
 62
7
  6
DASHDOT
 10
4.860000000000003
 20
4.99
 30
0
 11
4.860000000000003
 21
5.030000000000001
 31
0
  0
LINE
  8
0
 62
7
  6
DASHDOT
 10
0.9350000000000001
 20
4.99
 30
0
 11
0.9350000000000001
 21
5.030000000000001
 31
0
  0
LINE
  8
0
 62
7
  6
DASHDOT
 10
4.860000000000003
 20
4.7
 30
0
 11
4.860000000000003
 21
4.75
 31
0
  0
LINE
  8
0
 62
7
  6
DASHDOT
 10
4.860000000000003
 20
5.030000000000001
 30
0
 11
4.860000000000003
 21
5.269999999999999
 31
0
  0
LINE
  8
0
 62
7
  6
DASHDOT
 10
4.485000000000002
 20
5.419999999999998
 30
0
 11
4.535000000000002
 21
5.419999999999998
 31
0
  0
LINE
  8
0
 62
7
  6
DASHDOT
 10
4.535000000000002
 20
5.419999999999998
 30
0
 11
4.710000000000002
 21
5.419999999999998
 31
0
  0
LINE
  8
0
 62
7
  6
DASHDOT
 10
0.9350000000000001
 20
4.7
 30
0
 11
0.9350000000000001
 21
4.75
 31
0
  0
LINE
  8
0
 62
7
  6
DASHDOT
 10
0.9350000000000001
 20
5.030000000000001
 30
0
 11
0.9350000000000001
 21
5.269999999999999
 31
0
  0
LINE
  8
0
 62
7
  6
DASHDOT
 10
0.9350000000000001
 20
5.269999999999999
 30
0
 11
0.9350000000000001
 21
5.319999999999999
 31
0
  0
LINE
  8
0
 62
7
  6
DASHDOT
 10
4.860000000000003
 20
5.269999999999999
 30
0
 11
4.860000000000003
 21
5.319999999999999
 31
0
  0
LINE
  8
0
 62
7
  6
DASHDOT
 10
1.275000000000002
 20
5.419999999999998
 30
0
 11
1.325000000000002
 21
5.419999999999998
 31
0
  0
LINE
  8
0
 62
7
  6
DASHDOT
 10
4.710000000000002
 20
5.419999999999998
 30
0
 11
4.760000000000002
 21
5.419999999999998
 31
0
  0
LINE
  8
0
 62
7
 10
4.535000000000002
 20
3.45
 30
0
 11
4.535000000000002
 21
3.4
 31
0
  0
LINE
  8
0
 62
7
  6
DASHDOT
 10
4.535000000000002
 20
3.4
 30
0
 11
1.275000000000002
 21
3.4
 31
0
  0
LINE
  8
0
 62
7
 10
1.275000000000002
 20
3.4
 30
0
 11
1.275000000000002
 21
3.45
 31
0
  0
LINE
  8
0
 62
7
 10
4.535000000000002
 20
4.75
 30
0
 11
4.535000000000002
 21
3.45
 31
0
  0
LINE
  8
0
 62
7
 10
4.535000000000002
 20
3.45
 30
0
 11
1.275000000000002
 21
3.45
 31
0
  0
LINE
  8
0
 62
7
 10
1.1
 20
3.4
 30
0
 11
1.275000000000002
 21
3.4
 31
0
  0
LINE
  8
0
 62
7
 10
0.9350000000000001
 20
4.75
 30
0
 11
1.1
 21
4.75
 31
0
  0
LINE
  8
0
 62
7
 10
1.1
 20
4.75
 30
0
 11
1.1
 21
3.4
 31
0
  0
LINE
  8
0
 62
7
 10
1.275000000000002
 20
3.45
 30
0
 11
1.275000000000002
 21
4.75
 31
0
  0
LINE
  8
0
 62
7
 10
1.275000000000002
 20
4.75
 30
0
 11
4.535000000000002
 21
4.75
 31
0
  0
LINE
  8
0
 62
7
 10
4.710000000000002
 20
3.3
 30
0
 11
4.710000000000002
 21
4.75
 31
0
  0
LINE
  8
0
 62
7
 10
4.535000000000002
 20
3.3
 30
0
 11
4.710000000000002
 21
3.3
 31
0
  0
LINE
  8
0
 62
7
 10
4.535000000000002
 20
3.4
 30
0
 11
4.535000000000002
 21
3.3
 31
0
  0
LINE
  8
0
 62
7
 10
4.710000000000002
 20
4.75
 30
0
 11
4.860000000000003
 21
4.75
 31
0
  0
LINE
  8
0
 62
7
 10
0.9350000000000001
 20
4.99
 30
0
 11
4.860000000000003
 21
4.99
 31
0
  0
LINE
  8
0
 62
7
 10
0.9350000000000001
 20
5.030000000000001
 30
0
 11
4.860000000000003
 21
5.030000000000001
 31
0
  0
LINE
  8
0
 62
7
 10
0.9350000000000001
 20
5.269999999999999
 30
0
 11
1.1
 21
5.269999999999999
 31
0
  0
LINE
  8
0
 62
7
 10
1.1
 20
5.269999999999999
 30
0
 11
1.1
 21
5.419999999999998
 31
0
  0
LINE
  8
0
 62
7
 10
1.275000000000002
 20
5.419999999999998
 30
0
 11
1.275000000000002
 21
5.269999999999999
 31
0
  0
LINE
  8
0
 62
7
 10
1.275000000000002
 20
5.269999999999999
 30
0
 11
4.535000000000002
 21
5.269999999999999
 31
0
  0
LINE
  8
0
 62
7
 10
4.535000000000002
 20
5.269999999999999
 30
0
 11
4.535000000000002
 21
5.419999999999998
 31
0
  0
LINE
  8
0
 62
7
 10
4.710000000000002
 20
5.419999999999998
 30
0
 11
4.710000000000002
 21
5.269999999999999
 31
0
  0
LINE
  8
0
 62
7
 10
4.710000000000002
 20
5.269999999999999
 30
0
 11
4.860000000000003
 21
5.269999999999999
 31
0
  0
LINE
  8
0
 62
7
  6
DASHED
 10
6.610000000000003
 20
8.099999999999996
 30
0
 11
7.960000000000005
 21
8.099999999999996
 31
0
  0
LINE
  8
0
 62
7
  6
DASHED
 10
6.610000000000003
 20
8.299999999999997
 30
0
 11
7.960000000000005
 21
8.299999999999997
 31
0
  0
LINE
  8
0
 62
7
  6
DASHED
 10
6.610000000000003
 20
10.85
 30
0
 11
7.960000000000005
 21
10.85
 31
0
  0
LINE
  8
0
 62
7
  6
DASHED
 10
6.610000000000003
 20
11.05
 30
0
 11
7.960000000000005
 21
11.05
 31
0
  0
LINE
  8
0
 62
7
  6
DASHDOT
 10
6.310000000000002
 20
10.85
 30
0
 11
6.310000000000002
 21
11.05
 31
0
  0
LINE
  8
0
 62
7
  6
DASHDOT
 10
6.310000000000002
 20
10.8
 30
0
 11
6.310000000000002
 21
10.85
 31
0
  0
LINE
  8
0
 62
7
  6
DASHDOT
 10
7.960000000000005
 20
11.2
 30
0
 11
8.200000000000005
 21
11.2
 31
0
  0
LINE
  8
0
 62
7
  6
DASHDOT
 10
7.910000000000005
 20
11.2
 30
0
 11
7.960000000000005
 21
11.2
 31
0
  0
LINE
  8
0
 62
7
  6
DASHDOT
 10
7.910000000000005
 20
7.949999999999998
 30
0
 11
7.960000000000005
 21
7.949999999999998
 31
0
  0
LINE
  8
0
 62
7
  6
DASHDOT
 10
7.960000000000005
 20
7.949999999999998
 30
0
 11
8.200000000000005
 21
7.949999999999998
 31
0
  0
LINE
  8
0
 62
7
  6
DASHDOT
 10
6.310000000000002
 20
8.299999999999997
 30
0
 11
6.310000000000002
 21
8.099999999999996
 31
0
  0
LINE
  8
0
 62
7
  6
DASHDOT
 10
6.310000000000002
 20
8.399999999999997
 30
0
 11
6.310000000000002
 21
8.299999999999997
 31
0
  0
LINE
  8
0
 62
7
  6
DASHDOT
 10
6.310000000000002
 20
11.05
 30
0
 11
6.310000000000002
 21
11.15
 31
0
  0
LINE
  8
0
 62
7
 10
6.310000000000002
 20
11.15
 30
0
 11
6.610000000000003
 21
11.15
 31
0
  0
LINE
  8
0
 62
7
  6
DASHDOT
 10
6.310000000000002
 20
8.449999999999998
 30
0
 11
6.310000000000002
 21
8.399999999999997
 31
0
  0
LINE
  8
0
 62
7
 10
6.310000000000002
 20
8.399999999999997
 30
0
 11
6.610000000000003
 21
8.399999999999997
 31
0
  0
LINE
  8
0
 62
7
  6
DASHDOT
 10
8.200000000000005
 20
7.949999999999998
 30
0
 11
8.250000000000005
 21
7.949999999999998
 31
0
  0
LINE
  8
0
 62
7
  6
DASHDOT
 10
6.310000000000002
 20
8.099999999999996
 30
0
 11
6.310000000000002
 21
8.049999999999995
 31
0
  0
LINE
  8
0
 62
7
  6
DASHDOT
 10
6.310000000000002
 20
11.15
 30
0
 11
6.310000000000002
 21
11.2
 31
0
  0
LINE
  8
0
 62
7
  6
DASHDOT
 10
8.200000000000005
 20
11.2
 30
0
 11
8.250000000000005
 21
11.2
 31
0
  0
LINE
  8
0
 62
7
 10
6.310000000000002
 20
8.099999999999996
 30
0
 11
6.610000000000003
 21
8.099999999999996
 31
0
  0
LINE
  8
0
 62
7
 10
6.610000000000003
 20
8.099999999999996
 30
0
 11
6.610000000000003
 21
8.299999999999997
 31
0
  0
LINE
  8
0
 62
7
 10
6.310000000000002
 20
8.299999999999997
 30
0
 11
6.610000000000003
 21
8.299999999999997
 31
0
  0
LINE
  8
0
 62
7
 10
6.310000000000002
 20
11.05
 30
0
 11
6.610000000000003
 21
11.05
 31
0
  0
LINE
  8
0
 62
7
 10
6.310000000000002
 20
10.85
 30
0
 11
6.610000000000003
 21
10.85
 31
0
  0
LINE
  8
0
 62
7
 10
6.610000000000003
 20
10.85
 30
0
 11
6.610000000000003
 21
11.05
 31
0
  0
LINE
  8
0
 62
7
 10
7.960000000000005
 20
7.949999999999998
 30
0
 11
7.960000000000005
 21
8.099999999999996
 31
0
  0
LINE
  8
0
 62
7
 10
8.200000000000005
 20
8.299999999999997
 30
0
 11
8.200000000000005
 21
8.099999999999996
 31
0
  0
LINE
  8
0
 62
7
 10
7.960000000000005
 20
8.099999999999996
 30
0
 11
8.200000000000005
 21
8.099999999999996
 31
0
  0
LINE
  8
0
 62
7
 10
7.960000000000005
 20
8.099999999999996
 30
0
 11
7.960000000000005
 21
8.299999999999997
 31
0
  0
LINE
  8
0
 62
7
 10
8.200000000000005
 20
10.85
 30
0
 11
8.200000000000005
 21
8.299999999999997
 31
0
  0
LINE
  8
0
 62
7
 10
7.960000000000005
 20
8.299999999999997
 30
0
 11
8.200000000000005
 21
8.299999999999997
 31
0
  0
LINE
  8
0
 62
7
 10
7.960000000000005
 20
8.299999999999997
 30
0
 11
7.960000000000005
 21
10.85
 31
0
  0
LINE
  8
0
 62
7
 10
8.200000000000005
 20
11.05
 30
0
 11
8.200000000000005
 21
10.85
 31
0
  0
LINE
  8
0
 62
7
 10
7.960000000000005
 20
10.85
 30
0
 11
8.200000000000005
 21
10.85
 31
0
  0
LINE
  8
0
 62
7
 10
7.960000000000005
 20
10.85
 30
0
 11
7.960000000000005
 21
11.05
 31
0
  0
LINE
  8
0
 62
7
 10
8.200000000000005
 20
11.2
 30
0
 11
8.200000000000005
 21
11.05
 31
0
  0
LINE
  8
0
 62
7
 10
7.960000000000005
 20
11.05
 30
0
 11
8.200000000000005
 21
11.05
 31
0
  0
LINE
  8
0
 62
7
 10
7.960000000000005
 20
11.05
 30
0
 11
7.960000000000005
 21
11.2
 31
0
  0
LINE
  8
0
 62
7
 10
8.200000000000005
 20
8.099999999999996
 30
0
 11
8.200000000000005
 21
7.949999999999998
 31
0
  0
LINE
  8
0
 62
7
  6
DASHDOT
 10
4.710000000000002
 20
11.2
 30
0
 11
4.760000000000002
 21
11.2
 31
0
  0
LINE
  8
0
 62
7
  6
DASHDOT
 10
4.535000000000002
 20
11.2
 30
0
 11
4.710000000000002
 21
11.2
 31
0
  0
LINE
  8
0
 62
7
  6
DASHDOT
 10
4.860000000000003
 20
11.05
 30
0
 11
4.860000000000003
 21
11.15
 31
0
  0
LINE
  8
0
 62
7
  6
DASHDOT
 10
4.860000000000003
 20
10.85
 30
0
 11
4.860000000000003
 21
11.05
 31
0
  0
LINE
  8
0
 62
7
  6
DASHDOT
 10
1.275000000000002
 20
11.2
 30
0
 11
1.325000000000002
 21
11.2
 31
0
  0
LINE
  8
0
 62
7
  6
DASHDOT
 10
1.1
 20
11.2
 30
0
 11
1.275000000000002
 21
11.2
 31
0
  0
LINE
  8
0
 62
7
  6
DASHDOT
 10
0.9500000000000001
 20
11.05
 30
0
 11
0.9500000000000001
 21
11.15
 31
0
  0
LINE
  8
0
 62
7
  6
DASHDOT
 10
0.9500000000000001
 20
10.85
 30
0
 11
0.9500000000000001
 21
11.05
 31
0
  0
LINE
  8
0
 62
7
  6
DASHDOT
 10
1.275000000000002
 20
7.949999999999998
 30
0
 11
1.325000000000002
 21
7.949999999999998
 31
0
  0
LINE
  8
0
 62
7
  6
DASHDOT
 10
1.1
 20
7.949999999999998
 30
0
 11
1.275000000000002
 21
7.949999999999998
 31
0
  0
LINE
  8
0
 62
7
  6
DASHDOT
 10
0.9500000000000001
 20
8.299999999999997
 30
0
 11
0.9500000000000001
 21
8.399999999999997
 31
0
  0
LINE
  8
0
 62
7
  6
DASHDOT
 10
0.9500000000000001
 20
8.099999999999996
 30
0
 11
0.9500000000000001
 21
8.299999999999997
 31
0
  0
LINE
  8
0
 62
7
  6
DASHDOT
 10
4.710000000000002
 20
7.949999999999998
 30
0
 11
4.760000000000002
 21
7.949999999999998
 31
0
  0
LINE
  8
0
 62
7
  6
DASHDOT
 10
4.535000000000002
 20
7.949999999999998
 30
0
 11
4.710000000000002
 21
7.949999999999998
 31
0
  0
LINE
  8
0
 62
7
  6
DASHDOT
 10
4.860000000000003
 20
8.299999999999997
 30
0
 11
4.860000000000003
 21
8.399999999999997
 31
0
  0
LINE
  8
0
 62
7
  6
DASHDOT
 10
4.860000000000003
 20
8.099999999999996
 30
0
 11
4.860000000000003
 21
8.299999999999997
 31
0
  0
LINE
  8
0
 62
7
  6
DASHDOT
 10
4.860000000000003
 20
11.15
 30
0
 11
4.860000000000003
 21
11.2
 31
0
  0
LINE
  8
0
 62
7
 10
4.710000000000002
 20
11.15
 30
0
 11
4.710000000000002
 21
11.2
 31
0
  0
LINE
  8
0
 62
7
 10
4.710000000000002
 20
11.15
 30
0
 11
4.860000000000003
 21
11.15
 31
0
  0
LINE
  8
0
 62
7
 10
4.535000000000002
 20
11.15
 30
0
 11
4.535000000000002
 21
11.2
 31
0
  0
LINE
  8
0
 62
7
 10
1.275000000000002
 20
11.15
 30
0
 11
1.275000000000002
 21
11.2
 31
0
  0
LINE
  8
0
 62
7
 10
1.275000000000002
 20
11.15
 30
0
 11
4.535000000000002
 21
11.15
 31
0
  0
LINE
  8
0
 62
7
  6
DASHDOT
 10
0.9500000000000001
 20
11.15
 30
0
 11
0.9500000000000001
 21
11.2
 31
0
  0
LINE
  8
0
 62
7
 10
1.1
 20
11.15
 30
0
 11
1.1
 21
11.2
 31
0
  0
LINE
  8
0
 62
7
 10
0.9500000000000001
 20
11.15
 30
0
 11
1.1
 21
11.15
 31
0
  0
LINE
  8
0
 62
7
  6
DASHDOT
 10
4.860000000000003
 20
8.399999999999997
 30
0
 11
4.860000000000003
 21
8.449999999999998
 31
0
  0
LINE
  8
0
 62
7
 10
4.710000000000002
 20
8.399999999999997
 30
0
 11
4.710000000000002
 21
10.85
 31
0
  0
LINE
  8
0
 62
7
 10
4.710000000000002
 20
8.399999999999997
 30
0
 11
4.860000000000003
 21
8.399999999999997
 31
0
  0
LINE
  8
0
 62
7
 10
4.535000000000002
 20
8.399999999999997
 30
0
 11
4.535000000000002
 21
10.85
 31
0
  0
LINE
  8
0
 62
7
 10
1.275000000000002
 20
8.399999999999997
 30
0
 11
1.275000000000002
 21
10.85
 31
0
  0
LINE
  8
0
 62
7
 10
1.275000000000002
 20
8.399999999999997
 30
0
 11
4.535000000000002
 21
8.399999999999997
 31
0
  0
LINE
  8
0
 62
7
  6
DASHDOT
 10
0.9500000000000001
 20
8.399999999999997
 30
0
 11
0.9500000000000001
 21
8.449999999999998
 31
0
  0
LINE
  8
0
 62
7
 10
1.1
 20
8.399999999999997
 30
0
 11
1.1
 21
10.85
 31
0
  0
LINE
  8
0
 62
7
 10
0.9500000000000001
 20
8.399999999999997
 30
0
 11
1.1
 21
8.399999999999997
 31
0
  0
LINE
  8
0
 62
7
  6
DASHDOT
 10
4.485000000000002
 20
7.949999999999998
 30
0
 11
4.535000000000002
 21
7.949999999999998
 31
0
  0
LINE
  8
0
 62
7
  6
DASHDOT
 10
4.485000000000002
 20
11.2
 30
0
 11
4.535000000000002
 21
11.2
 31
0
  0
LINE
  8
0
 62
7
  6
DASHDOT
 10
1.05
 20
7.949999999999998
 30
0
 11
1.1
 21
7.949999999999998
 31
0
  0
LINE
  8
0
 62
7
  6
DASHDOT
 10
1.05
 20
11.2
 30
0
 11
1.1
 21
11.2
 31
0
  0
LINE
  8
0
 62
7
  6
DASHDOT
 10
4.860000000000003
 20
10.8
 30
0
 11
4.860000000000003
 21
10.85
 31
0
  0
LINE
  8
0
 62
7
  6
DASHDOT
 10
4.860000000000003
 20
8.049999999999995
 30
0
 11
4.860000000000003
 21
8.099999999999996
 31
0
  0
LINE
  8
0
 62
7
  6
DASHDOT
 10
0.9500000000000001
 20
10.8
 30
0
 11
0.9500000000000001
 21
10.85
 31
0
  0
LINE
  8
0
 62
7
  6
DASHDOT
 10
0.9500000000000001
 20
8.049999999999995
 30
0
 11
0.9500000000000001
 21
8.099999999999996
 31
0
  0
LINE
  8
0
 62
7
 10
4.710000000000002
 20
11.05
 30
0
 11
4.860000000000003
 21
11.05
 31
0
  0
LINE
  8
0
 62
7
 10
4.710000000000002
 20
11.05
 30
0
 11
4.710000000000002
 21
11.15
 31
0
  0
LINE
  8
0
 62
7
 10
4.710000000000002
 20
10.85
 30
0
 11
4.860000000000003
 21
10.85
 31
0
  0
LINE
  8
0
 62
7
 10
4.710000000000002
 20
8.299999999999997
 30
0
 11
4.860000000000003
 21
8.299999999999997
 31
0
  0
LINE
  8
0
 62
7
 10
4.710000000000002
 20
8.299999999999997
 30
0
 11
4.710000000000002
 21
8.399999999999997
 31
0
  0
LINE
  8
0
 62
7
 10
4.710000000000002
 20
8.099999999999996
 30
0
 11
4.860000000000003
 21
8.099999999999996
 31
0
  0
LINE
  8
0
 62
7
 10
4.710000000000002
 20
7.949999999999998
 30
0
 11
4.710000000000002
 21
8.099999999999996
 31
0
  0
LINE
  8
0
 62
7
 10
4.535000000000002
 20
11.05
 30
0
 11
4.710000000000002
 21
11.05
 31
0
  0
LINE
  8
0
 62
7
 10
4.535000000000002
 20
11.05
 30
0
 11
4.535000000000002
 21
11.15
 31
0
  0
LINE
  8
0
 62
7
 10
4.535000000000002
 20
10.85
 30
0
 11
4.710000000000002
 21
10.85
 31
0
  0
LINE
  8
0
 62
7
 10
4.535000000000002
 20
8.299999999999997
 30
0
 11
4.710000000000002
 21
8.299999999999997
 31
0
  0
LINE
  8
0
 62
7
 10
4.535000000000002
 20
8.299999999999997
 30
0
 11
4.535000000000002
 21
8.399999999999997
 31
0
  0
LINE
  8
0
 62
7
 10
4.535000000000002
 20
8.099999999999996
 30
0
 11
4.710000000000002
 21
8.099999999999996
 31
0
  0
LINE
  8
0
 62
7
 10
4.535000000000002
 20
7.949999999999998
 30
0
 11
4.535000000000002
 21
8.099999999999996
 31
0
  0
LINE
  8
0
 62
7
 10
1.275000000000002
 20
11.05
 30
0
 11
4.535000000000002
 21
11.05
 31
0
  0
LINE
  8
0
 62
7
 10
1.275000000000002
 20
11.05
 30
0
 11
1.275000000000002
 21
11.15
 31
0
  0
LINE
  8
0
 62
7
 10
1.275000000000002
 20
10.85
 30
0
 11
4.535000000000002
 21
10.85
 31
0
  0
LINE
  8
0
 62
7
 10
1.275000000000002
 20
8.299999999999997
 30
0
 11
4.535000000000002
 21
8.299999999999997
 31
0
  0
LINE
  8
0
 62
7
 10
1.275000000000002
 20
8.299999999999997
 30
0
 11
1.275000000000002
 21
8.399999999999997
 31
0
  0
LINE
  8
0
 62
7
 10
1.275000000000002
 20
8.099999999999996
 30
0
 11
4.535000000000002
 21
8.099999999999996
 31
0
  0
LINE
  8
0
 62
7
 10
1.275000000000002
 20
7.949999999999998
 30
0
 11
1.275000000000002
 21
8.099999999999996
 31
0
  0
LINE
  8
0
 62
7
 10
1.1
 20
11.05
 30
0
 11
1.275000000000002
 21
11.05
 31
0
  0
LINE
  8
0
 62
7
 10
1.1
 20
11.05
 30
0
 11
1.1
 21
11.15
 31
0
  0
LINE
  8
0
 62
7
 10
1.1
 20
10.85
 30
0
 11
1.275000000000002
 21
10.85
 31
0
  0
LINE
  8
0
 62
7
 10
1.1
 20
8.299999999999997
 30
0
 11
1.275000000000002
 21
8.299999999999997
 31
0
  0
LINE
  8
0
 62
7
 10
1.1
 20
8.299999999999997
 30
0
 11
1.1
 21
8.399999999999997
 31
0
  0
LINE
  8
0
 62
7
 10
1.1
 20
8.099999999999996
 30
0
 11
1.275000000000002
 21
8.099999999999996
 31
0
  0
LINE
  8
0
 62
7
 10
1.1
 20
7.949999999999998
 30
0
 11
1.1
 21
8.099999999999996
 31
0
  0
LINE
  8
0
 62
7
 10
0.9500000000000001
 20
11.05
 30
0
 11
1.1
 21
11.05
 31
0
  0
LINE
  8
0
 62
7
 10
0.9500000000000001
 20
10.85
 30
0
 11
1.1
 21
10.85
 31
0
  0
LINE
  8
0
 62
7
 10
0.9500000000000001
 20
8.299999999999997
 30
0
 11
1.1
 21
8.299999999999997
 31
0
  0
LINE
  8
0
 62
7
 10
0.9500000000000001
 20
8.099999999999996
 30
0
 11
1.1
 21
8.099999999999996
 31
0
  0
LINE
  8
0
 62
7
 10
2.064028718985981
 20
4.427516823936871
 30
0
 11
2.064028718985981
 21
4.547516823936871
 31
0
  0
LINE
  8
0
 62
7
 10
2.139628718985982
 20
4.547516823936871
 30
0
 11
2.085628718985981
 21
4.487516823936871
 31
0
  0
LINE
  8
0
 62
7
 10
2.085628718985981
 20
4.487516823936871
 30
0
 11
2.139628718985982
 21
4.427516823936871
 31
0
  0
LINE
  8
0
 62
7
 10
2.085628718985981
 20
4.487516823936871
 30
0
 11
2.064028718985981
 21
4.46351682393687
 31
0
  0
LINE
  8
0
 62
7
 10
2.247628718985981
 20
4.547516823936871
 30
0
 11
2.172028718985981
 21
4.547516823936871
 31
0
  0
LINE
  8
0
 62
7
 10
2.172028718985981
 20
4.547516823936871
 30
0
 11
2.172028718985981
 21
4.487516823936871
 31
0
  0
LINE
  8
0
 62
7
 10
2.172028718985981
 20
4.427516823936871
 30
0
 11
2.247628718985981
 21
4.427516823936871
 31
0
  0
LINE
  8
0
 62
7
 10
2.236828718985981
 20
4.487516823936871
 30
0
 11
2.172028718985981
 21
4.487516823936871
 31
0
  0
LINE
  8
0
 62
7
 10
2.172028718985981
 20
4.487516823936871
 30
0
 11
2.172028718985981
 21
4.427516823936871
 31
0
  0
LINE
  8
0
 62
7
 10
2.280028718985981
 20
4.427516823936871
 30
0
 11
2.280028718985981
 21
4.547516823936871
 31
0
  0
LINE
  8
0
 62
7
 10
2.280028718985981
 20
4.547516823936871
 30
0
 11
2.355628718985981
 21
4.427516823936871
 31
0
  0
LINE
  8
0
 62
7
 10
2.355628718985981
 20
4.427516823936871
 30
0
 11
2.355628718985981
 21
4.547516823936871
 31
0
  0
LINE
  8
0
 62
7
 10
2.388028718985981
 20
4.427516823936871
 30
0
 11
2.388028718985981
 21
4.547516823936871
 31
0
  0
LINE
  8
0
 62
7
 10
2.388028718985981
 20
4.547516823936871
 30
0
 11
2.463628718985981
 21
4.427516823936871
 31
0
  0
LINE
  8
0
 62
7
 10
2.463628718985981
 20
4.427516823936871
 30
0
 11
2.463628718985981
 21
4.547516823936871
 31
0
  0
LINE
  8
0
 62
7
 10
2.571628718985981
 20
4.511516823936872
 30
0
 11
2.568928718985982
 21
4.52351682393687
 31
0
  0
LINE
  8
0
 62
7
 10
2.568928718985982
 20
4.52351682393687
 30
0
 11
2.563528718985981
 21
4.532516823936871
 31
0
  0
LINE
  8
0
 62
7
 10
2.563528718985981
 20
4.532516823936871
 30
0
 11
2.558128718985981
 21
4.538516823936869
 31
0
  0
LINE
  8
0
 62
7
 10
2.558128718985981
 20
4.538516823936869
 30
0
 11
2.550028718985981
 21
4.544516823936871
 31
0
  0
LINE
  8
0
 62
7
 10
2.550028718985981
 20
4.544516823936871
 30
0
 11
2.541928718985981
 21
4.547516823936871
 31
0
  0
LINE
  8
0
 62
7
 10
2.541928718985981
 20
4.547516823936871
 30
0
 11
2.525728718985981
 21
4.547516823936871
 31
0
  0
LINE
  8
0
 62
7
 10
2.525728718985981
 20
4.547516823936871
 30
0
 11
2.517628718985981
 21
4.544516823936871
 31
0
  0
LINE
  8
0
 62
7
 10
2.517628718985981
 20
4.544516823936871
 30
0
 11
2.509528718985981
 21
4.538516823936869
 31
0
  0
LINE
  8
0
 62
7
 10
2.509528718985981
 20
4.538516823936869
 30
0
 11
2.504128718985981
 21
4.532516823936871
 31
0
  0
LINE
  8
0
 62
7
 10
2.504128718985981
 20
4.532516823936871
 30
0
 11
2.498728718985982
 21
4.52351682393687
 31
0
  0
LINE
  8
0
 62
7
 10
2.498728718985982
 20
4.52351682393687
 30
0
 11
2.496028718985981
 21
4.511516823936872
 31
0
  0
LINE
  8
0
 62
7
 10
2.496028718985981
 20
4.511516823936872
 30
0
 11
2.496028718985981
 21
4.46351682393687
 31
0
  0
LINE
  8
0
 62
7
 10
2.496028718985981
 20
4.46351682393687
 30
0
 11
2.498728718985982
 21
4.451516823936871
 31
0
  0
LINE
  8
0
 62
7
 10
2.498728718985982
 20
4.451516823936871
 30
0
 11
2.504128718985981
 21
4.44251682393687
 31
0
  0
LINE
  8
0
 62
7
 10
2.504128718985981
 20
4.44251682393687
 30
0
 11
2.509528718985981
 21
4.436516823936872
 31
0
  0
LINE
  8
0
 62
7
 10
2.509528718985981
 20
4.436516823936872
 30
0
 11
2.517628718985981
 21
4.430516823936871
 31
0
  0
LINE
  8
0
 62
7
 10
2.517628718985981
 20
4.430516823936871
 30
0
 11
2.525728718985981
 21
4.427516823936871
 31
0
  0
LINE
  8
0
 62
7
 10
2.525728718985981
 20
4.427516823936871
 30
0
 11
2.541928718985981
 21
4.427516823936871
 31
0
  0
LINE
  8
0
 62
7
 10
2.541928718985981
 20
4.427516823936871
 30
0
 11
2.550028718985981
 21
4.430516823936871
 31
0
  0
LINE
  8
0
 62
7
 10
2.550028718985981
 20
4.430516823936871
 30
0
 11
2.558128718985981
 21
4.436516823936872
 31
0
  0
LINE
  8
0
 62
7
 10
2.558128718985981
 20
4.436516823936872
 30
0
 11
2.563528718985981
 21
4.44251682393687
 31
0
  0
LINE
  8
0
 62
7
 10
2.563528718985981
 20
4.44251682393687
 30
0
 11
2.568928718985982
 21
4.451516823936871
 31
0
  0
LINE
  8
0
 62
7
 10
2.568928718985982
 20
4.451516823936871
 30
0
 11
2.571628718985981
 21
4.46351682393687
 31
0
  0
LINE
  8
0
 62
7
 10
2.571628718985981
 20
4.46351682393687
 30
0
 11
2.571628718985981
 21
4.487516823936871
 31
0
  0
LINE
  8
0
 62
7
 10
2.571628718985981
 20
4.487516823936871
 30
0
 11
2.539228718985981
 21
4.487516823936871
 31
0
  0
LINE
  8
0
 62
7
 10
2.649928718985981
 20
4.547516823936871
 30
0
 11
2.633728718985981
 21
4.547516823936871
 31
0
  0
LINE
  8
0
 62
7
 10
2.633728718985981
 20
4.547516823936871
 30
0
 11
2.625628718985981
 21
4.544516823936871
 31
0
  0
LINE
  8
0
 62
7
 10
2.625628718985981
 20
4.544516823936871
 30
0
 11
2.617528718985981
 21
4.538516823936869
 31
0
  0
LINE
  8
0
 62
7
 10
2.617528718985981
 20
4.538516823936869
 30
0
 11
2.612128718985982
 21
4.532516823936871
 31
0
  0
LINE
  8
0
 62
7
 10
2.612128718985982
 20
4.532516823936871
 30
0
 11
2.606728718985981
 21
4.52351682393687
 31
0
  0
LINE
  8
0
 62
7
 10
2.606728718985981
 20
4.52351682393687
 30
0
 11
2.604028718985981
 21
4.511516823936872
 31
0
  0
LINE
  8
0
 62
7
 10
2.604028718985981
 20
4.511516823936872
 30
0
 11
2.604028718985981
 21
4.46351682393687
 31
0
  0
LINE
  8
0
 62
7
 10
2.604028718985981
 20
4.46351682393687
 30
0
 11
2.606728718985981
 21
4.451516823936871
 31
0
  0
LINE
  8
0
 62
7
 10
2.606728718985981
 20
4.451516823936871
 30
0
 11
2.612128718985982
 21
4.44251682393687
 31
0
  0
LINE
  8
0
 62
7
 10
2.612128718985982
 20
4.44251682393687
 30
0
 11
2.617528718985981
 21
4.436516823936872
 31
0
  0
LINE
  8
0
 62
7
 10
2.617528718985981
 20
4.436516823936872
 30
0
 11
2.625628718985981
 21
4.430516823936871
 31
0
  0
LINE
  8
0
 62
7
 10
2.625628718985981
 20
4.430516823936871
 30
0
 11
2.633728718985981
 21
4.427516823936871
 31
0
  0
LINE
  8
0
 62
7
 10
2.633728718985981
 20
4.427516823936871
 30
0
 11
2.649928718985981
 21
4.427516823936871
 31
0
  0
LINE
  8
0
 62
7
 10
2.649928718985981
 20
4.427516823936871
 30
0
 11
2.658028718985981
 21
4.430516823936871
 31
0
  0
LINE
  8
0
 62
7
 10
2.658028718985981
 20
4.430516823936871
 30
0
 11
2.666128718985981
 21
4.436516823936872
 31
0
  0
LINE
  8
0
 62
7
 10
2.666128718985981
 20
4.436516823936872
 30
0
 11
2.671528718985981
 21
4.44251682393687
 31
0
  0
LINE
  8
0
 62
7
 10
2.671528718985981
 20
4.44251682393687
 30
0
 11
2.676928718985982
 21
4.451516823936871
 31
0
  0
LINE
  8
0
 62
7
 10
2.676928718985982
 20
4.451516823936871
 30
0
 11
2.679628718985982
 21
4.46351682393687
 31
0
  0
LINE
  8
0
 62
7
 10
2.679628718985982
 20
4.46351682393687
 30
0
 11
2.679628718985982
 21
4.511516823936872
 31
0
  0
LINE
  8
0
 62
7
 10
2.679628718985982
 20
4.511516823936872
 30
0
 11
2.676928718985982
 21
4.52351682393687
 31
0
  0
LINE
  8
0
 62
7
 10
2.676928718985982
 20
4.52351682393687
 30
0
 11
2.671528718985981
 21
4.532516823936871
 31
0
  0
LINE
  8
0
 62
7
 10
2.671528718985981
 20
4.532516823936871
 30
0
 11
2.666128718985981
 21
4.538516823936869
 31
0
  0
LINE
  8
0
 62
7
 10
2.666128718985981
 20
4.538516823936869
 30
0
 11
2.658028718985981
 21
4.544516823936871
 31
0
  0
LINE
  8
0
 62
7
 10
2.658028718985981
 20
4.544516823936871
 30
0
 11
2.649928718985981
 21
4.547516823936871
 31
0
  0
LINE
  8
0
 62
7
 10
2.701228718985981
 20
4.547516823936871
 30
0
 11
2.739028718985981
 21
4.547516823936871
 31
0
  0
LINE
  8
0
 62
7
 10
2.739028718985981
 20
4.547516823936871
 30
0
 11
2.739028718985981
 21
4.427516823936871
 31
0
  0
LINE
  8
0
 62
7
 10
2.739028718985981
 20
4.547516823936871
 30
0
 11
2.776828718985981
 21
4.547516823936871
 31
0
  0
LINE
  8
0
 62
7
 10
2.809228718985981
 20
4.547516823936871
 30
0
 11
2.847028718985981
 21
4.547516823936871
 31
0
  0
LINE
  8
0
 62
7
 10
2.847028718985981
 20
4.547516823936871
 30
0
 11
2.847028718985981
 21
4.427516823936871
 31
0
  0
LINE
  8
0
 62
7
 10
2.847028718985981
 20
4.547516823936871
 30
0
 11
2.884828718985981
 21
4.547516823936871
 31
0
  0
LINE
  8
0
 62
7
 10
3.003628718985981
 20
4.469516823936871
 30
0
 11
3.057628718985981
 21
4.469516823936871
 31
0
  0
LINE
  8
0
 62
7
 10
3.165628718985981
 20
4.547516823936871
 30
0
 11
3.203428718985982
 21
4.547516823936871
 31
0
  0
LINE
  8
0
 62
7
 10
3.203428718985982
 20
4.547516823936871
 30
0
 11
3.203428718985982
 21
4.427516823936871
 31
0
  0
LINE
  8
0
 62
7
 10
3.203428718985982
 20
4.547516823936871
 30
0
 11
3.241228718985981
 21
4.547516823936871
 31
0
  0
LINE
  8
0
 62
7
 10
3.273628718985981
 20
4.427516823936871
 30
0
 11
3.273628718985981
 21
4.547516823936871
 31
0
  0
LINE
  8
0
 62
7
 10
3.273628718985981
 20
4.547516823936871
 30
0
 11
3.324928718985982
 21
4.547516823936871
 31
0
  0
LINE
  8
0
 62
7
 10
3.324928718985982
 20
4.547516823936871
 30
0
 11
3.335728718985981
 21
4.544516823936871
 31
0
  0
LINE
  8
0
 62
7
 10
3.335728718985981
 20
4.544516823936871
 30
0
 11
3.343828718985982
 21
4.538516823936869
 31
0
  0
LINE
  8
0
 62
7
 10
3.343828718985982
 20
4.538516823936869
 30
0
 11
3.346528718985982
 21
4.532516823936871
 31
0
  0
LINE
  8
0
 62
7
 10
3.346528718985982
 20
4.532516823936871
 30
0
 11
3.349228718985981
 21
4.52351682393687
 31
0
  0
LINE
  8
0
 62
7
 10
3.349228718985981
 20
4.52351682393687
 30
0
 11
3.349228718985981
 21
4.511516823936872
 31
0
  0
LINE
  8
0
 62
7
 10
3.349228718985981
 20
4.511516823936872
 30
0
 11
3.346528718985982
 21
4.502516823936871
 31
0
  0
LINE
  8
0
 62
7
 10
3.346528718985982
 20
4.502516823936871
 30
0
 11
3.343828718985982
 21
4.496516823936871
 31
0
  0
LINE
  8
0
 62
7
 10
3.343828718985982
 20
4.496516823936871
 30
0
 11
3.335728718985981
 21
4.490516823936871
 31
0
  0
LINE
  8
0
 62
7
 10
3.335728718985981
 20
4.490516823936871
 30
0
 11
3.324928718985982
 21
4.487516823936871
 31
0
  0
LINE
  8
0
 62
7
 10
3.324928718985982
 20
4.487516823936871
 30
0
 11
3.316828718985981
 21
4.487516823936871
 31
0
  0
LINE
  8
0
 62
7
 10
3.316828718985981
 20
4.487516823936871
 30
0
 11
3.349228718985981
 21
4.427516823936871
 31
0
  0
LINE
  8
0
 62
7
 10
3.316828718985981
 20
4.487516823936871
 30
0
 11
3.273628718985981
 21
4.487516823936871
 31
0
  0
LINE
  8
0
 62
7
 10
3.446428718985981
 20
4.547516823936871
 30
0
 11
3.370828718985981
 21
4.547516823936871
 31
0
  0
LINE
  8
0
 62
7
 10
3.370828718985981
 20
4.547516823936871
 30
0
 11
3.370828718985981
 21
4.487516823936871
 31
0
  0
LINE
  8
0
 62
7
 10
3.370828718985981
 20
4.427516823936871
 30
0
 11
3.446428718985981
 21
4.427516823936871
 31
0
  0
LINE
  8
0
 62
7
 10
3.435628718985981
 20
4.487516823936871
 30
0
 11
3.370828718985981
 21
4.487516823936871
 31
0
  0
LINE
  8
0
 62
7
 10
3.370828718985981
 20
4.487516823936871
 30
0
 11
3.370828718985981
 21
4.427516823936871
 31
0
  0
LINE
  8
0
 62
7
 10
3.478828718985982
 20
4.427516823936871
 30
0
 11
3.478828718985982
 21
4.487516823936871
 31
0
  0
LINE
  8
0
 62
7
 10
3.478828718985982
 20
4.547516823936871
 30
0
 11
3.530128718985982
 21
4.547516823936871
 31
0
  0
LINE
  8
0
 62
7
 10
3.530128718985982
 20
4.547516823936871
 30
0
 11
3.540928718985981
 21
4.544516823936871
 31
0
  0
LINE
  8
0
 62
7
 10
3.540928718985981
 20
4.544516823936871
 30
0
 11
3.549028718985982
 21
4.538516823936869
 31
0
  0
LINE
  8
0
 62
7
 10
3.549028718985982
 20
4.538516823936869
 30
0
 11
3.551728718985981
 21
4.532516823936871
 31
0
  0
LINE
  8
0
 62
7
 10
3.551728718985981
 20
4.532516823936871
 30
0
 11
3.554428718985982
 21
4.52351682393687
 31
0
  0
LINE
  8
0
 62
7
 10
3.554428718985982
 20
4.52351682393687
 30
0
 11
3.554428718985982
 21
4.511516823936872
 31
0
  0
LINE
  8
0
 62
7
 10
3.554428718985982
 20
4.511516823936872
 30
0
 11
3.551728718985981
 21
4.502516823936871
 31
0
  0
LINE
  8
0
 62
7
 10
3.551728718985981
 20
4.502516823936871
 30
0
 11
3.549028718985982
 21
4.496516823936871
 31
0
  0
LINE
  8
0
 62
7
 10
3.549028718985982
 20
4.496516823936871
 30
0
 11
3.540928718985981
 21
4.490516823936871
 31
0
  0
LINE
  8
0
 62
7
 10
3.540928718985981
 20
4.490516823936871
 30
0
 11
3.530128718985982
 21
4.487516823936871
 31
0
  0
LINE
  8
0
 62
7
 10
3.530128718985982
 20
4.487516823936871
 30
0
 11
3.478828718985982
 21
4.487516823936871
 31
0
  0
LINE
  8
0
 62
7
 10
3.478828718985982
 20
4.487516823936871
 30
0
 11
3.478828718985982
 21
4.547516823936871
 31
0
  0
LINE
  8
0
 62
7
 10
3.576028718985981
 20
4.427516823936871
 30
0
 11
3.576028718985981
 21
4.487516823936871
 31
0
  0
LINE
  8
0
 62
7
 10
3.576028718985981
 20
4.547516823936871
 30
0
 11
3.627328718985982
 21
4.547516823936871
 31
0
  0
LINE
  8
0
 62
7
 10
3.627328718985982
 20
4.547516823936871
 30
0
 11
3.638128718985981
 21
4.544516823936871
 31
0
  0
LINE
  8
0
 62
7
 10
3.638128718985981
 20
4.544516823936871
 30
0
 11
3.646228718985981
 21
4.538516823936869
 31
0
  0
LINE
  8
0
 62
7
 10
3.646228718985981
 20
4.538516823936869
 30
0
 11
3.648928718985981
 21
4.532516823936871
 31
0
  0
LINE
  8
0
 62
7
 10
3.648928718985981
 20
4.532516823936871
 30
0
 11
3.651628718985981
 21
4.52351682393687
 31
0
  0
LINE
  8
0
 62
7
 10
3.651628718985981
 20
4.52351682393687
 30
0
 11
3.651628718985981
 21
4.511516823936872
 31
0
  0
LINE
  8
0
 62
7
 10
3.651628718985981
 20
4.511516823936872
 30
0
 11
3.648928718985981
 21
4.502516823936871
 31
0
  0
LINE
  8
0
 62
7
 10
3.648928718985981
 20
4.502516823936871
 30
0
 11
3.646228718985981
 21
4.496516823936871
 31
0
  0
LINE
  8
0
 62
7
 10
3.646228718985981
 20
4.496516823936871
 30
0
 11
3.638128718985981
 21
4.490516823936871
 31
0
  0
LINE
  8
0
 62
7
 10
3.638128718985981
 20
4.490516823936871
 30
0
 11
3.627328718985982
 21
4.487516823936871
 31
0
  0
LINE
  8
0
 62
7
 10
3.627328718985982
 20
4.487516823936871
 30
0
 11
3.576028718985981
 21
4.487516823936871
 31
0
  0
LINE
  8
0
 62
7
 10
3.576028718985981
 20
4.487516823936871
 30
0
 11
3.576028718985981
 21
4.547516823936871
 31
0
  0
LINE
  8
0
 62
7
 10
3.748828718985981
 20
4.547516823936871
 30
0
 11
3.673228718985981
 21
4.547516823936871
 31
0
  0
LINE
  8
0
 62
7
 10
3.673228718985981
 20
4.547516823936871
 30
0
 11
3.673228718985981
 21
4.487516823936871
 31
0
  0
LINE
  8
0
 62
7
 10
3.673228718985981
 20
4.427516823936871
 30
0
 11
3.748828718985981
 21
4.427516823936871
 31
0
  0
LINE
  8
0
 62
7
 10
3.738028718985981
 20
4.487516823936871
 30
0
 11
3.673228718985981
 21
4.487516823936871
 31
0
  0
LINE
  8
0
 62
7
 10
3.673228718985981
 20
4.487516823936871
 30
0
 11
3.673228718985981
 21
4.427516823936871
 31
0
  0
LINE
  8
0
 62
7
 10
0.625
 20
3.060000000000002
 30
0
 11
0.7006000000000001
 21
3.060000000000002
 31
0
  0
LINE
  8
0
 62
7
 10
0.7006000000000001
 20
3.060000000000002
 30
0
 11
0.625
 21
2.940000000000003
 31
0
  0
LINE
  8
0
 62
7
 10
0.625
 20
2.940000000000003
 30
0
 11
0.7006000000000001
 21
2.940000000000003
 31
0
  0
LINE
  8
0
 62
7
 10
0.7330000000000001
 20
3.042000000000002
 30
0
 11
0.7384000000000002
 21
3.051000000000004
 31
0
  0
LINE
  8
0
 62
7
 10
0.7384000000000002
 20
3.051000000000004
 30
0
 11
0.7465000000000001
 21
3.057000000000002
 31
0
  0
LINE
  8
0
 62
7
 10
0.7465000000000001
 20
3.057000000000002
 30
0
 11
0.7573000000000001
 21
3.060000000000002
 31
0
  0
LINE
  8
0
 62
7
 10
0.7573000000000001
 20
3.060000000000002
 30
0
 11
0.7735000000000002
 21
3.060000000000002
 31
0
  0
LINE
  8
0
 62
7
 10
0.7735000000000002
 20
3.060000000000002
 30
0
 11
0.7843000000000001
 21
3.057000000000002
 31
0
  0
LINE
  8
0
 62
7
 10
0.7843000000000001
 20
3.057000000000002
 30
0
 11
0.7924000000000002
 21
3.051000000000004
 31
0
  0
LINE
  8
0
 62
7
 10
0.7924000000000002
 20
3.051000000000004
 30
0
 11
0.7978000000000001
 21
3.042000000000002
 31
0
  0
LINE
  8
0
 62
7
 10
0.7978000000000001
 20
3.042000000000002
 30
0
 11
0.7978000000000001
 21
3.030000000000002
 31
0
  0
LINE
  8
0
 62
7
 10
0.7978000000000001
 20
3.030000000000002
 30
0
 11
0.7924000000000002
 21
3.018000000000002
 31
0
  0
LINE
  8
0
 62
7
 10
0.7924000000000002
 20
3.018000000000002
 30
0
 11
0.7330000000000001
 21
2.940000000000003
 31
0
  0
LINE
  8
0
 62
7
 10
0.7330000000000001
 20
2.940000000000003
 30
0
 11
0.7978000000000001
 21
2.940000000000003
 31
0
  0
LINE
  8
0
 62
7
 10
0.8302000000000002
 20
3.060000000000002
 30
0
 11
0.8680000000000002
 21
2.940000000000003
 31
0
  0
LINE
  8
0
 62
7
 10
0.8680000000000002
 20
2.940000000000003
 30
0
 11
0.9058000000000002
 21
3.060000000000002
 31
0
  0
LINE
  8
0
 62
7
 10
0.9382000000000001
 20
3.042000000000002
 30
0
 11
0.9436000000000002
 21
3.051000000000004
 31
0
  0
LINE
  8
0
 62
7
 10
0.9436000000000002
 20
3.051000000000004
 30
0
 11
0.9517000000000002
 21
3.057000000000002
 31
0
  0
LINE
  8
0
 62
7
 10
0.9517000000000002
 20
3.057000000000002
 30
0
 11
0.9625
 21
3.060000000000002
 31
0
  0
LINE
  8
0
 62
7
 10
0.9625
 20
3.060000000000002
 30
0
 11
0.9787000000000001
 21
3.060000000000002
 31
0
  0
LINE
  8
0
 62
7
 10
0.9787000000000001
 20
3.060000000000002
 30
0
 11
0.9868000000000001
 21
3.057000000000002
 31
0
  0
LINE
  8
0
 62
7
 10
0.9868000000000001
 20
3.057000000000002
 30
0
 11
0.9949000000000002
 21
3.051000000000004
 31
0
  0
LINE
  8
0
 62
7
 10
0.9949000000000002
 20
3.051000000000004
 30
0
 11
1.0003
 21
3.042000000000002
 31
0
  0
LINE
  8
0
 62
7
 10
1.0003
 20
3.042000000000002
 30
0
 11
1.003
 21
3.030000000000002
 31
0
  0
LINE
  8
0
 62
7
 10
1.003
 20
3.030000000000002
 30
0
 11
1.003
 21
3.021000000000003
 31
0
  0
LINE
  8
0
 62
7
 10
1.003
 20
3.021000000000003
 30
0
 11
1.0003
 21
3.012000000000002
 31
0
  0
LINE
  8
0
 62
7
 10
1.0003
 20
3.012000000000002
 30
0
 11
0.9949000000000002
 21
3.006000000000003
 31
0
  0
LINE
  8
0
 62
7
 10
0.9949000000000002
 20
3.006000000000003
 30
0
 11
0.9814000000000003
 21
3.000000000000003
 31
0
  0
LINE
  8
0
 62
7
 10
0.9625
 20
3.000000000000003
 30
0
 11
0.9814000000000003
 21
3.000000000000003
 31
0
  0
LINE
  8
0
 62
7
 10
0.9814000000000003
 20
3.000000000000003
 30
0
 11
0.9949000000000002
 21
2.994000000000003
 31
0
  0
LINE
  8
0
 62
7
 10
0.9949000000000002
 20
2.994000000000003
 30
0
 11
1.0003
 21
2.988000000000002
 31
0
  0
LINE
  8
0
 62
7
 10
1.0003
 20
2.988000000000002
 30
0
 11
1.003
 21
2.979000000000003
 31
0
  0
LINE
  8
0
 62
7
 10
1.003
 20
2.979000000000003
 30
0
 11
1.003
 21
2.970000000000002
 31
0
  0
LINE
  8
0
 62
7
 10
1.003
 20
2.970000000000002
 30
0
 11
1.0003
 21
2.958000000000002
 31
0
  0
LINE
  8
0
 62
7
 10
1.0003
 20
2.958000000000002
 30
0
 11
0.9949000000000002
 21
2.949000000000003
 31
0
  0
LINE
  8
0
 62
7
 10
0.9949000000000002
 20
2.949000000000003
 30
0
 11
0.9868000000000001
 21
2.943000000000002
 31
0
  0
LINE
  8
0
 62
7
 10
0.9868000000000001
 20
2.943000000000002
 30
0
 11
0.9787000000000001
 21
2.940000000000003
 31
0
  0
LINE
  8
0
 62
7
 10
0.9787000000000001
 20
2.940000000000003
 30
0
 11
0.9625
 21
2.940000000000003
 31
0
  0
LINE
  8
0
 62
7
 10
0.9625
 20
2.940000000000003
 30
0
 11
0.9517000000000002
 21
2.943000000000002
 31
0
  0
LINE
  8
0
 62
7
 10
0.9517000000000002
 20
2.943000000000002
 30
0
 11
0.9436000000000002
 21
2.949000000000003
 31
0
  0
LINE
  8
0
 62
7
 10
0.9436000000000002
 20
2.949000000000003
 30
0
 11
0.9382000000000001
 21
2.958000000000002
 31
0
  0
LINE
  8
0
 62
7
 10
1.0354
 20
3.042000000000002
 30
0
 11
1.0408
 21
3.051000000000004
 31
0
  0
LINE
  8
0
 62
7
 10
1.0408
 20
3.051000000000004
 30
0
 11
1.0489
 21
3.057000000000002
 31
0
  0
LINE
  8
0
 62
7
 10
1.0489
 20
3.057000000000002
 30
0
 11
1.0597
 21
3.060000000000002
 31
0
  0
LINE
  8
0
 62
7
 10
1.0597
 20
3.060000000000002
 30
0
 11
1.0759
 21
3.060000000000002
 31
0
  0
LINE
  8
0
 62
7
 10
1.0759
 20
3.060000000000002
 30
0
 11
1.0867
 21
3.057000000000002
 31
0
  0
LINE
  8
0
 62
7
 10
1.0867
 20
3.057000000000002
 30
0
 11
1.0948
 21
3.051000000000004
 31
0
  0
LINE
  8
0
 62
7
 10
1.0948
 20
3.051000000000004
 30
0
 11
1.1002
 21
3.042000000000002
 31
0
  0
LINE
  8
0
 62
7
 10
1.1002
 20
3.042000000000002
 30
0
 11
1.1002
 21
3.030000000000002
 31
0
  0
LINE
  8
0
 62
7
 10
1.1002
 20
3.030000000000002
 30
0
 11
1.0948
 21
3.018000000000002
 31
0
  0
LINE
  8
0
 62
7
 10
1.0948
 20
3.018000000000002
 30
0
 11
1.0354
 21
2.940000000000003
 31
0
  0
LINE
  8
0
 62
7
 10
1.0354
 20
2.940000000000003
 30
0
 11
1.1002
 21
2.940000000000003
 31
0
  0
LINE
  8
0
 62
7
 10
1.1326
 20
2.988000000000002
 30
0
 11
1.1353
 21
3.000000000000003
 31
0
  0
LINE
  8
0
 62
7
 10
1.1353
 20
3.000000000000003
 30
0
 11
1.1407
 21
3.009000000000003
 31
0
  0
LINE
  8
0
 62
7
 10
1.1407
 20
3.009000000000003
 30
0
 11
1.1488
 21
3.015000000000002
 31
0
  0
LINE
  8
0
 62
7
 10
1.1488
 20
3.015000000000002
 30
0
 11
1.1569
 21
3.018000000000002
 31
0
  0
LINE
  8
0
 62
7
 10
1.1569
 20
3.018000000000002
 30
0
 11
1.1731
 21
3.018000000000002
 31
0
  0
LINE
  8
0
 62
7
 10
1.1731
 20
3.018000000000002
 30
0
 11
1.1812
 21
3.015000000000002
 31
0
  0
LINE
  8
0
 62
7
 10
1.1812
 20
3.015000000000002
 30
0
 11
1.1893
 21
3.009000000000003
 31
0
  0
LINE
  8
0
 62
7
 10
1.1893
 20
3.009000000000003
 30
0
 11
1.1947
 21
3.000000000000003
 31
0
  0
LINE
  8
0
 62
7
 10
1.1947
 20
3.000000000000003
 30
0
 11
1.1974
 21
2.988000000000002
 31
0
  0
LINE
  8
0
 62
7
 10
1.1974
 20
2.988000000000002
 30
0
 11
1.1974
 21
2.970000000000002
 31
0
  0
LINE
  8
0
 62
7
 10
1.1974
 20
2.970000000000002
 30
0
 11
1.1947
 21
2.958000000000002
 31
0
  0
LINE
  8
0
 62
7
 10
1.1947
 20
2.958000000000002
 30
0
 11
1.1893
 21
2.949000000000003
 31
0
  0
LINE
  8
0
 62
7
 10
1.1893
 20
2.949000000000003
 30
0
 11
1.1812
 21
2.943000000000002
 31
0
  0
LINE
  8
0
 62
7
 10
1.1812
 20
2.943000000000002
 30
0
 11
1.1731
 21
2.940000000000003
 31
0
  0
LINE
  8
0
 62
7
 10
1.1731
 20
2.940000000000003
 30
0
 11
1.1569
 21
2.940000000000003
 31
0
  0
LINE
  8
0
 62
7
 10
1.1569
 20
2.940000000000003
 30
0
 11
1.1488
 21
2.943000000000002
 31
0
  0
LINE
  8
0
 62
7
 10
1.1488
 20
2.943000000000002
 30
0
 11
1.1407
 21
2.949000000000003
 31
0
  0
LINE
  8
0
 62
7
 10
1.1407
 20
2.949000000000003
 30
0
 11
1.1353
 21
2.958000000000002
 31
0
  0
LINE
  8
0
 62
7
 10
1.1353
 20
2.958000000000002
 30
0
 11
1.1326
 21
2.970000000000002
 31
0
  0
LINE
  8
0
 62
7
 10
1.1326
 20
2.970000000000002
 30
0
 11
1.1326
 21
2.988000000000002
 31
0
  0
LINE
  8
0
 62
7
 10
1.1326
 20
3.030000000000002
 30
0
 11
1.1353
 21
3.042000000000002
 31
0
  0
LINE
  8
0
 62
7
 10
1.1353
 20
3.042000000000002
 30
0
 11
1.1407
 21
3.051000000000004
 31
0
  0
LINE
  8
0
 62
7
 10
1.1407
 20
3.051000000000004
 30
0
 11
1.1488
 21
3.057000000000002
 31
0
  0
LINE
  8
0
 62
7
 10
1.1488
 20
3.057000000000002
 30
0
 11
1.1569
 21
3.060000000000002
 31
0
  0
LINE
  8
0
 62
7
 10
1.1569
 20
3.060000000000002
 30
0
 11
1.1731
 21
3.060000000000002
 31
0
  0
LINE
  8
0
 62
7
 10
1.1731
 20
3.060000000000002
 30
0
 11
1.1812
 21
3.057000000000002
 31
0
  0
LINE
  8
0
 62
7
 10
1.1812
 20
3.057000000000002
 30
0
 11
1.1893
 21
3.051000000000004
 31
0
  0
LINE
  8
0
 62
7
 10
1.1893
 20
3.051000000000004
 30
0
 11
1.1947
 21
3.042000000000002
 31
0
  0
LINE
  8
0
 62
7
 10
1.1326
 20
2.988000000000002
 30
0
 11
1.1326
 21
3.030000000000002
 31
0
  0
LINE
  8
0
 62
7
 10
1.2946
 20
2.940000000000003
 30
0
 11
1.2298
 21
2.940000000000003
 31
0
  0
LINE
  8
0
 62
7
 10
1.2298
 20
2.940000000000003
 30
0
 11
1.2298
 21
3.060000000000002
 31
0
  0
LINE
  8
0
 62
7
 10
1.327
 20
2.988000000000002
 30
0
 11
1.3297
 21
3.000000000000003
 31
0
  0
LINE
  8
0
 62
7
 10
1.3297
 20
3.000000000000003
 30
0
 11
1.3351
 21
3.009000000000003
 31
0
  0
LINE
  8
0
 62
7
 10
1.3351
 20
3.009000000000003
 30
0
 11
1.3432
 21
3.015000000000002
 31
0
  0
LINE
  8
0
 62
7
 10
1.3432
 20
3.015000000000002
 30
0
 11
1.3513
 21
3.018000000000002
 31
0
  0
LINE
  8
0
 62
7
 10
1.3513
 20
3.018000000000002
 30
0
 11
1.3675
 21
3.018000000000002
 31
0
  0
LINE
  8
0
 62
7
 10
1.3675
 20
3.018000000000002
 30
0
 11
1.3756
 21
3.015000000000002
 31
0
  0
LINE
  8
0
 62
7
 10
1.3756
 20
3.015000000000002
 30
0
 11
1.3837
 21
3.009000000000003
 31
0
  0
LINE
  8
0
 62
7
 10
1.3837
 20
3.009000000000003
 30
0
 11
1.3891
 21
3.000000000000003
 31
0
  0
LINE
  8
0
 62
7
 10
1.3891
 20
3.000000000000003
 30
0
 11
1.3918
 21
2.988000000000002
 31
0
  0
LINE
  8
0
 62
7
 10
1.3918
 20
2.988000000000002
 30
0
 11
1.3918
 21
2.970000000000002
 31
0
  0
LINE
  8
0
 62
7
 10
1.3918
 20
2.970000000000002
 30
0
 11
1.3891
 21
2.958000000000002
 31
0
  0
LINE
  8
0
 62
7
 10
1.3891
 20
2.958000000000002
 30
0
 11
1.3837
 21
2.949000000000003
 31
0
  0
LINE
  8
0
 62
7
 10
1.3837
 20
2.949000000000003
 30
0
 11
1.3756
 21
2.943000000000002
 31
0
  0
LINE
  8
0
 62
7
 10
1.3756
 20
2.943000000000002
 30
0
 11
1.3675
 21
2.940000000000003
 31
0
  0
LINE
  8
0
 62
7
 10
1.3675
 20
2.940000000000003
 30
0
 11
1.3513
 21
2.940000000000003
 31
0
  0
LINE
  8
0
 62
7
 10
1.3513
 20
2.940000000000003
 30
0
 11
1.3432
 21
2.943000000000002
 31
0
  0
LINE
  8
0
 62
7
 10
1.3432
 20
2.943000000000002
 30
0
 11
1.3351
 21
2.949000000000003
 31
0
  0
LINE
  8
0
 62
7
 10
1.3351
 20
2.949000000000003
 30
0
 11
1.3297
 21
2.958000000000002
 31
0
  0
LINE
  8
0
 62
7
 10
1.3297
 20
2.958000000000002
 30
0
 11
1.327
 21
2.970000000000002
 31
0
  0
LINE
  8
0
 62
7
 10
1.327
 20
2.970000000000002
 30
0
 11
1.327
 21
2.988000000000002
 31
0
  0
LINE
  8
0
 62
7
 10
1.327
 20
3.030000000000002
 30
0
 11
1.3297
 21
3.042000000000002
 31
0
  0
LINE
  8
0
 62
7
 10
1.3297
 20
3.042000000000002
 30
0
 11
1.3351
 21
3.051000000000004
 31
0
  0
LINE
  8
0
 62
7
 10
1.3351
 20
3.051000000000004
 30
0
 11
1.3432
 21
3.057000000000002
 31
0
  0
LINE
  8
0
 62
7
 10
1.3432
 20
3.057000000000002
 30
0
 11
1.3513
 21
3.060000000000002
 31
0
  0
LINE
  8
0
 62
7
 10
1.3513
 20
3.060000000000002
 30
0
 11
1.3675
 21
3.060000000000002
 31
0
  0
LINE
  8
0
 62
7
 10
1.3675
 20
3.060000000000002
 30
0
 11
1.3756
 21
3.057000000000002
 31
0
  0
LINE
  8
0
 62
7
 10
1.3756
 20
3.057000000000002
 30
0
 11
1.3837
 21
3.051000000000004
 31
0
  0
LINE
  8
0
 62
7
 10
1.3837
 20
3.051000000000004
 30
0
 11
1.3891
 21
3.042000000000002
 31
0
  0
LINE
  8
0
 62
7
 10
1.327
 20
2.988000000000002
 30
0
 11
1.327
 21
3.030000000000002
 31
0
  0
LINE
  8
0
 62
7
 10
3.125
 20
2.940000000000003
 30
0
 11
3.125
 21
3.040000000000003
 31
0
  0
LINE
  8
0
 62
7
 10
3.125
 20
3.040000000000003
 30
0
 11
3.188
 21
2.940000000000003
 31
0
  0
LINE
  8
0
 62
7
 10
3.188
 20
2.940000000000003
 30
0
 11
3.188
 21
3.040000000000003
 31
0
  0
LINE
  8
0
 62
7
 10
3.269
 20
2.940000000000003
 30
0
 11
3.215
 21
2.940000000000003
 31
0
  0
LINE
  8
0
 62
7
 10
3.215
 20
2.940000000000003
 30
0
 11
3.215
 21
3.040000000000003
 31
0
  0
LINE
  8
0
 62
7
 10
3.296
 20
2.990000000000002
 30
0
 11
3.332
 21
2.990000000000002
 31
0
  0
LINE
  8
0
 62
7
 10
3.332
 20
2.990000000000002
 30
0
 11
3.3365
 21
2.990000000000002
 31
0
  0
LINE
  8
0
 62
7
 10
3.3365
 20
2.990000000000002
 30
0
 11
3.3455
 21
2.985000000000003
 31
0
  0
LINE
  8
0
 62
7
 10
3.3455
 20
2.985000000000003
 30
0
 11
3.35
 21
2.980000000000002
 31
0
  0
LINE
  8
0
 62
7
 10
3.35
 20
2.980000000000002
 30
0
 11
3.3545
 21
2.970000000000002
 31
0
  0
LINE
  8
0
 62
7
 10
3.3545
 20
2.970000000000002
 30
0
 11
3.3545
 21
2.960000000000003
 31
0
  0
LINE
  8
0
 62
7
 10
3.3545
 20
2.960000000000003
 30
0
 11
3.35
 21
2.950000000000003
 31
0
  0
LINE
  8
0
 62
7
 10
3.35
 20
2.950000000000003
 30
0
 11
3.3455
 21
2.945000000000003
 31
0
  0
LINE
  8
0
 62
7
 10
3.3455
 20
2.945000000000003
 30
0
 11
3.3365
 21
2.940000000000003
 31
0
  0
LINE
  8
0
 62
7
 10
3.3365
 20
2.940000000000003
 30
0
 11
3.296
 21
2.940000000000003
 31
0
  0
LINE
  8
0
 62
7
 10
3.296
 20
2.940000000000003
 30
0
 11
3.296
 21
2.990000000000002
 31
0
  0
LINE
  8
0
 62
7
 10
3.296
 20
3.040000000000003
 30
0
 11
3.32975
 21
3.040000000000003
 31
0
  0
LINE
  8
0
 62
7
 10
3.32975
 20
3.040000000000003
 30
0
 11
3.341000000000001
 21
3.037500000000003
 31
0
  0
LINE
  8
0
 62
7
 10
3.341000000000001
 20
3.037500000000003
 30
0
 11
3.34775
 21
3.030000000000002
 31
0
  0
LINE
  8
0
 62
7
 10
3.34775
 20
3.030000000000002
 30
0
 11
3.35
 21
3.020000000000003
 31
0
  0
LINE
  8
0
 62
7
 10
3.35
 20
3.020000000000003
 30
0
 11
3.35
 21
3.010000000000002
 31
0
  0
LINE
  8
0
 62
7
 10
3.35
 20
3.010000000000002
 30
0
 11
3.3455
 21
3.000000000000003
 31
0
  0
LINE
  8
0
 62
7
 10
3.3455
 20
3.000000000000003
 30
0
 11
3.338750000000001
 21
2.992500000000002
 31
0
  0
LINE
  8
0
 62
7
 10
3.338750000000001
 20
2.992500000000002
 30
0
 11
3.332
 21
2.990000000000002
 31
0
  0
LINE
  8
0
 62
7
 10
3.296
 20
2.990000000000002
 30
0
 11
3.296
 21
3.040000000000003
 31
0
  0
LINE
  8
0
 62
7
 10
3.49625
 20
2.992500000000002
 30
0
 11
3.4895
 21
3.002500000000003
 31
0
  0
LINE
  8
0
 62
7
 10
3.4895
 20
3.002500000000003
 30
0
 11
3.48275
 21
3.007500000000003
 31
0
  0
LINE
  8
0
 62
7
 10
3.48275
 20
3.007500000000003
 30
0
 11
3.476
 21
3.010000000000002
 31
0
  0
LINE
  8
0
 62
7
 10
3.476
 20
3.010000000000002
 30
0
 11
3.467000000000001
 21
3.010000000000002
 31
0
  0
LINE
  8
0
 62
7
 10
3.467000000000001
 20
3.010000000000002
 30
0
 11
3.46025
 21
3.007500000000003
 31
0
  0
LINE
  8
0
 62
7
 10
3.46025
 20
3.007500000000003
 30
0
 11
3.4535
 21
3.002500000000003
 31
0
  0
LINE
  8
0
 62
7
 10
3.4535
 20
3.002500000000003
 30
0
 11
3.44675
 21
2.992500000000002
 31
0
  0
LINE
  8
0
 62
7
 10
3.44675
 20
2.992500000000002
 30
0
 11
3.4445
 21
2.985000000000003
 31
0
  0
LINE
  8
0
 62
7
 10
3.4445
 20
2.985000000000003
 30
0
 11
3.4445
 21
2.965000000000003
 31
0
  0
LINE
  8
0
 62
7
 10
3.4445
 20
2.965000000000003
 30
0
 11
3.44675
 21
2.957500000000003
 31
0
  0
LINE
  8
0
 62
7
 10
3.44675
 20
2.957500000000003
 30
0
 11
3.4535
 21
2.947500000000002
 31
0
  0
LINE
  8
0
 62
7
 10
3.4535
 20
2.947500000000002
 30
0
 11
3.46025
 21
2.942500000000003
 31
0
  0
LINE
  8
0
 62
7
 10
3.46025
 20
2.942500000000003
 30
0
 11
3.467000000000001
 21
2.940000000000003
 31
0
  0
LINE
  8
0
 62
7
 10
3.467000000000001
 20
2.940000000000003
 30
0
 11
3.476
 21
2.940000000000003
 31
0
  0
LINE
  8
0
 62
7
 10
3.476
 20
2.940000000000003
 30
0
 11
3.48275
 21
2.942500000000003
 31
0
  0
LINE
  8
0
 62
7
 10
3.48275
 20
2.942500000000003
 30
0
 11
3.4895
 21
2.947500000000002
 31
0
  0
LINE
  8
0
 62
7
 10
3.4895
 20
2.947500000000002
 30
0
 11
3.49625
 21
2.957500000000003
 31
0
  0
LINE
  8
0
 62
7
 10
3.56825
 20
2.985000000000003
 30
0
 11
3.566000000000001
 21
2.992500000000002
 31
0
  0
LINE
  8
0
 62
7
 10
3.566000000000001
 20
2.992500000000002
 30
0
 11
3.55925
 21
3.002500000000003
 31
0
  0
LINE
  8
0
 62
7
 10
3.55925
 20
3.002500000000003
 30
0
 11
3.5525
 21
3.007500000000003
 31
0
  0
LINE
  8
0
 62
7
 10
3.5525
 20
3.007500000000003
 30
0
 11
3.54575
 21
3.010000000000002
 31
0
  0
LINE
  8
0
 62
7
 10
3.54575
 20
3.010000000000002
 30
0
 11
3.53675
 21
3.010000000000002
 31
0
  0
LINE
  8
0
 62
7
 10
3.53675
 20
3.010000000000002
 30
0
 11
3.530000000000001
 21
3.007500000000003
 31
0
  0
LINE
  8
0
 62
7
 10
3.530000000000001
 20
3.007500000000003
 30
0
 11
3.52325
 21
3.002500000000003
 31
0
  0
LINE
  8
0
 62
7
 10
3.52325
 20
3.002500000000003
 30
0
 11
3.5165
 21
2.992500000000002
 31
0
  0
LINE
  8
0
 62
7
 10
3.5165
 20
2.992500000000002
 30
0
 11
3.51425
 21
2.985000000000003
 31
0
  0
LINE
  8
0
 62
7
 10
3.51425
 20
2.985000000000003
 30
0
 11
3.51425
 21
2.965000000000003
 31
0
  0
LINE
  8
0
 62
7
 10
3.51425
 20
2.965000000000003
 30
0
 11
3.5165
 21
2.957500000000003
 31
0
  0
LINE
  8
0
 62
7
 10
3.5165
 20
2.957500000000003
 30
0
 11
3.52325
 21
2.947500000000002
 31
0
  0
LINE
  8
0
 62
7
 10
3.52325
 20
2.947500000000002
 30
0
 11
3.530000000000001
 21
2.942500000000003
 31
0
  0
LINE
  8
0
 62
7
 10
3.530000000000001
 20
2.942500000000003
 30
0
 11
3.53675
 21
2.940000000000003
 31
0
  0
LINE
  8
0
 62
7
 10
3.53675
 20
2.940000000000003
 30
0
 11
3.54575
 21
2.940000000000003
 31
0
  0
LINE
  8
0
 62
7
 10
3.54575
 20
2.940000000000003
 30
0
 11
3.5525
 21
2.942500000000003
 31
0
  0
LINE
  8
0
 62
7
 10
3.5525
 20
2.942500000000003
 30
0
 11
3.55925
 21
2.947500000000002
 31
0
  0
LINE
  8
0
 62
7
 10
3.55925
 20
2.947500000000002
 30
0
 11
3.566000000000001
 21
2.957500000000003
 31
0
  0
LINE
  8
0
 62
7
 10
3.566000000000001
 20
2.957500000000003
 30
0
 11
3.56825
 21
2.965000000000003
 31
0
  0
LINE
  8
0
 62
7
 10
3.56825
 20
3.010000000000002
 30
0
 11
3.56825
 21
2.985000000000003
 31
0
  0
LINE
  8
0
 62
7
 10
3.56825
 20
2.942500000000003
 30
0
 11
3.5705
 21
2.940000000000003
 31
0
  0
LINE
  8
0
 62
7
 10
3.5705
 20
2.940000000000003
 30
0
 11
3.57275
 21
2.940000000000003
 31
0
  0
LINE
  8
0
 62
7
 10
3.56825
 20
2.965000000000003
 30
0
 11
3.56825
 21
2.942500000000003
 31
0
  0
LINE
  8
0
 62
7
 10
3.56825
 20
2.985000000000003
 30
0
 11
3.56825
 21
2.965000000000003
 31
0
  0
LINE
  8
0
 62
7
 10
3.59075
 20
2.940000000000003
 30
0
 11
3.59075
 21
2.942500000000003
 31
0
  0
LINE
  8
0
 62
7
 10
3.59075
 20
2.942500000000003
 30
0
 11
3.593
 21
2.942500000000003
 31
0
  0
LINE
  8
0
 62
7
 10
3.593
 20
2.942500000000003
 30
0
 11
3.593
 21
2.940000000000003
 31
0
  0
LINE
  8
0
 62
7
 10
3.593
 20
2.940000000000003
 30
0
 11
3.59075
 21
2.940000000000003
 31
0
  0
LINE
  8
0
 62
7
 10
3.716750000000001
 20
3.040000000000003
 30
0
 11
3.72575
 21
3.040000000000003
 31
0
  0
LINE
  8
0
 62
7
 10
3.72575
 20
3.040000000000003
 30
0
 11
3.7325
 21
3.037500000000003
 31
0
  0
LINE
  8
0
 62
7
 10
3.7325
 20
3.037500000000003
 30
0
 11
3.737
 21
3.032500000000002
 31
0
  0
LINE
  8
0
 62
7
 10
3.737
 20
3.032500000000002
 30
0
 11
3.7415
 21
3.025000000000003
 31
0
  0
LINE
  8
0
 62
7
 10
3.7415
 20
3.025000000000003
 30
0
 11
3.7415
 21
3.015000000000002
 31
0
  0
LINE
  8
0
 62
7
 10
3.7415
 20
3.015000000000002
 30
0
 11
3.73925
 21
3.010000000000002
 31
0
  0
LINE
  8
0
 62
7
 10
3.73925
 20
3.010000000000002
 30
0
 11
3.7325
 21
3.002500000000003
 31
0
  0
LINE
  8
0
 62
7
 10
3.7325
 20
3.002500000000003
 30
0
 11
3.72575
 21
3.000000000000003
 31
0
  0
LINE
  8
0
 62
7
 10
3.72575
 20
3.000000000000003
 30
0
 11
3.716750000000001
 21
3.000000000000003
 31
0
  0
LINE
  8
0
 62
7
 10
3.716750000000001
 20
3.000000000000003
 30
0
 11
3.71
 21
3.002500000000003
 31
0
  0
LINE
  8
0
 62
7
 10
3.71
 20
3.002500000000003
 30
0
 11
3.70325
 21
3.010000000000002
 31
0
  0
LINE
  8
0
 62
7
 10
3.70325
 20
3.010000000000002
 30
0
 11
3.701
 21
3.015000000000002
 31
0
  0
LINE
  8
0
 62
7
 10
3.701
 20
3.015000000000002
 30
0
 11
3.701
 21
3.025000000000003
 31
0
  0
LINE
  8
0
 62
7
 10
3.701
 20
3.025000000000003
 30
0
 11
3.7055
 21
3.032500000000002
 31
0
  0
LINE
  8
0
 62
7
 10
3.7055
 20
3.032500000000002
 30
0
 11
3.71
 21
3.037500000000003
 31
0
  0
LINE
  8
0
 62
7
 10
3.71
 20
3.037500000000003
 30
0
 11
3.716750000000001
 21
3.040000000000003
 31
0
  0
LINE
  8
0
 62
7
 10
3.716750000000001
 20
3.000000000000003
 30
0
 11
3.7055
 21
2.995000000000003
 31
0
  0
LINE
  8
0
 62
7
 10
3.7055
 20
2.995000000000003
 30
0
 11
3.69875
 21
2.987500000000002
 31
0
  0
LINE
  8
0
 62
7
 10
3.69875
 20
2.987500000000002
 30
0
 11
3.69425
 21
2.977500000000003
 31
0
  0
LINE
  8
0
 62
7
 10
3.69425
 20
2.977500000000003
 30
0
 11
3.69425
 21
2.962500000000003
 31
0
  0
LINE
  8
0
 62
7
 10
3.69425
 20
2.962500000000003
 30
0
 11
3.69875
 21
2.952500000000002
 31
0
  0
LINE
  8
0
 62
7
 10
3.69875
 20
2.952500000000002
 30
0
 11
3.7055
 21
2.945000000000003
 31
0
  0
LINE
  8
0
 62
7
 10
3.7055
 20
2.945000000000003
 30
0
 11
3.714500000000001
 21
2.940000000000003
 31
0
  0
LINE
  8
0
 62
7
 10
3.714500000000001
 20
2.940000000000003
 30
0
 11
3.728
 21
2.940000000000003
 31
0
  0
LINE
  8
0
 62
7
 10
3.728
 20
2.940000000000003
 30
0
 11
3.737
 21
2.945000000000003
 31
0
  0
LINE
  8
0
 62
7
 10
3.737
 20
2.945000000000003
 30
0
 11
3.74375
 21
2.952500000000002
 31
0
  0
LINE
  8
0
 62
7
 10
3.74375
 20
2.952500000000002
 30
0
 11
3.748250000000001
 21
2.962500000000003
 31
0
  0
LINE
  8
0
 62
7
 10
3.748250000000001
 20
2.962500000000003
 30
0
 11
3.748250000000001
 21
2.977500000000003
 31
0
  0
LINE
  8
0
 62
7
 10
3.748250000000001
 20
2.977500000000003
 30
0
 11
3.74375
 21
2.987500000000002
 31
0
  0
LINE
  8
0
 62
7
 10
3.74375
 20
2.987500000000002
 30
0
 11
3.737
 21
2.995000000000003
 31
0
  0
LINE
  8
0
 62
7
 10
3.737
 20
2.995000000000003
 30
0
 11
3.72575
 21
3.000000000000003
 31
0
  0
LINE
  8
0
 62
7
 10
3.83825
 20
3.000000000000003
 30
0
 11
3.836
 21
2.990000000000002
 31
0
  0
LINE
  8
0
 62
7
 10
3.836
 20
2.990000000000002
 30
0
 11
3.8315
 21
2.982500000000003
 31
0
  0
LINE
  8
0
 62
7
 10
3.8315
 20
2.982500000000003
 30
0
 11
3.82475
 21
2.977500000000003
 31
0
  0
LINE
  8
0
 62
7
 10
3.82475
 20
2.977500000000003
 30
0
 11
3.818
 21
2.975000000000003
 31
0
  0
LINE
  8
0
 62
7
 10
3.818
 20
2.975000000000003
 30
0
 11
3.8045
 21
2.975000000000003
 31
0
  0
LINE
  8
0
 62
7
 10
3.8045
 20
2.975000000000003
 30
0
 11
3.79775
 21
2.977500000000003
 31
0
  0
LINE
  8
0
 62
7
 10
3.79775
 20
2.977500000000003
 30
0
 11
3.791
 21
2.982500000000003
 31
0
  0
LINE
  8
0
 62
7
 10
3.791
 20
2.982500000000003
 30
0
 11
3.7865
 21
2.990000000000002
 31
0
  0
LINE
  8
0
 62
7
 10
3.7865
 20
2.990000000000002
 30
0
 11
3.78425
 21
3.000000000000003
 31
0
  0
LINE
  8
0
 62
7
 10
3.78425
 20
3.000000000000003
 30
0
 11
3.78425
 21
3.015000000000002
 31
0
  0
LINE
  8
0
 62
7
 10
3.78425
 20
3.015000000000002
 30
0
 11
3.7865
 21
3.025000000000003
 31
0
  0
LINE
  8
0
 62
7
 10
3.7865
 20
3.025000000000003
 30
0
 11
3.791
 21
3.032500000000002
 31
0
  0
LINE
  8
0
 62
7
 10
3.791
 20
3.032500000000002
 30
0
 11
3.79775
 21
3.037500000000003
 31
0
  0
LINE
  8
0
 62
7
 10
3.79775
 20
3.037500000000003
 30
0
 11
3.8045
 21
3.040000000000003
 31
0
  0
LINE
  8
0
 62
7
 10
3.8045
 20
3.040000000000003
 30
0
 11
3.818
 21
3.040000000000003
 31
0
  0
LINE
  8
0
 62
7
 10
3.818
 20
3.040000000000003
 30
0
 11
3.82475
 21
3.037500000000003
 31
0
  0
LINE
  8
0
 62
7
 10
3.82475
 20
3.037500000000003
 30
0
 11
3.8315
 21
3.032500000000002
 31
0
  0
LINE
  8
0
 62
7
 10
3.8315
 20
3.032500000000002
 30
0
 11
3.836
 21
3.025000000000003
 31
0
  0
LINE
  8
0
 62
7
 10
3.836
 20
3.025000000000003
 30
0
 11
3.83825
 21
3.015000000000002
 31
0
  0
LINE
  8
0
 62
7
 10
3.83825
 20
3.015000000000002
 30
0
 11
3.83825
 21
3.000000000000003
 31
0
  0
LINE
  8
0
 62
7
 10
3.83825
 20
2.965000000000003
 30
0
 11
3.836
 21
2.955000000000002
 31
0
  0
LINE
  8
0
 62
7
 10
3.836
 20
2.955000000000002
 30
0
 11
3.8315
 21
2.947500000000002
 31
0
  0
LINE
  8
0
 62
7
 10
3.8315
 20
2.947500000000002
 30
0
 11
3.82475
 21
2.942500000000003
 31
0
  0
LINE
  8
0
 62
7
 10
3.82475
 20
2.942500000000003
 30
0
 11
3.818
 21
2.940000000000003
 31
0
  0
LINE
  8
0
 62
7
 10
3.818
 20
2.940000000000003
 30
0
 11
3.8045
 21
2.940000000000003
 31
0
  0
LINE
  8
0
 62
7
 10
3.8045
 20
2.940000000000003
 30
0
 11
3.79775
 21
2.942500000000003
 31
0
  0
LINE
  8
0
 62
7
 10
3.79775
 20
2.942500000000003
 30
0
 11
3.791
 21
2.947500000000002
 31
0
  0
LINE
  8
0
 62
7
 10
3.791
 20
2.947500000000002
 30
0
 11
3.7865
 21
2.955000000000002
 31
0
  0
LINE
  8
0
 62
7
 10
3.83825
 20
3.000000000000003
 30
0
 11
3.83825
 21
2.965000000000003
 31
0
  0
LINE
  8
0
 62
7
 10
3.989
 20
2.992500000000002
 30
0
 11
3.98225
 21
3.002500000000003
 31
0
  0
LINE
  8
0
 62
7
 10
3.98225
 20
3.002500000000003
 30
0
 11
3.9755
 21
3.007500000000003
 31
0
  0
LINE
  8
0
 62
7
 10
3.9755
 20
3.007500000000003
 30
0
 11
3.96875
 21
3.010000000000002
 31
0
  0
LINE
  8
0
 62
7
 10
3.96875
 20
3.010000000000002
 30
0
 11
3.959750000000001
 21
3.010000000000002
 31
0
  0
LINE
  8
0
 62
7
 10
3.959750000000001
 20
3.010000000000002
 30
0
 11
3.953
 21
3.007500000000003
 31
0
  0
LINE
  8
0
 62
7
 10
3.953
 20
3.007500000000003
 30
0
 11
3.94625
 21
3.002500000000003
 31
0
  0
LINE
  8
0
 62
7
 10
3.94625
 20
3.002500000000003
 30
0
 11
3.939500000000001
 21
2.992500000000002
 31
0
  0
LINE
  8
0
 62
7
 10
3.939500000000001
 20
2.992500000000002
 30
0
 11
3.937250000000001
 21
2.985000000000003
 31
0
  0
LINE
  8
0
 62
7
 10
3.937250000000001
 20
2.985000000000003
 30
0
 11
3.937250000000001
 21
2.965000000000003
 31
0
  0
LINE
  8
0
 62
7
 10
3.937250000000001
 20
2.965000000000003
 30
0
 11
3.939500000000001
 21
2.957500000000003
 31
0
  0
LINE
  8
0
 62
7
 10
3.939500000000001
 20
2.957500000000003
 30
0
 11
3.94625
 21
2.947500000000002
 31
0
  0
LINE
  8
0
 62
7
 10
3.94625
 20
2.947500000000002
 30
0
 11
3.953
 21
2.942500000000003
 31
0
  0
LINE
  8
0
 62
7
 10
3.953
 20
2.942500000000003
 30
0
 11
3.959750000000001
 21
2.940000000000003
 31
0
  0
LINE
  8
0
 62
7
 10
3.959750000000001
 20
2.940000000000003
 30
0
 11
3.96875
 21
2.940000000000003
 31
0
  0
LINE
  8
0
 62
7
 10
3.96875
 20
2.940000000000003
 30
0
 11
3.9755
 21
2.942500000000003
 31
0
  0
LINE
  8
0
 62
7
 10
3.9755
 20
2.942500000000003
 30
0
 11
3.98225
 21
2.947500000000002
 31
0
  0
LINE
  8
0
 62
7
 10
3.98225
 20
2.947500000000002
 30
0
 11
3.989
 21
2.957500000000003
 31
0
  0
LINE
  8
0
 62
7
 10
4.0475
 20
2.985000000000003
 30
0
 11
4.0475
 21
2.940000000000003
 31
0
  0
LINE
  8
0
 62
7
 10
4.007000000000001
 20
3.010000000000002
 30
0
 11
4.007000000000001
 21
2.985000000000003
 31
0
  0
LINE
  8
0
 62
7
 10
4.007000000000001
 20
2.940000000000003
 30
0
 11
4.007000000000001
 21
2.985000000000003
 31
0
  0
LINE
  8
0
 62
7
 10
4.007000000000001
 20
2.985000000000003
 30
0
 11
4.009250000000001
 21
2.997500000000002
 31
0
  0
LINE
  8
0
 62
7
 10
4.009250000000001
 20
2.997500000000002
 30
0
 11
4.011500000000001
 21
3.002500000000003
 31
0
  0
LINE
  8
0
 62
7
 10
4.011500000000001
 20
3.002500000000003
 30
0
 11
4.016000000000001
 21
3.007500000000003
 31
0
  0
LINE
  8
0
 62
7
 10
4.016000000000001
 20
3.007500000000003
 30
0
 11
4.02275
 21
3.010000000000002
 31
0
  0
LINE
  8
0
 62
7
 10
4.02275
 20
3.010000000000002
 30
0
 11
4.031750000000001
 21
3.010000000000002
 31
0
  0
LINE
  8
0
 62
7
 10
4.031750000000001
 20
3.010000000000002
 30
0
 11
4.0385
 21
3.007500000000003
 31
0
  0
LINE
  8
0
 62
7
 10
4.0385
 20
3.007500000000003
 30
0
 11
4.043
 21
3.002500000000003
 31
0
  0
LINE
  8
0
 62
7
 10
4.043
 20
3.002500000000003
 30
0
 11
4.04525
 21
2.997500000000002
 31
0
  0
LINE
  8
0
 62
7
 10
4.04525
 20
2.997500000000002
 30
0
 11
4.0475
 21
2.985000000000003
 31
0
  0
LINE
  8
0
 62
7
 10
4.0475
 20
2.985000000000003
 30
0
 11
4.04975
 21
2.997500000000002
 31
0
  0
LINE
  8
0
 62
7
 10
4.04975
 20
2.997500000000002
 30
0
 11
4.052
 21
3.002500000000003
 31
0
  0
LINE
  8
0
 62
7
 10
4.052
 20
3.002500000000003
 30
0
 11
4.0565
 21
3.007500000000003
 31
0
  0
LINE
  8
0
 62
7
 10
4.0565
 20
3.007500000000003
 30
0
 11
4.06325
 21
3.010000000000002
 31
0
  0
LINE
  8
0
 62
7
 10
4.06325
 20
3.010000000000002
 30
0
 11
4.07225
 21
3.010000000000002
 31
0
  0
LINE
  8
0
 62
7
 10
4.07225
 20
3.010000000000002
 30
0
 11
4.079
 21
3.007500000000003
 31
0
  0
LINE
  8
0
 62
7
 10
4.0835
 20
3.002500000000003
 30
0
 11
4.079
 21
3.007500000000003
 31
0
  0
LINE
  8
0
 62
7
 10
4.079
 20
3.007500000000003
 30
0
 11
4.0835
 21
3.002500000000003
 31
0
  0
LINE
  8
0
 62
7
 10
4.0835
 20
3.002500000000003
 30
0
 11
4.08575
 21
2.997500000000002
 31
0
  0
LINE
  8
0
 62
7
 10
4.08575
 20
2.997500000000002
 30
0
 11
4.088
 21
2.985000000000003
 31
0
  0
LINE
  8
0
 62
7
 10
4.088
 20
2.985000000000003
 30
0
 11
4.088
 21
2.940000000000003
 31
0
  0
ARC
  8
0
 62
7
 10
2.279748332621442
 20
3.745251667378529
 30
0
 40
0.5300000000000038
 50
89.9727934419813
 51
180.0272065655676
  0
ARC
  8
0
 62
7
 10
3.530251667378553
 20
3.745251667378562
 30
0
 40
0.5300000000000004
 50
359.9727934373056
 51
90.02720656556998
  0
CIRCLE
  8
0
 62
7
 10
4.060251607627172
 20
3.300000000000002
 30
0
 40
0.05999999999999961
  0
DIMENSION
  8
0
  6
CONTINUOUS
 62
7
  2
*D0
  3
DMST_1
 10
0.7242912011014742
 20
4.75
 30
0
 11
0.7242912011014742
 21
4.07522763725657
 31
0
 12
0
 22
0
 32
0
 70
0
 13
1.1
 23
3.4
 33
0
 14
1.1
 24
4.75
 34
0
 50
90
 53
0
  0
DIMENSION
  8
0
  6
CONTINUOUS
 62
7
  2
*D1
  3
DMST_1
 10
4.535000000000001
 20
5.6548639854085
 30
0
 11
2.91424159285756
 21
5.6548639854085
 31
0
 12
0
 22
0
 32
0
 70
0
 13
1.275000000000002
 23
5.269999999999999
 33
0
 14
4.535000000000002
 24
5.269999999999999
 34
0
 53
0
  0
DIMENSION
  8
0
  6
CONTINUOUS
 62
7
  2
*D2
  3
DMST_1
 10
5.10419198461364
 20
3.3
 30
0
 11
5.10419198461364
 21
4.0153929270993
 31
0
 12
0
 22
0
 32
0
 70
0
 13
4.710000000000002
 23
4.75
 33
0
 14
4.710000000000002
 24
3.3
 34
0
 50
90
 53
0
  0
DIMENSION
  8
0
  6
CONTINUOUS
 62
7
  2
*D3
  3
DMST_2
 10
1.275000000000003
 20
11.5306325228524
 30
0
 11
2.842439940668831
 21
11.5306325228524
 31
0
 12
0
 22
0
 32
0
 70
0
 13
4.535000000000002
 23
11.2
 33
0
 14
1.275000000000002
 24
11.2
 34
0
 53
0
  0
INSERT
  8
0
  2
*D4
 10
0
 20
0
 30
0
  0
ENDSEC
  0
EOF
